  0
SECTION
  2
HEADER
  9
$ACADVER
  1
AC1024
  9
$ACADMAINTVER
 70
     6
  9
$DWGCODEPAGE
  3
ANSI_1252
  9
$INSBASE
 10
0.0
 20
0.0
 30
0.0
  9
$EXTMIN
 10
0.0
 20
0.0
 30
0.0
  9
$EXTMAX
 10
594.0
 20
841.0
 30
0.0
  9
$LIMMIN
 10
0.0
 20
0.0
  9
$LIMMAX
 10
594.0
 20
841.0
  9
$ORTHOMODE
 70
     0
  9
$REGENMODE
 70
     1
  9
$FILLMODE
 70
     1
  9
$QTEXTMODE
 70
     0
  9
$MIRRTEXT
 70
     1
  9
$LTSCALE
 40
1.0
  9
$ATTMODE
 70
     1
  9
$TEXTSIZE
 40
10.0
  9
$TRACEWID
 40
1.0
  9
$TEXTSTYLE
  7
Standard
  9
$CLAYER
  8
0
  9
$CELTYPE
  6
ByLayer
  9
$CECOLOR
 62
   256
  9
$CELTSCALE
 40
1.0
  9
$DISPSILH
 70
     0
  9
$DIMSCALE
 40
1.0
  9
$DIMASZ
 40
2.5
  9
$DIMEXO
 40
0.0
  9
$DIMDLI
 40
3.75
  9
$DIMRND
 40
0.0
  9
$DIMDLE
 40
0.0
  9
$DIMEXE
 40
1.0
  9
$DIMTP
 40
0.0
  9
$DIMTM
 40
0.0
  9
$DIMTXT
 40
3.5
  9
$DIMCEN
 40
2.5
  9
$DIMTSZ
 40
0.0
  9
$DIMTOL
 70
     0
  9
$DIMLIM
 70
     0
  9
$DIMTIH
 70
     1
  9
$DIMTOH
 70
     1
  9
$DIMSE1
 70
     0
  9
$DIMSE2
 70
     0
  9
$DIMTAD
 70
     1
  9
$DIMZIN
 70
     0
  9
$DIMBLK
  1

  9
$DIMASO
 70
     1
  9
$DIMSHO
 70
     1
  9
$DIMPOST
  1

  9
$DIMAPOST
  1

  9
$DIMALT
 70
     0
  9
$DIMALTD
 70
     3
  9
$DIMALTF
 40
0.0393700787
  9
$DIMLFAC
 40
1.0
  9
$DIMTOFL
 70
     1
  9
$DIMTVP
 40
0.0
  9
$DIMTIX
 70
     0
  9
$DIMSOXD
 70
     0
  9
$DIMSAH
 70
     0
  9
$DIMBLK1
  1

  9
$DIMBLK2
  1

  9
$DIMSTYLE
  2
ISO-25
  9
$DIMCLRD
 70
     0
  9
$DIMCLRE
 70
     0
  9
$DIMCLRT
 70
     0
  9
$DIMTFAC
 40
1.0
  9
$DIMGAP
 40
1.5
  9
$DIMJUST
 70
     0
  9
$DIMSD1
 70
     0
  9
$DIMSD2
 70
     0
  9
$DIMTOLJ
 70
     0
  9
$DIMTZIN
 70
     0
  9
$DIMALTZ
 70
     0
  9
$DIMALTTZ
 70
     0
  9
$DIMUPT
 70
     0
  9
$DIMDEC
 70
     2
  9
$DIMTDEC
 70
     2
  9
$DIMALTU
 70
     2
  9
$DIMALTTD
 70
     3
  9
$DIMTXSTY
  7
Standard
  9
$DIMAUNIT
 70
     0
  9
$DIMADEC
 70
     2
  9
$DIMALTRND
 40
0.0
  9
$DIMAZIN
 70
     0
  9
$DIMDSEP
 70
    44
  9
$DIMATFIT
 70
     3
  9
$DIMFRAC
 70
     0
  9
$DIMLDRBLK
  1

  9
$DIMLUNIT
 70
     2
  9
$DIMLWD
 70
    -2
  9
$DIMLWE
 70
    -2
  9
$DIMTMOVE
 70
     0
  9
$DIMFXL
 40
1.0
  9
$DIMFXLON
 70
     0
  9
$DIMJOGANG
 40
0.7853981634
  9
$DIMTFILL
 70
     0
  9
$DIMTFILLCLR
 70
     0
  9
$DIMARCSYM
 70
     0
  9
$DIMLTYPE
  6

  9
$DIMLTEX1
  6

  9
$DIMLTEX2
  6

  9
$DIMTXTDIRECTION
 70
     0
  9
$LUNITS
 70
     2
  9
$LUPREC
 70
     2
  9
$SKETCHINC
 40
1.0
  9
$FILLETRAD
 40
10.0
  9
$AUNITS
 70
     0
  9
$AUPREC
 70
     2
  9
$MENU
  1
.
  9
$ELEVATION
 40
0.0
  9
$PELEVATION
 40
0.0
  9
$THICKNESS
 40
0.0
  9
$LIMCHECK
 70
     0
  9
$CHAMFERA
 40
10.0
  9
$CHAMFERB
 40
10.0
  9
$CHAMFERC
 40
20.0
  9
$CHAMFERD
 40
0.0
  9
$SKPOLY
 70
     0
  9
$TDCREATE
 40
2456196.268548958
  9
$TDUCREATE
 40
2456196.185215625
  9
$TDUPDATE
 40
2456196.26854897
  9
$TDUUPDATE
 40
2456196.185215637
  9
$TDINDWG
 40
0.0000000116
  9
$TDUSRTIMER
 40
0.0000000116
  9
$USRTIMER
 70
     1
  9
$ANGBASE
 50
0.0
  9
$ANGDIR
 70
     0
  9
$PDMODE
 70
     0
  9
$PDSIZE
 40
-1.0
  9
$PLINEWID
 40
0.0
  9
$SPLFRAME
 70
     0
  9
$SPLINETYPE
 70
     6
  9
$SPLINESEGS
 70
     8
  9
$HANDSEED
  5
1F2
  9
$SURFTAB1
 70
     6
  9
$SURFTAB2
 70
     6
  9
$SURFTYPE
 70
     6
  9
$SURFU
 70
     6
  9
$SURFV
 70
     6
  9
$UCSBASE
  2

  9
$UCSNAME
  2

  9
$UCSORG
 10
0.0
 20
0.0
 30
0.0
  9
$UCSXDIR
 10
1.0
 20
0.0
 30
0.0
  9
$UCSYDIR
 10
0.0
 20
1.0
 30
0.0
  9
$UCSORTHOREF
  2

  9
$UCSORTHOVIEW
 70
     0
  9
$UCSORGTOP
 10
0.0
 20
0.0
 30
0.0
  9
$UCSORGBOTTOM
 10
0.0
 20
0.0
 30
0.0
  9
$UCSORGLEFT
 10
0.0
 20
0.0
 30
0.0
  9
$UCSORGRIGHT
 10
0.0
 20
0.0
 30
0.0
  9
$UCSORGFRONT
 10
0.0
 20
0.0
 30
0.0
  9
$UCSORGBACK
 10
0.0
 20
0.0
 30
0.0
  9
$PUCSBASE
  2

  9
$PUCSNAME
  2

  9
$PUCSORG
 10
0.0
 20
0.0
 30
0.0
  9
$PUCSXDIR
 10
1.0
 20
0.0
 30
0.0
  9
$PUCSYDIR
 10
0.0
 20
1.0
 30
0.0
  9
$PUCSORTHOREF
  2

  9
$PUCSORTHOVIEW
 70
     0
  9
$PUCSORGTOP
 10
0.0
 20
0.0
 30
0.0
  9
$PUCSORGBOTTOM
 10
0.0
 20
0.0
 30
0.0
  9
$PUCSORGLEFT
 10
0.0
 20
0.0
 30
0.0
  9
$PUCSORGRIGHT
 10
0.0
 20
0.0
 30
0.0
  9
$PUCSORGFRONT
 10
0.0
 20
0.0
 30
0.0
  9
$PUCSORGBACK
 10
0.0
 20
0.0
 30
0.0
  9
$USERI1
 70
     0
  9
$USERI2
 70
     0
  9
$USERI3
 70
     0
  9
$USERI4
 70
     0
  9
$USERI5
 70
     0
  9
$USERR1
 40
0.0
  9
$USERR2
 40
0.0
  9
$USERR3
 40
0.0
  9
$USERR4
 40
0.0
  9
$USERR5
 40
0.0
  9
$WORLDVIEW
 70
     1
  9
$SHADEDGE
 70
     3
  9
$SHADEDIF
 70
    70
  9
$TILEMODE
 70
     1
  9
$MAXACTVP
 70
    64
  9
$PINSBASE
 10
0.0
 20
0.0
 30
0.0
  9
$PLIMCHECK
 70
     0
  9
$PEXTMIN
 10
1.0000000000E+20
 20
1.0000000000E+20
 30
1.0000000000E+20
  9
$PEXTMAX
 10
-1.0000000000E+20
 20
-1.0000000000E+20
 30
-1.0000000000E+20
  9
$PLIMMIN
 10
0.0
 20
0.0
  9
$PLIMMAX
 10
420.0
 20
297.0
  9
$UNITMODE
 70
     0
  9
$VISRETAIN
 70
     1
  9
$PLINEGEN
 70
     0
  9
$PSLTSCALE
 70
     1
  9
$TREEDEPTH
 70
  3020
  9
$CMLSTYLE
  2
Standard
  9
$CMLJUST
 70
     0
  9
$CMLSCALE
 40
20.0
  9
$PROXYGRAPHICS
 70
     1
  9
$MEASUREMENT
 70
     1
  9
$CELWEIGHT
370
    -1
  9
$ENDCAPS
280
     0
  9
$JOINSTYLE
280
     0
  9
$LWDISPLAY
290
     1
  9
$INSUNITS
 70
     4
  9
$HYPERLINKBASE
  1

  9
$STYLESHEET
  1

  9
$XEDIT
290
     1
  9
$CEPSNTYPE
380
     0
  9
$PSTYLEMODE
290
     1
  9
$FINGERPRINTGUID
  2
{A44AF362-40E3-47A0-950B-B3D0512F7A71}
  9
$VERSIONGUID
  2
{FAEB1C32-E019-11D5-929B-00C0DF256EC4}
  9
$EXTNAMES
290
     1
  9
$PSVPSCALE
 40
0.0
  9
$OLESTARTUP
290
     0
  9
$SORTENTS
280
   127
  9
$INDEXCTL
280
     0
  9
$HIDETEXT
280
     1
  9
$XCLIPFRAME
280
     2
  9
$HALOGAP
280
     0
  9
$OBSCOLOR
 70
   257
  9
$OBSLTYPE
280
     0
  9
$INTERSECTIONDISPLAY
280
     0
  9
$INTERSECTIONCOLOR
 70
   257
  9
$DIMASSOC
280
     2
  9
$PROJECTNAME
  1

  9
$CAMERADISPLAY
290
     0
  9
$LENSLENGTH
 40
50.0
  9
$CAMERAHEIGHT
 40
0.0
  9
$STEPSPERSEC
 40
2.0
  9
$STEPSIZE
 40
6.0
  9
$3DDWFPREC
 40
2.0
  9
$PSOLWIDTH
 40
5.0
  9
$PSOLHEIGHT
 40
80.0
  9
$LOFTANG1
 40
1.5707963268
  9
$LOFTANG2
 40
1.5707963268
  9
$LOFTMAG1
 40
0.0
  9
$LOFTMAG2
 40
0.0
  9
$LOFTPARAM
 70
     7
  9
$LOFTNORMALS
280
     1
  9
$LATITUDE
 40
37.795
  9
$LONGITUDE
 40
-122.394
  9
$NORTHDIRECTION
 40
0.0
  9
$TIMEZONE
 70
 -8000
  9
$LIGHTGLYPHDISPLAY
280
     1
  9
$TILEMODELIGHTSYNCH
280
     1
  9
$SOLIDHIST
280
     1
  9
$SHOWHIST
280
     1
  9
$DWFFRAME
280
     2
  9
$DGNFRAME
280
     2
  9
$REALWORLDSCALE
290
     1
  9
$INTERFERECOLOR
 62
   256
  9
$CSHADOW
280
     0
  9
$SHADOWPLANELOCATION
 40
0.0
  0
ENDSEC
  0
SECTION
  2
CLASSES
  0
CLASS
  1
ACDBDICTIONARYWDFLT
  2
AcDbDictionaryWithDefault
  3
ObjectDBX Classes
 90
        0
 91
        4
280
     0
281
     0
  0
CLASS
  1
VISUALSTYLE
  2
AcDbVisualStyle
  3
ObjectDBX Classes
 90
     4095
 91
        4
280
     0
281
     0
  0
CLASS
  1
MATERIAL
  2
AcDbMaterial
  3
ObjectDBX Classes
 90
     1153
 91
        4
280
     0
281
     0
  0
ENDSEC
  0
SECTION
  2
TABLES
  0
TABLE
  2
VPORT
  5
8
330
0
100
AcDbSymbolTable
 70
     1
  0
VPORT
  5
29
330
8
100
AcDbSymbolTableRecord
100
AcDbViewportTableRecord
  2
*Active
 70
     0
 10
0.0
 20
0.0
 11
1.0
 21
1.0
 12
297.0
 22
420.5
 13
0.0
 23
0.0
 14
10.0
 24
10.0
 15
10.0
 25
10.0
 16
0.0
 26
0.0
 36
1.0
 17
0.0
 27
0.0
 37
0.0
 40
841.0
 41
0.7063020214
 42
50.0
 43
0.0
 44
0.0
 50
0.0
 51
0.0
 71
     0
 72
  2000
 73
     1
 74
     3
 75
     0
 76
     0
 77
     0
 78
     0
281
     0
 65
     1
110
0.0
120
0.0
130
0.0
111
1.0
121
0.0
131
0.0
112
0.0
122
1.0
132
0.0
 79
     0
146
0.0
 60
     3
 61
     5
292
     1
282
     1
141
0.0
142
0.0
 63
   250
  0
ENDTAB
  0
TABLE
  2
LTYPE
  5
5
330
0
100
AcDbSymbolTable
 70
     6
  0
LTYPE
  5
14
330
5
100
AcDbSymbolTableRecord
100
AcDbLinetypeTableRecord
  2
ByBlock
 70
     0
  3

 72
    65
 73
     0
 40
0.0
  0
LTYPE
  5
15
330
5
100
AcDbSymbolTableRecord
100
AcDbLinetypeTableRecord
  2
ByLayer
 70
     0
  3

 72
    65
 73
     0
 40
0.0
  0
LTYPE
  5
16
330
5
100
AcDbSymbolTableRecord
100
AcDbLinetypeTableRecord
  2
Continuous
 70
     0
  3
Solid line
 72
    65
 73
     0
 40
0.0
  0
LTYPE
  5
3F
330
5
100
AcDbSymbolTableRecord
100
AcDbLinetypeTableRecord
  2
HIDDEN
 70
     0
  3
Hidden __ __ __ __ __ __ __ __ __ __ __ __ __ __
 72
    65
 73
     2
 40
1.905
 49
1.27
 74
     0
 49
-0.635
 74
     0
  0
LTYPE
  5
40
330
5
100
AcDbSymbolTableRecord
100
AcDbLinetypeTableRecord
  2
PHANTOM
 70
     0
  3
Phantom ______  __  __  ______  __  __  ______
 72
    65
 73
     6
 40
12.7
 49
6.35
 74
     0
 49
-1.27
 74
     0
 49
1.27
 74
     0
 49
-1.27
 74
     0
 49
1.27
 74
     0
 49
-1.27
 74
     0
  0
LTYPE
  5
41
330
5
100
AcDbSymbolTableRecord
100
AcDbLinetypeTableRecord
  2
CENTER
 70
     0
  3
Center ____ _ ____ _ ____ _ ____ _ ____ _ ____
 72
    65
 73
     4
 40
10.16
 49
6.35
 74
     0
 49
-1.27
 74
     0
 49
1.27
 74
     0
 49
-1.27
 74
     0
  0
LTYPE
  5
42
330
5
100
AcDbSymbolTableRecord
100
AcDbLinetypeTableRecord
  2
CENTERX2
 70
     0
  3
Center (2x) ________  __  ________  __  _____
 72
    65
 73
     4
 40
20.32
 49
12.7
 74
     0
 49
-2.54
 74
     0
 49
2.54
 74
     0
 49
-2.54
 74
     0
  0
LTYPE
  5
43
330
5
100
AcDbSymbolTableRecord
100
AcDbLinetypeTableRecord
  2
DOT2
 70
     0
  3
Dot (.5x) ........................................
 72
    65
 73
     2
 40
0.635
 49
0.0
 74
     0
 49
-0.635
 74
     0
  0
ENDTAB
  0
TABLE
  2
LAYER
  5
2
330
0
100
AcDbSymbolTable
 70
     1
  0
LAYER
  5
10
330
2
100
AcDbSymbolTableRecord
100
AcDbLayerTableRecord
  2
0
 70
     0
 62
     7
  6
Continuous
370
    -3
390
F
347
3E
  0
ENDTAB
  0
TABLE
  2
STYLE
  5
3
330
0
100
AcDbSymbolTable
 70
     3
  0
STYLE
  5
11
330
3
100
AcDbSymbolTableRecord
100
AcDbTextStyleTableRecord
  2
Standard
 70
     0
 40
0.0
 41
1.0
 50
0.0
 71
     0
 42
2.5
  3
txt
  4

  0
STYLE
  5
47
330
3
100
AcDbSymbolTableRecord
100
AcDbTextStyleTableRecord
  2
SLDTEXTSTYLE0
 70
     0
 40
0.0
 41
0.96
 50
0.0
 71
     0
 42
0.2
  3
ISOCP3
  4

  0
STYLE
  5
5E
330
3
100
AcDbSymbolTableRecord
100
AcDbTextStyleTableRecord
  2
SLDTEXTSTYLE1
 70
     0
 40
0.0
 41
0.605
 50
0.0
 71
     0
 42
0.2
  3
TXT
  4

  0
ENDTAB
  0
TABLE
  2
VIEW
  5
6
330
0
100
AcDbSymbolTable
 70
     0
  0
ENDTAB
  0
TABLE
  2
UCS
  5
7
330
0
100
AcDbSymbolTable
 70
     0
  0
ENDTAB
  0
TABLE
  2
APPID
  5
9
330
0
100
AcDbSymbolTable
 70
     1
  0
APPID
  5
12
330
9
100
AcDbSymbolTableRecord
100
AcDbRegAppTableRecord
  2
ACAD
 70
     0
  0
ENDTAB
  0
TABLE
  2
DIMSTYLE
  5
A
330
0
100
AcDbSymbolTable
 70
     2
100
AcDbDimStyleTable
  0
DIMSTYLE
105
27
330
A
100
AcDbSymbolTableRecord
100
AcDbDimStyleTableRecord
  2
ISO-25
 70
     0
 41
2.5
 42
0.625
 43
3.75
 44
1.25
 73
     0
 74
     0
 77
     1
 78
     8
140
2.5
141
2.5
143
0.0393700787
147
0.625
171
     3
172
     1
178
     0
271
     2
272
     2
274
     3
278
    44
283
     0
284
     8
340
11
  0
DIMSTYLE
105
48
102
{ACAD_REACTORS
330
46
330
53
102
}
330
A
100
AcDbSymbolTableRecord
100
AcDbDimStyleTableRecord
  2
SLDDIMSTYLE0
 70
     0
 41
2.5
 44
0.0
 45
0.000000001
 73
     0
 74
     0
 77
     1
 78
    12
 79
     3
140
6.0
147
1.5
173
     1
178
     0
271
     2
272
     2
276
     2
284
    12
340
47
  0
ENDTAB
  0
TABLE
  2
BLOCK_RECORD
  5
1
330
0
100
AcDbSymbolTable
 70
     3
  0
BLOCK_RECORD
  5
1F
330
1
100
AcDbSymbolTableRecord
100
AcDbBlockTableRecord
  2
*Model_Space
340
22
 70
     0
280
     1
281
     0
  0
BLOCK_RECORD
  5
1B
330
1
100
AcDbSymbolTableRecord
100
AcDbBlockTableRecord
  2
*Paper_Space
340
1E
 70
     0
280
     1
281
     0
  0
BLOCK_RECORD
  5
23
330
1
100
AcDbSymbolTableRecord
100
AcDbBlockTableRecord
  2
*Paper_Space0
340
26
 70
     0
280
     1
281
     0
  0
BLOCK_RECORD
  5
49
330
1
100
AcDbSymbolTableRecord
100
AcDbBlockTableRecord
  2
*D1
340
0
 70
     0
280
     1
281
     0
  0
BLOCK_RECORD
  5
54
330
1
100
AcDbSymbolTableRecord
100
AcDbBlockTableRecord
  2
*D2
340
0
 70
     0
280
     1
281
     0
  0
ENDTAB
  0
ENDSEC
  0
SECTION
  2
BLOCKS
  0
BLOCK
  5
20
330
1F
100
AcDbEntity
  8
0
100
AcDbBlockBegin
  2
*Model_Space
 70
     0
 10
0.0
 20
0.0
 30
0.0
  3
*Model_Space
  1

  0
ENDBLK
  5
21
330
1F
100
AcDbEntity
  8
0
100
AcDbBlockEnd
  0
BLOCK
  5
1C
330
1B
100
AcDbEntity
 67
     1
  8
0
100
AcDbBlockBegin
  2
*Paper_Space
 70
     0
 10
0.0
 20
0.0
 30
0.0
  3
*Paper_Space
  1

  0
ENDBLK
  5
1D
330
1B
100
AcDbEntity
 67
     1
  8
0
100
AcDbBlockEnd
  0
BLOCK
  5
24
330
23
100
AcDbEntity
  8
0
100
AcDbBlockBegin
  2
*Paper_Space0
 70
     0
 10
0.0
 20
0.0
 30
0.0
  3
*Paper_Space0
  1

  0
ENDBLK
  5
25
330
23
100
AcDbEntity
  8
0
100
AcDbBlockEnd
  0
BLOCK
  5
4A
330
49
100
AcDbEntity
  8
0
100
AcDbBlockBegin
  2
*D1
 70
     1
 10
0.0
 20
0.0
 30
0.0
  3
*D1
  1

  0
SOLID
  5
4C
330
49
100
AcDbEntity
  8
0
  6
Continuous
 62
     7
370
     0
100
AcDbTrace
 10
42.7614395004
 20
152.0299240879
 30
0.0
 11
42.4614395004
 21
149.5299240879
 31
0.0
 12
43.0614395004
 22
149.5299240879
 32
0.0
 13
43.0614395004
 23
149.5299240879
 33
0.0
  0
SOLID
  5
4D
330
49
100
AcDbEntity
  8
0
  6
Continuous
 62
     7
370
     0
100
AcDbTrace
 10
42.7614395004
 20
52.0299240879
 30
0.0
 11
43.0614395004
 21
54.5299240879
 31
0.0
 12
42.4614395004
 22
54.5299240879
 32
0.0
 13
42.4614395004
 23
54.5299240879
 33
0.0
  0
LINE
  5
4E
330
49
100
AcDbEntity
  8
0
  6
Continuous
 62
     7
370
     0
100
AcDbLine
 10
56.6850079902
 20
152.0299240879
 30
0.0
 11
41.7614395004
 21
152.0299240879
 31
0.0
  0
LINE
  5
4F
330
49
100
AcDbEntity
  8
0
  6
Continuous
 62
     7
370
     0
100
AcDbLine
 10
56.6850079902
 20
52.0299240879
 30
0.0
 11
41.7614395004
 21
52.0299240879
 31
0.0
  0
LINE
  5
50
330
49
100
AcDbEntity
  8
0
  6
Continuous
 62
     7
370
     0
100
AcDbLine
 10
42.7614395004
 20
152.0299240879
 30
0.0
 11
42.7614395004
 21
52.0299240879
 31
0.0
  0
MTEXT
  5
51
330
49
100
AcDbEntity
  8
0
  6
Continuous
 62
     7
370
     0
100
AcDbMText
 10
35.0270332946
 20
91.6722208134
 30
0.1
 40
6.0
 41
0.0
 46
0.0
 71
     1
 72
     1
  1
100
  7
SLDTEXTSTYLE0
 11
-7.044195017643634E-15
 21
1.0
 31
0.0
 73
     1
 44
1.0
  0
MTEXT
  5
52
330
49
100
AcDbEntity
  8
0
  6
Continuous
 62
     7
370
     0
100
AcDbMText
 10
35.0270332946
 20
108.4388881795
 30
0.1
 40
6.0
 41
0.0
 46
0.0
 71
     1
 72
     1
  1
mm
  7
SLDTEXTSTYLE0
 11
-7.044195017643634E-15
 21
1.0
 31
0.0
 73
     1
 44
1.0
  0
ENDBLK
  5
4B
330
49
100
AcDbEntity
  8
0
100
AcDbBlockEnd
  0
BLOCK
  5
55
330
54
100
AcDbEntity
  8
0
100
AcDbBlockBegin
  2
*D2
 70
     1
 10
0.0
 20
0.0
 30
0.0
  3
*D2
  1

  0
SOLID
  5
57
330
54
100
AcDbEntity
  8
0
  6
Continuous
 62
     7
370
     0
100
AcDbTrace
 10
56.6850079902
 20
38.4602342313
 30
0.0
 11
59.1850079902
 21
38.1602342313
 31
0.0
 12
59.1850079902
 22
38.7602342313
 32
0.0
 13
59.1850079902
 23
38.7602342313
 33
0.0
  0
SOLID
  5
58
330
54
100
AcDbEntity
  8
0
  6
Continuous
 62
     7
370
     0
100
AcDbTrace
 10
156.6850079902
 20
38.4602342313
 30
0.0
 11
154.1850079902
 21
38.7602342313
 31
0.0
 12
154.1850079902
 22
38.1602342313
 32
0.0
 13
154.1850079902
 23
38.1602342313
 33
0.0
  0
LINE
  5
59
330
54
100
AcDbEntity
  8
0
  6
Continuous
 62
     7
370
     0
100
AcDbLine
 10
56.6850079902
 20
52.0299240879
 30
0.0
 11
56.6850079902
 21
37.4602342313
 31
0.0
  0
LINE
  5
5A
330
54
100
AcDbEntity
  8
0
  6
Continuous
 62
     7
370
     0
100
AcDbLine
 10
156.6850079902
 20
52.0299240879
 30
0.0
 11
156.6850079902
 21
37.4602342313
 31
0.0
  0
LINE
  5
5B
330
54
100
AcDbEntity
  8
0
  6
Continuous
 62
     7
370
     0
100
AcDbLine
 10
56.6850079902
 20
38.4602342313
 30
0.0
 11
156.6850079902
 21
38.4602342313
 31
0.0
  0
MTEXT
  5
5C
330
54
100
AcDbEntity
  8
0
  6
Continuous
 62
     7
370
     0
100
AcDbMText
 10
91.2668151533
 20
46.1946404371
 30
0.1
 40
6.0
 41
0.0
 46
0.0
 71
     1
 72
     1
  1
100
  7
SLDTEXTSTYLE0
 73
     1
 44
1.0
  0
MTEXT
  5
5D
330
54
100
AcDbEntity
  8
0
  6
Continuous
 62
     7
370
     0
100
AcDbMText
 10
108.0334825193
 20
46.1946404371
 30
0.1
 40
6.0
 41
0.0
 46
0.0
 71
     1
 72
     1
  1
mm
  7
SLDTEXTSTYLE0
 73
     1
 44
1.0
  0
ENDBLK
  5
56
330
54
100
AcDbEntity
  8
0
100
AcDbBlockEnd
  0
ENDSEC
  0
SECTION
  2
ENTITIES
  0
LINE
  5
44
330
1F
100
AcDbEntity
  8
0
  6
Continuous
 62
     7
370
     0
100
AcDbLine
 10
56.6850079902
 20
152.0299240879
 30
0.0
 11
56.6850079902
 21
52.0299240879
 31
0.0
  0
LINE
  5
45
330
1F
100
AcDbEntity
  8
0
  6
Continuous
 62
     7
370
     0
100
AcDbLine
 10
56.6850079902
 20
52.0299240879
 30
0.0
 11
156.6850079902
 21
52.0299240879
 31
0.0
  0
DIMENSION
  5
46
330
1F
100
AcDbEntity
  8
0
  6
Continuous
 62
     7
370
     0
100
AcDbDimension
280
     0
  2
*D1
 10
42.7614395004
 20
52.0299240879
 30
0.0
 11
42.7614395004
 21
105.4472211621
 31
0.0
 70
   160
  1
<>mm
 71
     2
 42
-1.0
 73
     0
 74
     0
 75
     0
  3
SLDDIMSTYLE0
100
AcDbAlignedDimension
 13
56.6850079902
 23
152.0299240879
 33
0.0
 14
56.6850079902
 24
52.0299240879
 34
0.0
 50
90.0
100
AcDbRotatedDimension
  0
DIMENSION
  5
53
330
1F
100
AcDbEntity
  8
0
  6
Continuous
 62
     7
370
     0
100
AcDbDimension
280
     0
  2
*D2
 10
156.6850079902
 20
38.4602342313
 30
0.0
 11
105.0418155019
 21
38.4602342313
 31
0.0
 70
   160
  1
<>mm
 71
     2
 42
-1.0
 73
     0
 74
     0
 75
     0
  3
SLDDIMSTYLE0
100
AcDbAlignedDimension
 13
56.6850079902
 23
52.0299240879
 33
0.0
 14
156.6850079902
 24
52.0299240879
 34
0.0
100
AcDbRotatedDimension
  0
MTEXT
  5
5F
330
1F
100
AcDbEntity
  8
0
  6
Continuous
 62
     7
370
     0
100
AcDbMText
 10
268.8332523352
 20
48.2223368773
 30
0.0
 40
10.0
 41
0.0
 46
0.0
 71
     1
 72
     1
  1
42 023 05 78
  7
SLDTEXTSTYLE1
 73
     1
 44
1.0
  0
MTEXT
  5
60
330
1F
100
AcDbEntity
  8
0
  6
Continuous
 62
     7
370
     0
100
AcDbMText
 10
412.8252631579
 20
48.4342449499
 30
0.0
 40
10.0
 41
0.0
 46
0.0
 71
     1
 72
     1
  1
KLUDI GmbH & Co KG
  7
SLDTEXTSTYLE1
 73
     1
 44
1.0
  0
LINE
  5
61
330
1F
100
AcDbEntity
  8
0
  6
Continuous
 62
     7
370
    15
100
AcDbLine
 10
195.8183110733
 20
522.8179552518
 30
0.0
 11
195.8183110733
 21
523.7604685985
 31
0.0
  0
LINE
  5
62
330
1F
100
AcDbEntity
  8
0
  6
Continuous
 62
     7
370
    15
100
AcDbLine
 10
173.7523111556
 20
523.7604685985
 30
0.0
 11
173.7523111556
 21
522.8179552518
 31
0.0
  0
LINE
  5
63
330
1F
100
AcDbEntity
  8
0
  6
Continuous
 62
     7
370
    15
100
AcDbLine
 10
195.8183110733
 20
523.7604685985
 30
0.0
 11
195.8183110733
 21
539.3119164668
 31
0.0
  0
LINE
  5
64
330
1F
100
AcDbEntity
  8
0
  6
Continuous
 62
     7
370
    15
100
AcDbLine
 10
173.7523111556
 20
539.3119164668
 30
0.0
 11
173.7523111556
 21
523.7604685985
 31
0.0
  0
ARC
  5
65
330
1F
100
AcDbEntity
  8
0
  6
Continuous
 62
     7
370
    15
100
AcDbCircle
 10
184.7853108385
 20
592.1082188855
 30
0.0
 40
11.03300000000002
100
AcDbArc
 50
0.0
 51
180.0
  0
LINE
  5
66
330
1F
100
AcDbEntity
  8
0
  6
Continuous
 62
     7
370
    15
100
AcDbLine
 10
173.7523111556
 20
522.8179552518
 30
0.0
 11
173.7523111556
 21
511.8682243787
 31
0.0
  0
LINE
  5
67
330
1F
100
AcDbEntity
  8
0
  6
Continuous
 62
     7
370
    15
100
AcDbLine
 10
173.7523111556
 20
592.1082206928
 30
0.0
 11
173.7523111556
 21
539.3119164668
 31
0.0
  0
LINE
  5
68
330
1F
100
AcDbEntity
  8
0
  6
Continuous
 62
     7
370
    15
100
AcDbLine
 10
195.8183110733
 20
539.3119164668
 30
0.0
 11
195.8183110733
 21
592.1082206928
 31
0.0
  0
LINE
  5
69
330
1F
100
AcDbEntity
  8
0
  6
Continuous
 62
     7
370
    15
100
AcDbLine
 10
195.8183110733
 20
511.8682243787
 30
0.0
 11
195.8183110733
 21
522.8179552518
 31
0.0
  0
SPLINE
  5
6A
330
1F
100
AcDbEntity
  8
0
  6
Continuous
 62
     7
370
    15
100
AcDbSpline
210
0.0
220
0.0
230
1.0
 70
     8
 71
     3
 72
     9
 73
     5
 74
     0
 42
0.00000001
 43
0.00000001
 40
0.0
 40
0.0
 40
0.0
 40
0.0
 40
0.4828738209031731
 40
1.0
 40
1.0
 40
1.0
 40
1.0
 10
153.7341089028912
 20
473.1583007537217
 30
0.0
 10
153.5339552708577
 20
473.1041376864873
 30
0.0
 10
153.119450231717
 20
472.9919695280789
 30
0.0
 10
152.7142197004785
 20
472.8498584499844
 30
0.0
 10
152.5046643842058
 20
472.7763690911622
 30
0.0
  0
SPLINE
  5
6B
330
1F
100
AcDbEntity
  8
0
  6
Continuous
 62
     7
370
    15
100
AcDbSpline
210
0.0
220
0.0
230
1.0
 70
     8
 71
     3
 72
     9
 73
     5
 74
     0
 42
0.00000001
 43
0.00000001
 40
0.0
 40
0.0
 40
0.0
 40
0.0
 40
0.5002980042475681
 40
1.0
 40
1.0
 40
1.0
 40
1.0
 10
152.5046606589155
 20
472.7763690911622
 30
0.0
 10
152.2968240292261
 20
472.697841239778
 30
0.0
 10
151.8813983670709
 20
472.5408790877856
 30
0.0
 10
151.4785367089309
 20
472.3540158400629
 30
0.0
 10
151.2772259343462
 20
472.2606399022431
 30
0.0
  0
SPLINE
  5
6C
330
1F
100
AcDbEntity
  8
0
  6
Continuous
 62
     7
370
    15
100
AcDbSpline
210
0.0
220
0.0
230
1.0
 70
     8
 71
     3
 72
    22
 73
    18
 74
     0
 42
0.00000001
 43
0.00000001
 40
0.0
 40
0.0
 40
0.0
 40
0.0
 40
0.0112186812348918
 40
0.0199649457139946
 40
0.0352710879175661
 40
0.0617990238934066
 40
0.1067299328294183
 40
0.1797371207216862
 40
0.3147328637047787
 40
0.3829974162491718
 40
0.4353384576598583
 40
0.4785614672772329
 40
0.5190149054685378
 40
0.568728161227498
 40
0.6913142939511376
 40
0.8427801412605224
 40
0.9999999999999999
 40
0.9999999999999999
 40
0.9999999999999999
 40
0.9999999999999999
 10
194.1856169182854
 20
405.1528879367203
 30
0.0
 10
194.1011938420354
 20
405.1908312915664
 30
0.0
 10
193.9509531765731
 20
405.258355896629
 30
0.0
 10
193.6856229428154
 20
405.3766056114429
 30
0.0
 10
193.3046852850141
 20
405.5448683866917
 30
0.0
 10
192.6511670434338
 20
405.8294348835377
 30
0.0
 10
191.5639075305341
 20
406.2932317986579
 30
0.0
 10
189.6701863939604
 20
407.0828610628044
 30
0.0
 10
187.6402487210054
 20
407.9301794908484
 30
0.0
 10
185.8234281486793
 20
408.7572630498317
 30
0.0
 10
184.6827192208526
 20
409.3188898490493
 30
0.0
 10
183.7685946315674
 20
409.8083779019018
 30
0.0
 10
183.1239912871861
 20
410.1731200694633
 30
0.0
 10
182.2932936203328
 20
410.6675588496604
 30
0.0
 10
181.3321701769702
 20
411.3155731159401
 30
0.0
 10
180.3473143992737
 20
412.1391205511374
 30
0.0
 10
179.8624519918182
 20
412.7149481566413
 30
0.0
 10
179.6155017841654
 20
413.0082287751526
 30
0.0
  0
LINE
  5
6D
330
1F
100
AcDbEntity
  8
0
  6
Continuous
 62
     7
370
    15
100
AcDbLine
 10
170.1547768939
 20
409.5648907982
 30
0.0
 11
170.1395479072
 21
409.1476955377
 31
0.0
  0
LINE
  5
6E
330
1F
100
AcDbEntity
  8
0
  6
Continuous
 62
     7
370
    15
100
AcDbLine
 10
160.7133117545
 20
415.9814202153
 30
0.0
 11
160.7133117545
 21
331.9300188609
 31
0.0
  0
LINE
  5
6F
330
1F
100
AcDbEntity
  8
0
  6
Continuous
 62
     7
370
    15
100
AcDbLine
 10
208.8573114056
 20
331.9300188609
 30
0.0
 11
208.8573114056
 21
415.9814202153
 31
0.0
  0
ARC
  5
70
330
1F
100
AcDbEntity
  8
0
  6
Continuous
 62
     7
370
    15
100
AcDbCircle
 10
208.6567108385
 20
415.9814188855
 30
0.0
 40
0.2005999999999801
100
AcDbArc
 50
0.0
 51
90.0
  0
ARC
  5
71
330
1F
100
AcDbEntity
  8
0
  6
Continuous
 62
     7
370
    15
100
AcDbCircle
 10
160.9139108385
 20
415.9814188855
 30
0.0
 40
0.2005999999999801
100
AcDbArc
 50
90.0
 51
180.0
  0
ARC
  5
72
330
1F
100
AcDbEntity
  8
0
  6
Continuous
 62
     7
370
    15
100
AcDbCircle
 10
168.2358108385
 20
424.9253336496
 30
0.0
 40
7.522500000000038
100
AcDbArc
 50
129.102529393
 51
180.0
  0
ARC
  5
73
330
1F
100
AcDbEntity
  8
0
  6
Continuous
 62
     7
370
    15
100
AcDbCircle
 10
201.3348108385
 20
424.9253336496
 30
0.0
 40
7.522500000000052
100
AcDbArc
 50
0.0
 51
53.53076561
  0
LINE
  5
74
330
1F
100
AcDbEntity
  8
0
  6
Continuous
 62
     7
370
    15
100
AcDbLine
 10
160.7133117545
 20
424.9253355824
 30
0.0
 11
160.7133117545
 21
416.3826190792
 31
0.0
  0
LINE
  5
75
330
1F
100
AcDbEntity
  8
0
  6
Continuous
 62
     7
370
    15
100
AcDbLine
 10
208.8573114056
 20
416.3826190792
 30
0.0
 11
208.8573114056
 21
424.9253355824
 31
0.0
  0
ARC
  5
76
330
1F
100
AcDbEntity
  8
0
  6
Continuous
 62
     7
370
    15
100
AcDbCircle
 10
160.9139108385
 20
416.3826188855
 30
0.0
 40
0.2006000000000085
100
AcDbArc
 50
180.0
 51
270.0
  0
ARC
  5
77
330
1F
100
AcDbEntity
  8
0
  6
Continuous
 62
     7
370
    15
100
AcDbCircle
 10
208.6567108385
 20
416.3826188855
 30
0.0
 40
0.2006000000000085
100
AcDbArc
 50
270.0
 51
0.0
  0
LINE
  5
78
330
1F
100
AcDbEntity
  8
0
  6
Continuous
 62
     7
370
    15
100
AcDbLine
 10
205.8061179746
 20
430.9747450911
 30
0.0
 11
197.4556776736
 21
437.1468135082
 31
0.0
  0
LINE
  5
79
330
1F
100
AcDbEntity
  8
0
  6
Continuous
 62
     7
370
    15
100
AcDbLine
 10
172.1149445552
 20
437.1468135082
 30
0.0
 11
170.245234393
 21
435.7648500167
 31
0.0
  0
ARC
  5
7A
330
1F
100
AcDbEntity
  8
0
  6
Continuous
 62
     7
370
    15
100
AcDbCircle
 10
172.4130314676
 20
436.7435188855
 30
0.0
 40
0.5015000000000214
100
AcDbArc
 50
90.0
 51
126.46923439
  0
ARC
  5
7B
330
1F
100
AcDbEntity
  8
0
  6
Continuous
 62
     7
370
    15
100
AcDbCircle
 10
197.1575902094
 20
436.7435188855
 30
0.0
 40
0.5015000000000214
100
AcDbArc
 50
53.53076561
 51
90.0
  0
LINE
  5
7C
330
1F
100
AcDbEntity
  8
0
  6
Continuous
 62
     7
370
    15
100
AcDbLine
 10
196.7711611692
 20
437.245019611
 30
0.0
 11
196.7711611692
 21
437.445619043
 31
0.0
  0
LINE
  5
7D
330
1F
100
AcDbEntity
  8
0
  6
Continuous
 62
     7
370
    15
100
AcDbLine
 10
172.7994610596
 20
437.445619043
 30
0.0
 11
172.7994610596
 21
437.245019611
 31
0.0
  0
LINE
  5
7E
330
1F
100
AcDbEntity
  8
0
  6
Continuous
 62
     7
370
    15
100
AcDbLine
 10
173.7523111556
 20
511.8682243787
 30
0.0
 11
173.7523111556
 21
437.445619043
 31
0.0
  0
LINE
  5
7F
330
1F
100
AcDbEntity
  8
0
  6
Continuous
 62
     7
370
    15
100
AcDbLine
 10
195.8183110733
 20
437.445619043
 30
0.0
 11
195.8183110733
 21
511.8682243787
 31
0.0
  0
ARC
  5
80
330
1F
100
AcDbEntity
  8
0
  6
Continuous
 62
     7
370
    15
100
AcDbCircle
 10
232.792668856
 20
398.0391549002
 30
0.0
 40
0.5014999999999221
100
AcDbArc
 50
84.0
 51
174.0
  0
ARC
  5
81
330
1F
100
AcDbEntity
  8
0
  6
Continuous
 62
     7
370
    15
100
AcDbCircle
 10
232.0587745154
 20
391.0566166728
 30
0.0
 40
0.5014999999999622
100
AcDbArc
 50
174.0
 51
264.0
  0
ARC
  5
82
330
1F
100
AcDbEntity
  8
0
  6
Continuous
 62
     7
370
    15
100
AcDbCircle
 10
250.5650465692
 20
389.6157915032
 30
0.0
 40
1.003000000000136
100
AcDbArc
 50
264.0
 51
354.0
  0
ARC
  5
83
330
1F
100
AcDbEntity
  8
0
  6
Continuous
 62
     7
370
    15
100
AcDbCircle
 10
251.1940988612
 20
395.6008242695
 30
0.0
 40
1.00300000000002
100
AcDbArc
 50
354.0
 51
84.0
  0
LINE
  5
84
330
1F
100
AcDbEntity
  8
0
  6
Continuous
 62
     7
370
    15
100
AcDbLine
 10
232.0063528646
 20
390.557863649
 30
0.0
 11
250.4602079321
 21
388.6182875298
 31
0.0
  0
LINE
  5
85
330
1F
100
AcDbEntity
  8
0
  6
Continuous
 62
     7
370
    15
100
AcDbLine
 10
251.2989421416
 20
396.598332461
 30
0.0
 11
232.8450907994
 21
398.5379048549
 31
0.0
  0
LINE
  5
86
330
1F
100
AcDbEntity
  8
0
  6
Continuous
 62
     7
370
    15
100
AcDbLine
 10
214.7304252762
 20
391.543921914
 30
0.0
 11
208.8573114056
 21
375.407670524
 31
0.0
  0
LINE
  5
87
330
1F
100
AcDbEntity
  8
0
  6
Continuous
 62
     7
370
    15
100
AcDbLine
 10
208.8573114056
 20
363.6773683988
 30
0.0
 11
218.500473075
 21
390.1717373096
 31
0.0
  0
LINE
  5
88
330
1F
100
AcDbEntity
  8
0
  6
Continuous
 62
     7
370
    15
100
AcDbLine
 10
232.1366523434
 20
396.5953149759
 30
0.0
 11
224.1566111375
 21
397.434056636
 31
0.0
  0
LINE
  5
89
330
1F
100
AcDbEntity
  8
0
  6
Continuous
 62
     7
370
    15
100
AcDbLine
 10
223.7372403074
 20
393.4440323078
 30
0.0
 11
231.7172852386
 21
392.6052980982
 31
0.0
  0
ARC
  5
8A
330
1F
100
AcDbEntity
  8
0
  6
Continuous
 62
     7
370
    15
100
AcDbCircle
 10
223.2130309261
 20
388.4565049727
 30
0.0
 40
5.015000000000122
100
AcDbArc
 50
84.0
 51
160.0
  0
ARC
  5
8B
330
1F
100
AcDbEntity
  8
0
  6
Continuous
 62
     7
370
    15
100
AcDbCircle
 10
223.2130309261
 20
388.4565049727
 30
0.0
 40
9.027000000000102
100
AcDbArc
 50
84.0
 51
160.0
  0
LWPOLYLINE
  5
8C
330
1F
100
AcDbEntity
  8
0
  6
Continuous
 62
     7
370
    15
100
AcDbPolyline
 90
       36
 70
   128
 43
0.0
 10
195.8183110733
 20
522.8179552518
 10
195.6410058815
 20
523.4917410575
 10
195.1147900004
 20
524.143875476
 10
194.2565762479
 20
524.7533925735
 10
193.093948536
 20
525.300697323
 10
191.6642738547
 20
525.7682063543
 10
190.0135036599
 20
526.1408992969
 10
188.1946953986
 20
526.4067807161
 10
186.2663064426
 20
526.5573122465
 10
184.2903171823
 20
526.5876659118
 10
182.3302374728
 20
526.4968582355
 10
180.4490657564
 20
526.2878098451
 10
178.7072643679
 20
525.9672262632
 10
177.1608167369
 20
525.5454339944
 10
175.859426618
 20
525.0359781944
 10
174.844921105
 20
524.455220338
 10
174.1499085952
 20
523.8218464815
 10
173.7967268605
 20
523.1562116109
 10
173.7967268605
 20
522.4796988927
 10
174.1499085952
 20
521.8140640222
 10
174.844921105
 20
521.1806901656
 10
175.859426618
 20
520.5999472104
 10
177.1608167369
 20
520.0904914104
 10
178.7072643679
 20
519.6686842405
 10
180.4490657564
 20
519.3481155597
 10
182.3302374728
 20
519.1390671693
 10
184.2903171823
 20
519.0482445918
 10
186.2663064426
 20
519.0785982572
 10
188.1946953986
 20
519.2291446887
 10
190.0135036599
 20
519.4950261079
 10
191.6642738547
 20
519.8677190505
 10
193.093948536
 20
520.3352280818
 10
194.2565762479
 20
520.8825328313
 10
195.1147900004
 20
521.4920499288
 10
195.6410058815
 20
522.1441694461
 10
195.8183110733
 20
522.8179552518
  0
SPLINE
  5
8D
330
1F
100
AcDbEntity
  8
0
  6
Continuous
 62
     7
370
    15
100
AcDbSpline
210
0.0
220
0.0
230
1.0
 70
     8
 71
     3
 72
    26
 73
    22
 74
     0
 42
0.00000001
 43
0.00000001
 40
0.0
 40
0.0
 40
0.0
 40
0.0
 40
0.1249999999999989
 40
0.1249999999999989
 40
0.2499999999999978
 40
0.2499999999999978
 40
0.3124999999999979
 40
0.3124999999999979
 40
0.3437499999999981
 40
0.3437499999999981
 40
0.3749999999999982
 40
0.3749999999999982
 40
0.4999999999999986
 40
0.4999999999999986
 40
0.6249999999999989
 40
0.6249999999999989
 40
0.7499999999999992
 40
0.7499999999999992
 40
0.8749999999999996
 40
0.8749999999999996
 40
1.0
 40
1.0
 40
1.0
 40
1.0
 10
176.0567787482231
 20
419.7977669626062
 30
0.0
 10
176.4057504142434
 20
418.8390402005079
 30
0.0
 10
176.7849413086186
 20
417.8905967227859
 30
0.0
 10
177.6409947779466
 20
416.0367634866941
 30
0.0
 10
178.1169737502613
 20
415.134335566684
 30
0.0
 10
178.9447564223048
 20
413.8619095169907
 30
0.0
 10
179.2402544957495
 20
413.4508888642383
 30
0.0
 10
179.7197780527473
 20
412.8586821259524
 30
0.0
 10
179.885634809193
 20
412.6653125876929
 30
0.0
 10
180.2302789174293
 20
412.2872376091365
 30
0.0
 10
180.4096092370158
 20
412.1020934672967
 30
0.0
 10
181.3268401680822
 20
411.2120390892449
 30
0.0
 10
182.1363354363601
 20
410.6074668123722
 30
0.0
 10
183.865477901915
 20
409.5545013015559
 30
0.0
 10
184.78573471752
 20
409.1024558290753
 30
0.0
 10
186.6479510370401
 20
408.2704752738119
 30
0.0
 10
187.5930069648193
 20
407.8874914338102
 30
0.0
 10
189.4848328273975
 20
407.1254979179359
 30
0.0
 10
190.431891033311
 20
406.7471472124166
 30
0.0
 10
192.3165990641869
 20
405.9683729238868
 30
0.0
 10
193.254003642359
 20
405.5684663773968
 30
0.0
 10
194.1856170983627
 20
405.1528886866897
 30
0.0
  0
SPLINE
  5
8E
330
1F
100
AcDbEntity
  8
0
  6
Continuous
 62
     7
370
    15
100
AcDbSpline
210
0.0
220
0.0
230
1.0
 70
     8
 71
     3
 72
    26
 73
    22
 74
     0
 42
0.00000001
 43
0.00000001
 40
0.0
 40
0.0
 40
0.0
 40
0.0
 40
0.1249999999999978
 40
0.1249999999999978
 40
0.2499999999999957
 40
0.2499999999999957
 40
0.3749999999999935
 40
0.3749999999999935
 40
0.4999999999999913
 40
0.4999999999999913
 40
0.6249999999999891
 40
0.6249999999999891
 40
0.6562499999999891
 40
0.6562499999999891
 40
0.687499999999989
 40
0.687499999999989
 40
0.7499999999999905
 40
0.7499999999999905
 40
0.8749999999999951
 40
0.8749999999999951
 40
1.0
 40
1.0
 40
1.0
 40
1.0
 10
164.0427355815632
 20
394.1817770397545
 30
0.0
 10
164.4889955795632
 20
395.0984048226014
 30
0.0
 10
164.9503032833827
 20
396.0078558158631
 30
0.0
 10
165.8934869363961
 20
397.8158985076842
 30
0.0
 10
166.3757764680926
 20
398.7144892463047
 30
0.0
 10
167.3351991697548
 20
400.5142523742631
 30
0.0
 10
167.8129767461932
 20
401.4151052601195
 30
0.0
 10
168.7047304202885
 20
403.2494489232282
 30
0.0
 10
169.1191188128932
 20
404.1872655269519
 30
0.0
 10
169.7668856081544
 20
406.1053552632287
 30
0.0
 10
169.9983833918177
 20
407.0888180279305
 30
0.0
 10
170.1289071229459
 20
408.3602239200312
 30
0.0
 10
170.1472737572119
 20
408.6173238693188
 30
0.0
 10
170.1682645490406
 20
409.1284790697154
 30
0.0
 10
170.1710226521523
 20
409.3832193987222
 30
0.0
 10
170.157695853793
 20
410.1451078829305
 30
0.0
 10
170.1198615273309
 20
410.649910471712
 30
0.0
 10
169.9360801421848
 20
412.1567338257514
 30
0.0
 10
169.7206317015917
 20
413.1539871079984
 30
0.0
 10
169.1847856667655
 20
415.124366325552
 30
0.0
 10
168.8654047374436
 20
416.095233194285
 30
0.0
 10
168.5166851590214
 20
417.0533973326036
 30
0.0
  0
SPLINE
  5
8F
330
1F
100
AcDbEntity
  8
0
  6
Continuous
 62
     7
370
    15
100
AcDbSpline
210
0.0
220
0.0
230
1.0
 70
     8
 71
     3
 72
    18
 73
    14
 74
     0
 42
0.00000001
 43
0.00000001
 40
0.0
 40
0.0
 40
0.0
 40
0.0
 40
0.2499999999999999
 40
0.2499999999999999
 40
0.3749999999999998
 40
0.3749999999999998
 40
0.4999999999999997
 40
0.4999999999999997
 40
0.7499999999999994
 40
0.7499999999999994
 40
0.8749999999999992
 40
0.8749999999999992
 40
1.0
 40
1.0
 40
1.0
 40
1.0
 10
163.1075417692707
 20
376.1959562000246
 30
0.0
 10
162.5758206066274
 20
377.656848088027
 30
0.0
 10
162.1993277052797
 20
379.1460514144252
 30
0.0
 10
161.8579887054479
 20
381.420601707258
 30
0.0
 10
161.781729569808
 20
382.1856283409454
 30
0.0
 10
161.7061150657267
 20
383.7297073798059
 30
0.0
 10
161.7073342115968
 20
384.5096878651657
 30
0.0
 10
161.8268973777035
 20
386.818228751221
 30
0.0
 10
162.0584575124431
 20
388.3332054142088
 30
0.0
 10
162.6328162705069
 20
390.5697037207377
 30
0.0
 10
162.8634537778186
 20
391.3119086442899
 30
0.0
 10
163.398766535523
 20
392.7691647769321
 30
0.0
 10
163.7025968920491
 20
393.4829337971538
 30
0.0
 10
164.0427355815632
 20
394.1817770397545
 30
0.0
  0
SPLINE
  5
90
330
1F
100
AcDbEntity
  8
0
  6
Continuous
 62
     7
370
    15
100
AcDbSpline
210
0.0
220
0.0
230
1.0
 70
     8
 71
     3
 72
    18
 73
    14
 74
     0
 42
0.00000001
 43
0.00000001
 40
0.0
 40
0.0
 40
0.0
 40
0.0
 40
0.2500000000000005
 40
0.2500000000000005
 40
0.3750000000000008
 40
0.3750000000000008
 40
0.5000000000000012
 40
0.5000000000000012
 40
0.7500000000000018
 40
0.7500000000000018
 40
0.8750000000000009
 40
0.8750000000000009
 40
1.0
 40
1.0
 40
1.0
 40
1.0
 10
194.1856171892018
 20
405.152888646156
 30
0.0
 10
195.6052274464474
 20
404.5194404182854
 30
0.0
 10
196.9373605126112
 20
403.7547160547372
 30
0.0
 10
198.8095794249662
 20
402.4186796653435
 30
0.0
 10
199.4124950589918
 20
401.9415997808001
 30
0.0
 10
200.574956316676
 20
400.9223897237302
 30
0.0
 10
201.1347529602315
 20
400.3792166713844
 30
0.0
 10
202.7110018094889
 20
398.6881943172691
 30
0.0
 10
203.6389982574809
 20
397.4683754458865
 30
0.0
 10
204.8473082721212
 20
395.5003773354557
 30
0.0
 10
205.2204695908808
 20
394.8184795030561
 30
0.0
 10
205.8957551313879
 20
393.420394381448
 30
0.0
 10
206.1975701534831
 20
392.7056593251123
 30
0.0
 10
206.4634123116039
 20
391.9751682390263
 30
0.0
  0
SPLINE
  5
91
330
1F
100
AcDbEntity
  8
0
  6
Continuous
 62
     7
370
    15
100
AcDbSpline
210
0.0
220
0.0
230
1.0
 70
    24
 71
     3
 72
    20
 73
    16
 74
     0
 42
0.00000001
 43
0.00000001
 40
0.0
 40
0.0
 40
0.0
 40
0.0
 40
0.0625000000000001
 40
0.0625000000000001
 40
0.1250000000000001
 40
0.1250000000000001
 40
0.1875000000000002
 40
0.1875000000000002
 40
0.2500000000000003
 40
0.2500000000000003
 40
0.3750000000000003
 40
0.3750000000000003
 40
0.5000000000000004
 40
0.5000000000000004
 40
1.0
 40
1.0
 40
1.0
 40
1.0
 10
159.0731706305868
 20
466.4598467674982
 30
0.0
 10
159.4268229570962
 20
465.488194986059
 30
0.0
 10
159.7806935386989
 20
464.5159435536793
 30
0.0
 10
160.4883340190824
 20
462.5717173126993
 30
0.0
 10
160.8421600989063
 20
461.5995881479519
 30
0.0
 10
161.5498181317853
 20
459.6553136818869
 30
0.0
 10
161.9036498290932
 20
458.6831690832292
 30
0.0
 10
162.6113114370408
 20
456.7388847947442
 30
0.0
 10
162.9651407370405
 20
455.7667467826369
 30
0.0
 10
164.0266257699023
 20
452.8503406237087
 30
0.0
 10
164.7342810772552
 20
450.9060736459654
 30
0.0
 10
166.149593393162
 20
447.0175350164669
 30
0.0
 10
166.8572494828805
 20
445.0732658891915
 30
0.0
 10
170.3955299577605
 20
435.3519201805907
 30
0.0
 10
173.2261543569633
 20
427.5748435606869
 30
0.0
 10
176.0567787482231
 20
419.7977669626062
 30
0.0
  0
SPLINE
  5
92
330
1F
100
AcDbEntity
  8
0
  6
Continuous
 62
     7
370
    15
100
AcDbSpline
210
0.0
220
0.0
230
1.0
 70
    24
 71
     3
 72
    20
 73
    16
 74
     0
 42
0.00000001
 43
0.00000001
 40
0.0
 40
0.0
 40
0.0
 40
0.0
 40
0.5000000000000009
 40
0.5000000000000009
 40
0.6250000000000011
 40
0.6250000000000011
 40
0.7500000000000013
 40
0.7500000000000013
 40
0.812500000000001
 40
0.812500000000001
 40
0.8750000000000007
 40
0.8750000000000007
 40
0.9375000000000003
 40
0.9375000000000003
 40
1.0
 40
1.0
 40
1.0
 40
1.0
 10
168.5166851590214
 20
417.0533973326036
 30
0.0
 10
165.686038917752
 20
424.8305339630922
 30
0.0
 10
162.8553927999088
 20
432.6076702544698
 30
0.0
 10
159.3170848022259
 20
442.32909158135
 30
0.0
 10
158.6094231906994
 20
444.2733758796689
 30
0.0
 10
157.1941002681773
 20
448.1619436506033
 30
0.0
 10
156.4864379913177
 20
450.1062297769087
 30
0.0
 10
155.4249455955973
 20
453.0226561651245
 30
0.0
 10
155.0711151404712
 20
453.9947973509156
 30
0.0
 10
154.3634553107198
 20
455.939076753847
 30
0.0
 10
154.0096224994587
 20
456.9112244130657
 30
0.0
 10
153.3019713560451
 20
458.8554799504801
 30
0.0
 10
152.9481576663345
 20
459.8275750736711
 30
0.0
 10
152.2405775174772
 20
461.771635555145
 30
0.0
 10
151.8867256391563
 20
462.7438356006807
 30
0.0
 10
151.5330917242513
 20
463.7154367966523
 30
0.0
  0
SPLINE
  5
93
330
1F
100
AcDbEntity
  8
0
  6
Continuous
 62
     7
370
    15
100
AcDbSpline
210
0.0
220
0.0
230
1.0
 70
    24
 71
     3
 72
    10
 73
     6
 74
     0
 42
0.00000001
 43
0.00000001
 40
0.0
 40
0.0
 40
0.0
 40
0.0
 40
0.5
 40
0.5
 40
1.0
 40
1.0
 40
1.0
 40
1.0
 10
151.5330917242513
 20
463.7154367966523
 30
0.0
 10
151.4529248136244
 20
463.9356935733911
 30
0.0
 10
151.372951417229
 20
464.1554186741481
 30
0.0
 10
151.2140671517897
 20
464.5919496057566
 30
0.0
 10
151.135087270252
 20
464.808945046877
 30
0.0
 10
151.0569258604003
 20
465.0236917555211
 30
0.0
  0
SPLINE
  5
94
330
1F
100
AcDbEntity
  8
0
  6
Continuous
 62
     7
370
    15
100
AcDbSpline
210
0.0
220
0.0
230
1.0
 70
    24
 71
     3
 72
    10
 73
     6
 74
     0
 42
0.00000001
 43
0.00000001
 40
0.0
 40
0.0
 40
0.0
 40
0.0
 40
0.5
 40
0.5
 40
1.0
 40
1.0
 40
1.0
 40
1.0
 10
158.5854509743597
 20
467.7998455100301
 30
0.0
 10
158.6654857915029
 20
467.5799516571549
 30
0.0
 10
158.7463825976976
 20
467.3576895088251
 30
0.0
 10
158.9091237533603
 20
466.9105618584181
 30
0.0
 10
158.9909860027665
 20
466.6856471766648
 30
0.0
 10
159.0731706305868
 20
466.4598467674984
 30
0.0
  0
ARC
  5
95
330
1F
100
AcDbEntity
  8
0
  6
Continuous
 62
     7
370
    15
100
AcDbCircle
 10
184.7853108385
 20
384.0860188855
 30
0.0
 40
23.06900000000001
100
AcDbArc
 50
334.0470386774
 51
19.9975860193
  0
ARC
  5
96
330
1F
100
AcDbEntity
  8
0
  6
Continuous
 62
     7
370
    15
100
AcDbCircle
 10
184.7853108385
 20
384.0860188855
 30
0.0
 40
23.06899999999999
100
AcDbArc
 50
199.9999999997
 51
245.9529613219
  0
ARC
  5
97
330
1F
100
AcDbEntity
  8
0
  6
Continuous
 62
     7
370
    15
100
AcDbCircle
 10
184.7853108385
 20
384.0860188855
 30
0.0
 40
23.069
100
AcDbArc
 50
289.9999999997
 51
334.0470386774
  0
ARC
  5
98
330
1F
100
AcDbEntity
  8
0
  6
Continuous
 62
     7
370
    15
100
AcDbCircle
 10
184.7853108385
 20
384.0860188855
 30
0.0
 40
23.06899999999997
100
AcDbArc
 50
245.9529613219
 51
289.9999999997
  0
SPLINE
  5
99
330
1F
100
AcDbEntity
  8
0
  6
Continuous
 62
     7
370
    15
100
AcDbSpline
210
0.0
220
0.0
230
1.0
 70
    24
 71
     3
 72
     8
 73
     4
 74
     0
 42
0.00000001
 43
0.00000001
 40
0.0
 40
0.0
 40
0.0
 40
0.0
 40
1.0
 40
1.0
 40
1.0
 40
1.0
 10
151.0569258604003
 20
465.0236917555211
 30
0.0
 10
150.9079755975105
 20
465.4329292394398
 30
0.0
 10
150.7687102921055
 20
465.8155575213604
 30
0.0
 10
150.6367209496822
 20
466.1781952592834
 30
0.0
  0
SPLINE
  5
9A
330
1F
100
AcDbEntity
  8
0
  6
Continuous
 62
     7
370
    15
100
AcDbSpline
210
0.0
220
0.0
230
1.0
 70
    24
 71
     3
 72
     8
 73
     4
 74
     0
 42
0.00000001
 43
0.00000001
 40
0.0
 40
0.0
 40
0.0
 40
0.0
 40
1.0
 40
1.0
 40
1.0
 40
1.0
 10
158.1798754863635
 20
468.9141550052033
 30
0.0
 10
158.3074827983459
 20
468.5635567969681
 30
0.0
 10
158.4419251200279
 20
468.1941795539214
 30
0.0
 10
158.5854509743597
 20
467.7998455100301
 30
0.0
  0
SPLINE
  5
9B
330
1F
100
AcDbEntity
  8
0
  6
Continuous
 62
     7
370
    15
100
AcDbSpline
210
0.0
220
0.0
230
1.0
 70
    24
 71
     3
 72
    12
 73
     8
 74
     0
 42
0.00000001
 43
0.00000001
 40
0.0
 40
0.0
 40
0.0
 40
0.0
 40
0.2500000000000078
 40
0.2500000000000078
 40
0.5000000000000155
 40
0.5000000000000155
 40
1.0
 40
1.0
 40
1.0
 40
1.0
 10
157.5351537744862
 20
470.6855133504495
 30
0.0
 10
157.5730894626597
 20
470.5812859037997
 30
0.0
 10
157.6153896862207
 20
470.4650669947258
 30
0.0
 10
157.7085248231063
 20
470.2091803091702
 30
0.0
 10
157.7596359406172
 20
470.0687536679237
 30
0.0
 10
157.9227261543813
 20
469.6206669882649
 30
0.0
 10
158.0450505502698
 20
469.2845834727067
 30
0.0
 10
158.1798754863635
 20
468.9141550052033
 30
0.0
  0
SPLINE
  5
9C
330
1F
100
AcDbEntity
  8
0
  6
Continuous
 62
     7
370
    15
100
AcDbSpline
210
0.0
220
0.0
230
1.0
 70
    24
 71
     3
 72
    12
 73
     8
 74
     0
 42
0.00000001
 43
0.00000001
 40
0.0
 40
0.0
 40
0.0
 40
0.0
 40
0.4999999999999953
 40
0.4999999999999953
 40
0.7499999999999977
 40
0.7499999999999977
 40
1.0
 40
1.0
 40
1.0
 40
1.0
 10
150.6367209496822
 20
466.1781952592834
 30
0.0
 10
150.5025757803225
 20
466.5467560830347
 30
0.0
 10
150.3808678718493
 20
466.8811458133388
 30
0.0
 10
150.2186047144158
 20
467.3269601744045
 30
0.0
 10
150.1677423725551
 20
467.4667033101714
 30
0.0
 10
150.0750188459419
 20
467.7214591057977
 30
0.0
 10
150.0328950162085
 20
467.8371933768126
 30
0.0
 10
149.9951043282516
 20
467.9410224386417
 30
0.0
  0
SPLINE
  5
9D
330
1F
100
AcDbEntity
  8
0
  6
Continuous
 62
     7
370
    15
100
AcDbSpline
210
0.0
220
0.0
230
1.0
 70
    24
 71
     3
 72
     8
 73
     4
 74
     0
 42
0.00000001
 43
0.00000001
 40
0.0
 40
0.0
 40
0.0
 40
0.0
 40
1.0
 40
1.0
 40
1.0
 40
1.0
 10
149.9951043282516
 20
467.9410224386417
 30
0.0
 10
149.9268069045058
 20
468.1286680681935
 30
0.0
 10
149.8745215733742
 20
468.2723208348488
 30
0.0
 10
149.8382919960414
 20
468.3718607804887
 30
0.0
  0
SPLINE
  5
9E
330
1F
100
AcDbEntity
  8
0
  6
Continuous
 62
     7
370
    15
100
AcDbSpline
210
0.0
220
0.0
230
1.0
 70
    24
 71
     3
 72
     8
 73
     4
 74
     0
 42
0.00000001
 43
0.00000001
 40
0.0
 40
0.0
 40
0.0
 40
0.0
 40
1.0
 40
1.0
 40
1.0
 40
1.0
 10
157.3784847792314
 20
471.1159578772484
 30
0.0
 10
157.4147033802911
 20
471.0164480886709
 30
0.0
 10
157.4669410488308
 20
470.8729262739103
 30
0.0
 10
157.5351537744862
 20
470.6855133504495
 30
0.0
  0
ARC
  5
9F
330
1F
100
AcDbEntity
  8
0
  6
Continuous
 62
     7
370
    15
100
AcDbCircle
 10
154.4924729296
 20
470.2474496912
 30
0.0
 40
3.009011851392817
100
AcDbArc
 50
20.0000944975
 51
104.6032951449
  0
SPLINE
  5
A0
330
1F
100
AcDbEntity
  8
0
  6
Continuous
 62
     7
370
    15
100
AcDbSpline
210
0.0
220
0.0
230
1.0
 70
    24
 71
     3
 72
     8
 73
     4
 74
     0
 42
0.00000001
 43
0.00000001
 40
0.0
 40
0.0
 40
0.0
 40
0.0
 40
1.0
 40
1.0
 40
1.0
 40
1.0
 10
157.3200165555611
 20
471.2765980015408
 30
0.0
 10
157.3201449144659
 20
471.2762453383483
 30
0.0
 10
157.3397897547798
 20
471.2222715831763
 30
0.0
 10
157.3784847792313
 20
471.1159578772485
 30
0.0
  0
ARC
  5
A1
330
1F
100
AcDbEntity
  8
0
  6
Continuous
 62
     7
370
    15
100
AcDbCircle
 10
152.6074381545
 20
469.5613753002
 30
0.0
 40
3.008981063596142
100
AcDbArc
 50
115.3962180272
 51
200.0001601727
  0
SPLINE
  5
A2
330
1F
100
AcDbEntity
  8
0
  6
Continuous
 62
     7
370
    15
100
AcDbSpline
210
0.0
220
0.0
230
1.0
 70
    24
 71
     3
 72
     8
 73
     4
 74
     0
 42
0.00000001
 43
0.00000001
 40
0.0
 40
0.0
 40
0.0
 40
0.0
 40
1.0
 40
1.0
 40
1.0
 40
1.0
 10
149.8382919960414
 20
468.3718607804888
 30
0.0
 10
149.7996568292437
 20
468.4780100288642
 30
0.0
 10
149.7800446574309
 20
468.5318940280673
 30
0.0
 10
149.7799229057595
 20
468.5322285380353
 30
0.0
  0
LINE
  5
A3
330
1F
100
AcDbEntity
  8
0
  6
Continuous
 62
     7
370
    15
100
AcDbLine
 10
161.7163107771
 20
384.0860173963
 30
0.0
 11
161.7198535282
 21
384.4903231524
 31
0.0
  0
LWPOLYLINE
  5
A4
330
1F
100
AcDbEntity
  8
0
  6
Continuous
 62
     7
370
    15
100
AcDbPolyline
 90
        3
 70
   128
 43
0.0
 10
162.5811909366
 20
390.3434769176
 10
163.3362979669
 20
392.578282293
 10
164.4559935708
 20
394.9900352322
  0
ARC
  5
A5
330
1F
100
AcDbEntity
  8
0
  6
Continuous
 62
     7
370
    15
100
AcDbCircle
 10
184.7853108385
 20
384.0860188855
 30
0.0
 40
23.06900000000003
100
AcDbArc
 50
52.9333872942
 51
67.0548140385
  0
LWPOLYLINE
  5
A6
330
1F
100
AcDbEntity
  8
0
  6
Continuous
 62
     7
370
    15
100
AcDbPolyline
 90
        3
 70
   128
 43
0.0
 10
205.821201675
 20
393.55544829
 10
206.2343251932
 20
392.578282293
 10
206.4634119201
 20
391.9751689695
  0
LWPOLYLINE
  5
A7
330
1F
100
AcDbEntity
  8
0
  6
Continuous
 62
     7
370
    15
100
AcDbPolyline
 90
        3
 70
   128
 43
0.0
 10
163.1075409282
 20
376.1959568523
 10
162.4410660047
 20
378.3489921056
 10
161.9544685859
 20
380.7797514759
  0
LINE
  5
A8
330
1F
100
AcDbEntity
  8
0
  6
Continuous
 62
     7
370
    15
100
AcDbLine
 10
160.7133117545
 20
331.9300188609
 30
0.0
 11
208.8573114056
 21
331.9300188609
 31
0.0
  0
LINE
  5
A9
330
1F
100
AcDbEntity
  8
0
  6
Continuous
 62
     7
370
    15
100
AcDbLine
 10
160.9139111865
 20
416.1820196472
 30
0.0
 11
168.7093698461
 21
416.1820196472
 31
0.0
  0
LINE
  5
AA
330
1F
100
AcDbEntity
  8
0
  6
Continuous
 62
     7
370
    15
100
AcDbLine
 10
177.5848181028
 20
416.1820196472
 30
0.0
 11
208.656710111
 21
416.1820196472
 31
0.0
  0
LINE
  5
AB
330
1F
100
AcDbEntity
  8
0
  6
Continuous
 62
     7
370
    15
100
AcDbLine
 10
172.4130311091
 20
437.245019611
 30
0.0
 11
197.1575901885
 21
437.245019611
 31
0.0
  0
LINE
  5
AC
330
1F
100
AcDbEntity
  8
0
  6
Continuous
 62
     7
370
    15
100
AcDbLine
 10
184.7853108385
 20
437.445619043
 30
0.0
 11
172.7994610596
 21
437.445619043
 31
0.0
  0
LINE
  5
AD
330
1F
100
AcDbEntity
  8
0
  6
Continuous
 62
     7
370
    15
100
AcDbLine
 10
196.7711611692
 20
437.445619043
 30
0.0
 11
184.7853108385
 21
437.445619043
 31
0.0
  0
LINE
  5
AE
330
1F
100
AcDbEntity
  8
0
  6
Continuous
 62
     7
370
    15
100
AcDbLine
 10
232.2919075418
 20
398.0724521839
 30
0.0
 11
232.2939154733
 21
398.0915778242
 31
0.0
  0
LWPOLYLINE
  5
AF
330
1F
100
AcDbEntity
  8
0
  6
Continuous
 62
     7
370
    15
100
AcDbPolyline
 90
       11
 70
   128
 43
0.0
 10
231.5600221086
 20
391.1090389751
 10
231.5606963862
 20
391.115453925
 10
231.5877606202
 20
391.3729571663
 10
231.6515822936
 20
391.9801943861
 10
231.7452509929
 20
392.8713657819
 10
231.8586078513
 20
393.9498894774
 10
231.9793743122
 20
395.0988956653
 10
232.0944597054
 20
396.1938776933
 10
232.1913954843
 20
397.1161701642
 10
232.2596800555
 20
397.7658235394
 10
232.2919075418
 20
398.0724521839
  0
LWPOLYLINE
  5
B0
330
1F
100
AcDbEntity
  8
0
  6
Continuous
 62
     7
370
    15
100
AcDbPolyline
 90
       11
 70
   128
 43
0.0
 10
252.1916036535
 20
395.4959818088
 10
252.1898825694
 20
395.4795905315
 10
252.1597747732
 20
395.1931231581
 10
252.0955656696
 20
394.5822426044
 10
252.0050038625
 20
393.7206351124
 10
251.8990193535
 20
392.7122139298
 10
251.7903824378
 20
391.6786172353
 10
251.6922061373
 20
390.7445081436
 10
251.6163219739
 20
390.0225580596
 10
251.5718941618
 20
389.5998381935
 10
251.5625511337
 20
389.5109490417
  0
ARC
  5
B1
330
1F
100
AcDbEntity
  8
0
  6
Continuous
 62
     8
370
     0
100
AcDbCircle
 10
184.7853108385
 20
384.0860188855
 30
0.0
 40
20.52174859719134
100
AcDbArc
 50
245.9529613219
 51
289.9999999997
  0
ARC
  5
B2
330
1F
100
AcDbEntity
  8
0
  6
Continuous
 62
     8
370
     0
100
AcDbCircle
 10
184.7853108385
 20
384.0860188855
 30
0.0
 40
20.52174859719133
100
AcDbArc
 50
199.9999999997
 51
245.9529613219
  0
ARC
  5
B3
330
1F
100
AcDbEntity
  8
0
  6
Continuous
 62
     8
370
     0
100
AcDbCircle
 10
184.7853108385
 20
384.0860188855
 30
0.0
 40
20.52174859719138
100
AcDbArc
 50
334.0470386774
 51
19.9999999997
  0
ARC
  5
B4
330
1F
100
AcDbEntity
  8
0
  6
Continuous
 62
     8
370
     0
100
AcDbCircle
 10
184.7853108385
 20
384.0860188855
 30
0.0
 40
20.52174859719138
100
AcDbArc
 50
289.9999999997
 51
334.0470386774
  0
SPLINE
  5
B5
330
1F
100
AcDbEntity
  8
0
  6
Continuous
 62
     8
370
     0
100
AcDbSpline
210
0.0
220
0.0
230
1.0
 70
     8
 71
     3
 72
    20
 73
    16
 74
     0
 42
0.00000001
 43
0.00000001
 40
0.0
 40
0.0
 40
0.0
 40
0.0
 40
0.1250000000000007
 40
0.1250000000000007
 40
0.2500000000000014
 40
0.2500000000000014
 40
0.5000000000000017
 40
0.5000000000000017
 40
0.6250000000000012
 40
0.6250000000000012
 40
0.7500000000000008
 40
0.7500000000000008
 40
0.8750000000000004
 40
0.8750000000000004
 40
1.0
 40
1.0
 40
1.0
 40
1.0
 10
166.270991708325
 20
393.0350440606851
 30
0.0
 10
165.9750235071177
 20
392.4126413267182
 30
0.0
 10
165.7123975101179
 20
391.7768865221456
 30
0.0
 10
165.2494325603146
 20
390.4804644140445
 30
0.0
 10
165.0502208577821
 20
389.8207828455133
 30
0.0
 10
164.5541194249697
 20
387.8335032771931
 30
0.0
 10
164.3539638174069
 20
386.4885420714817
 30
0.0
 10
164.2537983698887
 20
384.4402994250339
 30
0.0
 10
164.2542737655059
 20
383.7486111091927
 30
0.0
 10
164.3232829223605
 20
382.3793736799472
 30
0.0
 10
164.3914240402872
 20
381.7008992204763
 30
0.0
 10
164.5941259051297
 20
380.3560832567354
 30
0.0
 10
164.7285988788187
 20
379.6897257406052
 30
0.0
 10
165.0642080286821
 20
378.3691882557803
 30
0.0
 10
165.2660585788991
 20
377.7136219793505
 30
0.0
 10
165.5011684808344
 20
377.067165074055
 30
0.0
  0
SPLINE
  5
B6
330
1F
100
AcDbEntity
  8
0
  6
Continuous
 62
     8
370
     0
100
AcDbSpline
210
0.0
220
0.0
230
1.0
 70
     8
 71
     3
 72
    30
 73
    26
 74
     0
 42
0.00000001
 43
0.00000001
 40
0.0
 40
0.0
 40
0.0
 40
0.0
 40
0.1250000000000006
 40
0.1250000000000006
 40
0.1875000000000001
 40
0.1875000000000001
 40
0.2499999999999996
 40
0.2499999999999996
 40
0.3124999999999991
 40
0.3124999999999991
 40
0.3749999999999986
 40
0.3749999999999986
 40
0.4999999999999991
 40
0.4999999999999991
 40
0.5624999999999993
 40
0.5624999999999993
 40
0.6249999999999997
 40
0.6249999999999997
 40
0.7500000000000002
 40
0.7500000000000002
 40
0.8124999999999998
 40
0.8124999999999998
 40
0.8749999999999994
 40
0.8749999999999994
 40
1.0
 40
1.0
 40
1.0
 40
1.0
 10
171.0782982019883
 20
417.9857482319305
 30
0.0
 10
171.4578405674725
 20
416.9438672550273
 30
0.0
 10
171.7929993988417
 20
415.8849423827119
 30
0.0
 10
172.201142416544
 20
414.2707414560442
 30
0.0
 10
172.3211612182822
 20
413.7280759131351
 30
0.0
 10
172.5202787664923
 20
412.6416155882259
 30
0.0
 10
172.5996822139559
 20
412.0966812799479
 30
0.0
 10
172.7114639555213
 20
411.0028357510319
 30
0.0
 10
172.7437728398571
 20
410.4539185298852
 30
0.0
 10
172.7533445702944
 20
409.3514301263647
 30
0.0
 10
172.730636355225
 20
408.7967089282391
 30
0.0
 10
172.5706543011778
 20
407.1320379030034
 30
0.0
 10
172.3456673804212
 20
406.0548446781526
 30
0.0
 10
171.8583416176013
 20
404.4803057920776
 30
0.0
 10
171.6718000850274
 20
403.962093901296
 30
0.0
 10
171.2613750370212
 20
402.9359477924503
 30
0.0
 10
171.0372305451531
 20
402.4272786358995
 30
0.0
 10
170.3326487639258
 20
400.9199263251262
 30
0.0
 10
169.8215461882064
 20
399.9360019419129
 30
0.0
 10
169.0405321424699
 20
398.467413085391
 30
0.0
 10
168.7774701956285
 20
397.9792648871029
 30
0.0
 10
168.2567848973776
 20
397.0002064932855
 30
0.0
 10
167.9993821269786
 20
396.5091856465809
 30
0.0
 10
167.2392875924809
 20
395.0300082930558
 30
0.0
 10
166.7473288141577
 20
394.0364458373832
 30
0.0
 10
166.2709917257489
 20
393.035044052334
 30
0.0
  0
SPLINE
  5
B7
330
1F
100
AcDbEntity
  8
0
  6
Continuous
 62
     8
370
     0
100
AcDbSpline
210
0.0
220
0.0
230
1.0
 70
     8
 71
     3
 72
    30
 73
    26
 74
     0
 42
0.00000001
 43
0.00000001
 40
0.0
 40
0.0
 40
0.0
 40
0.0
 40
0.1250000000000004
 40
0.1250000000000004
 40
0.1875000000000009
 40
0.1875000000000009
 40
0.2500000000000014
 40
0.2500000000000014
 40
0.3750000000000024
 40
0.3750000000000024
 40
0.4375000000000028
 40
0.4375000000000028
 40
0.5000000000000033
 40
0.5000000000000033
 40
0.6250000000000034
 40
0.6250000000000034
 40
0.6875000000000029
 40
0.6875000000000029
 40
0.7500000000000022
 40
0.7500000000000022
 40
0.8125000000000017
 40
0.8125000000000017
 40
0.8750000000000011
 40
0.8750000000000011
 40
1.0
 40
1.0
 40
1.0
 40
1.0
 10
193.2160766662708
 20
402.8420090572075
 30
0.0
 10
192.2074830194212
 20
403.3029558730203
 30
0.0
 10
191.1919583717688
 20
403.747848719422
 30
0.0
 10
189.6588782351505
 20
404.3923970585851
 30
0.0
 10
189.1460683957466
 20
404.6030894145635
 30
0.0
 10
188.117861827714
 20
405.0184085223249
 30
0.0
 10
187.6025626458708
 20
405.2232611121132
 30
0.0
 10
186.0602605938473
 20
405.8462449067526
 30
0.0
 10
185.0362648059033
 20
406.2714460211322
 30
0.0
 10
183.527594396267
 20
406.9732487505843
 30
0.0
 10
183.0289155020382
 20
407.2188344221252
 30
0.0
 10
182.0549009137645
 20
407.7410912309721
 30
0.0
 10
181.5788931124505
 20
408.0181574970231
 30
0.0
 10
180.1934605533998
 20
408.9110762175611
 30
0.0
 10
179.3286877391233
 20
409.591635266406
 30
0.0
 10
178.136082096997
 20
410.7640159070119
 30
0.0
 10
177.7621099674008
 20
411.1743641434426
 30
0.0
 10
177.060762330074
 20
412.0250783816122
 30
0.0
 10
176.7326688653175
 20
412.4663449099392
 30
0.0
 10
176.1151769310672
 20
413.3761395950701
 30
0.0
 10
175.8257214215596
 20
413.8446277243499
 30
0.0
 10
175.2798819480795
 20
414.8049049630698
 30
0.0
 10
175.022998941716
 20
415.2977628795757
 30
0.0
 10
174.2980551335587
 20
416.7966792083093
 30
0.0
 10
173.874082385819
 20
417.8234480452191
 30
0.0
 10
173.4951657052593
 20
418.865416063271
 30
0.0
  0
SPLINE
  5
B8
330
1F
100
AcDbEntity
  8
0
  6
Continuous
 62
     8
370
     0
100
AcDbSpline
210
0.0
220
0.0
230
1.0
 70
     8
 71
     3
 72
    25
 73
    21
 74
     0
 42
0.00000001
 43
0.00000001
 40
0.0
 40
0.0
 40
0.0
 40
0.0
 40
0.0156249999999998
 40
0.0156249999999998
 40
0.0312499999999996
 40
0.0624999999999991
 40
0.0624999999999991
 40
0.124999999999998
 40
0.124999999999998
 40
0.2499999999999981
 40
0.2499999999999981
 40
0.3749999999999981
 40
0.3749999999999981
 40
0.4999999999999981
 40
0.4999999999999981
 40
0.7499999999999981
 40
0.7499999999999981
 40
0.8749999999999991
 40
0.8749999999999991
 40
1.0
 40
1.0
 40
1.0
 40
1.0
 10
204.0694531962
 20
391.1048726969055
 30
0.0
 10
204.0403762003264
 20
391.1846996104413
 30
0.0
 10
204.0099935621875
 20
391.2665394994682
 30
0.0
 10
203.9491147298743
 20
391.4273994896526
 30
0.0
 10
203.856379520632
 20
391.6678829603609
 30
0.0
 10
203.7594106141958
 20
391.9059566755218
 30
0.0
 10
203.5598633061674
 20
392.3789112844929
 30
0.0
 10
203.4193408993761
 20
392.6899507019575
 30
0.0
 10
202.9755512587222
 20
393.6104203654593
 30
0.0
 10
202.6502453617756
 20
394.2073065874764
 30
0.0
 10
201.9411116788709
 20
395.3677693455904
 30
0.0
 10
201.5572063563789
 20
395.9313017244672
 30
0.0
 10
200.729965041301
 20
397.0245390919115
 30
0.0
 10
200.2857327212546
 20
397.5547016266117
 30
0.0
 10
198.8924547780799
 20
399.0593438253971
 30
0.0
 10
197.8746310000508
 20
399.9609782857616
 30
0.0
 10
196.2172451090015
 20
401.1644290619302
 30
0.0
 10
195.6406226994308
 20
401.5417225167254
 30
0.0
 10
194.4526791011102
 20
402.237254401023
 30
0.0
 10
193.8428570691638
 20
402.5554608871631
 30
0.0
 10
193.2160766576018
 20
402.8420090380968
 30
0.0
  0
SPLINE
  5
B9
330
1F
100
AcDbEntity
  8
0
  6
Continuous
 62
     8
370
     0
100
AcDbSpline
210
0.0
220
0.0
230
1.0
 70
     8
 71
     3
 72
    24
 73
    20
 74
     0
 42
0.00000001
 43
0.00000001
 40
0.0
 40
0.0
 40
0.0
 40
0.0
 40
0.4999999999999978
 40
0.4999999999999978
 40
0.6249999999999973
 40
0.6249999999999973
 40
0.6874999999999974
 40
0.6874999999999974
 40
0.7499999999999977
 40
0.7499999999999977
 40
0.8124999999999978
 40
0.8124999999999978
 40
0.874999999999998
 40
0.874999999999998
 40
0.9374999999999981
 40
0.9374999999999981
 40
0.9687499999999991
 40
0.9687499999999991
 40
1.0
 40
1.0
 40
1.0
 40
1.0
 10
173.4951657008877
 20
418.8654160616846
 30
0.0
 10
170.6583426932552
 20
426.6595198218261
 30
0.0
 10
167.8215292472649
 20
434.4536270732431
 30
0.0
 10
164.2754959264153
 20
444.1962550980822
 30
0.0
 10
163.5662084306207
 20
446.1447511761497
 30
0.0
 10
162.5018037565294
 20
449.0673233631863
 30
0.0
 10
162.1474005099574
 20
450.0416586708755
 30
0.0
 10
161.4409692072613
 20
451.991191171402
 30
0.0
 10
161.0882970063092
 20
452.9661533722326
 30
0.0
 10
160.3791821884594
 20
454.9147162466154
 30
0.0
 10
160.0222970881747
 20
455.8881584005313
 30
0.0
 10
159.3021001546812
 20
457.8327257414503
 30
0.0
 10
158.9401927809033
 20
458.8043573173023
 30
0.0
 10
158.2288979234692
 20
460.7521341219867
 30
0.0
 10
157.8807511409982
 20
461.7287264395693
 30
0.0
 10
157.3774814642743
 20
463.2004484099488
 30
0.0
 10
157.2105359454232
 20
463.6913785293247
 30
0.0
 10
156.8589610970393
 20
464.6665507810501
 30
0.0
 10
156.6740887907454
 20
465.1507958369871
 30
0.0
 10
156.4743989274248
 20
465.6289044584192
 30
0.0
  0
LINE
  5
BA
330
1F
100
AcDbEntity
  8
0
  6
Continuous
 62
     8
370
     0
100
AcDbLine
 10
156.4743989188
 20
465.6289079152
 30
0.0
 11
156.4743784297
 21
465.6289526187
 31
0.0
  0
SPLINE
  5
BB
330
1F
100
AcDbEntity
  8
0
  6
Continuous
 62
     8
370
     0
100
AcDbSpline
210
0.0
220
0.0
230
1.0
 70
     8
 71
     3
 72
    24
 73
    20
 74
     0
 42
0.00000001
 43
0.00000001
 40
0.0
 40
0.0
 40
0.0
 40
0.0
 40
0.0312499999999998
 40
0.0312499999999998
 40
0.0624999999999997
 40
0.0624999999999997
 40
0.1249999999999995
 40
0.1249999999999995
 40
0.1874999999999993
 40
0.1874999999999993
 40
0.249999999999999
 40
0.249999999999999
 40
0.3124999999999988
 40
0.3124999999999988
 40
0.3749999999999986
 40
0.3749999999999986
 40
0.4999999999999989
 40
0.4999999999999989
 40
1.0
 40
1.0
 40
1.0
 40
1.0
 10
154.0579710841793
 20
464.7493966502412
 30
0.0
 10
154.2122598538376
 20
464.2549854026647
 30
0.0
 10
154.3819684875849
 20
463.7649988846114
 30
0.0
 10
154.7394753413744
 20
462.7919852119637
 30
0.0
 10
154.9271515281623
 20
462.308600236275
 30
0.0
 10
155.4876294452044
 20
460.8576997334994
 30
0.0
 10
155.8486750963798
 20
459.8858017974051
 30
0.0
 10
156.5557986731709
 20
457.9365059211303
 30
0.0
 10
156.9031144073249
 20
456.9595629962947
 30
0.0
 10
157.6013556190725
 20
455.0070035742664
 30
0.0
 10
157.953682474319
 20
454.0319019297781
 30
0.0
 10
158.6629813652163
 20
452.0834052035966
 30
0.0
 10
159.0195126189872
 20
451.1098469390232
 30
0.0
 10
159.7314905839232
 20
449.1623319962399
 30
0.0
 10
160.0862926080258
 20
448.1881418119615
 30
0.0
 10
161.1495043498157
 20
445.2651359360692
 30
0.0
 10
161.8586276216305
 20
443.316580464254
 30
0.0
 10
165.4046482693296
 20
433.5739503540637
 30
0.0
 10
168.24147802423
 20
425.7798510235633
 30
0.0
 10
171.0782982063568
 20
417.9857482335253
 30
0.0
  0
SPLINE
  5
BC
330
1F
100
AcDbEntity
  8
0
  6
Continuous
 62
     8
370
     0
100
AcDbSpline
210
0.0
220
0.0
230
1.0
 70
     8
 71
     3
 72
     8
 73
     4
 74
     0
 42
0.00000001
 43
0.00000001
 40
0.0
 40
0.0
 40
0.0
 40
0.0
 40
1.0
 40
1.0
 40
1.0
 40
1.0
 10
153.8269261364213
 20
472.9034607653445
 30
0.0
 10
153.7652384486894
 20
473.0730015057997
 30
0.0
 10
153.7340312351857
 20
473.1586863773454
 30
0.0
 10
153.7338266326684
 20
473.159248752978
 30
0.0
  0
SPLINE
  5
BD
330
1F
100
AcDbEntity
  8
0
  6
Continuous
 62
     8
370
     0
100
AcDbSpline
210
0.0
220
0.0
230
1.0
 70
     8
 71
     3
 72
     8
 73
     4
 74
     0
 42
0.00000001
 43
0.00000001
 40
0.0
 40
0.0
 40
0.0
 40
0.0
 40
1.0
 40
1.0
 40
1.0
 40
1.0
 10
154.0779021716404
 20
472.2141123973352
 30
0.0
 10
153.9685140987013
 20
472.5142377283198
 30
0.0
 10
153.8849166958631
 20
472.7440811103647
 30
0.0
 10
153.8269261364212
 20
472.9034607653444
 30
0.0
  0
SPLINE
  5
BE
330
1F
100
AcDbEntity
  8
0
  6
Continuous
 62
     8
370
     0
100
AcDbSpline
210
0.0
220
0.0
230
1.0
 70
     8
 71
     3
 72
    12
 73
     8
 74
     0
 42
0.00000001
 43
0.00000001
 40
0.0
 40
0.0
 40
0.0
 40
0.0
 40
0.5
 40
0.5
 40
0.75
 40
0.75
 40
1.0
 40
1.0
 40
1.0
 40
1.0
 10
155.1018502242516
 20
469.4004878390561
 30
0.0
 10
154.8849699057865
 20
469.9887981271756
 30
0.0
 10
154.6930264599329
 20
470.5223091214376
 30
0.0
 10
154.4349882161402
 20
471.2340210219704
 30
0.0
 10
154.3537829763847
 20
471.4571964977517
 30
0.0
 10
154.2056428861533
 20
471.8638181301116
 30
0.0
 10
154.1382787837206
 20
472.0484585906864
 30
0.0
 10
154.0779021716403
 20
472.214112397335
 30
0.0
  0
SPLINE
  5
BF
330
1F
100
AcDbEntity
  8
0
  6
Continuous
 62
     8
370
     0
100
AcDbSpline
210
0.0
220
0.0
230
1.0
 70
     8
 71
     3
 72
     8
 73
     4
 74
     0
 42
0.00000001
 43
0.00000001
 40
0.0
 40
0.0
 40
0.0
 40
0.0
 40
1.0
 40
1.0
 40
1.0
 40
1.0
 10
155.7729811645572
 20
467.5554313160422
 30
0.0
 10
155.5453032852113
 20
468.2104820290681
 30
0.0
 10
155.3153997887622
 20
468.8212125654203
 30
0.0
 10
155.1018502242516
 20
469.4004878390561
 30
0.0
  0
SPLINE
  5
C0
330
1F
100
AcDbEntity
  8
0
  6
Continuous
 62
     8
370
     0
100
AcDbSpline
210
0.0
220
0.0
230
1.0
 70
     8
 71
     3
 72
     8
 73
     4
 74
     0
 42
0.00000001
 43
0.00000001
 40
0.0
 40
0.0
 40
0.0
 40
0.0
 40
1.0
 40
1.0
 40
1.0
 40
1.0
 10
156.4743757176117
 20
465.6289599500624
 30
0.0
 10
156.2070107019587
 20
466.2681990860081
 30
0.0
 10
155.9938816078113
 20
466.9198799252926
 30
0.0
 10
155.7729811645572
 20
467.5554313160422
 30
0.0
  0
SPLINE
  5
C1
330
1F
100
AcDbEntity
  8
0
  6
Continuous
 62
     8
370
     0
100
AcDbSpline
210
0.0
220
0.0
230
1.0
 70
     8
 71
     3
 72
     8
 73
     4
 74
     0
 42
0.00000001
 43
0.00000001
 40
0.0
 40
0.0
 40
0.0
 40
0.0
 40
1.0
 40
1.0
 40
1.0
 40
1.0
 10
152.6803517843796
 20
468.5340041009888
 30
0.0
 10
152.8964583439693
 20
467.9327509580744
 30
0.0
 10
153.1207537384986
 20
467.2946297858754
 30
0.0
 10
153.3775617763509
 20
466.6219662564591
 30
0.0
  0
SPLINE
  5
C2
330
1F
100
AcDbEntity
  8
0
  6
Continuous
 62
     8
370
     0
100
AcDbSpline
210
0.0
220
0.0
230
1.0
 70
     8
 71
     3
 72
    12
 73
     8
 74
     0
 42
0.00000001
 43
0.00000001
 40
0.0
 40
0.0
 40
0.0
 40
0.0
 40
0.2500000000000017
 40
0.2500000000000017
 40
0.5000000000000034
 40
0.5000000000000034
 40
1.0
 40
1.0
 40
1.0
 40
1.0
 10
151.6609744299972
 20
471.3342033473703
 30
0.0
 10
151.7209773863268
 20
471.1691177687114
 30
0.0
 10
151.7877837011114
 20
470.9851305897332
 30
0.0
 10
151.9350306547318
 20
470.5801808815844
 30
0.0
 10
152.0158888862256
 20
470.3580858320402
 30
0.0
 10
152.2743980119872
 20
469.6505470926995
 30
0.0
 10
152.4693256953182
 20
469.1211223241752
 30
0.0
 10
152.6803517843796
 20
468.5340041009889
 30
0.0
  0
SPLINE
  5
C3
330
1F
100
AcDbEntity
  8
0
  6
Continuous
 62
     8
370
     0
100
AcDbSpline
210
0.0
220
0.0
230
1.0
 70
     8
 71
     3
 72
     8
 73
     4
 74
     0
 42
0.00000001
 43
0.00000001
 40
0.0
 40
0.0
 40
0.0
 40
0.0
 40
1.0
 40
1.0
 40
1.0
 40
1.0
 10
151.4098996846974
 20
472.0242282891448
 30
0.0
 10
151.4679409614459
 20
471.8648128744939
 30
0.0
 10
151.5517185742906
 20
471.6347979724441
 30
0.0
 10
151.6609744299971
 20
471.3342033473703
 30
0.0
  0
SPLINE
  5
C4
330
1F
100
AcDbEntity
  8
0
  6
Continuous
 62
     8
370
     0
100
AcDbSpline
210
0.0
220
0.0
230
1.0
 70
     8
 71
     3
 72
     8
 73
     4
 74
     0
 42
0.00000001
 43
0.00000001
 40
0.0
 40
0.0
 40
0.0
 40
0.0
 40
1.0
 40
1.0
 40
1.0
 40
1.0
 10
151.3169591546866
 20
472.2795812347956
 30
0.0
 10
151.3171533711726
 20
472.2790478606922
 30
0.0
 10
151.3482720637837
 20
472.1934939099631
 30
0.0
 10
151.4098996846973
 20
472.0242282891447
 30
0.0
  0
SPLINE
  5
C5
330
1F
100
AcDbEntity
  8
0
  6
Continuous
 62
     8
370
     0
100
AcDbSpline
210
0.0
220
0.0
230
1.0
 70
     8
 71
     3
 72
    10
 73
     6
 74
     0
 42
0.00000001
 43
0.00000001
 40
0.0
 40
0.0
 40
0.0
 40
0.0
 40
0.5
 40
0.5
 40
1.0
 40
1.0
 40
1.0
 40
1.0
 10
153.377561776351
 20
466.6219662564591
 30
0.0
 10
153.4942932915346
 20
466.3162085642383
 30
0.0
 10
153.6144602583312
 20
466.0086119431868
 30
0.0
 10
153.8461686544051
 20
465.3857640167374
 30
0.0
 10
153.9584701151079
 20
465.0688081789055
 30
0.0
 10
154.0579710841793
 20
464.7493966502412
 30
0.0
  0
SPLINE
  5
C6
330
1F
100
AcDbEntity
  8
0
  6
Continuous
 62
     8
370
     0
100
AcDbSpline
210
0.0
220
0.0
230
1.0
 70
     8
 71
     3
 72
    14
 73
    10
 74
     0
 42
0.00000001
 43
0.00000001
 40
0.0
 40
0.0
 40
0.0
 40
0.0
 40
0.0366275970784868
 40
0.1401351003495892
 40
0.2724124055157113
 40
0.4074860513611352
 40
0.6581311550930921
 40
0.9151488494734313
 40
1.0
 40
1.0
 40
1.0
 40
1.0
 10
161.5157113451557
 20
384.0860173963399
 30
0.0
 10
161.5185142375565
 20
384.4176218589067
 30
0.0
 10
161.5292379442471
 20
385.686321646627
 30
0.0
 10
161.6967189996404
 20
388.0997724100737
 30
0.0
 10
162.1557608433417
 20
391.1108767116339
 30
0.0
 10
163.1211604194484
 20
395.0461783552174
 30
0.0
 10
164.9323343287091
 20
399.5887678286525
 30
0.0
 10
167.2413732994962
 20
403.5309566910046
 30
0.0
 10
169.1063377052561
 20
405.502719038173
 30
0.0
 10
169.5692180696921
 20
405.9921064339966
 30
0.0
  0
LWPOLYLINE
  5
C7
330
1F
100
AcDbEntity
  8
0
  6
Continuous
 62
     8
370
     0
100
AcDbPolyline
 90
       40
 70
   128
 43
0.0
 10
180.0438398536
 20
412.5340216719
 10
182.4349537533
 20
413.0242624246
 10
185.4532008915
 20
413.1610327326
 10
186.1011963379
 20
413.1264769398
 10
188.9026621398
 20
412.714064952
 10
191.6560526047
 20
411.8761726581
 10
194.2633655895
 20
410.6508203708
 10
196.6683524702
 20
409.0943791829
 10
199.8620093841
 20
406.2419840061
 10
202.5212519843
 20
402.9154636823
 10
205.2457560826
 20
397.9404204451
 10
207.0873309899
 20
392.3864447438
 10
207.8161020804
 20
388.2425100468
 10
207.9757885117
 20
386.4826382064
 10
208.0511362333
 20
384.6099533998
 10
207.9852805514
 20
381.8375253044
 10
207.8169384081
 20
379.9367667102
 10
207.5556297828
 20
378.0929454528
 10
206.3604244072
 20
373.189576801
 10
204.4637096155
 20
368.5620994233
 10
201.8550396938
 20
364.3178836368
 10
198.3149177436
 20
360.4209058844
 10
195.7073458511
 20
358.4021394067
 10
192.6456322003
 20
356.7087472342
 10
190.2692052577
 20
355.8182929568
 10
187.6805766992
 20
355.2250442021
 10
185.8412473271
 20
355.0289821737
 10
182.8868594062
 20
355.0959833824
 10
179.8882586923
 20
355.6504239254
 10
177.2368121933
 20
356.5719750636
 10
174.7378963087
 20
357.8501966708
 10
171.5628220741
 20
360.1512079053
 10
168.823238932
 20
362.9212425016
 10
165.819187187
 20
367.2336981558
 10
163.598238029
 20
372.0585637652
 10
162.2731653083
 20
376.7250598334
 10
161.8268773932
 20
379.3451310061
 10
161.5636316169
 20
382.2202690803
 10
161.5157113452
 20
384.0860173963
 10
161.5157113452
 20
384.0860173963
  0
LINE
  5
C8
330
1F
100
AcDbEntity
  8
0
  6
Continuous
 62
     8
370
     0
100
AcDbLine
 10
160.7133117545
 20
424.9253355824
 30
0.0
 11
165.5695107807
 21
424.9253355824
 31
0.0
  0
LINE
  5
C9
330
1F
100
AcDbEntity
  8
0
  6
Continuous
 62
     8
370
     0
100
AcDbLine
 10
174.16097457
 20
424.9253355824
 30
0.0
 11
208.8573114056
 21
424.9253355824
 31
0.0
  0
LINE
  5
CA
330
1F
100
AcDbEntity
  8
0
  6
Continuous
 62
     8
370
     0
100
AcDbLine
 10
171.8837316189
 20
430.9747450911
 30
0.0
 11
205.8061179746
 21
430.9747450911
 31
0.0
  0
SPLINE
  5
CB
330
1F
100
AcDbEntity
  8
0
  6
Continuous
 62
     7
370
    15
100
AcDbSpline
210
0.0
220
0.0
230
1.0
 70
     8
 71
     3
 72
     9
 73
     5
 74
     0
 42
0.00000001
 43
0.00000001
 40
0.0
 40
0.0
 40
0.0
 40
0.0
 40
0.5704194084053797
 40
1.0
 40
1.0
 40
1.0
 40
1.0
 10
407.7312812852814
 20
462.7290078364701
 30
0.0
 10
407.7530743012775
 20
463.5398168444326
 30
0.0
 10
407.7912795510903
 20
464.9612428969388
 30
0.0
 10
407.5539958146898
 20
466.3600723395217
 30
0.0
 10
407.4520633268311
 20
466.9609823190064
 30
0.0
  0
SPLINE
  5
CC
330
1F
100
AcDbEntity
  8
0
  6
Continuous
 62
     7
370
    15
100
AcDbSpline
210
0.0
220
0.0
230
1.0
 70
     8
 71
     3
 72
     9
 73
     5
 74
     0
 42
0.00000001
 43
0.00000001
 40
0.0
 40
0.0
 40
0.0
 40
0.0
 40
0.5124769518147252
 40
1.0
 40
1.0
 40
1.0
 40
1.0
 10
391.9251539456799
 20
467.6749118529648
 30
0.0
 10
391.778455331193
 20
466.8367476355855
 30
0.0
 10
391.4922012587563
 20
465.2012317076761
 30
0.0
 10
391.5279380771271
 20
463.5393183227005
 30
0.0
 10
391.5453605997517
 20
462.7290972434373
 30
0.0
  0
SPLINE
  5
CD
330
1F
100
AcDbEntity
  8
0
  6
Continuous
 62
     7
370
    15
100
AcDbSpline
210
0.0
220
0.0
230
1.0
 70
     8
 71
     3
 72
     9
 73
     5
 74
     0
 42
0.00000001
 43
0.00000001
 40
0.0
 40
0.0
 40
0.0
 40
0.0
 40
0.2694102714103382
 40
1.0
 40
1.0
 40
1.0
 40
1.0
 10
399.6448383378937
 20
473.2405551635117
 30
0.0
 10
399.4602704261765
 20
473.2436582013673
 30
0.0
 10
398.7751892273381
 20
473.2551760913101
 30
0.0
 10
398.1041565247666
 20
473.1062049780399
 30
0.0
 10
397.61390692472
 20
472.9973682128281
 30
0.0
  0
SPLINE
  5
CE
330
1F
100
AcDbEntity
  8
0
  6
Continuous
 62
     7
370
    15
100
AcDbSpline
210
0.0
220
0.0
230
1.0
 70
     8
 71
     3
 72
     9
 73
     5
 74
     0
 42
0.00000001
 43
0.00000001
 40
0.0
 40
0.0
 40
0.0
 40
0.0
 40
0.2710876270145381
 40
1.0
 40
1.0
 40
1.0
 40
1.0
 10
401.6643703627541
 20
472.990364667067
 30
0.0
 10
401.4864826730416
 20
473.0380657971189
 30
0.0
 10
400.8302827141144
 20
473.2140278304187
 30
0.0
 10
400.1469162891851
 20
473.2323360645653
 30
0.0
 10
399.6488020467713
 20
473.2456811629624
 30
0.0
  0
SPLINE
  5
CF
330
1F
100
AcDbEntity
  8
0
  6
Continuous
 62
     7
370
    15
100
AcDbSpline
210
0.0
220
0.0
230
1.0
 70
     8
 71
     3
 72
     9
 73
     5
 74
     0
 42
0.00000001
 43
0.00000001
 40
0.0
 40
0.0
 40
0.0
 40
0.0
 40
0.2672378081204498
 40
1.0
 40
1.0
 40
1.0
 40
1.0
 10
397.6114929366066
 20
472.9898431264252
 30
0.0
 10
397.4304710230816
 20
472.9475458767099
 30
0.0
 10
396.7530896495468
 20
472.789270182066
 30
0.0
 10
396.1326757038476
 20
472.4735786721175
 30
0.0
 10
395.6780598211243
 20
472.2422518693299
 30
0.0
  0
SPLINE
  5
D0
330
1F
100
AcDbEntity
  8
0
  6
Continuous
 62
     7
370
    15
100
AcDbSpline
210
0.0
220
0.0
230
1.0
 70
     8
 71
     3
 72
     9
 73
     5
 74
     0
 42
0.00000001
 43
0.00000001
 40
0.0
 40
0.0
 40
0.0
 40
0.0
 40
0.300694703118313
 40
1.0
 40
1.0
 40
1.0
 40
1.0
 10
403.4547821330979
 20
472.3099478446335
 30
0.0
 10
403.2859638199028
 20
472.4016846253608
 30
0.0
 10
402.7245361943264
 20
472.7067674212195
 30
0.0
 10
402.1014084175504
 20
472.8704393171406
 30
0.0
 10
401.6656518626168
 20
472.9848959409089
 30
0.0
  0
SPLINE
  5
D1
330
1F
100
AcDbEntity
  8
0
  6
Continuous
 62
     7
370
    15
100
AcDbSpline
210
0.0
220
0.0
230
1.0
 70
     8
 71
     3
 72
     9
 73
     5
 74
     0
 42
0.00000001
 43
0.00000001
 40
0.0
 40
0.0
 40
0.0
 40
0.0
 40
0.5359560268330982
 40
1.0
 40
1.0
 40
1.0
 40
1.0
 10
406.5333545851662
 20
469.4647499286027
 30
0.0
 10
406.4896830408838
 20
469.5475828580404
 30
0.0
 10
406.4081995943025
 20
469.7021345848439
 30
0.0
 10
406.2921797195137
 20
469.833629162691
 30
0.0
 10
406.2383413958504
 20
469.8946484290452
 30
0.0
  0
SPLINE
  5
D2
330
1F
100
AcDbEntity
  8
0
  6
Continuous
 62
     7
370
    15
100
AcDbSpline
210
0.0
220
0.0
230
1.0
 70
     8
 71
     3
 72
    10
 73
     6
 74
     0
 42
0.00000001
 43
0.00000001
 40
0.0
 40
0.0
 40
0.0
 40
0.0
 40
0.1654786765155197
 40
0.7091088646967196
 40
1.0
 40
1.0
 40
1.0
 40
1.0
 10
405.7347268509819
 20
470.5092319213242
 30
0.0
 10
405.6352437525786
 20
470.6352380500471
 30
0.0
 10
405.2089389956714
 20
471.1751992387937
 30
0.0
 10
404.4299018321487
 20
471.7964419585875
 30
0.0
 10
403.6996330496933
 20
472.1636394065401
 30
0.0
 10
403.4450814771607
 20
472.2916343175263
 30
0.0
  0
SPLINE
  5
D3
330
1F
100
AcDbEntity
  8
0
  6
Continuous
 62
     7
370
    15
100
AcDbSpline
210
0.0
220
0.0
230
1.0
 70
     8
 71
     3
 72
     9
 73
     5
 74
     0
 42
0.00000001
 43
0.00000001
 40
0.0
 40
0.0
 40
0.0
 40
0.0
 40
0.5297008414124128
 40
1.0
 40
1.0
 40
1.0
 40
1.0
 10
395.6770316410019
 20
472.2335793935151
 30
0.0
 10
395.4859952128488
 20
472.1356676197558
 30
0.0
 10
395.125345553234
 20
471.950824089022
 30
0.0
 10
394.8220371400202
 20
471.685641312659
 30
0.0
 10
394.6793914484932
 20
471.5609260760636
 30
0.0
  0
SPLINE
  5
D4
330
1F
100
AcDbEntity
  8
0
  6
Continuous
 62
     7
370
    15
100
AcDbSpline
210
0.0
220
0.0
230
1.0
 70
     8
 71
     3
 72
     9
 73
     5
 74
     0
 42
0.00000001
 43
0.00000001
 40
0.0
 40
0.0
 40
0.0
 40
0.0
 40
0.5212004704128272
 40
0.9999999999999999
 40
0.9999999999999999
 40
0.9999999999999999
 40
0.9999999999999999
 10
394.6665615487053
 20
471.5769001208634
 30
0.0
 10
394.4994715457497
 20
471.4577632876313
 30
0.0
 10
394.1788847227498
 20
471.2291816957195
 30
0.0
 10
393.9260791854554
 20
470.930573822713
 30
0.0
 10
393.8050360131218
 20
470.7876005135865
 30
0.0
  0
SPLINE
  5
D5
330
1F
100
AcDbEntity
  8
0
  6
Continuous
 62
     7
370
    15
100
AcDbSpline
210
0.0
220
0.0
230
1.0
 70
     8
 71
     3
 72
     9
 73
     5
 74
     0
 42
0.00000001
 43
0.00000001
 40
0.0
 40
0.0
 40
0.0
 40
0.0
 40
0.7729553266398034
 40
1.0
 40
1.0
 40
1.0
 40
1.0
 10
393.4247285771324
 20
470.3978904448838
 30
0.0
 10
393.2800718829166
 20
470.2423878341339
 30
0.0
 10
393.0929243347592
 20
470.0412085351622
 30
0.0
 10
392.9622737886832
 20
469.8025134693676
 30
0.0
 10
392.932610278125
 20
469.7483190261216
 30
0.0
  0
SPLINE
  5
D6
330
1F
100
AcDbEntity
  8
0
  6
Continuous
 62
     7
370
    15
100
AcDbSpline
210
0.0
220
0.0
230
1.0
 70
     8
 71
     3
 72
     9
 73
     5
 74
     0
 42
0.00000001
 43
0.00000001
 40
0.0
 40
0.0
 40
0.0
 40
0.0
 40
0.7021348540745771
 40
1.0
 40
1.0
 40
1.0
 40
1.0
 10
406.6451430964424
 20
469.2773827277512
 30
0.0
 10
406.6251860251578
 20
469.3259819866157
 30
0.0
 10
406.5967626088172
 20
469.3951984036366
 30
0.0
 10
406.5507141499872
 20
469.4539771219535
 30
0.0
 10
406.5369979190781
 20
469.4714852534623
 30
0.0
  0
SPLINE
  5
D7
330
1F
100
AcDbEntity
  8
0
  6
Continuous
 62
     7
370
    15
100
AcDbSpline
210
0.0
220
0.0
230
1.0
 70
     8
 71
     3
 72
     9
 73
     5
 74
     0
 42
0.00000001
 43
0.00000001
 40
0.0
 40
0.0
 40
0.0
 40
0.0
 40
0.7037112942604619
 40
1.0
 40
1.0
 40
1.0
 40
1.0
 10
392.7430824089005
 20
469.4673725329728
 30
0.0
 10
392.6964149618137
 20
469.4056490343317
 30
0.0
 10
392.6300987786468
 20
469.3179376402636
 30
0.0
 10
392.5866634416497
 20
469.2174853267942
 30
0.0
 10
392.5737940418675
 20
469.1877224408478
 30
0.0
  0
ARC
  5
D8
330
1F
100
AcDbEntity
  8
0
  6
Continuous
 62
     7
370
    15
100
AcDbCircle
 10
313.6311005954
 20
424.9253336496
 30
0.0
 40
7.522500000000019
100
AcDbArc
 50
126.46923439
 51
180.0
  0
ARC
  5
D9
330
1F
100
AcDbEntity
  8
0
  6
Continuous
 62
     7
370
    15
100
AcDbCircle
 10
346.7301005954
 20
424.9253336496
 30
0.0
 40
7.522500000000093
100
AcDbArc
 50
0.0
 51
53.53076561
  0
LINE
  5
DA
330
1F
100
AcDbEntity
  8
0
  6
Continuous
 62
     7
370
    15
100
AcDbLine
 10
306.1086010832
 20
424.9253355824
 30
0.0
 11
306.1086010832
 21
416.3826190792
 31
0.0
  0
LINE
  5
DB
330
1F
100
AcDbEntity
  8
0
  6
Continuous
 62
     7
370
    15
100
AcDbLine
 10
354.2526007342
 20
416.3826190792
 30
0.0
 11
354.2526007342
 21
424.9253355824
 31
0.0
  0
ARC
  5
DC
330
1F
100
AcDbEntity
  8
0
  6
Continuous
 62
     7
370
    15
100
AcDbCircle
 10
306.3092005954
 20
416.3826188855
 30
0.0
 40
0.2006000000000085
100
AcDbArc
 50
180.0
 51
270.0
  0
ARC
  5
DD
330
1F
100
AcDbEntity
  8
0
  6
Continuous
 62
     7
370
    15
100
AcDbCircle
 10
354.0520005954
 20
416.3826188855
 30
0.0
 40
0.2006000000000085
100
AcDbArc
 50
270.0
 51
0.0
  0
ARC
  5
DE
330
1F
100
AcDbEntity
  8
0
  6
Continuous
 62
     7
370
    15
100
AcDbCircle
 10
354.0520005954
 20
415.9814188855
 30
0.0
 40
0.2005999999999517
100
AcDbArc
 50
0.0
 51
90.0
  0
ARC
  5
DF
330
1F
100
AcDbEntity
  8
0
  6
Continuous
 62
     7
370
    15
100
AcDbCircle
 10
306.3092005954
 20
415.9814188855
 30
0.0
 40
0.2006000000000085
100
AcDbArc
 50
90.0
 51
180.0
  0
LINE
  5
E0
330
1F
100
AcDbEntity
  8
0
  6
Continuous
 62
     7
370
    15
100
AcDbLine
 10
306.1086010832
 20
415.9814202153
 30
0.0
 11
306.1086010832
 21
331.9300188609
 31
0.0
  0
LINE
  5
E1
330
1F
100
AcDbEntity
  8
0
  6
Continuous
 62
     7
370
    15
100
AcDbLine
 10
354.2526007342
 20
413.1577023231
 30
0.0
 11
354.2526007342
 21
415.9814202153
 31
0.0
  0
LINE
  5
E2
330
1F
100
AcDbEntity
  8
0
  6
Continuous
 62
     7
370
    15
100
AcDbLine
 10
354.2526007342
 20
331.9300188609
 30
0.0
 11
354.2526007342
 21
355.0108176582
 31
0.0
  0
SPLINE
  5
E3
330
1F
100
AcDbEntity
  8
0
  6
Continuous
 62
     7
370
    15
100
AcDbSpline
210
0.0
220
0.0
230
1.0
 70
     8
 71
     3
 72
    16
 73
    12
 74
     0
 42
0.00000001
 43
0.00000001
 40
0.0
 40
0.0
 40
0.0
 40
0.0
 40
0.05339580611313
 40
0.1807511526494925
 40
0.3155030976924629
 40
0.4534249052818559
 40
0.6055321043504499
 40
0.7427934917551191
 40
0.8681473673136414
 40
0.9836874461885222
 40
1.0
 40
1.0
 40
1.0
 40
1.0
 10
354.2795662480547
 20
355.0124698244423
 30
0.0
 10
354.2727638927546
 20
355.1801669620585
 30
0.0
 10
354.2497371112386
 20
355.7478417126918
 30
0.0
 10
354.4682503579826
 20
356.727467298436
 30
0.0
 10
354.9373399618831
 20
357.8966294199579
 30
0.0
 10
355.7036898913467
 20
359.0022632037732
 30
0.0
 10
356.7029543745594
 20
359.9130102811716
 30
0.0
 10
357.8461144431362
 20
360.5605565805041
 30
0.0
 10
358.9838771005352
 20
360.9058210136261
 30
0.0
 10
359.790952071494
 20
361.0388519750069
 30
0.0
 10
360.2039667534687
 20
361.0119242295342
 30
0.0
 10
360.2550641345932
 20
361.0085927807183
 30
0.0
  0
SPLINE
  5
E4
330
1F
100
AcDbEntity
  8
0
  6
Continuous
 62
     7
370
    15
100
AcDbSpline
210
0.0
220
0.0
230
1.0
 70
     8
 71
     3
 72
    16
 73
    12
 74
     0
 42
0.00000001
 43
0.00000001
 40
0.0
 40
0.0
 40
0.0
 40
0.0
 40
0.0215730340824283
 40
0.1475602791002006
 40
0.2817139652959081
 40
0.4192969725703569
 40
0.5727259211905825
 40
0.7110112697886029
 40
0.837118650002556
 40
0.9533196277848894
 40
1.0
 40
1.0
 40
1.0
 40
1.0
 10
360.2646884220793
 20
407.1688958369584
 30
0.0
 10
360.1971019159142
 20
407.1633699245216
 30
0.0
 10
359.7348079393218
 20
407.1255724974967
 30
0.0
 10
358.8501732555036
 20
407.2923422835189
 30
0.0
 10
357.6632811258389
 20
407.6891786853971
 30
0.0
 10
356.5157397295307
 20
408.3978378365704
 30
0.0
 10
355.5469555770158
 20
409.352273597827
 30
0.0
 10
354.8375401898724
 20
410.4706517833609
 30
0.0
 10
354.4277030679256
 20
411.5980907889713
 30
0.0
 10
354.2499967372826
 20
412.4982841321711
 30
0.0
 10
354.2654643689514
 20
413.010253630398
 30
0.0
 10
354.2698972570851
 20
413.1569796167702
 30
0.0
  0
LINE
  5
E5
330
1F
100
AcDbEntity
  8
0
  6
Continuous
 62
     7
370
    15
100
AcDbLine
 10
360.2570906925
 20
361.0170193874
 30
0.0
 11
368.7961005318
 21
361.0170193874
 31
0.0
  0
LINE
  5
E6
330
1F
100
AcDbEntity
  8
0
  6
Continuous
 62
     7
370
    15
100
AcDbLine
 10
368.7961005318
 20
407.1550154053
 30
0.0
 11
360.2685738999
 21
407.1550154053
 31
0.0
  0
ARC
  5
E7
330
1F
100
AcDbEntity
  8
0
  6
Continuous
 62
     7
370
    15
100
AcDbCircle
 10
368.7961005954
 20
361.5185188855
 30
0.0
 40
0.5015000000000782
100
AcDbArc
 50
270.0
 51
0.0
  0
ARC
  5
E8
330
1F
100
AcDbEntity
  8
0
  6
Continuous
 62
     7
370
    15
100
AcDbCircle
 10
368.7961005954
 20
406.6535188855
 30
0.0
 40
0.5015000000000214
100
AcDbArc
 50
0.0
 51
90.0
  0
LINE
  5
E9
330
1F
100
AcDbEntity
  8
0
  6
Continuous
 62
     7
370
    15
100
AcDbLine
 10
371.3036008823
 20
406.1520182453
 30
0.0
 11
369.2975991118
 21
406.1520182453
 31
0.0
  0
LINE
  5
EA
330
1F
100
AcDbEntity
  8
0
  6
Continuous
 62
     7
370
    15
100
AcDbLine
 10
369.2975991118
 20
362.0200202726
 30
0.0
 11
371.3036008823
 21
362.0200202726
 31
0.0
  0
ARC
  5
EB
330
1F
100
AcDbEntity
  8
0
  6
Continuous
 62
     7
370
    15
100
AcDbCircle
 10
371.3772868982
 20
384.0858958526
 30
0.0
 40
22.066
100
AcDbArc
 50
269.814547584
 51
295.1264493201
  0
ARC
  5
EC
330
1F
100
AcDbEntity
  8
0
  6
Continuous
 62
     7
370
    15
100
AcDbCircle
 10
371.3772868982
 20
384.0858958526
 30
0.0
 40
22.06600000000001
100
AcDbArc
 50
75.181877441
 51
90.1842848233
  0
LINE
  5
ED
330
1F
100
AcDbEntity
  8
0
  6
Continuous
 62
     7
370
    15
100
AcDbLine
 10
351.2014073032
 20
430.9747450911
 30
0.0
 11
342.8509670022
 21
437.1468135082
 31
0.0
  0
LINE
  5
EE
330
1F
100
AcDbEntity
  8
0
  6
Continuous
 62
     7
370
    15
100
AcDbLine
 10
317.5102338839
 20
437.1468135082
 30
0.0
 11
309.1597945142
 21
430.9747450911
 31
0.0
  0
ARC
  5
EF
330
1F
100
AcDbEntity
  8
0
  6
Continuous
 62
     7
370
    15
100
AcDbCircle
 10
275.3848153205
 20
384.0860188855
 30
0.0
 40
133.730653226773
100
AcDbArc
 50
351.1727494786
 51
0.0
  0
ARC
  5
F0
330
1F
100
AcDbEntity
  8
0
  6
Continuous
 62
     7
370
    15
100
AcDbCircle
 10
317.8083212245
 20
436.7435188855
 30
0.0
 40
0.5015000000000214
100
AcDbArc
 50
90.0
 51
126.46923439
  0
ARC
  5
F1
330
1F
100
AcDbEntity
  8
0
  6
Continuous
 62
     7
370
    15
100
AcDbCircle
 10
342.5528799663
 20
436.7435188855
 30
0.0
 40
0.5015000000000214
100
AcDbArc
 50
53.53076561
 51
90.0
  0
SPLINE
  5
F2
330
1F
100
AcDbEntity
  8
0
  6
Continuous
 62
     7
370
    15
100
AcDbSpline
210
0.0
220
0.0
230
1.0
 70
     8
 71
     3
 72
    13
 73
     9
 74
     0
 42
0.00000001
 43
0.00000001
 40
0.0
 40
0.0
 40
0.0
 40
0.0
 40
0.0715607002051049
 40
0.2143641182271592
 40
0.4572957077817544
 40
0.6519422278814389
 40
0.8270060684111681
 40
1.0
 40
1.0
 40
1.0
 40
1.0
 10
390.858312760587
 20
413.4062313400597
 30
0.0
 10
390.7925327554074
 20
413.1936150105372
 30
0.0
 10
390.5954850355432
 20
412.5567107898107
 30
0.0
 10
389.9661195852651
 20
411.4094837543752
 30
0.0
 10
389.1256716024364
 20
410.2203011834173
 30
0.0
 10
388.0672337521189
 20
409.2367218915062
 30
0.0
 10
386.9117113532943
 20
408.4762917926814
 30
0.0
 10
385.9752336107391
 20
408.1628169486524
 30
0.0
 10
385.5097793686344
 20
408.0070116483063
 30
0.0
  0
SPLINE
  5
F3
330
1F
100
AcDbEntity
  8
0
  6
Continuous
 62
     7
370
    15
100
AcDbSpline
210
0.0
220
0.0
230
1.0
 70
     8
 71
     3
 72
    11
 73
     7
 74
     0
 42
0.00000001
 43
0.00000001
 40
0.0
 40
0.0
 40
0.0
 40
0.0
 40
0.4529803258440974
 40
0.7471813311337079
 40
0.8710059030605597
 40
1.0
 40
1.0
 40
1.0
 40
1.0
 10
382.341412519212
 20
407.35289537538
 30
0.0
 10
381.7497046246783
 20
407.2999393366476
 30
0.0
 10
380.7736951446724
 20
407.212589486656
 30
0.0
 10
379.5922946774281
 20
407.1744941616298
 30
0.0
 10
378.8509876099281
 20
407.15932374734
 30
0.0
 10
378.5084246674653
 20
407.1560861560741
 30
0.0
 10
378.3336409079983
 20
407.1544342600197
 30
0.0
  0
SPLINE
  5
F4
330
1F
100
AcDbEntity
  8
0
  6
Continuous
 62
     7
370
    15
100
AcDbSpline
210
0.0
220
0.0
230
1.0
 70
     8
 71
     3
 72
    15
 73
    11
 74
     0
 42
0.00000001
 43
0.00000001
 40
0.0
 40
0.0
 40
0.0
 40
0.0
 40
0.1266663932922357
 40
0.2571692847791282
 40
0.3850741493747159
 40
0.5057735934253881
 40
0.6192079895385315
 40
0.7338340392224814
 40
0.862273763551881
 40
1.0
 40
1.0
 40
1.0
 40
1.0
 10
409.1154650497391
 20
384.0860173963399
 30
0.0
 10
409.0974335214568
 20
385.6545152200935
 30
0.0
 10
409.0608243221949
 20
388.8390178575195
 30
0.0
 10
408.8297616692978
 20
393.5336311924295
 30
0.0
 10
408.5786524599829
 20
397.9627755821993
 30
0.0
 10
408.3241064244502
 20
401.9244676589768
 30
0.0
 10
408.0876638581908
 20
405.5331759572005
 30
0.0
 10
407.8887060880083
 20
409.3996232888651
 30
0.0
 10
407.7457385447191
 20
413.7639247602356
 30
0.0
 10
407.7238331881008
 20
416.8359692331349
 30
0.0
 10
407.7124983715966
 20
418.4255831800789
 30
0.0
  0
LINE
  5
F5
330
1F
100
AcDbEntity
  8
0
  6
Continuous
 62
     7
370
    15
100
AcDbLine
 10
342.1664504978
 20
437.245019611
 30
0.0
 11
342.1664504978
 21
437.445619043
 31
0.0
  0
LINE
  5
F6
330
1F
100
AcDbEntity
  8
0
  6
Continuous
 62
     7
370
    15
100
AcDbLine
 10
318.1947503883
 20
437.445619043
 30
0.0
 11
318.1947503883
 21
437.245019611
 31
0.0
  0
LINE
  5
F7
330
1F
100
AcDbEntity
  8
0
  6
Continuous
 62
     7
370
    15
100
AcDbLine
 10
381.7868658054
 20
406.8165504299
 30
0.0
 11
381.5695621717
 21
406.2604614459
 31
0.0
  0
SPLINE
  5
F8
330
1F
100
AcDbEntity
  8
0
  6
Continuous
 62
     7
370
    15
100
AcDbSpline
210
0.0
220
0.0
230
1.0
 70
     8
 71
     3
 72
    15
 73
    11
 74
     0
 42
0.00000001
 43
0.00000001
 40
0.0
 40
0.0
 40
0.0
 40
0.0
 40
0.1107491451862113
 40
0.2251336035543244
 40
0.3436524789721657
 40
0.4688740531810985
 40
0.6090716165717289
 40
0.7476025016235943
 40
0.8848328058074307
 40
1.0
 40
1.0
 40
1.0
 40
1.0
 10
382.0871987092449
 20
407.1923800669999
 30
0.0
 10
381.9748395782493
 20
407.0842299411868
 30
0.0
 10
381.7464331556918
 20
406.8643796885439
 30
0.0
 10
381.7146502859958
 20
406.4077275662962
 30
0.0
 10
381.97229527535
 20
406.0114918428303
 30
0.0
 10
382.4691609148962
 20
405.6803000286537
 30
0.0
 10
383.2251026689178
 20
405.4035259208548
 30
0.0
 10
384.1995038130092
 20
405.2152189962193
 30
0.0
 10
385.2278253349502
 20
405.1316214804577
 30
0.0
 10
385.8954581525365
 20
405.1558941064176
 30
0.0
 10
386.2000942873909
 20
405.1669695340485
 30
0.0
  0
SPLINE
  5
F9
330
1F
100
AcDbEntity
  8
0
  6
Continuous
 62
     7
370
    15
100
AcDbSpline
210
0.0
220
0.0
230
1.0
 70
     8
 71
     3
 72
    13
 73
     9
 74
     0
 42
0.00000001
 43
0.00000001
 40
0.0
 40
0.0
 40
0.0
 40
0.0
 40
0.1120545275632409
 40
0.3270243624806753
 40
0.5428570766170309
 40
0.759823242793639
 40
0.9796930177593632
 40
1.0
 40
1.0
 40
1.0
 40
1.0
 10
386.2191677737191
 20
407.9922967516274
 30
0.0
 10
386.0323026467214
 20
408.0011796191935
 30
0.0
 10
385.4869480737721
 20
408.0271037310162
 30
0.0
 10
384.5664789819291
 20
407.9858948237721
 30
0.0
 10
383.5481512363378
 20
407.8369508811062
 30
0.0
 10
382.7159200919258
 20
407.5773755131601
 30
0.0
 10
382.2260102547693
 20
407.3648352973022
 30
0.0
 10
382.0980202814312
 20
407.2058244582178
 30
0.0
 10
382.0871987092449
 20
407.1923800669999
 30
0.0
  0
LINE
  5
FA
330
1F
100
AcDbEntity
  8
0
  6
Continuous
 62
     7
370
    15
100
AcDbLine
 10
384.1188900816
 20
405.6656219922
 30
0.0
 11
383.7089032578
 21
405.7282366716
 31
0.0
  0
SPLINE
  5
FB
330
1F
100
AcDbEntity
  8
0
  6
Continuous
 62
     7
370
    15
100
AcDbSpline
210
0.0
220
0.0
230
1.0
 70
     8
 71
     3
 72
    15
 73
    11
 74
     0
 42
0.00000001
 43
0.00000001
 40
0.0
 40
0.0
 40
0.0
 40
0.0
 40
0.1256129824714527
 40
0.2695571678489221
 40
0.4055307146235683
 40
0.5499739128463044
 40
0.6949933091981422
 40
0.842995306725217
 40
0.9924234209703234
 40
1.0
 40
1.0
 40
1.0
 40
1.0
 10
382.3423587429478
 20
406.2744089328141
 30
0.0
 10
382.2678546410662
 20
406.3537238127799
 30
0.0
 10
382.1079737569317
 20
406.5239283090924
 30
0.0
 10
382.1380380151277
 20
406.6732764418335
 30
0.0
 10
382.3647066435377
 20
406.9533405568734
 30
0.0
 10
382.9032217283163
 20
407.2281325514881
 30
0.0
 10
383.6879526628598
 20
407.4525106945146
 30
0.0
 10
384.6466785399966
 20
407.5875471741169
 30
0.0
 10
385.3681318691443
 20
407.624630559796
 30
0.0
 10
385.7312096133458
 20
407.6099343457688
 30
0.0
 10
385.7487306642487
 20
407.6092251502366
 30
0.0
  0
LINE
  5
FC
330
1F
100
AcDbEntity
  8
0
  6
Continuous
 62
     7
370
    15
100
AcDbLine
 10
381.5342017162
 20
406.0786821805
 30
0.0
 11
381.5342017162
 21
405.9281730019
 31
0.0
  0
ARC
  5
FD
330
1F
100
AcDbEntity
  8
0
  6
Continuous
 62
     7
370
    15
100
AcDbCircle
 10
410.4206005954
 20
511.8682188855
 30
0.0
 40
69.2070000000002
100
AcDbArc
 50
20.0
 51
180.0
  0
ARC
  5
FE
330
1F
100
AcDbEntity
  8
0
  6
Continuous
 62
     7
370
    15
100
AcDbCircle
 10
410.4206005954
 20
511.8682188855
 30
0.0
 40
91.27300000000025
100
AcDbArc
 50
20.0
 51
180.0
  0
LINE
  5
FF
330
1F
100
AcDbEntity
  8
0
  6
Continuous
 62
     7
370
    15
100
AcDbLine
 10
319.1476004842
 20
511.8682243787
 30
0.0
 11
319.1476004842
 21
437.445619043
 31
0.0
  0
LINE
  5
100
330
1F
100
AcDbEntity
  8
0
  6
Continuous
 62
     7
370
    15
100
AcDbLine
 10
341.2136004019
 20
437.445619043
 30
0.0
 11
341.2136004019
 21
511.8682243787
 31
0.0
  0
LINE
  5
101
330
1F
100
AcDbEntity
  8
0
  6
Continuous
 62
     7
370
    15
100
AcDbLine
 10
501.8494293737
 20
527.5339790546
 30
0.0
 11
496.1891636896
 21
543.0854269229
 31
0.0
  0
LINE
  5
102
330
1F
100
AcDbEntity
  8
0
  6
Continuous
 62
     7
370
    15
100
AcDbLine
 10
475.4539147663
 20
535.5384060108
 30
0.0
 11
481.1141655493
 21
519.9869581424
 31
0.0
  0
LINE
  5
103
330
1F
100
AcDbEntity
  8
0
  6
Continuous
 62
     7
370
    15
100
AcDbLine
 10
502.1924690056
 20
526.5914657079
 30
0.0
 11
501.8494293737
 21
527.5339790546
 31
0.0
  0
LINE
  5
104
330
1F
100
AcDbEntity
  8
0
  6
Continuous
 62
     7
370
    15
100
AcDbLine
 10
481.1141655493
 20
519.9869581424
 30
0.0
 11
481.4572200823
 21
519.0444447957
 31
0.0
  0
LINE
  5
105
330
1F
100
AcDbEntity
  8
0
  6
Continuous
 62
     7
370
    15
100
AcDbLine
 10
382.5853184509
 20
361.0170193874
 30
0.0
 11
404.5581386137
 21
361.0170193874
 31
0.0
  0
ARC
  5
106
330
1F
100
AcDbEntity
  8
0
  6
Continuous
 62
     7
370
    15
100
AcDbCircle
 10
404.558136956
 20
364.0260188855
 30
0.0
 40
3.009000000000071
100
AcDbArc
 50
270.0
 51
351.1727494786
  0
LINE
  5
107
330
1F
100
AcDbEntity
  8
0
  6
Continuous
 62
     7
370
    15
100
AcDbLine
 10
378.389270668
 20
407.1550154053
 30
0.0
 11
377.2212990272
 21
407.1550154053
 31
0.0
  0
ARC
  5
108
330
1F
100
AcDbEntity
  8
0
  6
Continuous
 62
     7
370
    15
100
AcDbCircle
 10
377.2213005954
 20
406.9544188855
 30
0.0
 40
0.2006000000000085
100
AcDbArc
 50
90.0
 51
180.0
  0
SPLINE
  5
109
330
1F
100
AcDbEntity
  8
0
  6
Continuous
 62
     7
370
    15
100
AcDbSpline
210
0.0
220
0.0
230
1.0
 70
     8
 71
     3
 72
    12
 73
     8
 74
     0
 42
0.00000001
 43
0.00000001
 40
0.8952832756313801
 40
0.8952832756313801
 40
0.8952832756313801
 40
0.8952832756313801
 40
0.9214624567598514
 40
0.947641637839901
 40
0.9738208189199504
 40
0.9912736063066502
 40
1.0
 40
1.0
 40
1.0
 40
1.0
 10
391.6248040267715
 20
417.9857517736889
 30
0.0
 10
391.6129194259035
 20
418.028782311986
 30
0.0
 10
391.5943235618569
 20
418.1084914526072
 30
0.0
 10
391.5764176682669
 20
418.2184757199253
 30
0.0
 10
391.5674919746268
 20
418.311540728451
 30
0.0
 10
391.5645632072909
 20
418.3800688297944
 30
0.0
 10
391.564200595673
 20
418.4142038585438
 30
0.0
 10
391.5642005954271
 20
418.4255818753907
 30
0.0
  0
SPLINE
  5
10A
330
1F
100
AcDbEntity
  8
0
  6
Continuous
 62
     7
370
    15
100
AcDbSpline
210
0.0
220
0.0
230
1.0
 70
     8
 71
     3
 72
     8
 73
     4
 74
     0
 42
0.00000001
 43
0.00000001
 40
0.0
 40
0.0
 40
0.0
 40
0.0
 40
1.0
 40
1.0
 40
1.0
 40
1.0
 10
392.7017167459171
 20
469.4010488384274
 30
0.0
 10
392.3412993109603
 20
468.8220869526659
 30
0.0
 10
392.0673358902668
 20
468.2105866985513
 30
0.0
 10
391.8918175397384
 20
467.5553230877727
 30
0.0
  0
SPLINE
  5
10B
330
1F
100
AcDbEntity
  8
0
  6
Continuous
 62
     7
370
    15
100
AcDbSpline
210
0.0
220
0.0
230
1.0
 70
     8
 71
     3
 72
     8
 73
     4
 74
     0
 42
0.00000001
 43
0.00000001
 40
0.0
 40
0.0
 40
0.0
 40
0.0
 40
1.0
 40
1.0
 40
1.0
 40
1.0
 10
407.3848678679362
 20
467.5554313160422
 30
0.0
 10
407.2090904484253
 20
468.2104820290681
 30
0.0
 10
406.9342707663767
 20
468.8212125654203
 30
0.0
 10
406.5743093395208
 20
469.4004878390561
 30
0.0
  0
SPLINE
  5
10C
330
1F
100
AcDbEntity
  8
0
  6
Continuous
 62
     7
370
    15
100
AcDbSpline
210
0.0
220
0.0
230
1.0
 70
     8
 71
     3
 72
     8
 73
     4
 74
     0
 42
0.00000001
 43
0.00000001
 40
0.0
 40
0.0
 40
0.0
 40
0.0
 40
1.0
 40
1.0
 40
1.0
 40
1.0
 10
407.651913526186
 20
465.6289599500624
 30
0.0
 10
407.6300110851183
 20
466.2681990860081
 30
0.0
 10
407.5554128062304
 20
466.9198799252926
 30
0.0
 10
407.3848678679362
 20
467.5554313160422
 30
0.0
  0
LINE
  5
10D
330
1F
100
AcDbEntity
  8
0
  6
Continuous
 62
     7
370
    15
100
AcDbLine
 10
306.3092005151
 20
416.1820196472
 30
0.0
 11
354.0520013022
 21
416.1820196472
 31
0.0
  0
LINE
  5
10E
330
1F
100
AcDbEntity
  8
0
  6
Continuous
 62
     7
370
    15
100
AcDbLine
 10
330.1806005958
 20
331.9300188609
 30
0.0
 11
354.2526007342
 21
331.9300188609
 31
0.0
  0
LINE
  5
10F
330
1F
100
AcDbEntity
  8
0
  6
Continuous
 62
     7
370
    15
100
AcDbLine
 10
306.1086010832
 20
331.9300188609
 30
0.0
 11
330.1806005958
 21
331.9300188609
 31
0.0
  0
LINE
  5
110
330
1F
100
AcDbEntity
  8
0
  6
Continuous
 62
     7
370
    15
100
AcDbLine
 10
369.2975991118
 20
384.0860173963
 30
0.0
 11
369.2975991118
 21
361.5185179674
 31
0.0
  0
LINE
  5
111
330
1F
100
AcDbEntity
  8
0
  6
Continuous
 62
     7
370
    15
100
AcDbLine
 10
369.2975991118
 20
406.6535168253
 30
0.0
 11
369.2975991118
 21
384.0860173963
 31
0.0
  0
LINE
  5
112
330
1F
100
AcDbEntity
  8
0
  6
Continuous
 62
     7
370
    15
100
AcDbLine
 10
377.0206995952
 20
376.8460311853
 30
0.0
 11
377.0206995952
 21
405.5752837025
 31
0.0
  0
SPLINE
  5
113
330
1F
100
AcDbEntity
  8
0
  6
Continuous
 62
     7
370
    15
100
AcDbSpline
210
0.0
220
0.0
230
1.0
 70
     8
 71
     3
 72
     8
 73
     4
 74
     0
 42
0.00000001
 43
0.00000001
 40
0.0
 40
0.0
 40
0.0
 40
0.0
 40
1.0
 40
1.0
 40
1.0
 40
1.0
 10
377.1696675281525
 20
375.7053775270635
 30
0.0
 10
377.0703529306275
 20
376.0765440551552
 30
0.0
 10
377.0207005954266
 20
376.4566605701744
 30
0.0
 10
377.0207005954266
 20
376.8460307857664
 30
0.0
  0
ELLIPSE
  5
114
330
1F
100
AcDbEntity
  8
0
  6
Continuous
 62
     7
370
    15
100
AcDbEllipse
 10
377.0328003668
 20
384.0404160421
 30
0.0
 11
-5.394072986281742
 21
22.86424546187027
 31
0.0
210
0.0
220
0.0
230
0.9999999999999997
 40
0.0808086252
 41
1.924807119240969
 42
2.815808135729515
  0
SPLINE
  5
115
330
1F
100
AcDbEntity
  8
0
  6
Continuous
 62
     7
370
    15
100
AcDbSpline
210
0.0
220
0.0
230
1.0
 70
     8
 71
     3
 72
    12
 73
     8
 74
     0
 42
0.00000001
 43
0.00000001
 40
0.0
 40
0.0
 40
0.0
 40
0.0
 40
0.2500000000000064
 40
0.2500000000000064
 40
0.5000000000000129
 40
0.5000000000000129
 40
1.0
 40
1.0
 40
1.0
 40
1.0
 10
386.0988568315821
 20
405.5575050558228
 30
0.0
 10
386.1164698093459
 20
405.5517369718337
 30
0.0
 10
386.1221767451698
 20
405.5366503855828
 30
0.0
 10
386.1056909866391
 20
405.4987130552634
 30
0.0
 10
386.0872141735205
 20
405.4779457681072
 30
0.0
 10
386.024834522575
 20
405.4200387773445
 30
0.0
 10
385.972359672117
 20
405.3850132923588
 30
0.0
 10
385.9179603584357
 20
405.3537485340047
 30
0.0
  0
SPLINE
  5
116
330
1F
100
AcDbEntity
  8
0
  6
Continuous
 62
     7
370
    15
100
AcDbSpline
210
0.0
220
0.0
230
1.0
 70
     8
 71
     3
 72
    12
 73
     8
 74
     0
 42
0.00000001
 43
0.00000001
 40
0.0
 40
0.0
 40
0.0
 40
0.0
 40
0.2499999999999993
 40
0.2499999999999993
 40
0.4999999999999987
 40
0.4999999999999987
 40
1.0
 40
1.0
 40
1.0
 40
1.0
 10
385.375559588092
 20
406.7588187053919
 30
0.0
 10
385.3755774399031
 20
406.6543699409818
 30
0.0
 10
385.3915877776151
 20
406.5510728421997
 30
0.0
 10
385.4495951166426
 20
406.3463500368093
 30
0.0
 10
385.4959613523105
 20
406.2452389681991
 30
0.0
 10
385.6880918322295
 20
405.9457247504542
 30
0.0
 10
385.8754145586188
 20
405.7503143609311
 30
0.0
 10
386.0988568315822
 20
405.5575050558228
 30
0.0
  0
SPLINE
  5
117
330
1F
100
AcDbEntity
  8
0
  6
Continuous
 62
     7
370
    15
100
AcDbSpline
210
0.0
220
0.0
230
1.0
 70
     8
 71
     3
 72
    18
 73
    14
 74
     0
 42
0.00000001
 43
0.00000001
 40
0.0
 40
0.0
 40
0.0
 40
0.0
 40
0.2499999999999983
 40
0.2499999999999983
 40
0.4999999999999967
 40
0.4999999999999967
 40
0.6249999999999974
 40
0.6249999999999974
 40
0.7499999999999983
 40
0.7499999999999983
 40
0.8749999999999991
 40
0.8749999999999991
 40
1.0
 40
1.0
 40
1.0
 40
1.0
 10
384.1952154735647
 20
404.7866324537951
 30
0.0
 10
383.8131642108331
 20
404.7618058029483
 30
0.0
 10
383.4570524120795
 20
404.7852382301956
 30
0.0
 10
382.8015897522112
 20
404.9045381832146
 30
0.0
 10
382.5161314703174
 20
404.9982274935786
 30
0.0
 10
382.1590183667395
 20
405.1696874302303
 30
0.0
 10
382.0525488200047
 20
405.231938526029
 30
0.0
 10
381.869706003868
 20
405.360811241099
 30
0.0
 10
381.7923878194061
 20
405.4278687967354
 30
0.0
 10
381.6663323726086
 20
405.565946534667
 30
0.0
 10
381.6177589361928
 20
405.6371571472645
 30
0.0
 10
381.5526579807394
 20
405.7785924443934
 30
0.0
 10
381.5355681551546
 20
405.8493238644572
 30
0.0
 10
381.5342789568919
 20
405.9197354112396
 30
0.0
  0
SPLINE
  5
118
330
1F
100
AcDbEntity
  8
0
  6
Continuous
 62
     7
370
    15
100
AcDbSpline
210
0.0
220
0.0
230
1.0
 70
     8
 71
     3
 72
    12
 73
     8
 74
     0
 42
0.00000001
 43
0.00000001
 40
0.0
 40
0.0
 40
0.0
 40
0.0
 40
0.5000000000000018
 40
0.5000000000000018
 40
0.7500000000000009
 40
0.7500000000000009
 40
1.0
 40
1.0
 40
1.0
 40
1.0
 10
385.9179603584357
 20
405.3537485340047
 30
0.0
 10
385.6496683827569
 20
405.1995538719711
 30
0.0
 10
385.3701330105156
 20
405.0738395677737
 30
0.0
 10
384.9332904346157
 20
404.9300684592214
 30
0.0
 10
384.7843873944047
 20
404.8896928849675
 30
0.0
 10
384.4892318879704
 20
404.8260803329159
 30
0.0
 10
384.3419661055173
 20
404.8024548197818
 30
0.0
 10
384.1952154735648
 20
404.7866324537951
 30
0.0
  0
LINE
  5
119
330
1F
100
AcDbEntity
  8
0
  6
Continuous
 62
     7
370
    15
100
AcDbLine
 10
317.808321369
 20
437.245019611
 30
0.0
 11
342.5528795171
 21
437.245019611
 31
0.0
  0
SPLINE
  5
11A
330
1F
100
AcDbEntity
  8
0
  6
Continuous
 62
     7
370
    15
100
AcDbSpline
210
0.0
220
0.0
230
1.0
 70
     8
 71
     3
 72
    12
 73
     8
 74
     0
 42
0.00000001
 43
0.00000001
 40
0.0
 40
0.0
 40
0.0
 40
0.0
 40
0.5000000000000019
 40
0.5000000000000019
 40
0.7500000000000009
 40
0.7500000000000009
 40
1.0
 40
1.0
 40
1.0
 40
1.0
 10
386.1176402479193
 20
407.9762635153249
 30
0.0
 10
385.8891982897313
 20
407.7809959088758
 30
0.0
 10
385.6972090005615
 20
407.5830699551479
 30
0.0
 10
385.4996529235104
 20
407.2795864828323
 30
0.0
 10
385.4517219888327
 20
407.1771184119416
 30
0.0
 10
385.3919782574251
 20
406.9695483188938
 30
0.0
 10
385.375577674235
 20
406.8647808656444
 30
0.0
 10
385.3755595633365
 20
406.7588187042485
 30
0.0
  0
SPLINE
  5
11B
330
1F
100
AcDbEntity
  8
0
  6
Continuous
 62
     7
370
    15
100
AcDbSpline
210
0.0
220
0.0
230
1.0
 70
     8
 71
     3
 72
    12
 73
     8
 74
     0
 42
0.00000001
 43
0.00000001
 40
0.0
 40
0.0
 40
0.0
 40
0.0
 40
0.1332733333817553
 40
0.4179809426731541
 40
0.7045360630560658
 40
0.9610169427886514
 40
1.0
 40
1.0
 40
1.0
 40
1.0
 10
386.121960048671
 20
407.9958804808945
 30
0.0
 10
386.1247930227702
 20
407.9965259265472
 30
0.0
 10
386.1336779898866
 20
407.998550217345
 30
0.0
 10
386.1383759962572
 20
407.9962935360736
 30
0.0
 10
386.1351743137005
 20
407.9895464996935
 30
0.0
 10
386.12503750262
 20
407.9814194515819
 30
0.0
 10
386.1185011131005
 20
407.9768641249671
 30
0.0
 10
386.1176387119248
 20
407.9762631021828
 30
0.0
  0
LINE
  5
11C
330
1F
100
AcDbEntity
  8
0
  6
Continuous
 62
     7
370
    15
100
AcDbLine
 10
342.1664504978
 20
437.445619043
 30
0.0
 11
318.1947503883
 21
437.445619043
 31
0.0
  0
LWPOLYLINE
  5
11D
330
1F
100
AcDbEntity
  8
0
  6
Continuous
 62
     7
370
    15
100
AcDbPolyline
 90
        6
 70
   128
 43
0.0
 10
384.1952138293
 20
404.7866322957
 10
383.1123687971
 20
404.9878203236
 10
382.2591432083
 20
405.2919306718
 10
381.7160294104
 20
405.670263704
 10
381.534276222
 20
406.0871311389
 10
381.5695621717
 20
406.2604614459
  0
LWPOLYLINE
  5
11E
330
1F
100
AcDbEntity
  8
0
  6
Continuous
 62
     7
370
    15
100
AcDbPolyline
 90
       12
 70
   128
 43
0.0
 10
386.1176387119
 20
407.9762631022
 10
384.9970974672
 20
407.9774775468
 10
383.9303382385
 20
407.8601607047
 10
383.0218516934
 20
407.6358088218
 10
382.3606238413
 20
407.3263936602
 10
382.011418854
 20
406.9622316324
 10
382.008442347
 20
406.578981217
 10
382.3519848931
 20
406.2141858898
 10
383.0083996701
 20
405.9035786353
 10
383.9133881676
 20
405.6775801741
 10
384.9783108282
 20
405.5583336316
 10
386.0988557982
 20
405.5575066172
  0
LWPOLYLINE
  5
11F
330
1F
100
AcDbEntity
  8
0
  6
Continuous
 62
     7
370
    15
100
AcDbPolyline
 90
       20
 70
   128
 43
0.0
 10
502.1924690056
 20
526.5914657079
 10
502.1820381927
 20
526.5876659118
 10
501.9325331497
 20
526.4968582355
 10
501.3581678915
 20
526.2878098451
 10
500.4773900557
 20
525.9672262632
 10
499.3185118484
 20
525.5454339944
 10
497.9187861729
 20
525.0359781944
 10
496.3231847334
 20
524.455220338
 10
494.583012228
 20
523.8218464815
 10
492.7541927147
 20
523.1562116109
 10
490.8954963732
 20
522.4796988927
 10
489.0666768599
 20
521.8140640222
 10
487.3265043545
 20
521.1806901656
 10
485.730902915
 20
520.5999472104
 10
484.3311772394
 20
520.0904914104
 10
483.1722990322
 20
519.6686842405
 10
482.2915211964
 20
519.3481155597
 10
481.7171559381
 20
519.1390671693
 10
481.4676508951
 20
519.0482445918
 10
481.4572200823
 20
519.0444447957
  0
LINE
  5
120
330
1F
100
AcDbEntity
  8
0
  6
Continuous
 62
     7
370
    15
100
AcDbLine
 10
377.0206995952
 20
405.5752837025
 30
0.0
 11
377.0206995952
 21
406.9544159733
 31
0.0
  0
ELLIPSE
  5
121
330
1F
100
AcDbEntity
  8
0
  6
Continuous
 62
     7
370
    15
100
AcDbEllipse
 10
377.0328003668
 20
384.0404160421
 30
0.0
 11
-5.394072986281742
 21
22.86424546187027
 31
0.0
210
0.0
220
0.0
230
0.9999999999999997
 40
0.0808086252
 41
2.8158081357295
 42
3.081073627145728
  0
SPLINE
  5
122
330
1F
100
AcDbEntity
  8
0
  6
Continuous
 62
     8
370
     0
100
AcDbSpline
210
0.0
220
0.0
230
1.0
 70
     8
 71
     3
 72
     8
 73
     4
 74
     0
 42
0.00000001
 43
0.00000001
 40
0.0
 40
0.0
 40
0.0
 40
0.0
 40
1.0
 40
1.0
 40
1.0
 40
1.0
 10
397.5681139821472
 20
472.0239566318635
 30
0.0
 10
398.2484733187671
 20
472.1944479838978
 30
0.0
 10
398.9406580660726
 20
472.2801182646436
 30
0.0
 10
399.6448588162094
 20
472.2795812347956
 30
0.0
  0
SPLINE
  5
123
330
1F
100
AcDbEntity
  8
0
  6
Continuous
 62
     8
370
     0
100
AcDbSpline
210
0.0
220
0.0
230
1.0
 70
     8
 71
     3
 72
     8
 73
     4
 74
     0
 42
0.00000001
 43
0.00000001
 40
0.0
 40
0.0
 40
0.0
 40
0.0
 40
1.0
 40
1.0
 40
1.0
 40
1.0
 10
399.6424275263993
 20
468.5322285380353
 30
0.0
 10
399.2007768718857
 20
468.5325653663313
 30
0.0
 10
398.7667090924645
 20
468.4785898236685
 30
0.0
 10
398.3400339862163
 20
468.3716642319985
 30
0.0
  0
SPLINE
  5
124
330
1F
100
AcDbEntity
  8
0
  6
Continuous
 62
     8
370
     0
100
AcDbSpline
210
0.0
220
0.0
230
1.0
 70
     8
 71
     3
 72
     8
 73
     4
 74
     0
 42
0.00000001
 43
0.00000001
 40
0.0
 40
0.0
 40
0.0
 40
0.0
 40
1.0
 40
1.0
 40
1.0
 40
1.0
 10
399.6448588162095
 20
472.2795812347956
 30
0.0
 10
400.344265832473
 20
472.2790478606922
 30
0.0
 10
401.0317539827615
 20
472.1934939099631
 30
0.0
 10
401.7075040322263
 20
472.0242282891447
 30
0.0
  0
SPLINE
  5
125
330
1F
100
AcDbEntity
  8
0
  6
Continuous
 62
     8
370
     0
100
AcDbSpline
210
0.0
220
0.0
230
1.0
 70
     8
 71
     3
 72
     8
 73
     4
 74
     0
 42
0.00000001
 43
0.00000001
 40
0.0
 40
0.0
 40
0.0
 40
0.0
 40
1.0
 40
1.0
 40
1.0
 40
1.0
 10
400.9358839836111
 20
468.3718607804888
 30
0.0
 10
400.5121304261057
 20
468.4780100288642
 30
0.0
 10
400.0810383798045
 20
468.5318940280673
 30
0.0
 10
399.6424275263993
 20
468.5322285380353
 30
0.0
  0
LINE
  5
126
330
1F
100
AcDbEntity
  8
0
  6
Continuous
 62
     8
370
     0
100
AcDbLine
 10
394.6204648066
 20
432.5183042251
 30
0.0
 11
394.6204648066
 21
417.0533948504
 31
0.0
  0
SPLINE
  5
127
330
1F
100
AcDbEntity
  8
0
  6
Continuous
 62
     8
370
     0
100
AcDbSpline
210
0.0
220
0.0
230
1.0
 70
     8
 71
     3
 72
    22
 73
    18
 74
     0
 42
0.00000001
 43
0.00000001
 40
0.0
 40
0.0
 40
0.0
 40
0.0
 40
0.0312499999999997
 40
0.0312499999999997
 40
0.0624999999999995
 40
0.0624999999999995
 40
0.124999999999999
 40
0.124999999999999
 40
0.2499999999999981
 40
0.2499999999999981
 40
0.3749999999999984
 40
0.3749999999999984
 40
0.4999999999999988
 40
0.4999999999999988
 40
0.7499999999999993
 40
0.7499999999999993
 40
1.0
 40
1.0
 40
1.0
 40
1.0
 10
394.6229636203518
 20
463.8167333108022
 30
0.0
 10
394.6069249833049
 20
463.4908938546114
 30
0.0
 10
394.6014280837373
 20
463.1649559472871
 30
0.0
 10
394.595700676125
 20
462.5130309488851
 30
0.0
 10
394.5972678430204
 20
462.187027069006
 30
0.0
 10
394.6080193741373
 20
461.2089589270749
 30
0.0
 10
394.6215404894306
 20
460.5569111897023
 30
0.0
 10
394.6395573529629
 20
458.6007540509817
 30
0.0
 10
394.6343081509625
 20
457.2966267616509
 30
0.0
 10
394.6215459166603
 20
454.688369227995
 30
0.0
 10
394.6168776194378
 20
453.3842426969233
 30
0.0
 10
394.6170703281533
 20
450.7760020734489
 30
0.0
 10
394.6198235412833
 20
449.4718842623996
 30
0.0
 10
394.6216343382325
 20
445.5595273953804
 30
0.0
 10
394.6200844173943
 20
442.951289040523
 30
0.0
 10
394.6206592679263
 20
437.7348129219207
 30
0.0
 10
394.6205263116261
 20
435.1265747979112
 30
0.0
 10
394.6204683045849
 20
432.5183366802935
 30
0.0
  0
SPLINE
  5
128
330
1F
100
AcDbEntity
  8
0
  6
Continuous
 62
     8
370
     0
100
AcDbSpline
210
0.0
220
0.0
230
1.0
 70
     8
 71
     3
 72
     8
 73
     4
 74
     0
 42
0.00000001
 43
0.00000001
 40
0.0
 40
0.0
 40
0.0
 40
0.0
 40
1.0
 40
1.0
 40
1.0
 40
1.0
 10
394.788209794749
 20
465.0232314761626
 30
0.0
 10
394.6858991138313
 20
464.6267773350754
 30
0.0
 10
394.6429680635511
 20
464.2231417153529
 30
0.0
 10
394.6229636203518
 20
463.8167333108022
 30
0.0
  0
SPLINE
  5
129
330
1F
100
AcDbEntity
  8
0
  6
Continuous
 62
     8
370
     0
100
AcDbSpline
210
0.0
220
0.0
230
1.0
 70
     8
 71
     3
 72
     8
 73
     4
 74
     0
 42
0.00000001
 43
0.00000001
 40
0.0
 40
0.0
 40
0.0
 40
0.0
 40
1.0
 40
1.0
 40
1.0
 40
1.0
 10
395.2941006962347
 20
466.1781685813057
 30
0.0
 10
395.0674189005037
 20
465.8156430219646
 30
0.0
 10
394.8938468636295
 20
465.4325753788162
 30
0.0
 10
394.788209794749
 20
465.0232314761626
 30
0.0
  0
SPLINE
  5
12A
330
1F
100
AcDbEntity
  8
0
  6
Continuous
 62
     8
370
     0
100
AcDbSpline
210
0.0
220
0.0
230
1.0
 70
     8
 71
     3
 72
     8
 73
     4
 74
     0
 42
0.00000001
 43
0.00000001
 40
0.0
 40
0.0
 40
0.0
 40
0.0
 40
1.0
 40
1.0
 40
1.0
 40
1.0
 10
395.7110485043057
 20
466.7503434003055
 30
0.0
 10
395.5578888867357
 20
466.5687408663294
 30
0.0
 10
395.4190174976687
 20
466.377944364645
 30
0.0
 10
395.2941006962347
 20
466.1781685813057
 30
0.0
  0
SPLINE
  5
12B
330
1F
100
AcDbEntity
  8
0
  6
Continuous
 62
     8
370
     0
100
AcDbSpline
210
0.0
220
0.0
230
1.0
 70
     8
 71
     3
 72
     8
 73
     4
 74
     0
 42
0.00000001
 43
0.00000001
 40
0.0
 40
0.0
 40
0.0
 40
0.0
 40
1.0
 40
1.0
 40
1.0
 40
1.0
 10
396.4784991702051
 20
467.480013645269
 30
0.0
 10
396.1938848751099
 20
467.2635356144109
 30
0.0
 10
395.9384416328937
 20
467.0199651780007
 30
0.0
 10
395.7110485043057
 20
466.7503434003055
 30
0.0
  0
SPLINE
  5
12C
330
1F
100
AcDbEntity
  8
0
  6
Continuous
 62
     8
370
     0
100
AcDbSpline
210
0.0
220
0.0
230
1.0
 70
     8
 71
     3
 72
     8
 73
     4
 74
     0
 42
0.00000001
 43
0.00000001
 40
0.0
 40
0.0
 40
0.0
 40
0.0
 40
1.0
 40
1.0
 40
1.0
 40
1.0
 10
397.1144081293156
 20
467.8923555603591
 30
0.0
 10
396.891261381397
 20
467.7701290746454
 30
0.0
 10
396.6792658253798
 20
467.6327170439499
 30
0.0
 10
396.4784991702051
 20
467.480013645269
 30
0.0
  0
SPLINE
  5
12D
330
1F
100
AcDbEntity
  8
0
  6
Continuous
 62
     8
370
     0
100
AcDbSpline
210
0.0
220
0.0
230
1.0
 70
     8
 71
     3
 72
     8
 73
     4
 74
     0
 42
0.00000001
 43
0.00000001
 40
0.0
 40
0.0
 40
0.0
 40
0.0
 40
1.0
 40
1.0
 40
1.0
 40
1.0
 10
398.3400339862163
 20
468.3716642319985
 30
0.0
 10
397.9086150205068
 20
468.2635498201411
 30
0.0
 10
397.5001373804744
 20
468.1036350490628
 30
0.0
 10
397.1144081293155
 20
467.8923555603591
 30
0.0
  0
SPLINE
  5
12E
330
1F
100
AcDbEntity
  8
0
  6
Continuous
 62
     8
370
     0
100
AcDbSpline
210
0.0
220
0.0
230
1.0
 70
     8
 71
     3
 72
     8
 73
     4
 74
     0
 42
0.00000001
 43
0.00000001
 40
0.0
 40
0.0
 40
0.0
 40
0.0
 40
1.0
 40
1.0
 40
1.0
 40
1.0
 10
402.0711666844529
 20
467.9410224386417
 30
0.0
 10
401.7116632281231
 20
468.1286680681935
 30
0.0
 10
401.3332528460788
 20
468.2723208348488
 30
0.0
 10
400.935883983611
 20
468.3718607804887
 30
0.0
  0
SPLINE
  5
12F
330
1F
100
AcDbEntity
  8
0
  6
Continuous
 62
     8
370
     0
100
AcDbSpline
210
0.0
220
0.0
230
1.0
 70
     8
 71
     3
 72
    12
 73
     8
 74
     0
 42
0.00000001
 43
0.00000001
 40
0.0
 40
0.0
 40
0.0
 40
0.0
 40
0.4999999999999953
 40
0.4999999999999953
 40
0.7499999999999977
 40
0.7499999999999977
 40
1.0
 40
1.0
 40
1.0
 40
1.0
 10
403.9816672471466
 20
466.1781952592834
 30
0.0
 10
403.7517887650588
 20
466.5467560830347
 30
0.0
 10
403.478310680217
 20
466.8811458133388
 30
0.0
 10
402.9969351608853
 20
467.3269601744045
 30
0.0
 10
402.8233864234014
 20
467.4667033101714
 30
0.0
 10
402.4602403460863
 20
467.7214591057977
 30
0.0
 10
402.2700890184511
 20
467.8371933768126
 30
0.0
 10
402.0711666844529
 20
467.9410224386417
 30
0.0
  0
SPLINE
  5
130
330
1F
100
AcDbEntity
  8
0
  6
Continuous
 62
     8
370
     0
100
AcDbSpline
210
0.0
220
0.0
230
1.0
 70
     8
 71
     3
 72
     8
 73
     4
 74
     0
 42
0.00000001
 43
0.00000001
 40
0.0
 40
0.0
 40
0.0
 40
0.0
 40
1.0
 40
1.0
 40
1.0
 40
1.0
 10
404.4884103649824
 20
465.0236917555211
 30
0.0
 10
404.3824580155089
 20
465.4329292394398
 30
0.0
 10
404.2078513865595
 20
465.8155575213604
 30
0.0
 10
403.9816672471466
 20
466.1781952592834
 30
0.0
  0
SPLINE
  5
131
330
1F
100
AcDbEntity
  8
0
  6
Continuous
 62
     8
370
     0
100
AcDbSpline
210
0.0
220
0.0
230
1.0
 70
     8
 71
     3
 72
    10
 73
     6
 74
     0
 42
0.00000001
 43
0.00000001
 40
0.0
 40
0.0
 40
0.0
 40
0.0
 40
0.5
 40
0.5
 40
1.0
 40
1.0
 40
1.0
 40
1.0
 10
404.6581790894365
 20
463.7154367966523
 30
0.0
 10
404.6497197985107
 20
463.9356935733911
 30
0.0
 10
404.6340471697748
 20
464.1554186741481
 30
0.0
 10
404.5810198683567
 20
464.5919496057566
 30
0.0
 10
404.5440086892236
 20
464.808945046877
 30
0.0
 10
404.4884103649824
 20
465.0236917555211
 30
0.0
  0
SPLINE
  5
132
330
1F
100
AcDbEntity
  8
0
  6
Continuous
 62
     8
370
     0
100
AcDbSpline
210
0.0
220
0.0
230
1.0
 70
     8
 71
     3
 72
    20
 73
    16
 74
     0
 42
0.00000001
 43
0.00000001
 40
0.0
 40
0.0
 40
0.0
 40
0.0
 40
0.5000000000000009
 40
0.5000000000000009
 40
0.6250000000000011
 40
0.6250000000000011
 40
0.7500000000000013
 40
0.7500000000000013
 40
0.812500000000001
 40
0.812500000000001
 40
0.8750000000000007
 40
0.8750000000000007
 40
0.9375000000000003
 40
0.9375000000000003
 40
1.0
 40
1.0
 40
1.0
 40
1.0
 10
404.6562300312471
 20
417.0533973326036
 30
0.0
 10
404.6562040100329
 20
424.8305339630922
 30
0.0
 10
404.6554747122766
 20
432.6076702544698
 30
0.0
 10
404.6565482952304
 20
442.32909158135
 30
0.0
 10
404.6568241126216
 20
444.2733758796689
 30
0.0
 10
404.6558442657682
 20
448.1619436506033
 30
0.0
 10
404.6595105615871
 20
450.1062297769087
 30
0.0
 10
404.6598143702741
 20
453.0226561651245
 30
0.0
 10
404.6581654611552
 20
453.9947973509156
 30
0.0
 10
404.6493615051103
 20
455.939076753847
 30
0.0
 10
404.6433246340217
 20
456.9112244130657
 30
0.0
 10
404.6410684002831
 20
458.8554799504801
 30
0.0
 10
404.6453180532505
 20
459.8275750736711
 30
0.0
 10
404.675193826491
 20
461.771635555145
 30
0.0
 10
404.6954948864906
 20
462.7438356006807
 30
0.0
 10
404.6581790894365
 20
463.7154367966523
 30
0.0
  0
LINE
  5
133
330
1F
100
AcDbEntity
  8
0
  6
Continuous
 62
     8
370
     0
100
AcDbLine
 10
404.6562329578
 20
417.0533948504
 30
0.0
 11
394.6204648066
 21
417.0533948504
 31
0.0
  0
SPLINE
  5
134
330
1F
100
AcDbEntity
  8
0
  6
Continuous
 62
     8
370
     0
100
AcDbSpline
210
0.0
220
0.0
230
1.0
 70
     8
 71
     3
 72
     8
 73
     4
 74
     0
 42
0.00000001
 43
0.00000001
 40
0.0
 40
0.0
 40
0.0
 40
0.0
 40
1.0
 40
1.0
 40
1.0
 40
1.0
 10
395.605830954471
 20
471.2567062860277
 30
0.0
 10
396.223386475847
 20
471.5949980740974
 30
0.0
 10
396.8774181003628
 20
471.8508750433679
 30
0.0
 10
397.5681139821472
 20
472.0239566318635
 30
0.0
  0
SPLINE
  5
135
330
1F
100
AcDbEntity
  8
0
  6
Continuous
 62
     8
370
     0
100
AcDbSpline
210
0.0
220
0.0
230
1.0
 70
     8
 71
     3
 72
     8
 73
     4
 74
     0
 42
0.00000001
 43
0.00000001
 40
0.0
 40
0.0
 40
0.0
 40
0.0
 40
1.0
 40
1.0
 40
1.0
 40
1.0
 10
401.7075040322263
 20
472.0242282891448
 30
0.0
 10
402.3439296325048
 20
471.8648128744939
 30
0.0
 10
402.9500094831992
 20
471.6347979724441
 30
0.0
 10
403.5257867231485
 20
471.3342033473703
 30
0.0
  0
SPLINE
  5
136
330
1F
100
AcDbEntity
  8
0
  6
Continuous
 62
     8
370
     0
100
AcDbSpline
210
0.0
220
0.0
230
1.0
 70
     8
 71
     3
 72
    12
 73
     8
 74
     0
 42
0.00000001
 43
0.00000001
 40
0.0
 40
0.0
 40
0.0
 40
0.0
 40
0.2500000000000017
 40
0.2500000000000017
 40
0.5000000000000034
 40
0.5000000000000034
 40
1.0
 40
1.0
 40
1.0
 40
1.0
 10
403.5257867231485
 20
471.3342033473703
 30
0.0
 10
403.8420016881112
 20
471.1691177687114
 30
0.0
 10
404.1443075612754
 20
470.9851305897332
 30
0.0
 10
404.7216332853472
 20
470.5801808815844
 30
0.0
 10
404.9975246969388
 20
470.3580858320402
 30
0.0
 10
405.7639405678558
 20
469.6505470926995
 30
0.0
 10
406.2007563535018
 20
469.1211223241752
 30
0.0
 10
406.5661442172152
 20
468.5340041009889
 30
0.0
  0
SPLINE
  5
137
330
1F
100
AcDbEntity
  8
0
  6
Continuous
 62
     8
370
     0
100
AcDbSpline
210
0.0
220
0.0
230
1.0
 70
     8
 71
     3
 72
     8
 73
     4
 74
     0
 42
0.00000001
 43
0.00000001
 40
0.0
 40
0.0
 40
0.0
 40
0.0
 40
1.0
 40
1.0
 40
1.0
 40
1.0
 10
394.5937873339597
 20
470.6004183748001
 30
0.0
 10
394.9133171005098
 20
470.8434121258408
 30
0.0
 10
395.2506879727528
 20
471.062161908806
 30
0.0
 10
395.6058309544709
 20
471.2567062860277
 30
0.0
  0
SPLINE
  5
138
330
1F
100
AcDbEntity
  8
0
  6
Continuous
 62
     8
370
     0
100
AcDbSpline
210
0.0
220
0.0
230
1.0
 70
     8
 71
     3
 72
     8
 73
     4
 74
     0
 42
0.00000001
 43
0.00000001
 40
0.0
 40
0.0
 40
0.0
 40
0.0
 40
1.0
 40
1.0
 40
1.0
 40
1.0
 10
393.3631925902
 20
469.4316086018039
 30
0.0
 10
393.7277172201935
 20
469.8637331474723
 30
0.0
 10
394.1375753330501
 20
470.2534814788494
 30
0.0
 10
394.5937873339596
 20
470.6004183748
 30
0.0
  0
SPLINE
  5
139
330
1F
100
AcDbEntity
  8
0
  6
Continuous
 62
     8
370
     0
100
AcDbSpline
210
0.0
220
0.0
230
1.0
 70
     8
 71
     3
 72
     8
 73
     4
 74
     0
 42
0.00000001
 43
0.00000001
 40
0.0
 40
0.0
 40
0.0
 40
0.0
 40
1.0
 40
1.0
 40
1.0
 40
1.0
 10
392.7113546623561
 20
468.536294731067
 30
0.0
 10
392.9065296997546
 20
468.84929700263
 30
0.0
 10
393.123715342712
 20
469.1477210719804
 30
0.0
 10
393.3631925902
 20
469.4316086018039
 30
0.0
  0
SPLINE
  5
13A
330
1F
100
AcDbEntity
  8
0
  6
Continuous
 62
     8
370
     0
100
AcDbSpline
210
0.0
220
0.0
230
1.0
 70
     8
 71
     3
 72
     8
 73
     4
 74
     0
 42
0.00000001
 43
0.00000001
 40
0.0
 40
0.0
 40
0.0
 40
0.0
 40
1.0
 40
1.0
 40
1.0
 40
1.0
 10
391.8767969613152
 20
466.6195047535956
 30
0.0
 10
392.0529850914461
 20
467.2938885190833
 30
0.0
 10
392.3355060922932
 20
467.9335462558448
 30
0.0
 10
392.7113546623561
 20
468.536294731067
 30
0.0
  0
SPLINE
  5
13B
330
1F
100
AcDbEntity
  8
0
  6
Continuous
 62
     8
370
     0
100
AcDbSpline
210
0.0
220
0.0
230
1.0
 70
     8
 71
     3
 72
     8
 73
     4
 74
     0
 42
0.00000001
 43
0.00000001
 40
0.0
 40
0.0
 40
0.0
 40
0.0
 40
1.0
 40
1.0
 40
1.0
 40
1.0
 10
406.5661442172152
 20
468.5340041009888
 30
0.0
 10
406.940328823934
 20
467.9327509580744
 30
0.0
 10
407.2230499282256
 20
467.2946297858754
 30
0.0
 10
407.3992897098516
 20
466.6219662564591
 30
0.0
  0
SPLINE
  5
13C
330
1F
100
AcDbEntity
  8
0
  6
Continuous
 62
     8
370
     0
100
AcDbSpline
210
0.0
220
0.0
230
1.0
 70
     8
 71
     3
 72
    10
 73
     6
 74
     0
 42
0.00000001
 43
0.00000001
 40
0.0
 40
0.0
 40
0.0
 40
0.0
 40
0.5
 40
0.5
 40
1.0
 40
1.0
 40
1.0
 40
1.0
 10
407.3992897098516
 20
466.6219662564591
 30
0.0
 10
407.4793991056355
 20
466.3162085642383
 30
0.0
 10
407.5366251940974
 20
466.0086119431868
 30
0.0
 10
407.6175700474641
 20
465.3857640167374
 30
0.0
 10
407.641341851131
 20
465.0688081789055
 30
0.0
 10
407.6519154273719
 20
464.7493966502412
 30
0.0
  0
SPLINE
  5
13D
330
1F
100
AcDbEntity
  8
0
  6
Continuous
 62
     8
370
     0
100
AcDbSpline
210
0.0
220
0.0
230
1.0
 70
     8
 71
     3
 72
     8
 73
     4
 74
     0
 42
0.00000001
 43
0.00000001
 40
0.0
 40
0.0
 40
0.0
 40
0.0
 40
1.0
 40
1.0
 40
1.0
 40
1.0
 10
391.6299346772436
 20
464.8812451683037
 30
0.0
 10
391.6566844893224
 20
465.4761301869981
 30
0.0
 10
391.7283284593431
 20
466.0512215931934
 30
0.0
 10
391.8767969613152
 20
466.6195047535957
 30
0.0
  0
SPLINE
  5
13E
330
1F
100
AcDbEntity
  8
0
  6
Continuous
 62
     8
370
    15
100
AcDbSpline
210
0.0
220
0.0
230
1.0
 70
     8
 71
     3
 72
    24
 73
    20
 74
     0
 42
0.00000001
 43
0.00000001
 40
0.0
 40
0.0
 40
0.0
 40
0.0
 40
0.25
 40
0.25
 40
0.5
 40
0.5
 40
0.625
 40
0.625
 40
0.75
 40
0.75
 40
0.875
 40
0.875
 40
0.9375
 40
0.9375
 40
0.96875
 40
0.96875
 40
0.984375
 40
0.984375
 40
1.0
 40
1.0
 40
1.0
 40
1.0
 10
391.6248050094616
 20
433.4506869241642
 30
0.0
 10
391.6248630123692
 20
436.0698351869258
 30
0.0
 10
391.6249950701041
 20
438.6889813222085
 30
0.0
 10
391.6244152780645
 20
443.9272761701121
 30
0.0
 10
391.6258581093061
 20
446.547242773103
 30
0.0
 10
391.6241374035034
 20
450.4748479959832
 30
0.0
 10
391.6217254594344
 20
451.7831559407513
 30
0.0
 10
391.6217595222709
 20
454.4023096511567
 30
0.0
 10
391.6261597750739
 20
455.7141601251096
 30
0.0
 10
391.6373538278643
 20
458.3389976084229
 30
0.0
 10
391.6416753036784
 20
459.6508306887729
 30
0.0
 10
391.6240613160919
 20
461.6062001106166
 30
0.0
 10
391.6116514337121
 20
462.2545113324943
 30
0.0
 10
391.6040264384327
 20
463.2326485176906
 30
0.0
 10
391.6034893273065
 20
463.5597245788209
 30
0.0
 10
391.6083501821623
 20
464.0531355118185
 30
0.0
 10
391.6109117934651
 20
464.2180673746329
 30
0.0
 10
391.6183450307074
 20
464.5489999853805
 30
0.0
 10
391.6224834813412
 20
464.7155391513573
 30
0.0
 10
391.6299346772436
 20
464.8812451683037
 30
0.0
  0
LINE
  5
13F
330
1F
100
AcDbEntity
  8
0
  6
Continuous
 62
     8
370
    15
100
AcDbLine
 10
391.6248024154
 20
433.4506922327
 30
0.0
 11
391.6248024154
 21
426.1712812744
 31
0.0
  0
LINE
  5
140
330
1F
100
AcDbEntity
  8
0
  6
Continuous
 62
     8
370
    15
100
AcDbLine
 10
391.6248024154
 20
426.1712812744
 30
0.0
 11
391.6248024154
 21
417.9857530557
 31
0.0
  0
SPLINE
  5
141
330
1F
100
AcDbEntity
  8
0
  6
Continuous
 62
     8
370
     0
100
AcDbSpline
210
0.0
220
0.0
230
1.0
 70
     8
 71
     3
 72
     8
 73
     4
 74
     0
 42
0.00000001
 43
0.00000001
 40
0.6838575018985277
 40
0.6838575018985277
 40
0.6838575018985277
 40
0.6838575018985277
 40
1.0
 40
1.0
 40
1.0
 40
1.0
 10
407.6518933306315
 20
417.9857482335253
 30
0.0
 10
407.692227332922
 20
418.1317800443751
 30
0.0
 10
407.7125005954265
 20
418.2785528758477
 30
0.0
 10
407.7125005954265
 20
418.4255821476049
 30
0.0
  0
SPLINE
  5
142
330
1F
100
AcDbEntity
  8
0
  6
Continuous
 62
     8
370
    15
100
AcDbSpline
210
0.0
220
0.0
230
1.0
 70
     8
 71
     3
 72
    24
 73
    20
 74
     0
 42
0.00000001
 43
0.00000001
 40
0.0
 40
0.0
 40
0.0
 40
0.0
 40
0.0312499999999998
 40
0.0312499999999998
 40
0.0624999999999997
 40
0.0624999999999997
 40
0.1249999999999995
 40
0.1249999999999995
 40
0.1874999999999993
 40
0.1874999999999993
 40
0.249999999999999
 40
0.249999999999999
 40
0.3124999999999988
 40
0.3124999999999988
 40
0.3749999999999986
 40
0.3749999999999986
 40
0.4999999999999989
 40
0.4999999999999989
 40
1.0
 40
1.0
 40
1.0
 40
1.0
 10
407.6519154273719
 20
464.7493966502412
 30
0.0
 10
407.6683096759095
 20
464.2549854026647
 30
0.0
 10
407.6731362105384
 20
463.7649988846114
 30
0.0
 10
407.6708668810275
 20
462.7919852119637
 30
0.0
 10
407.6637024646469
 20
462.308600236275
 30
0.0
 10
407.6435930267415
 20
460.8576997334994
 30
0.0
 10
407.6387187350058
 20
459.8858017974051
 30
0.0
 10
407.640184130177
 20
457.9365059211303
 30
0.0
 10
407.6454787719702
 20
456.9595629962947
 30
0.0
 10
407.6533635400546
 20
455.0070035742664
 30
0.0
 10
407.6549676749887
 20
454.0319019297781
 30
0.0
 10
407.6549293364013
 20
452.0834052035966
 30
0.0
 10
407.6535927394071
 20
451.1098469390232
 30
0.0
 10
407.651778987997
 20
449.1623319962399
 30
0.0
 10
407.6518016029353
 20
448.1881418119615
 30
0.0
 10
407.6524852485733
 20
445.2651359360692
 30
0.0
 10
407.6522188698288
 20
443.316580464254
 30
0.0
 10
407.6511358565226
 20
433.5739503540637
 30
0.0
 10
407.6518673623891
 20
425.7798510235633
 30
0.0
 10
407.6518933306315
 20
417.9857482335253
 30
0.0
  0
SPLINE
  5
143
330
1F
100
AcDbEntity
  8
0
  6
Continuous
 62
     8
370
     0
100
AcDbSpline
210
0.0
220
0.0
230
1.0
 70
     8
 71
     3
 72
    14
 73
    10
 74
     0
 42
0.00000001
 43
0.00000001
 40
0.0
 40
0.0
 40
0.0
 40
0.0
 40
0.25
 40
0.25
 40
0.5
 40
0.5
 40
0.75
 40
0.75
 40
1.0
 40
1.0
 40
1.0
 40
1.0
 10
407.6518933215904
 20
417.985826435221
 30
0.0
 10
407.6170713717908
 20
417.859756779683
 30
0.0
 10
407.5134596936334
 20
417.7359438103049
 30
0.0
 10
407.1824936041182
 20
417.5093657297038
 30
0.0
 10
406.955240966545
 20
417.4066702924126
 30
0.0
 10
406.4075447442101
 20
417.2361809888446
 30
0.0
 10
406.0872695788699
 20
417.1684395489105
 30
0.0
 10
405.396635983733
 20
417.0770095592366
 30
0.0
 10
405.0264899273394
 20
417.0533491246915
 30
0.0
 10
404.6562300145423
 20
417.0533231056094
 30
0.0
  0
SPLINE
  5
144
330
1F
100
AcDbEntity
  8
0
  6
Continuous
 62
     8
370
     0
100
AcDbSpline
210
0.0
220
0.0
230
1.0
 70
     8
 71
     3
 72
     8
 73
     4
 74
     0
 42
0.00000001
 43
0.00000001
 40
0.0
 40
0.0
 40
0.0
 40
0.0
 40
1.0
 40
1.0
 40
1.0
 40
1.0
 10
393.3652439531428
 20
470.312877804036
 30
0.0
 10
393.120985914108
 20
470.0234719904936
 30
0.0
 10
392.8998965637284
 20
469.7193979245471
 30
0.0
 10
392.701716745917
 20
469.4010488384274
 30
0.0
  0
SPLINE
  5
145
330
1F
100
AcDbEntity
  8
0
  6
Continuous
 62
     8
370
     0
100
AcDbSpline
210
0.0
220
0.0
230
1.0
 70
     8
 71
     3
 72
     8
 73
     4
 74
     0
 42
0.00000001
 43
0.00000001
 40
0.0
 40
0.0
 40
0.0
 40
0.0
 40
1.0
 40
1.0
 40
1.0
 40
1.0
 10
394.5935237384609
 20
471.479900492449
 30
0.0
 10
394.1382822408205
 20
471.1335839845958
 30
0.0
 10
393.7291912759385
 20
470.7440958366399
 30
0.0
 10
393.3652439531429
 20
470.3128778040361
 30
0.0
  0
SPLINE
  5
146
330
1F
100
AcDbEntity
  8
0
  6
Continuous
 62
     8
370
     0
100
AcDbSpline
210
0.0
220
0.0
230
1.0
 70
     8
 71
     3
 72
     8
 73
     4
 74
     0
 42
0.00000001
 43
0.00000001
 40
0.0
 40
0.0
 40
0.0
 40
0.0
 40
1.0
 40
1.0
 40
1.0
 40
1.0
 10
395.6067115458118
 20
472.1368660200736
 30
0.0
 10
395.2511488381011
 20
471.9421764710372
 30
0.0
 10
394.9133965715118
 20
471.7232378047843
 30
0.0
 10
394.5935237384609
 20
471.4799004924489
 30
0.0
  0
SPLINE
  5
147
330
1F
100
AcDbEntity
  8
0
  6
Continuous
 62
     8
370
     0
100
AcDbSpline
210
0.0
220
0.0
230
1.0
 70
     8
 71
     3
 72
     8
 73
     4
 74
     0
 42
0.00000001
 43
0.00000001
 40
0.0
 40
0.0
 40
0.0
 40
0.0
 40
1.0
 40
1.0
 40
1.0
 40
1.0
 10
397.5669473192437
 20
472.9033321026292
 30
0.0
 10
396.8770092588215
 20
472.7303228940518
 30
0.0
 10
396.2236599014278
 20
472.4746781542734
 30
0.0
 10
395.6067115458118
 20
472.1368660200736
 30
0.0
  0
SPLINE
  5
148
330
1F
100
AcDbEntity
  8
0
  6
Continuous
 62
     8
370
     0
100
AcDbSpline
210
0.0
220
0.0
230
1.0
 70
     8
 71
     3
 72
     8
 73
     4
 74
     0
 42
0.00000001
 43
0.00000001
 40
0.0
 40
0.0
 40
0.0
 40
0.0
 40
1.0
 40
1.0
 40
1.0
 40
1.0
 10
399.6452015719701
 20
473.159248752978
 30
0.0
 10
398.9404750615074
 20
473.1598150063305
 30
0.0
 10
398.2477872264952
 20
473.0740598538268
 30
0.0
 10
397.5669473192437
 20
472.9033321026292
 30
0.0
  0
SPLINE
  5
149
330
1F
100
AcDbEntity
  8
0
  6
Continuous
 62
     8
370
     0
100
AcDbSpline
210
0.0
220
0.0
230
1.0
 70
     8
 71
     3
 72
     8
 73
     4
 74
     0
 42
0.00000001
 43
0.00000001
 40
0.0
 40
0.0
 40
0.0
 40
0.0
 40
1.0
 40
1.0
 40
1.0
 40
1.0
 10
401.7092418583077
 20
472.9034607653445
 30
0.0
 10
401.0330553501048
 20
473.0730015057997
 30
0.0
 10
400.3451020943511
 20
473.1586863773454
 30
0.0
 10
399.6452015719702
 20
473.159248752978
 30
0.0
  0
SPLINE
  5
14A
330
1F
100
AcDbEntity
  8
0
  6
Continuous
 62
     8
370
     0
100
AcDbSpline
210
0.0
220
0.0
230
1.0
 70
     8
 71
     3
 72
     8
 73
     4
 74
     0
 42
0.00000001
 43
0.00000001
 40
0.0
 40
0.0
 40
0.0
 40
0.0
 40
1.0
 40
1.0
 40
1.0
 40
1.0
 10
403.5254157277912
 20
472.2141123973352
 30
0.0
 10
402.9502792382545
 20
472.5142377283198
 30
0.0
 10
402.3449024794064
 20
472.7440811103647
 30
0.0
 10
401.7092418583077
 20
472.9034607653444
 30
0.0
  0
SPLINE
  5
14B
330
1F
100
AcDbEntity
  8
0
  6
Continuous
 62
     8
370
     0
100
AcDbSpline
210
0.0
220
0.0
230
1.0
 70
     8
 71
     3
 72
    12
 73
     8
 74
     0
 42
0.00000001
 43
0.00000001
 40
0.0
 40
0.0
 40
0.0
 40
0.0
 40
0.5
 40
0.5
 40
0.75
 40
0.75
 40
1.0
 40
1.0
 40
1.0
 40
1.0
 10
406.5743093395208
 20
469.4004878390561
 30
0.0
 10
406.2087335582238
 20
469.9887981271756
 30
0.0
 10
405.7710748746615
 20
470.5223091214376
 30
0.0
 10
405.0023800440824
 20
471.2340210219704
 30
0.0
 10
404.7255594095791
 20
471.4571964977517
 30
0.0
 10
404.1462702879758
 20
471.8638181301116
 30
0.0
 10
403.842861604558
 20
472.0484585906864
 30
0.0
 10
403.5254157277914
 20
472.214112397335
 30
0.0
  0
LINE
  5
14C
330
1F
100
AcDbEntity
  8
0
  6
Continuous
 62
     8
370
     0
100
AcDbLine
 10
407.6519177008
 20
465.6289079152
 30
0.0
 11
407.6519102502
 21
465.6289526187
 31
0.0
  0
SPLINE
  5
14D
330
1F
100
AcDbEntity
  8
0
  6
Continuous
 62
     8
370
     0
100
AcDbSpline
210
0.0
220
0.0
230
1.0
 70
     8
 71
     3
 72
     9
 73
     5
 74
     0
 42
0.00000001
 43
0.00000001
 40
0.0
 40
0.0
 40
0.0
 40
0.0
 40
0.0001713567896158
 40
1.0
 40
1.0
 40
1.0
 40
1.0
 10
391.6247837889149
 20
465.6289079152436
 30
0.0
 10
391.6247837889285
 20
465.6288880470456
 30
0.0
 10
391.6247838686336
 20
465.5129416758672
 30
0.0
 10
391.6233885880121
 20
465.3952598246102
 30
0.0
 10
391.6219935464813
 20
465.2775981389374
 30
0.0
  0
LWPOLYLINE
  5
14E
330
1F
100
AcDbEntity
  8
0
  6
Continuous
 62
     8
370
     0
100
AcDbPolyline
 90
        3
 70
   128
 43
0.0
 10
397.5669459152
 20
472.9033269845
 10
397.593455081
 20
472.996369835
 10
397.6076782393
 20
473.0054148399
  0
LWPOLYLINE
  5
14F
330
1F
100
AcDbEntity
  8
0
  6
Continuous
 62
     8
370
     0
100
AcDbPolyline
 90
        3
 70
   128
 43
0.0
 10
399.6452034163
 20
473.159254428
 10
399.6451140094
 20
473.2490190231
 10
399.6450544047
 20
473.2564547025
  0
LWPOLYLINE
  5
150
330
1F
100
AcDbEntity
  8
0
  6
Continuous
 62
     8
370
     0
100
AcDbPolyline
 90
        3
 70
   128
 43
0.0
 10
401.7092452097
 20
472.903461095
 10
401.6827360439
 20
472.9965039455
 10
401.6684383798
 20
473.0055638515
  0
LWPOLYLINE
  5
151
330
1F
100
AcDbEntity
  8
0
  6
Continuous
 62
     8
370
     0
100
AcDbPolyline
 90
        3
 70
   128
 43
0.0
 10
395.6067130613
 20
472.1368708574
 10
395.6584796953
 20
472.2397782766
 10
395.670102601
 20
472.2472884618
  0
LWPOLYLINE
  5
152
330
1F
100
AcDbEntity
  8
0
  6
Continuous
 62
     8
370
     0
100
AcDbPolyline
 90
        3
 70
   128
 43
0.0
 10
403.5254136372
 20
472.214118477
 10
403.4754872966
 20
472.3160275184
 10
403.4626126933
 20
472.3242082559
  0
LINE
  5
153
330
1F
100
AcDbEntity
  8
0
  6
Continuous
 62
     8
370
     0
100
AcDbLine
 10
406.5743104267
 20
469.4004812204
 30
0.0
 11
406.5432787585
 21
469.4721558057
 31
0.0
  0
LINE
  5
154
330
1F
100
AcDbEntity
  8
0
  6
Continuous
 62
     8
370
     0
100
AcDbLine
 10
394.5935235071
 20
471.4798935615
 30
0.0
 11
394.6576506543
 21
471.5907731019
 31
0.0
  0
LINE
  5
155
330
1F
100
AcDbEntity
  8
0
  6
Continuous
 62
     8
370
     0
100
AcDbLine
 10
393.3652431416
 20
470.3128793203
 30
0.0
 11
393.4141189504
 21
470.4093345367
 31
0.0
  0
LINE
  5
156
330
1F
100
AcDbEntity
  8
0
  6
Continuous
 62
     8
370
     0
100
AcDbLine
 10
392.7017167854
 20
469.4010474645
 30
0.0
 11
392.7334525335
 21
469.4736906253
 31
0.0
  0
LINE
  5
157
330
1F
100
AcDbEntity
  8
0
  6
Continuous
 62
     8
370
     0
100
AcDbLine
 10
306.1086010832
 20
424.9253355824
 30
0.0
 11
354.2526007342
 21
424.9253355824
 31
0.0
  0
LINE
  5
158
330
1F
100
AcDbEntity
  8
0
  6
Continuous
 62
     8
370
     0
100
AcDbLine
 10
309.1597945142
 20
430.9747450911
 30
0.0
 11
351.2014073032
 21
430.9747450911
 31
0.0
  0
SPLINE
  5
159
330
1F
100
AcDbEntity
  8
0
  6
Continuous
 62
     8
370
     0
100
AcDbSpline
210
0.0
220
0.0
230
1.0
 70
     8
 71
     3
 72
    30
 73
    26
 74
     0
 42
0.00000001
 43
0.00000001
 40
0.0
 40
0.0
 40
0.0
 40
0.0
 40
0.0218209460894335
 40
0.0524645413051978
 40
0.0836005524220448
 40
0.1228760203038889
 40
0.1624771214883303
 40
0.2026704724907502
 40
0.2429729080561568
 40
0.3174736335212054
 40
0.3924008245293349
 40
0.468743798736908
 40
0.5456705911761557
 40
0.5928049652280251
 40
0.6401535141888851
 40
0.6883009340863674
 40
0.7367968369471717
 40
0.7730061187360029
 40
0.8094386144672543
 40
0.8466877332424656
 40
0.8842781414421726
 40
0.9161149388229165
 40
0.9482257191912424
 40
0.9812674504141061
 40
1.0
 40
1.0
 40
1.0
 40
1.0
 10
336.343952146466
 20
384.0860173963399
 30
0.0
 10
336.354148470928
 20
384.4176021091745
 30
0.0
 10
336.3786636997223
 20
385.2148379298116
 30
0.0
 10
336.6055600100885
 20
386.4686578491954
 30
0.0
 10
337.0416614962909
 20
387.9373279543616
 30
0.0
 10
337.6771418674272
 20
389.4739672775704
 30
0.0
 10
338.4824850538162
 20
391.0707338904646
 30
0.0
 10
339.370526939489
 20
392.627559000117
 30
0.0
 10
340.5772071805368
 20
394.5799968990582
 30
0.0
 10
342.1174537957862
 20
396.8881650513796
 30
0.0
 10
343.9754325431549
 20
399.5270789453023
 30
0.0
 10
345.8356055480417
 20
402.0832743652807
 30
0.0
 10
347.4206394566893
 20
404.2156190528792
 30
0.0
 10
348.7180873160652
 20
405.9412606297155
 30
0.0
 10
349.7504076103482
 20
407.3046703595442
 30
0.0
 10
350.7314005670169
 20
408.5929703634977
 30
0.0
 10
351.56498606932
 20
409.6827115073954
 30
0.0
 10
352.2536525482474
 20
410.5801909412101
 30
0.0
 10
352.8136646339909
 20
411.3083690660616
 30
0.0
 10
353.3038270932286
 20
411.9445258808772
 30
0.0
 10
353.6874589289553
 20
412.441688183099
 30
0.0
 10
353.9683442485701
 20
412.8053184455803
 30
0.0
 10
354.1510031600196
 20
413.0416382226747
 30
0.0
 10
354.2471397200057
 20
413.165952066115
 30
0.0
 10
354.2424521809995
 20
413.1598941493191
 30
0.0
 10
354.2407561737253
 20
413.1577023230881
 30
0.0
  0
SPLINE
  5
15A
330
1F
100
AcDbEntity
  8
0
  6
Continuous
 62
     8
370
     0
100
AcDbSpline
210
0.0
220
0.0
230
1.0
 70
     8
 71
     3
 72
    30
 73
    26
 74
     0
 42
0.00000001
 43
0.00000001
 40
0.0
 40
0.0
 40
0.0
 40
0.0
 40
0.0091269805531008
 40
0.041762131165084
 40
0.0754224975600979
 40
0.1094237407230775
 40
0.14110935621108
 40
0.1730252155738357
 40
0.2055862026235598
 40
0.2383363869393134
 40
0.2853448229270683
 40
0.3327496141313535
 40
0.3811902192715566
 40
0.4299086803072045
 40
0.4972132585669384
 40
0.5649977768654872
 40
0.6340455820869266
 40
0.7034494594166141
 40
0.7653722478657429
 40
0.8275789525496596
 40
0.8599438766410668
 40
0.8924185312036209
 40
0.9254524346625553
 40
0.9588559926817234
 40
1.0
 40
1.0
 40
1.0
 40
1.0
 10
354.2434756356432
 20
355.010817658195
 30
0.0
 10
354.2461388113825
 20
355.0073742974945
 30
0.0
 10
354.258324648078
 20
354.9916185850349
 30
0.0
 10
354.187410468929
 20
355.0833122067052
 30
0.0
 10
354.0259794631152
 20
355.2921349434473
 30
0.0
 10
353.7691156945697
 20
355.6246048448136
 30
0.0
 10
353.439655972682
 20
356.0514446932499
 30
0.0
 10
353.0460133871723
 20
356.5620261170862
 30
0.0
 10
352.5852271221639
 20
357.1605692078728
 30
0.0
 10
351.9879842822234
 20
357.9377696688689
 30
0.0
 10
351.2331895374946
 20
358.9225280112695
 30
0.0
 10
350.30055547414
 20
360.1440856680795
 30
0.0
 10
349.2866162463188
 20
361.4787922009046
 30
0.0
 10
348.0691421947838
 20
363.0916588085318
 30
0.0
 10
346.6417010283963
 20
365.000741472207
 30
0.0
 10
344.9994902622918
 20
367.2317289093039
 30
0.0
 10
343.3086089564622
 20
369.5825489502496
 30
0.0
 10
341.6626383272164
 20
371.9542082086704
 30
0.0
 10
340.1050512456495
 20
374.3283073047566
 30
0.0
 10
338.9064902836819
 20
376.3242010739012
 30
0.0
 10
338.0173283390352
 20
378.0074365699195
 30
0.0
 10
337.3969030105621
 20
379.3448060343355
 30
0.0
 10
336.8741688026906
 20
380.7453158827088
 30
0.0
 10
336.4443881915661
 20
382.3263244084281
 30
0.0
 10
336.379670749643
 20
383.4602084500995
 30
0.0
 10
336.343952146466
 20
384.0860173963399
 30
0.0
  0
SPLINE
  5
15B
330
1F
100
AcDbEntity
  8
0
  6
Continuous
 62
     8
370
     0
100
AcDbSpline
210
0.0
220
0.0
230
1.0
 70
     8
 71
     3
 72
    30
 73
    26
 74
     0
 42
0.00000001
 43
0.00000001
 40
0.0
 40
0.0
 40
0.0
 40
0.0
 40
0.0342609727506074
 40
0.077489858602642
 40
0.1000280827282547
 40
0.1226864607077057
 40
0.1538397174010111
 40
0.2148842781333806
 40
0.2762653957509542
 40
0.3450200108676421
 40
0.4140937400034841
 40
0.4842783696339709
 40
0.5549294131284312
 40
0.6035398816781518
 40
0.6523921715085803
 40
0.7021571401475752
 40
0.7523245540351042
 40
0.7851258168319056
 40
0.8180973735376826
 40
0.8516728749371297
 40
0.8854919602911591
 40
0.9189297071682774
 40
0.9526686668939085
 40
0.9874289018424939
 40
1.0
 40
1.0
 40
1.0
 40
1.0
 10
337.8847899559095
 20
384.0860173963399
 30
0.0
 10
337.9324454682898
 20
383.5858266534058
 30
0.0
 10
338.0402304673578
 20
382.4545187297679
 30
0.0
 10
338.7058688692411
 20
381.131770388518
 30
0.0
 10
339.3935912563481
 20
380.0593571036721
 30
0.0
 10
340.0499881955934
 20
379.1763972380705
 30
0.0
 10
341.1037953199723
 20
377.9116251064979
 30
0.0
 10
342.607594984204
 20
376.32602138283
 30
0.0
 10
344.5359667820144
 20
374.4620464564087
 30
0.0
 10
346.5615885412545
 20
372.6096858871698
 30
0.0
 10
348.6568762628732
 20
370.7600502118013
 30
0.0
 10
350.7221070455801
 20
368.9790600155767
 30
0.0
 10
352.5147283318531
 20
367.4577442840101
 30
0.0
 10
354.0279145642443
 20
366.1856977777869
 30
0.0
 10
355.284075709408
 20
365.1363020215364
 30
0.0
 10
356.4658089937513
 20
364.1540524319262
 30
0.0
 10
357.4220978729869
 20
363.3624059615425
 30
0.0
 10
358.1694690135888
 20
362.7453176959977
 30
0.0
 10
358.742154862134
 20
362.273285915145
 30
0.0
 10
359.2426735816138
 20
361.861355423427
 30
0.0
 10
359.6559745003275
 20
361.5216155455971
 30
0.0
 10
359.9739978924804
 20
361.260429409206
 30
0.0
 10
360.1804094438271
 20
361.0910163345247
 30
0.0
 10
360.2772724496555
 20
361.0115483250449
 30
0.0
 10
360.2606151714334
 20
361.0252109660387
 30
0.0
 10
360.2561910349085
 20
361.0288397334904
 30
0.0
  0
SPLINE
  5
15C
330
1F
100
AcDbEntity
  8
0
  6
Continuous
 62
     8
370
     0
100
AcDbSpline
210
0.0
220
0.0
230
1.0
 70
     8
 71
     3
 72
    31
 73
    27
 74
     0
 42
0.00000001
 43
0.00000001
 40
0.0
 40
0.0
 40
0.0
 40
0.0
 40
0.0251430114556129
 40
0.0544915510241218
 40
0.0840568164348736
 40
0.1179582211123287
 40
0.1553779608199406
 40
0.193135846256836
 40
0.2318309116723009
 40
0.2707948193920208
 40
0.319365515863903
 40
0.3682943139514957
 40
0.4181576179353969
 40
0.4682724152772816
 40
0.5060948080935449
 40
0.5439950825939937
 40
0.6202709016354736
 40
0.698074063401714
 40
0.7763349540874341
 40
0.8139990556555653
 40
0.851750309560922
 40
0.8899617202889516
 40
0.9285433375928157
 40
0.9548354477835331
 40
0.9818565124200325
 40
1.0
 40
1.0
 40
1.0
 40
1.0
 10
360.2659028667166
 20
407.1511634551377
 30
0.0
 10
360.2598496183961
 20
407.146198598091
 30
0.0
 10
360.2467306294357
 20
407.1354384406784
 30
0.0
 10
360.123418958888
 20
407.034254940021
 30
0.0
 10
359.9079353434253
 20
406.8573587964733
 30
0.0
 10
359.5733430965217
 20
406.5825377445524
 30
0.0
 10
359.1026779537623
 20
406.1955423613473
 30
0.0
 10
358.503239708395
 20
405.7019536526075
 30
0.0
 10
357.7981746791263
 20
405.1203448251343
 30
0.0
 10
356.93358035107
 20
404.4054716424184
 30
0.0
 10
355.9013831537606
 20
403.5493567275609
 30
0.0
 10
354.6914585674252
 20
402.5414062228177
 30
0.0
 10
353.3898552963514
 20
401.4509806119485
 30
0.0
 10
352.1261396057423
 20
400.3847239952796
 30
0.0
 10
350.934741660261
 20
399.3713846806854
 30
0.0
 10
349.4635741197368
 20
398.109554482433
 30
0.0
 10
347.5556963965337
 20
396.4484404792573
 30
0.0
 10
345.2053221545778
 20
394.3357983835963
 30
0.0
 10
343.2463970344068
 20
392.4785582858713
 30
0.0
 10
341.731882784599
 20
390.9266673694442
 30
0.0
 10
340.6472844404556
 20
389.7290710910833
 30
0.0
 10
339.618299484907
 20
388.4528534033561
 30
0.0
 10
338.7954602087012
 20
387.2123754912269
 30
0.0
 10
338.2253422504626
 20
386.0105268085722
 30
0.0
 10
337.9298988229623
 20
385.005997923457
 30
0.0
 10
337.8977177320932
 20
384.3496751453594
 30
0.0
 10
337.8847899559095
 20
384.0860173963399
 30
0.0
  0
SPLINE
  5
15D
330
1F
100
AcDbEntity
  8
0
  6
Continuous
 62
     8
370
     0
100
AcDbSpline
210
0.0
220
0.0
230
1.0
 70
     8
 71
     3
 72
    14
 73
    10
 74
     0
 42
0.00000001
 43
0.00000001
 40
0.6042583100847668
 40
0.6042583100847668
 40
0.6042583100847668
 40
0.6042583100847668
 40
0.6770145513661534
 40
0.7133926720850947
 40
0.7497707928040362
 40
0.7861489135229777
 40
0.8225270342419189
 40
0.8589051549608604
 40
0.8952832756313801
 40
0.8952832756313801
 40
0.8952832756313801
 40
0.8952832756313801
 10
394.6204683068768
 20
417.0533973326036
 30
0.0
 10
394.1617651681348
 20
417.0533973326036
 30
0.0
 10
393.5586700845542
 20
417.1045919137958
 30
0.0
 10
392.9031700016114
 20
417.2305334254585
 30
0.0
 10
392.4868041622269
 20
417.3492166695222
 30
0.0
 10
392.1466434209052
 20
417.4875130991829
 30
0.0
 10
391.8850837869468
 20
417.6418178765996
 30
0.0
 10
391.7045212696522
 20
417.8085261639316
 30
0.0
 10
391.6413186550843
 20
417.9259573090727
 30
0.0
 10
391.6248040267715
 20
417.9857517736889
 30
0.0
  0
SPLINE
  5
15E
330
1F
100
AcDbEntity
  8
0
  6
Continuous
 62
     8
370
     0
100
AcDbSpline
210
0.0
220
0.0
230
1.0
 70
     8
 71
     3
 72
    18
 73
    14
 74
     0
 42
0.00000001
 43
0.00000001
 40
0.0
 40
0.0
 40
0.0
 40
0.0
 40
0.2499999999999999
 40
0.2499999999999999
 40
0.3749999999999998
 40
0.3749999999999998
 40
0.4999999999999997
 40
0.4999999999999997
 40
0.7499999999999994
 40
0.7499999999999994
 40
0.8749999999999992
 40
0.8749999999999992
 40
1.0
 40
1.0
 40
1.0
 40
1.0
 10
404.558140336801
 20
376.1959562000246
 30
0.0
 10
404.5577480307504
 20
377.656848088027
 30
0.0
 10
404.5578919759506
 20
379.1460514144252
 30
0.0
 10
404.5581723174168
 20
381.420601707258
 30
0.0
 10
404.5584283621791
 20
382.1856283409454
 30
0.0
 10
404.5603476637997
 20
383.7297073798059
 30
0.0
 10
404.5619506639837
 20
384.5096878651657
 30
0.0
 10
404.5692218086954
 20
386.818228751221
 30
0.0
 10
404.577697025707
 20
388.3332054142088
 30
0.0
 10
404.5976127016695
 20
390.5697037207377
 30
0.0
 10
404.6054318117785
 20
391.3119086442899
 30
0.0
 10
404.6239295598121
 20
392.7691647769321
 30
0.0
 10
404.6345274951371
 20
393.4829337971538
 30
0.0
 10
404.6472719432568
 20
394.1817770397545
 30
0.0
  0
SPLINE
  5
15F
330
1F
100
AcDbEntity
  8
0
  6
Continuous
 62
     8
370
     0
100
AcDbSpline
210
0.0
220
0.0
230
1.0
 70
    24
 71
     3
 72
    12
 73
     8
 74
     0
 42
0.00000001
 43
0.00000001
 40
0.895283145263577
 40
0.895283145263577
 40
0.895283145263577
 40
0.895283145263577
 40
0.9040095389569268
 40
0.9214623263436266
 40
0.947641507423676
 40
0.9738206885037256
 40
1.0
 40
1.0
 40
1.0
 40
1.0
 10
378.2960120579008
 20
405.7637879544349
 30
0.0
 10
378.2960120579008
 20
405.6917290991784
 30
0.0
 10
378.2960120579008
 20
405.4664157171151
 30
0.0
 10
378.2960120579008
 20
404.9660159534516
 30
0.0
 10
378.2960120579008
 20
404.2106447061507
 30
0.0
 10
378.2960120579008
 20
403.3042062512412
 30
0.0
 10
378.2960120579008
 20
402.694769635397
 30
0.0
 10
378.2960120579008
 20
402.3935574960763
 30
0.0
  0
SPLINE
  5
160
330
1F
100
AcDbEntity
  8
0
  6
Continuous
 62
     8
370
     0
100
AcDbSpline
210
0.0
220
0.0
230
1.0
 70
     8
 71
     3
 72
    14
 73
    10
 74
     0
 42
0.00000001
 43
0.00000001
 40
0.6042587306707183
 40
0.6042587306707183
 40
0.6042587306707183
 40
0.6042587306707183
 40
0.6406367209734349
 40
0.6770148416923765
 40
0.7133929624113177
 40
0.7497710831302591
 40
0.7861492038492006
 40
0.8225273245681419
 40
0.895283145263577
 40
0.895283145263577
 40
0.895283145263577
 40
0.895283145263577
 10
378.2960120579008
 20
402.3935574960763
 30
0.0
 10
378.2960120579008
 20
401.9749985070569
 30
0.0
 10
378.438206529604
 20
401.0609996316107
 30
0.0
 10
379.0938029512577
 20
399.5553609377592
 30
0.0
 10
380.1148455213937
 20
398.0548796266641
 30
0.0
 10
381.4019809711406
 20
396.6935960589013
 30
0.0
 10
382.8495395009892
 20
395.5725430832826
 30
0.0
 10
384.9002923395394
 20
394.4809142397928
 30
0.0
 10
386.4552996089648
 20
394.1817793462474
 30
0.0
 10
387.4066016159859
 20
394.1817770397746
 30
0.0
  0
LINE
  5
161
330
1F
100
AcDbEntity
  8
0
  6
Continuous
 62
     8
370
     0
100
AcDbLine
 10
387.4066003311
 20
394.1817738973
 30
0.0
 11
404.6472624588
 21
394.1817738973
 31
0.0
  0
LINE
  5
162
330
1F
100
AcDbEntity
  8
0
  6
Continuous
 62
     8
370
     0
100
AcDbLine
 10
404.5581386137
 20
363.0191505812
 30
0.0
 11
404.5581386137
 21
376.1959568523
 31
0.0
  0
SPLINE
  5
163
330
1F
100
AcDbEntity
  8
0
  6
Continuous
 62
     8
370
     0
100
AcDbSpline
210
0.0
220
0.0
230
1.0
 70
     8
 71
     3
 72
    26
 73
    22
 74
     0
 42
0.00000001
 43
0.00000001
 40
0.0
 40
0.0
 40
0.0
 40
0.0
 40
0.1249999999999978
 40
0.1249999999999978
 40
0.2499999999999957
 40
0.2499999999999957
 40
0.3749999999999935
 40
0.3749999999999935
 40
0.4999999999999913
 40
0.4999999999999913
 40
0.6249999999999891
 40
0.6249999999999891
 40
0.6562499999999891
 40
0.6562499999999891
 40
0.687499999999989
 40
0.687499999999989
 40
0.7499999999999905
 40
0.7499999999999905
 40
0.8749999999999951
 40
0.8749999999999951
 40
1.0
 40
1.0
 40
1.0
 40
1.0
 10
404.6472658752845
 20
394.1817770397545
 30
0.0
 10
404.6654155087984
 20
395.0984048226014
 30
0.0
 10
404.6797304824565
 20
396.0078558158631
 30
0.0
 10
404.7015107617465
 20
397.8158985076842
 30
0.0
 10
404.7102956869732
 20
398.7144892463047
 30
0.0
 10
404.7318777222853
 20
400.5142523742631
 30
0.0
 10
404.7439120608564
 20
401.4151052601195
 30
0.0
 10
404.7597201535552
 20
403.2494489232282
 30
0.0
 10
404.7638772891686
 20
404.1872655269519
 30
0.0
 10
404.7563726137166
 20
406.1053552632287
 30
0.0
 10
404.7437706554346
 20
407.0888180279305
 30
0.0
 10
404.7254319205307
 20
408.3602239200312
 30
0.0
 10
404.7217442052928
 20
408.6173238693188
 30
0.0
 10
404.7145841008606
 20
409.1284790697154
 30
0.0
 10
404.7110610449282
 20
409.3832193987222
 30
0.0
 10
404.701152968323
 20
410.1451078829305
 30
0.0
 10
404.6957296023045
 20
410.649910471712
 30
0.0
 10
404.6820415113327
 20
412.1567338257514
 30
0.0
 10
404.6752251155796
 20
413.1539871079984
 30
0.0
 10
404.6623329345191
 20
415.124366325552
 30
0.0
 10
404.6560658223938
 20
416.095233194285
 30
0.0
 10
404.6562300272559
 20
417.0533973326036
 30
0.0
  0
SPLINE
  5
164
330
1F
100
AcDbEntity
  8
0
  6
Continuous
 62
     8
370
     0
100
AcDbSpline
210
0.0
220
0.0
230
1.0
 70
     8
 71
     3
 72
    87
 73
    83
 74
     0
 42
0.00000001
 43
0.00000001
 40
0.0
 40
0.0
 40
0.0
 40
0.0
 40
0.0335711687056576
 40
0.067018047056459
 40
0.093392457496776
 40
0.120000673279818
 40
0.1470335355119635
 40
0.1735983359606556
 40
0.199756465814821
 40
0.2255699789452433
 40
0.25
 40
0.265591756233596
 40
0.3051824309723724
 40
0.3433879332470948
 40
0.375
 40
0.3817705848771541
 40
0.41229599014316
 40
0.4375
 40
0.4433947353476333
 40
0.4671842114838626
 40
0.4858887679867854
 40
0.5
 40
0.5209692807633557
 40
0.5485897842611636
 40
0.5625
 40
0.5674875894953508
 40
0.5685180150510237
 40
0.5830082359460304
 40
0.5841659094457906
 40
0.5979164154117349
 40
0.5991825692971162
 40
0.6096119775388815
 40
0.6109498247093306
 40
0.6301940187506019
 40
0.6316138840422743
 40
0.646292597575724
 40
0.6477198529092457
 40
0.6637500644552602
 40
0.6651096701025327
 40
0.6773868022334969
 40
0.6786298836040341
 40
0.6875
 40
0.6946697917715647
 40
0.6956818423244244
 40
0.7089223372078133
 40
0.7319585354591802
 40
0.749823589420505
 40
0.7673203212028574
 40
0.7810065472781169
 40
0.7970962540561054
 40
0.7980441722344717
 40
0.8097465277826166
 40
0.8108284135345581
 40
0.81590416886141
 40
0.8170368185464351
 40
0.8207486726336523
 40
0.8219144691504365
 40
0.8344204272246287
 40
0.8356473365345608
 40
0.8452134698577592
 40
0.846455229453319
 40
0.8616419003517818
 40
0.8628526543862504
 40
0.8746568686308852
 40
0.8934928481118956
 40
0.8944872684224783
 40
0.9084687759026806
 40
0.9093094680265338
 40
0.9208420823870498
 40
0.9215413730080736
 40
0.9306486505172666
 40
0.9312315391616997
 40
0.9416884209708023
 40
0.9504336215008937
 40
0.9618939958568822
 40
0.9709780577471064
 40
0.9784837120550812
 40
0.9844157704527053
 40
0.9898246057161714
 40
0.9940926327471847
 40
0.9962937090941468
 40
1.0
 40
1.0
 40
1.0
 40
1.0
 10
409.1154685472872
 20
384.0860188854802
 30
0.0
 10
409.1154685472871
 20
384.5057641595751
 30
0.0
 10
409.1103133156419
 20
385.3439829736669
 30
0.0
 10
409.0905470563367
 20
386.5099454527209
 30
0.0
 10
409.0633086131307
 20
387.5848188516082
 30
0.0
 10
409.0316924996891
 20
388.5749624147406
 30
0.0
 10
408.9944656161957
 20
389.5608372483745
 30
0.0
 10
408.9529151205906
 20
390.5329939218841
 30
0.0
 10
408.9085304331006
 20
391.4808322289689
 30
0.0
 10
408.8628947959243
 20
392.3923975875368
 30
0.0
 10
408.8222383302382
 20
393.1679539537977
 30
0.0
 10
408.7724422257376
 20
394.0951546352106
 30
0.0
 10
408.7131096368577
 20
395.1658800791062
 30
0.0
 10
408.6425039386304
 20
396.3937022933994
 30
0.0
 10
408.5926482235465
 20
397.2373225531744
 30
0.0
 10
408.5476845890468
 20
397.9888251919112
 30
0.0
 10
408.5068276136392
 20
398.6638768905439
 30
0.0
 10
408.4665653333786
 20
399.3202151637408
 30
0.0
 10
408.4307692476
 20
399.9003841105818
 30
0.0
 10
408.3992774599932
 20
400.408162229246
 30
0.0
 10
408.3626203177569
 20
400.9962089735118
 30
0.0
 10
408.3279646955741
 20
401.5507219415594
 30
0.0
 10
408.2878216728226
 20
402.192001629898
 30
0.0
 10
408.2482900924524
 20
402.8263276669769
 30
0.0
 10
408.2192807784544
 20
403.297195970192
 30
0.0
 10
408.2069444478931
 20
403.4988515133584
 30
0.0
 10
408.1942801665356
 20
403.7063772211445
 30
0.0
 10
408.1840466919392
 20
403.8751589520926
 30
0.0
 10
408.1661386073351
 20
404.1729184186487
 30
0.0
 10
408.1563547743007
 20
404.336881116771
 30
0.0
 10
408.141081992286
 20
404.5952418278237
 30
0.0
 10
408.1333073745245
 20
404.7277431679071
 30
0.0
 10
408.1149312587809
 20
405.0435531727464
 30
0.0
 10
408.1020472591026
 20
405.2683028080974
 30
0.0
 10
408.081626575957
 20
405.6309316759779
 30
0.0
 10
408.0716075793491
 20
405.811385615582
 30
0.0
 10
408.053448211485
 20
406.1437001729336
 30
0.0
 10
408.0429505877255
 20
406.3392054933963
 30
0.0
 10
408.026629301555
 20
406.6491738011186
 30
0.0
 10
408.0185338773614
 20
406.8053342337444
 30
0.0
 10
408.0064950958211
 20
407.0414778250664
 30
0.0
 10
407.9972852819869
 20
407.2244344334337
 30
0.0
 10
407.9883330992545
 20
407.4060916396583
 30
0.0
 10
407.9771752075392
 20
407.635085539291
 30
0.0
 10
407.9580233219936
 20
408.0360621256833
 30
0.0
 10
407.931178449514
 20
408.6298902310298
 30
0.0
 10
407.9037102370111
 20
409.2820909395451
 30
0.0
 10
407.8817095956722
 20
409.8409160012306
 30
0.0
 10
407.8615460998657
 20
410.3859577361739
 30
0.0
 10
407.8490248687337
 20
410.746399651899
 30
0.0
 10
407.8376698072499
 20
411.0859140020502
 30
0.0
 10
407.8323715649007
 20
411.2489632439604
 30
0.0
 10
407.8256544377554
 20
411.4620219596042
 30
0.0
 10
407.8229468441046
 20
411.5491851045134
 30
0.0
 10
407.8193102697896
 20
411.6680486641082
 30
0.0
 10
407.8171296796601
 20
411.7401835777723
 30
0.0
 10
407.8108895271886
 20
411.9491587760044
 30
0.0
 10
407.8057023728543
 20
412.129068328568
 30
0.0
 10
407.7978530722729
 20
412.411550003416
 30
0.0
 10
407.7939055796458
 20
412.5579171129231
 30
0.0
 10
407.7856170366236
 20
412.8749563616418
 30
0.0
 10
407.7802388545685
 20
413.0910000982316
 30
0.0
 10
407.7719503705753
 20
413.4418462789827
 30
0.0
 10
407.7630801836751
 20
413.834431097169
 30
0.0
 10
407.7551605088278
 20
414.2264660619309
 30
0.0
 10
407.7474098086913
 20
414.6422514160367
 30
0.0
 10
407.7439756941916
 20
414.839105269589
 30
0.0
 10
407.7386438668713
 20
415.1675328715218
 30
0.0
 10
407.7361611167319
 20
415.3306079461256
 30
0.0
 10
407.7323769961497
 20
415.5969744732993
 30
0.0
 10
407.7306396369669
 20
415.7267246638464
 30
0.0
 10
407.7274761168085
 20
415.9783964437096
 30
0.0
 10
407.724599711222
 20
416.2256109582356
 30
0.0
 10
407.7207774586195
 20
416.6087113432134
 30
0.0
 10
407.7177776588741
 20
416.9744570781853
 30
0.0
 10
407.7155549727196
 20
417.3243060499325
 30
0.0
 10
407.7142000778368
 20
417.6048193914546
 30
0.0
 10
407.7133621495315
 20
417.8392325220906
 30
0.0
 10
407.7128775072623
 20
418.033114101468
 30
0.0
 10
407.7126461362781
 20
418.1804614674058
 30
0.0
 10
407.7125273109456
 20
418.3065698015347
 30
0.0
 10
407.7125005954266
 20
418.3797169910379
 30
0.0
 10
407.7125005954265
 20
418.4255821476007
 30
0.0
  0
SPLINE
  5
165
330
1F
100
AcDbEntity
  8
0
  6
Continuous
 62
     8
370
     0
100
AcDbSpline
210
0.0
220
0.0
230
1.0
 70
    24
 71
     3
 72
     8
 73
     4
 74
     0
 42
0.00000001
 43
0.00000001
 40
0.0
 40
0.0
 40
0.0
 40
0.0
 40
1.0
 40
1.0
 40
1.0
 40
1.0
 10
378.2960120579008
 20
405.7637879544349
 30
0.0
 10
378.2960120579008
 20
406.566020755389
 30
0.0
 10
378.2960120579008
 20
407.029396275928
 30
0.0
 10
378.2960120579008
 20
407.1326543486118
 30
0.0
  0
LINE
  5
166
330
1F
100
AcDbEntity
  8
0
  6
Continuous
 62
     8
370
     0
100
AcDbLine
 10
378.2960117507
 20
407.1326562129
 30
0.0
 11
378.3763848889
 21
407.1353831254
 31
0.0
  0
LWPOLYLINE
  5
167
330
1F
100
AcDbEntity
  8
0
  6
Continuous
 62
     8
370
     0
100
AcDbPolyline
 90
        7
 70
   128
 43
0.0
 10
385.9179594266
 20
405.353748139
 10
384.6586958218
 20
405.3835132085
 10
383.497731452
 20
405.5529766642
 10
382.5636633384
 20
405.843363043
 10
381.9599465179
 20
406.2225007378
 10
381.7534536767
 20
406.648405727
 10
381.7868658054
 20
406.8165504299
  0
LINE
  5
168
330
1F
100
AcDbEntity
  8
0
  6
Continuous
 62
     8
370
     0
100
AcDbLine
 10
404.5581386137
 20
361.0170193874
 30
0.0
 11
404.5581386137
 21
363.0191505812
 31
0.0
  0
LINE
  5
169
330
1F
100
AcDbEntity
  8
0
  6
Continuous
 62
     7
370
    15
100
AcDbLine
 10
391.6248049596
 20
417.9857517885
 30
0.0
 11
390.8839174089
 21
413.4143768328
 31
0.0
  0
LINE
  5
16A
330
1F
100
AcDbEntity
  8
0
  6
Continuous
 62
     7
370
    15
100
AcDbLine
 10
173.7523111556
 20
260.3527510699
 30
0.0
 11
173.7523111556
 21
104.7118198883
 31
0.0
  0
LINE
  5
16B
330
1F
100
AcDbEntity
  8
0
  6
Continuous
 62
     7
370
    15
100
AcDbLine
 10
195.8183110733
 20
104.7118198883
 30
0.0
 11
195.8183110733
 21
260.3527510699
 31
0.0
  0
LINE
  5
16C
330
1F
100
AcDbEntity
  8
0
  6
Continuous
 62
     7
370
    15
100
AcDbLine
 10
195.8183110733
 20
99.0515542042
 30
0.0
 11
195.8183110733
 21
104.7118198883
 31
0.0
  0
LINE
  5
16D
330
1F
100
AcDbEntity
  8
0
  6
Continuous
 62
     7
370
    15
100
AcDbLine
 10
173.7523111556
 20
104.7118198883
 30
0.0
 11
173.7523111556
 21
99.0515542042
 31
0.0
  0
LINE
  5
16E
330
1F
100
AcDbEntity
  8
0
  6
Continuous
 62
     7
370
    15
100
AcDbLine
 10
195.8183110733
 20
98.7084996712
 30
0.0
 11
195.8183110733
 21
99.0515542042
 31
0.0
  0
LINE
  5
16F
330
1F
100
AcDbEntity
  8
0
  6
Continuous
 62
     7
370
    15
100
AcDbLine
 10
173.7523111556
 20
99.0515542042
 30
0.0
 11
173.7523111556
 21
98.7084996712
 31
0.0
  0
SPLINE
  5
170
330
1F
100
AcDbEntity
  8
0
  6
Continuous
 62
     7
370
    15
100
AcDbSpline
210
0.0
220
0.0
230
1.0
 70
     8
 71
     3
 72
     9
 73
     5
 74
     0
 42
0.00000001
 43
0.00000001
 40
0.0
 40
0.0
 40
0.0
 40
0.0
 40
0.5056707883410735
 40
1.0
 40
1.0
 40
1.0
 40
1.0
 10
154.0619921911554
 20
182.8812178981183
 30
0.0
 10
154.4088570953129
 20
182.8516424826753
 30
0.0
 10
155.0948071484995
 20
182.7931549921478
 30
0.0
 10
155.794611914545
 20
182.7982934796045
 30
0.0
 10
156.1405458528595
 20
182.8008335840581
 30
0.0
  0
SPLINE
  5
171
330
1F
100
AcDbEntity
  8
0
  6
Continuous
 62
     7
370
    15
100
AcDbSpline
210
0.0
220
0.0
230
1.0
 70
     8
 71
     3
 72
     9
 73
     5
 74
     0
 42
0.00000001
 43
0.00000001
 40
0.0
 40
0.0
 40
0.0
 40
0.0
 40
0.5096548462657788
 40
0.9999999999999999
 40
0.9999999999999999
 40
0.9999999999999999
 40
0.9999999999999999
 10
156.1404732096987
 20
198.9892390382169
 30
0.0
 10
155.7946474630176
 20
198.9919500313776
 30
0.0
 10
155.1160985407127
 20
198.9972693041767
 30
0.0
 10
154.4509044860624
 20
198.9408439566234
 30
0.0
 10
154.1247298050718
 20
198.9131760609029
 30
0.0
  0
SPLINE
  5
172
330
1F
100
AcDbEntity
  8
0
  6
Continuous
 62
     7
370
    15
100
AcDbSpline
210
0.0
220
0.0
230
1.0
 70
     8
 71
     3
 72
     9
 73
     5
 74
     0
 42
0.00000001
 43
0.00000001
 40
0.0
 40
0.0
 40
0.0
 40
0.0
 40
0.1807170031922045
 40
1.0
 40
1.0
 40
1.0
 40
1.0
 10
149.6796016622381
 20
192.4611893308042
 30
0.0
 10
149.6677496765227
 20
192.3698582222447
 30
0.0
 10
149.6021665520458
 20
191.8644762883576
 30
0.0
 10
149.6026832386775
 20
191.3296105544567
 30
0.0
 10
149.6031065512495
 20
190.8914041530965
 30
0.0
  0
SPLINE
  5
173
330
1F
100
AcDbEntity
  8
0
  6
Continuous
 62
     7
370
    15
100
AcDbSpline
210
0.0
220
0.0
230
1.0
 70
     8
 71
     3
 72
     9
 73
     5
 74
     0
 42
0.00000001
 43
0.00000001
 40
0.0
 40
0.0
 40
0.0
 40
0.0
 40
0.1618506693209874
 40
1.0
 40
1.0
 40
1.0
 40
1.0
 10
149.6075880754786
 20
190.8909943711637
 30
0.0
 10
149.6046494125393
 20
190.806159524924
 30
0.0
 10
149.5864927811726
 20
190.2820044714069
 30
0.0
 10
149.6335429927476
 20
189.7632593694969
 30
0.0
 10
149.6729780960875
 20
189.328473509538
 30
0.0
  0
SPLINE
  5
174
330
1F
100
AcDbEntity
  8
0
  6
Continuous
 62
     7
370
    15
100
AcDbSpline
210
0.0
220
0.0
230
1.0
 70
     8
 71
     3
 72
     9
 73
     5
 74
     0
 42
0.00000001
 43
0.00000001
 40
0.0
 40
0.0
 40
0.0
 40
0.0
 40
0.1524236272274657
 40
1.0
 40
1.0
 40
1.0
 40
1.0
 10
149.6771094430285
 20
189.3306341779111
 30
0.0
 10
149.6812077639117
 20
189.2550115702284
 30
0.0
 10
149.7080954647087
 20
188.7588771515807
 30
0.0
 10
149.7971322777174
 20
188.2995206795126
 30
0.0
 10
149.8725977767305
 20
187.9101809871076
 30
0.0
  0
SPLINE
  5
175
330
1F
100
AcDbEntity
  8
0
  6
Continuous
 62
     7
370
    15
100
AcDbSpline
210
0.0
220
0.0
230
1.0
 70
     8
 71
     3
 72
     9
 73
     5
 74
     0
 42
0.00000001
 43
0.00000001
 40
0.0
 40
0.0
 40
0.0
 40
0.0
 40
0.1846580288425942
 40
1.0
 40
1.0
 40
1.0
 40
1.0
 10
149.9009658623533
 20
193.9962920558332
 30
0.0
 10
149.8790459499943
 20
193.9089460245218
 30
0.0
 10
149.7603405111007
 20
193.4359309497979
 30
0.0
 10
149.7128932143471
 20
192.901114489269
 30
0.0
 10
149.674207441886
 20
192.465056182134
 30
0.0
  0
SPLINE
  5
176
330
1F
100
AcDbEntity
  8
0
  6
Continuous
 62
     7
370
    15
100
AcDbSpline
210
0.0
220
0.0
230
1.0
 70
     8
 71
     3
 72
    10
 73
     6
 74
     0
 42
0.00000001
 43
0.00000001
 40
0.0
 40
0.0
 40
0.0
 40
0.0
 40
0.0820739418233867
 40
0.5347622161985336
 40
1.0
 40
1.0
 40
1.0
 40
1.0
 10
149.8759244609671
 20
187.9135486495374
 30
0.0
 10
149.8895420720893
 20
187.8225683549566
 30
0.0
 10
149.978269184998
 20
187.2297757720792
 30
0.0
 10
150.2665212114548
 20
186.2357141260171
 30
0.0
 10
150.6692301205283
 20
185.4426137063099
 30
0.0
 10
150.8733374107676
 20
185.0406420242666
 30
0.0
  0
SPLINE
  5
177
330
1F
100
AcDbEntity
  8
0
  6
Continuous
 62
     7
370
    15
100
AcDbSpline
210
0.0
220
0.0
230
1.0
 70
     8
 71
     3
 72
     9
 73
     5
 74
     0
 42
0.00000001
 43
0.00000001
 40
0.0
 40
0.0
 40
0.0
 40
0.0
 40
0.3290969502442453
 40
1.0
 40
1.0
 40
1.0
 40
1.0
 10
150.1039792824583
 20
194.8452484619497
 30
0.0
 10
150.0740517096895
 20
194.7591778477879
 30
0.0
 10
149.9831132408081
 20
194.4976421085538
 30
0.0
 10
149.9303156822339
 20
194.200582285847
 30
0.0
 10
149.8948936391668
 20
194.0012839448331
 30
0.0
  0
SPLINE
  5
178
330
1F
100
AcDbEntity
  8
0
  6
Continuous
 62
     7
370
    15
100
AcDbSpline
210
0.0
220
0.0
230
1.0
 70
     8
 71
     3
 72
     9
 73
     5
 74
     0
 42
0.00000001
 43
0.00000001
 40
0.0
 40
0.0
 40
0.0
 40
0.0
 40
0.8878148231950921
 40
1.0
 40
1.0
 40
1.0
 40
1.0
 10
150.5038482178049
 20
195.9994104516385
 30
0.0
 10
150.3663453020686
 20
195.6748041409456
 30
0.0
 10
150.2114673791686
 20
195.3091802493272
 30
0.0
 10
150.1039556617566
 20
194.9009612997569
 30
0.0
 10
150.0918944407301
 20
194.8551651847242
 30
0.0
  0
SPLINE
  5
179
330
1F
100
AcDbEntity
  8
0
  6
Continuous
 62
     7
370
    15
100
AcDbSpline
210
0.0
220
0.0
230
1.0
 70
     8
 71
     3
 72
     9
 73
     5
 74
     0
 42
0.00000001
 43
0.00000001
 40
0.0
 40
0.0
 40
0.0
 40
0.0
 40
0.4707147684125549
 40
1.0
 40
1.0
 40
1.0
 40
1.0
 10
150.8805831003981
 20
196.7483949673055
 30
0.0
 10
150.8104415700637
 20
196.6387650499608
 30
0.0
 10
150.6614308845249
 20
196.4058640986811
 30
0.0
 10
150.5555861753628
 20
196.1463931138226
 30
0.0
 10
150.4995641339617
 20
196.0090589535116
 30
0.0
  0
SPLINE
  5
17A
330
1F
100
AcDbEntity
  8
0
  6
Continuous
 62
     7
370
    15
100
AcDbSpline
210
0.0
220
0.0
230
1.0
 70
     8
 71
     3
 72
    10
 73
     6
 74
     0
 42
0.00000001
 43
0.00000001
 40
0.0
 40
0.0
 40
0.0
 40
0.0
 40
0.2656755083948514
 40
0.747023479593354
 40
1.0
 40
1.0
 40
1.0
 40
1.0
 10
152.1607195068197
 20
198.1670413923143
 30
0.0
 10
152.0121384583423
 20
198.0694010269823
 30
0.0
 10
151.5943598964196
 20
197.7948569190222
 30
0.0
 10
151.1787839142333
 20
197.2754442380539
 30
0.0
 10
150.9557415986015
 20
196.8846878469002
 30
0.0
 10
150.8789029944735
 20
196.7500713479398
 30
0.0
  0
SPLINE
  5
17B
330
1F
100
AcDbEntity
  8
0
  6
Continuous
 62
     7
370
    15
100
AcDbSpline
210
0.0
220
0.0
230
1.0
 70
     8
 71
     3
 72
    10
 73
     6
 74
     0
 42
0.00000001
 43
0.00000001
 40
0.0
 40
0.0
 40
0.0
 40
0.0
 40
0.1533137552427123
 40
0.6566942628490583
 40
1.0
 40
1.0
 40
1.0
 40
1.0
 10
150.8859773207502
 20
185.0507375609754
 30
0.0
 10
150.9267822677588
 20
184.9648006055859
 30
0.0
 10
151.1015635491511
 20
184.5967037868648
 30
0.0
 10
151.5071316267614
 20
184.0887935608399
 30
0.0
 10
151.9694145836801
 20
183.7563327643187
 30
0.0
 10
152.1568563807802
 20
183.6215299379705
 30
0.0
  0
SPLINE
  5
17C
330
1F
100
AcDbEntity
  8
0
  6
Continuous
 62
     7
370
    15
100
AcDbSpline
210
0.0
220
0.0
230
1.0
 70
     8
 71
     3
 72
    10
 73
     6
 74
     0
 42
0.00000001
 43
0.00000001
 40
0.0
 40
0.0
 40
0.0
 40
0.0
 40
0.1423959813964335
 40
0.6807901055513693
 40
1.0
 40
1.0
 40
1.0
 40
1.0
 10
152.4228383828001
 20
183.4410470735906
 30
0.0
 10
152.4926575377896
 20
183.3901117512611
 30
0.0
 10
152.8264604262469
 20
183.1465917928684
 30
0.0
 10
153.4249927806168
 20
182.9735711347764
 30
0.0
 10
153.8356502005186
 20
182.9202118988889
 30
0.0
 10
153.9885015267925
 20
182.9003509890912
 30
0.0
  0
SPLINE
  5
17D
330
1F
100
AcDbEntity
  8
0
  6
Continuous
 62
     7
370
    15
100
AcDbSpline
210
0.0
220
0.0
230
1.0
 70
     8
 71
     3
 72
    10
 73
     6
 74
     0
 42
0.00000001
 43
0.00000001
 40
0.0
 40
0.0
 40
0.0
 40
0.0
 40
0.4283910406586526
 40
0.9787688854330242
 40
1.0
 40
1.0
 40
1.0
 40
1.0
 10
153.8969990838366
 20
198.880650551307
 30
0.0
 10
153.6814558186061
 20
198.8403786195009
 30
0.0
 10
153.1889921080024
 20
198.7483670924917
 30
0.0
 10
152.6046517598207
 20
198.5477117722995
 30
0.0
 10
152.3468297746594
 20
198.3298269095657
 30
0.0
 10
152.3372535634832
 20
198.3217340719579
 30
0.0
  0
LINE
  5
17E
330
1F
100
AcDbEntity
  8
0
  6
Continuous
 62
     7
370
    15
100
AcDbLine
 10
172.2183623392
 20
182.8208532941
 30
0.0
 11
172.3964926828
 21
182.8170907509
 31
0.0
  0
SPLINE
  5
17F
330
1F
100
AcDbEntity
  8
0
  6
Continuous
 62
     7
370
    15
100
AcDbSpline
210
0.0
220
0.0
230
1.0
 70
     8
 71
     3
 72
     9
 73
     5
 74
     0
 42
0.00000001
 43
0.00000001
 40
0.0
 40
0.0
 40
0.0
 40
0.0
 40
0.4482135375406779
 40
1.0
 40
1.0
 40
1.0
 40
1.0
 10
165.6527579803066
 20
182.8208532941221
 30
0.0
 10
166.8515951568664
 20
182.6459972814791
 30
0.0
 10
169.5262961110986
 20
182.2558796299631
 30
0.0
 10
172.2496186472297
 20
182.0236530298766
 30
0.0
 10
173.7523111555772
 20
181.8955135357259
 30
0.0
  0
SPLINE
  5
180
330
1F
100
AcDbEntity
  8
0
  6
Continuous
 62
     7
370
    15
100
AcDbSpline
210
0.0
220
0.0
230
1.0
 70
     8
 71
     3
 72
    10
 73
     6
 74
     0
 42
0.00000001
 43
0.00000001
 40
0.0
 40
0.0
 40
0.0
 40
0.0
 40
0.1064876506456235
 40
0.6295908516401698
 40
1.0
 40
1.0
 40
1.0
 40
1.0
 10
161.594473295291
 20
253.8410164241372
 30
0.0
 10
161.6021225911877
 20
253.8040680096472
 30
0.0
 10
161.6473478045231
 20
253.5856165403502
 30
0.0
 10
161.710281163664
 20
253.1549619868291
 30
0.0
 10
161.7117337265822
 20
252.7902413861665
 30
0.0
 10
161.7123358923988
 20
252.6390449900804
 30
0.0
  0
SPLINE
  5
181
330
1F
100
AcDbEntity
  8
0
  6
Continuous
 62
     7
370
    15
100
AcDbSpline
210
0.0
220
0.0
230
1.0
 70
     8
 71
     3
 72
    10
 73
     6
 74
     0
 42
0.00000001
 43
0.00000001
 40
0.0
 40
0.0
 40
0.0
 40
0.0
 40
0.3325830770564964
 40
0.7833799197732051
 40
1.0
 40
1.0
 40
1.0
 40
1.0
 10
207.8620293218689
 20
252.6448615652202
 30
0.0
 10
207.8610909178588
 20
252.7722409777837
 30
0.0
 10
207.858880562285
 20
253.0722757085881
 30
0.0
 10
207.9020771567436
 20
253.4540702107034
 30
0.0
 10
207.9498953391831
 20
253.704810353203
 30
0.0
 10
207.965415440877
 20
253.786191792476
 30
0.0
  0
LINE
  5
182
330
1F
100
AcDbEntity
  8
0
  6
Continuous
 62
     7
370
    15
100
AcDbLine
 10
207.8543105204
 20
185.975213052
 30
0.0
 11
207.8543105204
 21
211.35580212
 31
0.0
  0
LINE
  5
183
330
1F
100
AcDbEntity
  8
0
  6
Continuous
 62
     7
370
    15
100
AcDbLine
 10
161.7163107771
 20
252.6485617098
 30
0.0
 11
161.7163107771
 21
221.7372511339
 31
0.0
  0
LINE
  5
184
330
1F
100
AcDbEntity
  8
0
  6
Continuous
 62
     7
370
    15
100
AcDbLine
 10
207.8543105204
 20
221.7372511339
 30
0.0
 11
207.8543105204
 21
252.6446073142
 31
0.0
  0
ARC
  5
185
330
1F
100
AcDbEntity
  8
0
  6
Continuous
 62
     7
370
    15
100
AcDbCircle
 10
162.2178108385
 20
221.7372510703
 30
0.0
 40
0.5015000000000214
100
AcDbArc
 50
180.0
 51
270.0
  0
ARC
  5
186
330
1F
100
AcDbEntity
  8
0
  6
Continuous
 62
     7
370
    15
100
AcDbCircle
 10
207.3528108385
 20
221.7372510703
 30
0.0
 40
0.5015000000000214
100
AcDbArc
 50
270.0
 51
0.0
  0
LINE
  5
187
330
1F
100
AcDbEntity
  8
0
  6
Continuous
 62
     7
370
    15
100
AcDbLine
 10
206.8513114978
 20
219.2297507834
 30
0.0
 11
206.8513114978
 21
221.2357525539
 31
0.0
  0
LINE
  5
188
330
1F
100
AcDbEntity
  8
0
  6
Continuous
 62
     7
370
    15
100
AcDbLine
 10
162.7193116624
 20
221.2357525539
 30
0.0
 11
162.7193116624
 21
219.2297507834
 31
0.0
  0
ARC
  5
189
330
1F
100
AcDbEntity
  8
0
  6
Continuous
 62
     7
370
    15
100
AcDbCircle
 10
184.7853108385
 20
219.1560647675
 30
0.0
 40
22.06600000000001
100
AcDbArc
 50
345.474603172
 51
0.1977792437
  0
ARC
  5
18A
330
1F
100
AcDbEntity
  8
0
  6
Continuous
 62
     7
370
    15
100
AcDbCircle
 10
184.7853108385
 20
219.1560647675
 30
0.0
 40
22.06599999999999
100
AcDbArc
 50
179.801489143
 51
194.818122559
  0
LINE
  5
18B
330
1F
100
AcDbEntity
  8
0
  6
Continuous
 62
     7
370
    15
100
AcDbLine
 10
161.7163107771
 20
213.3120526385
 30
0.0
 11
161.7163107771
 21
198.9691895258
 31
0.0
  0
ARC
  5
18C
330
1F
100
AcDbEntity
  8
0
  6
Continuous
 62
     7
370
    15
100
AcDbCircle
 10
161.9169108385
 20
213.3120510703
 30
0.0
 40
0.2006000000000085
100
AcDbArc
 50
90.0
 51
180.0
  0
SPLINE
  5
18D
330
1F
100
AcDbEntity
  8
0
  6
Continuous
 62
     7
370
    15
100
AcDbSpline
210
0.0
220
0.0
230
1.0
 70
     8
 71
     3
 72
    13
 73
     9
 74
     0
 42
0.00000001
 43
0.00000001
 40
0.0
 40
0.0
 40
0.0
 40
0.0
 40
0.1955149821974291
 40
0.4879473094453106
 40
0.7591255947107105
 40
0.8589425839893345
 40
0.9426875509918038
 40
1.0
 40
1.0
 40
1.0
 40
1.0
 10
231.6263285506564
 20
261.3557510601981
 30
0.0
 10
231.640709291515
 20
261.1531754447578
 30
0.0
 10
231.6765993482817
 20
260.6476068924026
 30
0.0
 10
231.7705226433785
 20
260.0913129916978
 30
0.0
 10
231.8475936016773
 20
259.7688110372508
 30
0.0
 10
232.0152914850089
 20
259.5160580038655
 30
0.0
 10
232.2057183822643
 20
259.3718061388404
 30
0.0
 10
232.352870386069
 20
259.3637869095425
 30
0.0
 10
232.4126591015654
 20
259.360528650011
 30
0.0
  0
SPLINE
  5
18E
330
1F
100
AcDbEntity
  8
0
  6
Continuous
 62
     7
370
    15
100
AcDbSpline
210
0.0
220
0.0
230
1.0
 70
     8
 71
     3
 72
    15
 73
    11
 74
     0
 42
0.00000001
 43
0.00000001
 40
0.0
 40
0.0
 40
0.0
 40
0.0
 40
0.0180313104550414
 40
0.0952495955780337
 40
0.1629908041986815
 40
0.2397135274437832
 40
0.3642246214024611
 40
0.62510543369639
 40
0.9015674977912342
 40
1.0
 40
1.0
 40
1.0
 40
1.0
 10
232.4381102848845
 20
267.3640204419075
 30
0.0
 10
232.4198224073997
 20
267.3674236602192
 30
0.0
 10
232.3232175078977
 20
267.3854010096004
 30
0.0
 10
232.156012037121
 20
267.3132353824099
 30
0.0
 10
232.0042662074398
 20
267.1901883529814
 30
0.0
 10
231.901178941556
 20
267.0349083319349
 30
0.0
 10
231.8108125113255
 20
266.8079442182545
 30
0.0
 10
231.7276370912491
 20
266.4083758581996
 30
0.0
 10
231.6576043311176
 20
265.8884553462658
 30
0.0
 10
231.6330480152518
 20
265.4760360152522
 30
0.0
 10
231.6266004968481
 20
265.3677509923158
 30
0.0
  0
LINE
  5
18F
330
1F
100
AcDbEntity
  8
0
  6
Continuous
 62
     7
370
    15
100
AcDbLine
 10
232.4257199694
 20
259.3497510941
 30
0.0
 11
250.8795713116
 21
259.3497510941
 31
0.0
  0
LINE
  5
190
330
1F
100
AcDbEntity
  8
0
  6
Continuous
 62
     7
370
    15
100
AcDbLine
 10
250.8795713116
 20
267.3737509002
 30
0.0
 11
232.4257199694
 21
267.3737509002
 31
0.0
  0
LINE
  5
191
330
1F
100
AcDbEntity
  8
0
  6
Continuous
 62
     7
370
    15
100
AcDbLine
 10
216.6154501069
 20
261.3557510602
 30
0.0
 11
223.9469257224
 21
261.3557510602
 31
0.0
  0
LINE
  5
192
330
1F
100
AcDbEntity
  8
0
  6
Continuous
 62
     7
370
    15
100
AcDbLine
 10
223.9469257224
 20
265.3677509923
 30
0.0
 11
216.6154501069
 21
265.3677509923
 31
0.0
  0
LINE
  5
193
330
1F
100
AcDbEntity
  8
0
  6
Continuous
 62
     7
370
    15
100
AcDbLine
 10
231.9269706536
 20
265.3677509923
 30
0.0
 11
223.9469257224
 21
265.3677509923
 31
0.0
  0
LINE
  5
194
330
1F
100
AcDbEntity
  8
0
  6
Continuous
 62
     7
370
    15
100
AcDbLine
 10
223.9469257224
 20
261.3557510602
 30
0.0
 11
231.9269706536
 21
261.3557510602
 31
0.0
  0
SPLINE
  5
195
330
1F
100
AcDbEntity
  8
0
  6
Continuous
 62
     7
370
    15
100
AcDbSpline
210
0.0
220
0.0
230
1.0
 70
     8
 71
     3
 72
    16
 73
    12
 74
     0
 42
0.00000001
 43
0.00000001
 40
0.0
 40
0.0
 40
0.0
 40
0.0
 40
0.0541204208563356
 40
0.2235724148325461
 40
0.3939069054127315
 40
0.56806177324385
 40
0.7616545234111948
 40
0.8249644278841304
 40
0.8868220288023915
 40
0.9536507928521178
 40
1.0
 40
1.0
 40
1.0
 40
1.0
 10
252.1924306679564
 20
263.1328599353014
 30
0.0
 10
252.1943384604959
 20
263.2393133961925
 30
0.0
 10
252.2022195851862
 20
263.6790745241019
 30
0.0
 10
252.1802225037764
 20
264.4665262919899
 30
0.0
 10
252.1303132978
 20
265.3744674356966
 30
0.0
 10
252.0327185030181
 20
266.1363041889423
 30
0.0
 10
251.9580404709609
 20
266.546558982178
 30
0.0
 10
251.7357508392191
 20
266.9542741336754
 30
0.0
 10
251.4926595575434
 20
267.1954953823569
 30
0.0
 10
251.1908196865777
 20
267.3552716514495
 30
0.0
 10
250.9735538787658
 20
267.3566981402664
 30
0.0
 10
250.8845781017142
 20
267.3572823230801
 30
0.0
  0
SPLINE
  5
196
330
1F
100
AcDbEntity
  8
0
  6
Continuous
 62
     7
370
    15
100
AcDbSpline
210
0.0
220
0.0
230
1.0
 70
     8
 71
     3
 72
    17
 73
    13
 74
     0
 42
0.00000001
 43
0.00000001
 40
0.0
 40
0.0
 40
0.0
 40
0.0
 40
0.0187593757705384
 40
0.0919876455832812
 40
0.1524748538317588
 40
0.2085519461017678
 40
0.2669169243968262
 40
0.3474445211616042
 40
0.5021790836263181
 40
0.6837838864363215
 40
0.874285273858303
 40
0.9999999999999999
 40
0.9999999999999999
 40
0.9999999999999999
 40
0.9999999999999999
 10
250.871383123477
 20
259.3638385122335
 30
0.0
 10
250.9041393572721
 20
259.3593101557162
 30
0.0
 10
251.0647613769938
 20
259.3371051069191
 30
0.0
 10
251.3299915145605
 20
259.4365628422533
 30
0.0
 10
251.5970168729325
 20
259.6172871402712
 30
0.0
 10
251.7719722769204
 20
259.8312238479686
 30
0.0
 10
251.8880477455585
 20
260.054794893453
 30
0.0
 10
251.9824484004286
 20
260.3428318811391
 30
0.0
 10
252.0628830084002
 20
260.7661435145027
 30
0.0
 10
252.1382603621599
 20
261.4830876502928
 30
0.0
 10
252.1857351584311
 20
262.3177863879844
 30
0.0
 10
252.1905260166609
 20
262.9009984344054
 30
0.0
 10
252.1924306679564
 20
263.1328599353014
 30
0.0
  0
ARC
  5
197
330
1F
100
AcDbEntity
  8
0
  6
Continuous
 62
     7
370
    15
100
AcDbCircle
 10
204.8453108385
 20
185.9752147097
 30
0.0
 40
3.008999999999986
100
AcDbArc
 50
278.8272505214
 51
0.0
  0
LINE
  5
198
330
1F
100
AcDbEntity
  8
0
  6
Continuous
 62
     7
370
    15
100
AcDbLine
 10
216.6154501069
 20
265.3677509923
 30
0.0
 11
208.3291211207
 21
265.3677509923
 31
0.0
  0
LINE
  5
199
330
1F
100
AcDbEntity
  8
0
  6
Continuous
 62
     7
370
    15
100
AcDbLine
 10
208.8364050765
 20
261.3557510602
 30
0.0
 11
216.6154501069
 21
261.3557510602
 31
0.0
  0
ARC
  5
19A
330
1F
100
AcDbEntity
  8
0
  6
Continuous
 62
     7
370
    15
100
AcDbCircle
 10
184.7853108385
 20
315.1485363452
 30
0.0
 40
133.730653226773
100
AcDbArc
 50
274.7323754352
 51
278.8272505214
  0
ARC
  5
19B
330
1F
100
AcDbEntity
  8
0
  6
Continuous
 62
     7
370
    15
100
AcDbCircle
 10
184.7853108385
 20
260.3527510703
 30
0.0
 40
11.03300000000002
100
AcDbArc
 50
0.0
 51
180.0
  0
LWPOLYLINE
  5
19C
330
1F
100
AcDbEntity
  8
0
  6
Continuous
 62
     7
370
    15
100
AcDbPolyline
 90
       19
 70
   128
 43
0.0
 10
195.8183110733
 20
98.7084996712
 10
195.6410058815
 20
96.8572986138
 10
195.1147900004
 20
95.0655829918
 10
194.2565762479
 20
93.3909606945
 10
193.093948536
 20
91.887239815
 10
191.6642738547
 20
90.6027746212
 10
190.0135036599
 20
89.5788264286
 10
188.1946953986
 20
88.8483119023
 10
186.2663064426
 20
88.434700371
 10
184.2903171823
 20
88.351313473
 10
182.3302374728
 20
88.600818516
 10
180.4490657564
 20
89.1751837742
 10
178.7072643679
 20
90.0559616101
 10
177.1608167369
 20
91.2148398173
 10
175.859426618
 20
92.6145654929
 10
174.844921105
 20
94.2101669323
 10
174.1499085952
 20
95.9503394377
 10
173.7967268605
 20
97.779158951
 10
173.7523111556
 20
98.7084996712
  0
SPLINE
  5
19D
330
1F
100
AcDbEntity
  8
0
  6
Continuous
 62
     7
370
    15
100
AcDbSpline
210
0.0
220
0.0
230
1.0
 70
     8
 71
     3
 72
     8
 73
     4
 74
     0
 42
0.00000001
 43
0.00000001
 40
0.6838601914106995
 40
0.6838601914106995
 40
0.6838601914106995
 40
0.6838601914106995
 40
1.0
 40
1.0
 40
1.0
 40
1.0
 10
173.4951559750183
 20
198.9085448282376
 30
0.0
 10
173.0939403290964
 20
198.9488781473107
 30
0.0
 10
172.6906887913728
 20
198.9691510671141
 30
0.0
 10
172.2867327015275
 20
198.9691510702915
 30
0.0
  0
LINE
  5
19E
330
1F
100
AcDbEntity
  8
0
  6
Continuous
 62
     7
370
    15
100
AcDbLine
 10
154.1249123443
 20
198.9106205118
 30
0.0
 11
154.0161748458
 21
198.9034158003
 31
0.0
  0
ARC
  5
19F
330
1F
100
AcDbEntity
  8
0
  6
Continuous
 62
     7
370
    15
100
AcDbCircle
 10
184.7853108385
 20
260.3527510703
 30
0.0
 40
11.98585000000001
100
AcDbArc
 50
336.9995950786
 51
203.0004049214
  0
ARC
  5
1A0
330
1F
100
AcDbEntity
  8
0
  6
Continuous
 62
     7
370
    15
100
AcDbCircle
 10
184.7853108385
 20
260.3527510703
 30
0.0
 40
24.07200000000001
100
AcDbArc
 50
90.0
 51
242.720387264
  0
ARC
  5
1A1
330
1F
100
AcDbEntity
  8
0
  6
Continuous
 62
     7
370
    15
100
AcDbCircle
 10
184.7853108385
 20
260.3527510703
 30
0.0
 40
24.07200000000001
100
AcDbArc
 50
297.279612736
 51
90.0
  0
SPLINE
  5
1A2
330
1F
100
AcDbEntity
  8
0
  6
Continuous
 62
     7
370
    15
100
AcDbSpline
210
0.0
220
0.0
230
1.0
 70
     8
 71
     3
 72
    12
 73
     8
 74
     0
 42
0.00000001
 43
0.00000001
 40
0.0
 40
0.0
 40
0.0
 40
0.0
 40
0.2500000000000064
 40
0.2500000000000064
 40
0.5000000000000129
 40
0.5000000000000129
 40
1.0
 40
1.0
 40
1.0
 40
1.0
 10
173.2325044651254
 20
204.4344948341366
 30
0.0
 10
173.2065913097852
 20
204.4168818563728
 30
0.0
 10
173.176094002803
 20
204.4111749205488
 30
0.0
 10
173.1281637475911
 20
204.4276606790795
 30
0.0
 10
173.1106508197966
 20
204.4461374921981
 30
0.0
 10
173.0710277845293
 20
204.5085171431436
 30
0.0
 10
173.0595168472503
 20
204.5609919936016
 30
0.0
 10
173.0544363019339
 20
204.6153913072829
 30
0.0
  0
LINE
  5
1A3
330
1F
100
AcDbEntity
  8
0
  6
Continuous
 62
     7
370
    15
100
AcDbLine
 10
173.7523111556
 20
204.6316345048
 30
0.0
 11
173.2325046364
 21
204.4344958675
 31
0.0
  0
SPLINE
  5
1A4
330
1F
100
AcDbEntity
  8
0
  6
Continuous
 62
     7
370
    15
100
AcDbSpline
210
0.0
220
0.0
230
1.0
 70
     8
 71
     3
 72
    12
 73
     8
 74
     0
 42
0.00000001
 43
0.00000001
 40
0.0
 40
0.0
 40
0.0
 40
0.0
 40
0.5000000000000018
 40
0.5000000000000018
 40
0.7500000000000009
 40
0.7500000000000009
 40
1.0
 40
1.0
 40
1.0
 40
1.0
 10
173.0544363019339
 20
204.6153913072829
 30
0.0
 10
173.0293795604382
 20
204.8836832829618
 30
0.0
 10
173.0309359335853
 20
205.163218655203
 30
0.0
 10
173.0798188722956
 20
205.600061231103
 30
0.0
 10
173.1041708790457
 20
205.7489642713139
 30
0.0
 10
173.168631122219
 20
206.0441197777482
 30
0.0
 10
173.2088005472689
 20
206.1913855602013
 30
0.0
 10
173.2574483691583
 20
206.3381361921539
 30
0.0
  0
SPLINE
  5
1A5
330
1F
100
AcDbEntity
  8
0
  6
Continuous
 62
     7
370
    15
100
AcDbSpline
210
0.0
220
0.0
230
1.0
 70
     8
 71
     3
 72
    11
 73
     7
 74
     0
 42
0.00000001
 43
0.00000001
 40
0.0
 40
0.0
 40
0.0
 40
0.0
 40
0.2821035043342632
 40
0.5340526210866372
 40
0.7905101452783118
 40
1.0
 40
1.0
 40
1.0
 40
1.0
 10
208.0381070304709
 20
254.127108940172
 30
0.0
 10
208.0315223327241
 20
254.0999880958993
 30
0.0
 10
208.0190567836021
 20
254.0486453874701
 30
0.0
 10
207.8251605273915
 20
253.3706761090135
 30
0.0
 10
207.5954418082843
 20
252.6275018676968
 30
0.0
 10
207.3645360758413
 20
252.0306103898004
 30
0.0
 10
207.2607209015684
 20
251.7622480925797
 30
0.0
  0
SPLINE
  5
1A6
330
1F
100
AcDbEntity
  8
0
  6
Continuous
 62
     7
370
    15
100
AcDbSpline
210
0.0
220
0.0
230
1.0
 70
     8
 71
     3
 72
    11
 73
     7
 74
     0
 42
0.00000001
 43
0.00000001
 40
0.0
 40
0.0
 40
0.0
 40
0.0
 40
0.2300280078471507
 40
0.4828238782512127
 40
0.7399731686819809
 40
0.9999999999999999
 40
0.9999999999999999
 40
0.9999999999999999
 40
0.9999999999999999
 10
162.251893900712
 20
251.8872194748996
 30
0.0
 10
162.174771003316
 20
252.0969197323579
 30
0.0
 10
162.0128916879611
 20
252.5370760964629
 30
0.0
 10
161.8193438654092
 20
253.1325089234971
 30
0.0
 10
161.6572401138252
 20
253.6717535207518
 30
0.0
 10
161.594949975572
 20
253.8976590678327
 30
0.0
 10
161.56363161691
 20
254.0112403046964
 30
0.0
  0
ELLIPSE
  5
1A7
330
1F
100
AcDbEntity
  8
0
  6
Continuous
 62
     7
370
    15
100
AcDbEllipse
 10
184.7853108385
 20
213.3059099762
 30
0.0
 11
23.06411225911449
 21
-2.059981194994407
 31
0.0
210
0.0
220
0.0
230
1.0
 40
0.2305139478
 41
0.0205855449762989
 42
0.3456446028842667
  0
ARC
  5
1A8
330
1F
100
AcDbEntity
  8
0
  6
Continuous
 62
     7
370
    15
100
AcDbCircle
 10
176.9449549382
 20
204.9907713102
 30
0.0
 40
3.753895258450539
100
AcDbArc
 50
148.2648131468
 51
188.5218283215
  0
ARC
  5
1A9
330
1F
100
AcDbEntity
  8
0
  6
Continuous
 62
     7
370
    15
100
AcDbCircle
 10
176.9878697762
 20
204.996913847
 30
0.0
 40
3.951892530065651
100
AcDbArc
 50
144.9585108837
 51
185.5400487559
  0
LINE
  5
1AA
330
1F
100
AcDbEntity
  8
0
  6
Continuous
 62
     7
370
    15
100
AcDbLine
 10
173.2574482489
 20
206.3381378364
 30
0.0
 11
173.7523111556
 21
207.3380355549
 31
0.0
  0
LINE
  5
1AB
330
1F
100
AcDbEntity
  8
0
  6
Continuous
 62
     7
370
    15
100
AcDbLine
 10
207.3528100777
 20
221.2357525539
 30
0.0
 11
195.8183110733
 21
221.2357525539
 31
0.0
  0
LINE
  5
1AC
330
1F
100
AcDbEntity
  8
0
  6
Continuous
 62
     7
370
    15
100
AcDbLine
 10
173.7523111556
 20
221.2357525539
 30
0.0
 11
162.2178112198
 21
221.2357525539
 31
0.0
  0
LINE
  5
1AD
330
1F
100
AcDbEntity
  8
0
  6
Continuous
 62
     7
370
    15
100
AcDbLine
 10
161.9169102091
 20
213.5126520705
 30
0.0
 11
173.7523111556
 21
213.5126520705
 31
0.0
  0
SPLINE
  5
1AE
330
1F
100
AcDbEntity
  8
0
  6
Continuous
 62
     7
370
    15
100
AcDbSpline
210
0.0
220
0.0
230
1.0
 70
     8
 71
     3
 72
    36
 73
    32
 74
     0
 42
0.00000001
 43
0.00000001
 40
0.0
 40
0.0
 40
0.0
 40
0.0
 40
0.0061975354238181
 40
0.0465442777661649
 40
0.073887158673886
 40
0.1269804812639013
 40
0.1539298348914404
 40
0.1812717229277272
 40
0.2343654033330908
 40
0.2613150828967155
 40
0.2886574379377705
 40
0.3417991112211138
 40
0.3686997846357561
 40
0.3960422829141508
 40
0.4491839550723021
 40
0.476084946044624
 40
0.5034271614402066
 40
0.5565689123810356
 40
0.5834699084423214
 40
0.6108122035834419
 40
0.6639540023723836
 40
0.6908547637651741
 40
0.7181970929113849
 40
0.7713390941121225
 40
0.7982398774285737
 40
0.8255821439979952
 40
0.8787239494131637
 40
0.9056246922308624
 40
0.9329668544882526
 40
0.9662979636437748
 40
1.0
 40
1.0
 40
1.0
 40
1.0
 10
231.9269781041937
 20
261.357805324967
 30
0.0
 10
231.9283364953433
 20
261.3571492018725
 30
0.0
 10
231.9385381853152
 20
261.352221634142
 30
0.0
 10
231.9547592914604
 20
261.370792947959
 30
0.0
 10
231.9808118503941
 20
261.416719820902
 30
0.0
 10
232.0033327023679
 20
261.487724645477
 30
0.0
 10
232.0246596573337
 20
261.5840061499569
 30
0.0
 10
232.0450517080884
 20
261.6974166360199
 30
0.0
 10
232.0638752133151
 20
261.8351013930697
 30
0.0
 10
232.0806630628331
 20
261.9935911372898
 30
0.0
 10
232.0959920458712
 20
262.1652367533698
 30
0.0
 10
232.1089803003512
 20
262.3547759521815
 30
0.0
 10
232.1193400885361
 20
262.5575054045107
 30
0.0
 10
232.1278606684254
 20
262.7679139051312
 30
0.0
 10
232.1335605330533
 20
262.9879169452093
 30
0.0
 10
232.1363245009917
 20
263.2120103432292
 30
0.0
 10
232.1370810277967
 20
263.4375454841526
 30
0.0
 10
232.1348536984583
 20
263.6632024450858
 30
0.0
 10
232.1297001642278
 20
263.8833998784302
 30
0.0
 10
232.1226133428317
 20
264.0986291889935
 30
0.0
 10
232.1127065507116
 20
264.3045002833354
 30
0.0
 10
232.100223063615
 20
264.4959785180737
 30
0.0
 10
232.0860942457637
 20
264.676635807959
 30
0.0
 10
232.06961316598
 20
264.8395121948828
 30
0.0
 10
232.0512135439976
 20
264.9806789050833
 30
0.0
 10
232.0316294309202
 20
265.1064037571225
 30
0.0
 10
232.0104452259095
 20
265.2078890427484
 30
0.0
 10
231.9881960010771
 20
265.2829098379167
 30
0.0
 10
231.9695719742109
 20
265.3288105856063
 30
0.0
 10
231.9490850519296
 20
265.3612913874902
 30
0.0
 10
231.9343692629394
 20
265.3655898621859
 30
0.0
 10
231.9269706536131
 20
265.3677509923158
 30
0.0
  0
SPLINE
  5
1AF
330
1F
100
AcDbEntity
  8
0
  6
Continuous
 62
     7
370
    15
100
AcDbSpline
210
0.0
220
0.0
230
1.0
 70
     8
 71
     3
 72
     8
 73
     4
 74
     0
 42
0.00000001
 43
0.00000001
 40
0.0
 40
0.0
 40
0.0
 40
0.0
 40
1.0
 40
1.0
 40
1.0
 40
1.0
 10
206.0561820528015
 20
213.512651070292
 30
0.0
 10
206.2065545724656
 20
213.512651070292
 30
0.0
 10
206.3451250603329
 20
213.4629987350911
 30
0.0
 10
206.4727335046171
 20
213.3636841375661
 30
0.0
  0
ARC
  5
1B0
330
1F
100
AcDbEntity
  8
0
  6
Continuous
 62
     7
370
    15
100
AcDbCircle
 10
206.4716615225
 20
213.188083982
 30
0.0
 40
0.1756044465136256
100
AcDbArc
 50
353.774942974
 51
89.6505304801
  0
ELLIPSE
  5
1B1
330
1F
100
AcDbEntity
  8
0
  6
Continuous
 62
     7
370
    15
100
AcDbEllipse
 10
184.8019089161
 20
213.5005512989
 30
0.0
 11
22.86337402919727
 21
-2.062003634648249
 31
0.0
210
0.0
220
0.0
230
1.0
 40
0.2325035448
 41
0.2320836249515898
 42
0.275218682472791
  0
LWPOLYLINE
  5
1B2
330
1F
100
AcDbEntity
  8
0
  6
Continuous
 62
     8
370
     0
100
AcDbPolyline
 90
       19
 70
   128
 43
0.0
 10
195.8183110733
 20
99.0515542042
 10
195.6410058815
 20
97.2003382456
 10
195.1147900004
 20
95.4086226237
 10
194.2565762479
 20
93.7340003264
 10
193.093948536
 20
92.230294348
 10
191.6642738547
 20
90.9458142531
 10
190.0135036599
 20
89.9218660605
 10
188.1946953986
 20
89.1913515341
 10
186.2663064426
 20
88.777754904
 10
184.2903171823
 20
88.694368006
 10
182.3302374728
 20
88.9438581478
 10
180.4490657564
 20
89.5182234061
 10
178.7072643679
 20
90.3990012419
 10
177.1608167369
 20
91.5578794491
 10
175.859426618
 20
92.9576200259
 10
174.844921105
 20
94.5532065642
 10
174.1499085952
 20
96.2933790696
 10
173.7967268605
 20
98.1221985829
 10
173.7523111556
 20
99.0515542042
  0
SPLINE
  5
1B3
330
1F
100
AcDbEntity
  8
0
  6
Continuous
 62
     8
370
     0
100
AcDbSpline
210
0.0
220
0.0
230
1.0
 70
     8
 71
     3
 72
     8
 73
     4
 74
     0
 42
0.00000001
 43
0.00000001
 40
0.0
 40
0.0
 40
0.0
 40
0.0
 40
1.0
 40
1.0
 40
1.0
 40
1.0
 10
153.7338266326685
 20
190.8881500937485
 30
0.0
 10
153.7336206193661
 20
191.5928766042112
 30
0.0
 10
153.7648527337866
 20
192.2855644392235
 30
0.0
 10
153.8269728733623
 20
192.9664043464749
 30
0.0
  0
SPLINE
  5
1B4
330
1F
100
AcDbEntity
  8
0
  6
Continuous
 62
     8
370
     0
100
AcDbSpline
210
0.0
220
0.0
230
1.0
 70
     8
 71
     3
 72
     8
 73
     4
 74
     0
 42
0.00000001
 43
0.00000001
 40
0.0
 40
0.0
 40
0.0
 40
0.0
 40
1.0
 40
1.0
 40
1.0
 40
1.0
 10
157.3785237413542
 20
192.1940478291518
 30
0.0
 10
157.3395550434397
 20
191.7670726021435
 30
0.0
 10
157.3198873021335
 20
191.3326906167287
 30
0.0
 10
157.3200165555611
 20
190.8907115178578
 30
0.0
  0
SPLINE
  5
1B5
330
1F
100
AcDbEntity
  8
0
  6
Continuous
 62
     8
370
     0
100
AcDbSpline
210
0.0
220
0.0
230
1.0
 70
     8
 71
     3
 72
     8
 73
     4
 74
     0
 42
0.00000001
 43
0.00000001
 40
0.0
 40
0.0
 40
0.0
 40
0.0
 40
1.0
 40
1.0
 40
1.0
 40
1.0
 10
153.8269261364213
 20
188.8241098074109
 30
0.0
 10
153.7652384486894
 20
189.5002963156138
 30
0.0
 10
153.7340312351857
 20
190.1882495713675
 30
0.0
 10
153.7338266326684
 20
190.8881500937484
 30
0.0
  0
SPLINE
  5
1B6
330
1F
100
AcDbEntity
  8
0
  6
Continuous
 62
     8
370
     0
100
AcDbSpline
210
0.0
220
0.0
230
1.0
 70
     8
 71
     3
 72
     8
 73
     4
 74
     0
 42
0.00000001
 43
0.00000001
 40
0.0
 40
0.0
 40
0.0
 40
0.0
 40
1.0
 40
1.0
 40
1.0
 40
1.0
 10
157.3200165555611
 20
190.8907115178578
 30
0.0
 10
157.3201449144659
 20
190.4517912192002
 30
0.0
 10
157.3397897547798
 20
190.0204074707191
 30
0.0
 10
157.3784847792313
 20
189.5963802054899
 30
0.0
  0
SPLINE
  5
1B7
330
1F
100
AcDbEntity
  8
0
  6
Continuous
 62
     8
370
     0
100
AcDbSpline
210
0.0
220
0.0
230
1.0
 70
     8
 71
     3
 72
     8
 73
     4
 74
     0
 42
0.00000001
 43
0.00000001
 40
0.0
 40
0.0
 40
0.0
 40
0.0
 40
1.0
 40
1.0
 40
1.0
 40
1.0
 10
155.1026083939476
 20
197.8316349198016
 30
0.0
 10
155.3166850673005
 20
198.1920523547583
 30
0.0
 10
155.5456218976974
 20
198.4660157754518
 30
0.0
 10
155.7730005802333
 20
198.6415341259802
 30
0.0
  0
SPLINE
  5
1B8
330
1F
100
AcDbEntity
  8
0
  6
Continuous
 62
     8
370
     0
100
AcDbSpline
210
0.0
220
0.0
230
1.0
 70
     8
 71
     3
 72
     8
 73
     4
 74
     0
 42
0.00000001
 43
0.00000001
 40
0.0
 40
0.0
 40
0.0
 40
0.0
 40
1.0
 40
1.0
 40
1.0
 40
1.0
 10
154.7685306887522
 20
197.1681077125758
 30
0.0
 10
154.8737227388458
 20
197.4123657516107
 30
0.0
 10
154.9848957862659
 20
197.6334551019902
 30
0.0
 10
155.1026083939475
 20
197.8316349198016
 30
0.0
  0
SPLINE
  5
1B9
330
1F
100
AcDbEntity
  8
0
  6
Continuous
 62
     8
370
     0
100
AcDbSpline
210
0.0
220
0.0
230
1.0
 70
     8
 71
     3
 72
     8
 73
     4
 74
     0
 42
0.00000001
 43
0.00000001
 40
0.0
 40
0.0
 40
0.0
 40
0.0
 40
1.0
 40
1.0
 40
1.0
 40
1.0
 10
154.3450824324935
 20
195.9398279272577
 30
0.0
 10
154.4709948327118
 20
196.3950694248981
 30
0.0
 10
154.6117933090439
 20
196.8041603897801
 30
0.0
 10
154.7685306887522
 20
197.1681077125758
 30
0.0
  0
SPLINE
  5
1BA
330
1F
100
AcDbEntity
  8
0
  6
Continuous
 62
     8
370
     0
100
AcDbSpline
210
0.0
220
0.0
230
1.0
 70
     8
 71
     3
 72
     8
 73
     4
 74
     0
 42
0.00000001
 43
0.00000001
 40
0.0
 40
0.0
 40
0.0
 40
0.0
 40
1.0
 40
1.0
 40
1.0
 40
1.0
 10
154.1059585080981
 20
194.9266401199068
 30
0.0
 10
154.1768633346479
 20
195.2822028276175
 30
0.0
 10
154.2566108050544
 20
195.6199550942069
 30
0.0
 10
154.3450824324935
 20
195.9398279272577
 30
0.0
  0
SPLINE
  5
1BB
330
1F
100
AcDbEntity
  8
0
  6
Continuous
 62
     8
370
     0
100
AcDbSpline
210
0.0
220
0.0
230
1.0
 70
     8
 71
     3
 72
     8
 73
     4
 74
     0
 42
0.00000001
 43
0.00000001
 40
0.0
 40
0.0
 40
0.0
 40
0.0
 40
1.0
 40
1.0
 40
1.0
 40
1.0
 10
153.8269728733623
 20
192.9664043464749
 30
0.0
 10
153.8899231325281
 20
193.6563424068972
 30
0.0
 10
153.982929249977
 20
194.3096917642908
 30
0.0
 10
154.1059585080981
 20
194.9266401199068
 30
0.0
  0
SPLINE
  5
1BC
330
1F
100
AcDbEntity
  8
0
  6
Continuous
 62
     8
370
     0
100
AcDbSpline
210
0.0
220
0.0
230
1.0
 70
     8
 71
     3
 72
     8
 73
     4
 74
     0
 42
0.00000001
 43
0.00000001
 40
0.0
 40
0.0
 40
0.0
 40
0.0
 40
1.0
 40
1.0
 40
1.0
 40
1.0
 10
154.0779021716404
 20
187.0079359379274
 30
0.0
 10
153.9685140987013
 20
187.5830724274641
 30
0.0
 10
153.8849166958631
 20
188.1884491863123
 30
0.0
 10
153.8269261364212
 20
188.8241098074109
 30
0.0
  0
SPLINE
  5
1BD
330
1F
100
AcDbEntity
  8
0
  6
Continuous
 62
     8
370
     0
100
AcDbSpline
210
0.0
220
0.0
230
1.0
 70
     8
 71
     3
 72
    12
 73
     8
 74
     0
 42
0.00000001
 43
0.00000001
 40
0.0
 40
0.0
 40
0.0
 40
0.0
 40
0.5
 40
0.5
 40
0.75
 40
0.75
 40
1.0
 40
1.0
 40
1.0
 40
1.0
 10
155.1018502242516
 20
183.9590423261978
 30
0.0
 10
154.8849699057865
 20
184.3246181074948
 30
0.0
 10
154.6930264599329
 20
184.7622767910572
 30
0.0
 10
154.4349882161402
 20
185.5309716216362
 30
0.0
 10
154.3537829763847
 20
185.8077922561395
 30
0.0
 10
154.2056428861533
 20
186.3870813777428
 30
0.0
 10
154.1382787837206
 20
186.6904900611607
 30
0.0
 10
154.0779021716403
 20
187.0079359379272
 30
0.0
  0
SPLINE
  5
1BE
330
1F
100
AcDbEntity
  8
0
  6
Continuous
 62
     8
370
     0
100
AcDbSpline
210
0.0
220
0.0
230
1.0
 70
     8
 71
     3
 72
     8
 73
     4
 74
     0
 42
0.00000001
 43
0.00000001
 40
0.0
 40
0.0
 40
0.0
 40
0.0
 40
1.0
 40
1.0
 40
1.0
 40
1.0
 10
155.7729811645572
 20
183.1484837977824
 30
0.0
 10
155.5453032852113
 20
183.3242612172933
 30
0.0
 10
155.3153997887622
 20
183.599080899342
 30
0.0
 10
155.1018502242516
 20
183.9590423261978
 30
0.0
  0
SPLINE
  5
1BF
330
1F
100
AcDbEntity
  8
0
  6
Continuous
 62
     8
370
     0
100
AcDbSpline
210
0.0
220
0.0
230
1.0
 70
     8
 71
     3
 72
     8
 73
     4
 74
     0
 42
0.00000001
 43
0.00000001
 40
0.0
 40
0.0
 40
0.0
 40
0.0
 40
1.0
 40
1.0
 40
1.0
 40
1.0
 10
156.4743757176117
 20
182.8814381395326
 30
0.0
 10
156.2070107019587
 20
182.9033405806004
 30
0.0
 10
155.9938816078113
 20
182.9779388594882
 30
0.0
 10
155.7729811645572
 20
183.1484837977824
 30
0.0
  0
SPLINE
  5
1C0
330
1F
100
AcDbEntity
  8
0
  6
Continuous
 62
     8
370
    15
100
AcDbSpline
210
0.0
220
0.0
230
1.0
 70
     8
 71
     3
 72
    24
 73
    20
 74
     0
 42
0.00000001
 43
0.00000001
 40
0.0
 40
0.0
 40
0.0
 40
0.0
 40
0.4999999999999978
 40
0.4999999999999978
 40
0.6249999999999973
 40
0.6249999999999973
 40
0.6874999999999974
 40
0.6874999999999974
 40
0.7499999999999977
 40
0.7499999999999977
 40
0.8124999999999978
 40
0.8124999999999978
 40
0.874999999999998
 40
0.874999999999998
 40
0.9374999999999981
 40
0.9374999999999981
 40
0.9687499999999991
 40
0.9687499999999991
 40
1.0
 40
1.0
 40
1.0
 40
1.0
 10
173.4951657008877
 20
182.8814583350872
 30
0.0
 10
170.6583426932552
 20
182.8814843033354
 30
0.0
 10
167.8215292472649
 20
182.8822158093526
 30
0.0
 10
164.2754959264153
 20
182.8811327951139
 30
0.0
 10
163.5662084306207
 20
182.8808664181936
 30
0.0
 10
162.5018037565294
 20
182.8815500644976
 30
0.0
 10
162.1474005099574
 20
182.8815726734232
 30
0.0
 10
161.4409692072613
 20
182.8797589195272
 30
0.0
 10
161.0882970063092
 20
182.8784223252173
 30
0.0
 10
160.3791821884594
 20
182.8783839946548
 30
0.0
 10
160.0222970881747
 20
182.8799881376497
 30
0.0
 10
159.3021001546812
 20
182.8878729086801
 30
0.0
 10
158.9401927809033
 20
182.893167544396
 30
0.0
 10
158.2288979234692
 20
182.8946329251648
 30
0.0
 10
157.8807511409982
 20
182.8897586206796
 30
0.0
 10
157.3774814642743
 20
182.869649187938
 30
0.0
 10
157.2105359454232
 20
182.8624847789902
 30
0.0
 10
156.8589610970393
 20
182.8602154585637
 30
0.0
 10
156.6740887907454
 20
182.8650353787025
 30
0.0
 10
156.4743989274248
 20
182.8814362383467
 30
0.0
  0
SPLINE
  5
1C1
330
1F
100
AcDbEntity
  8
0
  6
Continuous
 62
     8
370
     0
100
AcDbSpline
210
0.0
220
0.0
230
1.0
 70
     8
 71
     3
 72
     8
 73
     4
 74
     0
 42
0.00000001
 43
0.00000001
 40
0.0
 40
0.0
 40
0.0
 40
0.0
 40
0.3161424992488846
 40
0.3161424992488846
 40
0.3161424992488846
 40
0.3161424992488846
 10
173.4951657052578
 20
182.8814583355265
 30
0.0
 10
173.0939466009772
 20
182.8411243329439
 30
0.0
 10
172.690691559249
 20
182.8208510702922
 30
0.0
 10
172.2867319536238
 20
182.8208510702922
 30
0.0
  0
LINE
  5
1C2
330
1F
100
AcDbEntity
  8
0
  6
Continuous
 62
     8
370
    15
100
AcDbLine
 10
170.5158664886
 20
198.9085492504
 30
0.0
 11
173.4951562289
 21
198.9085492504
 31
0.0
  0
LINE
  5
1C3
330
1F
100
AcDbEntity
  8
0
  6
Continuous
 62
     8
370
    15
100
AcDbLine
 10
167.8663776297
 20
198.9085492504
 30
0.0
 11
170.5158664886
 21
198.9085492504
 31
0.0
  0
SPLINE
  5
1C4
330
1F
100
AcDbEntity
  8
0
  6
Continuous
 62
     8
370
    15
100
AcDbSpline
210
0.0
220
0.0
230
1.0
 70
     8
 71
     3
 72
    20
 73
    16
 74
     0
 42
0.00000001
 43
0.00000001
 40
0.0
 40
0.0
 40
0.0
 40
0.0
 40
0.0624999999999988
 40
0.0624999999999988
 40
0.1249999999999976
 40
0.1249999999999976
 40
0.2499999999999976
 40
0.2499999999999976
 40
0.3749999999999975
 40
0.3749999999999975
 40
0.4999999999999974
 40
0.4999999999999974
 40
0.7499999999999987
 40
0.7499999999999987
 40
1.0
 40
1.0
 40
1.0
 40
1.0
 10
156.4743973474251
 20
198.9085661060552
 30
0.0
 10
156.7417093871882
 20
198.930587138138
 30
0.0
 10
156.9820097773072
 20
198.9317360561024
 30
0.0
 10
157.4395576303259
 20
198.9197592371466
 30
0.0
 10
157.6598495869716
 20
198.9078279779608
 30
0.0
 10
158.3493587862088
 20
198.8916572508228
 30
0.0
 10
158.8307142932676
 20
198.8963829199053
 30
0.0
 10
159.7956788651387
 20
198.9076458874572
 30
0.0
 10
160.2760626038092
 20
198.9116882367998
 30
0.0
 10
161.2251265176669
 20
198.9115260752852
 30
0.0
 10
161.6963407014438
 20
198.9091248452139
 30
0.0
 10
163.1175446375385
 20
198.907591388415
 30
0.0
 10
164.0690179967849
 20
198.9089302990626
 30
0.0
 10
165.9677036005663
 20
198.9083554959852
 30
0.0
 10
166.9170426495178
 20
198.9084888935879
 30
0.0
 10
167.8663883852065
 20
198.908546656257
 30
0.0
  0
SPLINE
  5
1C5
330
1F
100
AcDbEntity
  8
0
  6
Continuous
 62
     8
370
     0
100
AcDbSpline
210
0.0
220
0.0
230
1.0
 70
     8
 71
     3
 72
    10
 73
     6
 74
     0
 42
0.00000001
 43
0.00000001
 40
0.0
 40
0.0
 40
0.0
 40
0.0
 40
0.5
 40
0.5
 40
1.0
 40
1.0
 40
1.0
 40
1.0
 10
155.7730005802333
 20
198.6415341259802
 30
0.0
 10
155.8832932049203
 20
198.7266713048248
 30
0.0
 10
155.9917218690107
 20
198.7872529425534
 30
0.0
 10
156.220523169524
 20
198.8727119756526
 30
0.0
 10
156.3414514687226
 20
198.8976440270396
 30
0.0
 10
156.4743973474251
 20
198.9085661060552
 30
0.0
  0
SPLINE
  5
1C6
330
1F
100
AcDbEntity
  8
0
  6
Continuous
 62
     8
370
     0
100
AcDbSpline
210
0.0
220
0.0
230
1.0
 70
     8
 71
     3
 72
     8
 73
     4
 74
     0
 42
0.00000001
 43
0.00000001
 40
0.0
 40
0.0
 40
0.0
 40
0.0
 40
1.0
 40
1.0
 40
1.0
 40
1.0
 10
157.3784847792314
 20
189.5963802054899
 30
0.0
 10
157.4147033802911
 20
189.1994900477648
 30
0.0
 10
157.4669410488308
 20
188.8215197576392
 30
0.0
 10
157.5351537744862
 20
188.4624173551665
 30
0.0
  0
SPLINE
  5
1C7
330
1F
100
AcDbEntity
  8
0
  6
Continuous
 62
     8
370
     0
100
AcDbSpline
210
0.0
220
0.0
230
1.0
 70
     8
 71
     3
 72
     8
 73
     4
 74
     0
 42
0.00000001
 43
0.00000001
 40
0.0
 40
0.0
 40
0.0
 40
0.0
 40
1.0
 40
1.0
 40
1.0
 40
1.0
 10
157.5528010290648
 20
193.4183907732748
 30
0.0
 10
157.4759998201331
 20
193.033042095285
 30
0.0
 10
157.4178546667059
 20
192.6249919376087
 30
0.0
 10
157.3785237413542
 20
192.1940478291518
 30
0.0
  0
SPLINE
  5
1C8
330
1F
100
AcDbEntity
  8
0
  6
Continuous
 62
     8
370
     0
100
AcDbSpline
210
0.0
220
0.0
230
1.0
 70
     8
 71
     3
 72
     8
 73
     4
 74
     0
 42
0.00000001
 43
0.00000001
 40
0.0
 40
0.0
 40
0.0
 40
0.0
 40
1.0
 40
1.0
 40
1.0
 40
1.0
 10
154.0161746160393
 20
198.903416988475
 30
0.0
 10
153.8242917999503
 20
198.8766671763962
 30
0.0
 10
153.595829792337
 20
198.8050232063755
 30
0.0
 10
153.3785508383858
 20
198.6565547044035
 30
0.0
  0
SPLINE
  5
1C9
330
1F
100
AcDbEntity
  8
0
  6
Continuous
 62
     8
370
     0
100
AcDbSpline
210
0.0
220
0.0
230
1.0
 70
     8
 71
     3
 72
    11
 73
     7
 74
     0
 42
0.00000001
 43
0.00000001
 40
0.0
 40
0.0
 40
0.0
 40
0.0
 40
0.1653585458141526
 40
0.7045016189843911
 40
0.9225320547256569
 40
1.0
 40
1.0
 40
1.0
 40
1.0
 10
156.1012384522753
 20
198.8983978342889
 30
0.0
 10
156.0018820371214
 20
198.8976975446794
 30
0.0
 10
155.5785791168657
 20
198.8947139966489
 30
0.0
 10
154.983261774599
 20
198.9194914551519
 30
0.0
 10
154.4564887691901
 20
198.9347210963493
 30
0.0
 10
154.2940493487907
 20
198.9222673047231
 30
0.0
 10
154.2514641810255
 20
198.9190024149297
 30
0.0
  0
SPLINE
  5
1CA
330
1F
100
AcDbEntity
  8
0
  6
Continuous
 62
     8
370
     0
100
AcDbSpline
210
0.0
220
0.0
230
1.0
 70
     8
 71
     3
 72
    11
 73
     7
 74
     0
 42
0.00000001
 43
0.00000001
 40
0.0
 40
0.0
 40
0.0
 40
0.0
 40
0.0000105190654584
 40
0.3183361699959812
 40
0.8020667158712557
 40
1.0
 40
1.0
 40
1.0
 40
1.0
 10
154.0579707402783
 20
182.8814339649556
 30
0.0
 10
154.0579769490869
 20
182.8814339649615
 30
0.0
 10
154.2458727610615
 20
182.8814341409876
 30
0.0
 10
154.778688959956
 20
182.8412224603698
 30
0.0
 10
155.5118547954913
 20
182.8966530631141
 30
0.0
 10
155.9685952141376
 20
182.8922724885968
 30
0.0
 10
156.1012179631786
 20
182.8910005104421
 30
0.0
  0
SPLINE
  5
1CB
330
1F
100
AcDbEntity
  8
0
  6
Continuous
 62
     8
370
     0
100
AcDbSpline
210
0.0
220
0.0
230
1.0
 70
     8
 71
     3
 72
    10
 73
     6
 74
     0
 42
0.00000001
 43
0.00000001
 40
0.0
 40
0.0
 40
0.0
 40
0.0
 40
0.5
 40
0.5
 40
1.0
 40
1.0
 40
1.0
 40
1.0
 10
153.377561776351
 20
183.1340619558671
 30
0.0
 10
153.4942932915346
 20
183.0539525600832
 30
0.0
 10
153.6144602583312
 20
182.9967264716212
 30
0.0
 10
153.8461686544051
 20
182.9157816182546
 30
0.0
 10
153.9584701151079
 20
182.8920098145877
 30
0.0
 10
154.0579710841793
 20
182.8814362383467
 30
0.0
  0
SPLINE
  5
1CC
330
1F
100
AcDbEntity
  8
0
  6
Continuous
 62
     8
370
     0
100
AcDbSpline
210
0.0
220
0.0
230
1.0
 70
     8
 71
     3
 72
    12
 73
     8
 74
     0
 42
0.00000001
 43
0.00000001
 40
0.0
 40
0.0
 40
0.0
 40
0.0
 40
0.2500000000000078
 40
0.2500000000000078
 40
0.5000000000000155
 40
0.5000000000000155
 40
1.0
 40
1.0
 40
1.0
 40
1.0
 10
157.5351537744862
 20
188.4624173551665
 30
0.0
 10
157.5730894626597
 20
188.2627068666664
 30
0.0
 10
157.6153896862207
 20
188.0718492407254
 30
0.0
 10
157.7085248231063
 20
187.7074454386885
 30
0.0
 10
157.7596359406172
 20
187.5333015742836
 30
0.0
 10
157.9227261543813
 20
187.0504836823927
 30
0.0
 10
158.0450505502698
 20
186.7764669735366
 30
0.0
 10
158.1798754863635
 20
186.5464506773731
 30
0.0
  0
SPLINE
  5
1CD
330
1F
100
AcDbEntity
  8
0
  6
Continuous
 62
     8
370
     0
100
AcDbSpline
210
0.0
220
0.0
230
1.0
 70
     8
 71
     3
 72
     8
 73
     4
 74
     0
 42
0.00000001
 43
0.00000001
 40
0.0
 40
0.0
 40
0.0
 40
0.0
 40
1.0
 40
1.0
 40
1.0
 40
1.0
 10
157.7030370880159
 20
194.0550175391546
 30
0.0
 10
157.6473932059717
 20
193.8540356854355
 30
0.0
 10
157.5973273636377
 20
193.6418008523879
 30
0.0
 10
157.5528010290648
 20
193.4183907732748
 30
0.0
  0
SPLINE
  5
1CE
330
1F
100
AcDbEntity
  8
0
  6
Continuous
 62
     8
370
     0
100
AcDbSpline
210
0.0
220
0.0
230
1.0
 70
     8
 71
     3
 72
     8
 73
     4
 74
     0
 42
0.00000001
 43
0.00000001
 40
0.0
 40
0.0
 40
0.0
 40
0.0
 40
1.0
 40
1.0
 40
1.0
 40
1.0
 10
157.9680083521994
 20
194.8210020140183
 30
0.0
 10
157.8701137483101
 20
194.5939764283154
 30
0.0
 10
157.7816652705229
 20
194.3390170965946
 30
0.0
 10
157.7030370880159
 20
194.0550175391546
 30
0.0
  0
SPLINE
  5
1CF
330
1F
100
AcDbEntity
  8
0
  6
Continuous
 62
     8
370
     0
100
AcDbSpline
210
0.0
220
0.0
230
1.0
 70
     8
 71
     3
 72
    13
 73
     9
 74
     0
 42
0.00000001
 43
0.00000001
 40
0.0
 40
0.0
 40
0.0
 40
0.0
 40
0.0409848846820257
 40
0.1750452337753778
 40
0.3091120142634195
 40
0.5772372123884991
 40
0.7112997328054125
 40
1.0
 40
1.0
 40
1.0
 40
1.0
 10
159.0731707442598
 20
185.8751741063474
 30
0.0
 10
159.2736988343503
 20
185.8672191858639
 30
0.0
 10
160.1301483932732
 20
185.8332439550803
 30
0.0
 10
161.6426651379653
 20
185.9124641760472
 30
0.0
 10
164.2665743344231
 20
185.8510606050484
 30
0.0
 10
166.8905065868034
 20
185.8808629667316
 30
0.0
 10
170.2710720153613
 20
185.8755868745679
 30
0.0
 10
172.3396802913891
 20
185.8765148235752
 30
0.0
 10
173.7523111555772
 20
185.8771485102056
 30
0.0
  0
SPLINE
  5
1D0
330
1F
100
AcDbEntity
  8
0
  6
Continuous
 62
     8
370
     0
100
AcDbSpline
210
0.0
220
0.0
230
1.0
 70
     8
 71
     3
 72
    10
 73
     6
 74
     0
 42
0.00000001
 43
0.00000001
 40
0.0
 40
0.0
 40
0.0
 40
0.0
 40
0.5
 40
0.5
 40
1.0
 40
1.0
 40
1.0
 40
1.0
 10
158.5854509743597
 20
186.053317979987
 30
0.0
 10
158.6654857915029
 20
185.9943299905228
 30
0.0
 10
158.7463825976976
 20
185.9555162694867
 30
0.0
 10
158.9091237533603
 20
185.9000654343147
 30
0.0
 10
158.9909860027665
 20
185.8838472560787
 30
0.0
 10
159.0731706305868
 20
185.8751741257154
 30
0.0
  0
SPLINE
  5
1D1
330
1F
100
AcDbEntity
  8
0
  6
Continuous
 62
     8
370
     0
100
AcDbSpline
210
0.0
220
0.0
230
1.0
 70
     8
 71
     3
 72
     8
 73
     4
 74
     0
 42
0.00000001
 43
0.00000001
 40
0.0
 40
0.0
 40
0.0
 40
0.0
 40
1.0
 40
1.0
 40
1.0
 40
1.0
 10
158.1798754863635
 20
186.5464506773731
 30
0.0
 10
158.3074827983459
 20
186.328747913211
 30
0.0
 10
158.4419251200279
 20
186.15910071162
 30
0.0
 10
158.5854509743597
 20
186.053317979987
 30
0.0
  0
SPLINE
  5
1D2
330
1F
100
AcDbEntity
  8
0
  6
Continuous
 62
     8
370
     0
100
AcDbSpline
210
0.0
220
0.0
230
1.0
 70
     8
 71
     3
 72
     8
 73
     4
 74
     0
 42
0.00000001
 43
0.00000001
 40
0.0
 40
0.0
 40
0.0
 40
0.0
 40
1.0
 40
1.0
 40
1.0
 40
1.0
 10
158.1803995032367
 20
195.2453767841752
 30
0.0
 10
158.1061821680086
 20
195.1185519453011
 30
0.0
 10
158.0353607826786
 20
194.9771978038836
 30
0.0
 10
157.9680083521994
 20
194.8210020140183
 30
0.0
  0
SPLINE
  5
1D3
330
1F
100
AcDbEntity
  8
0
  6
Continuous
 62
     8
370
     0
100
AcDbSpline
210
0.0
220
0.0
230
1.0
 70
     8
 71
     3
 72
     8
 73
     4
 74
     0
 42
0.00000001
 43
0.00000001
 40
0.0
 40
0.0
 40
0.0
 40
0.0
 40
1.0
 40
1.0
 40
1.0
 40
1.0
 10
158.5850598268987
 20
195.7363828073313
 30
0.0
 10
158.4418921147181
 20
195.6310559497362
 30
0.0
 10
158.3076521865841
 20
195.4628300383538
 30
0.0
 10
158.1803995032367
 20
195.2453767841753
 30
0.0
  0
SPLINE
  5
1D4
330
1F
100
AcDbEntity
  8
0
  6
Continuous
 62
     8
370
     0
100
AcDbSpline
210
0.0
220
0.0
230
1.0
 70
     8
 71
     3
 72
    10
 73
     6
 74
     0
 42
0.00000001
 43
0.00000001
 40
0.0
 40
0.0
 40
0.0
 40
0.0
 40
0.5
 40
0.5
 40
1.0
 40
1.0
 40
1.0
 40
1.0
 10
159.0733121074067
 20
195.9148430117193
 30
0.0
 10
158.9910374828547
 20
195.9061314857934
 30
0.0
 10
158.9090870492817
 20
195.8898376688171
 30
0.0
 10
158.7461702119172
 20
195.8342352050593
 30
0.0
 10
158.6651865114939
 20
195.7953310979017
 30
0.0
 10
158.5850598268987
 20
195.7363828073313
 30
0.0
  0
SPLINE
  5
1D5
330
1F
100
AcDbEntity
  8
0
  6
Continuous
 62
     8
370
     0
100
AcDbSpline
210
0.0
220
0.0
230
1.0
 70
     8
 71
     3
 72
    20
 73
    16
 74
     0
 42
0.00000001
 43
0.00000001
 40
0.0
 40
0.0
 40
0.0
 40
0.0
 40
0.2499999999999992
 40
0.2499999999999992
 40
0.4999999999999984
 40
0.4999999999999984
 40
0.624999999999998
 40
0.624999999999998
 40
0.7499999999999987
 40
0.7499999999999987
 40
0.8749999999999993
 40
0.8749999999999993
 40
0.9374999999999998
 40
0.9374999999999998
 40
1.0
 40
1.0
 40
1.0
 40
1.0
 10
170.4280011510307
 20
195.9128833611337
 30
0.0
 10
169.4817657876529
 20
195.9128255426388
 30
0.0
 10
168.5355304201225
 20
195.9126915385486
 30
0.0
 10
166.6430597307913
 20
195.9132625118369
 30
0.0
 10
165.6968242909126
 20
195.911801162596
 30
0.0
 10
164.2774713405757
 20
195.9134524024185
 30
0.0
 10
163.804353809678
 20
195.9161900003469
 30
0.0
 10
162.8581184691728
 20
195.9165518158558
 30
0.0
 10
162.3849990576755
 20
195.9122003229298
 30
0.0
 10
161.4387574116576
 20
195.8993981785377
 30
0.0
 10
160.9656370308669
 20
195.8938179578423
 30
0.0
 10
160.2559700151632
 20
195.910609492587
 30
0.0
 10
160.0194182832298
 20
195.9235200913564
 30
0.0
 10
159.5463093951981
 20
195.9392728818457
 30
0.0
 10
159.3097740591609
 20
195.9398804328488
 30
0.0
 10
159.0733121074067
 20
195.9148430117193
 30
0.0
  0
LINE
  5
1D6
330
1F
100
AcDbEntity
  8
0
  6
Continuous
 62
     8
370
     0
100
AcDbLine
 10
170.4280120362
 20
195.9128868592
 30
0.0
 11
173.7523111556
 21
195.9128868592
 31
0.0
  0
ARC
  5
1D7
330
1F
100
AcDbEntity
  8
0
  6
Continuous
 62
     8
370
     0
100
AcDbCircle
 10
153.6183341902
 20
196.1127175619
 30
0.0
 40
2.555114242305588
100
AcDbArc
 50
95.3848250463
 51
125.4170347999
  0
ARC
  5
1D8
330
1F
100
AcDbEntity
  8
0
  6
Continuous
 62
     8
370
     0
100
AcDbCircle
 10
153.6172411383
 20
185.6773854083
 30
0.0
 40
2.554593031422623
100
AcDbArc
 50
234.5599279475
 51
264.6164576276
  0
ARC
  5
1D9
330
1F
100
AcDbEntity
  8
0
  6
Continuous
 62
     8
370
     0
100
AcDbCircle
 10
184.7853108385
 20
260.3527510703
 30
0.0
 40
12.37227937088164
100
AcDbArc
 50
90.0
 51
206.905815116
  0
ARC
  5
1DA
330
1F
100
AcDbEntity
  8
0
  6
Continuous
 62
     8
370
     0
100
AcDbCircle
 10
184.7853108385
 20
260.3527510703
 30
0.0
 40
12.37227937088164
100
AcDbArc
 50
333.094184884
 51
90.0
  0
ARC
  5
1DB
330
1F
100
AcDbEntity
  8
0
  6
Continuous
 62
     8
370
     0
100
AcDbCircle
 10
184.7853108385
 20
260.3527510703
 30
0.0
 40
12.67036648801505
100
AcDbArc
 50
90.0
 51
209.451528209
  0
ARC
  5
1DC
330
1F
100
AcDbEntity
  8
0
  6
Continuous
 62
     8
370
     0
100
AcDbCircle
 10
184.7853108385
 20
260.3527510703
 30
0.0
 40
12.67036648801508
100
AcDbArc
 50
330.548471791
 51
90.0
  0
ARC
  5
1DD
330
1F
100
AcDbEntity
  8
0
  6
Continuous
 62
     8
370
     0
100
AcDbCircle
 10
184.7853108385
 20
260.3527510703
 30
0.0
 40
21.02080675700125
100
AcDbArc
 50
90.0
 51
238.3411189868
  0
ARC
  5
1DE
330
1F
100
AcDbEntity
  8
0
  6
Continuous
 62
     8
370
     0
100
AcDbCircle
 10
184.7853108385
 20
260.3527510703
 30
0.0
 40
21.02080675700126
100
AcDbArc
 50
301.6588810132
 51
90.0
  0
SPLINE
  5
1DF
330
1F
100
AcDbEntity
  8
0
  6
Continuous
 62
     8
370
     0
100
AcDbSpline
210
0.0
220
0.0
230
1.0
 70
     8
 71
     3
 72
     9
 73
     5
 74
     0
 42
0.00000001
 43
0.00000001
 40
0.0
 40
0.0
 40
0.0
 40
0.0
 40
0.9017795508863115
 40
1.0
 40
1.0
 40
1.0
 40
1.0
 10
172.2867316607432
 20
198.9691522729276
 30
0.0
 10
172.7327470526095
 20
199.0085634748665
 30
0.0
 10
173.2273417586305
 20
199.0522672846282
 30
0.0
 10
173.705359990189
 20
199.3922691148031
 30
0.0
 10
173.7523111555772
 20
199.4256642472623
 30
0.0
  0
LINE
  5
1E0
330
1F
100
AcDbEntity
  8
0
  6
Continuous
 62
     8
370
     0
100
AcDbLine
 10
204.0694472421
 20
183.0018576991
 30
0.0
 11
195.8183110733
 21
181.9827225816
 31
0.0
  0
LINE
  5
1E1
330
1F
100
AcDbEntity
  8
0
  6
Continuous
 62
     8
370
     0
100
AcDbLine
 10
172.2867316607
 20
182.8208532941
 30
0.0
 11
173.7523111556
 21
182.7706587326
 31
0.0
  0
SPLINE
  5
1E2
330
1F
100
AcDbEntity
  8
0
  6
Continuous
 62
     8
370
     0
100
AcDbSpline
210
0.0
220
0.0
230
1.0
 70
     8
 71
     3
 72
    12
 73
     8
 74
     0
 42
0.00000001
 43
0.00000001
 40
0.0
 40
0.0
 40
0.0
 40
0.0
 40
0.0000044401053525
 40
0.2540138398256649
 40
0.5153417104515956
 40
0.7687192789591754
 40
1.0
 40
1.0
 40
1.0
 40
1.0
 10
204.0694528300362
 20
183.0018502485631
 30
0.0
 10
204.0694460003459
 20
183.0018502485631
 30
0.0
 10
203.6787264770132
 20
183.0018502482498
 30
0.0
 10
202.7141973741694
 20
183.0022088350783
 30
0.0
 10
200.7560023541272
 20
183.0011222711041
 30
0.0
 10
198.4547264721183
 20
182.9904841101209
 30
0.0
 10
196.6699926346695
 20
182.9696109222174
 30
0.0
 10
195.8183110732632
 20
182.9596501600622
 30
0.0
  0
LINE
  5
1E3
330
1F
100
AcDbEntity
  8
0
  6
Continuous
 62
     8
370
     0
100
AcDbLine
 10
164.0427359421
 20
203.1267513347
 30
0.0
 11
164.0427359421
 21
198.9691522729
 31
0.0
  0
SPLINE
  5
1E4
330
1F
100
AcDbEntity
  8
0
  6
Continuous
 62
     8
370
     0
100
AcDbSpline
210
0.0
220
0.0
230
1.0
 70
     8
 71
     3
 72
    14
 73
    10
 74
     0
 42
0.00000001
 43
0.00000001
 40
0.6042587306707183
 40
0.6042587306707183
 40
0.6042587306707183
 40
0.6042587306707183
 40
0.6406367209734349
 40
0.6770148416923765
 40
0.7133929624113177
 40
0.7497710831302591
 40
0.7861492038492006
 40
0.8225273245681419
 40
0.895283145263577
 40
0.895283145263577
 40
0.895283145263577
 40
0.895283145263577
 10
170.7491863370179
 20
212.2373396078178
 30
0.0
 10
170.2032536073804
 20
212.2373396078178
 30
0.0
 10
169.114868348511
 20
212.0951451361146
 30
0.0
 10
167.6308809069497
 20
211.4395487144609
 30
0.0
 10
166.3968137782944
 20
210.4185061443249
 30
0.0
 10
165.4476638063318
 20
209.131370694578
 30
0.0
 10
164.7689941637529
 20
207.6838121647294
 30
0.0
 10
164.1802192780476
 20
205.6330593261793
 30
0.0
 10
164.0427366416281
 20
204.0780520567538
 30
0.0
 10
164.0427355815723
 20
203.1267500497327
 30
0.0
  0
SPLINE
  5
1E5
330
1F
100
AcDbEntity
  8
0
  6
Continuous
 62
     8
370
     0
100
AcDbSpline
210
0.0
220
0.0
230
1.0
 70
    24
 71
     3
 72
     9
 73
     5
 74
     0
 42
0.00000001
 43
0.00000001
 40
0.0
 40
0.0
 40
0.0
 40
0.0
 40
0.0180485374400329
 40
0.9999999999999999
 40
0.9999999999999999
 40
0.9999999999999999
 40
0.9999999999999999
 10
173.7523111555772
 20
212.2373399150251
 30
0.0
 10
173.7326804719735
 20
212.2373399150251
 30
0.0
 10
172.6450198419118
 20
212.2373399150252
 30
0.0
 10
171.6884679842808
 20
212.2373399150251
 30
0.0
 10
170.7491804886656
 20
212.2373399150251
 30
0.0
  0
SPLINE
  5
1E6
330
1F
100
AcDbEntity
  8
0
  6
Continuous
 62
     8
370
     0
100
AcDbSpline
210
0.0
220
0.0
230
1.0
 70
     8
 71
     3
 72
    25
 73
    21
 74
     0
 42
0.00000001
 43
0.00000001
 40
0.0
 40
0.0
 40
0.0
 40
0.0
 40
0.0135159487299453
 40
0.0483957156278638
 40
0.0846630719077085
 40
0.1116970432179502
 40
0.1534584928203932
 40
0.195540007516736
 40
0.2463316275630327
 40
0.297674532001078
 40
0.3491146516948339
 40
0.452527733778865
 40
0.5577227937151504
 40
0.6106121612901286
 40
0.6635924362992351
 40
0.7387515142604587
 40
0.8142618354878524
 40
0.8910957809566309
 40
0.9685153457076058
 40
1.0
 40
1.0
 40
1.0
 40
1.0
 10
207.8535505611496
 20
252.6449435216068
 30
0.0
 10
207.8530997057339
 20
252.6427990209039
 30
0.0
 10
207.8514853558335
 20
252.635120340831
 30
0.0
 10
207.8121126994333
 20
252.4480183692264
 30
0.0
 10
207.7271327313966
 20
252.0625158617096
 30
0.0
 10
207.6032489989863
 20
251.5333258709964
 30
0.0
 10
207.440635739322
 20
250.8843970989468
 30
0.0
 10
207.2023208998692
 20
250.0171115482244
 30
0.0
 10
206.90220350136
 20
249.0304280838885
 30
0.0
 10
206.5322782946137
 20
247.9415706223639
 30
0.0
 10
205.9682410726035
 20
246.4506238628785
 30
0.0
 10
205.1279303051849
 20
244.5435521837492
 30
0.0
 10
204.1010629324747
 20
242.6369253368808
 30
0.0
 10
203.153941791006
 20
241.1246769018399
 30
0.0
 10
202.2709817925227
 20
239.8479406442533
 30
0.0
 10
201.1772712798626
 20
238.4469812236884
 30
0.0
 10
199.8176901601061
 20
236.942313130836
 30
0.0
 10
198.2895625916908
 20
235.5081531591826
 30
0.0
 10
196.9391341341371
 20
234.420706532102
 30
0.0
 10
196.0696752003202
 20
233.84804319218
 30
0.0
 10
195.8183110732632
 20
233.682483882892
 30
0.0
  0
SPLINE
  5
1E7
330
1F
100
AcDbEntity
  8
0
  6
Continuous
 62
     8
370
     0
100
AcDbSpline
210
0.0
220
0.0
230
1.0
 70
     8
 71
     3
 72
    23
 73
    19
 74
     0
 42
0.00000001
 43
0.00000001
 40
0.0
 40
0.0
 40
0.0
 40
0.0
 40
0.0588775990517662
 40
0.1265321023203648
 40
0.1954787593856528
 40
0.2647731596793618
 40
0.3170706878923628
 40
0.3694759041513251
 40
0.4749434989084794
 40
0.5825229708709474
 40
0.6907353507299802
 40
0.7428140075179162
 40
0.7950131710077158
 40
0.847848599488286
 40
0.9011959175507337
 40
0.9375503698234398
 40
0.9749127571540745
 40
1.0
 40
1.0
 40
1.0
 40
1.0
 10
173.7523111555772
 20
233.6818319570897
 30
0.0
 10
173.2887871044455
 20
233.997156192553
 30
0.0
 10
172.292641310284
 20
234.6748101571898
 30
0.0
 10
170.9095313987827
 20
235.8437280120539
 30
0.0
 10
169.5658152252031
 20
237.1429934266107
 30
0.0
 10
168.4376284027276
 20
238.4073105943459
 30
0.0
 10
167.4922628686041
 20
239.5985872471998
 30
0.0
 10
166.4361006381591
 20
241.0697907824584
 30
0.0
 10
165.2581774915143
 20
242.9776506594164
 30
0.0
 10
164.0707931990435
 20
245.3280307939438
 30
0.0
 10
163.2697672358538
 20
247.2869544783094
 30
0.0
 10
162.7426130736055
 20
248.8014689093505
 30
0.0
 10
162.4051338667999
 20
249.886067217584
 30
0.0
 10
162.1200181107808
 20
250.9150521829282
 30
0.0
 10
161.9175295345935
 20
251.7378914566459
 30
0.0
 10
161.7886784530044
 20
252.3080094153425
 30
0.0
 10
161.7257482435592
 20
252.6034528427426
 30
0.0
 10
161.7190154660807
 20
252.6356339336215
 30
0.0
 10
161.7163107771473
 20
252.6485617098091
 30
0.0
  0
LINE
  5
1E8
330
1F
100
AcDbEntity
  8
0
  6
Continuous
 62
     8
370
     0
100
AcDbLine
 10
206.4634119201
 20
185.975213052
 30
0.0
 11
207.8543105204
 21
185.975213052
 31
0.0
  0
SPLINE
  5
1E9
330
1F
100
AcDbEntity
  8
0
  6
Continuous
 62
     8
370
     0
100
AcDbSpline
210
0.0
220
0.0
230
1.0
 70
     8
 71
     3
 72
    17
 73
    13
 74
     0
 42
0.00000001
 43
0.00000001
 40
0.0
 40
0.0
 40
0.0
 40
0.0
 40
0.074880122593737
 40
0.2074549354001953
 40
0.3567077603459123
 40
0.4153571166709048
 40
0.5325629733437462
 40
0.6492449918303007
 40
0.7653749572574468
 40
0.8234025126364068
 40
0.9410188160396996
 40
1.0
 40
1.0
 40
1.0
 40
1.0
 10
195.8183110732632
 20
185.9118235123037
 30
0.0
 10
196.1840884496522
 20
185.9171490614848
 30
0.0
 10
197.1974725008689
 20
185.931903463896
 30
0.0
 10
198.8238225957917
 20
185.9492736616866
 30
0.0
 10
200.2730805999882
 20
185.9613600397711
 30
0.0
 10
201.5592661175676
 20
185.9687783082049
 30
0.0
 10
202.6436020604706
 20
185.9731121963509
 30
0.0
 10
203.8132069351855
 20
185.9752309172673
 30
0.0
 10
204.6735910949777
 20
185.975329662125
 30
0.0
 10
205.4465804456396
 20
185.9753361161326
 30
0.0
 10
206.0000385072159
 20
185.9753102595655
 30
0.0
 10
206.3473983933013
 20
185.9752373896075
 30
0.0
 10
206.4634119201498
 20
185.9752130520223
 30
0.0
  0
LINE
  5
1EA
330
1F
100
AcDbEntity
  8
0
  6
Continuous
 62
     8
370
     0
100
AcDbLine
 10
206.2427685637
 20
213.3120526385
 30
0.0
 11
195.8183110733
 21
213.3120526385
 31
0.0
  0
SPLINE
  5
1EB
330
1F
100
AcDbEntity
  8
0
  6
Continuous
 62
     8
370
     0
100
AcDbSpline
210
0.0
220
0.0
230
1.0
 70
     8
 71
     3
 72
     8
 73
     4
 74
     0
 42
0.00000001
 43
0.00000001
 40
0.0
 40
0.0
 40
0.0
 40
0.0
 40
1.0
 40
1.0
 40
1.0
 40
1.0
 10
206.6462303795701
 20
213.1690428148752
 30
0.0
 10
206.5229677684893
 20
213.2644096327392
 30
0.0
 10
206.3887570653409
 20
213.312051070292
 30
0.0
 10
206.2427686424005
 20
213.312051070292
 30
0.0
  0
ARC
  5
1EC
330
1F
100
AcDbEntity
  8
0
  6
Continuous
 62
     8
370
     0
100
AcDbCircle
 10
206.0489111243
 20
213.3188130968
 30
0.0
 40
0.1939752834755854
100
AcDbArc
 50
358.0027136347
 51
87.8519053065
  0
LWPOLYLINE
  5
1ED
330
1F
100
AcDbEntity
  8
0
  6
Continuous
 62
     8
370
     0
100
AcDbPolyline
 90
        9
 70
   128
 43
0.0
 10
232.2919075418
 20
262.9948039365
 10
232.2845873464
 20
264.148299332
 10
232.238512956
 20
265.2165600856
 10
232.1586799849
 20
266.0838234995
 10
232.0537385572
 20
266.6561081831
 10
231.9350582589
 20
266.8713978317
 10
231.8155025173
 20
266.7063632806
 10
231.7080241669
 20
266.1788877857
 10
231.625833087
 20
265.3677509923
  0
LWPOLYLINE
  5
1EE
330
1F
100
AcDbEntity
  8
0
  6
Continuous
 62
     8
370
     0
100
AcDbPolyline
 90
        9
 70
   128
 43
0.0
 10
231.625833087
 20
261.3557510602
 10
231.6515822936
 20
261.0416674696
 10
231.7452509929
 20
260.3119409403
 10
231.8586078513
 20
259.9127086695
 10
231.9793743122
 20
259.8872336501
 10
232.0944597054
 20
260.2382765224
 10
232.1913954843
 20
260.9277963464
 10
232.2596800555
 20
261.8810728716
 10
232.2919075418
 20
262.9948039365
  0
LINE
  5
1EF
330
1F
100
AcDbEntity
  8
0
  6
Continuous
 62
     8
370
     0
100
AcDbLine
 10
205.3070594598
 20
183.0018576991
 30
0.0
 11
204.0694472421
 21
183.0018576991
 31
0.0
  0
ENDSEC
  0
SECTION
  2
OBJECTS
  0
DICTIONARY
  5
C
330
0
100
AcDbDictionary
281
     1
  3
ACAD_GROUP
350
D
  3
ACAD_LAYOUT
350
1A
  3
ACAD_MATERIAL
350
3B
  3
ACAD_MLEADERSTYLE
350
1F1
  3
ACAD_MLINESTYLE
350
17
  3
ACAD_PLOTSETTINGS
350
19
  3
ACAD_PLOTSTYLENAME
350
E
  3
ACAD_TABLESTYLE
350
1F0
  3
ACAD_VISUALSTYLE
350
2A
  0
DICTIONARY
  5
D
102
{ACAD_REACTORS
330
C
102
}
330
C
100
AcDbDictionary
281
     1
  0
DICTIONARY
  5
1A
102
{ACAD_REACTORS
330
C
102
}
330
C
100
AcDbDictionary
281
     1
  3
Layout1
350
1E
  3
Layout2
350
26
  3
Model
350
22
  0
DICTIONARY
  5
3B
102
{ACAD_REACTORS
330
C
102
}
330
C
100
AcDbDictionary
281
     1
  3
ByBlock
350
3D
  3
ByLayer
350
3C
  3
Global
350
3E
  0
DICTIONARY
  5
1F1
102
{ACAD_REACTORS
330
C
102
}
330
C
100
AcDbDictionary
281
     1
  0
DICTIONARY
  5
17
102
{ACAD_REACTORS
330
C
102
}
330
C
100
AcDbDictionary
281
     1
  3
Standard
350
18
  0
DICTIONARY
  5
19
102
{ACAD_REACTORS
330
C
102
}
330
C
100
AcDbDictionary
281
     1
  0
ACDBDICTIONARYWDFLT
  5
E
102
{ACAD_REACTORS
330
C
102
}
330
C
100
AcDbDictionary
281
     1
  3
Normal
350
F
100
AcDbDictionaryWithDefault
340
F
  0
DICTIONARY
  5
1F0
102
{ACAD_REACTORS
330
C
102
}
330
C
100
AcDbDictionary
281
     1
  0
DICTIONARY
  5
2A
102
{ACAD_REACTORS
330
C
102
}
330
C
100
AcDbDictionary
281
     1
  3
2dWireframe
350
2F
  3
3D Hidden
350
31
  3
3dWireframe
350
30
  3
Basic
350
32
  3
Brighten
350
36
  3
ColorChange
350
3A
  3
Conceptual
350
34
  3
Dim
350
35
  3
Facepattern
350
39
  3
Flat
350
2B
  3
FlatWithEdges
350
2C
  3
Gouraud
350
2D
  3
GouraudWithEdges
350
2E
  3
Linepattern
350
38
  3
Realistic
350
33
  3
Thicken
350
37
  0
LAYOUT
  5
1E
102
{ACAD_REACTORS
330
1A
102
}
330
1A
100
AcDbPlotSettings
  1

  2
none_device
  4

  6

 40
0.0
 41
0.0
 42
0.0
 43
0.0
 44
0.0
 45
0.0
 46
0.0
 47
0.0
 48
0.0
 49
0.0
140
0.0
141
0.0
142
1.0
143
1.0
 70
   688
 72
     0
 73
     0
 74
     5
  7

 75
    16
 76
     0
 77
     2
 78
   300
147
1.0
148
0.0
149
0.0
100
AcDbLayout
  1
Layout1
 70
     1
 71
     1
 10
0.0
 20
0.0
 11
420.0
 21
297.0
 12
0.0
 22
0.0
 32
0.0
 14
1.0000000000E+20
 24
1.0000000000E+20
 34
1.0000000000E+20
 15
-1.0000000000E+20
 25
-1.0000000000E+20
 35
-1.0000000000E+20
146
0.0
 13
0.0
 23
0.0
 33
0.0
 16
1.0
 26
0.0
 36
0.0
 17
0.0
 27
1.0
 37
0.0
 76
     0
330
1B
  0
LAYOUT
  5
26
102
{ACAD_REACTORS
330
1A
102
}
330
1A
100
AcDbPlotSettings
  1

  2
none_device
  4

  6

 40
0.0
 41
0.0
 42
0.0
 43
0.0
 44
0.0
 45
0.0
 46
0.0
 47
0.0
 48
0.0
 49
0.0
140
0.0
141
0.0
142
1.0
143
1.0
 70
   688
 72
     0
 73
     0
 74
     5
  7

 75
    16
 76
     0
 77
     2
 78
   300
147
1.0
148
0.0
149
0.0
100
AcDbLayout
  1
Layout2
 70
     1
 71
     2
 10
0.0
 20
0.0
 11
0.0
 21
0.0
 12
0.0
 22
0.0
 32
0.0
 14
0.0
 24
0.0
 34
0.0
 15
0.0
 25
0.0
 35
0.0
146
0.0
 13
0.0
 23
0.0
 33
0.0
 16
1.0
 26
0.0
 36
0.0
 17
0.0
 27
1.0
 37
0.0
 76
     0
330
23
  0
LAYOUT
  5
22
102
{ACAD_REACTORS
330
1A
102
}
330
1A
100
AcDbPlotSettings
  1

  2
none_device
  4

  6

 40
0.0
 41
0.0
 42
0.0
 43
0.0
 44
0.0
 45
0.0
 46
0.0
 47
0.0
 48
0.0
 49
0.0
140
0.0
141
0.0
142
1.0
143
1.0
 70
  1712
 72
     0
 73
     0
 74
     0
  7

 75
     0
 76
     0
 77
     2
 78
   300
147
1.0
148
0.0
149
0.0
100
AcDbLayout
  1
Model
 70
     1
 71
     0
 10
0.0
 20
0.0
 11
594.0
 21
841.0
 12
0.0
 22
0.0
 32
0.0
 14
0.0
 24
0.0
 34
0.0
 15
594.0
 25
841.0
 35
0.0
146
0.0
 13
0.0
 23
0.0
 33
0.0
 16
1.0
 26
0.0
 36
0.0
 17
0.0
 27
1.0
 37
0.0
 76
     0
330
1F
331
29
  0
MATERIAL
  5
3D
102
{ACAD_REACTORS
330
3B
102
}
330
3B
100
AcDbMaterial
  1
ByBlock
 72
     1
 94
      127
  0
MATERIAL
  5
3C
102
{ACAD_REACTORS
330
3B
102
}
330
3B
100
AcDbMaterial
  1
ByLayer
 72
     1
 94
      127
  0
MATERIAL
  5
3E
102
{ACAD_REACTORS
330
3B
102
}
330
3B
100
AcDbMaterial
  1
Global
 72
     1
 94
      127
  0
MLINESTYLE
  5
18
102
{ACAD_REACTORS
330
17
102
}
330
17
100
AcDbMlineStyle
  2
Standard
 70
     0
  3

 62
   256
 51
90.0
 52
90.0
 71
     2
 49
0.5
 62
   256
  6
BYLAYER
 49
-0.5
 62
   256
  6
BYLAYER
  0
ACDBPLACEHOLDER
  5
F
102
{ACAD_REACTORS
330
E
102
}
330
E
  0
VISUALSTYLE
  5
2F
102
{ACAD_REACTORS
330
2A
102
}
330
2A
100
AcDbVisualStyle
  2
2dWireframe
 70
     4
177
     2
291
     0
 71
     0
176
     1
 72
     2
176
     1
 73
     0
176
     1
 90
        0
176
     1
 40
-0.6
176
     1
 41
-30.0
176
     1
 62
     5
 63
     7
421
 16777215
176
     1
 74
     1
176
     1
 91
        4
176
     1
 64
     7
176
     1
 65
   257
176
     1
 75
     1
176
     1
175
     1
176
     1
 42
1.0
176
     1
 92
        0
176
     1
 66
   257
176
     1
 43
1.0
176
     1
 76
     1
176
     1
 77
     6
176
     1
 78
     2
176
     1
 67
     7
176
     1
 79
     5
176
     1
170
     0
176
     1
171
     0
176
     1
290
     0
176
     1
 93
        1
176
     1
 44
0.0
176
     1
173
     0
176
     1
  0
VISUALSTYLE
  5
31
102
{ACAD_REACTORS
330
2A
102
}
330
2A
100
AcDbVisualStyle
  2
3D Hidden
 70
     6
177
     2
291
     0
 71
     1
176
     1
 72
     2
176
     1
 73
     2
176
     1
 90
        0
176
     1
 40
-0.6
176
     1
 41
-30.0
176
     1
 62
     5
 63
     7
421
 16777215
176
     1
 74
     2
176
     1
 91
        2
176
     1
 64
     7
176
     1
 65
   257
176
     1
 75
     2
176
     1
175
     1
176
     1
 42
40.0
176
     1
 92
        0
176
     1
 66
   257
176
     1
 43
1.0
176
     1
 76
     1
176
     1
 77
     6
176
     1
 78
     2
176
     1
 67
     7
176
     1
 79
     3
176
     1
170
     0
176
     1
171
     0
176
     1
290
     0
176
     1
 93
        1
176
     1
 44
0.0
176
     1
173
     0
176
     1
  0
VISUALSTYLE
  5
30
102
{ACAD_REACTORS
330
2A
102
}
330
2A
100
AcDbVisualStyle
  2
3dWireframe
 70
     5
177
     2
291
     0
 71
     0
176
     1
 72
     2
176
     1
 73
     0
176
     1
 90
        0
176
     1
 40
-0.6
176
     1
 41
-30.0
176
     1
 62
     5
 63
     7
421
 16777215
176
     1
 74
     1
176
     1
 91
        4
176
     1
 64
     7
176
     1
 65
   257
176
     1
 75
     1
176
     1
175
     1
176
     1
 42
1.0
176
     1
 92
        0
176
     1
 66
   257
176
     1
 43
1.0
176
     1
 76
     1
176
     1
 77
     6
176
     1
 78
     2
176
     1
 67
     7
176
     1
 79
     5
176
     1
170
     0
176
     1
171
     0
176
     1
290
     0
176
     1
 93
        1
176
     1
 44
0.0
176
     1
173
     0
176
     1
  0
VISUALSTYLE
  5
32
102
{ACAD_REACTORS
330
2A
102
}
330
2A
100
AcDbVisualStyle
  2
Basic
 70
     7
177
     2
291
     1
 71
     1
176
     1
 72
     0
176
     1
 73
     1
176
     1
 90
        0
176
     1
 40
-0.6
176
     1
 41
-30.0
176
     1
 62
     5
 63
     7
421
 16777215
176
     1
 74
     0
176
     1
 91
        4
176
     1
 64
     7
176
     1
 65
   257
176
     1
 75
     1
176
     1
175
     1
176
     1
 42
1.0
176
     1
 92
        8
176
     1
 66
     7
176
     1
 43
1.0
176
     1
 76
     1
176
     1
 77
     6
176
     1
 78
     2
176
     1
 67
     7
176
     1
 79
     5
176
     1
170
     0
176
     1
171
     0
176
     1
290
     0
176
     1
 93
        1
176
     1
 44
0.0
176
     1
173
     0
176
     1
  0
VISUALSTYLE
  5
36
102
{ACAD_REACTORS
330
2A
102
}
330
2A
100
AcDbVisualStyle
  2
Brighten
 70
    12
177
     2
291
     1
 71
     2
176
     1
 72
     2
176
     1
 73
     0
176
     1
 90
        0
176
     1
 40
-0.6
176
     1
 41
-30.0
176
     1
 62
     5
 63
     7
421
 16777215
176
     1
 74
     1
176
     1
 91
        4
176
     1
 64
     7
176
     1
 65
   257
176
     1
 75
     1
176
     1
175
     1
176
     1
 42
1.0
176
     1
 92
        8
176
     1
 66
     7
176
     1
 43
1.0
176
     1
 76
     1
176
     1
 77
     6
176
     1
 78
     2
176
     1
 67
     7
176
     1
 79
     5
176
     1
170
     0
176
     1
171
     0
176
     1
290
     0
176
     1
 93
        1
176
     1
 44
50.0
176
     1
173
     0
176
     1
  0
VISUALSTYLE
  5
3A
102
{ACAD_REACTORS
330
2A
102
}
330
2A
100
AcDbVisualStyle
  2
ColorChange
 70
    16
177
     2
291
     1
 71
     2
176
     1
 72
     2
176
     1
 73
     3
176
     1
 90
        0
176
     1
 40
-0.6
176
     1
 41
-30.0
176
     1
 62
     5
 63
     8
421
  8421504
176
     1
 74
     1
176
     1
 91
        4
176
     1
 64
     7
176
     1
 65
   257
176
     1
 75
     1
176
     1
175
     1
176
     1
 42
1.0
176
     1
 92
        8
176
     1
 66
     8
424
  8421504
176
     1
 43
1.0
176
     1
 76
     1
176
     1
 77
     6
176
     1
 78
     2
176
     1
 67
     7
176
     1
 79
     5
176
     1
170
     0
176
     1
171
     0
176
     1
290
     0
176
     1
 93
        1
176
     1
 44
0.0
176
     1
173
     0
176
     1
  0
VISUALSTYLE
  5
34
102
{ACAD_REACTORS
330
2A
102
}
330
2A
100
AcDbVisualStyle
  2
Conceptual
 70
     9
177
     2
291
     0
 71
     3
176
     1
 72
     2
176
     1
 73
     0
176
     1
 90
        0
176
     1
 40
-0.6
176
     1
 41
-30.0
176
     1
 62
     5
 63
     7
421
 16777215
176
     1
 74
     2
176
     1
 91
        2
176
     1
 64
     7
176
     1
 65
   257
176
     1
 75
     1
176
     1
175
     1
176
     1
 42
40.0
176
     1
 92
        8
176
     1
 66
     7
176
     1
 43
1.0
176
     1
 76
     1
176
     1
 77
     6
176
     1
 78
     2
176
     1
 67
     7
176
     1
 79
     3
176
     1
170
     0
176
     1
171
     0
176
     1
290
     0
176
     1
 93
        1
176
     1
 44
0.0
176
     1
173
     0
176
     1
  0
VISUALSTYLE
  5
35
102
{ACAD_REACTORS
330
2A
102
}
330
2A
100
AcDbVisualStyle
  2
Dim
 70
    11
177
     2
291
     1
 71
     2
176
     1
 72
     2
176
     1
 73
     0
176
     1
 90
        0
176
     1
 40
-0.6
176
     1
 41
-30.0
176
     1
 62
     5
 63
     7
421
 16777215
176
     1
 74
     1
176
     1
 91
        4
176
     1
 64
     7
176
     1
 65
   257
176
     1
 75
     1
176
     1
175
     1
176
     1
 42
1.0
176
     1
 92
        8
176
     1
 66
     7
176
     1
 43
1.0
176
     1
 76
     1
176
     1
 77
     6
176
     1
 78
     2
176
     1
 67
     7
176
     1
 79
     5
176
     1
170
     0
176
     1
171
     0
176
     1
290
     0
176
     1
 93
        1
176
     1
 44
-50.0
176
     1
173
     0
176
     1
  0
VISUALSTYLE
  5
39
102
{ACAD_REACTORS
330
2A
102
}
330
2A
100
AcDbVisualStyle
  2
Facepattern
 70
    15
177
     2
291
     1
 71
     2
176
     1
 72
     2
176
     1
 73
     0
176
     1
 90
        0
176
     1
 40
-0.6
176
     1
 41
-30.0
176
     1
 62
     5
 63
     7
421
 16777215
176
     1
 74
     1
176
     1
 91
        4
176
     1
 64
     7
176
     1
 65
   257
176
     1
 75
     1
176
     1
175
     1
176
     1
 42
1.0
176
     1
 92
        8
176
     1
 66
     7
176
     1
 43
1.0
176
     1
 76
     1
176
     1
 77
     6
176
     1
 78
     2
176
     1
 67
     7
176
     1
 79
     5
176
     1
170
     0
176
     1
171
     0
176
     1
290
     0
176
     1
 93
        1
176
     1
 44
0.0
176
     1
173
     0
176
     1
  0
VISUALSTYLE
  5
2B
102
{ACAD_REACTORS
330
2A
102
}
330
2A
100
AcDbVisualStyle
  2
Flat
 70
     0
177
     2
291
     1
 71
     2
176
     1
 72
     1
176
     1
 73
     1
176
     1
 90
        2
176
     1
 40
-0.6
176
     1
 41
30.0
176
     1
 62
     5
 63
     7
421
 16777215
176
     1
 74
     0
176
     1
 91
        4
176
     1
 64
     7
176
     1
 65
   257
176
     1
 75
     1
176
     1
175
     1
176
     1
 42
1.0
176
     1
 92
        8
176
     1
 66
     7
176
     1
 43
1.0
176
     1
 76
     1
176
     1
 77
     6
176
     1
 78
     2
176
     1
 67
     7
176
     1
 79
     5
176
     1
170
     0
176
     1
171
     0
176
     1
290
     0
176
     1
 93
       13
176
     1
 44
0.0
176
     1
173
     0
176
     1
  0
VISUALSTYLE
  5
2C
102
{ACAD_REACTORS
330
2A
102
}
330
2A
100
AcDbVisualStyle
  2
FlatWithEdges
 70
     1
177
     2
291
     1
 71
     2
176
     1
 72
     1
176
     1
 73
     1
176
     1
 90
        2
176
     1
 40
-0.6
176
     1
 41
30.0
176
     1
 62
     5
 63
     7
421
 16777215
176
     1
 74
     1
176
     1
 91
        4
176
     1
 64
     7
176
     1
 65
   257
176
     1
 75
     1
176
     1
175
     1
176
     1
 42
1.0
176
     1
 92
        0
176
     1
 66
   257
176
     1
 43
1.0
176
     1
 76
     1
176
     1
 77
     6
176
     1
 78
     2
176
     1
 67
     7
176
     1
 79
     5
176
     1
170
     0
176
     1
171
     0
176
     1
290
     0
176
     1
 93
       13
176
     1
 44
0.0
176
     1
173
     0
176
     1
  0
VISUALSTYLE
  5
2D
102
{ACAD_REACTORS
330
2A
102
}
330
2A
100
AcDbVisualStyle
  2
Gouraud
 70
     2
177
     2
291
     1
 71
     2
176
     1
 72
     2
176
     1
 73
     1
176
     1
 90
        2
176
     1
 40
-0.6
176
     1
 41
30.0
176
     1
 62
     5
 63
     7
421
 16777215
176
     1
 74
     0
176
     1
 91
        4
176
     1
 64
     7
176
     1
 65
   257
176
     1
 75
     1
176
     1
175
     1
176
     1
 42
1.0
176
     1
 92
        0
176
     1
 66
     7
176
     1
 43
1.0
176
     1
 76
     1
176
     1
 77
     6
176
     1
 78
     2
176
     1
 67
     7
176
     1
 79
     5
176
     1
170
     0
176
     1
171
     0
176
     1
290
     0
176
     1
 93
       13
176
     1
 44
0.0
176
     1
173
     0
176
     1
  0
VISUALSTYLE
  5
2E
102
{ACAD_REACTORS
330
2A
102
}
330
2A
100
AcDbVisualStyle
  2
GouraudWithEdges
 70
     3
177
     2
291
     1
 71
     2
176
     1
 72
     2
176
     1
 73
     1
176
     1
 90
        2
176
     1
 40
-0.6
176
     1
 41
30.0
176
     1
 62
     5
 63
     7
421
 16777215
176
     1
 74
     1
176
     1
 91
        4
176
     1
 64
     7
176
     1
 65
   257
176
     1
 75
     1
176
     1
175
     1
176
     1
 42
1.0
176
     1
 92
        0
176
     1
 66
   257
176
     1
 43
1.0
176
     1
 76
     1
176
     1
 77
     6
176
     1
 78
     2
176
     1
 67
     7
176
     1
 79
     5
176
     1
170
     0
176
     1
171
     0
176
     1
290
     0
176
     1
 93
       13
176
     1
 44
0.0
176
     1
173
     0
176
     1
  0
VISUALSTYLE
  5
38
102
{ACAD_REACTORS
330
2A
102
}
330
2A
100
AcDbVisualStyle
  2
Linepattern
 70
    14
177
     2
291
     1
 71
     2
176
     1
 72
     2
176
     1
 73
     0
176
     1
 90
        0
176
     1
 40
-0.6
176
     1
 41
-30.0
176
     1
 62
     5
 63
     7
421
 16777215
176
     1
 74
     1
176
     1
 91
        4
176
     1
 64
     7
176
     1
 65
   257
176
     1
 75
     7
176
     1
175
     7
176
     1
 42
1.0
176
     1
 92
        8
176
     1
 66
     7
176
     1
 43
1.0
176
     1
 76
     1
176
     1
 77
     6
176
     1
 78
     2
176
     1
 67
     7
176
     1
 79
     5
176
     1
170
     0
176
     1
171
     0
176
     1
290
     0
176
     1
 93
        1
176
     1
 44
0.0
176
     1
173
     0
176
     1
  0
VISUALSTYLE
  5
33
102
{ACAD_REACTORS
330
2A
102
}
330
2A
100
AcDbVisualStyle
  2
Realistic
 70
     8
177
     2
291
     0
 71
     2
176
     1
 72
     2
176
     1
 73
     0
176
     1
 90
        0
176
     1
 40
-0.6
176
     1
 41
-30.0
176
     1
 62
     5
 63
     7
421
 16777215
176
     1
 74
     1
176
     1
 91
        0
176
     1
 64
     7
176
     1
 65
   257
176
     1
 75
     1
176
     1
175
     1
176
     1
 42
1.0
176
     1
 92
        8
176
     1
 66
     8
424
  7895160
176
     1
 43
1.0
176
     1
 76
     1
176
     1
 77
     6
176
     1
 78
     2
176
     1
 67
     7
176
     1
 79
     5
176
     1
170
     0
176
     1
171
     0
176
     1
290
     0
176
     1
 93
       13
176
     1
 44
0.0
176
     1
173
     0
176
     1
  0
VISUALSTYLE
  5
37
102
{ACAD_REACTORS
330
2A
102
}
330
2A
100
AcDbVisualStyle
  2
Thicken
 70
    13
177
     2
291
     1
 71
     2
176
     1
 72
     2
176
     1
 73
     0
176
     1
 90
        0
176
     1
 40
-0.6
176
     1
 41
-30.0
176
     1
 62
     5
 63
     7
421
 16777215
176
     1
 74
     1
176
     1
 91
        4
176
     1
 64
     7
176
     1
 65
   257
176
     1
 75
     1
176
     1
175
     1
176
     1
 42
1.0
176
     1
 92
       12
176
     1
 66
     7
176
     1
 43
1.0
176
     1
 76
     1
176
     1
 77
     6
176
     1
 78
     2
176
     1
 67
     7
176
     1
 79
     5
176
     1
170
     0
176
     1
171
     0
176
     1
290
     0
176
     1
 93
        1
176
     1
 44
0.0
176
     1
173
     0
176
     1
  0
ENDSEC
  0
EOF
