  0
SECTION
  2
HEADER
  9
$ACADVER
  1
AC1024
  9
$ACADMAINTVER
 70
     6
  9
$DWGCODEPAGE
  3
ANSI_1252
  9
$INSBASE
 10
0.0
 20
0.0
 30
0.0
  9
$EXTMIN
 10
0.0
 20
0.0
 30
0.0
  9
$EXTMAX
 10
1189.0
 20
841.0
 30
0.0
  9
$LIMMIN
 10
0.0
 20
0.0
  9
$LIMMAX
 10
1189.0
 20
841.0
  9
$ORTHOMODE
 70
     0
  9
$REGENMODE
 70
     1
  9
$FILLMODE
 70
     1
  9
$QTEXTMODE
 70
     0
  9
$MIRRTEXT
 70
     1
  9
$LTSCALE
 40
1.0
  9
$ATTMODE
 70
     1
  9
$TEXTSIZE
 40
10.0
  9
$TRACEWID
 40
1.0
  9
$TEXTSTYLE
  7
Standard
  9
$CLAYER
  8
0
  9
$CELTYPE
  6
ByLayer
  9
$CECOLOR
 62
   256
  9
$CELTSCALE
 40
1.0
  9
$DISPSILH
 70
     0
  9
$DIMSCALE
 40
1.0
  9
$DIMASZ
 40
2.5
  9
$DIMEXO
 40
0.0
  9
$DIMDLI
 40
3.75
  9
$DIMRND
 40
0.0
  9
$DIMDLE
 40
0.0
  9
$DIMEXE
 40
1.0
  9
$DIMTP
 40
0.0
  9
$DIMTM
 40
0.0
  9
$DIMTXT
 40
3.5
  9
$DIMCEN
 40
2.5
  9
$DIMTSZ
 40
0.0
  9
$DIMTOL
 70
     0
  9
$DIMLIM
 70
     0
  9
$DIMTIH
 70
     1
  9
$DIMTOH
 70
     1
  9
$DIMSE1
 70
     0
  9
$DIMSE2
 70
     0
  9
$DIMTAD
 70
     1
  9
$DIMZIN
 70
     0
  9
$DIMBLK
  1

  9
$DIMASO
 70
     1
  9
$DIMSHO
 70
     1
  9
$DIMPOST
  1

  9
$DIMAPOST
  1

  9
$DIMALT
 70
     0
  9
$DIMALTD
 70
     3
  9
$DIMALTF
 40
0.0393700787
  9
$DIMLFAC
 40
1.0
  9
$DIMTOFL
 70
     1
  9
$DIMTVP
 40
0.0
  9
$DIMTIX
 70
     0
  9
$DIMSOXD
 70
     0
  9
$DIMSAH
 70
     0
  9
$DIMBLK1
  1

  9
$DIMBLK2
  1

  9
$DIMSTYLE
  2
ISO-25
  9
$DIMCLRD
 70
     0
  9
$DIMCLRE
 70
     0
  9
$DIMCLRT
 70
     0
  9
$DIMTFAC
 40
1.0
  9
$DIMGAP
 40
1.5
  9
$DIMJUST
 70
     0
  9
$DIMSD1
 70
     0
  9
$DIMSD2
 70
     0
  9
$DIMTOLJ
 70
     0
  9
$DIMTZIN
 70
     0
  9
$DIMALTZ
 70
     0
  9
$DIMALTTZ
 70
     0
  9
$DIMUPT
 70
     0
  9
$DIMDEC
 70
     2
  9
$DIMTDEC
 70
     2
  9
$DIMALTU
 70
     2
  9
$DIMALTTD
 70
     3
  9
$DIMTXSTY
  7
Standard
  9
$DIMAUNIT
 70
     0
  9
$DIMADEC
 70
     2
  9
$DIMALTRND
 40
0.0
  9
$DIMAZIN
 70
     0
  9
$DIMDSEP
 70
    44
  9
$DIMATFIT
 70
     3
  9
$DIMFRAC
 70
     0
  9
$DIMLDRBLK
  1

  9
$DIMLUNIT
 70
     2
  9
$DIMLWD
 70
    -2
  9
$DIMLWE
 70
    -2
  9
$DIMTMOVE
 70
     0
  9
$DIMFXL
 40
1.0
  9
$DIMFXLON
 70
     0
  9
$DIMJOGANG
 40
0.7853981634
  9
$DIMTFILL
 70
     0
  9
$DIMTFILLCLR
 70
     0
  9
$DIMARCSYM
 70
     0
  9
$DIMLTYPE
  6

  9
$DIMLTEX1
  6

  9
$DIMLTEX2
  6

  9
$DIMTXTDIRECTION
 70
     0
  9
$LUNITS
 70
     2
  9
$LUPREC
 70
     2
  9
$SKETCHINC
 40
1.0
  9
$FILLETRAD
 40
10.0
  9
$AUNITS
 70
     0
  9
$AUPREC
 70
     2
  9
$MENU
  1
.
  9
$ELEVATION
 40
0.0
  9
$PELEVATION
 40
0.0
  9
$THICKNESS
 40
0.0
  9
$LIMCHECK
 70
     0
  9
$CHAMFERA
 40
10.0
  9
$CHAMFERB
 40
10.0
  9
$CHAMFERC
 40
20.0
  9
$CHAMFERD
 40
0.0
  9
$SKPOLY
 70
     0
  9
$TDCREATE
 40
2456160.395066505
  9
$TDUCREATE
 40
2456160.311733171
  9
$TDUPDATE
 40
2456160.395066516
  9
$TDUUPDATE
 40
2456160.311733183
  9
$TDINDWG
 40
0.0000000116
  9
$TDUSRTIMER
 40
0.0000000116
  9
$USRTIMER
 70
     1
  9
$ANGBASE
 50
0.0
  9
$ANGDIR
 70
     0
  9
$PDMODE
 70
     0
  9
$PDSIZE
 40
-1.0
  9
$PLINEWID
 40
0.0
  9
$SPLFRAME
 70
     0
  9
$SPLINETYPE
 70
     6
  9
$SPLINESEGS
 70
     8
  9
$HANDSEED
  5
125
  9
$SURFTAB1
 70
     6
  9
$SURFTAB2
 70
     6
  9
$SURFTYPE
 70
     6
  9
$SURFU
 70
     6
  9
$SURFV
 70
     6
  9
$UCSBASE
  2

  9
$UCSNAME
  2

  9
$UCSORG
 10
0.0
 20
0.0
 30
0.0
  9
$UCSXDIR
 10
1.0
 20
0.0
 30
0.0
  9
$UCSYDIR
 10
0.0
 20
1.0
 30
0.0
  9
$UCSORTHOREF
  2

  9
$UCSORTHOVIEW
 70
     0
  9
$UCSORGTOP
 10
0.0
 20
0.0
 30
0.0
  9
$UCSORGBOTTOM
 10
0.0
 20
0.0
 30
0.0
  9
$UCSORGLEFT
 10
0.0
 20
0.0
 30
0.0
  9
$UCSORGRIGHT
 10
0.0
 20
0.0
 30
0.0
  9
$UCSORGFRONT
 10
0.0
 20
0.0
 30
0.0
  9
$UCSORGBACK
 10
0.0
 20
0.0
 30
0.0
  9
$PUCSBASE
  2

  9
$PUCSNAME
  2

  9
$PUCSORG
 10
0.0
 20
0.0
 30
0.0
  9
$PUCSXDIR
 10
1.0
 20
0.0
 30
0.0
  9
$PUCSYDIR
 10
0.0
 20
1.0
 30
0.0
  9
$PUCSORTHOREF
  2

  9
$PUCSORTHOVIEW
 70
     0
  9
$PUCSORGTOP
 10
0.0
 20
0.0
 30
0.0
  9
$PUCSORGBOTTOM
 10
0.0
 20
0.0
 30
0.0
  9
$PUCSORGLEFT
 10
0.0
 20
0.0
 30
0.0
  9
$PUCSORGRIGHT
 10
0.0
 20
0.0
 30
0.0
  9
$PUCSORGFRONT
 10
0.0
 20
0.0
 30
0.0
  9
$PUCSORGBACK
 10
0.0
 20
0.0
 30
0.0
  9
$USERI1
 70
     0
  9
$USERI2
 70
     0
  9
$USERI3
 70
     0
  9
$USERI4
 70
     0
  9
$USERI5
 70
     0
  9
$USERR1
 40
0.0
  9
$USERR2
 40
0.0
  9
$USERR3
 40
0.0
  9
$USERR4
 40
0.0
  9
$USERR5
 40
0.0
  9
$WORLDVIEW
 70
     1
  9
$SHADEDGE
 70
     3
  9
$SHADEDIF
 70
    70
  9
$TILEMODE
 70
     1
  9
$MAXACTVP
 70
    64
  9
$PINSBASE
 10
0.0
 20
0.0
 30
0.0
  9
$PLIMCHECK
 70
     0
  9
$PEXTMIN
 10
1.0000000000E+20
 20
1.0000000000E+20
 30
1.0000000000E+20
  9
$PEXTMAX
 10
-1.0000000000E+20
 20
-1.0000000000E+20
 30
-1.0000000000E+20
  9
$PLIMMIN
 10
0.0
 20
0.0
  9
$PLIMMAX
 10
420.0
 20
297.0
  9
$UNITMODE
 70
     0
  9
$VISRETAIN
 70
     1
  9
$PLINEGEN
 70
     0
  9
$PSLTSCALE
 70
     1
  9
$TREEDEPTH
 70
  3020
  9
$CMLSTYLE
  2
Standard
  9
$CMLJUST
 70
     0
  9
$CMLSCALE
 40
20.0
  9
$PROXYGRAPHICS
 70
     1
  9
$MEASUREMENT
 70
     1
  9
$CELWEIGHT
370
    -1
  9
$ENDCAPS
280
     0
  9
$JOINSTYLE
280
     0
  9
$LWDISPLAY
290
     1
  9
$INSUNITS
 70
     4
  9
$HYPERLINKBASE
  1

  9
$STYLESHEET
  1

  9
$XEDIT
290
     1
  9
$CEPSNTYPE
380
     0
  9
$PSTYLEMODE
290
     1
  9
$FINGERPRINTGUID
  2
{5B0205D9-A03C-4D4B-8764-78BB8201BD0A}
  9
$VERSIONGUID
  2
{FAEB1C32-E019-11D5-929B-00C0DF256EC4}
  9
$EXTNAMES
290
     1
  9
$PSVPSCALE
 40
0.0
  9
$OLESTARTUP
290
     0
  9
$SORTENTS
280
   127
  9
$INDEXCTL
280
     0
  9
$HIDETEXT
280
     1
  9
$XCLIPFRAME
280
     2
  9
$HALOGAP
280
     0
  9
$OBSCOLOR
 70
   257
  9
$OBSLTYPE
280
     0
  9
$INTERSECTIONDISPLAY
280
     0
  9
$INTERSECTIONCOLOR
 70
   257
  9
$DIMASSOC
280
     2
  9
$PROJECTNAME
  1

  9
$CAMERADISPLAY
290
     0
  9
$LENSLENGTH
 40
50.0
  9
$CAMERAHEIGHT
 40
0.0
  9
$STEPSPERSEC
 40
2.0
  9
$STEPSIZE
 40
6.0
  9
$3DDWFPREC
 40
2.0
  9
$PSOLWIDTH
 40
5.0
  9
$PSOLHEIGHT
 40
80.0
  9
$LOFTANG1
 40
1.5707963268
  9
$LOFTANG2
 40
1.5707963268
  9
$LOFTMAG1
 40
0.0
  9
$LOFTMAG2
 40
0.0
  9
$LOFTPARAM
 70
     7
  9
$LOFTNORMALS
280
     1
  9
$LATITUDE
 40
37.795
  9
$LONGITUDE
 40
-122.394
  9
$NORTHDIRECTION
 40
0.0
  9
$TIMEZONE
 70
 -8000
  9
$LIGHTGLYPHDISPLAY
280
     1
  9
$TILEMODELIGHTSYNCH
280
     1
  9
$SOLIDHIST
280
     1
  9
$SHOWHIST
280
     1
  9
$DWFFRAME
280
     2
  9
$DGNFRAME
280
     2
  9
$REALWORLDSCALE
290
     1
  9
$INTERFERECOLOR
 62
   256
  9
$CSHADOW
280
     0
  9
$SHADOWPLANELOCATION
 40
0.0
  0
ENDSEC
  0
SECTION
  2
CLASSES
  0
CLASS
  1
ACDBDICTIONARYWDFLT
  2
AcDbDictionaryWithDefault
  3
ObjectDBX Classes
 90
        0
 91
        4
280
     0
281
     0
  0
CLASS
  1
VISUALSTYLE
  2
AcDbVisualStyle
  3
ObjectDBX Classes
 90
     4095
 91
        4
280
     0
281
     0
  0
CLASS
  1
MATERIAL
  2
AcDbMaterial
  3
ObjectDBX Classes
 90
     1153
 91
        4
280
     0
281
     0
  0
ENDSEC
  0
SECTION
  2
TABLES
  0
TABLE
  2
VPORT
  5
8
330
0
100
AcDbSymbolTable
 70
     1
  0
VPORT
  5
29
330
8
100
AcDbSymbolTableRecord
100
AcDbViewportTableRecord
  2
*Active
 70
     0
 10
0.0
 20
0.0
 11
1.0
 21
1.0
 12
594.5
 22
420.5
 13
0.0
 23
0.0
 14
10.0
 24
10.0
 15
10.0
 25
10.0
 16
0.0
 26
0.0
 36
1.0
 17
0.0
 27
0.0
 37
0.0
 40
841.0
 41
1.4137931034
 42
50.0
 43
0.0
 44
0.0
 50
0.0
 51
0.0
 71
     0
 72
  2000
 73
     1
 74
     3
 75
     0
 76
     0
 77
     0
 78
     0
281
     0
 65
     1
110
0.0
120
0.0
130
0.0
111
1.0
121
0.0
131
0.0
112
0.0
122
1.0
132
0.0
 79
     0
146
0.0
 60
     3
 61
     5
292
     1
282
     1
141
0.0
142
0.0
 63
   250
  0
ENDTAB
  0
TABLE
  2
LTYPE
  5
5
330
0
100
AcDbSymbolTable
 70
     6
  0
LTYPE
  5
14
330
5
100
AcDbSymbolTableRecord
100
AcDbLinetypeTableRecord
  2
ByBlock
 70
     0
  3

 72
    65
 73
     0
 40
0.0
  0
LTYPE
  5
15
330
5
100
AcDbSymbolTableRecord
100
AcDbLinetypeTableRecord
  2
ByLayer
 70
     0
  3

 72
    65
 73
     0
 40
0.0
  0
LTYPE
  5
16
330
5
100
AcDbSymbolTableRecord
100
AcDbLinetypeTableRecord
  2
Continuous
 70
     0
  3
Solid line
 72
    65
 73
     0
 40
0.0
  0
LTYPE
  5
3F
330
5
100
AcDbSymbolTableRecord
100
AcDbLinetypeTableRecord
  2
HIDDEN
 70
     0
  3
Hidden __ __ __ __ __ __ __ __ __ __ __ __ __ __
 72
    65
 73
     2
 40
1.905
 49
1.27
 74
     0
 49
-0.635
 74
     0
  0
LTYPE
  5
40
330
5
100
AcDbSymbolTableRecord
100
AcDbLinetypeTableRecord
  2
PHANTOM
 70
     0
  3
Phantom ______  __  __  ______  __  __  ______
 72
    65
 73
     6
 40
12.7
 49
6.35
 74
     0
 49
-1.27
 74
     0
 49
1.27
 74
     0
 49
-1.27
 74
     0
 49
1.27
 74
     0
 49
-1.27
 74
     0
  0
LTYPE
  5
41
330
5
100
AcDbSymbolTableRecord
100
AcDbLinetypeTableRecord
  2
CENTER
 70
     0
  3
Center ____ _ ____ _ ____ _ ____ _ ____ _ ____
 72
    65
 73
     4
 40
10.16
 49
6.35
 74
     0
 49
-1.27
 74
     0
 49
1.27
 74
     0
 49
-1.27
 74
     0
  0
LTYPE
  5
42
330
5
100
AcDbSymbolTableRecord
100
AcDbLinetypeTableRecord
  2
CENTERX2
 70
     0
  3
Center (2x) ________  __  ________  __  _____
 72
    65
 73
     4
 40
20.32
 49
12.7
 74
     0
 49
-2.54
 74
     0
 49
2.54
 74
     0
 49
-2.54
 74
     0
  0
LTYPE
  5
43
330
5
100
AcDbSymbolTableRecord
100
AcDbLinetypeTableRecord
  2
DOT2
 70
     0
  3
Dot (.5x) ........................................
 72
    65
 73
     2
 40
0.635
 49
0.0
 74
     0
 49
-0.635
 74
     0
  0
ENDTAB
  0
TABLE
  2
LAYER
  5
2
330
0
100
AcDbSymbolTable
 70
     1
  0
LAYER
  5
10
330
2
100
AcDbSymbolTableRecord
100
AcDbLayerTableRecord
  2
0
 70
     0
 62
     7
  6
Continuous
370
    -3
390
F
347
3E
  0
ENDTAB
  0
TABLE
  2
STYLE
  5
3
330
0
100
AcDbSymbolTable
 70
     3
  0
STYLE
  5
11
330
3
100
AcDbSymbolTableRecord
100
AcDbTextStyleTableRecord
  2
Standard
 70
     0
 40
0.0
 41
1.0
 50
0.0
 71
     0
 42
2.5
  3
txt
  4

  0
STYLE
  5
47
330
3
100
AcDbSymbolTableRecord
100
AcDbTextStyleTableRecord
  2
SLDTEXTSTYLE0
 70
     0
 40
0.0
 41
0.96
 50
0.0
 71
     0
 42
0.2
  3
ISOCP3
  4

  0
STYLE
  5
5E
330
3
100
AcDbSymbolTableRecord
100
AcDbTextStyleTableRecord
  2
SLDTEXTSTYLE1
 70
     0
 40
0.0
 41
0.605
 50
0.0
 71
     0
 42
0.2
  3
TXT
  4

  0
ENDTAB
  0
TABLE
  2
VIEW
  5
6
330
0
100
AcDbSymbolTable
 70
     0
  0
ENDTAB
  0
TABLE
  2
UCS
  5
7
330
0
100
AcDbSymbolTable
 70
     0
  0
ENDTAB
  0
TABLE
  2
APPID
  5
9
330
0
100
AcDbSymbolTable
 70
     1
  0
APPID
  5
12
330
9
100
AcDbSymbolTableRecord
100
AcDbRegAppTableRecord
  2
ACAD
 70
     0
  0
ENDTAB
  0
TABLE
  2
DIMSTYLE
  5
A
330
0
100
AcDbSymbolTable
 70
     2
100
AcDbDimStyleTable
  0
DIMSTYLE
105
27
330
A
100
AcDbSymbolTableRecord
100
AcDbDimStyleTableRecord
  2
ISO-25
 70
     0
 41
2.5
 42
0.625
 43
3.75
 44
1.25
 73
     0
 74
     0
 77
     1
 78
     8
140
2.5
141
2.5
143
0.0393700787
147
0.625
171
     3
172
     1
178
     0
271
     2
272
     2
274
     3
278
    44
283
     0
284
     8
340
11
  0
DIMSTYLE
105
48
102
{ACAD_REACTORS
330
46
330
53
102
}
330
A
100
AcDbSymbolTableRecord
100
AcDbDimStyleTableRecord
  2
SLDDIMSTYLE0
 70
     0
 41
2.5
 44
0.0
 45
0.000000001
 73
     0
 74
     0
 77
     1
 78
    12
 79
     3
140
6.0
147
1.5
173
     1
178
     0
271
     2
272
     2
276
     2
284
    12
340
47
  0
ENDTAB
  0
TABLE
  2
BLOCK_RECORD
  5
1
330
0
100
AcDbSymbolTable
 70
     3
  0
BLOCK_RECORD
  5
1F
330
1
100
AcDbSymbolTableRecord
100
AcDbBlockTableRecord
  2
*Model_Space
340
22
 70
     0
280
     1
281
     0
  0
BLOCK_RECORD
  5
1B
330
1
100
AcDbSymbolTableRecord
100
AcDbBlockTableRecord
  2
*Paper_Space
340
1E
 70
     0
280
     1
281
     0
  0
BLOCK_RECORD
  5
23
330
1
100
AcDbSymbolTableRecord
100
AcDbBlockTableRecord
  2
*Paper_Space0
340
26
 70
     0
280
     1
281
     0
  0
BLOCK_RECORD
  5
49
330
1
100
AcDbSymbolTableRecord
100
AcDbBlockTableRecord
  2
*D1
340
0
 70
     0
280
     1
281
     0
  0
BLOCK_RECORD
  5
54
330
1
100
AcDbSymbolTableRecord
100
AcDbBlockTableRecord
  2
*D2
340
0
 70
     0
280
     1
281
     0
  0
ENDTAB
  0
ENDSEC
  0
SECTION
  2
BLOCKS
  0
BLOCK
  5
20
330
1F
100
AcDbEntity
  8
0
100
AcDbBlockBegin
  2
*Model_Space
 70
     0
 10
0.0
 20
0.0
 30
0.0
  3
*Model_Space
  1

  0
ENDBLK
  5
21
330
1F
100
AcDbEntity
  8
0
100
AcDbBlockEnd
  0
BLOCK
  5
1C
330
1B
100
AcDbEntity
 67
     1
  8
0
100
AcDbBlockBegin
  2
*Paper_Space
 70
     0
 10
0.0
 20
0.0
 30
0.0
  3
*Paper_Space
  1

  0
ENDBLK
  5
1D
330
1B
100
AcDbEntity
 67
     1
  8
0
100
AcDbBlockEnd
  0
BLOCK
  5
24
330
23
100
AcDbEntity
  8
0
100
AcDbBlockBegin
  2
*Paper_Space0
 70
     0
 10
0.0
 20
0.0
 30
0.0
  3
*Paper_Space0
  1

  0
ENDBLK
  5
25
330
23
100
AcDbEntity
  8
0
100
AcDbBlockEnd
  0
BLOCK
  5
4A
330
49
100
AcDbEntity
  8
0
100
AcDbBlockBegin
  2
*D1
 70
     1
 10
0.0
 20
0.0
 30
0.0
  3
*D1
  1

  0
SOLID
  5
4C
330
49
100
AcDbEntity
  8
0
  6
Continuous
 62
     7
370
     0
100
AcDbTrace
 10
42.7614395004
 20
152.0299240879
 30
0.0
 11
42.4614395004
 21
149.5299240879
 31
0.0
 12
43.0614395004
 22
149.5299240879
 32
0.0
 13
43.0614395004
 23
149.5299240879
 33
0.0
  0
SOLID
  5
4D
330
49
100
AcDbEntity
  8
0
  6
Continuous
 62
     7
370
     0
100
AcDbTrace
 10
42.7614395004
 20
52.0299240879
 30
0.0
 11
43.0614395004
 21
54.5299240879
 31
0.0
 12
42.4614395004
 22
54.5299240879
 32
0.0
 13
42.4614395004
 23
54.5299240879
 33
0.0
  0
LINE
  5
4E
330
49
100
AcDbEntity
  8
0
  6
Continuous
 62
     7
370
     0
100
AcDbLine
 10
56.6850079902
 20
152.0299240879
 30
0.0
 11
41.7614395004
 21
152.0299240879
 31
0.0
  0
LINE
  5
4F
330
49
100
AcDbEntity
  8
0
  6
Continuous
 62
     7
370
     0
100
AcDbLine
 10
56.6850079902
 20
52.0299240879
 30
0.0
 11
41.7614395004
 21
52.0299240879
 31
0.0
  0
LINE
  5
50
330
49
100
AcDbEntity
  8
0
  6
Continuous
 62
     7
370
     0
100
AcDbLine
 10
42.7614395004
 20
152.0299240879
 30
0.0
 11
42.7614395004
 21
52.0299240879
 31
0.0
  0
MTEXT
  5
51
330
49
100
AcDbEntity
  8
0
  6
Continuous
 62
     7
370
     0
100
AcDbMText
 10
35.0270329453
 20
91.6722208134
 30
0.1
 40
6.0
 41
0.0
 46
0.0
 71
     1
 72
     1
  1
100
  7
SLDTEXTSTYLE0
 11
-7.044195017643634E-15
 21
1.0
 31
0.0
 73
     1
 44
1.0
  0
MTEXT
  5
52
330
49
100
AcDbEntity
  8
0
  6
Continuous
 62
     7
370
     0
100
AcDbMText
 10
35.0270329453
 20
108.4388881795
 30
0.1
 40
6.0
 41
0.0
 46
0.0
 71
     1
 72
     1
  1
mm
  7
SLDTEXTSTYLE0
 11
-7.044195017643634E-15
 21
1.0
 31
0.0
 73
     1
 44
1.0
  0
ENDBLK
  5
4B
330
49
100
AcDbEntity
  8
0
100
AcDbBlockEnd
  0
BLOCK
  5
55
330
54
100
AcDbEntity
  8
0
100
AcDbBlockBegin
  2
*D2
 70
     1
 10
0.0
 20
0.0
 30
0.0
  3
*D2
  1

  0
SOLID
  5
57
330
54
100
AcDbEntity
  8
0
  6
Continuous
 62
     7
370
     0
100
AcDbTrace
 10
56.6850079902
 20
38.4602342313
 30
0.0
 11
59.1850079902
 21
38.1602342313
 31
0.0
 12
59.1850079902
 22
38.7602342313
 32
0.0
 13
59.1850079902
 23
38.7602342313
 33
0.0
  0
SOLID
  5
58
330
54
100
AcDbEntity
  8
0
  6
Continuous
 62
     7
370
     0
100
AcDbTrace
 10
156.6850079902
 20
38.4602342313
 30
0.0
 11
154.1850079902
 21
38.7602342313
 31
0.0
 12
154.1850079902
 22
38.1602342313
 32
0.0
 13
154.1850079902
 23
38.1602342313
 33
0.0
  0
LINE
  5
59
330
54
100
AcDbEntity
  8
0
  6
Continuous
 62
     7
370
     0
100
AcDbLine
 10
56.6850079902
 20
52.0299240879
 30
0.0
 11
56.6850079902
 21
37.4602342313
 31
0.0
  0
LINE
  5
5A
330
54
100
AcDbEntity
  8
0
  6
Continuous
 62
     7
370
     0
100
AcDbLine
 10
156.6850079902
 20
52.0299240879
 30
0.0
 11
156.6850079902
 21
37.4602342313
 31
0.0
  0
LINE
  5
5B
330
54
100
AcDbEntity
  8
0
  6
Continuous
 62
     7
370
     0
100
AcDbLine
 10
56.6850079902
 20
38.4602342313
 30
0.0
 11
156.6850079902
 21
38.4602342313
 31
0.0
  0
MTEXT
  5
5C
330
54
100
AcDbEntity
  8
0
  6
Continuous
 62
     7
370
     0
100
AcDbMText
 10
91.2668151533
 20
46.1946407863
 30
0.1
 40
6.0
 41
0.0
 46
0.0
 71
     1
 72
     1
  1
100
  7
SLDTEXTSTYLE0
 73
     1
 44
1.0
  0
MTEXT
  5
5D
330
54
100
AcDbEntity
  8
0
  6
Continuous
 62
     7
370
     0
100
AcDbMText
 10
108.0334825193
 20
46.1946407863
 30
0.1
 40
6.0
 41
0.0
 46
0.0
 71
     1
 72
     1
  1
mm
  7
SLDTEXTSTYLE0
 73
     1
 44
1.0
  0
ENDBLK
  5
56
330
54
100
AcDbEntity
  8
0
100
AcDbBlockEnd
  0
ENDSEC
  0
SECTION
  2
ENTITIES
  0
LINE
  5
44
330
1F
100
AcDbEntity
  8
0
  6
Continuous
 62
     7
370
     0
100
AcDbLine
 10
56.6850079902
 20
152.0299240879
 30
0.0
 11
56.6850079902
 21
52.0299240879
 31
0.0
  0
LINE
  5
45
330
1F
100
AcDbEntity
  8
0
  6
Continuous
 62
     7
370
     0
100
AcDbLine
 10
56.6850079902
 20
52.0299240879
 30
0.0
 11
156.6850079902
 21
52.0299240879
 31
0.0
  0
DIMENSION
  5
46
330
1F
100
AcDbEntity
  8
0
  6
Continuous
 62
     7
370
     0
100
AcDbDimension
280
     0
  2
*D1
 10
42.7614395004
 20
52.0299240879
 30
0.0
 11
42.7614395004
 21
105.4472211621
 31
0.0
 70
   160
  1
<>mm
 71
     2
 42
-1.0
 73
     0
 74
     0
 75
     0
  3
SLDDIMSTYLE0
100
AcDbAlignedDimension
 13
56.6850079902
 23
152.0299240879
 33
0.0
 14
56.6850079902
 24
52.0299240879
 34
0.0
 50
90.0
100
AcDbRotatedDimension
  0
DIMENSION
  5
53
330
1F
100
AcDbEntity
  8
0
  6
Continuous
 62
     7
370
     0
100
AcDbDimension
280
     0
  2
*D2
 10
156.6850079902
 20
38.4602342313
 30
0.0
 11
105.0418155019
 21
38.4602342313
 31
0.0
 70
   160
  1
<>mm
 71
     2
 42
-1.0
 73
     0
 74
     0
 75
     0
  3
SLDDIMSTYLE0
100
AcDbAlignedDimension
 13
56.6850079902
 23
52.0299240879
 33
0.0
 14
156.6850079902
 24
52.0299240879
 34
0.0
100
AcDbRotatedDimension
  0
MTEXT
  5
5F
330
1F
100
AcDbEntity
  8
0
  6
Continuous
 62
     7
370
     0
100
AcDbMText
 10
532.3854216414
 20
49.3079241738
 30
0.0
 40
10.0
 41
0.0
 46
0.0
 71
     1
 72
     1
  1
53 979 05
  7
SLDTEXTSTYLE1
 73
     1
 44
1.0
  0
MTEXT
  5
60
330
1F
100
AcDbEntity
  8
0
  6
Continuous
 62
     7
370
     0
100
AcDbMText
 10
1007.6538988942
 20
47.9367134955
 30
0.0
 40
10.0
 41
0.0
 46
0.0
 71
     1
 72
     1
  1
KLUDI GmbH & Co KG
  7
SLDTEXTSTYLE1
 73
     1
 44
1.0
  0
LWPOLYLINE
  5
61
330
1F
100
AcDbEntity
  8
0
  6
Continuous
 62
     7
370
    15
100
AcDbPolyline
 90
       12
 70
   128
 43
0.0
 10
112.0867381883
 20
577.9492092398
 10
112.0789225292
 20
577.9402536419
 10
112.334050898
 20
577.9969907445
 10
112.8632209343
 20
578.1320232046
 10
113.6513806027
 20
578.3344908696
 10
114.5774598313
 20
578.5622169343
 10
116.7717061085
 20
579.0536078703
 10
119.4506182414
 20
579.5790609983
 10
123.2065239069
 20
580.1932859313
 10
126.4624937517
 20
580.5922496211
 10
130.3352454756
 20
580.9093062845
 10
130.4183022198
 20
580.9133016583
  0
ARC
  5
62
330
1F
100
AcDbEntity
  8
0
  6
Continuous
 62
     7
370
    15
100
AcDbCircle
 10
861.878688914
 20
463.1145796823
 30
0.0
 40
118.1938273940024
100
AcDbArc
 50
76.5480915504
 51
85.105150702
  0
ARC
  5
63
330
1F
100
AcDbEntity
  8
0
  6
Continuous
 62
     7
370
    15
100
AcDbCircle
 10
139.8976926875
 20
719.0494425866
 30
0.0
 40
118.2102848967482
100
AcDbArc
 50
256.5487028264
 51
265.1045934512
  0
LWPOLYLINE
  5
64
330
1F
100
AcDbEntity
  8
0
  6
Continuous
 62
     7
370
    15
100
AcDbPolyline
 90
       12
 70
   128
 43
0.0
 10
889.6870582444
 20
604.1985136536
 10
889.6948664528
 20
604.2074692514
 10
889.4397585732
 20
604.1507321489
 10
888.9105885369
 20
604.0156996888
 10
888.122436319
 20
603.8132320237
 10
887.1963589531
 20
603.5855059591
 10
885.0020735604
 20
603.094115023
 10
882.3232024056
 20
602.5686618951
 10
878.5672753197
 20
601.954436962
 10
875.3113119942
 20
601.5554732722
 10
871.4385598046
 20
601.2384166089
 10
871.3555305344
 20
601.234421235
  0
LINE
  5
65
330
1F
100
AcDbEntity
  8
0
  6
Continuous
 62
     7
370
    15
100
AcDbLine
 10
136.3369045043
 20
581.0738616702
 30
0.0
 11
865.4369085175
 21
581.0738616702
 31
0.0
  0
LINE
  5
66
330
1F
100
AcDbEntity
  8
0
  6
Continuous
 62
     7
370
    15
100
AcDbLine
 10
865.4369085175
 20
601.0738612232
 30
0.0
 11
136.3369045043
 21
601.0738612232
 31
0.0
  0
ARC
  5
67
330
1F
100
AcDbEntity
  8
0
  6
Continuous
 62
     7
370
    15
100
AcDbCircle
 10
136.3369045121
 20
600.6238614467
 30
0.0
 40
0.4500000000000455
100
AcDbArc
 50
90.0
 51
180.0
  0
ARC
  5
68
330
1F
100
AcDbEntity
  8
0
  6
Continuous
 62
     7
370
    15
100
AcDbCircle
 10
136.3369045121
 20
581.5238614467
 30
0.0
 40
0.4499999999999602
100
AcDbArc
 50
180.0
 51
270.0
  0
ARC
  5
69
330
1F
100
AcDbEntity
  8
0
  6
Continuous
 62
     7
370
    15
100
AcDbCircle
 10
865.4369045121
 20
600.6238614467
 30
0.0
 40
0.4500000000000455
100
AcDbArc
 50
0.0
 51
90.0
  0
ARC
  5
6A
330
1F
100
AcDbEntity
  8
0
  6
Continuous
 62
     7
370
    15
100
AcDbCircle
 10
865.4369045121
 20
581.5238614467
 30
0.0
 40
0.4500000000000455
100
AcDbArc
 50
270.0
 51
0.0
  0
LWPOLYLINE
  5
6B
330
1F
100
AcDbEntity
  8
0
  6
Continuous
 62
     7
370
    15
100
AcDbPolyline
 90
        3
 70
   128
 43
0.0
 10
110.9835027796
 20
604.6341919419
 10
110.2144203228
 20
604.9617809322
 10
100.6694330913
 20
608.1187409428
  0
LWPOLYLINE
  5
6C
330
1F
100
AcDbEntity
  8
0
  6
Continuous
 62
     7
370
    15
100
AcDbPolyline
 90
        3
 70
   128
 43
0.0
 10
901.1043875557
 20
608.1187409428
 10
892.135736261
 20
605.176076394
 10
891.0498588425
 20
604.7182568428
  0
LWPOLYLINE
  5
6D
330
1F
100
AcDbEntity
  8
0
  6
Continuous
 62
     7
370
    15
100
AcDbPolyline
 90
        3
 70
   128
 43
0.0
 10
100.6694330913
 20
574.0289819506
 10
109.638058309
 20
576.9716464993
 10
110.7239599419
 20
577.4294651192
  0
LWPOLYLINE
  5
6E
330
1F
100
AcDbEntity
  8
0
  6
Continuous
 62
     7
370
    15
100
AcDbPolyline
 90
        3
 70
   128
 43
0.0
 10
890.7902806145
 20
577.5135309514
 10
891.5593593461
 20
577.1859419611
 10
901.1043875557
 20
574.0289819506
  0
LWPOLYLINE
  5
6F
330
1F
100
AcDbEntity
  8
0
  6
Continuous
 62
     7
370
    15
100
AcDbPolyline
 90
       10
 70
   128
 43
0.0
 10
82.3656885964
 20
570.5483258781
 10
80.5154672903
 20
573.7374854353
 10
78.828383897
 20
578.3108492461
 10
77.7965939683
 20
583.0856972453
 10
77.2162570697
 20
588.8645666265
 10
77.2929011923
 20
594.6905162264
 10
78.0381678683
 20
600.4486355078
 10
79.0850191456
 20
604.6966855493
 10
80.6837051255
 20
608.7605916974
 10
82.3656848711
 20
611.5993914273
  0
LWPOLYLINE
  5
70
330
1F
100
AcDbEntity
  8
0
  6
Continuous
 62
     7
370
    15
100
AcDbPolyline
 90
       10
 70
   128
 43
0.0
 10
919.4081395012
 20
570.5483258781
 10
921.2583272797
 20
573.7374854353
 10
922.9454367501
 20
578.3108492461
 10
923.9771931511
 20
583.0856972453
 10
924.5575635773
 20
588.8645666265
 10
924.4809120041
 20
594.6905162264
 10
923.7356155259
 20
600.4486355078
 10
922.6887791497
 20
604.6966855493
 10
921.0901229722
 20
608.7605916974
 10
919.4081395012
 20
611.5993914273
  0
ARC
  5
71
330
1F
100
AcDbEntity
  8
0
  6
Continuous
 62
     7
370
    15
100
AcDbCircle
 10
135.8588252944
 20
693.0029464666
 30
0.0
 40
91.92893714954762
100
AcDbArc
 50
266.2273684255
 51
269.7075308468
  0
ARC
  5
72
330
1F
100
AcDbEntity
  8
0
  6
Continuous
 62
     7
370
    15
100
AcDbCircle
 10
866.0741975834
 20
686.486838579
 30
0.0
 40
85.41219440641937
100
AcDbArc
 50
270.2079981515
 51
273.5448984875
  0
ARC
  5
73
330
1F
100
AcDbEntity
  8
0
  6
Continuous
 62
     7
370
    15
100
AcDbCircle
 10
135.6996214994
 20
495.6602530577
 30
0.0
 40
85.41282559652517
100
AcDbArc
 50
90.2079851006
 51
93.544884664
  0
ARC
  5
74
330
1F
100
AcDbEntity
  8
0
  6
Continuous
 62
     7
370
    15
100
AcDbCircle
 10
865.9149264401
 20
489.1426298122
 30
0.0
 40
91.93108416752406
100
AcDbArc
 50
86.2274086743
 51
89.7074850047
  0
LINE
  5
75
330
1F
100
AcDbEntity
  8
0
  6
Continuous
 62
     7
370
    15
100
AcDbLine
 10
889.6613686425
 20
577.9664498833
 30
0.0
 11
889.3808691842
 21
578.0672785905
 31
0.0
  0
LINE
  5
76
330
1F
100
AcDbEntity
  8
0
  6
Continuous
 62
     7
370
    15
100
AcDbLine
 10
112.1124389661
 20
604.1812730101
 30
0.0
 11
112.39291421
 21
604.0804443028
 31
0.0
  0
LINE
  5
77
330
1F
100
AcDbEntity
  8
0
  6
Continuous
 62
     7
370
    15
100
AcDbLine
 10
135.8869045121
 20
581.5238618371
 30
0.0
 11
135.8869045121
 21
600.6238610563
 31
0.0
  0
LINE
  5
78
330
1F
100
AcDbEntity
  8
0
  6
Continuous
 62
     7
370
    15
100
AcDbLine
 10
865.8869235856
 20
600.6238610563
 30
0.0
 11
865.8869235856
 21
581.5238618371
 31
0.0
  0
ARC
  5
79
330
1F
100
AcDbEntity
  8
0
  6
Continuous
 62
     7
370
    15
100
AcDbCircle
 10
83.6922832206
 20
571.3039826167
 30
0.0
 40
1.526829261790733
100
AcDbArc
 50
209.6669802207
 51
291.1687086811
  0
ARC
  5
7A
330
1F
100
AcDbEntity
  8
0
  6
Continuous
 62
     7
370
    15
100
AcDbCircle
 10
918.0815325613
 20
571.3039445093
 30
0.0
 40
1.526791969017343
100
AcDbArc
 50
248.8309451582
 51
330.3338683803
  0
ARC
  5
7B
330
1F
100
AcDbEntity
  8
0
  6
Continuous
 62
     7
370
    15
100
AcDbCircle
 10
83.6915759011
 20
610.8457286199
 30
0.0
 40
1.525231135683019
100
AcDbArc
 50
68.7795409043
 51
150.3847701939
  0
ARC
  5
7C
330
1F
100
AcDbEntity
  8
0
  6
Continuous
 62
     7
370
    15
100
AcDbCircle
 10
918.0822403934
 20
610.8457681408
 30
0.0
 40
1.525192719205844
100
AcDbArc
 50
29.6143424055
 51
111.220844056
  0
LWPOLYLINE
  5
7D
330
1F
100
AcDbEntity
  8
0
  6
Continuous
 62
     7
370
    15
100
AcDbPolyline
 90
        3
 70
   128
 43
0.0
 10
84.2436446887
 20
612.2675408688
 10
97.7155386549
 20
608.9768708762
 10
100.6537831468
 20
608.0677007404
  0
LWPOLYLINE
  5
7E
330
1F
100
AcDbEntity
  8
0
  6
Continuous
 62
     7
370
    15
100
AcDbPolyline
 90
        3
 70
   128
 43
0.0
 10
917.5301759583
 20
612.2675408688
 10
904.0582745415
 20
608.9768708762
 10
901.1200635773
 20
608.0677063283
  0
LWPOLYLINE
  5
7F
330
1F
100
AcDbEntity
  8
0
  6
Continuous
 62
     7
370
    15
100
AcDbPolyline
 90
        3
 70
   128
 43
0.0
 10
84.2436446887
 20
569.8801820245
 10
97.7155386549
 20
573.1708520171
 10
100.6537682456
 20
574.080016565
  0
LWPOLYLINE
  5
80
330
1F
100
AcDbEntity
  8
0
  6
Continuous
 62
     7
370
    15
100
AcDbPolyline
 90
        3
 70
   128
 43
0.0
 10
917.5301759583
 20
569.8801820245
 10
904.0582745415
 20
573.1708520171
 10
901.1200039727
 20
574.080022153
  0
LWPOLYLINE
  5
81
330
1F
100
AcDbEntity
  8
0
  6
Continuous
 62
     7
370
     0
100
AcDbPolyline
 90
        8
 70
   128
 43
0.0
 10
101.6954041165
 20
591.0738602465
 10
101.709154163
 20
595.7284449679
 10
101.7686060709
 20
598.041806471
 10
101.8666221839
 20
600.2508132797
 10
101.9237234336
 20
601.2000451875
 10
101.9729084414
 20
601.9551196214
 10
102.0278862757
 20
602.968136881
 10
101.9143878561
 20
604.1303082448
  0
LWPOLYLINE
  5
82
330
1F
100
AcDbEntity
  8
0
  6
Continuous
 62
     7
370
     0
100
AcDbPolyline
 90
        7
 70
   128
 43
0.0
 10
101.9143878561
 20
578.0174146485
 10
102.0277596158
 20
579.183829118
 10
101.9724576813
 20
580.1995574576
 10
101.8662273032
 20
581.9039848712
 10
101.7685799939
 20
584.1066340063
 10
101.7090535802
 20
586.4244416435
 10
101.6954041165
 20
591.0738625991
  0
ARC
  5
83
330
1F
100
AcDbEntity
  8
0
  6
Continuous
 62
     7
370
     0
100
AcDbCircle
 10
98.1885195001
 20
579.7892934659
 30
0.0
 40
4.1256816005379
100
AcDbArc
 50
276.7532271598
 51
334.5667435852
  0
ARC
  5
84
330
1F
100
AcDbEntity
  8
0
  6
Continuous
 62
     7
370
     0
100
AcDbCircle
 10
53.4157122954
 20
690.7520017572
 30
0.0
 40
123.6407383019495
100
AcDbArc
 50
283.5412448715
 51
291.4718492192
  0
ARC
  5
85
330
1F
100
AcDbEntity
  8
0
  6
Continuous
 62
     7
370
     0
100
AcDbCircle
 10
53.4157989624
 20
491.3959958995
 30
0.0
 40
123.6404508838762
100
AcDbArc
 50
68.5281415482
 51
76.4587643611
  0
ARC
  5
86
330
1F
100
AcDbEntity
  8
0
  6
Continuous
 62
     7
370
     0
100
AcDbCircle
 10
98.1885236642
 20
602.358435231
 30
0.0
 40
4.12567534750838
100
AcDbArc
 50
25.4332084633
 51
83.2468207916
  0
ARC
  5
87
330
1F
100
AcDbEntity
  8
0
  6
Continuous
 62
     7
370
     0
100
AcDbCircle
 10
948.3581510122
 20
491.3954730943
 30
0.0
 40
123.6409929263743
100
AcDbArc
 50
103.5412438908
 51
111.4718351808
  0
ARC
  5
88
330
1F
100
AcDbEntity
  8
0
  6
Continuous
 62
     7
370
     0
100
AcDbCircle
 10
948.3581510122
 20
690.752249799
 30
0.0
 40
123.6409929263743
100
AcDbArc
 50
248.5281648192
 51
256.4587561092
  0
ARC
  5
89
330
1F
100
AcDbEntity
  8
0
  6
Continuous
 62
     7
370
     0
100
AcDbCircle
 10
903.5854553816
 20
579.7895522908
 30
0.0
 40
4.125958959403092
100
AcDbArc
 50
205.4354047478
 51
263.2448116886
  0
LWPOLYLINE
  5
8A
330
1F
100
AcDbEntity
  8
0
  6
Continuous
 62
     7
370
     0
100
AcDbPolyline
 90
        7
 70
   128
 43
0.0
 10
899.8594253403
 20
578.0174146485
 10
899.746057306
 20
579.183829118
 10
899.8013704163
 20
580.1995574576
 10
899.9075858933
 20
581.9039848712
 10
900.0052183014
 20
584.1066340063
 10
900.0647633416
 20
586.4244416435
 10
900.0784128052
 20
591.0738625991
  0
LWPOLYLINE
  5
8B
330
1F
100
AcDbEntity
  8
0
  6
Continuous
 62
     7
370
     0
100
AcDbPolyline
 90
        8
 70
   128
 43
0.0
 10
900.0784128052
 20
591.0738602465
 10
900.0646441323
 20
595.7284449679
 10
900.0052183014
 20
598.041806471
 10
899.9071686608
 20
600.2508132797
 10
899.8500674111
 20
601.2000451875
 10
899.8008935791
 20
601.9551196214
 10
899.7459380967
 20
602.968136881
 10
899.8594253403
 20
604.1303082448
  0
ARC
  5
8C
330
1F
100
AcDbEntity
  8
0
  6
Continuous
 62
     7
370
     0
100
AcDbCircle
 10
903.5854590891
 20
602.3581654353
 30
0.0
 40
4.125964526865308
100
AcDbArc
 50
96.755230999
 51
154.5645525647
  0
LWPOLYLINE
  5
8D
330
1F
100
AcDbEntity
  8
0
  6
Continuous
 62
     7
370
     0
100
AcDbPolyline
 90
        7
 70
   128
 43
0.0
 10
103.6085381252
 20
591.0738615923
 10
102.9748215419
 20
591.0738616625
 10
102.660474096
 20
591.0738617422
 10
102.3794642729
 20
591.0738618594
 10
102.1449721497
 20
591.073862013
 10
101.9569604737
 20
591.0738621957
 10
101.6954041165
 20
591.0738625991
  0
LWPOLYLINE
  5
8E
330
1F
100
AcDbEntity
  8
0
  6
Continuous
 62
     7
370
     0
100
AcDbPolyline
 90
        8
 70
   128
 43
0.0
 10
103.6085381252
 20
591.0738615923
 10
103.6641827864
 20
586.3156100814
 10
103.7715121252
 20
583.8526125145
 10
103.9216525001
 20
581.343988989
 10
103.9842262012
 20
580.1957278591
 10
104.0138310832
 20
579.2988577005
 10
104.001612131
 20
578.2125900578
 10
103.7844388825
 20
577.1041988474
  0
ARC
  5
8F
330
1F
100
AcDbEntity
  8
0
  6
Continuous
 62
     7
370
     0
100
AcDbCircle
 10
103.2980236508
 20
578.4795058207
 30
0.0
 40
1.458755811439459
100
AcDbArc
 50
198.4673983961
 51
289.477557977
  0
LWPOLYLINE
  5
90
330
1F
100
AcDbEntity
  8
0
  6
Continuous
 62
     7
370
     0
100
AcDbPolyline
 90
        8
 70
   128
 43
0.0
 10
898.1652825219
 20
591.0738615923
 10
898.1096117836
 20
586.3156100814
 10
898.002323423
 20
583.8526125145
 10
897.8521793229
 20
581.343988989
 10
897.7895944458
 20
580.1957278591
 10
897.7599709374
 20
579.2988577005
 10
897.7721898896
 20
578.2125900578
 10
897.9893892151
 20
577.1041988474
  0
LWPOLYLINE
  5
91
330
1F
100
AcDbEntity
  8
0
  6
Continuous
 62
     7
370
     0
100
AcDbPolyline
 90
        7
 70
   128
 43
0.0
 10
898.1652825219
 20
591.073861301
 10
898.7989991051
 20
591.0738612128
 10
899.1133540017
 20
591.0738611244
 10
899.3943302971
 20
591.073861
 10
899.6288149697
 20
591.0738608408
 10
899.8168676239
 20
591.0738606541
 10
900.0784128052
 20
591.0738602465
  0
ARC
  5
92
330
1F
100
AcDbEntity
  8
0
  6
Continuous
 62
     7
370
     0
100
AcDbCircle
 10
898.4757544072
 20
578.4795349111
 30
0.0
 40
1.458801010504597
100
AcDbArc
 50
250.5246889328
 51
341.5316427965
  0
ARC
  5
93
330
1F
100
AcDbEntity
  8
0
  6
Continuous
 62
     7
370
     0
100
AcDbCircle
 10
103.2980730874
 20
603.6681637552
 30
0.0
 40
1.458830755067274
100
AcDbArc
 50
70.5225938727
 51
161.5331507849
  0
LWPOLYLINE
  5
94
330
1F
100
AcDbEntity
  8
0
  6
Continuous
 62
     7
370
     0
100
AcDbPolyline
 90
        8
 70
   128
 43
0.0
 10
103.7844388825
 20
605.0435240459
 10
104.0013774377
 20
603.9393675592
 10
104.0139726442
 20
602.8568000612
 10
103.9847700936
 20
601.9641283047
 10
103.9221665901
 20
600.812189382
 10
103.7715531033
 20
598.2958931555
 10
103.6643653256
 20
595.8374884058
 10
103.6085381252
 20
591.073861301
  0
LWPOLYLINE
  5
95
330
1F
100
AcDbEntity
  8
0
  6
Continuous
 62
     7
370
     0
100
AcDbPolyline
 90
        8
 70
   128
 43
0.0
 10
897.9893892151
 20
605.0435240459
 10
897.7724283081
 20
603.9393675592
 10
897.7598517281
 20
602.8568000612
 10
897.789058004
 20
601.9641283047
 10
897.8516428811
 20
600.812189382
 10
898.0022638184
 20
598.2958931555
 10
898.1094329697
 20
595.8374884058
 10
898.1652825219
 20
591.073861301
  0
ARC
  5
96
330
1F
100
AcDbEntity
  8
0
  6
Continuous
 62
     7
370
     0
100
AcDbCircle
 10
898.4757918723
 20
603.6682499611
 30
0.0
 40
1.45872489852145
100
AcDbArc
 50
18.4640508792
 51
109.4804124301
  0
LWPOLYLINE
  5
97
330
1F
100
AcDbEntity
  8
0
  6
Continuous
 62
     7
370
     0
100
AcDbPolyline
 90
        3
 70
   128
 43
0.0
 10
103.7844612342
 20
605.0434765485
 10
107.4169750405
 20
604.3604650614
 10
111.9374453169
 20
603.5458828401
  0
ARC
  5
98
330
1F
100
AcDbEntity
  8
0
  6
Continuous
 62
     7
370
     0
100
AcDbCircle
 10
142.384557175
 20
771.5753155124
 30
0.0
 40
170.7656874036617
100
AcDbArc
 50
259.7293846261
 51
265.7771784386
  0
LWPOLYLINE
  5
99
330
1F
100
AcDbEntity
  8
0
  6
Continuous
 62
     7
370
     0
100
AcDbPolyline
 90
        8
 70
   128
 43
0.0
 10
135.3891199301
 20
591.0738617769
 10
135.3891199301
 20
591.0739214354
 10
135.3892937382
 20
593.2758451518
 10
135.3899156288
 20
596.3775428091
 10
135.3898983994
 20
598.8852270958
 10
135.3893926912
 20
600.5118602034
 10
135.3893690007
 20
600.9015758601
 10
135.3896100386
 20
601.0752069843
  0
LWPOLYLINE
  5
9A
330
1F
100
AcDbEntity
  8
0
  6
Continuous
 62
     7
370
     0
100
AcDbPolyline
 90
        5
 70
   128
 43
0.0
 10
135.3891199301
 20
591.0738611164
 10
126.5920640049
 20
591.0738583252
 10
118.2948115361
 20
591.0738593099
 10
110.8834936363
 20
591.0738610055
 10
103.6085381252
 20
591.0738615923
  0
LWPOLYLINE
  5
9B
330
1F
100
AcDbEntity
  8
0
  6
Continuous
 62
     7
370
     0
100
AcDbPolyline
 90
        8
 70
   128
 43
0.0
 10
866.3846819741
 20
591.0738617769
 10
866.3846819741
 20
591.0739214354
 10
866.3845031601
 20
593.2758451518
 10
866.3839071137
 20
596.3775428091
 10
866.3839071137
 20
598.8852270958
 10
866.3844435555
 20
600.5118602034
 10
866.3844435555
 20
600.9015758601
 10
866.3842051369
 20
601.0752069843
  0
ARC
  5
9C
330
1F
100
AcDbEntity
  8
0
  6
Continuous
 62
     7
370
     0
100
AcDbCircle
 10
859.7790478522
 20
769.0942411918
 30
0.0
 40
168.2548796431657
100
AcDbArc
 50
273.9451714217
 51
280.2906465378
  0
LWPOLYLINE
  5
9D
330
1F
100
AcDbEntity
  8
0
  6
Continuous
 62
     7
370
     0
100
AcDbPolyline
 90
        3
 70
   128
 43
0.0
 10
897.9893296105
 20
605.0434765485
 10
894.3568437439
 20
604.3604650614
 10
889.8363678795
 20
603.5458828401
  0
LWPOLYLINE
  5
9E
330
1F
100
AcDbEntity
  8
0
  6
Continuous
 62
     7
370
     0
100
AcDbPolyline
 90
        5
 70
   128
 43
0.0
 10
866.3846819741
 20
591.0738617769
 10
875.1817314965
 20
591.0738645682
 10
883.4789960724
 20
591.0738635834
 10
890.8902972084
 20
591.0738618878
 10
898.1652825219
 20
591.073861301
  0
LWPOLYLINE
  5
9F
330
1F
100
AcDbEntity
  8
0
  6
Continuous
 62
     7
370
     0
100
AcDbPolyline
 90
        3
 70
   128
 43
0.0
 10
103.7844612342
 20
577.1042463449
 10
107.4169750405
 20
577.787257832
 10
111.9374453169
 20
578.6018400532
  0
LWPOLYLINE
  5
A0
330
1F
100
AcDbEntity
  8
0
  6
Continuous
 62
     7
370
     0
100
AcDbPolyline
 90
        8
 70
   128
 43
0.0
 10
135.3896100386
 20
581.0725159091
 10
135.3893926912
 20
581.6358626899
 10
135.3898983994
 20
583.2624957976
 10
135.3899156288
 20
585.7701800842
 10
135.3892937382
 20
588.8718777415
 10
135.3891749945
 20
589.8598244958
 10
135.3891199301
 20
591.073801458
 10
135.3891199301
 20
591.073861458
  0
ARC
  5
A1
330
1F
100
AcDbEntity
  8
0
  6
Continuous
 62
     7
370
     0
100
AcDbCircle
 10
141.994679397
 20
413.0542330395
 30
0.0
 40
168.2541250372973
100
AcDbArc
 50
93.9451640978
 51
100.2906634471
  0
LWPOLYLINE
  5
A2
330
1F
100
AcDbEntity
  8
0
  6
Continuous
 62
     7
370
     0
100
AcDbPolyline
 90
        8
 70
   128
 43
0.0
 10
866.3842051369
 20
581.0725159091
 10
866.3844435555
 20
581.6358626899
 10
866.3839071137
 20
583.2624957976
 10
866.3839071137
 20
585.7701800842
 10
866.3845031601
 20
588.8718777415
 10
866.3846223694
 20
589.8598244958
 10
866.3846819741
 20
591.073801458
 10
866.3846819741
 20
591.073861458
  0
LWPOLYLINE
  5
A3
330
1F
100
AcDbEntity
  8
0
  6
Continuous
 62
     7
370
     0
100
AcDbPolyline
 90
        3
 70
   128
 43
0.0
 10
897.9893296105
 20
577.1042463449
 10
894.3568437439
 20
577.787257832
 10
889.8363678795
 20
578.6018400532
  0
ARC
  5
A4
330
1F
100
AcDbEntity
  8
0
  6
Continuous
 62
     7
370
     0
100
AcDbCircle
 10
859.389048601
 20
410.5708612017
 30
0.0
 40
170.7672457904809
100
AcDbArc
 50
79.7294086437
 51
85.7771420922
  0
LWPOLYLINE
  5
A5
330
1F
100
AcDbEntity
  8
0
  6
Continuous
 62
     7
370
     0
100
AcDbPolyline
 90
       10
 70
   128
 43
0.0
 10
108.0224650991
 20
576.55446614
 10
108.420819704
 20
576.7368703228
 10
108.8167528701
 20
576.914601129
 10
109.1996624214
 20
577.0738954735
 10
109.5870348704
 20
577.2161726919
 10
109.9842607123
 20
577.3515264583
 10
110.4748721314
 20
577.5389495385
 10
110.9647254539
 20
577.786533263
 10
111.4526397628
 20
578.1256566834
 10
111.9374453169
 20
578.6018400532
  0
LWPOLYLINE
  5
A6
330
1F
100
AcDbEntity
  8
0
  6
Continuous
 62
     7
370
     0
100
AcDbPolyline
 90
        3
 70
   128
 43
0.0
 10
108.0224650991
 20
576.55446614
 10
111.4555063737
 20
577.7302878988
 10
112.3765899879
 20
578.0614103269
  0
LWPOLYLINE
  5
A7
330
1F
100
AcDbEntity
  8
0
  6
Continuous
 62
     7
370
     0
100
AcDbPolyline
 90
       10
 70
   128
 43
0.0
 10
893.7513201577
 20
576.55446614
 10
893.3529823166
 20
576.7368703228
 10
892.9570286614
 20
576.914601129
 10
892.5741284234
 20
577.0738954735
 10
892.186757837
 20
577.2161726919
 10
891.7895524842
 20
577.3515264583
 10
891.298946653
 20
577.5389495385
 10
890.8090560776
 20
577.786533263
 10
890.3211920601
 20
578.1256566834
 10
889.8363678795
 20
578.6018400532
  0
LWPOLYLINE
  5
A8
330
1F
100
AcDbEntity
  8
0
  6
Continuous
 62
     7
370
     0
100
AcDbPolyline
 90
        3
 70
   128
 43
0.0
 10
893.7513201577
 20
576.55446614
 10
890.3183310372
 20
577.7302878988
 10
889.9907439095
 20
577.8480461877
  0
LWPOLYLINE
  5
A9
330
1F
100
AcDbEntity
  8
0
  6
Continuous
 62
     7
370
     0
100
AcDbPolyline
 90
       10
 70
   128
 43
0.0
 10
108.0224650991
 20
605.5932567534
 10
108.420819704
 20
605.4108525705
 10
108.8167528701
 20
605.2331217644
 10
109.1996624214
 20
605.0738274199
 10
109.5870348704
 20
604.9315502015
 10
109.9842607123
 20
604.7961964351
 10
110.4748721314
 20
604.6087733549
 10
110.9647254539
 20
604.3611896303
 10
111.4526397628
 20
604.0220662099
 10
111.9374453169
 20
603.5458828401
  0
LWPOLYLINE
  5
AA
330
1F
100
AcDbEntity
  8
0
  6
Continuous
 62
     7
370
     0
100
AcDbPolyline
 90
        3
 70
   128
 43
0.0
 10
108.0224650991
 20
605.5932567534
 10
111.4555063737
 20
604.4174349946
 10
111.7830748749
 20
604.2996767056
  0
LINE
  5
AB
330
1F
100
AcDbEntity
  8
0
  6
Continuous
 62
     7
370
     0
100
AcDbLine
 10
135.3895330881
 20
601.075229336
 30
0.0
 11
135.3896057312
 21
601.0721298945
 31
0.0
  0
LINE
  5
AC
330
1F
100
AcDbEntity
  8
0
  6
Continuous
 62
     7
370
     0
100
AcDbLine
 10
866.3842647416
 20
601.075229336
 30
0.0
 11
866.3842051369
 21
601.0721298945
 31
0.0
  0
LWPOLYLINE
  5
AD
330
1F
100
AcDbEntity
  8
0
  6
Continuous
 62
     7
370
     0
100
AcDbPolyline
 90
        3
 70
   128
 43
0.0
 10
893.7513201577
 20
605.5932567534
 10
890.3183310372
 20
604.4174349946
 10
889.3972008568
 20
604.0863125664
  0
LWPOLYLINE
  5
AE
330
1F
100
AcDbEntity
  8
0
  6
Continuous
 62
     7
370
     0
100
AcDbPolyline
 90
       10
 70
   128
 43
0.0
 10
893.7513201577
 20
605.5932567534
 10
893.3529823166
 20
605.4108525705
 10
892.9570286614
 20
605.2331217644
 10
892.5741284234
 20
605.0738274199
 10
892.186757837
 20
604.9315502015
 10
891.7895524842
 20
604.7961964351
 10
891.298946653
 20
604.6087733549
 10
890.8090560776
 20
604.3611896303
 10
890.3211920601
 20
604.0220662099
 10
889.8363678795
 20
603.5458828401
  0
ARC
  5
AF
330
1F
100
AcDbEntity
  8
0
  6
Continuous
 62
     7
370
     0
100
AcDbCircle
 10
135.3869037526
 20
581.5724874027
 30
0.0
 40
0.5000007594492745
100
AcDbArc
 50
270.3013139208
 51
359.9998608839
  0
LINE
  5
B0
330
1F
100
AcDbEntity
  8
0
  6
Continuous
 62
     7
370
     0
100
AcDbLine
 10
135.8869045121
 20
591.0738611337
 30
0.0
 11
135.3891199301
 21
591.0738611164
 31
0.0
  0
ARC
  5
B1
330
1F
100
AcDbEntity
  8
0
  6
Continuous
 62
     7
370
     0
100
AcDbCircle
 10
135.3869048687
 20
600.5752146589
 30
0.0
 40
0.4999996434040416
100
AcDbArc
 50
359.9999649378
 51
89.6900086255
  0
LINE
  5
B2
330
1F
100
AcDbEntity
  8
0
  6
Continuous
 62
     7
370
     0
100
AcDbLine
 10
865.8869235856
 20
591.0738617597
 30
0.0
 11
866.3846819741
 21
591.0738617769
 31
0.0
  0
ARC
  5
B3
330
1F
100
AcDbEntity
  8
0
  6
Continuous
 62
     7
370
     0
100
AcDbCircle
 10
866.3869140574
 20
600.5752462025
 30
0.0
 40
0.4999904719366231
100
AcDbArc
 50
90.3104268538
 51
180.0011951217
  0
ARC
  5
B4
330
1F
100
AcDbEntity
  8
0
  6
Continuous
 62
     7
370
     0
100
AcDbCircle
 10
866.3868998023
 20
581.5724848642
 30
0.0
 40
0.4999762167731451
100
AcDbArc
 50
179.9997414917
 51
269.6911979064
  0
LINE
  5
B5
330
1F
100
AcDbEntity
  8
0
  6
Continuous
 62
     7
370
     0
100
AcDbLine
 10
136.3369045043
 20
601.0738612232
 30
0.0
 11
136.3369045043
 21
581.0738616702
 31
0.0
  0
LINE
  5
B6
330
1F
100
AcDbEntity
  8
0
  6
Continuous
 62
     7
370
     0
100
AcDbLine
 10
865.4369085175
 20
581.0738616702
 30
0.0
 11
865.4369085175
 21
601.0738612232
 31
0.0
  0
ARC
  5
B7
330
1F
100
AcDbEntity
  8
0
  6
Continuous
 62
     7
370
     0
100
AcDbCircle
 10
100.0356983595
 20
578.9879889823
 30
0.0
 40
4.195459912438253
100
AcDbArc
 50
275.9770242145
 51
333.3208306347
  0
ARC
  5
B8
330
1F
100
AcDbEntity
  8
0
  6
Continuous
 62
     7
370
     0
100
AcDbCircle
 10
100.0089991833
 20
576.1479710717
 30
0.0
 40
1.410958513374044
100
AcDbArc
 50
198.8443126655
 51
289.1806523112
  0
ARC
  5
B9
330
1F
100
AcDbEntity
  8
0
  6
Continuous
 62
     7
370
     0
100
AcDbCircle
 10
901.7381111298
 20
578.987981072
 30
0.0
 40
4.195449719607307
100
AcDbArc
 50
206.6791184124
 51
264.0232678809
  0
ARC
  5
BA
330
1F
100
AcDbEntity
  8
0
  6
Continuous
 62
     7
370
     0
100
AcDbCircle
 10
901.7648105566
 20
576.14795955
 30
0.0
 40
1.410943359171249
100
AcDbArc
 50
250.8199229122
 51
341.1560516053
  0
ARC
  5
BB
330
1F
100
AcDbEntity
  8
0
  6
Continuous
 62
     7
370
     0
100
AcDbCircle
 10
100.0090045983
 20
605.9997537462
 30
0.0
 40
1.410958588449148
100
AcDbArc
 50
70.8191010628
 51
161.1558908327
  0
ARC
  5
BC
330
1F
100
AcDbEntity
  8
0
  6
Continuous
 62
     7
370
     0
100
AcDbCircle
 10
100.0356960236
 20
603.1597305311
 30
0.0
 40
4.195463517150679
100
AcDbArc
 50
26.6791962856
 51
84.0229488653
  0
ARC
  5
BD
330
1F
100
AcDbEntity
  8
0
  6
Continuous
 62
     7
370
     0
100
AcDbCircle
 10
901.7381134658
 20
603.1597384413
 30
0.0
 40
4.195453324433029
100
AcDbArc
 50
95.9767590405
 51
153.3208546662
  0
ARC
  5
BE
330
1F
100
AcDbEntity
  8
0
  6
Continuous
 62
     7
370
     0
100
AcDbCircle
 10
901.7648177261
 20
605.9997723896
 30
0.0
 40
1.410933652069019
100
AcDbArc
 50
18.8436947668
 51
109.1805224602
  0
LWPOLYLINE
  5
BF
330
1F
100
AcDbEntity
  8
0
  6
Continuous
 62
     7
370
     0
100
AcDbPolyline
 90
        3
 70
   128
 43
0.0
 10
100.4725701255
 20
607.3323861775
 10
104.0635860604
 20
606.6008295011
 10
108.0224650991
 20
605.5932567534
  0
LWPOLYLINE
  5
C0
330
1F
100
AcDbEntity
  8
0
  6
Continuous
 62
     7
370
     0
100
AcDbPolyline
 90
        3
 70
   128
 43
0.0
 10
901.3012616974
 20
607.3323861775
 10
897.710201059
 20
606.6008295011
 10
893.7513201577
 20
605.5932567534
  0
LWPOLYLINE
  5
C1
330
1F
100
AcDbEntity
  8
0
  6
Continuous
 62
     7
370
     0
100
AcDbPolyline
 90
        3
 70
   128
 43
0.0
 10
100.4725775761
 20
574.8153385785
 10
104.0635860604
 20
575.5468933922
 10
108.0224650991
 20
576.55446614
  0
LWPOLYLINE
  5
C2
330
1F
100
AcDbEntity
  8
0
  6
Continuous
 62
     7
370
     0
100
AcDbPolyline
 90
        3
 70
   128
 43
0.0
 10
901.3012616974
 20
574.8153385785
 10
897.710201059
 20
575.5468933922
 10
893.7513201577
 20
576.55446614
  0
LWPOLYLINE
  5
C3
330
1F
100
AcDbEntity
  8
0
  6
Continuous
 62
     7
370
     0
100
AcDbPolyline
 90
        3
 70
   128
 43
0.0
 10
112.2898484659
 20
604.1107532647
 10
111.2574326885
 20
604.5454676342
 10
108.0224650991
 20
605.5932567534
  0
LWPOLYLINE
  5
C4
330
1F
100
AcDbEntity
  8
0
  6
Continuous
 62
     7
370
     0
100
AcDbPolyline
 90
        3
 70
   128
 43
0.0
 10
889.1588418824
 20
603.9738562968
 10
890.5163972718
 20
604.5454676342
 10
893.7513201577
 20
605.5932567534
  0
LWPOLYLINE
  5
C5
330
1F
100
AcDbEntity
  8
0
  6
Continuous
 62
     7
370
     0
100
AcDbPolyline
 90
        3
 70
   128
 43
0.0
 10
112.6149675888
 20
578.1738665965
 10
111.2574326885
 20
577.6022552591
 10
108.0224650991
 20
576.55446614
  0
LWPOLYLINE
  5
C6
330
1F
100
AcDbEntity
  8
0
  6
Continuous
 62
     7
370
     0
100
AcDbPolyline
 90
        3
 70
   128
 43
0.0
 10
889.4839852196
 20
578.0369696286
 10
890.5163972718
 20
577.6022552591
 10
893.7513201577
 20
576.55446614
  0
ARC
  5
C7
330
1F
100
AcDbEntity
  8
0
  6
Continuous
 62
     7
370
     0
100
AcDbCircle
 10
53.8559768061
 20
698.9594120147
 30
0.0
 40
132.607910677352
100
AcDbArc
 50
283.2472847293
 51
290.5813600605
  0
ARC
  5
C8
330
1F
100
AcDbEntity
  8
0
  6
Continuous
 62
     7
370
     0
100
AcDbCircle
 10
947.9156118325
 20
698.9518962732
 30
0.0
 40
132.6000834552603
100
AcDbArc
 50
249.418408736
 51
256.7529098648
  0
ARC
  5
C9
330
1F
100
AcDbEntity
  8
0
  6
Continuous
 62
     7
370
     0
100
AcDbCircle
 10
53.856072137
 20
483.1886243676
 30
0.0
 40
132.6075836847263
100
AcDbArc
 50
69.4186308847
 51
76.7527243255
  0
ARC
  5
CA
330
1F
100
AcDbEntity
  8
0
  6
Continuous
 62
     7
370
     0
100
AcDbCircle
 10
947.9156118325
 20
483.1958266202
 30
0.0
 40
132.6000834552603
100
AcDbArc
 50
103.2470901352
 51
110.581591264
  0
LWPOLYLINE
  5
CB
330
1F
100
AcDbEntity
  8
0
  6
Continuous
 62
     7
370
    15
100
AcDbPolyline
 90
        6
 70
   128
 43
0.0
 10
1100.4391260439
 20
607.4062419203
 10
1091.8918423349
 20
608.4631924596
 10
1083.7171956891
 20
609.422326189
 10
1075.8710879827
 20
610.2790181604
 10
1064.7007156158
 20
611.4056092766
 10
1054.8651594663
 20
612.3618037519
  0
LWPOLYLINE
  5
CC
330
1F
100
AcDbEntity
  8
0
  6
Continuous
 62
     7
370
    15
100
AcDbPolyline
 90
        5
 70
   128
 43
0.0
 10
1054.8651035869
 20
569.7859768835
 10
1066.8623041356
 20
570.9535704073
 10
1078.7533003831
 20
572.1762516615
 10
1089.926129579
 20
573.4482017425
 10
1100.4391269753
 20
574.7414809731
  0
ARC
  5
CD
330
1F
100
AcDbEntity
  8
0
  6
Continuous
 62
     7
370
    15
100
AcDbCircle
 10
1056.3466046079
 20
213.3170651642
 30
0.0
 40
396.5481531818097
100
AcDbArc
 50
81.1230490797
 51
83.6159279552
  0
LWPOLYLINE
  5
CE
330
1F
100
AcDbEntity
  8
0
  6
Continuous
 62
     7
370
    15
100
AcDbPolyline
 90
        3
 70
   128
 43
0.0
 10
1100.4398534069
 20
574.7415517536
 10
1109.9158072838
 20
575.8781974283
 10
1117.5391139923
 20
577.0323491734
  0
LWPOLYLINE
  5
CF
330
1F
100
AcDbEntity
  8
0
  6
Continuous
 62
     7
370
    15
100
AcDbPolyline
 90
       10
 70
   128
 43
0.0
 10
1128.7124896416
 20
591.0738612208
 10
1128.5891611123
 20
594.563466365
 10
1128.1520271668
 20
597.5554670286
 10
1127.2998865688
 20
600.0355445859
 10
1126.0611614207
 20
601.8161700186
 10
1125.4492023954
 20
602.3775572967
 10
1124.7408645222
 20
602.8847462577
 10
1122.832281887
 20
603.802154873
 10
1120.4294696445
 20
604.5095735308
 10
1117.5390988583
 20
605.1154016596
  0
LWPOLYLINE
  5
D0
330
1F
100
AcDbEntity
  8
0
  6
Continuous
 62
     7
370
    15
100
AcDbPolyline
 90
        9
 70
   128
 43
0.0
 10
1117.5390988583
 20
577.0323212337
 10
1120.8857110696
 20
577.7507611629
 10
1123.810166865
 20
578.7539688018
 10
1126.1242743576
 20
580.397952449
 10
1127.3387320334
 20
582.1911432859
 10
1127.8989495704
 20
583.6369535965
 10
1128.3438200125
 20
585.5688691218
 10
1128.6243297154
 20
588.0558608179
 10
1128.7124896416
 20
591.0738616555
  0
LINE
  5
D1
330
1F
100
AcDbEntity
  8
0
  6
Continuous
 62
     7
370
    15
100
AcDbLine
 10
1054.8631068313
 20
570.5483258781
 30
0.0
 11
1054.8631068313
 21
611.5993914273
 31
0.0
  0
LINE
  5
D2
330
1F
100
AcDbEntity
  8
0
  6
Continuous
 62
     7
370
    15
100
AcDbLine
 10
1054.8631068313
 20
611.5994566199
 30
0.0
 11
1054.8631068313
 21
612.3467777935
 31
0.0
  0
LINE
  5
D3
330
1F
100
AcDbEntity
  8
0
  6
Continuous
 62
     7
370
    15
100
AcDbLine
 10
1054.8631068313
 20
569.8005241421
 30
0.0
 11
1054.8631068313
 21
570.5482662734
 31
0.0
  0
LWPOLYLINE
  5
D4
330
1F
100
AcDbEntity
  8
0
  6
Continuous
 62
     7
370
     0
100
AcDbPolyline
 90
        8
 70
   128
 43
0.0
 10
1127.5345984841
 20
591.0738602465
 10
1127.2404151032
 20
595.7284449679
 10
1126.7328359181
 20
598.041806471
 10
1125.7043028245
 20
600.2508132797
 10
1124.903361685
 20
601.2000451875
 10
1123.9426167676
 20
601.9551196214
 10
1121.8085902737
 20
602.968136881
 10
1117.4294537859
 20
604.1303082448
  0
LWPOLYLINE
  5
D5
330
1F
100
AcDbEntity
  8
0
  6
Continuous
 62
     7
370
     0
100
AcDbPolyline
 90
        7
 70
   128
 43
0.0
 10
1117.4294537859
 20
578.0174146485
 10
1121.8203640537
 20
579.183829118
 10
1123.9533651614
 20
580.1995574576
 10
1125.709102861
 20
581.9039848712
 10
1126.7330575729
 20
584.1066340063
 10
1127.2411601612
 20
586.4244416435
 10
1127.5345984841
 20
591.0738625991
  0
ARC
  5
D6
330
1F
100
AcDbEntity
  8
0
  6
Continuous
 62
     7
370
     0
100
AcDbCircle
 10
1073.9227341305
 20
829.8589465743
 30
0.0
 40
255.5718404342153
100
AcDbArc
 50
276.0108878098
 51
279.8013754956
  0
LWPOLYLINE
  5
D7
330
1F
100
AcDbEntity
  8
0
  6
Continuous
 62
     7
370
     0
100
AcDbPolyline
 90
        4
 70
   128
 43
0.0
 10
1054.8631478095
 20
570.5482755867
 10
1077.7771960938
 20
572.8970301416
 10
1089.2221987242
 20
574.2281471458
 10
1100.6855521345
 20
575.6922365245
  0
LWPOLYLINE
  5
D8
330
1F
100
AcDbEntity
  8
0
  6
Continuous
 62
     7
370
     0
100
AcDbPolyline
 90
        4
 70
   128
 43
0.0
 10
1100.6855512032
 20
606.4554863688
 10
1089.2221987242
 20
607.9195757475
 10
1077.7771923685
 20
609.2506927517
 10
1054.8631478095
 20
611.5994473067
  0
ARC
  5
D9
330
1F
100
AcDbEntity
  8
0
  6
Continuous
 62
     7
370
     0
100
AcDbCircle
 10
1073.9224686862
 20
352.2868585045
 30
0.0
 40
255.5737754038343
100
AcDbArc
 50
80.1986391068
 51
83.9890982391
  0
LWPOLYLINE
  5
DA
330
1F
100
AcDbEntity
  8
0
  6
Continuous
 62
     7
370
     0
100
AcDbPolyline
 90
        6
 70
   128
 43
0.0
 10
1100.4396149883
 20
607.4013189492
 10
1100.502109527
 20
607.3825155464
 10
1100.5690008396
 20
607.2978695002
 10
1100.6186170498
 20
607.1507521984
 10
1100.6522843609
 20
606.9502999154
 10
1100.6855623791
 20
606.4554854375
  0
LWPOLYLINE
  5
DB
330
1F
100
AcDbEntity
  8
0
  6
Continuous
 62
     7
370
     0
100
AcDbPolyline
 90
        6
 70
   128
 43
0.0
 10
1100.4384890193
 20
574.7460649428
 10
1100.5021141836
 20
574.7652129349
 10
1100.568998977
 20
574.8498533931
 10
1100.6186114618
 20
574.9969669697
 10
1100.6522778416
 20
575.1974211153
 10
1100.6855530659
 20
575.6922346619
  0
ARC
  5
DC
330
1F
100
AcDbEntity
  8
0
  6
Continuous
 62
     7
370
     0
100
AcDbCircle
 10
1113.9944356229
 20
605.010157846
 30
0.0
 40
3.54592893749281
100
AcDbArc
 50
345.632291969
 51
1.6781711862
  0
ARC
  5
DD
330
1F
100
AcDbEntity
  8
0
  6
Continuous
 62
     7
370
     0
100
AcDbCircle
 10
1113.9960915508
 20
577.1380036723
 30
0.0
 40
3.544238710680913
100
AcDbArc
 50
358.3141603862
 51
14.3666726171
  0
LWPOLYLINE
  5
DE
330
1F
100
AcDbEntity
  8
0
  6
Continuous
 62
     7
370
     0
100
AcDbPolyline
 90
        7
 70
   128
 43
0.0
 10
1128.7078954274
 20
591.0738616584
 10
1128.7118935952
 20
591.0738616625
 10
1128.6713261152
 20
591.0738617422
 10
1128.5592228169
 20
591.0738618594
 10
1128.3732945094
 20
591.073862013
 10
1128.1256921584
 20
591.0738621957
 10
1127.5345984841
 20
591.0738625991
  0
LWPOLYLINE
  5
DF
330
1F
100
AcDbEntity
  8
0
  6
Continuous
 62
     7
370
    15
100
AcDbPolyline
 90
       19
 70
   128
 43
0.0
 10
77.1930932147
 20
413.3283509989
 10
80.5695324284
 20
405.2930786391
 10
84.3111543995
 20
396.3889344712
 10
87.5387012106
 20
388.707773306
 10
90.2432507915
 20
382.2667314788
 10
92.4530631942
 20
376.9568703254
 10
94.1862433297
 20
372.6959559252
 10
95.4604080957
 20
369.4467707654
 10
96.3222428304
 20
367.1477488359
 10
96.7888205391
 20
365.8505198662
 10
97.2040302199
 20
364.6533708205
 10
97.8453463954
 20
362.6936073532
 10
98.615952496
 20
360.0526964408
 10
99.3351644916
 20
357.0125417435
 10
99.802341972
 20
354.3122134404
 10
100.1519716424
 20
351.2694081408
 10
100.4310443145
 20
347.8653449682
 10
100.8418767792
 20
344.2170494353
 10
101.803024028
 20
340.3822626104
  0
LWPOLYLINE
  5
E0
330
1F
100
AcDbEntity
  8
0
  6
Continuous
 62
     7
370
    15
100
AcDbPolyline
 90
       18
 70
   128
 43
0.0
 10
899.9707668168
 20
340.3822626104
 10
900.942918573
 20
344.2870001425
 10
901.3370840889
 20
347.7971754153
 10
901.5826552254
 20
350.8302322705
 10
901.83525971
 20
353.285608461
 10
902.1278589112
 20
355.3273663973
 10
902.4579494339
 20
357.1069405996
 10
902.9803245408
 20
359.373381373
 10
903.5116403443
 20
361.3162604277
 10
904.4135182244
 20
364.189914905
 10
905.5595963341
 20
367.4422125449
 10
907.1123569352
 20
371.4996888419
 10
909.1015427453
 20
376.4244425227
 10
911.518153463
 20
382.2371079703
 10
914.3584936005
 20
389.0014193137
 10
917.6391928536
 20
396.8090578099
 10
921.3404624802
 20
405.6171416422
 10
924.5806901795
 20
413.3283509989
  0
ARC
  5
E1
330
1F
100
AcDbEntity
  8
0
  6
Continuous
 62
     7
370
    15
100
AcDbCircle
 10
865.4369045121
 20
362.9007487853
 30
0.0
 40
0.4500000000000455
100
AcDbArc
 50
0.0
 51
90.0
  0
ARC
  5
E2
330
1F
100
AcDbEntity
  8
0
  6
Continuous
 62
     7
370
    15
100
AcDbCircle
 10
865.4369045121
 20
343.8007487853
 30
0.0
 40
0.4500000000000455
100
AcDbArc
 50
270.0
 51
0.0
  0
LINE
  5
E3
330
1F
100
AcDbEntity
  8
0
  6
Continuous
 62
     7
370
    15
100
AcDbLine
 10
136.3369045043
 20
343.3507490088
 30
0.0
 11
865.4369085175
 21
343.3507490088
 31
0.0
  0
LINE
  5
E4
330
1F
100
AcDbEntity
  8
0
  6
Continuous
 62
     7
370
    15
100
AcDbLine
 10
865.4369085175
 20
363.3507485618
 30
0.0
 11
136.3369045043
 21
363.3507485618
 31
0.0
  0
ARC
  5
E5
330
1F
100
AcDbEntity
  8
0
  6
Continuous
 62
     7
370
    15
100
AcDbCircle
 10
136.3369045121
 20
362.9007487853
 30
0.0
 40
0.4499999999999886
100
AcDbArc
 50
90.0
 51
180.0
  0
ARC
  5
E6
330
1F
100
AcDbEntity
  8
0
  6
Continuous
 62
     7
370
    15
100
AcDbCircle
 10
136.3369045121
 20
343.8007487853
 30
0.0
 40
0.4499999999999886
100
AcDbArc
 50
180.0
 51
270.0
  0
LINE
  5
E7
330
1F
100
AcDbEntity
  8
0
  6
Continuous
 62
     7
370
    15
100
AcDbLine
 10
919.4081991059
 20
413.3502929588
 30
0.0
 11
917.5301759583
 21
413.3502929588
 31
0.0
  0
LINE
  5
E8
330
1F
100
AcDbEntity
  8
0
  6
Continuous
 62
     7
370
    15
100
AcDbLine
 10
82.3655954641
 20
413.3502929588
 30
0.0
 11
84.2436446887
 21
413.3502929588
 31
0.0
  0
LWPOLYLINE
  5
E9
330
1F
100
AcDbEntity
  8
0
  6
Continuous
 62
     7
370
    15
100
AcDbPolyline
 90
        3
 70
   128
 43
0.0
 10
878.902313028
 20
387.337853678
 10
880.514141832
 20
400.3441273351
 10
882.1267454964
 20
413.3502929588
  0
LINE
  5
EA
330
1F
100
AcDbEntity
  8
0
  6
Continuous
 62
     7
370
    15
100
AcDbLine
 10
917.5301759583
 20
413.3502929588
 30
0.0
 11
882.1267454964
 21
413.3502929588
 31
0.0
  0
LWPOLYLINE
  5
EB
330
1F
100
AcDbEntity
  8
0
  6
Continuous
 62
     7
370
    15
100
AcDbPolyline
 90
        3
 70
   128
 43
0.0
 10
122.8714908552
 20
387.337853678
 10
121.2596946475
 20
400.3441273351
 10
119.6470434857
 20
413.3502929588
  0
LINE
  5
EC
330
1F
100
AcDbEntity
  8
0
  6
Continuous
 62
     7
370
    15
100
AcDbLine
 10
84.2436446887
 20
413.3502929588
 30
0.0
 11
119.6470434857
 21
413.3502929588
 31
0.0
  0
LINE
  5
ED
330
1F
100
AcDbEntity
  8
0
  6
Continuous
 62
     7
370
    15
100
AcDbLine
 10
77.2453106088
 20
413.3502929588
 30
0.0
 11
82.3656848711
 21
413.3502929588
 31
0.0
  0
LINE
  5
EE
330
1F
100
AcDbEntity
  8
0
  6
Continuous
 62
     7
370
    15
100
AcDbLine
 10
924.5284765107
 20
413.3502929588
 30
0.0
 11
919.4081395012
 21
413.3502929588
 31
0.0
  0
ARC
  5
EF
330
1F
100
AcDbEntity
  8
0
  6
Continuous
 62
     7
370
    15
100
AcDbCircle
 10
861.4927741095
 20
166.737682755
 30
0.0
 40
176.679699198611
100
AcDbArc
 50
78.0203113543
 51
88.4133915759
  0
ARC
  5
F0
330
1F
100
AcDbEntity
  8
0
  6
Continuous
 62
     7
370
    15
100
AcDbCircle
 10
140.2809399603
 20
166.7386030341
 30
0.0
 40
176.6787768403834
100
AcDbArc
 50
91.5865882142
 51
101.979716782
  0
LWPOLYLINE
  5
F1
330
1F
100
AcDbEntity
  8
0
  6
Continuous
 62
     7
370
    15
100
AcDbPolyline
 90
       19
 70
   128
 43
0.0
 10
878.9023726326
 20
387.3378201504
 10
878.550109182
 20
384.5412931522
 10
878.2547085625
 20
382.3757874896
 10
878.0228464943
 20
380.8398465742
 10
877.8737752778
 20
379.9293949385
 10
877.5324194771
 20
378.0523720314
 10
877.1420090538
 20
376.2061535497
 10
876.6926496369
 20
374.4022208382
 10
876.1732547623
 20
372.6646765252
 10
874.7696249825
 20
369.2575539579
 10
874.3123977524
 20
368.4329097276
 10
873.8027184349
 20
367.6338619669
 10
873.2348053795
 20
366.869176284
 10
872.6024597031
 20
366.14849373
 10
871.5249865395
 20
365.1785054361
 10
870.6726401192
 20
364.5980409463
 10
869.5521920067
 20
364.0363165294
 10
867.8777783257
 20
363.5364123737
 10
866.3658469063
 20
363.361093693
  0
LWPOLYLINE
  5
F2
330
1F
100
AcDbEntity
  8
0
  6
Continuous
 62
     7
370
    15
100
AcDbPolyline
 90
       19
 70
   128
 43
0.0
 10
122.8714424265
 20
387.3378201504
 10
123.2236798001
 20
384.5412931522
 10
123.5191269857
 20
382.3757874896
 10
123.7509471443
 20
380.8398465742
 10
123.9000174296
 20
379.9293949385
 10
124.2414011699
 20
378.0523720314
 10
124.6317873788
 20
376.2061535497
 10
125.0811691475
 20
374.4022208382
 10
125.6005779919
 20
372.6646765252
 10
127.0041965959
 20
369.2575539579
 10
127.4614042682
 20
368.4329097276
 10
127.9710863796
 20
367.6338619669
 10
128.5389877935
 20
366.869176284
 10
129.1713297446
 20
366.14849373
 10
130.2488057022
 20
365.1785054361
 10
131.1011768025
 20
364.5980409463
 10
132.2215925516
 20
364.0363165294
 10
133.8960025073
 20
363.5364123737
 10
135.4079822972
 20
363.361093693
  0
ARC
  5
F3
330
1F
100
AcDbEntity
  8
0
  6
Continuous
 62
     7
370
    15
100
AcDbCircle
 10
898.6546012573
 20
340.9299980652
 30
0.0
 40
1.445800517252704
100
AcDbArc
 50
250.2180565045
 51
349.9945218606
  0
ARC
  5
F4
330
1F
100
AcDbEntity
  8
0
  6
Continuous
 62
     7
370
    15
100
AcDbCircle
 10
103.1192187196
 20
340.930001691
 30
0.0
 40
1.445804155879888
100
AcDbArc
 50
190.0055986051
 51
289.7819198564
  0
ARC
  5
F5
330
1F
100
AcDbEntity
  8
0
  6
Continuous
 62
     7
370
    15
100
AcDbCircle
 10
866.3869126456
 20
343.8496294758
 30
0.0
 40
0.4999890602224915
100
AcDbArc
 50
179.9987003715
 51
269.7443774257
  0
ARC
  5
F6
330
1F
100
AcDbEntity
  8
0
  6
Continuous
 62
     7
370
    15
100
AcDbCircle
 10
135.3869041838
 20
343.8496408103
 30
0.0
 40
0.500000328230442
100
AcDbArc
 50
270.2539064831
 51
0.0000007638
  0
ARC
  5
F7
330
1F
100
AcDbEntity
  8
0
  6
Continuous
 62
     7
370
    15
100
AcDbCircle
 10
866.3869085326
 20
362.8615525481
 30
0.0
 40
0.4999849472764972
100
AcDbArc
 50
92.4142716236
 51
180.0016841152
  0
ARC
  5
F8
330
1F
100
AcDbEntity
  8
0
  6
Continuous
 62
     7
370
    15
100
AcDbCircle
 10
135.386903088
 20
362.8615367982
 30
0.0
 40
0.5000014241155116
100
AcDbArc
 50
0.0001207359
 51
87.5837913334
  0
LINE
  5
F9
330
1F
100
AcDbEntity
  8
0
  6
Continuous
 62
     7
370
    15
100
AcDbLine
 10
865.8869235856
 20
362.9007483949
 30
0.0
 11
865.8869235856
 21
343.800750107
 31
0.0
  0
LINE
  5
FA
330
1F
100
AcDbEntity
  8
0
  6
Continuous
 62
     7
370
    15
100
AcDbLine
 10
135.8869045121
 20
362.9007483949
 30
0.0
 11
135.8869045121
 21
343.8007491757
 31
0.0
  0
LWPOLYLINE
  5
FB
330
1F
100
AcDbEntity
  8
0
  6
Continuous
 62
     7
370
     0
100
AcDbPolyline
 90
        4
 70
   128
 43
0.0
 10
917.5301759583
 20
413.3502482553
 10
909.2566936356
 20
390.7092600246
 10
905.1454632622
 20
379.3806615402
 10
901.3012616974
 20
367.9665024509
  0
LWPOLYLINE
  5
FC
330
1F
100
AcDbEntity
  8
0
  6
Continuous
 62
     7
370
     0
100
AcDbPolyline
 90
        4
 70
   128
 43
0.0
 10
903.1001298768
 20
367.5278485869
 10
906.9371192795
 20
378.991201066
 10
911.0740988594
 20
390.4362074216
 10
919.4081991059
 20
413.3502519806
  0
ARC
  5
FD
330
1F
100
AcDbEntity
  8
0
  6
Continuous
 62
     7
370
     0
100
AcDbCircle
 10
903.8987897998
 20
374.71086041
 30
0.0
 40
7.227275871518449
100
AcDbArc
 50
248.9362638514
 51
263.6554943914
  0
LWPOLYLINE
  5
FE
330
1F
100
AcDbEntity
  8
0
  6
Continuous
 62
     7
370
     0
100
AcDbPolyline
 90
        4
 70
   128
 43
0.0
 10
98.6736684185
 20
367.5278485869
 10
94.8366901916
 20
378.991201066
 10
90.6996994358
 20
390.4362074216
 10
82.36560664
 20
413.3502519806
  0
LWPOLYLINE
  5
FF
330
1F
100
AcDbEntity
  8
0
  6
Continuous
 62
     7
370
     0
100
AcDbPolyline
 90
        4
 70
   128
 43
0.0
 10
84.2436446887
 20
413.3502482553
 10
92.5170897585
 20
390.7092600246
 10
96.6283350331
 20
379.3806615402
 10
100.4725775761
 20
367.9665024509
  0
ARC
  5
100
330
1F
100
AcDbEntity
  8
0
  6
Continuous
 62
     7
370
     0
100
AcDbCircle
 10
97.8746877506
 20
374.712257252
 30
0.0
 40
7.228711123836258
100
AcDbArc
 50
276.3458283862
 51
291.0624271462
  0
LWPOLYLINE
  5
101
330
1F
100
AcDbEntity
  8
0
  6
Continuous
 62
     7
370
     0
100
AcDbPolyline
 90
        3
 70
   128
 43
0.0
 10
901.3012616974
 20
367.9664959316
 10
897.710201059
 20
371.0724483361
 10
893.7513201577
 20
374.495934241
  0
LWPOLYLINE
  5
102
330
1F
100
AcDbEntity
  8
0
  6
Continuous
 62
     7
370
     0
100
AcDbPolyline
 90
        9
 70
   128
 43
0.0
 10
878.9023726326
 20
387.3378201504
 10
878.9026110512
 20
387.3376264353
 10
879.2920678002
 20
387.0009421487
 10
880.4453580719
 20
386.0033168574
 10
882.2034566742
 20
384.4829718699
 10
884.3003480774
 20
382.6695173164
 10
887.3432844025
 20
380.0378604909
 10
890.5163972718
 20
377.2936458816
 10
893.7513201577
 20
374.495934241
  0
LWPOLYLINE
  5
103
330
1F
100
AcDbEntity
  8
0
  6
Continuous
 62
     7
370
     0
100
AcDbPolyline
 90
        9
 70
   128
 43
0.0
 10
122.8714424265
 20
387.3378201504
 10
122.8712151838
 20
387.3376264353
 10
122.4817556408
 20
387.0009421487
 10
121.32844488
 20
386.0033168574
 10
119.5703602475
 20
384.4829718699
 10
117.4734856081
 20
382.6695173164
 10
114.4305101675
 20
380.0378604909
 10
111.2574326885
 20
377.2936458816
 10
108.0224650991
 20
374.495934241
  0
LWPOLYLINE
  5
104
330
1F
100
AcDbEntity
  8
0
  6
Continuous
 62
     7
370
     0
100
AcDbPolyline
 90
        3
 70
   128
 43
0.0
 10
100.4725701255
 20
367.9664959316
 10
104.0635860604
 20
371.0724483361
 10
108.0224650991
 20
374.495934241
  0
ARC
  5
105
330
1F
100
AcDbEntity
  8
0
  6
Continuous
 62
     7
370
     0
100
AcDbCircle
 10
40.3492213382
 20
347.0631500777
 30
0.0
 40
61.67750036045086
100
AcDbArc
 50
354.0585685282
 51
3.4585614204
  0
ARC
  5
106
330
1F
100
AcDbEntity
  8
0
  6
Continuous
 62
     7
370
     0
100
AcDbCircle
 10
38.8035953774
 20
347.2547539152
 30
0.0
 40
63.20936584814464
100
AcDbArc
 50
3.200607479
 51
18.7070221581
  0
ARC
  5
107
330
1F
100
AcDbEntity
  8
0
  6
Continuous
 62
     7
370
     0
100
AcDbCircle
 10
961.4258010541
 20
347.0631988974
 30
0.0
 40
61.67870440897558
100
AcDbArc
 50
176.5415516107
 51
185.9413606653
  0
ARC
  5
108
330
1F
100
AcDbEntity
  8
0
  6
Continuous
 62
     7
370
     0
100
AcDbCircle
 10
962.9751990908
 20
347.2537455304
 30
0.0
 40
63.21441797127393
100
AcDbArc
 50
161.2935634582
 51
176.7987331815
  0
ARC
  5
109
330
1F
100
AcDbEntity
  8
0
  6
Continuous
 62
     7
370
     0
100
AcDbCircle
 10
37.5707392084
 20
346.9453046163
 30
0.0
 40
66.32142049925031
100
AcDbArc
 50
3.2652894382
 51
18.4791358138
  0
ARC
  5
10A
330
1F
100
AcDbEntity
  8
0
  6
Continuous
 62
     7
370
     0
100
AcDbCircle
 10
102.9953731527
 20
355.2254386783
 30
0.0
 40
4.571158532914578
100
AcDbArc
 50
256.3208131558
 51
279.9408475248
  0
ARC
  5
10B
330
1F
100
AcDbEntity
  8
0
  6
Continuous
 62
     7
370
     0
100
AcDbCircle
 10
964.2022368921
 20
346.9454117538
 30
0.0
 40
66.32057494064163
100
AcDbArc
 50
161.5207176514
 51
176.7347615946
  0
ARC
  5
10C
330
1F
100
AcDbEntity
  8
0
  6
Continuous
 62
     7
370
     0
100
AcDbCircle
 10
898.778616357
 20
355.2260820324
 30
0.0
 40
4.571809314305785
100
AcDbArc
 50
260.0585281769
 51
283.6745913604
  0
LWPOLYLINE
  5
10D
330
1F
100
AcDbEntity
  8
0
  6
Continuous
 62
     7
370
     0
100
AcDbPolyline
 90
        3
 70
   128
 43
0.0
 10
897.9893296105
 20
350.7229162031
 10
894.3568437439
 20
351.20355502
 10
889.8363678795
 20
351.7639599857
  0
LWPOLYLINE
  5
10E
330
1F
100
AcDbEntity
  8
0
  6
Continuous
 62
     7
370
     0
100
AcDbPolyline
 90
       10
 70
   128
 43
0.0
 10
893.7513201577
 20
374.495934241
 10
893.3529823166
 20
372.1828064998
 10
892.9570286614
 20
369.8830823531
 10
892.5741284234
 20
367.6606263151
 10
892.186757837
 20
365.4113435303
 10
891.7895524842
 20
363.1049464573
 10
891.298946653
 20
360.2562565473
 10
890.8090560776
 20
357.4119713274
 10
890.3211920601
 20
354.5789332246
 10
889.8363678795
 20
351.7639599857
  0
LWPOLYLINE
  5
10F
330
1F
100
AcDbEntity
  8
0
  6
Continuous
 62
     7
370
     0
100
AcDbPolyline
 90
       10
 70
   128
 43
0.0
 10
108.0224650991
 20
374.495934241
 10
108.420819704
 20
372.1828064998
 10
108.8167528701
 20
369.8830823531
 10
109.1996624214
 20
367.6606263151
 10
109.5870348704
 20
365.4113435303
 10
109.9842607123
 20
363.1049464573
 10
110.4748721314
 20
360.2562565473
 10
110.9647254539
 20
357.4119713274
 10
111.4526397628
 20
354.5789332246
 10
111.9374453169
 20
351.7639599857
  0
LWPOLYLINE
  5
110
330
1F
100
AcDbEntity
  8
0
  6
Continuous
 62
     7
370
     0
100
AcDbPolyline
 90
        3
 70
   128
 43
0.0
 10
103.7844612342
 20
350.7229162031
 10
107.4169750405
 20
351.20355502
 10
111.9374453169
 20
351.7639599857
  0
LINE
  5
111
330
1F
100
AcDbEntity
  8
0
  6
Continuous
 62
     7
370
     0
100
AcDbLine
 10
866.3842647416
 20
353.3499718012
 30
0.0
 11
866.3840859276
 21
353.7280371937
 31
0.0
  0
LWPOLYLINE
  5
112
330
1F
100
AcDbEntity
  8
0
  6
Continuous
 62
     7
370
     0
100
AcDbPolyline
 90
        8
 70
   128
 43
0.0
 10
893.7513201577
 20
374.495934241
 10
890.3183310372
 20
371.8907400151
 10
886.8972628457
 20
369.2946615745
 10
883.4707706315
 20
366.6944145342
 10
880.0138204438
 20
364.0710995649
 10
875.4960267884
 20
360.6426338782
 10
871.0078566414
 20
357.2364829132
 10
866.3841455323
 20
353.7281204597
  0
ARC
  5
113
330
1F
100
AcDbEntity
  8
0
  6
Continuous
 62
     7
370
     0
100
AcDbCircle
 10
864.2596552722
 20
147.7507636415
 30
0.0
 40
205.6101835277345
100
AcDbArc
 50
82.8542275214
 51
89.4079411825
  0
LWPOLYLINE
  5
114
330
1F
100
AcDbEntity
  8
0
  6
Continuous
 62
     7
370
     0
100
AcDbPolyline
 90
        8
 70
   128
 43
0.0
 10
108.0224650991
 20
374.495934241
 10
111.4555063737
 20
371.8907400151
 10
114.876533587
 20
369.2946615745
 10
118.3030537409
 20
366.6944145342
 10
121.7599741262
 20
364.0710995649
 10
126.2777668503
 20
360.6426338782
 10
130.7659309437
 20
357.2364829132
 10
135.3896621927
 20
353.7281204597
  0
LINE
  5
115
330
1F
100
AcDbEntity
  8
0
  6
Continuous
 62
     7
370
     0
100
AcDbLine
 10
135.3895330881
 20
353.3499718012
 30
0.0
 11
135.3897068379
 21
353.7280371937
 31
0.0
  0
ARC
  5
116
330
1F
100
AcDbEntity
  8
0
  6
Continuous
 62
     7
370
     0
100
AcDbCircle
 10
137.514096653
 20
147.7516387676
 30
0.0
 40
205.6093075771197
100
AcDbArc
 50
90.5920378413
 51
97.1457858726
  0
LWPOLYLINE
  5
117
330
1F
100
AcDbEntity
  8
0
  6
Continuous
 62
     7
370
     0
100
AcDbPolyline
 90
        8
 70
   128
 43
0.0
 10
866.3846819741
 20
343.3496453916
 10
866.3846819741
 20
343.3496453916
 10
866.3845031601
 20
343.5954409768
 10
866.3839071137
 20
344.8716090177
 10
866.3839071137
 20
347.1048819018
 10
866.3844435555
 20
350.0414204435
 10
866.3844435555
 20
351.4986181515
 10
866.3842051369
 20
353.349969998
  0
LWPOLYLINE
  5
118
330
1F
100
AcDbEntity
  8
0
  6
Continuous
 62
     7
370
     0
100
AcDbPolyline
 90
        8
 70
   128
 43
0.0
 10
897.9893892151
 20
350.7229166688
 10
897.7724283081
 20
346.0958469776
 10
897.7598517281
 20
343.6601241236
 10
897.789058004
 20
342.4844569643
 10
897.8516428811
 20
341.5036625345
 10
898.0022638184
 20
340.3539457475
 10
898.1094329697
 20
339.8411288043
 10
898.1652825219
 20
339.5695178886
  0
LWPOLYLINE
  5
119
330
1F
100
AcDbEntity
  8
0
  6
Continuous
 62
     7
370
     0
100
AcDbPolyline
 90
        8
 70
   128
 43
0.0
 10
103.7844388825
 20
350.7229166688
 10
104.0013774377
 20
346.0958469776
 10
104.0139726442
 20
343.6601241236
 10
103.9847700936
 20
342.4844569643
 10
103.9221665901
 20
341.5036625345
 10
103.7715531033
 20
340.3539457475
 10
103.6643653256
 20
339.8411288043
 10
103.6085381252
 20
339.5695178886
  0
LWPOLYLINE
  5
11A
330
1F
100
AcDbEntity
  8
0
  6
Continuous
 62
     7
370
     0
100
AcDbPolyline
 90
        8
 70
   128
 43
0.0
 10
135.3891199301
 20
343.3496453916
 10
135.3891199301
 20
343.3496453916
 10
135.3892937382
 20
343.5954409768
 10
135.3899156288
 20
344.8716090177
 10
135.3898983994
 20
347.1048819018
 10
135.3893926912
 20
350.0414204435
 10
135.3893690007
 20
351.4986181515
 10
135.3896100386
 20
353.349969998
  0
LWPOLYLINE
  5
11B
330
1F
100
AcDbEntity
  8
0
  6
Continuous
 62
     7
370
     0
100
AcDbPolyline
 90
        7
 70
   128
 43
0.0
 10
866.3842051369
 20
353.7281701982
 10
866.3831322533
 20
355.5650001043
 10
866.379317556
 20
358.6699310807
 10
866.3735955101
 20
361.1752842669
 10
866.3679926735
 20
362.7987834741
 10
866.3663237435
 20
363.2400366594
 10
866.3658469063
 20
363.361093693
  0
LWPOLYLINE
  5
11C
330
1F
100
AcDbEntity
  8
0
  6
Continuous
 62
     7
370
     0
100
AcDbPolyline
 90
        7
 70
   128
 43
0.0
 10
135.3895965926
 20
353.7281701982
 10
135.3906823401
 20
355.5650001043
 10
135.3944681082
 20
358.6699310807
 10
135.4002428902
 20
361.1752842669
 10
135.4057945332
 20
362.7987834741
 10
135.407502346
 20
363.2400366594
 10
135.4079822972
 20
363.361093693
  0
ARC
  5
11D
330
1F
100
AcDbEntity
  8
0
  6
Continuous
 62
     7
370
     0
100
AcDbCircle
 10
866.10126576
 20
170.4746986141
 30
0.0
 40
182.8754902915177
100
AcDbArc
 50
89.9113536833
 51
90.0671544599
  0
LWPOLYLINE
  5
11E
330
1F
100
AcDbEntity
  8
0
  6
Continuous
 62
     7
370
     0
100
AcDbPolyline
 90
        5
 70
   128
 43
0.0
 10
135.8869045121
 20
353.3500632632
 10
135.8491026963
 20
353.3500276882
 10
135.7414131539
 20
353.3499974924
 10
135.5801193181
 20
353.3499772417
 10
135.3896100386
 20
353.349969998
  0
ARC
  5
11F
330
1F
100
AcDbEntity
  8
0
  6
Continuous
 62
     7
370
     0
100
AcDbCircle
 10
866.2600504306
 20
350.4450157183
 30
0.0
 40
3.28548916131819
100
AcDbArc
 50
87.8364257597
 51
96.5210436052
  0
ARC
  5
120
330
1F
100
AcDbEntity
  8
0
  6
Continuous
 62
     7
370
     0
100
AcDbCircle
 10
135.5133026106
 20
350.434782778
 30
0.0
 40
3.295709920163731
100
AcDbArc
 50
83.4909546752
 51
92.1511292903
  0
LINE
  5
121
330
1F
100
AcDbEntity
  8
0
  6
Continuous
 62
     7
370
     0
100
AcDbLine
 10
865.4369085175
 20
343.3507490088
 30
0.0
 11
865.4369085175
 21
363.3507485618
 31
0.0
  0
LINE
  5
122
330
1F
100
AcDbEntity
  8
0
  6
Continuous
 62
     7
370
     0
100
AcDbLine
 10
136.3369045043
 20
363.3507485618
 30
0.0
 11
136.3369045043
 21
343.3507490088
 31
0.0
  0
ENDSEC
  0
SECTION
  2
OBJECTS
  0
DICTIONARY
  5
C
330
0
100
AcDbDictionary
281
     1
  3
ACAD_GROUP
350
D
  3
ACAD_LAYOUT
350
1A
  3
ACAD_MATERIAL
350
3B
  3
ACAD_MLEADERSTYLE
350
124
  3
ACAD_MLINESTYLE
350
17
  3
ACAD_PLOTSETTINGS
350
19
  3
ACAD_PLOTSTYLENAME
350
E
  3
ACAD_TABLESTYLE
350
123
  3
ACAD_VISUALSTYLE
350
2A
  0
DICTIONARY
  5
D
102
{ACAD_REACTORS
330
C
102
}
330
C
100
AcDbDictionary
281
     1
  0
DICTIONARY
  5
1A
102
{ACAD_REACTORS
330
C
102
}
330
C
100
AcDbDictionary
281
     1
  3
Layout1
350
1E
  3
Layout2
350
26
  3
Model
350
22
  0
DICTIONARY
  5
3B
102
{ACAD_REACTORS
330
C
102
}
330
C
100
AcDbDictionary
281
     1
  3
ByBlock
350
3D
  3
ByLayer
350
3C
  3
Global
350
3E
  0
DICTIONARY
  5
124
102
{ACAD_REACTORS
330
C
102
}
330
C
100
AcDbDictionary
281
     1
  0
DICTIONARY
  5
17
102
{ACAD_REACTORS
330
C
102
}
330
C
100
AcDbDictionary
281
     1
  3
Standard
350
18
  0
DICTIONARY
  5
19
102
{ACAD_REACTORS
330
C
102
}
330
C
100
AcDbDictionary
281
     1
  0
ACDBDICTIONARYWDFLT
  5
E
102
{ACAD_REACTORS
330
C
102
}
330
C
100
AcDbDictionary
281
     1
  3
Normal
350
F
100
AcDbDictionaryWithDefault
340
F
  0
DICTIONARY
  5
123
102
{ACAD_REACTORS
330
C
102
}
330
C
100
AcDbDictionary
281
     1
  0
DICTIONARY
  5
2A
102
{ACAD_REACTORS
330
C
102
}
330
C
100
AcDbDictionary
281
     1
  3
2dWireframe
350
2F
  3
3D Hidden
350
31
  3
3dWireframe
350
30
  3
Basic
350
32
  3
Brighten
350
36
  3
ColorChange
350
3A
  3
Conceptual
350
34
  3
Dim
350
35
  3
Facepattern
350
39
  3
Flat
350
2B
  3
FlatWithEdges
350
2C
  3
Gouraud
350
2D
  3
GouraudWithEdges
350
2E
  3
Linepattern
350
38
  3
Realistic
350
33
  3
Thicken
350
37
  0
LAYOUT
  5
1E
102
{ACAD_REACTORS
330
1A
102
}
330
1A
100
AcDbPlotSettings
  1

  2
none_device
  4

  6

 40
0.0
 41
0.0
 42
0.0
 43
0.0
 44
0.0
 45
0.0
 46
0.0
 47
0.0
 48
0.0
 49
0.0
140
0.0
141
0.0
142
1.0
143
1.0
 70
   688
 72
     0
 73
     0
 74
     5
  7

 75
    16
 76
     0
 77
     2
 78
   300
147
1.0
148
0.0
149
0.0
100
AcDbLayout
  1
Layout1
 70
     1
 71
     1
 10
0.0
 20
0.0
 11
420.0
 21
297.0
 12
0.0
 22
0.0
 32
0.0
 14
1.0000000000E+20
 24
1.0000000000E+20
 34
1.0000000000E+20
 15
-1.0000000000E+20
 25
-1.0000000000E+20
 35
-1.0000000000E+20
146
0.0
 13
0.0
 23
0.0
 33
0.0
 16
1.0
 26
0.0
 36
0.0
 17
0.0
 27
1.0
 37
0.0
 76
     0
330
1B
  0
LAYOUT
  5
26
102
{ACAD_REACTORS
330
1A
102
}
330
1A
100
AcDbPlotSettings
  1

  2
none_device
  4

  6

 40
0.0
 41
0.0
 42
0.0
 43
0.0
 44
0.0
 45
0.0
 46
0.0
 47
0.0
 48
0.0
 49
0.0
140
0.0
141
0.0
142
1.0
143
1.0
 70
   688
 72
     0
 73
     0
 74
     5
  7

 75
    16
 76
     0
 77
     2
 78
   300
147
1.0
148
0.0
149
0.0
100
AcDbLayout
  1
Layout2
 70
     1
 71
     2
 10
0.0
 20
0.0
 11
0.0
 21
0.0
 12
0.0
 22
0.0
 32
0.0
 14
0.0
 24
0.0
 34
0.0
 15
0.0
 25
0.0
 35
0.0
146
0.0
 13
0.0
 23
0.0
 33
0.0
 16
1.0
 26
0.0
 36
0.0
 17
0.0
 27
1.0
 37
0.0
 76
     0
330
23
  0
LAYOUT
  5
22
102
{ACAD_REACTORS
330
1A
102
}
330
1A
100
AcDbPlotSettings
  1

  2
none_device
  4

  6

 40
0.0
 41
0.0
 42
0.0
 43
0.0
 44
0.0
 45
0.0
 46
0.0
 47
0.0
 48
0.0
 49
0.0
140
0.0
141
0.0
142
1.0
143
1.0
 70
  1712
 72
     0
 73
     0
 74
     0
  7

 75
     0
 76
     0
 77
     2
 78
   300
147
1.0
148
0.0
149
0.0
100
AcDbLayout
  1
Model
 70
     1
 71
     0
 10
0.0
 20
0.0
 11
1189.0
 21
841.0
 12
0.0
 22
0.0
 32
0.0
 14
0.0
 24
0.0
 34
0.0
 15
1189.0
 25
841.0
 35
0.0
146
0.0
 13
0.0
 23
0.0
 33
0.0
 16
1.0
 26
0.0
 36
0.0
 17
0.0
 27
1.0
 37
0.0
 76
     0
330
1F
331
29
  0
MATERIAL
  5
3D
102
{ACAD_REACTORS
330
3B
102
}
330
3B
100
AcDbMaterial
  1
ByBlock
 72
     1
 94
      127
  0
MATERIAL
  5
3C
102
{ACAD_REACTORS
330
3B
102
}
330
3B
100
AcDbMaterial
  1
ByLayer
 72
     1
 94
      127
  0
MATERIAL
  5
3E
102
{ACAD_REACTORS
330
3B
102
}
330
3B
100
AcDbMaterial
  1
Global
 72
     1
 94
      127
  0
MLINESTYLE
  5
18
102
{ACAD_REACTORS
330
17
102
}
330
17
100
AcDbMlineStyle
  2
Standard
 70
     0
  3

 62
   256
 51
90.0
 52
90.0
 71
     2
 49
0.5
 62
   256
  6
BYLAYER
 49
-0.5
 62
   256
  6
BYLAYER
  0
ACDBPLACEHOLDER
  5
F
102
{ACAD_REACTORS
330
E
102
}
330
E
  0
VISUALSTYLE
  5
2F
102
{ACAD_REACTORS
330
2A
102
}
330
2A
100
AcDbVisualStyle
  2
2dWireframe
 70
     4
177
     2
291
     0
 71
     0
176
     1
 72
     2
176
     1
 73
     0
176
     1
 90
        0
176
     1
 40
-0.6
176
     1
 41
-30.0
176
     1
 62
     5
 63
     7
421
 16777215
176
     1
 74
     1
176
     1
 91
        4
176
     1
 64
     7
176
     1
 65
   257
176
     1
 75
     1
176
     1
175
     1
176
     1
 42
1.0
176
     1
 92
        0
176
     1
 66
   257
176
     1
 43
1.0
176
     1
 76
     1
176
     1
 77
     6
176
     1
 78
     2
176
     1
 67
     7
176
     1
 79
     5
176
     1
170
     0
176
     1
171
     0
176
     1
290
     0
176
     1
 93
        1
176
     1
 44
0.0
176
     1
173
     0
176
     1
  0
VISUALSTYLE
  5
31
102
{ACAD_REACTORS
330
2A
102
}
330
2A
100
AcDbVisualStyle
  2
3D Hidden
 70
     6
177
     2
291
     0
 71
     1
176
     1
 72
     2
176
     1
 73
     2
176
     1
 90
        0
176
     1
 40
-0.6
176
     1
 41
-30.0
176
     1
 62
     5
 63
     7
421
 16777215
176
     1
 74
     2
176
     1
 91
        2
176
     1
 64
     7
176
     1
 65
   257
176
     1
 75
     2
176
     1
175
     1
176
     1
 42
40.0
176
     1
 92
        0
176
     1
 66
   257
176
     1
 43
1.0
176
     1
 76
     1
176
     1
 77
     6
176
     1
 78
     2
176
     1
 67
     7
176
     1
 79
     3
176
     1
170
     0
176
     1
171
     0
176
     1
290
     0
176
     1
 93
        1
176
     1
 44
0.0
176
     1
173
     0
176
     1
  0
VISUALSTYLE
  5
30
102
{ACAD_REACTORS
330
2A
102
}
330
2A
100
AcDbVisualStyle
  2
3dWireframe
 70
     5
177
     2
291
     0
 71
     0
176
     1
 72
     2
176
     1
 73
     0
176
     1
 90
        0
176
     1
 40
-0.6
176
     1
 41
-30.0
176
     1
 62
     5
 63
     7
421
 16777215
176
     1
 74
     1
176
     1
 91
        4
176
     1
 64
     7
176
     1
 65
   257
176
     1
 75
     1
176
     1
175
     1
176
     1
 42
1.0
176
     1
 92
        0
176
     1
 66
   257
176
     1
 43
1.0
176
     1
 76
     1
176
     1
 77
     6
176
     1
 78
     2
176
     1
 67
     7
176
     1
 79
     5
176
     1
170
     0
176
     1
171
     0
176
     1
290
     0
176
     1
 93
        1
176
     1
 44
0.0
176
     1
173
     0
176
     1
  0
VISUALSTYLE
  5
32
102
{ACAD_REACTORS
330
2A
102
}
330
2A
100
AcDbVisualStyle
  2
Basic
 70
     7
177
     2
291
     1
 71
     1
176
     1
 72
     0
176
     1
 73
     1
176
     1
 90
        0
176
     1
 40
-0.6
176
     1
 41
-30.0
176
     1
 62
     5
 63
     7
421
 16777215
176
     1
 74
     0
176
     1
 91
        4
176
     1
 64
     7
176
     1
 65
   257
176
     1
 75
     1
176
     1
175
     1
176
     1
 42
1.0
176
     1
 92
        8
176
     1
 66
     7
176
     1
 43
1.0
176
     1
 76
     1
176
     1
 77
     6
176
     1
 78
     2
176
     1
 67
     7
176
     1
 79
     5
176
     1
170
     0
176
     1
171
     0
176
     1
290
     0
176
     1
 93
        1
176
     1
 44
0.0
176
     1
173
     0
176
     1
  0
VISUALSTYLE
  5
36
102
{ACAD_REACTORS
330
2A
102
}
330
2A
100
AcDbVisualStyle
  2
Brighten
 70
    12
177
     2
291
     1
 71
     2
176
     1
 72
     2
176
     1
 73
     0
176
     1
 90
        0
176
     1
 40
-0.6
176
     1
 41
-30.0
176
     1
 62
     5
 63
     7
421
 16777215
176
     1
 74
     1
176
     1
 91
        4
176
     1
 64
     7
176
     1
 65
   257
176
     1
 75
     1
176
     1
175
     1
176
     1
 42
1.0
176
     1
 92
        8
176
     1
 66
     7
176
     1
 43
1.0
176
     1
 76
     1
176
     1
 77
     6
176
     1
 78
     2
176
     1
 67
     7
176
     1
 79
     5
176
     1
170
     0
176
     1
171
     0
176
     1
290
     0
176
     1
 93
        1
176
     1
 44
50.0
176
     1
173
     0
176
     1
  0
VISUALSTYLE
  5
3A
102
{ACAD_REACTORS
330
2A
102
}
330
2A
100
AcDbVisualStyle
  2
ColorChange
 70
    16
177
     2
291
     1
 71
     2
176
     1
 72
     2
176
     1
 73
     3
176
     1
 90
        0
176
     1
 40
-0.6
176
     1
 41
-30.0
176
     1
 62
     5
 63
     8
421
  8421504
176
     1
 74
     1
176
     1
 91
        4
176
     1
 64
     7
176
     1
 65
   257
176
     1
 75
     1
176
     1
175
     1
176
     1
 42
1.0
176
     1
 92
        8
176
     1
 66
     8
424
  8421504
176
     1
 43
1.0
176
     1
 76
     1
176
     1
 77
     6
176
     1
 78
     2
176
     1
 67
     7
176
     1
 79
     5
176
     1
170
     0
176
     1
171
     0
176
     1
290
     0
176
     1
 93
        1
176
     1
 44
0.0
176
     1
173
     0
176
     1
  0
VISUALSTYLE
  5
34
102
{ACAD_REACTORS
330
2A
102
}
330
2A
100
AcDbVisualStyle
  2
Conceptual
 70
     9
177
     2
291
     0
 71
     3
176
     1
 72
     2
176
     1
 73
     0
176
     1
 90
        0
176
     1
 40
-0.6
176
     1
 41
-30.0
176
     1
 62
     5
 63
     7
421
 16777215
176
     1
 74
     2
176
     1
 91
        2
176
     1
 64
     7
176
     1
 65
   257
176
     1
 75
     1
176
     1
175
     1
176
     1
 42
40.0
176
     1
 92
        8
176
     1
 66
     7
176
     1
 43
1.0
176
     1
 76
     1
176
     1
 77
     6
176
     1
 78
     2
176
     1
 67
     7
176
     1
 79
     3
176
     1
170
     0
176
     1
171
     0
176
     1
290
     0
176
     1
 93
        1
176
     1
 44
0.0
176
     1
173
     0
176
     1
  0
VISUALSTYLE
  5
35
102
{ACAD_REACTORS
330
2A
102
}
330
2A
100
AcDbVisualStyle
  2
Dim
 70
    11
177
     2
291
     1
 71
     2
176
     1
 72
     2
176
     1
 73
     0
176
     1
 90
        0
176
     1
 40
-0.6
176
     1
 41
-30.0
176
     1
 62
     5
 63
     7
421
 16777215
176
     1
 74
     1
176
     1
 91
        4
176
     1
 64
     7
176
     1
 65
   257
176
     1
 75
     1
176
     1
175
     1
176
     1
 42
1.0
176
     1
 92
        8
176
     1
 66
     7
176
     1
 43
1.0
176
     1
 76
     1
176
     1
 77
     6
176
     1
 78
     2
176
     1
 67
     7
176
     1
 79
     5
176
     1
170
     0
176
     1
171
     0
176
     1
290
     0
176
     1
 93
        1
176
     1
 44
-50.0
176
     1
173
     0
176
     1
  0
VISUALSTYLE
  5
39
102
{ACAD_REACTORS
330
2A
102
}
330
2A
100
AcDbVisualStyle
  2
Facepattern
 70
    15
177
     2
291
     1
 71
     2
176
     1
 72
     2
176
     1
 73
     0
176
     1
 90
        0
176
     1
 40
-0.6
176
     1
 41
-30.0
176
     1
 62
     5
 63
     7
421
 16777215
176
     1
 74
     1
176
     1
 91
        4
176
     1
 64
     7
176
     1
 65
   257
176
     1
 75
     1
176
     1
175
     1
176
     1
 42
1.0
176
     1
 92
        8
176
     1
 66
     7
176
     1
 43
1.0
176
     1
 76
     1
176
     1
 77
     6
176
     1
 78
     2
176
     1
 67
     7
176
     1
 79
     5
176
     1
170
     0
176
     1
171
     0
176
     1
290
     0
176
     1
 93
        1
176
     1
 44
0.0
176
     1
173
     0
176
     1
  0
VISUALSTYLE
  5
2B
102
{ACAD_REACTORS
330
2A
102
}
330
2A
100
AcDbVisualStyle
  2
Flat
 70
     0
177
     2
291
     1
 71
     2
176
     1
 72
     1
176
     1
 73
     1
176
     1
 90
        2
176
     1
 40
-0.6
176
     1
 41
30.0
176
     1
 62
     5
 63
     7
421
 16777215
176
     1
 74
     0
176
     1
 91
        4
176
     1
 64
     7
176
     1
 65
   257
176
     1
 75
     1
176
     1
175
     1
176
     1
 42
1.0
176
     1
 92
        8
176
     1
 66
     7
176
     1
 43
1.0
176
     1
 76
     1
176
     1
 77
     6
176
     1
 78
     2
176
     1
 67
     7
176
     1
 79
     5
176
     1
170
     0
176
     1
171
     0
176
     1
290
     0
176
     1
 93
       13
176
     1
 44
0.0
176
     1
173
     0
176
     1
  0
VISUALSTYLE
  5
2C
102
{ACAD_REACTORS
330
2A
102
}
330
2A
100
AcDbVisualStyle
  2
FlatWithEdges
 70
     1
177
     2
291
     1
 71
     2
176
     1
 72
     1
176
     1
 73
     1
176
     1
 90
        2
176
     1
 40
-0.6
176
     1
 41
30.0
176
     1
 62
     5
 63
     7
421
 16777215
176
     1
 74
     1
176
     1
 91
        4
176
     1
 64
     7
176
     1
 65
   257
176
     1
 75
     1
176
     1
175
     1
176
     1
 42
1.0
176
     1
 92
        0
176
     1
 66
   257
176
     1
 43
1.0
176
     1
 76
     1
176
     1
 77
     6
176
     1
 78
     2
176
     1
 67
     7
176
     1
 79
     5
176
     1
170
     0
176
     1
171
     0
176
     1
290
     0
176
     1
 93
       13
176
     1
 44
0.0
176
     1
173
     0
176
     1
  0
VISUALSTYLE
  5
2D
102
{ACAD_REACTORS
330
2A
102
}
330
2A
100
AcDbVisualStyle
  2
Gouraud
 70
     2
177
     2
291
     1
 71
     2
176
     1
 72
     2
176
     1
 73
     1
176
     1
 90
        2
176
     1
 40
-0.6
176
     1
 41
30.0
176
     1
 62
     5
 63
     7
421
 16777215
176
     1
 74
     0
176
     1
 91
        4
176
     1
 64
     7
176
     1
 65
   257
176
     1
 75
     1
176
     1
175
     1
176
     1
 42
1.0
176
     1
 92
        0
176
     1
 66
     7
176
     1
 43
1.0
176
     1
 76
     1
176
     1
 77
     6
176
     1
 78
     2
176
     1
 67
     7
176
     1
 79
     5
176
     1
170
     0
176
     1
171
     0
176
     1
290
     0
176
     1
 93
       13
176
     1
 44
0.0
176
     1
173
     0
176
     1
  0
VISUALSTYLE
  5
2E
102
{ACAD_REACTORS
330
2A
102
}
330
2A
100
AcDbVisualStyle
  2
GouraudWithEdges
 70
     3
177
     2
291
     1
 71
     2
176
     1
 72
     2
176
     1
 73
     1
176
     1
 90
        2
176
     1
 40
-0.6
176
     1
 41
30.0
176
     1
 62
     5
 63
     7
421
 16777215
176
     1
 74
     1
176
     1
 91
        4
176
     1
 64
     7
176
     1
 65
   257
176
     1
 75
     1
176
     1
175
     1
176
     1
 42
1.0
176
     1
 92
        0
176
     1
 66
   257
176
     1
 43
1.0
176
     1
 76
     1
176
     1
 77
     6
176
     1
 78
     2
176
     1
 67
     7
176
     1
 79
     5
176
     1
170
     0
176
     1
171
     0
176
     1
290
     0
176
     1
 93
       13
176
     1
 44
0.0
176
     1
173
     0
176
     1
  0
VISUALSTYLE
  5
38
102
{ACAD_REACTORS
330
2A
102
}
330
2A
100
AcDbVisualStyle
  2
Linepattern
 70
    14
177
     2
291
     1
 71
     2
176
     1
 72
     2
176
     1
 73
     0
176
     1
 90
        0
176
     1
 40
-0.6
176
     1
 41
-30.0
176
     1
 62
     5
 63
     7
421
 16777215
176
     1
 74
     1
176
     1
 91
        4
176
     1
 64
     7
176
     1
 65
   257
176
     1
 75
     7
176
     1
175
     7
176
     1
 42
1.0
176
     1
 92
        8
176
     1
 66
     7
176
     1
 43
1.0
176
     1
 76
     1
176
     1
 77
     6
176
     1
 78
     2
176
     1
 67
     7
176
     1
 79
     5
176
     1
170
     0
176
     1
171
     0
176
     1
290
     0
176
     1
 93
        1
176
     1
 44
0.0
176
     1
173
     0
176
     1
  0
VISUALSTYLE
  5
33
102
{ACAD_REACTORS
330
2A
102
}
330
2A
100
AcDbVisualStyle
  2
Realistic
 70
     8
177
     2
291
     0
 71
     2
176
     1
 72
     2
176
     1
 73
     0
176
     1
 90
        0
176
     1
 40
-0.6
176
     1
 41
-30.0
176
     1
 62
     5
 63
     7
421
 16777215
176
     1
 74
     1
176
     1
 91
        0
176
     1
 64
     7
176
     1
 65
   257
176
     1
 75
     1
176
     1
175
     1
176
     1
 42
1.0
176
     1
 92
        8
176
     1
 66
     8
424
  7895160
176
     1
 43
1.0
176
     1
 76
     1
176
     1
 77
     6
176
     1
 78
     2
176
     1
 67
     7
176
     1
 79
     5
176
     1
170
     0
176
     1
171
     0
176
     1
290
     0
176
     1
 93
       13
176
     1
 44
0.0
176
     1
173
     0
176
     1
  0
VISUALSTYLE
  5
37
102
{ACAD_REACTORS
330
2A
102
}
330
2A
100
AcDbVisualStyle
  2
Thicken
 70
    13
177
     2
291
     1
 71
     2
176
     1
 72
     2
176
     1
 73
     0
176
     1
 90
        0
176
     1
 40
-0.6
176
     1
 41
-30.0
176
     1
 62
     5
 63
     7
421
 16777215
176
     1
 74
     1
176
     1
 91
        4
176
     1
 64
     7
176
     1
 65
   257
176
     1
 75
     1
176
     1
175
     1
176
     1
 42
1.0
176
     1
 92
       12
176
     1
 66
     7
176
     1
 43
1.0
176
     1
 76
     1
176
     1
 77
     6
176
     1
 78
     2
176
     1
 67
     7
176
     1
 79
     5
176
     1
170
     0
176
     1
171
     0
176
     1
290
     0
176
     1
 93
        1
176
     1
 44
0.0
176
     1
173
     0
176
     1
  0
ENDSEC
  0
EOF
