  0
SECTION
  2
HEADER
  9
$ACADVER
  1
AC1009
  9
$DWGCODEPAGE
  3
ansi_1252
  9
$INSBASE
 10
0.0
 20
0.0
 30
0.0
  9
$EXTMIN
 10
0.0
 20
0.0
 30
0.0
  9
$EXTMAX
 10
1189.0
 20
841.0
 30
0.0
  9
$LIMMIN
 10
0.0
 20
0.0
  9
$LIMMAX
 10
1189.0
 20
841.0
  9
$ORTHOMODE
 70
     0
  9
$REGENMODE
 70
     1
  9
$FILLMODE
 70
     1
  9
$QTEXTMODE
 70
     0
  9
$MIRRTEXT
 70
     1
  9
$DRAGMODE
 70
     2
  9
$LTSCALE
 40
1.0
  9
$OSMODE
 70
    37
  9
$ATTMODE
 70
     1
  9
$TEXTSIZE
 40
10.0
  9
$TRACEWID
 40
1.0
  9
$TEXTSTYLE
  7
STANDARD
  9
$CLAYER
  8
0
  9
$CELTYPE
  6
BYLAYER
  9
$CECOLOR
 62
   256
  9
$DIMSCALE
 40
1.0
  9
$DIMASZ
 40
2.5
  9
$DIMEXO
 40
0.0
  9
$DIMDLI
 40
3.75
  9
$DIMRND
 40
0.0
  9
$DIMDLE
 40
0.0
  9
$DIMEXE
 40
1.0
  9
$DIMTP
 40
0.0
  9
$DIMTM
 40
0.0
  9
$DIMTXT
 40
3.5
  9
$DIMCEN
 40
2.5
  9
$DIMTSZ
 40
0.0
  9
$DIMTOL
 70
     0
  9
$DIMLIM
 70
     0
  9
$DIMTIH
 70
     1
  9
$DIMTOH
 70
     1
  9
$DIMSE1
 70
     0
  9
$DIMSE2
 70
     0
  9
$DIMTAD
 70
     1
  9
$DIMZIN
 70
     0
  9
$DIMBLK
  1

  9
$DIMASO
 70
     1
  9
$DIMSHO
 70
     1
  9
$DIMPOST
  1

  9
$DIMAPOST
  1

  9
$DIMALT
 70
     0
  9
$DIMALTD
 70
     3
  9
$DIMALTF
 40
0.0393700787
  9
$DIMLFAC
 40
2.0
  9
$DIMTOFL
 70
     1
  9
$DIMTVP
 40
0.0
  9
$DIMTIX
 70
     0
  9
$DIMSOXD
 70
     0
  9
$DIMSAH
 70
     0
  9
$DIMBLK1
  1

  9
$DIMBLK2
  1

  9
$DIMSTYLE
  2
ISO-25
  9
$DIMCLRD
 70
     0
  9
$DIMCLRE
 70
     0
  9
$DIMCLRT
 70
     0
  9
$DIMTFAC
 40
1.0
  9
$DIMGAP
 40
1.5
  9
$LUNITS
 70
     2
  9
$LUPREC
 70
     2
  9
$SKETCHINC
 40
1.0
  9
$FILLETRAD
 40
10.0
  9
$AUNITS
 70
     0
  9
$AUPREC
 70
     2
  9
$MENU
  1
.
  9
$ELEVATION
 40
0.0
  9
$PELEVATION
 40
0.0
  9
$THICKNESS
 40
0.0
  9
$LIMCHECK
 70
     0
  9
$CHAMFERA
 40
0.0
  9
$CHAMFERB
 40
0.0
  9
$SKPOLY
 70
     0
  9
$TDCREATE
 40
2458417.603927708
  9
$TDUPDATE
 40
2458417.603928426
  9
$TDINDWG
 40
0.0000000116
  9
$TDUSRTIMER
 40
0.0000000116
  9
$USRTIMER
 70
     1
  9
$ANGBASE
 50
0.0
  9
$ANGDIR
 70
     0
  9
$PDMODE
 70
     0
  9
$PDSIZE
 40
-1.0
  9
$PLINEWID
 40
0.0
  9
$COORDS
 70
     1
  9
$SPLFRAME
 70
     0
  9
$SPLINETYPE
 70
     6
  9
$SPLINESEGS
 70
     8
  9
$ATTDIA
 70
     0
  9
$ATTREQ
 70
     1
  9
$HANDLING
 70
     1
  9
$HANDSEED
  5
C2C
  9
$SURFTAB1
 70
     6
  9
$SURFTAB2
 70
     6
  9
$SURFTYPE
 70
     6
  9
$SURFU
 70
     6
  9
$SURFV
 70
     6
  9
$UCSNAME
  2

  9
$UCSORG
 10
0.0
 20
0.0
 30
0.0
  9
$UCSXDIR
 10
1.0
 20
0.0
 30
0.0
  9
$UCSYDIR
 10
0.0
 20
1.0
 30
0.0
  9
$PUCSNAME
  2

  9
$PUCSORG
 10
0.0
 20
0.0
 30
0.0
  9
$PUCSXDIR
 10
1.0
 20
0.0
 30
0.0
  9
$PUCSYDIR
 10
0.0
 20
1.0
 30
0.0
  9
$USERI1
 70
     0
  9
$USERI2
 70
     0
  9
$USERI3
 70
     0
  9
$USERI4
 70
     0
  9
$USERI5
 70
     0
  9
$USERR1
 40
0.0
  9
$USERR2
 40
0.0
  9
$USERR3
 40
0.0
  9
$USERR4
 40
0.0
  9
$USERR5
 40
0.0
  9
$WORLDVIEW
 70
     1
  9
$SHADEDGE
 70
     3
  9
$SHADEDIF
 70
    70
  9
$TILEMODE
 70
     1
  9
$MAXACTVP
 70
    64
  9
$PLIMCHECK
 70
     0
  9
$PEXTMIN
 10
1.0000000000E+20
 20
1.0000000000E+20
 30
1.0000000000E+20
  9
$PEXTMAX
 10
-1.0000000000E+20
 20
-1.0000000000E+20
 30
-1.0000000000E+20
  9
$PLIMMIN
 10
0.0
 20
0.0
  9
$PLIMMAX
 10
420.0
 20
297.0
  9
$UNITMODE
 70
     0
  9
$VISRETAIN
 70
     1
  9
$PLINEGEN
 70
     0
  9
$PSLTSCALE
 70
     1
  0
ENDSEC
  0
SECTION
  2
TABLES
  0
TABLE
  2
VPORT
 70
     1
  0
VPORT
  2
*ACTIVE
 70
     0
 10
0.0
 20
0.0
 11
1.0
 21
1.0
 12
594.5
 22
420.5
 13
0.0
 23
0.0
 14
10.0
 24
10.0
 15
10.0
 25
10.0
 16
0.0
 26
0.0
 36
1.0
 17
0.0
 27
0.0
 37
0.0
 40
841.0
 41
1.4137931034
 42
50.0
 43
0.0
 44
0.0
 50
0.0
 51
0.0
 71
     0
 72
  2000
 73
     1
 74
     3
 75
     0
 76
     0
 77
     0
 78
     0
  0
ENDTAB
  0
TABLE
  2
LTYPE
 70
     6
  0
LTYPE
  2
CONTINUOUS
 70
     0
  3
Solid line
 72
    65
 73
     0
 40
0.0
  0
LTYPE
  2
HIDDEN
 70
     0
  3
Hidden __ __ __ __ __ __ __ __ __ __ __ __ __ __
 72
    65
 73
     2
 40
1.905
 49
1.27
 49
-0.635
  0
LTYPE
  2
PHANTOM
 70
     0
  3
Phantom ______  __  __  ______  __  __  ______
 72
    65
 73
     6
 40
12.7
 49
6.35
 49
-1.27
 49
1.27
 49
-1.27
 49
1.27
 49
-1.27
  0
LTYPE
  2
CENTER
 70
     0
  3
Center ____ _ ____ _ ____ _ ____ _ ____ _ ____
 72
    65
 73
     4
 40
10.16
 49
6.35
 49
-1.27
 49
1.27
 49
-1.27
  0
LTYPE
  2
CENTERX2
 70
     0
  3
Center (2x) ________  __  ________  __  _____
 72
    65
 73
     4
 40
20.32
 49
12.7
 49
-2.54
 49
2.54
 49
-2.54
  0
LTYPE
  2
DOT2
 70
     0
  3
Dot (.5x) ........................................
 72
    65
 73
     2
 40
0.635
 49
0.0
 49
-0.635
  0
ENDTAB
  0
TABLE
  2
LAYER
 70
     1
  0
LAYER
  2
0
 70
     0
 62
     7
  6
CONTINUOUS
  0
ENDTAB
  0
TABLE
  2
STYLE
 70
     1
  0
STYLE
  2
STANDARD
 70
     0
 40
0.0
 41
1.0
 50
0.0
 71
     0
 42
10.0
  3
txt
  4

  0
ENDTAB
  0
TABLE
  2
VIEW
 70
     0
  0
ENDTAB
  0
TABLE
  2
UCS
 70
     0
  0
ENDTAB
  0
TABLE
  2
APPID
 70
     1
  0
APPID
  2
ACAD
 70
     0
  0
ENDTAB
  0
TABLE
  2
DIMSTYLE
 70
     2
  0
DIMSTYLE
  2
ISO-25
 70
     0
  3

  4

  5

  6

  7

 40
1.0
 41
2.5
 42
0.625
 43
3.75
 44
1.25
 45
0.0
 46
0.0
 47
0.0
 48
0.0
140
2.5
141
2.5
142
0.0
143
0.0393700787
144
1.0
145
0.0
146
1.0
147
0.625
 71
     0
 72
     0
 73
     0
 74
     0
 75
     0
 76
     0
 77
     1
 78
     8
170
     0
171
     3
172
     1
173
     0
174
     0
175
     0
176
     0
177
     0
178
     0
  0
DIMSTYLE
  2
SLDDIMSTYLE0
 70
     0
  3

  4

  5

  6

  7

 40
1.0
 41
2.5
 42
0.0625
 43
0.38
 44
0.0
 45
0.000000001
 46
0.0
 47
0.0
 48
0.0
140
6.0
141
0.09
142
0.0
143
25.4
144
2.0
145
0.0
146
1.0
147
1.5
 71
     0
 72
     0
 73
     0
 74
     0
 75
     0
 76
     0
 77
     1
 78
    12
170
     0
171
     2
172
     0
173
     1
174
     0
175
     0
176
     0
177
     0
178
     0
  0
ENDTAB
  0
ENDSEC
  0
SECTION
  2
BLOCKS
  0
BLOCK
  8
0
  2
$MODEL_SPACE
 70
     0
 10
0.0
 20
0.0
 30
0.0
  3
$MODEL_SPACE
  1

  0
ENDBLK
  5
21
  8
0
  0
BLOCK
 67
     1
  8
0
  2
$PAPER_SPACE
 70
     0
 10
0.0
 20
0.0
 30
0.0
  3
$PAPER_SPACE
  1

  0
ENDBLK
  5
1D
 67
     1
  8
0
  0
BLOCK
  8
0
  2
_D
 70
     0
 10
0.0
 20
0.0
 30
0.0
  3
_D
  1

  0
SOLID
  5
7A
  8
0
  6
CONTINUOUS
 62
     7
 10
42.7614395004
 20
152.0299240879
 30
0.0
 11
42.4614395004
 21
149.5299240879
 31
0.0
 12
43.0614395004
 22
149.5299240879
 32
0.0
 13
43.0614395004
 23
149.5299240879
 33
0.0
  0
SOLID
  5
7B
  8
0
  6
CONTINUOUS
 62
     7
 10
42.7614395004
 20
52.0299240879
 30
0.0
 11
43.0614395004
 21
54.5299240879
 31
0.0
 12
42.4614395004
 22
54.5299240879
 32
0.0
 13
42.4614395004
 23
54.5299240879
 33
0.0
  0
LINE
  5
7C
  8
0
  6
CONTINUOUS
 62
     7
 10
56.6850079902
 20
152.0299240879
 30
0.0
 11
41.7614395004
 21
152.0299240879
 31
0.0
  0
LINE
  5
7D
  8
0
  6
CONTINUOUS
 62
     7
 10
56.6850079902
 20
52.0299240879
 30
0.0
 11
41.7614395004
 21
52.0299240879
 31
0.0
  0
LINE
  5
7E
  8
0
  6
CONTINUOUS
 62
     7
 10
42.7614395004
 20
152.0299240879
 30
0.0
 11
42.7614395004
 21
52.0299240879
 31
0.0
  0
TEXT
  5
7F
  8
0
  6
CONTINUOUS
 62
     7
 10
40.6418793617
 20
94.3680541463
 30
0.0
 40
6.0
  1
100
 50
90.0
 41
0.7
 11
42.7614397332
 21
94.3680541463
 31
0.0
 73
     1
  0
TEXT
  5
80
  8
0
  6
CONTINUOUS
 62
     7
 10
40.6418793617
 20
105.7430548466
 30
0.0
 40
6.0
  1
mm
 50
90.0
 41
0.7
 11
42.7614397332
 21
105.7430548466
 31
0.0
 73
     1
  0
ENDBLK
  5
79
  8
0
  0
BLOCK
  8
0
  2
_D_1
 70
     0
 10
0.0
 20
0.0
 30
0.0
  3
_D_1
  1

  0
SOLID
  5
85
  8
0
  6
CONTINUOUS
 62
     7
 10
56.6850079902
 20
38.4602342313
 30
0.0
 11
59.1850079902
 21
38.1602342313
 31
0.0
 12
59.1850079902
 22
38.7602342313
 32
0.0
 13
59.1850079902
 23
38.7602342313
 33
0.0
  0
SOLID
  5
86
  8
0
  6
CONTINUOUS
 62
     7
 10
156.6850079902
 20
38.4602342313
 30
0.0
 11
154.1850079902
 21
38.7602342313
 31
0.0
 12
154.1850079902
 22
38.1602342313
 32
0.0
 13
154.1850079902
 23
38.1602342313
 33
0.0
  0
LINE
  5
87
  8
0
  6
CONTINUOUS
 62
     7
 10
56.6850079902
 20
52.0299240879
 30
0.0
 11
56.6850079902
 21
37.4602342313
 31
0.0
  0
LINE
  5
88
  8
0
  6
CONTINUOUS
 62
     7
 10
156.6850079902
 20
52.0299240879
 30
0.0
 11
156.6850079902
 21
37.4602342313
 31
0.0
  0
LINE
  5
89
  8
0
  6
CONTINUOUS
 62
     7
 10
56.6850079902
 20
38.4602342313
 30
0.0
 11
156.6850079902
 21
38.4602342313
 31
0.0
  0
TEXT
  5
8A
  8
0
  6
CONTINUOUS
 62
     7
 10
93.9626484861
 20
40.57979437
 30
0.0
 40
6.0
  1
100
 41
0.7
 11
93.9626484861
 21
38.4602339984
 31
0.0
 73
     1
  0
TEXT
  5
8B
  8
0
  6
CONTINUOUS
 62
     7
 10
105.3376491864
 20
40.57979437
 30
0.0
 40
6.0
  1
mm
 41
0.7
 11
105.3376491864
 21
38.4602339984
 31
0.0
 73
     1
  0
ENDBLK
  5
84
  8
0
  0
ENDSEC
  0
SECTION
  2
ENTITIES
  0
LINE
  5
73
  8
0
  6
CONTINUOUS
 62
     7
 10
56.6850079902
 20
152.0299240879
 30
0.0
 11
56.6850079902
 21
52.0299240879
 31
0.0
  0
LINE
  5
74
  8
0
  6
CONTINUOUS
 62
     7
 10
56.6850079902
 20
52.0299240879
 30
0.0
 11
156.6850079902
 21
52.0299240879
 31
0.0
  0
DIMENSION
  5
75
  8
0
  6
CONTINUOUS
 62
     7
  2
_D
 10
42.7614395004
 20
52.0299240879
 30
0.0
 11
42.7614395004
 21
105.4472211621
 31
0.0
 70
   160
  1
<>mm
  3
SLDDIMSTYLE0
 13
56.6850079902
 23
152.0299240879
 33
0.0
 14
56.6850079902
 24
52.0299240879
 34
0.0
 50
90.0
  0
DIMENSION
  5
81
  8
0
  6
CONTINUOUS
 62
     7
  2
_D_1
 10
156.6850079902
 20
38.4602342313
 30
0.0
 11
105.0418155019
 21
38.4602342313
 31
0.0
 70
   160
  1
<>mm
  3
SLDDIMSTYLE0
 13
56.6850079902
 23
52.0299240879
 33
0.0
 14
156.6850079902
 24
52.0299240879
 34
0.0
  0
TEXT
  5
8C
  8
0
  6
CONTINUOUS
 62
     7
 10
1007.6538988942
 20
38.5786367169
 30
0.0
 40
10.0
  1
KLUDI GmbH & Co KG
 41
0.6222222222
 11
1007.6538988942
 21
35.0460360978
 31
0.0
 73
     1
  0
TEXT
  5
8D
  8
0
  6
CONTINUOUS
 62
     7
 10
558.6103101482
 20
37.8549805469
 30
0.0
 40
10.0
  1
48 448 05 65
 41
0.6125
 11
558.6103101482
 21
34.3223799277
 31
0.0
 73
     1
  0
POLYLINE
  5
8E
  8
0
  6
CONTINUOUS
 62
     7
 66
     1
 10
0.0
 20
0.0
 30
0.0
 70
   128
  0
VERTEX
  5
4FA
  8
0
  6
CONTINUOUS
 62
     7
 10
171.5543287675
 20
489.9966912984
 30
0.0
  0
VERTEX
  5
4FB
  8
0
  6
CONTINUOUS
 62
     7
 10
166.5120589416
 20
490.1401969313
 30
0.0
  0
VERTEX
  5
4FC
  8
0
  6
CONTINUOUS
 62
     7
 10
161.7049592416
 20
490.2443485974
 30
0.0
  0
VERTEX
  5
4FD
  8
0
  6
CONTINUOUS
 62
     7
 10
157.6558518093
 20
490.3211529075
 30
0.0
  0
VERTEX
  5
4FE
  8
0
  6
CONTINUOUS
 62
     7
 10
154.3647291939
 20
490.3675737499
 30
0.0
  0
VERTEX
  5
4FF
  8
0
  6
CONTINUOUS
 62
     7
 10
151.8315913956
 20
490.3907711326
 30
0.0
  0
VERTEX
  5
500
  8
0
  6
CONTINUOUS
 62
     7
 10
149.8976590912
 20
490.4005313932
 30
0.0
  0
VERTEX
  5
501
  8
0
  6
CONTINUOUS
 62
     7
 10
147.4465074818
 20
490.4026920616
 30
0.0
  0
VERTEX
  5
502
  8
0
  6
CONTINUOUS
 62
     7
 10
144.2618536632
 20
490.3887259482
 30
0.0
  0
VERTEX
  5
503
  8
0
  6
CONTINUOUS
 62
     7
 10
140.3436976354
 20
490.3466525196
 30
0.0
  0
VERTEX
  5
504
  8
0
  6
CONTINUOUS
 62
     7
 10
135.6920319479
 20
490.2665476023
 30
0.0
  0
VERTEX
  5
505
  8
0
  6
CONTINUOUS
 62
     7
 10
130.3068640511
 20
490.1521215855
 30
0.0
  0
VERTEX
  5
506
  8
0
  6
CONTINUOUS
 62
     7
 10
124.7709932606
 20
489.996173483
 30
0.0
  0
SEQEND
  5
B1C
  8
0
  6
CONTINUOUS
 62
     7
  0
ARC
  5
8F
  8
0
  6
CONTINUOUS
 62
     7
 10
178.9625970881
 20
438.9597834646
 30
0.0
 40
1.699999999999989
 50
0.0
 51
90.0
  0
ARC
  5
90
  8
0
  6
CONTINUOUS
 62
     7
 10
117.3625970881
 20
438.9597834646
 30
0.0
 40
1.700000000000017
 50
90.0
 51
180.0
  0
LINE
  5
91
  8
0
  6
CONTINUOUS
 62
     7
 10
115.6625988762
 20
438.9597834728
 30
0.0
 11
115.6625988762
 21
432.6597834646
 31
0.0
  0
LINE
  5
92
  8
0
  6
CONTINUOUS
 62
     7
 10
180.6625964921
 20
432.6597834646
 30
0.0
 11
180.6625964921
 21
438.9597834728
 31
0.0
  0
ARC
  5
93
  8
0
  6
CONTINUOUS
 62
     7
 10
174.1625970881
 20
451.6597834646
 30
0.0
 40
1.000000000000057
 50
0.0
 51
90.0
  0
ARC
  5
94
  8
0
  6
CONTINUOUS
 62
     7
 10
122.1625970881
 20
451.6597834646
 30
0.0
 40
1.000000000000057
 50
90.0
 51
180.0
  0
LINE
  5
95
  8
0
  6
CONTINUOUS
 62
     7
 10
121.1626025717
 20
451.6597828536
 30
0.0
 11
121.1626025717
 21
440.6597838445
 31
0.0
  0
LINE
  5
96
  8
0
  6
CONTINUOUS
 62
     7
 10
175.1626002471
 20
440.6597838445
 30
0.0
 11
175.1626002471
 21
451.6597828536
 31
0.0
  0
LINE
  5
97
  8
0
  6
CONTINUOUS
 62
     7
 10
172.1625941675
 20
452.6597830175
 30
0.0
 11
172.137038676
 21
454.124157381
 31
0.0
  0
LINE
  5
98
  8
0
  6
CONTINUOUS
 62
     7
 10
124.1881641429
 20
454.124157381
 30
0.0
 11
124.1625937502
 21
452.6597830175
 31
0.0
  0
ARC
  5
99
  8
0
  6
CONTINUOUS
 62
     7
 10
148.1625970881
 20
450.1597834646
 30
0.0
 40
24.30000000000046
 50
160.7786753508
 51
170.6106272566
  0
ARC
  5
9A
  8
0
  6
CONTINUOUS
 62
     7
 10
148.1625970881
 20
450.1597834646
 30
0.0
 40
24.30000000000049
 50
9.3893727434
 51
19.2213246494
  0
LINE
  5
9B
  8
0
  6
CONTINUOUS
 62
     7
 10
173.162596194
 20
458.7187646597
 30
0.0
 11
173.162596194
 21
488.4957755624
 31
0.0
  0
LINE
  5
9C
  8
0
  6
CONTINUOUS
 62
     7
 10
123.1625917237
 20
488.4957755624
 30
0.0
 11
123.1625917237
 21
458.7136367976
 31
0.0
  0
ARC
  5
9D
  8
0
  6
CONTINUOUS
 62
     7
 10
124.662597088
 20
488.495775267
 30
0.0
 40
1.5
 50
90.0000000001
 51
180.0000000001
  0
ARC
  5
9E
  8
0
  6
CONTINUOUS
 62
     7
 10
171.662597088
 20
488.4957752671
 30
0.0
 40
1.5
 50
0.0000000001
 51
90.0000000001
  0
LINE
  5
9F
  8
0
  6
CONTINUOUS
 62
     7
 10
270.1625971924
 20
521.1532945453
 30
0.0
 11
270.1625971924
 21
522.6303870498
 31
0.0
  0
LINE
  5
A0
  8
0
  6
CONTINUOUS
 62
     7
 10
246.1625969838
 20
522.6303870498
 30
0.0
 11
246.1625969838
 21
521.1532945453
 31
0.0
  0
LINE
  5
A1
  8
0
  6
CONTINUOUS
 62
     7
 10
247.1625971477
 20
516.915240389
 30
0.0
 11
247.6881573777
 21
516.6306952654
 31
0.0
  0
LINE
  5
A2
  8
0
  6
CONTINUOUS
 62
     7
 10
268.6370367985
 20
516.6306952654
 30
0.0
 11
269.1625970285
 21
516.915240389
 31
0.0
  0
ARC
  5
A3
  8
0
  6
CONTINUOUS
 62
     7
 10
255.976801046
 20
549.1960319297
 30
0.0
 40
28.91693483837402
 50
240.6632341738
 51
250.1601058606
  0
ARC
  5
A4
  8
0
  6
CONTINUOUS
 62
     7
 10
260.3255173578
 20
549.2460238497
 30
0.0
 40
28.97172370573855
 50
289.8488945356
 51
299.3277654299
  0
ARC
  5
A5
  8
0
  6
CONTINUOUS
 62
     7
 10
236.3628876838
 20
527.2324749507
 30
0.0
 40
1.153811294711774
 50
220.1970735992
 51
234.1967575652
  0
ARC
  5
A6
  8
0
  6
CONTINUOUS
 62
     7
 10
279.961884942
 20
527.2329301347
 30
0.0
 40
1.154427073901456
 50
305.8069948705
 51
319.7991739652
  0
ARC
  5
A7
  8
0
  6
CONTINUOUS
 62
     7
 10
288.9625970881
 20
438.9597834646
 30
0.0
 40
1.699999999999989
 50
0.0
 51
90.0
  0
ARC
  5
A8
  8
0
  6
CONTINUOUS
 62
     7
 10
227.3625970881
 20
438.9597834646
 30
0.0
 40
1.700000000000017
 50
90.0
 51
180.0
  0
LINE
  5
A9
  8
0
  6
CONTINUOUS
 62
     7
 10
225.6625982802
 20
438.9597834728
 30
0.0
 11
225.6625982802
 21
432.6597834646
 31
0.0
  0
LINE
  5
AA
  8
0
  6
CONTINUOUS
 62
     7
 10
290.662595896
 20
432.6597834646
 30
0.0
 11
290.662595896
 21
438.9597834728
 31
0.0
  0
LINE
  5
AB
  8
0
  6
CONTINUOUS
 62
     7
 10
289.8191417437
 20
432.6547834647
 30
0.0
 11
289.8191417437
 21
432.6597834646
 31
0.0
  0
LINE
  5
AC
  8
0
  6
CONTINUOUS
 62
     7
 10
226.5060524325
 20
432.6597834646
 30
0.0
 11
226.5060524325
 21
432.6547834647
 31
0.0
  0
LINE
  5
AD
  8
0
  6
CONTINUOUS
 62
     7
 10
269.1625970285
 20
548.8597835123
 30
0.0
 11
269.1625970285
 21
554.7867650806
 31
0.0
  0
LINE
  5
AE
  8
0
  6
CONTINUOUS
 62
     7
 10
247.1625971477
 20
554.7867650806
 30
0.0
 11
247.1625971477
 21
548.8597835123
 31
0.0
  0
ARC
  5
AF
  8
0
  6
CONTINUOUS
 62
     7
 10
268.6625970881
 20
554.786767352
 30
0.0
 40
0.5
 50
0.0
 51
89.0048202209
  0
ARC
  5
B0
  8
0
  6
CONTINUOUS
 62
     7
 10
247.6625970881
 20
554.786767352
 30
0.0
 40
0.5
 50
90.9951797791
 51
180.0
  0
ARC
  5
B1
  8
0
  6
CONTINUOUS
 62
     7
 10
247.4625970881
 20
548.8597834646
 30
0.0
 40
0.3000000000000682
 50
180.0
 51
270.0
  0
ARC
  5
B2
  8
0
  6
CONTINUOUS
 62
     7
 10
268.8625970881
 20
548.8597834646
 30
0.0
 40
0.3000000000000682
 50
270.0
 51
0.0
  0
ARC
  5
B3
  8
0
  6
CONTINUOUS
 62
     7
 10
258.1625970881
 20
-49.6720422454
 30
0.0
 40
605.0499999999827
 50
89.0048202209
 51
90.9951797791
  0
LINE
  5
B4
  8
0
  6
CONTINUOUS
 62
     7
 10
233.1625967156
 20
527.191282314
 30
0.0
 11
233.1625967156
 21
440.6597838445
 31
0.0
  0
LINE
  5
B5
  8
0
  6
CONTINUOUS
 62
     7
 10
283.1625974606
 20
440.6597838445
 30
0.0
 11
283.1625974606
 21
527.191282314
 31
0.0
  0
LINE
  5
B6
  8
0
  6
CONTINUOUS
 62
     7
 10
233.1625967156
 20
539.4875789701
 30
0.0
 11
233.1625967156
 21
527.191282314
 31
0.0
  0
LINE
  5
B7
  8
0
  6
CONTINUOUS
 62
     7
 10
283.1625974606
 20
527.191282314
 30
0.0
 11
283.1625974606
 21
539.4876087724
 31
0.0
  0
LINE
  5
B8
  8
0
  6
CONTINUOUS
 62
     7
 10
261.1625971142
 20
540.9556190192
 30
0.0
 11
261.1625971142
 21
548.5597858845
 31
0.0
  0
LINE
  5
B9
  8
0
  6
CONTINUOUS
 62
     7
 10
255.162597062
 20
548.5597858845
 30
0.0
 11
255.162597062
 21
540.955462557
 31
0.0
  0
LINE
  5
BA
  8
0
  6
CONTINUOUS
 62
     7
 10
335.6625976841
 20
438.9597834728
 30
0.0
 11
335.6625976841
 21
432.6597834646
 31
0.0
  0
LINE
  5
BB
  8
0
  6
CONTINUOUS
 62
     7
 10
400.6625953
 20
432.6597834646
 30
0.0
 11
400.6625953
 21
438.9597834728
 31
0.0
  0
ARC
  5
BC
  8
0
  6
CONTINUOUS
 62
     7
 10
398.9625970881
 20
438.9597834646
 30
0.0
 40
1.700000000000045
 50
0.0
 51
90.0
  0
ARC
  5
BD
  8
0
  6
CONTINUOUS
 62
     7
 10
337.3625970881
 20
438.9597834646
 30
0.0
 40
1.699999999999989
 50
90.0
 51
180.0
  0
ARC
  5
BE
  8
0
  6
CONTINUOUS
 62
     7
 10
351.5974639182
 20
655.0067834646
 30
0.0
 40
1.002999999999944
 50
90.0
 51
181.8273883304
  0
ARC
  5
BF
  8
0
  6
CONTINUOUS
 62
     7
 10
384.727730258
 20
655.0067834646
 30
0.0
 40
1.002999999999944
 50
358.1726116696
 51
90.0
  0
LINE
  5
C0
  8
0
  6
CONTINUOUS
 62
     7
 10
350.5949768107
 20
654.9747968732
 30
0.0
 11
350.8886637967
 21
645.7695896446
 31
0.0
  0
LINE
  5
C1
  8
0
  6
CONTINUOUS
 62
     7
 10
385.4365291874
 20
645.7695896446
 30
0.0
 11
385.7302161734
 21
654.9747968732
 31
0.0
  0
ARC
  5
C2
  8
0
  6
CONTINUOUS
 62
     7
 10
385.1357831248
 20
645.7791834646
 30
0.0
 40
0.3009000000000735
 50
270.0
 51
358.1726116696
  0
ARC
  5
C3
  8
0
  6
CONTINUOUS
 62
     7
 10
351.1894110514
 20
645.7791834646
 30
0.0
 40
0.3009000000000735
 50
181.8273883304
 51
270.0
  0
LINE
  5
C4
  8
0
  6
CONTINUOUS
 62
     7
 10
351.0001021307
 20
645.1703394472
 30
0.0
 11
353.6278772037
 21
571.0212970792
 31
0.0
  0
LINE
  5
C5
  8
0
  6
CONTINUOUS
 62
     7
 10
382.6973157804
 20
571.0212970792
 30
0.0
 11
385.3250834029
 21
645.1703394472
 31
0.0
  0
ARC
  5
C6
  8
0
  6
CONTINUOUS
 62
     7
 10
385.0237672238
 20
645.1773834633
 30
0.0
 40
0.3008999792908727
 50
358.0107441906
 51
90.0000055724
  0
ARC
  5
C7
  8
0
  6
CONTINUOUS
 62
     7
 10
351.3014269524
 20
645.1773834633
 30
0.0
 40
0.3008999792908197
 50
89.9999944276
 51
182.0085200559
  0
LINE
  5
C8
  8
0
  6
CONTINUOUS
 62
     7
 10
385.1938935797
 20
441.5363148495
 30
0.0
 11
382.6973828356
 21
571.0238153755
 31
0.0
  0
LINE
  5
C9
  8
0
  6
CONTINUOUS
 62
     7
 10
353.6278101485
 20
571.0238153755
 30
0.0
 11
351.131306855
 21
441.5363148495
 31
0.0
  0
ARC
  5
CA
  8
0
  6
CONTINUOUS
 62
     7
 10
384.1910721133
 20
441.5182334581
 30
0.0
 40
1.002999993367995
 50
301.1426496318
 51
1.1129537052
  0
ARC
  5
CB
  8
0
  6
CONTINUOUS
 62
     7
 10
352.1341220629
 20
441.5182334581
 30
0.0
 40
1.002999993367999
 50
178.9199946883
 51
238.8573503682
  0
LINE
  5
CC
  8
0
  6
CONTINUOUS
 62
     7
 10
170.2854054849
 20
489.9949404119
 30
0.0
 11
171.570682792
 21
489.9949404119
 31
0.0
  0
POLYLINE
  5
CD
  8
0
  6
CONTINUOUS
 62
     7
 66
     1
 10
0.0
 20
0.0
 30
0.0
 70
   128
  0
VERTEX
  5
507
  8
0
  6
CONTINUOUS
 62
     7
 10
170.2854054849
 20
489.9947727739
 30
0.0
  0
VERTEX
  5
508
  8
0
  6
CONTINUOUS
 62
     7
 10
167.7168923299
 20
489.9947243451
 30
0.0
  0
VERTEX
  5
509
  8
0
  6
CONTINUOUS
 62
     7
 10
165.6277197282
 20
489.9950856983
 30
0.0
  0
VERTEX
  5
50A
  8
0
  6
CONTINUOUS
 62
     7
 10
164.5393016617
 20
489.9949068843
 30
0.0
  0
VERTEX
  5
50B
  8
0
  6
CONTINUOUS
 62
     7
 10
163.7539806645
 20
489.9947690486
 30
0.0
  0
VERTEX
  5
50C
  8
0
  6
CONTINUOUS
 62
     7
 10
163.257980613
 20
489.9950372695
 30
0.0
  0
SEQEND
  5
B1D
  8
0
  6
CONTINUOUS
 62
     7
  0
POLYLINE
  5
CE
  8
0
  6
CONTINUOUS
 62
     7
 66
     1
 10
0.0
 20
0.0
 30
0.0
 70
   128
  0
VERTEX
  5
50D
  8
0
  6
CONTINUOUS
 62
     7
 10
163.257980613
 20
489.9950372695
 30
0.0
  0
VERTEX
  5
50E
  8
0
  6
CONTINUOUS
 62
     7
 10
162.9917862694
 20
489.9950782477
 30
0.0
  0
VERTEX
  5
50F
  8
0
  6
CONTINUOUS
 62
     7
 10
162.9268619101
 20
489.9947839497
 30
0.0
  0
SEQEND
  5
B1E
  8
0
  6
CONTINUOUS
 62
     7
  0
POLYLINE
  5
CF
  8
0
  6
CONTINUOUS
 62
     7
 66
     1
 10
0.0
 20
0.0
 30
0.0
 70
   128
  0
VERTEX
  5
510
  8
0
  6
CONTINUOUS
 62
     7
 10
133.3983334582
 20
489.9947839497
 30
0.0
  0
VERTEX
  5
511
  8
0
  6
CONTINUOUS
 62
     7
 10
133.3330887239
 20
489.9950782477
 30
0.0
  0
VERTEX
  5
512
  8
0
  6
CONTINUOUS
 62
     7
 10
133.0672147553
 20
489.9950409948
 30
0.0
  0
SEQEND
  5
B1F
  8
0
  6
CONTINUOUS
 62
     7
  0
POLYLINE
  5
D0
  8
0
  6
CONTINUOUS
 62
     7
 66
     1
 10
0.0
 20
0.0
 30
0.0
 70
   128
  0
VERTEX
  5
513
  8
0
  6
CONTINUOUS
 62
     7
 10
133.0672147553
 20
489.9950409948
 30
0.0
  0
VERTEX
  5
514
  8
0
  6
CONTINUOUS
 62
     7
 10
132.2094294112
 20
489.9948063015
 30
0.0
  0
VERTEX
  5
515
  8
0
  6
CONTINUOUS
 62
     7
 10
130.6783947032
 20
489.9950894236
 30
0.0
  0
VERTEX
  5
516
  8
0
  6
CONTINUOUS
 62
     7
 10
129.3582561295
 20
489.9948435544
 30
0.0
  0
VERTEX
  5
517
  8
0
  6
CONTINUOUS
 62
     7
 10
127.8048696797
 20
489.994903159
 30
0.0
  0
VERTEX
  5
518
  8
0
  6
CONTINUOUS
 62
     7
 10
126.039797334
 20
489.9947578727
 30
0.0
  0
SEQEND
  5
B20
  8
0
  6
CONTINUOUS
 62
     7
  0
LINE
  5
D1
  8
0
  6
CONTINUOUS
 62
     7
 10
126.039797334
 20
489.9949404119
 30
0.0
 11
124.7545125763
 21
489.9949404119
 31
0.0
  0
LINE
  5
D2
  8
0
  6
CONTINUOUS
 62
     7
 10
151.0243060868
 20
471.1315790831
 30
0.0
 11
151.590997247
 21
470.4514155804
 31
0.0
  0
POLYLINE
  5
D3
  8
0
  6
CONTINUOUS
 62
     7
 66
     1
 10
0.0
 20
0.0
 30
0.0
 70
   128
  0
VERTEX
  5
519
  8
0
  6
CONTINUOUS
 62
     7
 10
150.4706012886
 20
471.3829728483
 30
0.0
  0
VERTEX
  5
51A
  8
0
  6
CONTINUOUS
 62
     7
 10
150.4882889669
 20
471.3951806246
 30
0.0
  0
VERTEX
  5
51B
  8
0
  6
CONTINUOUS
 62
     7
 10
150.515289871
 20
471.4023033797
 30
0.0
  0
VERTEX
  5
51C
  8
0
  6
CONTINUOUS
 62
     7
 10
150.5685764234
 20
471.4004407345
 30
0.0
  0
VERTEX
  5
51D
  8
0
  6
CONTINUOUS
 62
     7
 10
150.7223415058
 20
471.3476384698
 30
0.0
  0
VERTEX
  5
51E
  8
0
  6
CONTINUOUS
 62
     7
 10
151.0243060868
 20
471.1315790831
 30
0.0
  0
SEQEND
  5
B21
  8
0
  6
CONTINUOUS
 62
     7
  0
ARC
  5
D4
  8
0
  6
CONTINUOUS
 62
     7
 10
148.1626571946
 20
477.0117556664
 30
0.0
 40
6.083568192619211
 50
247.7042911876
 51
292.2948764886
  0
POLYLINE
  5
D5
  8
0
  6
CONTINUOUS
 62
     7
 66
     1
 10
0.0
 20
0.0
 30
0.0
 70
   128
  0
VERTEX
  5
51F
  8
0
  6
CONTINUOUS
 62
     7
 10
145.3009190838
 20
471.1316126107
 30
0.0
  0
VERTEX
  5
520
  8
0
  6
CONTINUOUS
 62
     7
 10
145.6221955698
 20
471.3568175851
 30
0.0
  0
VERTEX
  5
521
  8
0
  6
CONTINUOUS
 62
     7
 10
145.6930803936
 20
471.3847945153
 30
0.0
  0
VERTEX
  5
522
  8
0
  6
CONTINUOUS
 62
     7
 10
145.773777632
 20
471.4025604247
 30
0.0
  0
VERTEX
  5
523
  8
0
  6
CONTINUOUS
 62
     7
 10
145.8062994163
 20
471.4027243375
 30
0.0
  0
VERTEX
  5
524
  8
0
  6
CONTINUOUS
 62
     7
 10
145.8382847588
 20
471.3945845782
 30
0.0
  0
VERTEX
  5
525
  8
0
  6
CONTINUOUS
 62
     7
 10
145.8546313326
 20
471.3830063759
 30
0.0
  0
SEQEND
  5
B22
  8
0
  6
CONTINUOUS
 62
     7
  0
LINE
  5
D6
  8
0
  6
CONTINUOUS
 62
     7
 10
144.7240131776
 20
470.4357097565
 30
0.0
 11
145.3009190838
 21
471.1316126107
 31
0.0
  0
POLYLINE
  5
D7
  8
0
  6
CONTINUOUS
 62
     7
 66
     1
 10
0.0
 20
0.0
 30
0.0
 70
   128
  0
VERTEX
  5
526
  8
0
  6
CONTINUOUS
 62
     7
 10
144.7235512416
 20
470.4348641156
 30
0.0
  0
VERTEX
  5
527
  8
0
  6
CONTINUOUS
 62
     7
 10
144.3316432517
 20
469.6248407184
 30
0.0
  0
VERTEX
  5
528
  8
0
  6
CONTINUOUS
 62
     7
 10
144.1731545012
 20
468.9502018212
 30
0.0
  0
SEQEND
  5
B23
  8
0
  6
CONTINUOUS
 62
     7
  0
POLYLINE
  5
D8
  8
0
  6
CONTINUOUS
 62
     7
 66
     1
 10
0.0
 20
0.0
 30
0.0
 70
   128
  0
VERTEX
  5
529
  8
0
  6
CONTINUOUS
 62
     7
 10
152.1520408671
 20
468.9502018212
 30
0.0
  0
VERTEX
  5
52A
  8
0
  6
CONTINUOUS
 62
     7
 10
151.7863291185
 20
470.1145375787
 30
0.0
  0
VERTEX
  5
52B
  8
0
  6
CONTINUOUS
 62
     7
 10
151.5913250725
 20
470.4507822811
 30
0.0
  0
SEQEND
  5
B24
  8
0
  6
CONTINUOUS
 62
     7
  0
LINE
  5
D9
  8
0
  6
CONTINUOUS
 62
     7
 10
117.362597851
 20
440.6597838445
 30
0.0
 11
178.9625975173
 21
440.6597838445
 31
0.0
  0
LINE
  5
DA
  8
0
  6
CONTINUOUS
 62
     7
 10
148.1625976841
 20
432.6597834646
 30
0.0
 11
180.6625964921
 21
432.6597834646
 31
0.0
  0
LINE
  5
DB
  8
0
  6
CONTINUOUS
 62
     7
 10
115.6625988762
 20
432.6597834646
 30
0.0
 11
148.1625976841
 21
432.6597834646
 31
0.0
  0
LINE
  5
DC
  8
0
  6
CONTINUOUS
 62
     7
 10
122.1625896971
 20
452.6597830175
 30
0.0
 11
174.1625982206
 21
452.6597830175
 31
0.0
  0
ARC
  5
DD
  8
0
  6
CONTINUOUS
 62
     7
 10
148.1625970881
 20
468.6597834646
 30
0.0
 40
3.569682227408604
 50
130.2816903266
 51
49.717538598
  0
ARC
  5
DE
  8
0
  6
CONTINUOUS
 62
     7
 10
148.1625970881
 20
468.6597834646
 30
0.0
 40
4.0000000000001
 50
294.0569599293
 51
4.1635802874
  0
ARC
  5
DF
  8
0
  6
CONTINUOUS
 62
     7
 10
148.1625996206
 20
468.8880106044
 30
0.0
 40
4.209429762317135
 50
247.2085071169
 51
292.7904456986
  0
ARC
  5
E0
  8
0
  6
CONTINUOUS
 62
     7
 10
148.1625970881
 20
468.6597834646
 30
0.0
 40
4.000000000000101
 50
175.8364197128
 51
245.9420704949
  0
LINE
  5
E1
  8
0
  6
CONTINUOUS
 62
     7
 10
148.1625976841
 20
458.1597829877
 30
0.0
 11
129.9789341967
 21
458.1597829877
 31
0.0
  0
LINE
  5
E2
  8
0
  6
CONTINUOUS
 62
     7
 10
166.346253721
 20
458.1597829877
 30
0.0
 11
148.1625976841
 21
458.1597829877
 31
0.0
  0
LINE
  5
E3
  8
0
  6
CONTINUOUS
 62
     7
 10
172.137038676
 20
454.124157381
 30
0.0
 11
124.1881641429
 21
454.124157381
 31
0.0
  0
POLYLINE
  5
E4
  8
0
  6
CONTINUOUS
 62
     7
 66
     1
 10
0.0
 20
0.0
 30
0.0
 70
   128
  0
VERTEX
  5
52C
  8
0
  6
CONTINUOUS
 62
     7
 10
172.9085462968
 20
458.359782648
 30
0.0
  0
VERTEX
  5
52D
  8
0
  6
CONTINUOUS
 62
     7
 10
173.1455269139
 20
458.5325821011
 30
0.0
  0
VERTEX
  5
52E
  8
0
  6
CONTINUOUS
 62
     7
 10
173.130283026
 20
458.7187646597
 30
0.0
  0
SEQEND
  5
B25
  8
0
  6
CONTINUOUS
 62
     7
  0
POLYLINE
  5
E5
  8
0
  6
CONTINUOUS
 62
     7
 66
     1
 10
0.0
 20
0.0
 30
0.0
 70
   128
  0
VERTEX
  5
52F
  8
0
  6
CONTINUOUS
 62
     7
 10
123.1913807671
 20
458.7136367976
 30
0.0
  0
VERTEX
  5
530
  8
0
  6
CONTINUOUS
 62
     7
 10
123.2394817154
 20
458.4231628745
 30
0.0
  0
VERTEX
  5
531
  8
0
  6
CONTINUOUS
 62
     7
 10
123.4166416209
 20
458.359782648
 30
0.0
  0
SEQEND
  5
B26
  8
0
  6
CONTINUOUS
 62
     7
  0
LINE
  5
E6
  8
0
  6
CONTINUOUS
 62
     7
 10
129.9789341967
 20
458.1597829877
 30
0.0
 11
123.6146184485
 21
458.1597829877
 31
0.0
  0
ARC
  5
E7
  8
0
  6
CONTINUOUS
 62
     7
 10
172.7095639722
 20
458.3587652968
 30
0.0
 40
0.1989849254066825
 50
270.2938150597
 51
0.2929376805
  0
LINE
  5
E8
  8
0
  6
CONTINUOUS
 62
     7
 10
172.7105843704
 20
458.1597829877
 30
0.0
 11
166.346253721
 21
458.1597829877
 31
0.0
  0
POLYLINE
  5
E9
  8
0
  6
CONTINUOUS
 62
     7
 66
     1
 10
0.0
 20
0.0
 30
0.0
 70
   128
  0
VERTEX
  5
532
  8
0
  6
CONTINUOUS
 62
     7
 10
123.6146184485
 20
458.1597829877
 30
0.0
  0
VERTEX
  5
533
  8
0
  6
CONTINUOUS
 62
     7
 10
123.4388741534
 20
458.2238039642
 30
0.0
  0
VERTEX
  5
534
  8
0
  6
CONTINUOUS
 62
     7
 10
123.4150173943
 20
458.3603675186
 30
0.0
  0
SEQEND
  5
B27
  8
0
  6
CONTINUOUS
 62
     7
  0
POLYLINE
  5
EA
  8
0
  6
CONTINUOUS
 62
     7
 66
     1
 10
0.0
 20
0.0
 30
0.0
 70
   128
  0
VERTEX
  5
535
  8
0
  6
CONTINUOUS
 62
     7
 10
172.944800822
 20
458.3862173079
 30
0.0
  0
VERTEX
  5
536
  8
0
  6
CONTINUOUS
 62
     7
 10
172.9483994525
 20
458.3448740362
 30
0.0
  0
VERTEX
  5
537
  8
0
  6
CONTINUOUS
 62
     7
 10
172.7105843704
 20
458.1597829877
 30
0.0
  0
SEQEND
  5
B28
  8
0
  6
CONTINUOUS
 62
     7
  0
ARC
  5
EB
  8
0
  6
CONTINUOUS
 62
     7
 10
237.7145234382
 20
793.972228956
 30
0.0
 40
253.3072583106016
 50
269.7015736024
 51
270.3361618558
  0
ARC
  5
EC
  8
0
  6
CONTINUOUS
 62
     7
 10
278.610670738
 20
793.972228956
 30
0.0
 40
253.3072583106018
 50
269.6638381442
 51
270.2984263976
  0
POLYLINE
  5
ED
  8
0
  6
CONTINUOUS
 62
     7
 66
     1
 10
0.0
 20
0.0
 30
0.0
 70
   128
  0
VERTEX
  5
538
  8
0
  6
CONTINUOUS
 62
     7
 10
258.1625970881
 20
524.8009870469
 30
0.0
  0
VERTEX
  5
539
  8
0
  6
CONTINUOUS
 62
     7
 10
256.1084249857
 20
524.77151255
 30
0.0
  0
VERTEX
  5
53A
  8
0
  6
CONTINUOUS
 62
     7
 10
254.1098160538
 20
524.6841693937
 30
0.0
  0
VERTEX
  5
53B
  8
0
  6
CONTINUOUS
 62
     7
 10
252.1846121046
 20
524.5365361391
 30
0.0
  0
VERTEX
  5
53C
  8
0
  6
CONTINUOUS
 62
     7
 10
250.4281330723
 20
524.3351692974
 30
0.0
  0
VERTEX
  5
53D
  8
0
  6
CONTINUOUS
 62
     7
 10
248.8932981025
 20
524.0857536613
 30
0.0
  0
VERTEX
  5
53E
  8
0
  6
CONTINUOUS
 62
     7
 10
247.6172716226
 20
523.7956876575
 30
0.0
  0
VERTEX
  5
53F
  8
0
  6
CONTINUOUS
 62
     7
 10
246.6342476066
 20
523.4696577012
 30
0.0
  0
VERTEX
  5
540
  8
0
  6
CONTINUOUS
 62
     7
 10
245.9818431045
 20
523.1195251166
 30
0.0
  0
VERTEX
  5
541
  8
0
  6
CONTINUOUS
 62
     7
 10
245.6625969018
 20
522.6303795992
 30
0.0
  0
SEQEND
  5
B29
  8
0
  6
CONTINUOUS
 62
     7
  0
POLYLINE
  5
EE
  8
0
  6
CONTINUOUS
 62
     7
 66
     1
 10
0.0
 20
0.0
 30
0.0
 70
   128
  0
VERTEX
  5
542
  8
0
  6
CONTINUOUS
 62
     7
 10
258.1625970881
 20
524.8009870469
 30
0.0
  0
VERTEX
  5
543
  8
0
  6
CONTINUOUS
 62
     7
 10
260.2167691905
 20
524.77151255
 30
0.0
  0
VERTEX
  5
544
  8
0
  6
CONTINUOUS
 62
     7
 10
262.2153781224
 20
524.6841693937
 30
0.0
  0
VERTEX
  5
545
  8
0
  6
CONTINUOUS
 62
     7
 10
264.1405820716
 20
524.5365361391
 30
0.0
  0
VERTEX
  5
546
  8
0
  6
CONTINUOUS
 62
     7
 10
265.8970611039
 20
524.3351692974
 30
0.0
  0
VERTEX
  5
547
  8
0
  6
CONTINUOUS
 62
     7
 10
267.4318960737
 20
524.0857536613
 30
0.0
  0
VERTEX
  5
548
  8
0
  6
CONTINUOUS
 62
     7
 10
268.7079225536
 20
523.7956876575
 30
0.0
  0
VERTEX
  5
549
  8
0
  6
CONTINUOUS
 62
     7
 10
269.6909465696
 20
523.4696577012
 30
0.0
  0
VERTEX
  5
54A
  8
0
  6
CONTINUOUS
 62
     7
 10
270.3433510717
 20
523.1195251166
 30
0.0
  0
VERTEX
  5
54B
  8
0
  6
CONTINUOUS
 62
     7
 10
270.6625972744
 20
522.6303795992
 30
0.0
  0
SEQEND
  5
B2A
  8
0
  6
CONTINUOUS
 62
     7
  0
ARC
  5
EF
  8
0
  6
CONTINUOUS
 62
     7
 10
235.3882272373
 20
317.415526288
 30
0.0
 40
223.273796200465
 50
89.7571042302
 51
90.2041812892
  0
LINE
  5
F0
  8
0
  6
CONTINUOUS
 62
     7
 10
255.1625975277
 20
540.955462557
 30
0.0
 11
234.3351243864
 21
540.6872714578
 31
0.0
  0
POLYLINE
  5
F1
  8
0
  6
CONTINUOUS
 62
     7
 66
     1
 10
0.0
 20
0.0
 30
0.0
 70
   128
  0
VERTEX
  5
54C
  8
0
  6
CONTINUOUS
 62
     7
 10
255.162597062
 20
540.9556190192
 30
0.0
  0
VERTEX
  5
54D
  8
0
  6
CONTINUOUS
 62
     7
 10
255.3317101076
 20
540.9560362517
 30
0.0
  0
VERTEX
  5
54E
  8
0
  6
CONTINUOUS
 62
     7
 10
255.8199822772
 20
540.957131487
 30
0.0
  0
VERTEX
  5
54F
  8
0
  6
CONTINUOUS
 62
     7
 10
256.5723667023
 20
540.9584427892
 30
0.0
  0
VERTEX
  5
550
  8
0
  6
CONTINUOUS
 62
     7
 10
257.5040393378
 20
540.9593890129
 30
0.0
  0
VERTEX
  5
551
  8
0
  6
CONTINUOUS
 62
     7
 10
258.1625970881
 20
540.9596050798
 30
0.0
  0
SEQEND
  5
B2B
  8
0
  6
CONTINUOUS
 62
     7
  0
LINE
  5
F2
  8
0
  6
CONTINUOUS
 62
     7
 10
261.1625966485
 20
540.955462557
 30
0.0
 11
281.9900697898
 21
540.6872714578
 31
0.0
  0
ARC
  5
F3
  8
0
  6
CONTINUOUS
 62
     7
 10
280.9374669818
 20
318.5524629219
 30
0.0
 40
222.1368650322486
 50
89.7949026515
 51
90.2442991615
  0
LINE
  5
F4
  8
0
  6
CONTINUOUS
 62
     7
 10
279.9312080126
 20
540.6690324365
 30
0.0
 11
279.9353766124
 21
540.670604509
 31
0.0
  0
POLYLINE
  5
F5
  8
0
  6
CONTINUOUS
 62
     7
 66
     1
 10
0.0
 20
0.0
 30
0.0
 70
   128
  0
VERTEX
  5
552
  8
0
  6
CONTINUOUS
 62
     7
 10
258.1625970881
 20
540.9596050798
 30
0.0
  0
VERTEX
  5
553
  8
0
  6
CONTINUOUS
 62
     7
 10
259.1556119835
 20
540.9591356932
 30
0.0
  0
VERTEX
  5
554
  8
0
  6
CONTINUOUS
 62
     7
 10
260.0366718936
 20
540.958003205
 30
0.0
  0
VERTEX
  5
555
  8
0
  6
CONTINUOUS
 62
     7
 10
260.7064462602
 20
540.9567068039
 30
0.0
  0
VERTEX
  5
556
  8
0
  6
CONTINUOUS
 62
     7
 10
261.0894217025
 20
540.9557978331
 30
0.0
  0
VERTEX
  5
557
  8
0
  6
CONTINUOUS
 62
     7
 10
261.1625971142
 20
540.9556190192
 30
0.0
  0
SEQEND
  5
B2C
  8
0
  6
CONTINUOUS
 62
     7
  0
ARC
  5
F6
  8
0
  6
CONTINUOUS
 62
     7
 10
279.9221304966
 20
539.4688733372
 30
0.0
 40
1.199989494489981
 50
359.9995117614
 51
89.5844491437
  0
POLYLINE
  5
F7
  8
0
  6
CONTINUOUS
 62
     7
 66
     1
 10
0.0
 20
0.0
 30
0.0
 70
   128
  0
VERTEX
  5
558
  8
0
  6
CONTINUOUS
 62
     7
 10
235.1689710151
 20
527.3309807002
 30
0.0
  0
VERTEX
  5
559
  8
0
  6
CONTINUOUS
 62
     7
 10
235.1783512961
 20
527.6266495406
 30
0.0
  0
VERTEX
  5
55A
  8
0
  6
CONTINUOUS
 62
     7
 10
235.1874000262
 20
527.9113958298
 30
0.0
  0
VERTEX
  5
55B
  8
0
  6
CONTINUOUS
 62
     7
 10
235.1964487563
 20
528.1958217441
 30
0.0
  0
SEQEND
  5
B2D
  8
0
  6
CONTINUOUS
 62
     7
  0
LINE
  5
F8
  8
0
  6
CONTINUOUS
 62
     7
 10
235.2030741851
 20
539.4690642773
 30
0.0
 11
235.2010196875
 21
539.4703159748
 31
0.0
  0
LINE
  5
F9
  8
0
  6
CONTINUOUS
 62
     7
 10
235.1994699668
 20
539.471254748
 30
0.0
 11
235.1964636575
 21
539.4730875908
 31
0.0
  0
POLYLINE
  5
FA
  8
0
  6
CONTINUOUS
 62
     7
 66
     1
 10
0.0
 20
0.0
 30
0.0
 70
   128
  0
VERTEX
  5
55C
  8
0
  6
CONTINUOUS
 62
     7
 10
281.1562231611
 20
527.3309807002
 30
0.0
  0
VERTEX
  5
55D
  8
0
  6
CONTINUOUS
 62
     7
 10
281.1468428801
 20
527.6266495406
 30
0.0
  0
VERTEX
  5
55E
  8
0
  6
CONTINUOUS
 62
     7
 10
281.13779415
 20
527.9113958298
 30
0.0
  0
VERTEX
  5
55F
  8
0
  6
CONTINUOUS
 62
     7
 10
281.1287454199
 20
528.1958217441
 30
0.0
  0
SEQEND
  5
B2E
  8
0
  6
CONTINUOUS
 62
     7
  0
LINE
  5
FB
  8
0
  6
CONTINUOUS
 62
     7
 10
281.1287137549
 20
539.4730726897
 30
0.0
 11
281.1257428359
 21
539.4712696492
 31
0.0
  0
LINE
  5
FC
  8
0
  6
CONTINUOUS
 62
     7
 10
281.1242005657
 20
539.470330876
 30
0.0
 11
281.1221199911
 21
539.4690642773
 31
0.0
  0
POLYLINE
  5
FD
  8
0
  6
CONTINUOUS
 62
     7
 66
     1
 10
0.0
 20
0.0
 30
0.0
 70
   128
  0
VERTEX
  5
560
  8
0
  6
CONTINUOUS
 62
     7
 10
270.1625971924
 20
522.6303870498
 30
0.0
  0
VERTEX
  5
561
  8
0
  6
CONTINUOUS
 62
     7
 10
269.9802898671
 20
522.9922319471
 30
0.0
  0
VERTEX
  5
562
  8
0
  6
CONTINUOUS
 62
     7
 10
269.4389083292
 20
523.3430797874
 30
0.0
  0
VERTEX
  5
563
  8
0
  6
CONTINUOUS
 62
     7
 10
268.554901598
 20
523.6722762405
 30
0.0
  0
VERTEX
  5
564
  8
0
  6
CONTINUOUS
 62
     7
 10
267.3551299478
 20
523.9698151766
 30
0.0
  0
VERTEX
  5
565
  8
0
  6
CONTINUOUS
 62
     7
 10
265.876048604
 20
524.226651591
 30
0.0
  0
VERTEX
  5
566
  8
0
  6
CONTINUOUS
 62
     7
 10
264.1625971403
 20
524.4349921762
 30
0.0
  0
VERTEX
  5
567
  8
0
  6
CONTINUOUS
 62
     7
 10
262.2668388169
 20
524.5884964882
 30
0.0
  0
VERTEX
  5
568
  8
0
  6
CONTINUOUS
 62
     7
 10
260.2463752366
 20
524.6825079142
 30
0.0
  0
VERTEX
  5
569
  8
0
  6
CONTINUOUS
 62
     7
 10
258.1625970881
 20
524.7141654312
 30
0.0
  0
SEQEND
  5
B2F
  8
0
  6
CONTINUOUS
 62
     7
  0
POLYLINE
  5
FE
  8
0
  6
CONTINUOUS
 62
     7
 66
     1
 10
0.0
 20
0.0
 30
0.0
 70
   128
  0
VERTEX
  5
56A
  8
0
  6
CONTINUOUS
 62
     7
 10
258.1625970881
 20
524.7141654312
 30
0.0
  0
VERTEX
  5
56B
  8
0
  6
CONTINUOUS
 62
     7
 10
256.0788189396
 20
524.6825079142
 30
0.0
  0
VERTEX
  5
56C
  8
0
  6
CONTINUOUS
 62
     7
 10
254.0583553593
 20
524.5884964882
 30
0.0
  0
VERTEX
  5
56D
  8
0
  6
CONTINUOUS
 62
     7
 10
252.1625970359
 20
524.4349921762
 30
0.0
  0
VERTEX
  5
56E
  8
0
  6
CONTINUOUS
 62
     7
 10
250.4491455722
 20
524.226651591
 30
0.0
  0
VERTEX
  5
56F
  8
0
  6
CONTINUOUS
 62
     7
 10
248.9700642284
 20
523.9698151766
 30
0.0
  0
VERTEX
  5
570
  8
0
  6
CONTINUOUS
 62
     7
 10
247.7702925782
 20
523.6722762405
 30
0.0
  0
VERTEX
  5
571
  8
0
  6
CONTINUOUS
 62
     7
 10
246.886285847
 20
523.3430797874
 30
0.0
  0
VERTEX
  5
572
  8
0
  6
CONTINUOUS
 62
     7
 10
246.3449043091
 20
522.9922319471
 30
0.0
  0
VERTEX
  5
573
  8
0
  6
CONTINUOUS
 62
     7
 10
246.1625969838
 20
522.6303870498
 30
0.0
  0
SEQEND
  5
B30
  8
0
  6
CONTINUOUS
 62
     7
  0
LINE
  5
FF
  8
0
  6
CONTINUOUS
 62
     7
 10
269.1625970285
 20
518.6154330789
 30
0.0
 11
269.1625970285
 21
521.9860831915
 31
0.0
  0
POLYLINE
  5
100
  8
0
  6
CONTINUOUS
 62
     7
 66
     1
 10
0.0
 20
0.0
 30
0.0
 70
   128
  0
VERTEX
  5
574
  8
0
  6
CONTINUOUS
 62
     7
 10
269.1625970285
 20
518.6154330789
 30
0.0
  0
VERTEX
  5
575
  8
0
  6
CONTINUOUS
 62
     7
 10
268.1369091253
 20
518.9411948143
 30
0.0
  0
VERTEX
  5
576
  8
0
  6
CONTINUOUS
 62
     7
 10
266.7945827227
 20
519.2301730334
 30
0.0
  0
VERTEX
  5
577
  8
0
  6
CONTINUOUS
 62
     7
 10
265.1782304849
 20
519.4732035219
 30
0.0
  0
VERTEX
  5
578
  8
0
  6
CONTINUOUS
 62
     7
 10
263.3391636293
 20
519.6625674783
 30
0.0
  0
VERTEX
  5
579
  8
0
  6
CONTINUOUS
 62
     7
 10
261.3357646726
 20
519.7922522842
 30
0.0
  0
VERTEX
  5
57A
  8
0
  6
CONTINUOUS
 62
     7
 10
259.2316318871
 20
519.8581377684
 30
0.0
  0
VERTEX
  5
57B
  8
0
  6
CONTINUOUS
 62
     7
 10
257.0935622891
 20
519.8581377684
 30
0.0
  0
VERTEX
  5
57C
  8
0
  6
CONTINUOUS
 62
     7
 10
254.9894295036
 20
519.7922522842
 30
0.0
  0
VERTEX
  5
57D
  8
0
  6
CONTINUOUS
 62
     7
 10
252.9860305469
 20
519.6625674783
 30
0.0
  0
VERTEX
  5
57E
  8
0
  6
CONTINUOUS
 62
     7
 10
251.1469636913
 20
519.4732035219
 30
0.0
  0
VERTEX
  5
57F
  8
0
  6
CONTINUOUS
 62
     7
 10
249.5306114535
 20
519.2301730334
 30
0.0
  0
VERTEX
  5
580
  8
0
  6
CONTINUOUS
 62
     7
 10
248.1882850509
 20
518.9411948143
 30
0.0
  0
VERTEX
  5
581
  8
0
  6
CONTINUOUS
 62
     7
 10
247.1625971477
 20
518.6154330789
 30
0.0
  0
SEQEND
  5
B31
  8
0
  6
CONTINUOUS
 62
     7
  0
LINE
  5
101
  8
0
  6
CONTINUOUS
 62
     7
 10
247.1625971477
 20
518.6154330789
 30
0.0
 11
247.1625971477
 21
521.9860831915
 31
0.0
  0
POLYLINE
  5
102
  8
0
  6
CONTINUOUS
 62
     7
 66
     1
 10
0.0
 20
0.0
 30
0.0
 70
   128
  0
VERTEX
  5
582
  8
0
  6
CONTINUOUS
 62
     7
 10
247.1625971477
 20
520.3205058991
 30
0.0
  0
VERTEX
  5
583
  8
0
  6
CONTINUOUS
 62
     7
 10
246.7285822015
 20
520.5208892642
 30
0.0
  0
VERTEX
  5
584
  8
0
  6
CONTINUOUS
 62
     7
 10
246.4152573477
 20
520.7279483496
 30
0.0
  0
VERTEX
  5
585
  8
0
  6
CONTINUOUS
 62
     7
 10
246.2259287815
 20
520.9394926845
 30
0.0
  0
VERTEX
  5
586
  8
0
  6
CONTINUOUS
 62
     7
 10
246.1625969838
 20
521.1532945453
 30
0.0
  0
VERTEX
  5
587
  8
0
  6
CONTINUOUS
 62
     7
 10
246.2259287815
 20
521.3670964061
 30
0.0
  0
VERTEX
  5
588
  8
0
  6
CONTINUOUS
 62
     7
 10
246.4152573477
 20
521.5786481916
 30
0.0
  0
VERTEX
  5
589
  8
0
  6
CONTINUOUS
 62
     7
 10
246.7285822015
 20
521.7856998264
 30
0.0
  0
VERTEX
  5
58A
  8
0
  6
CONTINUOUS
 62
     7
 10
247.1625971477
 20
521.9860831915
 30
0.0
  0
SEQEND
  5
B32
  8
0
  6
CONTINUOUS
 62
     7
  0
POLYLINE
  5
103
  8
0
  6
CONTINUOUS
 62
     7
 66
     1
 10
0.0
 20
0.0
 30
0.0
 70
   128
  0
VERTEX
  5
58B
  8
0
  6
CONTINUOUS
 62
     7
 10
269.1625970285
 20
521.9860831915
 30
0.0
  0
VERTEX
  5
58C
  8
0
  6
CONTINUOUS
 62
     7
 10
269.5966119747
 20
521.7856998264
 30
0.0
  0
VERTEX
  5
58D
  8
0
  6
CONTINUOUS
 62
     7
 10
269.9099368285
 20
521.5786481916
 30
0.0
  0
VERTEX
  5
58E
  8
0
  6
CONTINUOUS
 62
     7
 10
270.0992653947
 20
521.3670964061
 30
0.0
  0
VERTEX
  5
58F
  8
0
  6
CONTINUOUS
 62
     7
 10
270.1625971924
 20
521.1532945453
 30
0.0
  0
VERTEX
  5
590
  8
0
  6
CONTINUOUS
 62
     7
 10
270.0992653947
 20
520.9394926845
 30
0.0
  0
VERTEX
  5
591
  8
0
  6
CONTINUOUS
 62
     7
 10
269.9099368285
 20
520.7279483496
 30
0.0
  0
VERTEX
  5
592
  8
0
  6
CONTINUOUS
 62
     7
 10
269.5966119747
 20
520.5208892642
 30
0.0
  0
VERTEX
  5
593
  8
0
  6
CONTINUOUS
 62
     7
 10
269.1625970285
 20
520.3205058991
 30
0.0
  0
SEQEND
  5
B33
  8
0
  6
CONTINUOUS
 62
     7
  0
LINE
  5
104
  8
0
  6
CONTINUOUS
 62
     7
 10
269.1625970285
 20
517.2140682756
 30
0.0
 11
269.1625970285
 21
518.6154330789
 31
0.0
  0
POLYLINE
  5
105
  8
0
  6
CONTINUOUS
 62
     7
 66
     1
 10
0.0
 20
0.0
 30
0.0
 70
   128
  0
VERTEX
  5
594
  8
0
  6
CONTINUOUS
 62
     7
 10
269.1625970285
 20
517.2140682756
 30
0.0
  0
VERTEX
  5
595
  8
0
  6
CONTINUOUS
 62
     7
 10
268.9753015395
 20
517.5650502263
 30
0.0
  0
VERTEX
  5
596
  8
0
  6
CONTINUOUS
 62
     7
 10
268.4197918381
 20
517.9040814458
 30
0.0
  0
VERTEX
  5
597
  8
0
  6
CONTINUOUS
 62
     7
 10
267.5149858798
 20
518.2196209847
 30
0.0
  0
VERTEX
  5
598
  8
0
  6
CONTINUOUS
 62
     7
 10
266.2916955407
 20
518.5009102045
 30
0.0
  0
VERTEX
  5
599
  8
0
  6
CONTINUOUS
 62
     7
 10
264.7915779482
 20
518.7383825599
 30
0.0
  0
VERTEX
  5
59A
  8
0
  6
CONTINUOUS
 62
     7
 10
263.0657189395
 20
518.9239467203
 30
0.0
  0
VERTEX
  5
59B
  8
0
  6
CONTINUOUS
 62
     7
 10
261.1728900913
 20
519.0512771427
 30
0.0
  0
VERTEX
  5
59C
  8
0
  6
CONTINUOUS
 62
     7
 10
259.1775490539
 20
519.1160450398
 30
0.0
  0
VERTEX
  5
59D
  8
0
  6
CONTINUOUS
 62
     7
 10
257.1476451223
 20
519.1160450398
 30
0.0
  0
VERTEX
  5
59E
  8
0
  6
CONTINUOUS
 62
     7
 10
255.1523040849
 20
519.0512771427
 30
0.0
  0
VERTEX
  5
59F
  8
0
  6
CONTINUOUS
 62
     7
 10
253.2594752367
 20
518.9239467203
 30
0.0
  0
VERTEX
  5
5A0
  8
0
  6
CONTINUOUS
 62
     7
 10
251.533616228
 20
518.7383825599
 30
0.0
  0
VERTEX
  5
5A1
  8
0
  6
CONTINUOUS
 62
     7
 10
250.0334986355
 20
518.5009102045
 30
0.0
  0
VERTEX
  5
5A2
  8
0
  6
CONTINUOUS
 62
     7
 10
248.8102082964
 20
518.2196209847
 30
0.0
  0
VERTEX
  5
5A3
  8
0
  6
CONTINUOUS
 62
     7
 10
247.9054023381
 20
517.9040814458
 30
0.0
  0
VERTEX
  5
5A4
  8
0
  6
CONTINUOUS
 62
     7
 10
247.3498926367
 20
517.5650502263
 30
0.0
  0
VERTEX
  5
5A5
  8
0
  6
CONTINUOUS
 62
     7
 10
247.1625971477
 20
517.2140682756
 30
0.0
  0
SEQEND
  5
B34
  8
0
  6
CONTINUOUS
 62
     7
  0
LINE
  5
106
  8
0
  6
CONTINUOUS
 62
     7
 10
247.1625971477
 20
517.2140682756
 30
0.0
 11
247.1625971477
 21
518.6154330789
 31
0.0
  0
POLYLINE
  5
107
  8
0
  6
CONTINUOUS
 62
     7
 66
     1
 10
0.0
 20
0.0
 30
0.0
 70
   128
  0
VERTEX
  5
5A6
  8
0
  6
CONTINUOUS
 62
     7
 10
247.1625971477
 20
517.2140682756
 30
0.0
  0
VERTEX
  5
5A7
  8
0
  6
CONTINUOUS
 62
     7
 10
247.3498926367
 20
516.8630788742
 30
0.0
  0
VERTEX
  5
5A8
  8
0
  6
CONTINUOUS
 62
     7
 10
247.9054023381
 20
516.5240476548
 30
0.0
  0
VERTEX
  5
5A9
  8
0
  6
CONTINUOUS
 62
     7
 10
248.8102082964
 20
516.2085081159
 30
0.0
  0
VERTEX
  5
5AA
  8
0
  6
CONTINUOUS
 62
     7
 10
250.0334986355
 20
515.927218896
 30
0.0
  0
VERTEX
  5
5AB
  8
0
  6
CONTINUOUS
 62
     7
 10
251.533616228
 20
515.6897465407
 30
0.0
  0
VERTEX
  5
5AC
  8
0
  6
CONTINUOUS
 62
     7
 10
253.2594752367
 20
515.5041898309
 30
0.0
  0
VERTEX
  5
5AD
  8
0
  6
CONTINUOUS
 62
     7
 10
255.1523040849
 20
515.3768519579
 30
0.0
  0
VERTEX
  5
5AE
  8
0
  6
CONTINUOUS
 62
     7
 10
257.1476451223
 20
515.3120840608
 30
0.0
  0
VERTEX
  5
5AF
  8
0
  6
CONTINUOUS
 62
     7
 10
259.1775490539
 20
515.3120840608
 30
0.0
  0
VERTEX
  5
5B0
  8
0
  6
CONTINUOUS
 62
     7
 10
261.1728900913
 20
515.3768519579
 30
0.0
  0
VERTEX
  5
5B1
  8
0
  6
CONTINUOUS
 62
     7
 10
263.0657189395
 20
515.5041898309
 30
0.0
  0
VERTEX
  5
5B2
  8
0
  6
CONTINUOUS
 62
     7
 10
264.7915779482
 20
515.6897465407
 30
0.0
  0
VERTEX
  5
5B3
  8
0
  6
CONTINUOUS
 62
     7
 10
266.2916955407
 20
515.927218896
 30
0.0
  0
VERTEX
  5
5B4
  8
0
  6
CONTINUOUS
 62
     7
 10
267.5149858798
 20
516.2085081159
 30
0.0
  0
VERTEX
  5
5B5
  8
0
  6
CONTINUOUS
 62
     7
 10
268.4197918381
 20
516.5240476548
 30
0.0
  0
VERTEX
  5
5B6
  8
0
  6
CONTINUOUS
 62
     7
 10
268.9753015395
 20
516.8630788742
 30
0.0
  0
VERTEX
  5
5B7
  8
0
  6
CONTINUOUS
 62
     7
 10
269.1625970285
 20
517.2140682756
 30
0.0
  0
SEQEND
  5
B35
  8
0
  6
CONTINUOUS
 62
     7
  0
POLYLINE
  5
108
  8
0
  6
CONTINUOUS
 62
     7
 66
     1
 10
0.0
 20
0.0
 30
0.0
 70
   128
  0
VERTEX
  5
5B8
  8
0
  6
CONTINUOUS
 62
     7
 10
246.1625969838
 20
522.0458442985
 30
0.0
  0
VERTEX
  5
5B9
  8
0
  6
CONTINUOUS
 62
     7
 10
245.9758519064
 20
522.1471796452
 30
0.0
  0
VERTEX
  5
5BA
  8
0
  6
CONTINUOUS
 62
     7
 10
245.6617289092
 20
522.6303795992
 30
0.0
  0
SEQEND
  5
B36
  8
0
  6
CONTINUOUS
 62
     7
  0
POLYLINE
  5
109
  8
0
  6
CONTINUOUS
 62
     7
 66
     1
 10
0.0
 20
0.0
 30
0.0
 70
   128
  0
VERTEX
  5
5BB
  8
0
  6
CONTINUOUS
 62
     7
 10
270.1625971924
 20
522.0458442985
 30
0.0
  0
VERTEX
  5
5BC
  8
0
  6
CONTINUOUS
 62
     7
 10
270.3493422698
 20
522.1471796452
 30
0.0
  0
VERTEX
  5
5BD
  8
0
  6
CONTINUOUS
 62
     7
 10
270.663465267
 20
522.6303795992
 30
0.0
  0
SEQEND
  5
B37
  8
0
  6
CONTINUOUS
 62
     7
  0
LINE
  5
10A
  8
0
  6
CONTINUOUS
 62
     7
 10
227.362597255
 20
440.6597838445
 30
0.0
 11
288.9625969212
 21
440.6597838445
 31
0.0
  0
LINE
  5
10B
  8
0
  6
CONTINUOUS
 62
     7
 10
258.1625970881
 20
432.6597834646
 30
0.0
 11
290.662595896
 21
432.6597834646
 31
0.0
  0
LINE
  5
10C
  8
0
  6
CONTINUOUS
 62
     7
 10
225.6625982802
 20
432.6597834646
 30
0.0
 11
258.1625970881
 21
432.6597834646
 31
0.0
  0
LINE
  5
10D
  8
0
  6
CONTINUOUS
 62
     7
 10
289.8191417437
 20
432.6547834647
 30
0.0
 11
226.5060524325
 21
432.6547834647
 31
0.0
  0
LINE
  5
10E
  8
0
  6
CONTINUOUS
 62
     7
 10
268.8625966068
 20
548.5597858845
 30
0.0
 11
247.4625966381
 21
548.5597858845
 31
0.0
  0
ARC
  5
10F
  8
0
  6
CONTINUOUS
 62
     7
 10
234.3625875259
 20
539.4875881402
 30
0.0
 40
1.199990810487283
 50
91.312727238
 51
179.9990148789
  0
ARC
  5
110
  8
0
  6
CONTINUOUS
 62
     7
 10
281.9625869778
 20
539.4875750842
 30
0.0
 40
1.200010482832493
 50
0.000185537
 51
88.6890234732
  0
LINE
  5
111
  8
0
  6
CONTINUOUS
 62
     7
 10
368.1625964921
 20
432.6597834646
 30
0.0
 11
400.6625953
 21
432.6597834646
 31
0.0
  0
LINE
  5
112
  8
0
  6
CONTINUOUS
 62
     7
 10
335.6625976841
 20
432.6597834646
 30
0.0
 11
368.1625964921
 21
432.6597834646
 31
0.0
  0
LINE
  5
113
  8
0
  6
CONTINUOUS
 62
     7
 10
337.3625966589
 20
440.6597838445
 30
0.0
 11
398.9625963252
 21
440.6597838445
 31
0.0
  0
LINE
  5
114
  8
0
  6
CONTINUOUS
 62
     7
 10
351.5974673312
 20
656.0097868263
 30
0.0
 11
384.7277256529
 21
656.0097868263
 31
0.0
  0
LINE
  5
115
  8
0
  6
CONTINUOUS
 62
     7
 10
385.1357790511
 20
645.4782868444
 30
0.0
 11
351.189413933
 21
645.4782868444
 31
0.0
  0
LINE
  5
116
  8
0
  6
CONTINUOUS
 62
     7
 10
353.6278325002
 20
571.0225636779
 30
0.0
 11
382.6973604839
 21
571.0225636779
 31
0.0
  0
LINE
  5
117
  8
0
  6
CONTINUOUS
 62
     7
 10
358.3157676141
 20
639.4101316749
 30
0.0
 11
378.00942537
 21
639.4101316749
 31
0.0
  0
LINE
  5
118
  8
0
  6
CONTINUOUS
 62
     7
 10
358.3157676141
 20
639.4101316749
 30
0.0
 11
358.11899033
 21
639.3699134408
 31
0.0
  0
LINE
  5
119
  8
0
  6
CONTINUOUS
 62
     7
 10
378.2062026541
 20
639.3699134408
 30
0.0
 11
378.00942537
 21
639.4101316749
 31
0.0
  0
ARC
  5
11A
  8
0
  6
CONTINUOUS
 62
     7
 10
369.8766694146
 20
580.5340344726
 30
0.0
 40
1.487802345748323
 50
89.2872536965
 51
270.7127463035
  0
ARC
  5
11B
  8
0
  6
CONTINUOUS
 62
     7
 10
369.9033450569
 20
580.5340344726
 30
0.0
 40
1.487709653844372
 50
269.6854185908
 51
90.3145814092
  0
ARC
  5
11C
  8
0
  6
CONTINUOUS
 62
     7
 10
363.214559414
 20
580.5340502794
 30
0.0
 40
1.604859836347192
 50
155.5979789176
 51
204.4091024241
  0
ARC
  5
11D
  8
0
  6
CONTINUOUS
 62
     7
 10
363.005362132
 20
580.4094160939
 30
0.0
 40
1.363117501899597
 50
203.2724386491
 51
269.5159214363
  0
ARC
  5
11E
  8
0
  6
CONTINUOUS
 62
     7
 10
362.9580349018
 20
580.5340344726
 30
0.0
 40
1.488118174556499
 50
271.3789230939
 51
88.6210769061
  0
ARC
  5
11F
  8
0
  6
CONTINUOUS
 62
     7
 10
363.0064239605
 20
580.6570393822
 30
0.0
 40
1.36474028692161
 50
90.5280833374
 51
156.6899306179
  0
ARC
  5
120
  8
0
  6
CONTINUOUS
 62
     7
 10
363.2145440603
 20
585.5490509794
 30
0.0
 40
1.604845854605528
 50
155.5977524243
 51
204.4093289174
  0
ARC
  5
121
  8
0
  6
CONTINUOUS
 62
     7
 10
363.005362132
 20
585.4244167949
 30
0.0
 40
1.363117501899597
 50
203.2724386491
 51
269.5159214363
  0
ARC
  5
122
  8
0
  6
CONTINUOUS
 62
     7
 10
362.9580367596
 20
585.5490351736
 30
0.0
 40
1.488118129851078
 50
271.3788515858
 51
88.6211484142
  0
ARC
  5
123
  8
0
  6
CONTINUOUS
 62
     7
 10
363.0064361098
 20
585.6720315616
 30
0.0
 40
1.364748920196129
 50
90.5285900796
 51
156.6903784221
  0
ARC
  5
124
  8
0
  6
CONTINUOUS
 62
     7
 10
363.2145440603
 20
590.5640516804
 30
0.0
 40
1.604845854605528
 50
155.5977524243
 51
204.4093289174
  0
ARC
  5
125
  8
0
  6
CONTINUOUS
 62
     7
 10
363.005362132
 20
590.4394174958
 30
0.0
 40
1.363117501899597
 50
203.2724386491
 51
269.5159214363
  0
ARC
  5
126
  8
0
  6
CONTINUOUS
 62
     7
 10
362.9580367596
 20
590.5640358745
 30
0.0
 40
1.488118129851078
 50
271.3788515858
 51
88.6211484142
  0
ARC
  5
127
  8
0
  6
CONTINUOUS
 62
     7
 10
363.0064361098
 20
590.6870322625
 30
0.0
 40
1.364748920196129
 50
90.5285900796
 51
156.6903784221
  0
ARC
  5
128
  8
0
  6
CONTINUOUS
 62
     7
 10
363.2145440603
 20
595.5790523813
 30
0.0
 40
1.604845854605528
 50
155.5977524243
 51
204.4093289174
  0
ARC
  5
129
  8
0
  6
CONTINUOUS
 62
     7
 10
363.005362132
 20
595.4544181968
 30
0.0
 40
1.363117501899597
 50
203.2724386491
 51
269.5159214363
  0
ARC
  5
12A
  8
0
  6
CONTINUOUS
 62
     7
 10
362.9580367596
 20
595.5790365755
 30
0.0
 40
1.488118129851078
 50
271.3788515858
 51
88.6211484142
  0
ARC
  5
12B
  8
0
  6
CONTINUOUS
 62
     7
 10
363.0064361098
 20
595.7020329635
 30
0.0
 40
1.364748920196129
 50
90.5285900796
 51
156.6903784221
  0
ARC
  5
12C
  8
0
  6
CONTINUOUS
 62
     7
 10
363.2145440603
 20
600.5940530823
 30
0.0
 40
1.604845854605528
 50
155.5977524243
 51
204.4093289174
  0
ARC
  5
12D
  8
0
  6
CONTINUOUS
 62
     7
 10
363.005362132
 20
600.4694188977
 30
0.0
 40
1.363117501899597
 50
203.2724386491
 51
269.5159214363
  0
ARC
  5
12E
  8
0
  6
CONTINUOUS
 62
     7
 10
362.9580367596
 20
600.5940372764
 30
0.0
 40
1.488118129851078
 50
271.3788515858
 51
88.6211484142
  0
ARC
  5
12F
  8
0
  6
CONTINUOUS
 62
     7
 10
363.0064361098
 20
600.7170336644
 30
0.0
 40
1.364748920196129
 50
90.5285900796
 51
156.6903784221
  0
ARC
  5
130
  8
0
  6
CONTINUOUS
 62
     7
 10
363.2145440603
 20
605.6090537832
 30
0.0
 40
1.604845854605528
 50
155.5977524243
 51
204.4093289174
  0
ARC
  5
131
  8
0
  6
CONTINUOUS
 62
     7
 10
363.005362132
 20
605.4844195987
 30
0.0
 40
1.363117501899597
 50
203.2724386491
 51
269.5159214363
  0
ARC
  5
132
  8
0
  6
CONTINUOUS
 62
     7
 10
362.9580367596
 20
605.6090379774
 30
0.0
 40
1.488118129851078
 50
271.3788515858
 51
88.6211484142
  0
ARC
  5
133
  8
0
  6
CONTINUOUS
 62
     7
 10
363.0064361098
 20
605.7320343654
 30
0.0
 40
1.364748920196129
 50
90.5285900796
 51
156.6903784221
  0
ARC
  5
134
  8
0
  6
CONTINUOUS
 62
     7
 10
363.2145440603
 20
610.6240544842
 30
0.0
 40
1.604845854605528
 50
155.5977524243
 51
204.4093289174
  0
ARC
  5
135
  8
0
  6
CONTINUOUS
 62
     7
 10
363.005362132
 20
610.4994202996
 30
0.0
 40
1.363117501899597
 50
203.2724386491
 51
269.5159214363
  0
ARC
  5
136
  8
0
  6
CONTINUOUS
 62
     7
 10
362.9580367596
 20
610.6240386783
 30
0.0
 40
1.488118129851078
 50
271.3788515858
 51
88.6211484142
  0
ARC
  5
137
  8
0
  6
CONTINUOUS
 62
     7
 10
363.0064361098
 20
610.7470350663
 30
0.0
 40
1.364748920196129
 50
90.5285900796
 51
156.6903784221
  0
ARC
  5
138
  8
0
  6
CONTINUOUS
 62
     7
 10
363.2145440603
 20
615.6390551851
 30
0.0
 40
1.604845854605528
 50
155.5977524243
 51
204.4093289174
  0
ARC
  5
139
  8
0
  6
CONTINUOUS
 62
     7
 10
363.0054051122
 20
615.514461041
 30
0.0
 40
1.363172805292624
 50
203.2732709072
 51
269.5141345038
  0
ARC
  5
13A
  8
0
  6
CONTINUOUS
 62
     7
 10
362.9580202399
 20
615.6390319287
 30
0.0
 40
1.488125975881003
 50
271.3794805407
 51
88.6205194593
  0
ARC
  5
13B
  8
0
  6
CONTINUOUS
 62
     7
 10
363.0064361098
 20
615.7620357673
 30
0.0
 40
1.364748920196129
 50
90.5285900796
 51
156.6903784221
  0
ARC
  5
13C
  8
0
  6
CONTINUOUS
 62
     7
 10
363.2145594071
 20
620.654055887
 30
0.0
 40
1.604859830030739
 50
155.5979788153
 51
204.4091025264
  0
ARC
  5
13D
  8
0
  6
CONTINUOUS
 62
     7
 10
363.0054051122
 20
620.5294617419
 30
0.0
 40
1.363172805292624
 50
203.2732709072
 51
269.5141345038
  0
ARC
  5
13E
  8
0
  6
CONTINUOUS
 62
     7
 10
362.9580202399
 20
620.6540326296
 30
0.0
 40
1.488125975881003
 50
271.3794805407
 51
88.6205194593
  0
ARC
  5
13F
  8
0
  6
CONTINUOUS
 62
     7
 10
363.0064361098
 20
620.7770364682
 30
0.0
 40
1.364748920196129
 50
90.5285900796
 51
156.6903784221
  0
ARC
  5
140
  8
0
  6
CONTINUOUS
 62
     7
 10
363.2145594071
 20
625.669056588
 30
0.0
 40
1.604859830030739
 50
155.5979788153
 51
204.4091025264
  0
ARC
  5
141
  8
0
  6
CONTINUOUS
 62
     7
 10
363.0053909519
 20
625.544441135
 30
0.0
 40
1.363151378200937
 50
203.2726833405
 51
269.5147220706
  0
ARC
  5
142
  8
0
  6
CONTINUOUS
 62
     7
 10
362.9580202399
 20
625.6690333306
 30
0.0
 40
1.488125975881003
 50
271.3794805407
 51
88.6205194593
  0
ARC
  5
143
  8
0
  6
CONTINUOUS
 62
     7
 10
363.0064361098
 20
625.7920371692
 30
0.0
 40
1.364748920196129
 50
90.5285900796
 51
156.6903784221
  0
ARC
  5
144
  8
0
  6
CONTINUOUS
 62
     7
 10
363.2145594071
 20
630.6840572889
 30
0.0
 40
1.604859830030739
 50
155.5979788153
 51
204.4091025264
  0
ARC
  5
145
  8
0
  6
CONTINUOUS
 62
     7
 10
363.0053909519
 20
630.559441836
 30
0.0
 40
1.363151378200937
 50
203.2726833405
 51
269.5147220706
  0
ARC
  5
146
  8
0
  6
CONTINUOUS
 62
     7
 10
362.9580202399
 20
630.6840340315
 30
0.0
 40
1.488125975881003
 50
271.3794805407
 51
88.6205194593
  0
ARC
  5
147
  8
0
  6
CONTINUOUS
 62
     7
 10
363.0064361098
 20
630.8070378701
 30
0.0
 40
1.364748920196129
 50
90.5285900796
 51
156.6903784221
  0
ARC
  5
148
  8
0
  6
CONTINUOUS
 62
     7
 10
363.2145594071
 20
635.6990579899
 30
0.0
 40
1.604859830030739
 50
155.5979788153
 51
204.4091025264
  0
ARC
  5
149
  8
0
  6
CONTINUOUS
 62
     7
 10
363.0053693479
 20
635.574410028
 30
0.0
 40
1.363118687629845
 50
203.2717868671
 51
269.515618544
  0
ARC
  5
14A
  8
0
  6
CONTINUOUS
 62
     7
 10
362.9580315147
 20
635.6990347325
 30
0.0
 40
1.48812570449339
 50
271.379046566
 51
88.620953434
  0
ARC
  5
14B
  8
0
  6
CONTINUOUS
 62
     7
 10
363.0064361098
 20
635.8220385711
 30
0.0
 40
1.364748920196129
 50
90.5285900796
 51
156.6903784221
  0
POLYLINE
  5
14C
  8
0
  6
CONTINUOUS
 62
     7
 66
     1
 10
0.0
 20
0.0
 30
0.0
 70
   128
  0
VERTEX
  5
5BE
  8
0
  6
CONTINUOUS
 62
     7
 10
377.0022782366
 20
581.7984278022
 30
0.0
  0
VERTEX
  5
5BF
  8
0
  6
CONTINUOUS
 62
     7
 10
376.7004403155
 20
581.9648588716
 30
0.0
  0
VERTEX
  5
5C0
  8
0
  6
CONTINUOUS
 62
     7
 10
376.3664531391
 20
582.0217217027
 30
0.0
  0
SEQEND
  5
B38
  8
0
  6
CONTINUOUS
 62
     7
  0
POLYLINE
  5
14D
  8
0
  6
CONTINUOUS
 62
     7
 66
     1
 10
0.0
 20
0.0
 30
0.0
 70
   128
  0
VERTEX
  5
5C1
  8
0
  6
CONTINUOUS
 62
     7
 10
376.3664531391
 20
582.0217217027
 30
0.0
  0
VERTEX
  5
5C2
  8
0
  6
CONTINUOUS
 62
     7
 10
376.0970103424
 20
581.986346346
 30
0.0
  0
VERTEX
  5
5C3
  8
0
  6
CONTINUOUS
 62
     7
 10
375.8431839626
 20
581.8856591999
 30
0.0
  0
VERTEX
  5
5C4
  8
0
  6
CONTINUOUS
 62
     7
 10
375.6178113501
 20
581.7308808385
 30
0.0
  0
VERTEX
  5
5C5
  8
0
  6
CONTINUOUS
 62
     7
 10
375.426629452
 20
581.5319950401
 30
0.0
  0
VERTEX
  5
5C6
  8
0
  6
CONTINUOUS
 62
     7
 10
375.1663508694
 20
581.0402269184
 30
0.0
  0
VERTEX
  5
5C7
  8
0
  6
CONTINUOUS
 62
     7
 10
375.088656215
 20
580.4725224792
 30
0.0
  0
VERTEX
  5
5C8
  8
0
  6
CONTINUOUS
 62
     7
 10
375.2068671267
 20
579.91572569
 30
0.0
  0
VERTEX
  5
5C9
  8
0
  6
CONTINUOUS
 62
     7
 10
375.4986542146
 20
579.4517631351
 30
0.0
  0
VERTEX
  5
5CA
  8
0
  6
CONTINUOUS
 62
     7
 10
375.9069385808
 20
579.1503275453
 30
0.0
  0
VERTEX
  5
5CB
  8
0
  6
CONTINUOUS
 62
     7
 10
376.3664531391
 20
579.0463472425
 30
0.0
  0
SEQEND
  5
B39
  8
0
  6
CONTINUOUS
 62
     7
  0
POLYLINE
  5
14E
  8
0
  6
CONTINUOUS
 62
     7
 66
     1
 10
0.0
 20
0.0
 30
0.0
 70
   128
  0
VERTEX
  5
5CC
  8
0
  6
CONTINUOUS
 62
     7
 10
376.3664531391
 20
579.0463472425
 30
0.0
  0
VERTEX
  5
5CD
  8
0
  6
CONTINUOUS
 62
     7
 10
376.7076152246
 20
579.1058028757
 30
0.0
  0
VERTEX
  5
5CE
  8
0
  6
CONTINUOUS
 62
     7
 10
377.002539007
 20
579.2698497592
 30
0.0
  0
SEQEND
  5
B3A
  8
0
  6
CONTINUOUS
 62
     7
  0
POLYLINE
  5
14F
  8
0
  6
CONTINUOUS
 62
     7
 66
     1
 10
0.0
 20
0.0
 30
0.0
 70
   128
  0
VERTEX
  5
5CF
  8
0
  6
CONTINUOUS
 62
     7
 10
377.0022782366
 20
586.8134285032
 30
0.0
  0
VERTEX
  5
5D0
  8
0
  6
CONTINUOUS
 62
     7
 10
376.7004403155
 20
586.9798595725
 30
0.0
  0
VERTEX
  5
5D1
  8
0
  6
CONTINUOUS
 62
     7
 10
376.3664531391
 20
587.0367224037
 30
0.0
  0
SEQEND
  5
B3B
  8
0
  6
CONTINUOUS
 62
     7
  0
POLYLINE
  5
150
  8
0
  6
CONTINUOUS
 62
     7
 66
     1
 10
0.0
 20
0.0
 30
0.0
 70
   128
  0
VERTEX
  5
5D2
  8
0
  6
CONTINUOUS
 62
     7
 10
376.3664531391
 20
587.0367224037
 30
0.0
  0
VERTEX
  5
5D3
  8
0
  6
CONTINUOUS
 62
     7
 10
376.0970103424
 20
587.001347047
 30
0.0
  0
VERTEX
  5
5D4
  8
0
  6
CONTINUOUS
 62
     7
 10
375.8431839626
 20
586.9006599008
 30
0.0
  0
VERTEX
  5
5D5
  8
0
  6
CONTINUOUS
 62
     7
 10
375.6178113501
 20
586.7458815395
 30
0.0
  0
VERTEX
  5
5D6
  8
0
  6
CONTINUOUS
 62
     7
 10
375.426629452
 20
586.546995741
 30
0.0
  0
VERTEX
  5
5D7
  8
0
  6
CONTINUOUS
 62
     7
 10
375.1663508694
 20
586.0552276193
 30
0.0
  0
VERTEX
  5
5D8
  8
0
  6
CONTINUOUS
 62
     7
 10
375.088656215
 20
585.4875231801
 30
0.0
  0
VERTEX
  5
5D9
  8
0
  6
CONTINUOUS
 62
     7
 10
375.2068671267
 20
584.930726391
 30
0.0
  0
VERTEX
  5
5DA
  8
0
  6
CONTINUOUS
 62
     7
 10
375.4986542146
 20
584.466763836
 30
0.0
  0
VERTEX
  5
5DB
  8
0
  6
CONTINUOUS
 62
     7
 10
375.9069385808
 20
584.1653282463
 30
0.0
  0
VERTEX
  5
5DC
  8
0
  6
CONTINUOUS
 62
     7
 10
376.3664531391
 20
584.0613479434
 30
0.0
  0
SEQEND
  5
B3C
  8
0
  6
CONTINUOUS
 62
     7
  0
POLYLINE
  5
151
  8
0
  6
CONTINUOUS
 62
     7
 66
     1
 10
0.0
 20
0.0
 30
0.0
 70
   128
  0
VERTEX
  5
5DD
  8
0
  6
CONTINUOUS
 62
     7
 10
376.3664531391
 20
584.0613479434
 30
0.0
  0
VERTEX
  5
5DE
  8
0
  6
CONTINUOUS
 62
     7
 10
376.7076152246
 20
584.1208035766
 30
0.0
  0
VERTEX
  5
5DF
  8
0
  6
CONTINUOUS
 62
     7
 10
377.002539007
 20
584.2848504602
 30
0.0
  0
SEQEND
  5
B3D
  8
0
  6
CONTINUOUS
 62
     7
  0
POLYLINE
  5
152
  8
0
  6
CONTINUOUS
 62
     7
 66
     1
 10
0.0
 20
0.0
 30
0.0
 70
   128
  0
VERTEX
  5
5E0
  8
0
  6
CONTINUOUS
 62
     7
 10
377.0022782366
 20
591.8284292041
 30
0.0
  0
VERTEX
  5
5E1
  8
0
  6
CONTINUOUS
 62
     7
 10
376.7004403155
 20
591.9948602735
 30
0.0
  0
VERTEX
  5
5E2
  8
0
  6
CONTINUOUS
 62
     7
 10
376.3664531391
 20
592.0517231046
 30
0.0
  0
SEQEND
  5
B3E
  8
0
  6
CONTINUOUS
 62
     7
  0
POLYLINE
  5
153
  8
0
  6
CONTINUOUS
 62
     7
 66
     1
 10
0.0
 20
0.0
 30
0.0
 70
   128
  0
VERTEX
  5
5E3
  8
0
  6
CONTINUOUS
 62
     7
 10
376.3664531391
 20
592.0517231046
 30
0.0
  0
VERTEX
  5
5E4
  8
0
  6
CONTINUOUS
 62
     7
 10
376.0970103424
 20
592.0163477479
 30
0.0
  0
VERTEX
  5
5E5
  8
0
  6
CONTINUOUS
 62
     7
 10
375.8431839626
 20
591.9156606018
 30
0.0
  0
VERTEX
  5
5E6
  8
0
  6
CONTINUOUS
 62
     7
 10
375.6178113501
 20
591.7608822404
 30
0.0
  0
VERTEX
  5
5E7
  8
0
  6
CONTINUOUS
 62
     7
 10
375.4266220014
 20
591.561996442
 30
0.0
  0
VERTEX
  5
5E8
  8
0
  6
CONTINUOUS
 62
     7
 10
375.1663508694
 20
591.0702283203
 30
0.0
  0
VERTEX
  5
5E9
  8
0
  6
CONTINUOUS
 62
     7
 10
375.088656215
 20
590.5025238811
 30
0.0
  0
VERTEX
  5
5EA
  8
0
  6
CONTINUOUS
 62
     7
 10
375.2068671267
 20
589.9457270919
 30
0.0
  0
VERTEX
  5
5EB
  8
0
  6
CONTINUOUS
 62
     7
 10
375.4986542146
 20
589.481764537
 30
0.0
  0
VERTEX
  5
5EC
  8
0
  6
CONTINUOUS
 62
     7
 10
375.9069385808
 20
589.1803289472
 30
0.0
  0
VERTEX
  5
5ED
  8
0
  6
CONTINUOUS
 62
     7
 10
376.3664531391
 20
589.0763486444
 30
0.0
  0
SEQEND
  5
B3F
  8
0
  6
CONTINUOUS
 62
     7
  0
POLYLINE
  5
154
  8
0
  6
CONTINUOUS
 62
     7
 66
     1
 10
0.0
 20
0.0
 30
0.0
 70
   128
  0
VERTEX
  5
5EE
  8
0
  6
CONTINUOUS
 62
     7
 10
376.3664531391
 20
589.0763486444
 30
0.0
  0
VERTEX
  5
5EF
  8
0
  6
CONTINUOUS
 62
     7
 10
376.7076152246
 20
589.1358042776
 30
0.0
  0
VERTEX
  5
5F0
  8
0
  6
CONTINUOUS
 62
     7
 10
377.002539007
 20
589.2998511611
 30
0.0
  0
SEQEND
  5
B40
  8
0
  6
CONTINUOUS
 62
     7
  0
POLYLINE
  5
155
  8
0
  6
CONTINUOUS
 62
     7
 66
     1
 10
0.0
 20
0.0
 30
0.0
 70
   128
  0
VERTEX
  5
5F1
  8
0
  6
CONTINUOUS
 62
     7
 10
377.0022782366
 20
596.8434299051
 30
0.0
  0
VERTEX
  5
5F2
  8
0
  6
CONTINUOUS
 62
     7
 10
376.7004403155
 20
597.0098609744
 30
0.0
  0
VERTEX
  5
5F3
  8
0
  6
CONTINUOUS
 62
     7
 10
376.3664531391
 20
597.0667238056
 30
0.0
  0
SEQEND
  5
B41
  8
0
  6
CONTINUOUS
 62
     7
  0
POLYLINE
  5
156
  8
0
  6
CONTINUOUS
 62
     7
 66
     1
 10
0.0
 20
0.0
 30
0.0
 70
   128
  0
VERTEX
  5
5F4
  8
0
  6
CONTINUOUS
 62
     7
 10
376.3664531391
 20
597.0667238056
 30
0.0
  0
VERTEX
  5
5F5
  8
0
  6
CONTINUOUS
 62
     7
 10
376.0970103424
 20
597.0313484489
 30
0.0
  0
VERTEX
  5
5F6
  8
0
  6
CONTINUOUS
 62
     7
 10
375.8431839626
 20
596.9306613027
 30
0.0
  0
VERTEX
  5
5F7
  8
0
  6
CONTINUOUS
 62
     7
 10
375.6178113501
 20
596.7758680402
 30
0.0
  0
VERTEX
  5
5F8
  8
0
  6
CONTINUOUS
 62
     7
 10
375.4266220014
 20
596.5769971429
 30
0.0
  0
VERTEX
  5
5F9
  8
0
  6
CONTINUOUS
 62
     7
 10
375.1663508694
 20
596.0852290212
 30
0.0
  0
VERTEX
  5
5FA
  8
0
  6
CONTINUOUS
 62
     7
 10
375.088656215
 20
595.517524582
 30
0.0
  0
VERTEX
  5
5FB
  8
0
  6
CONTINUOUS
 62
     7
 10
375.2068671267
 20
594.9607277929
 30
0.0
  0
VERTEX
  5
5FC
  8
0
  6
CONTINUOUS
 62
     7
 10
375.4986542146
 20
594.4967503368
 30
0.0
  0
VERTEX
  5
5FD
  8
0
  6
CONTINUOUS
 62
     7
 10
375.9069385808
 20
594.1953296482
 30
0.0
  0
VERTEX
  5
5FE
  8
0
  6
CONTINUOUS
 62
     7
 10
376.3664531391
 20
594.0913493453
 30
0.0
  0
SEQEND
  5
B42
  8
0
  6
CONTINUOUS
 62
     7
  0
POLYLINE
  5
157
  8
0
  6
CONTINUOUS
 62
     7
 66
     1
 10
0.0
 20
0.0
 30
0.0
 70
   128
  0
VERTEX
  5
5FF
  8
0
  6
CONTINUOUS
 62
     7
 10
376.3664531391
 20
594.0913493453
 30
0.0
  0
VERTEX
  5
600
  8
0
  6
CONTINUOUS
 62
     7
 10
376.7076152246
 20
594.1508049785
 30
0.0
  0
VERTEX
  5
601
  8
0
  6
CONTINUOUS
 62
     7
 10
377.002539007
 20
594.3148518621
 30
0.0
  0
SEQEND
  5
B43
  8
0
  6
CONTINUOUS
 62
     7
  0
POLYLINE
  5
158
  8
0
  6
CONTINUOUS
 62
     7
 66
     1
 10
0.0
 20
0.0
 30
0.0
 70
   128
  0
VERTEX
  5
602
  8
0
  6
CONTINUOUS
 62
     7
 10
377.0022782366
 20
601.858430606
 30
0.0
  0
VERTEX
  5
603
  8
0
  6
CONTINUOUS
 62
     7
 10
376.7004403155
 20
602.0248616754
 30
0.0
  0
VERTEX
  5
604
  8
0
  6
CONTINUOUS
 62
     7
 10
376.3664531391
 20
602.0817245065
 30
0.0
  0
SEQEND
  5
B44
  8
0
  6
CONTINUOUS
 62
     7
  0
POLYLINE
  5
159
  8
0
  6
CONTINUOUS
 62
     7
 66
     1
 10
0.0
 20
0.0
 30
0.0
 70
   128
  0
VERTEX
  5
605
  8
0
  6
CONTINUOUS
 62
     7
 10
376.3664531391
 20
602.0817245065
 30
0.0
  0
VERTEX
  5
606
  8
0
  6
CONTINUOUS
 62
     7
 10
376.0970103424
 20
602.0463491498
 30
0.0
  0
VERTEX
  5
607
  8
0
  6
CONTINUOUS
 62
     7
 10
375.8431839626
 20
601.9456620037
 30
0.0
  0
VERTEX
  5
608
  8
0
  6
CONTINUOUS
 62
     7
 10
375.6178113501
 20
601.7908687412
 30
0.0
  0
VERTEX
  5
609
  8
0
  6
CONTINUOUS
 62
     7
 10
375.4266220014
 20
601.5919978439
 30
0.0
  0
VERTEX
  5
60A
  8
0
  6
CONTINUOUS
 62
     7
 10
375.1663508694
 20
601.1002297222
 30
0.0
  0
VERTEX
  5
60B
  8
0
  6
CONTINUOUS
 62
     7
 10
375.088656215
 20
600.5325103818
 30
0.0
  0
VERTEX
  5
60C
  8
0
  6
CONTINUOUS
 62
     7
 10
375.2068596761
 20
599.9757284938
 30
0.0
  0
VERTEX
  5
60D
  8
0
  6
CONTINUOUS
 62
     7
 10
375.4986542146
 20
599.5117510377
 30
0.0
  0
VERTEX
  5
60E
  8
0
  6
CONTINUOUS
 62
     7
 10
375.9069385808
 20
599.2103303491
 30
0.0
  0
VERTEX
  5
60F
  8
0
  6
CONTINUOUS
 62
     7
 10
376.3664531391
 20
599.1063500463
 30
0.0
  0
SEQEND
  5
B45
  8
0
  6
CONTINUOUS
 62
     7
  0
POLYLINE
  5
15A
  8
0
  6
CONTINUOUS
 62
     7
 66
     1
 10
0.0
 20
0.0
 30
0.0
 70
   128
  0
VERTEX
  5
610
  8
0
  6
CONTINUOUS
 62
     7
 10
376.3664531391
 20
599.1063500463
 30
0.0
  0
VERTEX
  5
611
  8
0
  6
CONTINUOUS
 62
     7
 10
376.7076152246
 20
599.1658056795
 30
0.0
  0
VERTEX
  5
612
  8
0
  6
CONTINUOUS
 62
     7
 10
377.002539007
 20
599.329852563
 30
0.0
  0
SEQEND
  5
B46
  8
0
  6
CONTINUOUS
 62
     7
  0
POLYLINE
  5
15B
  8
0
  6
CONTINUOUS
 62
     7
 66
     1
 10
0.0
 20
0.0
 30
0.0
 70
   128
  0
VERTEX
  5
613
  8
0
  6
CONTINUOUS
 62
     7
 10
377.0022782366
 20
606.8734164058
 30
0.0
  0
VERTEX
  5
614
  8
0
  6
CONTINUOUS
 62
     7
 10
376.7004403155
 20
607.0398623763
 30
0.0
  0
VERTEX
  5
615
  8
0
  6
CONTINUOUS
 62
     7
 10
376.3664531391
 20
607.0967252075
 30
0.0
  0
SEQEND
  5
B47
  8
0
  6
CONTINUOUS
 62
     7
  0
POLYLINE
  5
15C
  8
0
  6
CONTINUOUS
 62
     7
 66
     1
 10
0.0
 20
0.0
 30
0.0
 70
   128
  0
VERTEX
  5
616
  8
0
  6
CONTINUOUS
 62
     7
 10
376.3664531391
 20
607.0967252075
 30
0.0
  0
VERTEX
  5
617
  8
0
  6
CONTINUOUS
 62
     7
 10
376.0970103424
 20
607.0613498508
 30
0.0
  0
VERTEX
  5
618
  8
0
  6
CONTINUOUS
 62
     7
 10
375.8431839626
 20
606.9606627046
 30
0.0
  0
VERTEX
  5
619
  8
0
  6
CONTINUOUS
 62
     7
 10
375.6178113501
 20
606.8058694421
 30
0.0
  0
VERTEX
  5
61A
  8
0
  6
CONTINUOUS
 62
     7
 10
375.4266220014
 20
606.6069985448
 30
0.0
  0
VERTEX
  5
61B
  8
0
  6
CONTINUOUS
 62
     7
 10
375.1663508694
 20
606.1152304231
 30
0.0
  0
VERTEX
  5
61C
  8
0
  6
CONTINUOUS
 62
     7
 10
375.088656215
 20
605.5475110828
 30
0.0
  0
VERTEX
  5
61D
  8
0
  6
CONTINUOUS
 62
     7
 10
375.2068596761
 20
604.9907291948
 30
0.0
  0
VERTEX
  5
61E
  8
0
  6
CONTINUOUS
 62
     7
 10
375.4986542146
 20
604.5267517387
 30
0.0
  0
VERTEX
  5
61F
  8
0
  6
CONTINUOUS
 62
     7
 10
375.9069311302
 20
604.2253310501
 30
0.0
  0
VERTEX
  5
620
  8
0
  6
CONTINUOUS
 62
     7
 10
376.3664531391
 20
604.1213507472
 30
0.0
  0
SEQEND
  5
B48
  8
0
  6
CONTINUOUS
 62
     7
  0
POLYLINE
  5
15D
  8
0
  6
CONTINUOUS
 62
     7
 66
     1
 10
0.0
 20
0.0
 30
0.0
 70
   128
  0
VERTEX
  5
621
  8
0
  6
CONTINUOUS
 62
     7
 10
376.3664531391
 20
604.1213507472
 30
0.0
  0
VERTEX
  5
622
  8
0
  6
CONTINUOUS
 62
     7
 10
376.7076152246
 20
604.1808063804
 30
0.0
  0
VERTEX
  5
623
  8
0
  6
CONTINUOUS
 62
     7
 10
377.002539007
 20
604.344853264
 30
0.0
  0
SEQEND
  5
B49
  8
0
  6
CONTINUOUS
 62
     7
  0
POLYLINE
  5
15E
  8
0
  6
CONTINUOUS
 62
     7
 66
     1
 10
0.0
 20
0.0
 30
0.0
 70
   128
  0
VERTEX
  5
624
  8
0
  6
CONTINUOUS
 62
     7
 10
377.0022782366
 20
611.8884171068
 30
0.0
  0
VERTEX
  5
625
  8
0
  6
CONTINUOUS
 62
     7
 10
376.7004403155
 20
612.0548630773
 30
0.0
  0
VERTEX
  5
626
  8
0
  6
CONTINUOUS
 62
     7
 10
376.3664531391
 20
612.1117259084
 30
0.0
  0
SEQEND
  5
B4A
  8
0
  6
CONTINUOUS
 62
     7
  0
POLYLINE
  5
15F
  8
0
  6
CONTINUOUS
 62
     7
 66
     1
 10
0.0
 20
0.0
 30
0.0
 70
   128
  0
VERTEX
  5
627
  8
0
  6
CONTINUOUS
 62
     7
 10
376.3664531391
 20
612.1117259084
 30
0.0
  0
VERTEX
  5
628
  8
0
  6
CONTINUOUS
 62
     7
 10
376.0970103424
 20
612.0763505517
 30
0.0
  0
VERTEX
  5
629
  8
0
  6
CONTINUOUS
 62
     7
 10
375.8431839626
 20
611.9756634056
 30
0.0
  0
VERTEX
  5
62A
  8
0
  6
CONTINUOUS
 62
     7
 10
375.6178113501
 20
611.8208701431
 30
0.0
  0
VERTEX
  5
62B
  8
0
  6
CONTINUOUS
 62
     7
 10
375.4266220014
 20
611.6219992458
 30
0.0
  0
VERTEX
  5
62C
  8
0
  6
CONTINUOUS
 62
     7
 10
375.1663508694
 20
611.1302311241
 30
0.0
  0
VERTEX
  5
62D
  8
0
  6
CONTINUOUS
 62
     7
 10
375.088656215
 20
610.5625117837
 30
0.0
  0
VERTEX
  5
62E
  8
0
  6
CONTINUOUS
 62
     7
 10
375.2068596761
 20
610.0057298957
 30
0.0
  0
VERTEX
  5
62F
  8
0
  6
CONTINUOUS
 62
     7
 10
375.4986542146
 20
609.5417524396
 30
0.0
  0
VERTEX
  5
630
  8
0
  6
CONTINUOUS
 62
     7
 10
375.9069311302
 20
609.240331751
 30
0.0
  0
VERTEX
  5
631
  8
0
  6
CONTINUOUS
 62
     7
 10
376.3664531391
 20
609.1363514482
 30
0.0
  0
SEQEND
  5
B4B
  8
0
  6
CONTINUOUS
 62
     7
  0
POLYLINE
  5
160
  8
0
  6
CONTINUOUS
 62
     7
 66
     1
 10
0.0
 20
0.0
 30
0.0
 70
   128
  0
VERTEX
  5
632
  8
0
  6
CONTINUOUS
 62
     7
 10
376.3664531391
 20
609.1363514482
 30
0.0
  0
VERTEX
  5
633
  8
0
  6
CONTINUOUS
 62
     7
 10
376.7076152246
 20
609.1958070814
 30
0.0
  0
VERTEX
  5
634
  8
0
  6
CONTINUOUS
 62
     7
 10
377.002539007
 20
609.3598539649
 30
0.0
  0
SEQEND
  5
B4C
  8
0
  6
CONTINUOUS
 62
     7
  0
POLYLINE
  5
161
  8
0
  6
CONTINUOUS
 62
     7
 66
     1
 10
0.0
 20
0.0
 30
0.0
 70
   128
  0
VERTEX
  5
635
  8
0
  6
CONTINUOUS
 62
     7
 10
377.0022782366
 20
616.9034178077
 30
0.0
  0
VERTEX
  5
636
  8
0
  6
CONTINUOUS
 62
     7
 10
376.7004403155
 20
617.0698637782
 30
0.0
  0
VERTEX
  5
637
  8
0
  6
CONTINUOUS
 62
     7
 10
376.3664531391
 20
617.1267266094
 30
0.0
  0
SEQEND
  5
B4D
  8
0
  6
CONTINUOUS
 62
     7
  0
POLYLINE
  5
162
  8
0
  6
CONTINUOUS
 62
     7
 66
     1
 10
0.0
 20
0.0
 30
0.0
 70
   128
  0
VERTEX
  5
638
  8
0
  6
CONTINUOUS
 62
     7
 10
376.3664531391
 20
617.1267266094
 30
0.0
  0
VERTEX
  5
639
  8
0
  6
CONTINUOUS
 62
     7
 10
376.0970103424
 20
617.0913512527
 30
0.0
  0
VERTEX
  5
63A
  8
0
  6
CONTINUOUS
 62
     7
 10
375.8431839626
 20
616.9906641065
 30
0.0
  0
VERTEX
  5
63B
  8
0
  6
CONTINUOUS
 62
     7
 10
375.6178113501
 20
616.835870844
 30
0.0
  0
VERTEX
  5
63C
  8
0
  6
CONTINUOUS
 62
     7
 10
375.4266220014
 20
616.6369850456
 30
0.0
  0
VERTEX
  5
63D
  8
0
  6
CONTINUOUS
 62
     7
 10
375.1663508694
 20
616.145231825
 30
0.0
  0
VERTEX
  5
63E
  8
0
  6
CONTINUOUS
 62
     7
 10
375.088656215
 20
615.5775124847
 30
0.0
  0
VERTEX
  5
63F
  8
0
  6
CONTINUOUS
 62
     7
 10
375.2068596761
 20
615.0207305967
 30
0.0
  0
VERTEX
  5
640
  8
0
  6
CONTINUOUS
 62
     7
 10
375.4986542146
 20
614.5567531406
 30
0.0
  0
VERTEX
  5
641
  8
0
  6
CONTINUOUS
 62
     7
 10
375.9069311302
 20
614.255332452
 30
0.0
  0
VERTEX
  5
642
  8
0
  6
CONTINUOUS
 62
     7
 10
376.3664531391
 20
614.151337248
 30
0.0
  0
SEQEND
  5
B4E
  8
0
  6
CONTINUOUS
 62
     7
  0
POLYLINE
  5
163
  8
0
  6
CONTINUOUS
 62
     7
 66
     1
 10
0.0
 20
0.0
 30
0.0
 70
   128
  0
VERTEX
  5
643
  8
0
  6
CONTINUOUS
 62
     7
 10
376.3664531391
 20
614.151337248
 30
0.0
  0
VERTEX
  5
644
  8
0
  6
CONTINUOUS
 62
     7
 10
376.7076152246
 20
614.2108077823
 30
0.0
  0
VERTEX
  5
645
  8
0
  6
CONTINUOUS
 62
     7
 10
377.002539007
 20
614.3748397647
 30
0.0
  0
SEQEND
  5
B4F
  8
0
  6
CONTINUOUS
 62
     7
  0
POLYLINE
  5
164
  8
0
  6
CONTINUOUS
 62
     7
 66
     1
 10
0.0
 20
0.0
 30
0.0
 70
   128
  0
VERTEX
  5
646
  8
0
  6
CONTINUOUS
 62
     7
 10
377.0022782366
 20
621.9184185087
 30
0.0
  0
VERTEX
  5
647
  8
0
  6
CONTINUOUS
 62
     7
 10
376.7004403155
 20
622.0848644792
 30
0.0
  0
VERTEX
  5
648
  8
0
  6
CONTINUOUS
 62
     7
 10
376.3664531391
 20
622.1417273103
 30
0.0
  0
SEQEND
  5
B50
  8
0
  6
CONTINUOUS
 62
     7
  0
POLYLINE
  5
165
  8
0
  6
CONTINUOUS
 62
     7
 66
     1
 10
0.0
 20
0.0
 30
0.0
 70
   128
  0
VERTEX
  5
649
  8
0
  6
CONTINUOUS
 62
     7
 10
376.3664531391
 20
622.1417273103
 30
0.0
  0
VERTEX
  5
64A
  8
0
  6
CONTINUOUS
 62
     7
 10
376.0970103424
 20
622.1063519536
 30
0.0
  0
VERTEX
  5
64B
  8
0
  6
CONTINUOUS
 62
     7
 10
375.8431839626
 20
622.0056648075
 30
0.0
  0
VERTEX
  5
64C
  8
0
  6
CONTINUOUS
 62
     7
 10
375.6178113501
 20
621.850871545
 30
0.0
  0
VERTEX
  5
64D
  8
0
  6
CONTINUOUS
 62
     7
 10
375.4266220014
 20
621.6519857465
 30
0.0
  0
VERTEX
  5
64E
  8
0
  6
CONTINUOUS
 62
     7
 10
375.1663508694
 20
621.160232526
 30
0.0
  0
VERTEX
  5
64F
  8
0
  6
CONTINUOUS
 62
     7
 10
375.088656215
 20
620.5925131856
 30
0.0
  0
VERTEX
  5
650
  8
0
  6
CONTINUOUS
 62
     7
 10
375.2068596761
 20
620.0357312976
 30
0.0
  0
VERTEX
  5
651
  8
0
  6
CONTINUOUS
 62
     7
 10
375.4986542146
 20
619.5717538415
 30
0.0
  0
VERTEX
  5
652
  8
0
  6
CONTINUOUS
 62
     7
 10
375.9069311302
 20
619.2703182517
 30
0.0
  0
VERTEX
  5
653
  8
0
  6
CONTINUOUS
 62
     7
 10
376.3664531391
 20
619.1663379489
 30
0.0
  0
SEQEND
  5
B51
  8
0
  6
CONTINUOUS
 62
     7
  0
POLYLINE
  5
166
  8
0
  6
CONTINUOUS
 62
     7
 66
     1
 10
0.0
 20
0.0
 30
0.0
 70
   128
  0
VERTEX
  5
654
  8
0
  6
CONTINUOUS
 62
     7
 10
376.3664531391
 20
619.1663379489
 30
0.0
  0
VERTEX
  5
655
  8
0
  6
CONTINUOUS
 62
     7
 10
376.7076152246
 20
619.2258084833
 30
0.0
  0
VERTEX
  5
656
  8
0
  6
CONTINUOUS
 62
     7
 10
377.002539007
 20
619.3898404657
 30
0.0
  0
SEQEND
  5
B52
  8
0
  6
CONTINUOUS
 62
     7
  0
POLYLINE
  5
167
  8
0
  6
CONTINUOUS
 62
     7
 66
     1
 10
0.0
 20
0.0
 30
0.0
 70
   128
  0
VERTEX
  5
657
  8
0
  6
CONTINUOUS
 62
     7
 10
377.0022782366
 20
626.9334192096
 30
0.0
  0
VERTEX
  5
658
  8
0
  6
CONTINUOUS
 62
     7
 10
376.7004403155
 20
627.0998651802
 30
0.0
  0
VERTEX
  5
659
  8
0
  6
CONTINUOUS
 62
     7
 10
376.3664456885
 20
627.1567280113
 30
0.0
  0
SEQEND
  5
B53
  8
0
  6
CONTINUOUS
 62
     7
  0
POLYLINE
  5
168
  8
0
  6
CONTINUOUS
 62
     7
 66
     1
 10
0.0
 20
0.0
 30
0.0
 70
   128
  0
VERTEX
  5
65A
  8
0
  6
CONTINUOUS
 62
     7
 10
376.3664456885
 20
627.1567280113
 30
0.0
  0
VERTEX
  5
65B
  8
0
  6
CONTINUOUS
 62
     7
 10
376.0970103424
 20
627.1213526546
 30
0.0
  0
VERTEX
  5
65C
  8
0
  6
CONTINUOUS
 62
     7
 10
375.8431839626
 20
627.0206655084
 30
0.0
  0
VERTEX
  5
65D
  8
0
  6
CONTINUOUS
 62
     7
 10
375.6178113501
 20
626.8658722459
 30
0.0
  0
VERTEX
  5
65E
  8
0
  6
CONTINUOUS
 62
     7
 10
375.4266220014
 20
626.6669864475
 30
0.0
  0
VERTEX
  5
65F
  8
0
  6
CONTINUOUS
 62
     7
 10
375.1663508694
 20
626.1752332269
 30
0.0
  0
VERTEX
  5
660
  8
0
  6
CONTINUOUS
 62
     7
 10
375.088656215
 20
625.6075138866
 30
0.0
  0
VERTEX
  5
661
  8
0
  6
CONTINUOUS
 62
     7
 10
375.2068596761
 20
625.0507319986
 30
0.0
  0
VERTEX
  5
662
  8
0
  6
CONTINUOUS
 62
     7
 10
375.4986542146
 20
624.5867545425
 30
0.0
  0
VERTEX
  5
663
  8
0
  6
CONTINUOUS
 62
     7
 10
375.9069311302
 20
624.2853189527
 30
0.0
  0
VERTEX
  5
664
  8
0
  6
CONTINUOUS
 62
     7
 10
376.3664456885
 20
624.1813386499
 30
0.0
  0
SEQEND
  5
B54
  8
0
  6
CONTINUOUS
 62
     7
  0
POLYLINE
  5
169
  8
0
  6
CONTINUOUS
 62
     7
 66
     1
 10
0.0
 20
0.0
 30
0.0
 70
   128
  0
VERTEX
  5
665
  8
0
  6
CONTINUOUS
 62
     7
 10
376.3664456885
 20
624.1813386499
 30
0.0
  0
VERTEX
  5
666
  8
0
  6
CONTINUOUS
 62
     7
 10
376.7076152246
 20
624.240794283
 30
0.0
  0
VERTEX
  5
667
  8
0
  6
CONTINUOUS
 62
     7
 10
377.002539007
 20
624.4048411666
 30
0.0
  0
SEQEND
  5
B55
  8
0
  6
CONTINUOUS
 62
     7
  0
POLYLINE
  5
16A
  8
0
  6
CONTINUOUS
 62
     7
 66
     1
 10
0.0
 20
0.0
 30
0.0
 70
   128
  0
VERTEX
  5
668
  8
0
  6
CONTINUOUS
 62
     7
 10
377.0022782366
 20
631.9484199106
 30
0.0
  0
VERTEX
  5
669
  8
0
  6
CONTINUOUS
 62
     7
 10
376.7004403155
 20
632.1148658811
 30
0.0
  0
VERTEX
  5
66A
  8
0
  6
CONTINUOUS
 62
     7
 10
376.3664456885
 20
632.1717287122
 30
0.0
  0
SEQEND
  5
B56
  8
0
  6
CONTINUOUS
 62
     7
  0
POLYLINE
  5
16B
  8
0
  6
CONTINUOUS
 62
     7
 66
     1
 10
0.0
 20
0.0
 30
0.0
 70
   128
  0
VERTEX
  5
66B
  8
0
  6
CONTINUOUS
 62
     7
 10
376.3664456885
 20
632.1717287122
 30
0.0
  0
VERTEX
  5
66C
  8
0
  6
CONTINUOUS
 62
     7
 10
376.0970103424
 20
632.1363533555
 30
0.0
  0
VERTEX
  5
66D
  8
0
  6
CONTINUOUS
 62
     7
 10
375.8431839626
 20
632.0356662094
 30
0.0
  0
VERTEX
  5
66E
  8
0
  6
CONTINUOUS
 62
     7
 10
375.6178113501
 20
631.8808729469
 30
0.0
  0
VERTEX
  5
66F
  8
0
  6
CONTINUOUS
 62
     7
 10
375.4266220014
 20
631.6819871484
 30
0.0
  0
VERTEX
  5
670
  8
0
  6
CONTINUOUS
 62
     7
 10
375.1663508694
 20
631.1902339279
 30
0.0
  0
VERTEX
  5
671
  8
0
  6
CONTINUOUS
 62
     7
 10
375.088656215
 20
630.6225145875
 30
0.0
  0
VERTEX
  5
672
  8
0
  6
CONTINUOUS
 62
     7
 10
375.2068596761
 20
630.0657326995
 30
0.0
  0
VERTEX
  5
673
  8
0
  6
CONTINUOUS
 62
     7
 10
375.4986542146
 20
629.6017552434
 30
0.0
  0
VERTEX
  5
674
  8
0
  6
CONTINUOUS
 62
     7
 10
375.9069311302
 20
629.3003196536
 30
0.0
  0
VERTEX
  5
675
  8
0
  6
CONTINUOUS
 62
     7
 10
376.3664456885
 20
629.1963393508
 30
0.0
  0
SEQEND
  5
B57
  8
0
  6
CONTINUOUS
 62
     7
  0
POLYLINE
  5
16C
  8
0
  6
CONTINUOUS
 62
     7
 66
     1
 10
0.0
 20
0.0
 30
0.0
 70
   128
  0
VERTEX
  5
676
  8
0
  6
CONTINUOUS
 62
     7
 10
376.3664456885
 20
629.1963393508
 30
0.0
  0
VERTEX
  5
677
  8
0
  6
CONTINUOUS
 62
     7
 10
376.7076152246
 20
629.255794984
 30
0.0
  0
VERTEX
  5
678
  8
0
  6
CONTINUOUS
 62
     7
 10
377.002539007
 20
629.4198418676
 30
0.0
  0
SEQEND
  5
B58
  8
0
  6
CONTINUOUS
 62
     7
  0
POLYLINE
  5
16D
  8
0
  6
CONTINUOUS
 62
     7
 66
     1
 10
0.0
 20
0.0
 30
0.0
 70
   128
  0
VERTEX
  5
679
  8
0
  6
CONTINUOUS
 62
     7
 10
377.0022782366
 20
636.9634206115
 30
0.0
  0
VERTEX
  5
67A
  8
0
  6
CONTINUOUS
 62
     7
 10
376.7004403155
 20
637.1298665821
 30
0.0
  0
VERTEX
  5
67B
  8
0
  6
CONTINUOUS
 62
     7
 10
376.3664456885
 20
637.1867294132
 30
0.0
  0
SEQEND
  5
B59
  8
0
  6
CONTINUOUS
 62
     7
  0
POLYLINE
  5
16E
  8
0
  6
CONTINUOUS
 62
     7
 66
     1
 10
0.0
 20
0.0
 30
0.0
 70
   128
  0
VERTEX
  5
67C
  8
0
  6
CONTINUOUS
 62
     7
 10
376.3664456885
 20
637.1867294132
 30
0.0
  0
VERTEX
  5
67D
  8
0
  6
CONTINUOUS
 62
     7
 10
376.0970103424
 20
637.1513540565
 30
0.0
  0
VERTEX
  5
67E
  8
0
  6
CONTINUOUS
 62
     7
 10
375.8431839626
 20
637.0506669103
 30
0.0
  0
VERTEX
  5
67F
  8
0
  6
CONTINUOUS
 62
     7
 10
375.6178113501
 20
636.8958736478
 30
0.0
  0
VERTEX
  5
680
  8
0
  6
CONTINUOUS
 62
     7
 10
375.4266220014
 20
636.6969878494
 30
0.0
  0
VERTEX
  5
681
  8
0
  6
CONTINUOUS
 62
     7
 10
375.1663508694
 20
636.2052197277
 30
0.0
  0
VERTEX
  5
682
  8
0
  6
CONTINUOUS
 62
     7
 10
375.088656215
 20
635.6375152885
 30
0.0
  0
VERTEX
  5
683
  8
0
  6
CONTINUOUS
 62
     7
 10
375.2068596761
 20
635.0807184993
 30
0.0
  0
VERTEX
  5
684
  8
0
  6
CONTINUOUS
 62
     7
 10
375.4986542146
 20
634.6167559444
 30
0.0
  0
VERTEX
  5
685
  8
0
  6
CONTINUOUS
 62
     7
 10
375.9069311302
 20
634.3153203546
 30
0.0
  0
VERTEX
  5
686
  8
0
  6
CONTINUOUS
 62
     7
 10
376.3664456885
 20
634.2113400518
 30
0.0
  0
SEQEND
  5
B5A
  8
0
  6
CONTINUOUS
 62
     7
  0
POLYLINE
  5
16F
  8
0
  6
CONTINUOUS
 62
     7
 66
     1
 10
0.0
 20
0.0
 30
0.0
 70
   128
  0
VERTEX
  5
687
  8
0
  6
CONTINUOUS
 62
     7
 10
376.3664456885
 20
634.2113400518
 30
0.0
  0
VERTEX
  5
688
  8
0
  6
CONTINUOUS
 62
     7
 10
376.7076152246
 20
634.270795685
 30
0.0
  0
VERTEX
  5
689
  8
0
  6
CONTINUOUS
 62
     7
 10
377.002539007
 20
634.4348425685
 30
0.0
  0
SEQEND
  5
B5B
  8
0
  6
CONTINUOUS
 62
     7
  0
ARC
  5
170
  8
0
  6
CONTINUOUS
 62
     7
 10
366.4084096436
 20
595.5790365755
 30
0.0
 40
1.487802345748322
 50
269.2872536965
 51
90.7127463035
  0
ARC
  5
171
  8
0
  6
CONTINUOUS
 62
     7
 10
366.3817340013
 20
595.5790365755
 30
0.0
 40
1.487709653844372
 50
89.6854185908
 51
270.3145814092
  0
ARC
  5
172
  8
0
  6
CONTINUOUS
 62
     7
 10
366.4084096436
 20
580.5340344726
 30
0.0
 40
1.487802345748322
 50
269.2872536965
 51
90.7127463035
  0
ARC
  5
173
  8
0
  6
CONTINUOUS
 62
     7
 10
366.3817340013
 20
580.5340344726
 30
0.0
 40
1.487709653844372
 50
89.6854185908
 51
270.3145814092
  0
ARC
  5
174
  8
0
  6
CONTINUOUS
 62
     7
 10
366.4084096436
 20
585.5490351736
 30
0.0
 40
1.487802345748322
 50
269.2872536965
 51
90.7127463035
  0
ARC
  5
175
  8
0
  6
CONTINUOUS
 62
     7
 10
366.3817340013
 20
585.5490351736
 30
0.0
 40
1.487709653844372
 50
89.6854185908
 51
270.3145814092
  0
ARC
  5
176
  8
0
  6
CONTINUOUS
 62
     7
 10
366.4084096436
 20
590.5640358745
 30
0.0
 40
1.487802345748322
 50
269.2872536965
 51
90.7127463035
  0
ARC
  5
177
  8
0
  6
CONTINUOUS
 62
     7
 10
366.3817340013
 20
590.5640358745
 30
0.0
 40
1.487709653844372
 50
89.6854185908
 51
270.3145814092
  0
ARC
  5
178
  8
0
  6
CONTINUOUS
 62
     7
 10
366.4084114119
 20
600.5940372764
 30
0.0
 40
1.48780236774558
 50
269.2871856053
 51
90.7128143947
  0
ARC
  5
179
  8
0
  6
CONTINUOUS
 62
     7
 10
366.3817340013
 20
600.5940372764
 30
0.0
 40
1.487709653844372
 50
89.6854185908
 51
270.3145814092
  0
ARC
  5
17A
  8
0
  6
CONTINUOUS
 62
     7
 10
366.408408975
 20
605.6090379774
 30
0.0
 40
1.487802337430882
 50
269.2872794443
 51
90.7127205557
  0
ARC
  5
17B
  8
0
  6
CONTINUOUS
 62
     7
 10
366.3817340013
 20
605.6090379774
 30
0.0
 40
1.487709653844372
 50
89.6854185908
 51
270.3145814092
  0
ARC
  5
17C
  8
0
  6
CONTINUOUS
 62
     7
 10
366.408408975
 20
610.6240386783
 30
0.0
 40
1.487802337430882
 50
269.2872794443
 51
90.7127205557
  0
ARC
  5
17D
  8
0
  6
CONTINUOUS
 62
     7
 10
366.3817340013
 20
610.6240386783
 30
0.0
 40
1.487709653844372
 50
89.6854185908
 51
270.3145814092
  0
ARC
  5
17E
  8
0
  6
CONTINUOUS
 62
     7
 10
366.408393346
 20
615.6390319287
 30
0.0
 40
1.487809593108856
 50
269.2878848423
 51
90.7121151577
  0
ARC
  5
17F
  8
0
  6
CONTINUOUS
 62
     7
 10
366.3817424792
 20
615.6390319287
 30
0.0
 40
1.48771705778932
 50
89.6857466684
 51
270.3142533316
  0
ARC
  5
180
  8
0
  6
CONTINUOUS
 62
     7
 10
366.408393346
 20
620.6540326296
 30
0.0
 40
1.487809593108856
 50
269.2878848423
 51
90.7121151577
  0
ARC
  5
181
  8
0
  6
CONTINUOUS
 62
     7
 10
366.3817424792
 20
620.6540326296
 30
0.0
 40
1.48771705778932
 50
89.6857466684
 51
270.3142533316
  0
ARC
  5
182
  8
0
  6
CONTINUOUS
 62
     7
 10
366.4083881772
 20
625.6690333306
 30
0.0
 40
1.487809528878594
 50
269.2880838756
 51
90.7119161244
  0
ARC
  5
183
  8
0
  6
CONTINUOUS
 62
     7
 10
366.3817424792
 20
625.6690333306
 30
0.0
 40
1.48771705778932
 50
89.6857466684
 51
270.3142533316
  0
ARC
  5
184
  8
0
  6
CONTINUOUS
 62
     7
 10
366.4083857376
 20
630.6840340315
 30
0.0
 40
1.48780949856884
 50
269.2881778172
 51
90.7118221828
  0
ARC
  5
185
  8
0
  6
CONTINUOUS
 62
     7
 10
366.3817424792
 20
630.6840340315
 30
0.0
 40
1.48771705778932
 50
89.6857466684
 51
270.3142533316
  0
ARC
  5
186
  8
0
  6
CONTINUOUS
 62
     7
 10
366.4083857376
 20
635.6990347325
 30
0.0
 40
1.48780949856884
 50
269.2881778172
 51
90.7118221828
  0
ARC
  5
187
  8
0
  6
CONTINUOUS
 62
     7
 10
366.3817442572
 20
635.6990347325
 30
0.0
 40
1.487717048038631
 50
89.685815142
 51
270.314184858
  0
POLYLINE
  5
188
  8
0
  6
CONTINUOUS
 62
     7
 66
     1
 10
0.0
 20
0.0
 30
0.0
 70
   128
  0
VERTEX
  5
68A
  8
0
  6
CONTINUOUS
 62
     7
 10
359.9186259191
 20
634.2113400518
 30
0.0
  0
VERTEX
  5
68B
  8
0
  6
CONTINUOUS
 62
     7
 10
360.1880612652
 20
634.2467154085
 30
0.0
  0
VERTEX
  5
68C
  8
0
  6
CONTINUOUS
 62
     7
 10
360.441887645
 20
634.3474025546
 30
0.0
  0
VERTEX
  5
68D
  8
0
  6
CONTINUOUS
 62
     7
 10
360.6672677081
 20
634.5021958171
 30
0.0
  0
VERTEX
  5
68E
  8
0
  6
CONTINUOUS
 62
     7
 10
360.8584496062
 20
634.7010816156
 30
0.0
  0
VERTEX
  5
68F
  8
0
  6
CONTINUOUS
 62
     7
 10
361.1187281888
 20
635.1928348361
 30
0.0
  0
VERTEX
  5
690
  8
0
  6
CONTINUOUS
 62
     7
 10
361.1964228432
 20
635.7605541765
 30
0.0
  0
VERTEX
  5
691
  8
0
  6
CONTINUOUS
 62
     7
 10
361.0782119315
 20
636.3173360645
 30
0.0
  0
VERTEX
  5
692
  8
0
  6
CONTINUOUS
 62
     7
 10
360.7864248436
 20
636.7813135206
 30
0.0
  0
VERTEX
  5
693
  8
0
  6
CONTINUOUS
 62
     7
 10
360.3781404774
 20
637.0827342092
 30
0.0
  0
VERTEX
  5
694
  8
0
  6
CONTINUOUS
 62
     7
 10
359.9186259191
 20
637.1867294132
 30
0.0
  0
SEQEND
  5
B5C
  8
0
  6
CONTINUOUS
 62
     7
  0
POLYLINE
  5
189
  8
0
  6
CONTINUOUS
 62
     7
 66
     1
 10
0.0
 20
0.0
 30
0.0
 70
   128
  0
VERTEX
  5
695
  8
0
  6
CONTINUOUS
 62
     7
 10
359.9186259191
 20
637.1867294132
 30
0.0
  0
VERTEX
  5
696
  8
0
  6
CONTINUOUS
 62
     7
 10
359.5774638336
 20
637.1272588788
 30
0.0
  0
VERTEX
  5
697
  8
0
  6
CONTINUOUS
 62
     7
 10
359.2825400512
 20
636.9632268964
 30
0.0
  0
SEQEND
  5
B5D
  8
0
  6
CONTINUOUS
 62
     7
  0
ARC
  5
18A
  8
0
  6
CONTINUOUS
 62
     7
 10
360.2710814172
 20
635.6990207827
 30
0.0
 40
1.60480783419658
 50
128.0240375099
 51
231.9786638469
  0
POLYLINE
  5
18B
  8
0
  6
CONTINUOUS
 62
     7
 66
     1
 10
0.0
 20
0.0
 30
0.0
 70
   128
  0
VERTEX
  5
698
  8
0
  6
CONTINUOUS
 62
     7
 10
359.2828008215
 20
634.4346488534
 30
0.0
  0
VERTEX
  5
699
  8
0
  6
CONTINUOUS
 62
     7
 10
359.5846387427
 20
634.2682028829
 30
0.0
  0
VERTEX
  5
69A
  8
0
  6
CONTINUOUS
 62
     7
 10
359.9186259191
 20
634.2113400518
 30
0.0
  0
SEQEND
  5
B5E
  8
0
  6
CONTINUOUS
 62
     7
  0
POLYLINE
  5
18C
  8
0
  6
CONTINUOUS
 62
     7
 66
     1
 10
0.0
 20
0.0
 30
0.0
 70
   128
  0
VERTEX
  5
69B
  8
0
  6
CONTINUOUS
 62
     7
 10
359.9186259191
 20
629.1963393508
 30
0.0
  0
VERTEX
  5
69C
  8
0
  6
CONTINUOUS
 62
     7
 10
360.1880687158
 20
629.2317147075
 30
0.0
  0
VERTEX
  5
69D
  8
0
  6
CONTINUOUS
 62
     7
 10
360.441887645
 20
629.3324018537
 30
0.0
  0
VERTEX
  5
69E
  8
0
  6
CONTINUOUS
 62
     7
 10
360.6672677081
 20
629.4871951162
 30
0.0
  0
VERTEX
  5
69F
  8
0
  6
CONTINUOUS
 62
     7
 10
360.8584496062
 20
629.6860809146
 30
0.0
  0
VERTEX
  5
6A0
  8
0
  6
CONTINUOUS
 62
     7
 10
361.1187281888
 20
630.1778341352
 30
0.0
  0
VERTEX
  5
6A1
  8
0
  6
CONTINUOUS
 62
     7
 10
361.1964228432
 20
630.7455534755
 30
0.0
  0
VERTEX
  5
6A2
  8
0
  6
CONTINUOUS
 62
     7
 10
361.0782119315
 20
631.3023353635
 30
0.0
  0
VERTEX
  5
6A3
  8
0
  6
CONTINUOUS
 62
     7
 10
360.7864248436
 20
631.7663128196
 30
0.0
  0
VERTEX
  5
6A4
  8
0
  6
CONTINUOUS
 62
     7
 10
360.3781404774
 20
632.0677484094
 30
0.0
  0
VERTEX
  5
6A5
  8
0
  6
CONTINUOUS
 62
     7
 10
359.9186259191
 20
632.1717287122
 30
0.0
  0
SEQEND
  5
B5F
  8
0
  6
CONTINUOUS
 62
     7
  0
POLYLINE
  5
18D
  8
0
  6
CONTINUOUS
 62
     7
 66
     1
 10
0.0
 20
0.0
 30
0.0
 70
   128
  0
VERTEX
  5
6A6
  8
0
  6
CONTINUOUS
 62
     7
 10
359.9186259191
 20
632.1717287122
 30
0.0
  0
VERTEX
  5
6A7
  8
0
  6
CONTINUOUS
 62
     7
 10
359.5774638336
 20
632.1122730791
 30
0.0
  0
VERTEX
  5
6A8
  8
0
  6
CONTINUOUS
 62
     7
 10
359.2825400512
 20
631.9482261955
 30
0.0
  0
SEQEND
  5
B60
  8
0
  6
CONTINUOUS
 62
     7
  0
ARC
  5
18E
  8
0
  6
CONTINUOUS
 62
     7
 10
360.2710897077
 20
630.684020082
 30
0.0
 40
1.604812940883307
 50
128.0242706796
 51
231.9784306773
  0
POLYLINE
  5
18F
  8
0
  6
CONTINUOUS
 62
     7
 66
     1
 10
0.0
 20
0.0
 30
0.0
 70
   128
  0
VERTEX
  5
6A9
  8
0
  6
CONTINUOUS
 62
     7
 10
359.2828008215
 20
629.4196481525
 30
0.0
  0
VERTEX
  5
6AA
  8
0
  6
CONTINUOUS
 62
     7
 10
359.5846387427
 20
629.253202182
 30
0.0
  0
VERTEX
  5
6AB
  8
0
  6
CONTINUOUS
 62
     7
 10
359.9186259191
 20
629.1963393508
 30
0.0
  0
SEQEND
  5
B61
  8
0
  6
CONTINUOUS
 62
     7
  0
POLYLINE
  5
190
  8
0
  6
CONTINUOUS
 62
     7
 66
     1
 10
0.0
 20
0.0
 30
0.0
 70
   128
  0
VERTEX
  5
6AC
  8
0
  6
CONTINUOUS
 62
     7
 10
359.9186259191
 20
624.1813386499
 30
0.0
  0
VERTEX
  5
6AD
  8
0
  6
CONTINUOUS
 62
     7
 10
360.1880687158
 20
624.2167140066
 30
0.0
  0
VERTEX
  5
6AE
  8
0
  6
CONTINUOUS
 62
     7
 10
360.441887645
 20
624.3174011527
 30
0.0
  0
VERTEX
  5
6AF
  8
0
  6
CONTINUOUS
 62
     7
 10
360.6672677081
 20
624.4721944152
 30
0.0
  0
VERTEX
  5
6B0
  8
0
  6
CONTINUOUS
 62
     7
 10
360.8584496062
 20
624.6710802137
 30
0.0
  0
VERTEX
  5
6B1
  8
0
  6
CONTINUOUS
 62
     7
 10
361.1187281888
 20
625.1628334342
 30
0.0
  0
VERTEX
  5
6B2
  8
0
  6
CONTINUOUS
 62
     7
 10
361.1964228432
 20
625.7305527746
 30
0.0
  0
VERTEX
  5
6B3
  8
0
  6
CONTINUOUS
 62
     7
 10
361.0782119315
 20
626.2873346626
 30
0.0
  0
VERTEX
  5
6B4
  8
0
  6
CONTINUOUS
 62
     7
 10
360.7864248436
 20
626.7513121187
 30
0.0
  0
VERTEX
  5
6B5
  8
0
  6
CONTINUOUS
 62
     7
 10
360.3781404774
 20
627.0527477085
 30
0.0
  0
VERTEX
  5
6B6
  8
0
  6
CONTINUOUS
 62
     7
 10
359.9186259191
 20
627.1567280113
 30
0.0
  0
SEQEND
  5
B62
  8
0
  6
CONTINUOUS
 62
     7
  0
POLYLINE
  5
191
  8
0
  6
CONTINUOUS
 62
     7
 66
     1
 10
0.0
 20
0.0
 30
0.0
 70
   128
  0
VERTEX
  5
6B7
  8
0
  6
CONTINUOUS
 62
     7
 10
359.9186259191
 20
627.1567280113
 30
0.0
  0
VERTEX
  5
6B8
  8
0
  6
CONTINUOUS
 62
     7
 10
359.5774638336
 20
627.0972723781
 30
0.0
  0
VERTEX
  5
6B9
  8
0
  6
CONTINUOUS
 62
     7
 10
359.2825400512
 20
626.9332254945
 30
0.0
  0
SEQEND
  5
B63
  8
0
  6
CONTINUOUS
 62
     7
  0
ARC
  5
192
  8
0
  6
CONTINUOUS
 62
     7
 10
360.2710897077
 20
625.669019381
 30
0.0
 40
1.604812940883307
 50
128.0242706796
 51
231.9784306773
  0
POLYLINE
  5
193
  8
0
  6
CONTINUOUS
 62
     7
 66
     1
 10
0.0
 20
0.0
 30
0.0
 70
   128
  0
VERTEX
  5
6BA
  8
0
  6
CONTINUOUS
 62
     7
 10
359.2828008215
 20
624.4046474515
 30
0.0
  0
VERTEX
  5
6BB
  8
0
  6
CONTINUOUS
 62
     7
 10
359.5846387427
 20
624.238201481
 30
0.0
  0
VERTEX
  5
6BC
  8
0
  6
CONTINUOUS
 62
     7
 10
359.9186259191
 20
624.1813386499
 30
0.0
  0
SEQEND
  5
B64
  8
0
  6
CONTINUOUS
 62
     7
  0
POLYLINE
  5
194
  8
0
  6
CONTINUOUS
 62
     7
 66
     1
 10
0.0
 20
0.0
 30
0.0
 70
   128
  0
VERTEX
  5
6BD
  8
0
  6
CONTINUOUS
 62
     7
 10
359.9186259191
 20
619.1663379489
 30
0.0
  0
VERTEX
  5
6BE
  8
0
  6
CONTINUOUS
 62
     7
 10
360.1880687158
 20
619.2017133056
 30
0.0
  0
VERTEX
  5
6BF
  8
0
  6
CONTINUOUS
 62
     7
 10
360.441887645
 20
619.3024004518
 30
0.0
  0
VERTEX
  5
6C0
  8
0
  6
CONTINUOUS
 62
     7
 10
360.6672677081
 20
619.4571937143
 30
0.0
  0
VERTEX
  5
6C1
  8
0
  6
CONTINUOUS
 62
     7
 10
360.8584496062
 20
619.6560795127
 30
0.0
  0
VERTEX
  5
6C2
  8
0
  6
CONTINUOUS
 62
     7
 10
361.1187281888
 20
620.1478476345
 30
0.0
  0
VERTEX
  5
6C3
  8
0
  6
CONTINUOUS
 62
     7
 10
361.1964228432
 20
620.7155520736
 30
0.0
  0
VERTEX
  5
6C4
  8
0
  6
CONTINUOUS
 62
     7
 10
361.0782119315
 20
621.2723488628
 30
0.0
  0
VERTEX
  5
6C5
  8
0
  6
CONTINUOUS
 62
     7
 10
360.7864248436
 20
621.7363114177
 30
0.0
  0
VERTEX
  5
6C6
  8
0
  6
CONTINUOUS
 62
     7
 10
360.3781404774
 20
622.0377470075
 30
0.0
  0
VERTEX
  5
6C7
  8
0
  6
CONTINUOUS
 62
     7
 10
359.9186259191
 20
622.1417273103
 30
0.0
  0
SEQEND
  5
B65
  8
0
  6
CONTINUOUS
 62
     7
  0
POLYLINE
  5
195
  8
0
  6
CONTINUOUS
 62
     7
 66
     1
 10
0.0
 20
0.0
 30
0.0
 70
   128
  0
VERTEX
  5
6C8
  8
0
  6
CONTINUOUS
 62
     7
 10
359.9186259191
 20
622.1417273103
 30
0.0
  0
VERTEX
  5
6C9
  8
0
  6
CONTINUOUS
 62
     7
 10
359.5774638336
 20
622.0822716772
 30
0.0
  0
VERTEX
  5
6CA
  8
0
  6
CONTINUOUS
 62
     7
 10
359.2825400512
 20
621.9182247936
 30
0.0
  0
SEQEND
  5
B66
  8
0
  6
CONTINUOUS
 62
     7
  0
ARC
  5
196
  8
0
  6
CONTINUOUS
 62
     7
 10
360.2710702101
 20
620.6540261303
 30
0.0
 40
1.6047950615553
 50
128.0238861632
 51
231.9788152096
  0
POLYLINE
  5
197
  8
0
  6
CONTINUOUS
 62
     7
 66
     1
 10
0.0
 20
0.0
 30
0.0
 70
   128
  0
VERTEX
  5
6CB
  8
0
  6
CONTINUOUS
 62
     7
 10
359.2828008215
 20
619.3896467506
 30
0.0
  0
VERTEX
  5
6CC
  8
0
  6
CONTINUOUS
 62
     7
 10
359.5846387427
 20
619.2232007801
 30
0.0
  0
VERTEX
  5
6CD
  8
0
  6
CONTINUOUS
 62
     7
 10
359.9186259191
 20
619.1663379489
 30
0.0
  0
SEQEND
  5
B67
  8
0
  6
CONTINUOUS
 62
     7
  0
POLYLINE
  5
198
  8
0
  6
CONTINUOUS
 62
     7
 66
     1
 10
0.0
 20
0.0
 30
0.0
 70
   128
  0
VERTEX
  5
6CE
  8
0
  6
CONTINUOUS
 62
     7
 10
359.9186259191
 20
614.151337248
 30
0.0
  0
VERTEX
  5
6CF
  8
0
  6
CONTINUOUS
 62
     7
 10
360.1880687158
 20
614.1867126047
 30
0.0
  0
VERTEX
  5
6D0
  8
0
  6
CONTINUOUS
 62
     7
 10
360.441887645
 20
614.2873997508
 30
0.0
  0
VERTEX
  5
6D1
  8
0
  6
CONTINUOUS
 62
     7
 10
360.6672677081
 20
614.4421930133
 30
0.0
  0
VERTEX
  5
6D2
  8
0
  6
CONTINUOUS
 62
     7
 10
360.8584496062
 20
614.6410788118
 30
0.0
  0
VERTEX
  5
6D3
  8
0
  6
CONTINUOUS
 62
     7
 10
361.1187281888
 20
615.1328469335
 30
0.0
  0
VERTEX
  5
6D4
  8
0
  6
CONTINUOUS
 62
     7
 10
361.1964228432
 20
615.7005513727
 30
0.0
  0
VERTEX
  5
6D5
  8
0
  6
CONTINUOUS
 62
     7
 10
361.0782119315
 20
616.2573481618
 30
0.0
  0
VERTEX
  5
6D6
  8
0
  6
CONTINUOUS
 62
     7
 10
360.7864248436
 20
616.7213107168
 30
0.0
  0
VERTEX
  5
6D7
  8
0
  6
CONTINUOUS
 62
     7
 10
360.3781404774
 20
617.0227463066
 30
0.0
  0
VERTEX
  5
6D8
  8
0
  6
CONTINUOUS
 62
     7
 10
359.9186259191
 20
617.1267266094
 30
0.0
  0
SEQEND
  5
B68
  8
0
  6
CONTINUOUS
 62
     7
  0
POLYLINE
  5
199
  8
0
  6
CONTINUOUS
 62
     7
 66
     1
 10
0.0
 20
0.0
 30
0.0
 70
   128
  0
VERTEX
  5
6D9
  8
0
  6
CONTINUOUS
 62
     7
 10
359.9186259191
 20
617.1267266094
 30
0.0
  0
VERTEX
  5
6DA
  8
0
  6
CONTINUOUS
 62
     7
 10
359.5774638336
 20
617.0672709762
 30
0.0
  0
VERTEX
  5
6DB
  8
0
  6
CONTINUOUS
 62
     7
 10
359.2825400512
 20
616.9032240926
 30
0.0
  0
SEQEND
  5
B69
  8
0
  6
CONTINUOUS
 62
     7
  0
ARC
  5
19A
  8
0
  6
CONTINUOUS
 62
     7
 10
360.2710890879
 20
615.6390328802
 30
0.0
 40
1.60481255914839
 50
128.0242532498
 51
231.9784481071
  0
POLYLINE
  5
19B
  8
0
  6
CONTINUOUS
 62
     7
 66
     1
 10
0.0
 20
0.0
 30
0.0
 70
   128
  0
VERTEX
  5
6DC
  8
0
  6
CONTINUOUS
 62
     7
 10
359.2828008215
 20
614.3746460496
 30
0.0
  0
VERTEX
  5
6DD
  8
0
  6
CONTINUOUS
 62
     7
 10
359.5846387427
 20
614.2082000791
 30
0.0
  0
VERTEX
  5
6DE
  8
0
  6
CONTINUOUS
 62
     7
 10
359.9186259191
 20
614.151337248
 30
0.0
  0
SEQEND
  5
B6A
  8
0
  6
CONTINUOUS
 62
     7
  0
POLYLINE
  5
19C
  8
0
  6
CONTINUOUS
 62
     7
 66
     1
 10
0.0
 20
0.0
 30
0.0
 70
   128
  0
VERTEX
  5
6DF
  8
0
  6
CONTINUOUS
 62
     7
 10
359.9186259191
 20
609.1363514482
 30
0.0
  0
VERTEX
  5
6E0
  8
0
  6
CONTINUOUS
 62
     7
 10
360.1880687158
 20
609.1717119037
 30
0.0
  0
VERTEX
  5
6E1
  8
0
  6
CONTINUOUS
 62
     7
 10
360.441887645
 20
609.2724139511
 30
0.0
  0
VERTEX
  5
6E2
  8
0
  6
CONTINUOUS
 62
     7
 10
360.6672677081
 20
609.4271923124
 30
0.0
  0
VERTEX
  5
6E3
  8
0
  6
CONTINUOUS
 62
     7
 10
360.8584496062
 20
609.6260781108
 30
0.0
  0
VERTEX
  5
6E4
  8
0
  6
CONTINUOUS
 62
     7
 10
361.1187281888
 20
610.1178462325
 30
0.0
  0
VERTEX
  5
6E5
  8
0
  6
CONTINUOUS
 62
     7
 10
361.1964228432
 20
610.6855506717
 30
0.0
  0
VERTEX
  5
6E6
  8
0
  6
CONTINUOUS
 62
     7
 10
361.0782119315
 20
611.2423474609
 30
0.0
  0
VERTEX
  5
6E7
  8
0
  6
CONTINUOUS
 62
     7
 10
360.7864248436
 20
611.7063100158
 30
0.0
  0
VERTEX
  5
6E8
  8
0
  6
CONTINUOUS
 62
     7
 10
360.3781404774
 20
612.0077456056
 30
0.0
  0
VERTEX
  5
6E9
  8
0
  6
CONTINUOUS
 62
     7
 10
359.9186259191
 20
612.1117259084
 30
0.0
  0
SEQEND
  5
B6B
  8
0
  6
CONTINUOUS
 62
     7
  0
POLYLINE
  5
19D
  8
0
  6
CONTINUOUS
 62
     7
 66
     1
 10
0.0
 20
0.0
 30
0.0
 70
   128
  0
VERTEX
  5
6EA
  8
0
  6
CONTINUOUS
 62
     7
 10
359.9186259191
 20
612.1117259084
 30
0.0
  0
VERTEX
  5
6EB
  8
0
  6
CONTINUOUS
 62
     7
 10
359.5774638336
 20
612.0522702753
 30
0.0
  0
VERTEX
  5
6EC
  8
0
  6
CONTINUOUS
 62
     7
 10
359.2825400512
 20
611.8882233917
 30
0.0
  0
SEQEND
  5
B6C
  8
0
  6
CONTINUOUS
 62
     7
  0
ARC
  5
19E
  8
0
  6
CONTINUOUS
 62
     7
 10
360.2710890879
 20
610.6240321793
 30
0.0
 40
1.60481255914839
 50
128.0242532498
 51
231.9784481071
  0
POLYLINE
  5
19F
  8
0
  6
CONTINUOUS
 62
     7
 66
     1
 10
0.0
 20
0.0
 30
0.0
 70
   128
  0
VERTEX
  5
6ED
  8
0
  6
CONTINUOUS
 62
     7
 10
359.2828008215
 20
609.3596453487
 30
0.0
  0
VERTEX
  5
6EE
  8
0
  6
CONTINUOUS
 62
     7
 10
359.5846387427
 20
609.1931993781
 30
0.0
  0
VERTEX
  5
6EF
  8
0
  6
CONTINUOUS
 62
     7
 10
359.9186259191
 20
609.1363514482
 30
0.0
  0
SEQEND
  5
B6D
  8
0
  6
CONTINUOUS
 62
     7
  0
POLYLINE
  5
1A0
  8
0
  6
CONTINUOUS
 62
     7
 66
     1
 10
0.0
 20
0.0
 30
0.0
 70
   128
  0
VERTEX
  5
6F0
  8
0
  6
CONTINUOUS
 62
     7
 10
359.9186259191
 20
604.1213507472
 30
0.0
  0
VERTEX
  5
6F1
  8
0
  6
CONTINUOUS
 62
     7
 10
360.1880687158
 20
604.1567261039
 30
0.0
  0
VERTEX
  5
6F2
  8
0
  6
CONTINUOUS
 62
     7
 10
360.441887645
 20
604.2574132501
 30
0.0
  0
VERTEX
  5
6F3
  8
0
  6
CONTINUOUS
 62
     7
 10
360.6672677081
 20
604.4121916114
 30
0.0
  0
VERTEX
  5
6F4
  8
0
  6
CONTINUOUS
 62
     7
 10
360.8584496062
 20
604.6110774099
 30
0.0
  0
VERTEX
  5
6F5
  8
0
  6
CONTINUOUS
 62
     7
 10
361.1187281888
 20
605.1028455316
 30
0.0
  0
VERTEX
  5
6F6
  8
0
  6
CONTINUOUS
 62
     7
 10
361.1964228432
 20
605.6705499708
 30
0.0
  0
VERTEX
  5
6F7
  8
0
  6
CONTINUOUS
 62
     7
 10
361.0782119315
 20
606.2273467599
 30
0.0
  0
VERTEX
  5
6F8
  8
0
  6
CONTINUOUS
 62
     7
 10
360.7864248436
 20
606.6913093149
 30
0.0
  0
VERTEX
  5
6F9
  8
0
  6
CONTINUOUS
 62
     7
 10
360.3781404774
 20
606.9927449047
 30
0.0
  0
VERTEX
  5
6FA
  8
0
  6
CONTINUOUS
 62
     7
 10
359.9186259191
 20
607.0967252075
 30
0.0
  0
SEQEND
  5
B6E
  8
0
  6
CONTINUOUS
 62
     7
  0
POLYLINE
  5
1A1
  8
0
  6
CONTINUOUS
 62
     7
 66
     1
 10
0.0
 20
0.0
 30
0.0
 70
   128
  0
VERTEX
  5
6FB
  8
0
  6
CONTINUOUS
 62
     7
 10
359.9186259191
 20
607.0967252075
 30
0.0
  0
VERTEX
  5
6FC
  8
0
  6
CONTINUOUS
 62
     7
 10
359.5774638336
 20
607.0372695743
 30
0.0
  0
VERTEX
  5
6FD
  8
0
  6
CONTINUOUS
 62
     7
 10
359.2825400512
 20
606.8732226907
 30
0.0
  0
SEQEND
  5
B6F
  8
0
  6
CONTINUOUS
 62
     7
  0
ARC
  5
1A2
  8
0
  6
CONTINUOUS
 62
     7
 10
360.2710890879
 20
605.6090314783
 30
0.0
 40
1.60481255914839
 50
128.0242532498
 51
231.9784481071
  0
POLYLINE
  5
1A3
  8
0
  6
CONTINUOUS
 62
     7
 66
     1
 10
0.0
 20
0.0
 30
0.0
 70
   128
  0
VERTEX
  5
6FE
  8
0
  6
CONTINUOUS
 62
     7
 10
359.2828008215
 20
604.3446446477
 30
0.0
  0
VERTEX
  5
6FF
  8
0
  6
CONTINUOUS
 62
     7
 10
359.5846387427
 20
604.1781986772
 30
0.0
  0
VERTEX
  5
700
  8
0
  6
CONTINUOUS
 62
     7
 10
359.9186259191
 20
604.1213507472
 30
0.0
  0
SEQEND
  5
B70
  8
0
  6
CONTINUOUS
 62
     7
  0
POLYLINE
  5
1A4
  8
0
  6
CONTINUOUS
 62
     7
 66
     1
 10
0.0
 20
0.0
 30
0.0
 70
   128
  0
VERTEX
  5
701
  8
0
  6
CONTINUOUS
 62
     7
 10
359.9186259191
 20
599.1063500463
 30
0.0
  0
VERTEX
  5
702
  8
0
  6
CONTINUOUS
 62
     7
 10
360.1880687158
 20
599.141725403
 30
0.0
  0
VERTEX
  5
703
  8
0
  6
CONTINUOUS
 62
     7
 10
360.441887645
 20
599.2424125492
 30
0.0
  0
VERTEX
  5
704
  8
0
  6
CONTINUOUS
 62
     7
 10
360.6672677081
 20
599.3971909105
 30
0.0
  0
VERTEX
  5
705
  8
0
  6
CONTINUOUS
 62
     7
 10
360.8584496062
 20
599.5960767089
 30
0.0
  0
VERTEX
  5
706
  8
0
  6
CONTINUOUS
 62
     7
 10
361.1187281888
 20
600.0878448306
 30
0.0
  0
VERTEX
  5
707
  8
0
  6
CONTINUOUS
 62
     7
 10
361.1964228432
 20
600.6555492698
 30
0.0
  0
VERTEX
  5
708
  8
0
  6
CONTINUOUS
 62
     7
 10
361.0782119315
 20
601.212346059
 30
0.0
  0
VERTEX
  5
709
  8
0
  6
CONTINUOUS
 62
     7
 10
360.7864248436
 20
601.6763086139
 30
0.0
  0
VERTEX
  5
70A
  8
0
  6
CONTINUOUS
 62
     7
 10
360.3781404774
 20
601.9777442037
 30
0.0
  0
VERTEX
  5
70B
  8
0
  6
CONTINUOUS
 62
     7
 10
359.9186259191
 20
602.0817245065
 30
0.0
  0
SEQEND
  5
B71
  8
0
  6
CONTINUOUS
 62
     7
  0
POLYLINE
  5
1A5
  8
0
  6
CONTINUOUS
 62
     7
 66
     1
 10
0.0
 20
0.0
 30
0.0
 70
   128
  0
VERTEX
  5
70C
  8
0
  6
CONTINUOUS
 62
     7
 10
359.9186259191
 20
602.0817245065
 30
0.0
  0
VERTEX
  5
70D
  8
0
  6
CONTINUOUS
 62
     7
 10
359.5774638336
 20
602.0222688734
 30
0.0
  0
VERTEX
  5
70E
  8
0
  6
CONTINUOUS
 62
     7
 10
359.2825400512
 20
601.8582219898
 30
0.0
  0
SEQEND
  5
B72
  8
0
  6
CONTINUOUS
 62
     7
  0
ARC
  5
1A6
  8
0
  6
CONTINUOUS
 62
     7
 10
360.2710890879
 20
600.5940307774
 30
0.0
 40
1.60481255914839
 50
128.0242532498
 51
231.9784481071
  0
POLYLINE
  5
1A7
  8
0
  6
CONTINUOUS
 62
     7
 66
     1
 10
0.0
 20
0.0
 30
0.0
 70
   128
  0
VERTEX
  5
70F
  8
0
  6
CONTINUOUS
 62
     7
 10
359.2828008215
 20
599.3296439468
 30
0.0
  0
VERTEX
  5
710
  8
0
  6
CONTINUOUS
 62
     7
 10
359.5846387427
 20
599.1631979762
 30
0.0
  0
VERTEX
  5
711
  8
0
  6
CONTINUOUS
 62
     7
 10
359.9186259191
 20
599.1063500463
 30
0.0
  0
SEQEND
  5
B73
  8
0
  6
CONTINUOUS
 62
     7
  0
POLYLINE
  5
1A8
  8
0
  6
CONTINUOUS
 62
     7
 66
     1
 10
0.0
 20
0.0
 30
0.0
 70
   128
  0
VERTEX
  5
712
  8
0
  6
CONTINUOUS
 62
     7
 10
359.9186259191
 20
589.0763486444
 30
0.0
  0
VERTEX
  5
713
  8
0
  6
CONTINUOUS
 62
     7
 10
360.1880687158
 20
589.1117240011
 30
0.0
  0
VERTEX
  5
714
  8
0
  6
CONTINUOUS
 62
     7
 10
360.441887645
 20
589.2124111473
 30
0.0
  0
VERTEX
  5
715
  8
0
  6
CONTINUOUS
 62
     7
 10
360.6672677081
 20
589.3671895086
 30
0.0
  0
VERTEX
  5
716
  8
0
  6
CONTINUOUS
 62
     7
 10
360.8584496062
 20
589.566075307
 30
0.0
  0
VERTEX
  5
717
  8
0
  6
CONTINUOUS
 62
     7
 10
361.1187281888
 20
590.0578434287
 30
0.0
  0
VERTEX
  5
718
  8
0
  6
CONTINUOUS
 62
     7
 10
361.1964228432
 20
590.6255478679
 30
0.0
  0
VERTEX
  5
719
  8
0
  6
CONTINUOUS
 62
     7
 10
361.0782119315
 20
591.1823446571
 30
0.0
  0
VERTEX
  5
71A
  8
0
  6
CONTINUOUS
 62
     7
 10
360.7864248436
 20
591.646307212
 30
0.0
  0
VERTEX
  5
71B
  8
0
  6
CONTINUOUS
 62
     7
 10
360.3781404774
 20
591.9477428018
 30
0.0
  0
VERTEX
  5
71C
  8
0
  6
CONTINUOUS
 62
     7
 10
359.9186259191
 20
592.0517231046
 30
0.0
  0
SEQEND
  5
B74
  8
0
  6
CONTINUOUS
 62
     7
  0
POLYLINE
  5
1A9
  8
0
  6
CONTINUOUS
 62
     7
 66
     1
 10
0.0
 20
0.0
 30
0.0
 70
   128
  0
VERTEX
  5
71D
  8
0
  6
CONTINUOUS
 62
     7
 10
359.9186259191
 20
592.0517231046
 30
0.0
  0
VERTEX
  5
71E
  8
0
  6
CONTINUOUS
 62
     7
 10
359.5774638336
 20
591.9922674714
 30
0.0
  0
VERTEX
  5
71F
  8
0
  6
CONTINUOUS
 62
     7
 10
359.2825400512
 20
591.8282205879
 30
0.0
  0
SEQEND
  5
B75
  8
0
  6
CONTINUOUS
 62
     7
  0
ARC
  5
1AA
  8
0
  6
CONTINUOUS
 62
     7
 10
360.2710890879
 20
590.5640293755
 30
0.0
 40
1.60481255914839
 50
128.0242532498
 51
231.9784481071
  0
POLYLINE
  5
1AB
  8
0
  6
CONTINUOUS
 62
     7
 66
     1
 10
0.0
 20
0.0
 30
0.0
 70
   128
  0
VERTEX
  5
720
  8
0
  6
CONTINUOUS
 62
     7
 10
359.2828008215
 20
589.2996425449
 30
0.0
  0
VERTEX
  5
721
  8
0
  6
CONTINUOUS
 62
     7
 10
359.5846387427
 20
589.1331965743
 30
0.0
  0
VERTEX
  5
722
  8
0
  6
CONTINUOUS
 62
     7
 10
359.9186259191
 20
589.0763486444
 30
0.0
  0
SEQEND
  5
B76
  8
0
  6
CONTINUOUS
 62
     7
  0
POLYLINE
  5
1AC
  8
0
  6
CONTINUOUS
 62
     7
 66
     1
 10
0.0
 20
0.0
 30
0.0
 70
   128
  0
VERTEX
  5
723
  8
0
  6
CONTINUOUS
 62
     7
 10
359.9186259191
 20
584.0613479434
 30
0.0
  0
VERTEX
  5
724
  8
0
  6
CONTINUOUS
 62
     7
 10
360.1880687158
 20
584.0967233001
 30
0.0
  0
VERTEX
  5
725
  8
0
  6
CONTINUOUS
 62
     7
 10
360.441887645
 20
584.1974104463
 30
0.0
  0
VERTEX
  5
726
  8
0
  6
CONTINUOUS
 62
     7
 10
360.6672677081
 20
584.3521888076
 30
0.0
  0
VERTEX
  5
727
  8
0
  6
CONTINUOUS
 62
     7
 10
360.8584496062
 20
584.5510746061
 30
0.0
  0
VERTEX
  5
728
  8
0
  6
CONTINUOUS
 62
     7
 10
361.1187281888
 20
585.0428427278
 30
0.0
  0
VERTEX
  5
729
  8
0
  6
CONTINUOUS
 62
     7
 10
361.1964228432
 20
585.610547167
 30
0.0
  0
VERTEX
  5
72A
  8
0
  6
CONTINUOUS
 62
     7
 10
361.0782119315
 20
586.1673439561
 30
0.0
  0
VERTEX
  5
72B
  8
0
  6
CONTINUOUS
 62
     7
 10
360.7864248436
 20
586.6313065111
 30
0.0
  0
VERTEX
  5
72C
  8
0
  6
CONTINUOUS
 62
     7
 10
360.3781404774
 20
586.9327421009
 30
0.0
  0
VERTEX
  5
72D
  8
0
  6
CONTINUOUS
 62
     7
 10
359.9186259191
 20
587.0367224037
 30
0.0
  0
SEQEND
  5
B77
  8
0
  6
CONTINUOUS
 62
     7
  0
POLYLINE
  5
1AD
  8
0
  6
CONTINUOUS
 62
     7
 66
     1
 10
0.0
 20
0.0
 30
0.0
 70
   128
  0
VERTEX
  5
72E
  8
0
  6
CONTINUOUS
 62
     7
 10
359.9186259191
 20
587.0367224037
 30
0.0
  0
VERTEX
  5
72F
  8
0
  6
CONTINUOUS
 62
     7
 10
359.5774638336
 20
586.9772667705
 30
0.0
  0
VERTEX
  5
730
  8
0
  6
CONTINUOUS
 62
     7
 10
359.2825400512
 20
586.8132198869
 30
0.0
  0
SEQEND
  5
B78
  8
0
  6
CONTINUOUS
 62
     7
  0
ARC
  5
1AE
  8
0
  6
CONTINUOUS
 62
     7
 10
360.2710890879
 20
585.5490286745
 30
0.0
 40
1.60481255914839
 50
128.0242532498
 51
231.9784481071
  0
POLYLINE
  5
1AF
  8
0
  6
CONTINUOUS
 62
     7
 66
     1
 10
0.0
 20
0.0
 30
0.0
 70
   128
  0
VERTEX
  5
731
  8
0
  6
CONTINUOUS
 62
     7
 10
359.2828008215
 20
584.2846418439
 30
0.0
  0
VERTEX
  5
732
  8
0
  6
CONTINUOUS
 62
     7
 10
359.5846387427
 20
584.1181958734
 30
0.0
  0
VERTEX
  5
733
  8
0
  6
CONTINUOUS
 62
     7
 10
359.9186259191
 20
584.0613479434
 30
0.0
  0
SEQEND
  5
B79
  8
0
  6
CONTINUOUS
 62
     7
  0
POLYLINE
  5
1B0
  8
0
  6
CONTINUOUS
 62
     7
 66
     1
 10
0.0
 20
0.0
 30
0.0
 70
   128
  0
VERTEX
  5
734
  8
0
  6
CONTINUOUS
 62
     7
 10
359.9186259191
 20
579.0463472425
 30
0.0
  0
VERTEX
  5
735
  8
0
  6
CONTINUOUS
 62
     7
 10
360.1880687158
 20
579.0817225992
 30
0.0
  0
VERTEX
  5
736
  8
0
  6
CONTINUOUS
 62
     7
 10
360.441887645
 20
579.1824097454
 30
0.0
  0
VERTEX
  5
737
  8
0
  6
CONTINUOUS
 62
     7
 10
360.6672677081
 20
579.3371881067
 30
0.0
  0
VERTEX
  5
738
  8
0
  6
CONTINUOUS
 62
     7
 10
360.8584496062
 20
579.5360739051
 30
0.0
  0
VERTEX
  5
739
  8
0
  6
CONTINUOUS
 62
     7
 10
361.1187281888
 20
580.0278420268
 30
0.0
  0
VERTEX
  5
73A
  8
0
  6
CONTINUOUS
 62
     7
 10
361.1964228432
 20
580.595546466
 30
0.0
  0
VERTEX
  5
73B
  8
0
  6
CONTINUOUS
 62
     7
 10
361.0782119315
 20
581.1523432552
 30
0.0
  0
VERTEX
  5
73C
  8
0
  6
CONTINUOUS
 62
     7
 10
360.7864248436
 20
581.6163058101
 30
0.0
  0
VERTEX
  5
73D
  8
0
  6
CONTINUOUS
 62
     7
 10
360.3781404774
 20
581.9177413999
 30
0.0
  0
VERTEX
  5
73E
  8
0
  6
CONTINUOUS
 62
     7
 10
359.9186259191
 20
582.0217217027
 30
0.0
  0
SEQEND
  5
B7A
  8
0
  6
CONTINUOUS
 62
     7
  0
POLYLINE
  5
1B1
  8
0
  6
CONTINUOUS
 62
     7
 66
     1
 10
0.0
 20
0.0
 30
0.0
 70
   128
  0
VERTEX
  5
73F
  8
0
  6
CONTINUOUS
 62
     7
 10
359.9186259191
 20
582.0217217027
 30
0.0
  0
VERTEX
  5
740
  8
0
  6
CONTINUOUS
 62
     7
 10
359.5774638336
 20
581.9622660695
 30
0.0
  0
VERTEX
  5
741
  8
0
  6
CONTINUOUS
 62
     7
 10
359.2825400512
 20
581.798219186
 30
0.0
  0
SEQEND
  5
B7B
  8
0
  6
CONTINUOUS
 62
     7
  0
ARC
  5
1B2
  8
0
  6
CONTINUOUS
 62
     7
 10
360.2710955554
 20
580.5340279737
 30
0.0
 40
1.604816542940125
 50
128.0244351467
 51
231.9782662102
  0
POLYLINE
  5
1B3
  8
0
  6
CONTINUOUS
 62
     7
 66
     1
 10
0.0
 20
0.0
 30
0.0
 70
   128
  0
VERTEX
  5
742
  8
0
  6
CONTINUOUS
 62
     7
 10
359.2828008215
 20
579.269641143
 30
0.0
  0
VERTEX
  5
743
  8
0
  6
CONTINUOUS
 62
     7
 10
359.5846387427
 20
579.1031951724
 30
0.0
  0
VERTEX
  5
744
  8
0
  6
CONTINUOUS
 62
     7
 10
359.9186259191
 20
579.0463472425
 30
0.0
  0
SEQEND
  5
B7C
  8
0
  6
CONTINUOUS
 62
     7
  0
POLYLINE
  5
1B4
  8
0
  6
CONTINUOUS
 62
     7
 66
     1
 10
0.0
 20
0.0
 30
0.0
 70
   128
  0
VERTEX
  5
745
  8
0
  6
CONTINUOUS
 62
     7
 10
359.9186259191
 20
594.0913493453
 30
0.0
  0
VERTEX
  5
746
  8
0
  6
CONTINUOUS
 62
     7
 10
360.1880687158
 20
594.126724702
 30
0.0
  0
VERTEX
  5
747
  8
0
  6
CONTINUOUS
 62
     7
 10
360.441887645
 20
594.2274118482
 30
0.0
  0
VERTEX
  5
748
  8
0
  6
CONTINUOUS
 62
     7
 10
360.6672677081
 20
594.3821902095
 30
0.0
  0
VERTEX
  5
749
  8
0
  6
CONTINUOUS
 62
     7
 10
360.8584496062
 20
594.581076008
 30
0.0
  0
VERTEX
  5
74A
  8
0
  6
CONTINUOUS
 62
     7
 10
361.1187281888
 20
595.0728441297
 30
0.0
  0
VERTEX
  5
74B
  8
0
  6
CONTINUOUS
 62
     7
 10
361.1964228432
 20
595.6405485689
 30
0.0
  0
VERTEX
  5
74C
  8
0
  6
CONTINUOUS
 62
     7
 10
361.0782119315
 20
596.197345358
 30
0.0
  0
VERTEX
  5
74D
  8
0
  6
CONTINUOUS
 62
     7
 10
360.7864248436
 20
596.661307913
 30
0.0
  0
VERTEX
  5
74E
  8
0
  6
CONTINUOUS
 62
     7
 10
360.3781404774
 20
596.9627435028
 30
0.0
  0
VERTEX
  5
74F
  8
0
  6
CONTINUOUS
 62
     7
 10
359.9186259191
 20
597.0667238056
 30
0.0
  0
SEQEND
  5
B7D
  8
0
  6
CONTINUOUS
 62
     7
  0
POLYLINE
  5
1B5
  8
0
  6
CONTINUOUS
 62
     7
 66
     1
 10
0.0
 20
0.0
 30
0.0
 70
   128
  0
VERTEX
  5
750
  8
0
  6
CONTINUOUS
 62
     7
 10
359.9186259191
 20
597.0667238056
 30
0.0
  0
VERTEX
  5
751
  8
0
  6
CONTINUOUS
 62
     7
 10
359.5774638336
 20
597.0072681724
 30
0.0
  0
VERTEX
  5
752
  8
0
  6
CONTINUOUS
 62
     7
 10
359.2825400512
 20
596.8432212888
 30
0.0
  0
SEQEND
  5
B7E
  8
0
  6
CONTINUOUS
 62
     7
  0
ARC
  5
1B6
  8
0
  6
CONTINUOUS
 62
     7
 10
360.2710890879
 20
595.5790300764
 30
0.0
 40
1.60481255914839
 50
128.0242532498
 51
231.9784481071
  0
POLYLINE
  5
1B7
  8
0
  6
CONTINUOUS
 62
     7
 66
     1
 10
0.0
 20
0.0
 30
0.0
 70
   128
  0
VERTEX
  5
753
  8
0
  6
CONTINUOUS
 62
     7
 10
359.2828008215
 20
594.3146432458
 30
0.0
  0
VERTEX
  5
754
  8
0
  6
CONTINUOUS
 62
     7
 10
359.5846387427
 20
594.1481972753
 30
0.0
  0
VERTEX
  5
755
  8
0
  6
CONTINUOUS
 62
     7
 10
359.9186259191
 20
594.0913493453
 30
0.0
  0
SEQEND
  5
B7F
  8
0
  6
CONTINUOUS
 62
     7
  0
ARC
  5
1B8
  8
0
  6
CONTINUOUS
 62
     7
 10
373.2797098503
 20
595.7036539359
 30
0.0
 40
1.363118516926977
 50
23.2717850774
 51
89.5159375483
  0
ARC
  5
1B9
  8
0
  6
CONTINUOUS
 62
     7
 10
373.327036388
 20
595.5790365755
 30
0.0
 40
1.488118166908773
 50
91.3789108613
 51
268.6210891387
  0
ARC
  5
1BA
  8
0
  6
CONTINUOUS
 62
     7
 10
373.2786843162
 20
595.4559878168
 30
0.0
 40
1.364696102259658
 50
270.5265608455
 51
336.6911359017
  0
ARC
  5
1BB
  8
0
  6
CONTINUOUS
 62
     7
 10
373.279702378
 20
580.6586308553
 30
0.0
 40
1.36313955713392
 50
23.2730463654
 51
89.5156309324
  0
ARC
  5
1BC
  8
0
  6
CONTINUOUS
 62
     7
 10
373.327036388
 20
580.5340344726
 30
0.0
 40
1.488118166908773
 50
91.3789108613
 51
268.6210891387
  0
ARC
  5
1BD
  8
0
  6
CONTINUOUS
 62
     7
 10
373.2786552484
 20
580.4110294499
 30
0.0
 40
1.364740103792349
 50
270.5277642718
 51
336.6899324753
  0
ARC
  5
1BE
  8
0
  6
CONTINUOUS
 62
     7
 10
373.279702378
 20
585.6736315562
 30
0.0
 40
1.36313955713392
 50
23.2730463654
 51
89.5156309324
  0
ARC
  5
1BF
  8
0
  6
CONTINUOUS
 62
     7
 10
373.327036388
 20
585.5490351736
 30
0.0
 40
1.488118166908773
 50
91.3789108613
 51
268.6210891387
  0
ARC
  5
1C0
  8
0
  6
CONTINUOUS
 62
     7
 10
373.2786552484
 20
585.4260301508
 30
0.0
 40
1.364740103792349
 50
270.5277642718
 51
336.6899324753
  0
ARC
  5
1C1
  8
0
  6
CONTINUOUS
 62
     7
 10
373.279702378
 20
590.6886322572
 30
0.0
 40
1.36313955713392
 50
23.2730463654
 51
89.5156309324
  0
ARC
  5
1C2
  8
0
  6
CONTINUOUS
 62
     7
 10
373.327036388
 20
590.5640358745
 30
0.0
 40
1.488118166908773
 50
91.3789108613
 51
268.6210891387
  0
ARC
  5
1C3
  8
0
  6
CONTINUOUS
 62
     7
 10
373.2786703833
 20
590.4410080794
 30
0.0
 40
1.364717193098989
 50
270.5271376842
 51
336.6905590629
  0
ARC
  5
1C4
  8
0
  6
CONTINUOUS
 62
     7
 10
373.2797066508
 20
600.7186498223
 30
0.0
 40
1.363123358348305
 50
23.2719178478
 51
89.5158047779
  0
ARC
  5
1C5
  8
0
  6
CONTINUOUS
 62
     7
 10
373.327036388
 20
600.5940372764
 30
0.0
 40
1.488118166908773
 50
91.3789108613
 51
268.6210891387
  0
ARC
  5
1C6
  8
0
  6
CONTINUOUS
 62
     7
 10
373.2786843162
 20
600.4709885177
 30
0.0
 40
1.364696102259658
 50
270.5265608455
 51
336.6911359017
  0
ARC
  5
1C7
  8
0
  6
CONTINUOUS
 62
     7
 10
373.2797066508
 20
605.7336505233
 30
0.0
 40
1.363123358348305
 50
23.2719178478
 51
89.5158047779
  0
ARC
  5
1C8
  8
0
  6
CONTINUOUS
 62
     7
 10
373.327036388
 20
605.6090379774
 30
0.0
 40
1.488118166908773
 50
91.3789108613
 51
268.6210891387
  0
ARC
  5
1C9
  8
0
  6
CONTINUOUS
 62
     7
 10
373.2786843162
 20
605.4859892187
 30
0.0
 40
1.364696102259658
 50
270.5265608455
 51
336.6911359017
  0
ARC
  5
1CA
  8
0
  6
CONTINUOUS
 62
     7
 10
373.2797066508
 20
610.7486512242
 30
0.0
 40
1.363123358348305
 50
23.2719178478
 51
89.5158047779
  0
ARC
  5
1CB
  8
0
  6
CONTINUOUS
 62
     7
 10
373.327036388
 20
610.6240386783
 30
0.0
 40
1.488118166908773
 50
91.3789108613
 51
268.6210891387
  0
ARC
  5
1CC
  8
0
  6
CONTINUOUS
 62
     7
 10
373.2786843162
 20
610.5009899196
 30
0.0
 40
1.364696102259658
 50
270.5265608455
 51
336.6911359017
  0
ARC
  5
1CD
  8
0
  6
CONTINUOUS
 62
     7
 10
373.2797066508
 20
615.7636519252
 30
0.0
 40
1.363123358348305
 50
23.2719178478
 51
89.5158047779
  0
ARC
  5
1CE
  8
0
  6
CONTINUOUS
 62
     7
 10
373.3270452352
 20
615.6390319287
 30
0.0
 40
1.488125828259305
 50
91.3792444965
 51
268.6207555035
  0
ARC
  5
1CF
  8
0
  6
CONTINUOUS
 62
     7
 10
373.2786430994
 20
615.5160279766
 30
0.0
 40
1.364748736579439
 50
270.5282710015
 51
336.6903802898
  0
ARC
  5
1D0
  8
0
  6
CONTINUOUS
 62
     7
 10
373.2796850465
 20
620.7786201166
 30
0.0
 40
1.363156049464118
 50
23.272814334
 51
89.5149082916
  0
ARC
  5
1D1
  8
0
  6
CONTINUOUS
 62
     7
 10
373.32705651
 20
620.6540326296
 30
0.0
 40
1.488126099685855
 50
91.3796784711
 51
268.6203215289
  0
ARC
  5
1D2
  8
0
  6
CONTINUOUS
 62
     7
 10
373.2786430994
 20
620.5310286775
 30
0.0
 40
1.364748736579439
 50
270.5282710015
 51
336.6903802898
  0
ARC
  5
1D3
  8
0
  6
CONTINUOUS
 62
     7
 10
373.2796708864
 20
625.7935995098
 30
0.0
 40
1.363177476343357
 50
23.2734018935
 51
89.5143207321
  0
ARC
  5
1D4
  8
0
  6
CONTINUOUS
 62
     7
 10
373.32705651
 20
625.6690333306
 30
0.0
 40
1.488126099685855
 50
91.3796784711
 51
268.6203215289
  0
ARC
  5
1D5
  8
0
  6
CONTINUOUS
 62
     7
 10
373.2786430994
 20
625.5460293785
 30
0.0
 40
1.364748736579439
 50
270.5282710015
 51
336.6903802898
  0
ARC
  5
1D6
  8
0
  6
CONTINUOUS
 62
     7
 10
373.2796708864
 20
630.8086002108
 30
0.0
 40
1.363177476343357
 50
23.2734018935
 51
89.5143207321
  0
ARC
  5
1D7
  8
0
  6
CONTINUOUS
 62
     7
 10
373.32705651
 20
630.6840340315
 30
0.0
 40
1.488126099685855
 50
91.3796784711
 51
268.6203215289
  0
ARC
  5
1D8
  8
0
  6
CONTINUOUS
 62
     7
 10
373.2786430994
 20
630.5610300794
 30
0.0
 40
1.364748736579439
 50
270.5282710015
 51
336.6903802898
  0
ARC
  5
1D9
  8
0
  6
CONTINUOUS
 62
     7
 10
373.2796708864
 20
635.8236009117
 30
0.0
 40
1.363177476343357
 50
23.2734018935
 51
89.5143207321
  0
ARC
  5
1DA
  8
0
  6
CONTINUOUS
 62
     7
 10
373.32705651
 20
635.6990347325
 30
0.0
 40
1.488126099685855
 50
91.3796784711
 51
268.6203215289
  0
ARC
  5
1DB
  8
0
  6
CONTINUOUS
 62
     7
 10
373.2786430994
 20
635.5760307804
 30
0.0
 40
1.364748736579439
 50
270.5282710015
 51
336.6903802898
  0
ARC
  5
1DC
  8
0
  6
CONTINUOUS
 62
     7
 10
369.903334053
 20
635.6990347325
 30
0.0
 40
1.487717084807656
 50
269.6855570117
 51
90.3144429883
  0
ARC
  5
1DD
  8
0
  6
CONTINUOUS
 62
     7
 10
369.8766831441
 20
635.6990347325
 30
0.0
 40
1.487809532435435
 50
89.2880728524
 51
270.7119271476
  0
ARC
  5
1DE
  8
0
  6
CONTINUOUS
 62
     7
 10
369.903334053
 20
630.6840340315
 30
0.0
 40
1.487717084807656
 50
269.6855570117
 51
90.3144429883
  0
ARC
  5
1DF
  8
0
  6
CONTINUOUS
 62
     7
 10
369.8766883129
 20
630.6840340315
 30
0.0
 40
1.487809468221672
 50
89.2882718871
 51
270.7117281129
  0
ARC
  5
1E0
  8
0
  6
CONTINUOUS
 62
     7
 10
369.903334053
 20
625.6690333306
 30
0.0
 40
1.487717084807656
 50
269.6855570117
 51
90.3144429883
  0
ARC
  5
1E1
  8
0
  6
CONTINUOUS
 62
     7
 10
369.8766883129
 20
625.6690333306
 30
0.0
 40
1.487809468221672
 50
89.2882718871
 51
270.7117281129
  0
ARC
  5
1E2
  8
0
  6
CONTINUOUS
 62
     7
 10
369.903332275
 20
620.6540326296
 30
0.0
 40
1.487717075051133
 50
269.6856254849
 51
90.3143745151
  0
ARC
  5
1E3
  8
0
  6
CONTINUOUS
 62
     7
 10
369.8766883129
 20
620.6540326296
 30
0.0
 40
1.487809468221672
 50
89.2882718871
 51
270.7117281129
  0
ARC
  5
1E4
  8
0
  6
CONTINUOUS
 62
     7
 10
369.903332275
 20
615.6390319287
 30
0.0
 40
1.487717075051133
 50
269.6856254849
 51
90.3143745151
  0
ARC
  5
1E5
  8
0
  6
CONTINUOUS
 62
     7
 10
369.8766883129
 20
615.6390319287
 30
0.0
 40
1.487809468221672
 50
89.2882718871
 51
270.7117281129
  0
ARC
  5
1E6
  8
0
  6
CONTINUOUS
 62
     7
 10
369.9033531704
 20
610.6240386783
 30
0.0
 40
1.487709739379826
 50
269.6848191832
 51
90.3151808168
  0
ARC
  5
1E7
  8
0
  6
CONTINUOUS
 62
     7
 10
369.8766799335
 20
610.6240386783
 30
0.0
 40
1.48780212232535
 50
89.2879456571
 51
270.7120543429
  0
ARC
  5
1E8
  8
0
  6
CONTINUOUS
 62
     7
 10
369.9033532344
 20
605.6090379774
 30
0.0
 40
1.487709698764903
 50
269.6851036585
 51
90.3148963415
  0
ARC
  5
1E9
  8
0
  6
CONTINUOUS
 62
     7
 10
369.8766800648
 20
605.6090379774
 30
0.0
 40
1.48780221330392
 50
89.2876638073
 51
270.7123361927
  0
ARC
  5
1EA
  8
0
  6
CONTINUOUS
 62
     7
 10
369.9033532344
 20
600.5940372764
 30
0.0
 40
1.487709698764903
 50
269.6851036585
 51
90.3148963415
  0
ARC
  5
1EB
  8
0
  6
CONTINUOUS
 62
     7
 10
369.8766694146
 20
600.5940372764
 30
0.0
 40
1.487802345748323
 50
89.2872536965
 51
270.7127463035
  0
ARC
  5
1EC
  8
0
  6
CONTINUOUS
 62
     7
 10
369.9033532344
 20
590.5640358745
 30
0.0
 40
1.487709698764903
 50
269.6851036585
 51
90.3148963415
  0
ARC
  5
1ED
  8
0
  6
CONTINUOUS
 62
     7
 10
369.8766694146
 20
590.5640358745
 30
0.0
 40
1.487802345748323
 50
89.2872536965
 51
270.7127463035
  0
ARC
  5
1EE
  8
0
  6
CONTINUOUS
 62
     7
 10
369.9033450569
 20
585.5490351736
 30
0.0
 40
1.487709653844372
 50
269.6854185908
 51
90.3145814092
  0
ARC
  5
1EF
  8
0
  6
CONTINUOUS
 62
     7
 10
369.8766694146
 20
585.5490351736
 30
0.0
 40
1.487802345748323
 50
89.2872536965
 51
270.7127463035
  0
ARC
  5
1F0
  8
0
  6
CONTINUOUS
 62
     7
 10
369.9033532344
 20
595.5790365755
 30
0.0
 40
1.487709698764903
 50
269.6851036585
 51
90.3148963415
  0
ARC
  5
1F1
  8
0
  6
CONTINUOUS
 62
     7
 10
369.8766694146
 20
595.5790365755
 30
0.0
 40
1.487802345748323
 50
89.2872536965
 51
270.7127463035
  0
ARC
  5
1F2
  8
0
  6
CONTINUOUS
 62
     7
 10
358.6726080895
 20
577.3745734929
 30
0.0
 40
0.5014861051063476
 50
180.3135363619
 51
270.0022831501
  0
POLYLINE
  5
1F3
  8
0
  6
CONTINUOUS
 62
     7
 66
     1
 10
0.0
 20
0.0
 30
0.0
 70
   128
  0
VERTEX
  5
756
  8
0
  6
CONTINUOUS
 62
     7
 10
358.171129493
 20
577.3718292533
 30
0.0
  0
VERTEX
  5
757
  8
0
  6
CONTINUOUS
 62
     7
 10
358.0012786071
 20
608.3160574256
 30
0.0
  0
VERTEX
  5
758
  8
0
  6
CONTINUOUS
 62
     7
 10
357.8344675582
 20
638.7052769481
 30
0.0
  0
SEQEND
  5
B80
  8
0
  6
CONTINUOUS
 62
     7
  0
ARC
  5
1F4
  8
0
  6
CONTINUOUS
 62
     7
 10
358.3359453977
 20
638.7080467544
 30
0.0
 40
0.5014854886760661
 50
89.9984816028
 51
180.3164578468
  0
LINE
  5
1F5
  8
0
  6
CONTINUOUS
 62
     7
 10
358.3359586875
 20
639.2095322429
 30
0.0
 11
377.9491203706
 21
639.2095322429
 31
0.0
  0
ARC
  5
1F6
  8
0
  6
CONTINUOUS
 62
     7
 10
377.9491178615
 20
638.708031042
 30
0.0
 40
0.5015012008707185
 50
359.68534721
 51
89.9997133405
  0
POLYLINE
  5
1F7
  8
0
  6
CONTINUOUS
 62
     7
 66
     1
 10
0.0
 20
0.0
 30
0.0
 70
   128
  0
VERTEX
  5
759
  8
0
  6
CONTINUOUS
 62
     7
 10
378.4506115
 20
638.7052769481
 30
0.0
  0
VERTEX
  5
75A
  8
0
  6
CONTINUOUS
 62
     7
 10
378.283800451
 20
608.3160574256
 30
0.0
  0
VERTEX
  5
75B
  8
0
  6
CONTINUOUS
 62
     7
 10
378.1139421146
 20
577.3718292533
 30
0.0
  0
SEQEND
  5
B81
  8
0
  6
CONTINUOUS
 62
     7
  0
ARC
  5
1F8
  8
0
  6
CONTINUOUS
 62
     7
 10
377.612466043
 20
577.3745709543
 30
0.0
 40
0.5014835663355943
 50
269.9982796073
 51
359.6867520965
  0
LINE
  5
1F9
  8
0
  6
CONTINUOUS
 62
     7
 10
377.6124509852
 20
576.8730873882
 30
0.0
 11
358.672628073
 21
576.8730873882
 31
0.0
  0
ARC
  5
1FA
  8
0
  6
CONTINUOUS
 62
     7
 10
363.2145366765
 20
580.5340420673
 30
0.0
 40
1.6048289528646
 50
155.597156753
 51
204.4092808304
  0
ARC
  5
1FB
  8
0
  6
CONTINUOUS
 62
     7
 10
363.2144944576
 20
585.5490353162
 30
0.0
 40
1.604787428087029
 50
155.5967761916
 51
204.4096614641
  0
ARC
  5
1FC
  8
0
  6
CONTINUOUS
 62
     7
 10
363.2144944576
 20
590.5640360171
 30
0.0
 40
1.604787428087029
 50
155.5967761916
 51
204.4096614641
  0
ARC
  5
1FD
  8
0
  6
CONTINUOUS
 62
     7
 10
363.2144944576
 20
595.5790367181
 30
0.0
 40
1.604787428087029
 50
155.5967761916
 51
204.4096614641
  0
ARC
  5
1FE
  8
0
  6
CONTINUOUS
 62
     7
 10
363.2144944576
 20
600.594037419
 30
0.0
 40
1.604787428087029
 50
155.5967761916
 51
204.4096614641
  0
ARC
  5
1FF
  8
0
  6
CONTINUOUS
 62
     7
 10
363.2144944576
 20
605.60903812
 30
0.0
 40
1.604787428087029
 50
155.5967761916
 51
204.4096614641
  0
ARC
  5
200
  8
0
  6
CONTINUOUS
 62
     7
 10
363.2144787288
 20
610.6240388201
 30
0.0
 40
1.604773104867181
 50
155.5965441466
 51
204.4098935091
  0
ARC
  5
201
  8
0
  6
CONTINUOUS
 62
     7
 10
363.2144787288
 20
615.639039521
 30
0.0
 40
1.604773104867181
 50
155.5965441466
 51
204.4098935091
  0
ARC
  5
202
  8
0
  6
CONTINUOUS
 62
     7
 10
363.2144787288
 20
620.654040222
 30
0.0
 40
1.604773104867181
 50
155.5965441466
 51
204.4098935091
  0
ARC
  5
203
  8
0
  6
CONTINUOUS
 62
     7
 10
363.2144787288
 20
625.6690409229
 30
0.0
 40
1.604773104867181
 50
155.5965441466
 51
204.4098935091
  0
ARC
  5
204
  8
0
  6
CONTINUOUS
 62
     7
 10
363.2144787288
 20
630.6840416239
 30
0.0
 40
1.604773104867181
 50
155.5965441466
 51
204.4098935091
  0
ARC
  5
205
  8
0
  6
CONTINUOUS
 62
     7
 10
363.2144787288
 20
635.6990423248
 30
0.0
 40
1.604773104867181
 50
155.5965441466
 51
204.4098935091
  0
LINE
  5
206
  8
0
  6
CONTINUOUS
 62
     7
 10
377.6861819308
 20
576.6724879562
 30
0.0
 11
358.6390110533
 21
576.6724879562
 31
0.0
  0
LINE
  5
207
  8
0
  6
CONTINUOUS
 62
     7
 10
377.6861819308
 20
576.6724879562
 30
0.0
 11
377.8871389906
 21
576.7145092307
 31
0.0
  0
LINE
  5
208
  8
0
  6
CONTINUOUS
 62
     7
 10
358.4380539935
 20
576.7145092307
 30
0.0
 11
358.6390110533
 21
576.6724879562
 31
0.0
  0
ARC
  5
209
  8
0
  6
CONTINUOUS
 62
     7
 10
360.2710908789
 20
580.5340258417
 30
0.0
 40
1.604812109097564
 50
128.0241484071
 51
231.9874106959
  0
ARC
  5
20A
  8
0
  6
CONTINUOUS
 62
     7
 10
360.2710907843
 20
585.5490258418
 30
0.0
 40
1.604812108603415
 50
128.0241447148
 51
231.9874149754
  0
LINE
  5
20B
  8
0
  6
CONTINUOUS
 62
     7
 10
377.002539007
 20
579.2698497592
 30
0.0
 11
377.2403689902
 21
579.4989551126
 31
0.0
  0
ARC
  5
20C
  8
0
  6
CONTINUOUS
 62
     7
 10
360.2710906898
 20
590.564025842
 30
0.0
 40
1.604812108108371
 50
128.0241410225
 51
231.987419255
  0
LINE
  5
20D
  8
0
  6
CONTINUOUS
 62
     7
 10
377.002539007
 20
584.2848504602
 30
0.0
 11
377.2403764408
 21
584.514000517
 31
0.0
  0
ARC
  5
20E
  8
0
  6
CONTINUOUS
 62
     7
 10
360.2710905952
 20
595.5790258421
 30
0.0
 40
1.604812107615897
 50
128.0241373303
 51
231.9874235345
  0
LINE
  5
20F
  8
0
  6
CONTINUOUS
 62
     7
 10
377.002539007
 20
589.2998511611
 30
0.0
 11
377.2403391879
 21
589.5291055261
 31
0.0
  0
ARC
  5
210
  8
0
  6
CONTINUOUS
 62
     7
 10
360.2710905007
 20
600.5940258423
 30
0.0
 40
1.604812107121152
 50
128.024133638
 51
231.9874278141
  0
LINE
  5
211
  8
0
  6
CONTINUOUS
 62
     7
 10
377.002539007
 20
594.3148518621
 30
0.0
 11
377.2402572315
 21
594.5442254363
 31
0.0
  0
ARC
  5
212
  8
0
  6
CONTINUOUS
 62
     7
 10
360.2710904062
 20
605.6090258425
 30
0.0
 40
1.604812106624673
 50
128.024129847
 51
231.9874320937
  0
LINE
  5
213
  8
0
  6
CONTINUOUS
 62
     7
 10
377.002539007
 20
599.329852563
 30
0.0
 11
377.2401305716
 21
599.5594049512
 31
0.0
  0
LINE
  5
214
  8
0
  6
CONTINUOUS
 62
     7
 10
377.002539007
 20
604.344853264
 30
0.0
 11
377.2399592083
 21
604.5745993673
 31
0.0
  0
ARC
  5
215
  8
0
  6
CONTINUOUS
 62
     7
 10
360.2710903116
 20
610.6240258426
 30
0.0
 40
1.60481210613083
 50
128.0241261413
 51
231.9874363732
  0
LINE
  5
216
  8
0
  6
CONTINUOUS
 62
     7
 10
377.002539007
 20
609.3598539649
 30
0.0
 11
377.2397431414
 21
609.589853388
 31
0.0
  0
ARC
  5
217
  8
0
  6
CONTINUOUS
 62
     7
 10
360.2710902171
 20
615.6390258428
 30
0.0
 40
1.604812105636288
 50
128.0241224356
 51
231.9874406528
  0
LINE
  5
218
  8
0
  6
CONTINUOUS
 62
     7
 10
377.002539007
 20
614.3748546659
 30
0.0
 11
377.2394823711
 21
614.605137211
 31
0.0
  0
ARC
  5
219
  8
0
  6
CONTINUOUS
 62
     7
 10
360.2710901225
 20
620.6540258429
 30
0.0
 40
1.604812105143018
 50
128.0241188911
 51
231.9874449323
  0
LINE
  5
21A
  8
0
  6
CONTINUOUS
 62
     7
 10
377.002539007
 20
619.3898553668
 30
0.0
 11
377.2391768973
 21
619.6204508363
 31
0.0
  0
LINE
  5
21B
  8
0
  6
CONTINUOUS
 62
     7
 10
377.002539007
 20
624.4048560678
 30
0.0
 11
377.2388341706
 21
624.6358091651
 31
0.0
  0
ARC
  5
21C
  8
0
  6
CONTINUOUS
 62
     7
 10
360.271090028
 20
625.6690258431
 30
0.0
 40
1.604812104648153
 50
128.0241151927
 51
231.9874492119
  0
LINE
  5
21D
  8
0
  6
CONTINUOUS
 62
     7
 10
377.002539007
 20
629.4198418676
 30
0.0
 11
377.2384392898
 21
629.6511972963
 31
0.0
  0
ARC
  5
21E
  8
0
  6
CONTINUOUS
 62
     7
 10
360.2710899334
 20
630.6840258432
 30
0.0
 40
1.604812104151653
 50
128.0241114943
 51
231.9874534916
  0
LINE
  5
21F
  8
0
  6
CONTINUOUS
 62
     7
 10
377.002539007
 20
634.4348425685
 30
0.0
 11
377.2379997056
 21
634.6666301309
 31
0.0
  0
ARC
  5
220
  8
0
  6
CONTINUOUS
 62
     7
 10
360.2710898389
 20
635.6990258434
 30
0.0
 40
1.604812103661172
 50
128.0241077959
 51
231.987457771
  0
LINE
  5
221
  8
0
  6
CONTINUOUS
 62
     7
 10
378.4321042578
 20
635.3342170535
 30
0.0
 11
378.4609231036
 21
629.3585384904
 31
0.0
  0
LINE
  5
222
  8
0
  6
CONTINUOUS
 62
     7
 10
357.8642698805
 20
629.3585235893
 30
0.0
 11
357.8743058126
 21
631.447606784
 31
0.0
  0
ARC
  5
223
  8
0
  6
CONTINUOUS
 62
     7
 10
378.009446655
 20
638.9086541338
 30
0.0
 40
0.5014709079596861
 50
15.6434728919
 51
66.8987144916
  0
ARC
  5
224
  8
0
  6
CONTINUOUS
 62
     7
 10
378.0094243435
 20
638.9086333601
 30
0.0
 40
0.5014999939928533
 50
359.6999975553
 51
15.6447850667
  0
ARC
  5
225
  8
0
  6
CONTINUOUS
 62
     7
 10
358.3157698327
 20
638.908633363
 30
0.0
 40
0.5015001205554676
 50
164.3552231604
 51
180.3000026456
  0
ARC
  5
226
  8
0
  6
CONTINUOUS
 62
     7
 10
358.3157965846
 20
638.9086100282
 30
0.0
 40
0.5015311958357848
 50
113.1045894303
 51
164.3532231861
  0
ARC
  5
227
  8
0
  6
CONTINUOUS
 62
     7
 10
358.6389813788
 20
577.1739634756
 30
0.0
 40
0.5014648774016419
 50
195.6540345353
 51
246.3801790267
  0
ARC
  5
228
  8
0
  6
CONTINUOUS
 62
     7
 10
377.6861600527
 20
577.1740036971
 30
0.0
 40
0.5015253713861094
 50
293.6241558969
 51
344.3431300278
  0
LINE
  5
229
  8
0
  6
CONTINUOUS
 62
     7
 10
358.1375199239
 20
577.1713639318
 30
0.0
 11
357.8142764847
 21
638.9060104906
 31
0.0
  0
ARC
  5
22A
  8
0
  6
CONTINUOUS
 62
     7
 10
358.6390146567
 20
577.1739834665
 30
0.0
 40
0.5014999980069101
 50
180.2999847045
 51
195.6545645204
  0
LINE
  5
22B
  8
0
  6
CONTINUOUS
 62
     7
 10
378.5109164994
 20
638.9060104906
 30
0.0
 11
378.1876730602
 21
577.1713639318
 31
0.0
  0
ARC
  5
22C
  8
0
  6
CONTINUOUS
 62
     7
 10
377.6861795195
 20
577.1739834665
 30
0.0
 40
0.5014999980069544
 50
344.3454399947
 51
359.7000151419
  0
LINE
  5
22D
  8
0
  6
CONTINUOUS
 62
     8
 10
164.177181093
 20
486.8763099133
 30
0.0
 11
164.177181093
 21
488.4957755624
 31
0.0
  0
POLYLINE
  5
22E
  8
0
  6
CONTINUOUS
 62
     8
 66
     1
 10
0.0
 20
0.0
 30
0.0
 70
   128
  0
VERTEX
  5
75C
  8
0
  6
CONTINUOUS
 62
     8
 10
162.7272012513
 20
489.995223534
 30
0.0
  0
VERTEX
  5
75D
  8
0
  6
CONTINUOUS
 62
     8
 10
162.7054828088
 20
489.9955848872
 30
0.0
  0
VERTEX
  5
75E
  8
0
  6
CONTINUOUS
 62
     8
 10
162.6540961545
 20
489.995223534
 30
0.0
  0
VERTEX
  5
75F
  8
0
  6
CONTINUOUS
 62
     8
 10
162.6074778717
 20
489.9946237623
 30
0.0
  0
VERTEX
  5
760
  8
0
  6
CONTINUOUS
 62
     8
 10
162.5323834698
 20
489.994042617
 30
0.0
  0
VERTEX
  5
761
  8
0
  6
CONTINUOUS
 62
     8
 10
162.4723243396
 20
489.9942363321
 30
0.0
  0
VERTEX
  5
762
  8
0
  6
CONTINUOUS
 62
     8
 10
162.2648405712
 20
489.9952272593
 30
0.0
  0
VERTEX
  5
763
  8
0
  6
CONTINUOUS
 62
     8
 10
161.972010402
 20
489.9956556677
 30
0.0
  0
VERTEX
  5
764
  8
0
  6
CONTINUOUS
 62
     8
 10
161.3772231023
 20
489.9951490282
 30
0.0
  0
SEQEND
  5
B82
  8
0
  6
CONTINUOUS
 62
     8
  0
ARC
  5
22F
  8
0
  6
CONTINUOUS
 62
     8
 10
162.6771961111
 20
488.4957891747
 30
0.0
 40
1.499984981941773
 50
359.9994800426
 51
88.0895712447
  0
ARC
  5
230
  8
0
  6
CONTINUOUS
 62
     8
 10
161.9004203862
 20
467.1279274364
 30
0.0
 40
18.26494551999775
 50
87.5625635598
 51
91.6414556069
  0
ARC
  5
231
  8
0
  6
CONTINUOUS
 62
     8
 10
162.6771436592
 20
486.8763852862
 30
0.0
 40
1.500037435655905
 50
270.0021674707
 51
359.9971210377
  0
ARC
  5
232
  8
0
  6
CONTINUOUS
 62
     8
 10
134.4247730192
 20
467.1282100161
 30
0.0
 40
18.264663112503
 50
88.3585128459
 51
92.4374679873
  0
ARC
  5
233
  8
0
  6
CONTINUOUS
 62
     8
 10
133.6480621846
 20
486.8764032129
 30
0.0
 40
1.50005536279411
 50
180.0035636524
 51
269.9974324334
  0
LINE
  5
234
  8
0
  6
CONTINUOUS
 62
     8
 10
132.1480068247
 20
486.8763099133
 30
0.0
 11
132.1480068247
 21
488.4957755624
 31
0.0
  0
ARC
  5
235
  8
0
  6
CONTINUOUS
 62
     8
 10
133.6480107561
 20
488.4957705983
 30
0.0
 40
1.500003931420196
 50
91.9108440828
 51
179.9998103856
  0
POLYLINE
  5
236
  8
0
  6
CONTINUOUS
 62
     8
 66
     1
 10
0.0
 20
0.0
 30
0.0
 70
   128
  0
VERTEX
  5
765
  8
0
  6
CONTINUOUS
 62
     8
 10
134.947972266
 20
489.9951527535
 30
0.0
  0
VERTEX
  5
766
  8
0
  6
CONTINUOUS
 62
     8
 10
134.3564930241
 20
489.9956444918
 30
0.0
  0
VERTEX
  5
767
  8
0
  6
CONTINUOUS
 62
     8
 10
134.0576800387
 20
489.9952011823
 30
0.0
  0
VERTEX
  5
768
  8
0
  6
CONTINUOUS
 62
     8
 10
133.9214163702
 20
489.9946051358
 30
0.0
  0
VERTEX
  5
769
  8
0
  6
CONTINUOUS
 62
     8
 10
133.7942424099
 20
489.9940202652
 30
0.0
  0
VERTEX
  5
76A
  8
0
  6
CONTINUOUS
 62
     8
 10
133.7498220484
 20
489.9942288815
 30
0.0
  0
VERTEX
  5
76B
  8
0
  6
CONTINUOUS
 62
     8
 10
133.6710098069
 20
489.9952049076
 30
0.0
  0
VERTEX
  5
76C
  8
0
  6
CONTINUOUS
 62
     8
 10
133.6200254839
 20
489.9955737113
 30
0.0
  0
VERTEX
  5
76D
  8
0
  6
CONTINUOUS
 62
     8
 10
133.597994117
 20
489.9952272593
 30
0.0
  0
SEQEND
  5
B83
  8
0
  6
CONTINUOUS
 62
     8
  0
LINE
  5
237
  8
0
  6
CONTINUOUS
 62
     8
 10
148.1625976841
 20
485.3853779553
 30
0.0
 11
161.3772231023
 21
485.3853779553
 31
0.0
  0
LINE
  5
238
  8
0
  6
CONTINUOUS
 62
     8
 10
148.1625976841
 20
485.3853779553
 30
0.0
 11
134.947972266
 21
485.3853779553
 31
0.0
  0
LINE
  5
239
  8
0
  6
CONTINUOUS
 62
     8
 10
148.1625976841
 20
489.9949404119
 30
0.0
 11
134.947972266
 21
489.9949404119
 31
0.0
  0
LINE
  5
23A
  8
0
  6
CONTINUOUS
 62
     8
 10
161.3772231023
 20
489.9949404119
 30
0.0
 11
148.1625976841
 21
489.9949404119
 31
0.0
  0
LINE
  5
23B
  8
0
  6
CONTINUOUS
 62
     8
 10
162.9268619101
 20
489.9949404119
 30
0.0
 11
162.7272012513
 21
489.9949404119
 31
0.0
  0
LINE
  5
23C
  8
0
  6
CONTINUOUS
 62
     8
 10
133.597994117
 20
489.9949404119
 30
0.0
 11
133.3983260076
 21
489.9949404119
 31
0.0
  0
LINE
  5
23D
  8
0
  6
CONTINUOUS
 62
     8
 10
148.1625976841
 20
485.3853779553
 30
0.0
 11
148.1625976841
 21
485.1006353914
 31
0.0
  0
LINE
  5
23E
  8
0
  6
CONTINUOUS
 62
     8
 10
162.6772004049
 20
485.3763478517
 30
0.0
 11
162.8768685143
 21
485.1101274311
 31
0.0
  0
LINE
  5
23F
  8
0
  6
CONTINUOUS
 62
     8
 10
162.8768685143
 20
485.1101274311
 30
0.0
 11
163.1341221612
 21
485.0356029986
 31
0.0
  0
POLYLINE
  5
240
  8
0
  6
CONTINUOUS
 62
     8
 66
     1
 10
0.0
 20
0.0
 30
0.0
 70
   128
  0
VERTEX
  5
76E
  8
0
  6
CONTINUOUS
 62
     8
 10
151.5909823458
 20
485.0760149478
 30
0.0
  0
VERTEX
  5
76F
  8
0
  6
CONTINUOUS
 62
     8
 10
151.8737244289
 20
485.0753667473
 30
0.0
  0
VERTEX
  5
770
  8
0
  6
CONTINUOUS
 62
     8
 10
152.1628814619
 20
485.0746775686
 30
0.0
  0
VERTEX
  5
771
  8
0
  6
CONTINUOUS
 62
     8
 10
153.3499303143
 20
485.0715818523
 30
0.0
  0
VERTEX
  5
772
  8
0
  6
CONTINUOUS
 62
     8
 10
154.6143385451
 20
485.0678863644
 30
0.0
  0
VERTEX
  5
773
  8
0
  6
CONTINUOUS
 62
     8
 10
155.956091253
 20
485.0635836541
 30
0.0
  0
VERTEX
  5
774
  8
0
  6
CONTINUOUS
 62
     8
 10
159.6003639381
 20
485.0503178953
 30
0.0
  0
VERTEX
  5
775
  8
0
  6
CONTINUOUS
 62
     8
 10
163.1341221612
 20
485.0356029986
 30
0.0
  0
SEQEND
  5
B84
  8
0
  6
CONTINUOUS
 62
     8
  0
LINE
  5
241
  8
0
  6
CONTINUOUS
 62
     8
 10
151.590997247
 20
485.1006353914
 30
0.0
 11
151.590997247
 21
485.0760149478
 31
0.0
  0
LINE
  5
242
  8
0
  6
CONTINUOUS
 62
     8
 10
148.1625976841
 20
485.1006353914
 30
0.0
 11
151.590997247
 21
485.1006353914
 31
0.0
  0
POLYLINE
  5
243
  8
0
  6
CONTINUOUS
 62
     8
 66
     1
 10
0.0
 20
0.0
 30
0.0
 70
   128
  0
VERTEX
  5
776
  8
0
  6
CONTINUOUS
 62
     8
 10
144.7342130225
 20
485.0760149478
 30
0.0
  0
VERTEX
  5
777
  8
0
  6
CONTINUOUS
 62
     8
 10
144.1623139064
 20
485.0746775686
 30
0.0
  0
VERTEX
  5
778
  8
0
  6
CONTINUOUS
 62
     8
 10
142.975265054
 20
485.0715818523
 30
0.0
  0
VERTEX
  5
779
  8
0
  6
CONTINUOUS
 62
     8
 10
141.7108568232
 20
485.0678863644
 30
0.0
  0
VERTEX
  5
77A
  8
0
  6
CONTINUOUS
 62
     8
 10
140.3691041153
 20
485.0635836541
 30
0.0
  0
VERTEX
  5
77B
  8
0
  6
CONTINUOUS
 62
     8
 10
137.9736530464
 20
485.0551011681
 30
0.0
  0
VERTEX
  5
77C
  8
0
  6
CONTINUOUS
 62
     8
 10
135.5543601196
 20
485.0456352054
 30
0.0
  0
VERTEX
  5
77D
  8
0
  6
CONTINUOUS
 62
     8
 10
133.1910732071
 20
485.0356029986
 30
0.0
  0
SEQEND
  5
B85
  8
0
  6
CONTINUOUS
 62
     8
  0
LINE
  5
244
  8
0
  6
CONTINUOUS
 62
     8
 10
133.448326854
 20
485.1101274311
 30
0.0
 11
133.1910732071
 21
485.0356029986
 31
0.0
  0
LINE
  5
245
  8
0
  6
CONTINUOUS
 62
     8
 10
133.6479949634
 20
485.3763478517
 30
0.0
 11
133.448326854
 21
485.1101274311
 31
0.0
  0
LINE
  5
246
  8
0
  6
CONTINUOUS
 62
     8
 10
144.7341981213
 20
485.1006353914
 30
0.0
 11
148.1625976841
 21
485.1006353914
 31
0.0
  0
LINE
  5
247
  8
0
  6
CONTINUOUS
 62
     8
 10
144.7341981213
 20
485.0760149478
 30
0.0
 11
144.7341981213
 21
485.1006353914
 31
0.0
  0
LINE
  5
248
  8
0
  6
CONTINUOUS
 62
     8
 10
131.9483461659
 20
486.610093218
 30
0.0
 11
132.1480068247
 21
486.8763099133
 31
0.0
  0
ARC
  5
249
  8
0
  6
CONTINUOUS
 62
     8
 10
133.4483953249
 20
486.6101765908
 30
0.0
 40
1.50004916128372
 50
180.0031845015
 51
269.9973846911
  0
LINE
  5
24A
  8
0
  6
CONTINUOUS
 62
     8
 10
164.3768417518
 20
486.610093218
 30
0.0
 11
164.177181093
 21
486.8763099133
 31
0.0
  0
ARC
  5
24B
  8
0
  6
CONTINUOUS
 62
     8
 10
162.8768043176
 20
486.6101648656
 30
0.0
 40
1.500037435909957
 50
270.0024520715
 51
359.9972633315
  0
LINE
  5
24C
  8
0
  6
CONTINUOUS
 62
     8
 10
132.1480068247
 20
488.4957755624
 30
0.0
 11
131.9483461659
 21
488.4957755624
 31
0.0
  0
ARC
  5
24D
  8
0
  6
CONTINUOUS
 62
     8
 10
133.448343658
 20
488.4957770749
 30
0.0
 40
1.499997492144334
 50
91.9108909397
 51
180.0000577731
  0
LINE
  5
24E
  8
0
  6
CONTINUOUS
 62
     8
 10
164.3768417518
 20
488.4957755624
 30
0.0
 11
164.177181093
 21
488.4957755624
 31
0.0
  0
ARC
  5
24F
  8
0
  6
CONTINUOUS
 62
     8
 10
162.8768567699
 20
488.4957891747
 30
0.0
 40
1.499984981941773
 50
359.9994800426
 51
88.0895712447
  0
LINE
  5
250
  8
0
  6
CONTINUOUS
 62
     8
 10
164.3768417518
 20
488.4957755624
 30
0.0
 11
164.3768417518
 21
486.610093218
 31
0.0
  0
LINE
  5
251
  8
0
  6
CONTINUOUS
 62
     8
 10
131.9483461659
 20
488.4957755624
 30
0.0
 11
131.9483461659
 21
486.610093218
 31
0.0
  0
POLYLINE
  5
252
  8
0
  6
CONTINUOUS
 62
     8
 66
     1
 10
0.0
 20
0.0
 30
0.0
 70
   128
  0
VERTEX
  5
77E
  8
0
  6
CONTINUOUS
 62
     8
 10
131.6209825556
 20
486.5278015553
 30
0.0
  0
VERTEX
  5
77F
  8
0
  6
CONTINUOUS
 62
     8
 10
131.8842413704
 20
486.5690665959
 30
0.0
  0
VERTEX
  5
780
  8
0
  6
CONTINUOUS
 62
     8
 10
131.9483461659
 20
486.610093218
 30
0.0
  0
SEQEND
  5
B86
  8
0
  6
CONTINUOUS
 62
     8
  0
ARC
  5
253
  8
0
  6
CONTINUOUS
 62
     8
 10
133.1461227421
 20
486.5604365098
 30
0.0
 40
1.525398011250595
 50
181.2225425789
 51
271.6919975469
  0
POLYLINE
  5
254
  8
0
  6
CONTINUOUS
 62
     8
 66
     1
 10
0.0
 20
0.0
 30
0.0
 70
   128
  0
VERTEX
  5
781
  8
0
  6
CONTINUOUS
 62
     8
 10
164.7042128127
 20
486.5278015553
 30
0.0
  0
VERTEX
  5
782
  8
0
  6
CONTINUOUS
 62
     8
 10
164.4409614484
 20
486.5690665959
 30
0.0
  0
VERTEX
  5
783
  8
0
  6
CONTINUOUS
 62
     8
 10
164.3768417518
 20
486.610093218
 30
0.0
  0
SEQEND
  5
B87
  8
0
  6
CONTINUOUS
 62
     8
  0
ARC
  5
255
  8
0
  6
CONTINUOUS
 62
     8
 10
163.1790655173
 20
486.5604363751
 30
0.0
 40
1.525397666752637
 50
268.3082692054
 51
358.7774622046
  0
LINE
  5
256
  8
0
  6
CONTINUOUS
 62
     8
 10
131.9483461659
 20
488.4957755624
 30
0.0
 11
131.6209825556
 21
488.4957755624
 31
0.0
  0
ARC
  5
257
  8
0
  6
CONTINUOUS
 62
     8
 10
133.1191938073
 20
488.497629966
 30
0.0
 40
1.498212399299684
 50
91.9882214889
 51
180.0709175314
  0
LINE
  5
258
  8
0
  6
CONTINUOUS
 62
     8
 10
164.7042128127
 20
488.4957755624
 30
0.0
 11
164.3768417518
 21
488.4957755624
 31
0.0
  0
ARC
  5
259
  8
0
  6
CONTINUOUS
 62
     8
 10
163.2060084377
 20
488.4976365999
 30
0.0
 40
1.498205530830024
 50
359.9288284436
 51
88.0120325361
  0
LINE
  5
25A
  8
0
  6
CONTINUOUS
 62
     8
 10
131.6209825556
 20
488.4957755624
 30
0.0
 11
131.6209825556
 21
486.5278015553
 31
0.0
  0
LINE
  5
25B
  8
0
  6
CONTINUOUS
 62
     8
 10
164.7042128127
 20
488.4957755624
 30
0.0
 11
164.7042128127
 21
486.5278015553
 31
0.0
  0
LINE
  5
25C
  8
0
  6
CONTINUOUS
 62
     8
 10
148.1625976841
 20
485.1006353914
 30
0.0
 11
148.1625976841
 21
485.0806343078
 31
0.0
  0
POLYLINE
  5
25D
  8
0
  6
CONTINUOUS
 62
     8
 66
     1
 10
0.0
 20
0.0
 30
0.0
 70
   128
  0
VERTEX
  5
784
  8
0
  6
CONTINUOUS
 62
     8
 10
144.7342130225
 20
485.0760149478
 30
0.0
  0
VERTEX
  5
785
  8
0
  6
CONTINUOUS
 62
     8
 10
146.6232183259
 20
485.0794794678
 30
0.0
  0
VERTEX
  5
786
  8
0
  6
CONTINUOUS
 62
     8
 10
148.1625976841
 20
485.0806343078
 30
0.0
  0
SEQEND
  5
B88
  8
0
  6
CONTINUOUS
 62
     8
  0
POLYLINE
  5
25E
  8
0
  6
CONTINUOUS
 62
     8
 66
     1
 10
0.0
 20
0.0
 30
0.0
 70
   128
  0
VERTEX
  5
787
  8
0
  6
CONTINUOUS
 62
     8
 10
148.1625976841
 20
485.0806343078
 30
0.0
  0
VERTEX
  5
788
  8
0
  6
CONTINUOUS
 62
     8
 10
149.7019770424
 20
485.0794794678
 30
0.0
  0
VERTEX
  5
789
  8
0
  6
CONTINUOUS
 62
     8
 10
151.5909823458
 20
485.0760149478
 30
0.0
  0
SEQEND
  5
B89
  8
0
  6
CONTINUOUS
 62
     8
  0
LINE
  5
25F
  8
0
  6
CONTINUOUS
 62
     8
 10
144.7341757696
 20
465.1123518764
 30
0.0
 11
144.72686675
 21
466.6114384948
 31
0.0
  0
LINE
  5
260
  8
0
  6
CONTINUOUS
 62
     8
 10
151.5910195987
 20
465.1123518764
 30
0.0
 11
151.590535311
 21
466.5987836837
 31
0.0
  0
LINE
  5
261
  8
0
  6
CONTINUOUS
 62
     8
 10
151.590997247
 20
465.1128994941
 30
0.0
 11
151.590997247
 21
465.0811227678
 31
0.0
  0
LINE
  5
262
  8
0
  6
CONTINUOUS
 62
     8
 10
144.7341981213
 20
465.0811227678
 30
0.0
 11
144.7341981213
 21
465.1128994941
 31
0.0
  0
ARC
  5
263
  8
0
  6
CONTINUOUS
 62
     8
 10
123.6156451553
 20
458.3587863675
 30
0.0
 40
0.1990060282200022
 50
179.7131599049
 51
269.7043997855
  0
LINE
  5
264
  8
0
  6
CONTINUOUS
 62
     8
 10
281.1220175456
 20
528.5823280631
 30
0.0
 11
281.1220175456
 21
539.468430978
 31
0.0
  0
ARC
  5
265
  8
0
  6
CONTINUOUS
 62
     8
 10
279.8225301307
 20
528.5825142197
 30
0.0
 40
1.299487428230893
 50
287.1389881993
 51
359.9917921621
  0
ARC
  5
266
  8
0
  6
CONTINUOUS
 62
     8
 10
278.746850775
 20
514.7974964799
 30
0.0
 40
12.62776248730227
 50
83.3669886586
 51
97.1944042538
  0
LINE
  5
267
  8
0
  6
CONTINUOUS
 62
     8
 10
235.2031766306
 20
528.5823280631
 30
0.0
 11
235.2031766306
 21
539.468430978
 31
0.0
  0
ARC
  5
268
  8
0
  6
CONTINUOUS
 62
     8
 10
237.5783434012
 20
514.7974964799
 30
0.0
 40
12.62776248730227
 50
82.8055957462
 51
96.6330113414
  0
ARC
  5
269
  8
0
  6
CONTINUOUS
 62
     8
 10
236.5026640455
 20
528.5825142197
 30
0.0
 40
1.299487428230876
 50
180.0082078379
 51
252.8610118007
  0
ARC
  5
26A
  8
0
  6
CONTINUOUS
 62
     8
 10
236.4031825221
 20
539.4684274288
 30
0.0
 40
1.200005891465414
 50
90.3824432957
 51
179.9998305427
  0
ARC
  5
26B
  8
0
  6
CONTINUOUS
 62
     8
 10
279.9220116541
 20
539.4684274288
 30
0.0
 40
1.200005891465442
 50
0.0001694573
 51
89.6175567043
  0
POLYLINE
  5
26C
  8
0
  6
CONTINUOUS
 62
     8
 66
     1
 10
0.0
 20
0.0
 30
0.0
 70
   128
  0
VERTEX
  5
78A
  8
0
  6
CONTINUOUS
 62
     8
 10
258.1625970881
 20
527.2855247079
 30
0.0
  0
VERTEX
  5
78B
  8
0
  6
CONTINUOUS
 62
     8
 10
263.5116636622
 20
527.2892276465
 30
0.0
  0
VERTEX
  5
78C
  8
0
  6
CONTINUOUS
 62
     8
 10
270.3386646565
 20
527.3043299734
 30
0.0
  0
VERTEX
  5
78D
  8
0
  6
CONTINUOUS
 62
     8
 10
277.1653960328
 20
527.3258397995
 30
0.0
  0
SEQEND
  5
B8A
  8
0
  6
CONTINUOUS
 62
     8
  0
POLYLINE
  5
26D
  8
0
  6
CONTINUOUS
 62
     8
 66
     1
 10
0.0
 20
0.0
 30
0.0
 70
   128
  0
VERTEX
  5
78E
  8
0
  6
CONTINUOUS
 62
     8
 10
258.1625970881
 20
527.2855247079
 30
0.0
  0
VERTEX
  5
78F
  8
0
  6
CONTINUOUS
 62
     8
 10
252.813530514
 20
527.2892276465
 30
0.0
  0
VERTEX
  5
790
  8
0
  6
CONTINUOUS
 62
     8
 10
245.9865295197
 20
527.3043299734
 30
0.0
  0
VERTEX
  5
791
  8
0
  6
CONTINUOUS
 62
     8
 10
239.1597981434
 20
527.3258397995
 30
0.0
  0
SEQEND
  5
B8B
  8
0
  6
CONTINUOUS
 62
     8
  0
POLYLINE
  5
26E
  8
0
  6
CONTINUOUS
 62
     8
 66
     1
 10
0.0
 20
0.0
 30
0.0
 70
   128
  0
VERTEX
  5
792
  8
0
  6
CONTINUOUS
 62
     8
 10
258.1625975306
 20
540.6986112415
 30
0.0
  0
VERTEX
  5
793
  8
0
  6
CONTINUOUS
 62
     8
 10
260.7454765923
 20
540.6948114454
 30
0.0
  0
VERTEX
  5
794
  8
0
  6
CONTINUOUS
 62
     8
 10
268.9344276543
 20
540.6812439381
 30
0.0
  0
VERTEX
  5
795
  8
0
  6
CONTINUOUS
 62
     8
 10
277.1244923453
 20
540.6693304597
 30
0.0
  0
SEQEND
  5
B8C
  8
0
  6
CONTINUOUS
 62
     8
  0
POLYLINE
  5
26F
  8
0
  6
CONTINUOUS
 62
     8
 66
     1
 10
0.0
 20
0.0
 30
0.0
 70
   128
  0
VERTEX
  5
796
  8
0
  6
CONTINUOUS
 62
     8
 10
239.2007018309
 20
540.6693304597
 30
0.0
  0
VERTEX
  5
797
  8
0
  6
CONTINUOUS
 62
     8
 10
247.3907665219
 20
540.6812439381
 30
0.0
  0
VERTEX
  5
798
  8
0
  6
CONTINUOUS
 62
     8
 10
255.5797175839
 20
540.6948114454
 30
0.0
  0
VERTEX
  5
799
  8
0
  6
CONTINUOUS
 62
     8
 10
258.1625966456
 20
540.6986112415
 30
0.0
  0
SEQEND
  5
B8D
  8
0
  6
CONTINUOUS
 62
     8
  0
LINE
  5
270
  8
0
  6
CONTINUOUS
 62
     8
 10
245.6625969018
 20
522.6303870498
 30
0.0
 11
235.9137925189
 21
527.2018621384
 31
0.0
  0
ARC
  5
271
  8
0
  6
CONTINUOUS
 62
     8
 10
236.7150788807
 20
526.2358237461
 30
0.0
 40
1.25510200941284
 50
118.3172438908
 51
129.674017467
  0
ARC
  5
272
  8
0
  6
CONTINUOUS
 62
     8
 10
279.6101152955
 20
526.2358237461
 30
0.0
 40
1.255102009412858
 50
50.325982533
 51
61.6827561092
  0
LINE
  5
273
  8
0
  6
CONTINUOUS
 62
     8
 10
270.6625972744
 20
522.6303870498
 30
0.0
 11
280.4114016573
 21
527.2018621384
 31
0.0
  0
LINE
  5
274
  8
0
  6
CONTINUOUS
 62
     8
 10
236.3943605553
 20
540.6688312708
 30
0.0
 11
236.3951726686
 21
540.6684065877
 31
0.0
  0
POLYLINE
  5
275
  8
0
  6
CONTINUOUS
 62
     8
 66
     1
 10
0.0
 20
0.0
 30
0.0
 70
   128
  0
VERTEX
  5
79A
  8
0
  6
CONTINUOUS
 62
     8
 10
236.3940886091
 20
540.6690324365
 30
0.0
  0
VERTEX
  5
79B
  8
0
  6
CONTINUOUS
 62
     8
 10
238.0674461703
 20
540.6822870194
 30
0.0
  0
VERTEX
  5
79C
  8
0
  6
CONTINUOUS
 62
     8
 10
239.90760733
 20
540.6964803754
 30
0.0
  0
VERTEX
  5
79D
  8
0
  6
CONTINUOUS
 62
     8
 10
241.9141231905
 20
540.7109345018
 30
0.0
  0
VERTEX
  5
79E
  8
0
  6
CONTINUOUS
 62
     8
 10
244.0892559345
 20
540.7249862968
 30
0.0
  0
VERTEX
  5
79F
  8
0
  6
CONTINUOUS
 62
     8
 10
246.4387033935
 20
540.7379726588
 30
0.0
  0
VERTEX
  5
7A0
  8
0
  6
CONTINUOUS
 62
     8
 10
251.9256858024
 20
540.7586927234
 30
0.0
  0
VERTEX
  5
7A1
  8
0
  6
CONTINUOUS
 62
     8
 10
258.1625970881
 20
540.7662178098
 30
0.0
  0
SEQEND
  5
B8E
  8
0
  6
CONTINUOUS
 62
     8
  0
LINE
  5
276
  8
0
  6
CONTINUOUS
 62
     8
 10
258.1626019303
 20
540.7642806589
 30
0.0
 11
258.162595766
 21
540.7592142641
 31
0.0
  0
LINE
  5
277
  8
0
  6
CONTINUOUS
 62
     8
 10
258.162595766
 20
540.7592142641
 30
0.0
 11
258.1625975306
 21
540.6986112415
 31
0.0
  0
POLYLINE
  5
278
  8
0
  6
CONTINUOUS
 62
     8
 66
     1
 10
0.0
 20
0.0
 30
0.0
 70
   128
  0
VERTEX
  5
7A2
  8
0
  6
CONTINUOUS
 62
     8
 10
279.9311055671
 20
540.6690324365
 30
0.0
  0
VERTEX
  5
7A3
  8
0
  6
CONTINUOUS
 62
     8
 10
275.4351942669
 20
540.7037148892
 30
0.0
  0
VERTEX
  5
7A4
  8
0
  6
CONTINUOUS
 62
     8
 10
269.8864907827
 20
540.7379726588
 30
0.0
  0
VERTEX
  5
7A5
  8
0
  6
CONTINUOUS
 62
     8
 10
267.7691019009
 20
540.7475839077
 30
0.0
  0
VERTEX
  5
7A6
  8
0
  6
CONTINUOUS
 62
     8
 10
265.5502812806
 20
540.7554740726
 30
0.0
  0
VERTEX
  5
7A7
  8
0
  6
CONTINUOUS
 62
     8
 10
263.2190798278
 20
540.7613749324
 30
0.0
  0
VERTEX
  5
7A8
  8
0
  6
CONTINUOUS
 62
     8
 10
260.7619933653
 20
540.7650406181
 30
0.0
  0
VERTEX
  5
7A9
  8
0
  6
CONTINUOUS
 62
     8
 10
258.1625970881
 20
540.7662178098
 30
0.0
  0
SEQEND
  5
B8F
  8
0
  6
CONTINUOUS
 62
     8
  0
LINE
  5
279
  8
0
  6
CONTINUOUS
 62
     8
 10
279.9300215076
 20
540.6684065877
 30
0.0
 11
279.9308336209
 21
540.6688312708
 31
0.0
  0
LINE
  5
27A
  8
0
  6
CONTINUOUS
 62
     8
 10
258.1625970881
 20
540.7662178098
 30
0.0
 11
258.1625970881
 21
540.9596050798
 31
0.0
  0
ARC
  5
27B
  8
0
  6
CONTINUOUS
 62
     8
 10
236.6079295553
 20
541.3868085305
 30
0.0
 40
0.7489821733135316
 50
249.231078918
 51
253.4025625778
  0
POLYLINE
  5
27C
  8
0
  6
CONTINUOUS
 62
     8
 66
     1
 10
0.0
 20
0.0
 30
0.0
 70
   128
  0
VERTEX
  5
7AA
  8
0
  6
CONTINUOUS
 62
     8
 10
236.3398055415
 20
540.6872714578
 30
0.0
  0
VERTEX
  5
7AB
  8
0
  6
CONTINUOUS
 62
     8
 10
236.3404723685
 20
540.6871298968
 30
0.0
  0
VERTEX
  5
7AC
  8
0
  6
CONTINUOUS
 62
     8
 10
236.3423406016
 20
540.6864965974
 30
0.0
  0
SEQEND
  5
B90
  8
0
  6
CONTINUOUS
 62
     8
  0
LINE
  5
27D
  8
0
  6
CONTINUOUS
 62
     8
 10
236.3347559105
 20
540.6873161613
 30
0.0
 11
236.3398055415
 21
540.6872714578
 31
0.0
  0
LINE
  5
27E
  8
0
  6
CONTINUOUS
 62
     8
 10
234.5925624352
 20
540.6879047572
 30
0.0
 11
234.3350964468
 21
540.6872938095
 31
0.0
  0
LINE
  5
27F
  8
0
  6
CONTINUOUS
 62
     8
 10
281.7326317411
 20
540.6879047572
 30
0.0
 11
281.9900977294
 21
540.6872938095
 31
0.0
  0
LINE
  5
280
  8
0
  6
CONTINUOUS
 62
     8
 10
279.9853886347
 20
540.6872714578
 30
0.0
 11
279.9903171938
 21
540.6873087107
 31
0.0
  0
ARC
  5
281
  8
0
  6
CONTINUOUS
 62
     8
 10
279.9879337923
 20
540.6744103068
 30
0.0
 40
0.0131105695082991
 50
101.1939173439
 51
112.7984243377
  0
LINE
  5
282
  8
0
  6
CONTINUOUS
 62
     8
 10
235.2007011752
 20
528.3617536246
 30
0.0
 11
235.2031766306
 21
528.5823280631
 31
0.0
  0
ARC
  5
283
  8
0
  6
CONTINUOUS
 62
     8
 10
236.5006270803
 20
528.3617843967
 30
0.0
 40
1.299925905494288
 50
180.0013563167
 51
243.1642706171
  0
LINE
  5
284
  8
0
  6
CONTINUOUS
 62
     8
 10
281.124493001
 20
528.3617536246
 30
0.0
 11
281.1220175456
 21
528.5823280631
 31
0.0
  0
ARC
  5
285
  8
0
  6
CONTINUOUS
 62
     8
 10
279.8245821317
 20
528.3619282094
 30
0.0
 40
1.299910881045593
 50
296.8327455131
 51
359.9923048767
  0
LINE
  5
286
  8
0
  6
CONTINUOUS
 62
     8
 10
235.2031766306
 20
539.468430978
 30
0.0
 11
235.2030741851
 21
539.4688631116
 31
0.0
  0
ARC
  5
287
  8
0
  6
CONTINUOUS
 62
     8
 10
236.4030748966
 20
539.4690661443
 30
0.0
 40
1.200000711473425
 50
90.4339589262
 51
180.0000891415
  0
LINE
  5
288
  8
0
  6
CONTINUOUS
 62
     8
 10
281.1221199911
 20
539.4688631116
 30
0.0
 11
281.1220175456
 21
539.468430978
 31
0.0
  0
LINE
  5
289
  8
0
  6
CONTINUOUS
 62
     8
 10
235.1964487563
 20
528.1956354796
 30
0.0
 11
235.2007011752
 21
528.3619026362
 31
0.0
  0
LINE
  5
28A
  8
0
  6
CONTINUOUS
 62
     8
 10
235.1689710151
 20
527.3309807002
 30
0.0
 11
235.1689710151
 21
539.4867892085
 31
0.0
  0
LINE
  5
28B
  8
0
  6
CONTINUOUS
 62
     8
 10
235.2010196875
 20
539.4703159748
 30
0.0
 11
235.1994699668
 21
539.471254748
 31
0.0
  0
ARC
  5
28C
  8
0
  6
CONTINUOUS
 62
     8
 10
234.9233751891
 20
538.9595618238
 30
0.0
 40
0.5816236110752446
 50
61.9963490783
 51
65.022707688
  0
LINE
  5
28D
  8
0
  6
CONTINUOUS
 62
     8
 10
281.1287454199
 20
528.1956354796
 30
0.0
 11
281.124493001
 21
528.3619026362
 31
0.0
  0
ARC
  5
28E
  8
0
  6
CONTINUOUS
 62
     8
 10
281.3960481308
 20
538.9713597667
 30
0.0
 40
0.5684923267343083
 50
114.952161432
 51
118.0506239207
  0
LINE
  5
28F
  8
0
  6
CONTINUOUS
 62
     8
 10
281.1257428359
 20
539.4712696492
 30
0.0
 11
281.1242005657
 21
539.470330876
 31
0.0
  0
LINE
  5
290
  8
0
  6
CONTINUOUS
 62
     8
 10
281.1562231611
 20
527.3309807002
 30
0.0
 11
281.1562231611
 21
539.4867892085
 31
0.0
  0
ARC
  5
291
  8
0
  6
CONTINUOUS
 62
     8
 10
236.3689739985
 20
539.4867892071
 30
0.0
 40
1.20000298341759
 50
91.2717522952
 51
179.9999999314
  0
ARC
  5
292
  8
0
  6
CONTINUOUS
 62
     8
 10
279.9562201777
 20
539.4867892071
 30
0.0
 40
1.200002983417619
 50
0.0000000686
 51
88.7282477048
  0
LINE
  5
293
  8
0
  6
CONTINUOUS
 62
     8
 10
258.1625970881
 20
524.7141654312
 30
0.0
 11
258.1625970881
 21
524.8009870469
 31
0.0
  0
LINE
  5
294
  8
0
  6
CONTINUOUS
 62
     8
 10
270.6625972744
 20
522.6303870498
 30
0.0
 11
270.1625971924
 21
522.6303870498
 31
0.0
  0
LINE
  5
295
  8
0
  6
CONTINUOUS
 62
     8
 10
245.6625969018
 20
522.6303870498
 30
0.0
 11
246.1625969838
 21
522.6303870498
 31
0.0
  0
POLYLINE
  5
296
  8
0
  6
CONTINUOUS
 62
     8
 66
     1
 10
0.0
 20
0.0
 30
0.0
 70
   128
  0
VERTEX
  5
7AD
  8
0
  6
CONTINUOUS
 62
     8
 10
241.82916422
 20
523.9977474033
 30
0.0
  0
VERTEX
  5
7AE
  8
0
  6
CONTINUOUS
 62
     8
 10
240.3127363752
 20
524.65845744
 30
0.0
  0
VERTEX
  5
7AF
  8
0
  6
CONTINUOUS
 62
     8
 10
235.8578163068
 20
527.0635197579
 30
0.0
  0
SEQEND
  5
B91
  8
0
  6
CONTINUOUS
 62
     8
  0
POLYLINE
  5
297
  8
0
  6
CONTINUOUS
 62
     8
 66
     1
 10
0.0
 20
0.0
 30
0.0
 70
   128
  0
VERTEX
  5
7B0
  8
0
  6
CONTINUOUS
 62
     8
 10
235.9138483982
 20
527.2019813477
 30
0.0
  0
VERTEX
  5
7B1
  8
0
  6
CONTINUOUS
 62
     8
 10
235.861521108
 20
527.1432186185
 30
0.0
  0
VERTEX
  5
7B2
  8
0
  6
CONTINUOUS
 62
     8
 10
235.8605767469
 20
527.1023745357
 30
0.0
  0
VERTEX
  5
7B3
  8
0
  6
CONTINUOUS
 62
     8
 10
235.8577194493
 20
527.0633856474
 30
0.0
  0
SEQEND
  5
B92
  8
0
  6
CONTINUOUS
 62
     8
  0
POLYLINE
  5
298
  8
0
  6
CONTINUOUS
 62
     8
 66
     1
 10
0.0
 20
0.0
 30
0.0
 70
   128
  0
VERTEX
  5
7B4
  8
0
  6
CONTINUOUS
 62
     8
 10
280.411345778
 20
527.2019813477
 30
0.0
  0
VERTEX
  5
7B5
  8
0
  6
CONTINUOUS
 62
     8
 10
280.4636730682
 20
527.1432186185
 30
0.0
  0
VERTEX
  5
7B6
  8
0
  6
CONTINUOUS
 62
     8
 10
280.4646174293
 20
527.1023745357
 30
0.0
  0
VERTEX
  5
7B7
  8
0
  6
CONTINUOUS
 62
     8
 10
280.4674747269
 20
527.0633856474
 30
0.0
  0
SEQEND
  5
B93
  8
0
  6
CONTINUOUS
 62
     8
  0
ARC
  5
299
  8
0
  6
CONTINUOUS
 62
     8
 10
256.1507856758
 20
565.5890576561
 30
0.0
 40
45.55780642503429
 50
288.327102066
 51
302.2593472218
  0
ARC
  5
29A
  8
0
  6
CONTINUOUS
 62
     8
 10
279.8287555258
 20
528.1958318732
 30
0.0
 40
1.299989908922124
 50
299.4237382906
 51
359.9913441439
  0
ARC
  5
29B
  8
0
  6
CONTINUOUS
 62
     8
 10
236.4964284542
 20
528.1956381115
 30
0.0
 40
1.29997969781948
 50
180.0001160013
 51
240.5723766364
  0
ARC
  5
29C
  8
0
  6
CONTINUOUS
 62
     8
 10
501.8344093902
 20
547.8376457987
 30
0.0
 40
222.3396831169551
 50
185.3612060072
 51
185.5759150624
  0
ARC
  5
29D
  8
0
  6
CONTINUOUS
 62
     8
 10
252.3706679432
 20
568.7202870785
 30
0.0
 40
50.98006775689242
 50
290.5511827379
 51
303.5516497518
  0
ARC
  5
29E
  8
0
  6
CONTINUOUS
 62
     8
 10
14.4907847861
 20
547.8376457987
 30
0.0
 40
222.3396831169551
 50
354.4240849376
 51
354.6387939928
  0
ARC
  5
29F
  8
0
  6
CONTINUOUS
 62
     8
 10
263.954526233
 20
568.7202870785
 30
0.0
 40
50.98006775689239
 50
236.4483502482
 51
249.4488172621
  0
ARC
  5
2A0
  8
0
  6
CONTINUOUS
 62
     8
 10
279.869157096
 20
527.3282022171
 30
0.0
 40
1.286810420041433
 50
301.7680324411
 51
0.129021089
  0
ARC
  5
2A1
  8
0
  6
CONTINUOUS
 62
     8
 10
236.4560370802
 20
527.3282022171
 30
0.0
 40
1.286810420041348
 50
179.870978911
 51
238.2319675589
  0
LINE
  5
2A2
  8
0
  6
CONTINUOUS
 62
     8
 10
233.4630488287
 20
522.2228104888
 30
0.0
 11
233.4335072767
 21
526.4406810223
 31
0.0
  0
LINE
  5
2A3
  8
0
  6
CONTINUOUS
 62
     8
 10
233.4335072767
 20
526.4406810223
 30
0.0
 11
233.4335072767
 21
527.191282314
 31
0.0
  0
ARC
  5
2A4
  8
0
  6
CONTINUOUS
 62
     8
 10
233.683835306
 20
539.4135242927
 30
0.0
 40
12.22480523812655
 50
268.8266690694
 51
276.9700990595
  0
LINE
  5
2A5
  8
0
  6
CONTINUOUS
 62
     8
 10
235.1673318874
 20
527.2790650546
 30
0.0
 11
235.1689710151
 21
527.3309807002
 31
0.0
  0
LINE
  5
2A6
  8
0
  6
CONTINUOUS
 62
     8
 10
281.1578622888
 20
527.2790650546
 30
0.0
 11
281.1562231611
 21
527.3309807002
 31
0.0
  0
LINE
  5
2A7
  8
0
  6
CONTINUOUS
 62
     8
 10
282.8916868995
 20
526.4406810223
 30
0.0
 11
282.8916868995
 21
527.191282314
 31
0.0
  0
LINE
  5
2A8
  8
0
  6
CONTINUOUS
 62
     8
 10
282.8621453475
 20
522.2228104888
 30
0.0
 11
282.8916868995
 21
526.4406810223
 31
0.0
  0
LINE
  5
2A9
  8
0
  6
CONTINUOUS
 62
     8
 10
235.1673318874
 20
539.4875864207
 30
0.0
 11
235.1673318874
 21
527.2790650546
 31
0.0
  0
LINE
  5
2AA
  8
0
  6
CONTINUOUS
 62
     8
 10
235.1689710151
 20
539.4867892085
 30
0.0
 11
235.1673318874
 21
539.4875864207
 31
0.0
  0
LINE
  5
2AB
  8
0
  6
CONTINUOUS
 62
     8
 10
281.1578622888
 20
539.4875864207
 30
0.0
 11
281.1562231611
 21
539.4867892085
 31
0.0
  0
LINE
  5
2AC
  8
0
  6
CONTINUOUS
 62
     8
 10
281.1578622888
 20
539.4875864207
 30
0.0
 11
281.1578622888
 21
527.2790650546
 31
0.0
  0
ARC
  5
2AD
  8
0
  6
CONTINUOUS
 62
     8
 10
236.3673305654
 20
539.4875884996
 30
0.0
 40
1.199998677997097
 50
91.3143397986
 51
180.0000992608
  0
ARC
  5
2AE
  8
0
  6
CONTINUOUS
 62
     8
 10
279.9578636108
 20
539.4875884996
 30
0.0
 40
1.199998677997125
 50
359.9999007392
 51
88.6856602014
  0
LINE
  5
2AF
  8
0
  6
CONTINUOUS
 62
     8
 10
233.4335072767
 20
527.191282314
 30
0.0
 11
233.4335072767
 21
539.4882346212
 31
0.0
  0
LINE
  5
2B0
  8
0
  6
CONTINUOUS
 62
     8
 10
282.8916868995
 20
527.191282314
 30
0.0
 11
282.8916868995
 21
539.4882346212
 31
0.0
  0
ARC
  5
2B1
  8
0
  6
CONTINUOUS
 62
     8
 10
281.6978723168
 20
539.4945794465
 30
0.0
 40
1.193831443190651
 50
359.6954901607
 51
88.3315485514
  0
ARC
  5
2B2
  8
0
  6
CONTINUOUS
 62
     8
 10
234.6273218594
 20
539.4945794465
 30
0.0
 40
1.193831443190539
 50
91.6684514486
 51
180.3045098393
  0
LINE
  5
2B3
  8
0
  6
CONTINUOUS
 62
     8
 10
282.8621453475
 20
522.2228104888
 30
0.0
 11
282.8621453475
 21
440.6597838445
 31
0.0
  0
LINE
  5
2B4
  8
0
  6
CONTINUOUS
 62
     8
 10
233.4630488287
 20
522.2228104888
 30
0.0
 11
233.4630488287
 21
440.6597838445
 31
0.0
  0
LINE
  5
2B5
  8
0
  6
CONTINUOUS
 62
     8
 10
247.6539126467
 20
555.2866915881
 30
0.0
 11
268.6712815296
 21
555.2866915881
 31
0.0
  0
LINE
  5
2B6
  8
0
  6
CONTINUOUS
 62
     8
 10
283.1625974606
 20
527.191282314
 30
0.0
 11
282.8916868995
 21
527.191282314
 31
0.0
  0
LINE
  5
2B7
  8
0
  6
CONTINUOUS
 62
     8
 10
233.4335072767
 20
539.4882346212
 30
0.0
 11
233.1625967156
 21
539.4876087724
 31
0.0
  0
LINE
  5
2B8
  8
0
  6
CONTINUOUS
 62
     8
 10
283.1625974606
 20
539.4876087724
 30
0.0
 11
282.8916868995
 21
539.4882346212
 31
0.0
  0
LINE
  5
2B9
  8
0
  6
CONTINUOUS
 62
     8
 10
350.5949768107
 20
654.9747968732
 30
0.0
 11
385.7302161734
 21
654.9747968732
 31
0.0
  0
LINE
  5
2BA
  8
0
  6
CONTINUOUS
 62
     8
 10
350.8886637967
 20
645.7695896446
 30
0.0
 11
385.4365291874
 21
645.7695896446
 31
0.0
  0
LINE
  5
2BB
  8
0
  6
CONTINUOUS
 62
     8
 10
357.2192284148
 20
576.6121531545
 30
0.0
 11
354.2496877592
 21
641.3742090284
 31
0.0
  0
POLYLINE
  5
2BC
  8
0
  6
CONTINUOUS
 62
     8
 66
     1
 10
0.0
 20
0.0
 30
0.0
 70
   128
  0
VERTEX
  5
7B8
  8
0
  6
CONTINUOUS
 62
     8
 10
357.7384593766
 20
575.9087587415
 30
0.0
  0
VERTEX
  5
7B9
  8
0
  6
CONTINUOUS
 62
     8
 10
357.5386720579
 20
575.953179103
 30
0.0
  0
VERTEX
  5
7BA
  8
0
  6
CONTINUOUS
 62
     8
 10
357.4476408641
 20
576.0143185674
 30
0.0
  0
VERTEX
  5
7BB
  8
0
  6
CONTINUOUS
 62
     8
 10
357.3686274569
 20
576.1018330871
 30
0.0
  0
VERTEX
  5
7BC
  8
0
  6
CONTINUOUS
 62
     8
 10
357.3071378152
 20
576.2092555581
 30
0.0
  0
VERTEX
  5
7BD
  8
0
  6
CONTINUOUS
 62
     8
 10
357.2608548086
 20
576.3383294164
 30
0.0
  0
VERTEX
  5
7BE
  8
0
  6
CONTINUOUS
 62
     8
 10
357.2192284148
 20
576.6121531545
 30
0.0
  0
SEQEND
  5
B94
  8
0
  6
CONTINUOUS
 62
     8
  0
LINE
  5
2BD
  8
0
  6
CONTINUOUS
 62
     8
 10
378.5867336075
 20
575.9087587415
 30
0.0
 11
357.7384593766
 21
575.9087587415
 31
0.0
  0
POLYLINE
  5
2BE
  8
0
  6
CONTINUOUS
 62
     8
 66
     1
 10
0.0
 20
0.0
 30
0.0
 70
   128
  0
VERTEX
  5
7BF
  8
0
  6
CONTINUOUS
 62
     8
 10
379.1059645693
 20
576.6121531545
 30
0.0
  0
VERTEX
  5
7C0
  8
0
  6
CONTINUOUS
 62
     8
 10
379.0643903296
 20
576.3383294164
 30
0.0
  0
VERTEX
  5
7C1
  8
0
  6
CONTINUOUS
 62
     8
 10
379.0183308404
 20
576.2099261104
 30
0.0
  0
VERTEX
  5
7C2
  8
0
  6
CONTINUOUS
 62
     8
 10
378.9565804284
 20
576.1018032848
 30
0.0
  0
VERTEX
  5
7C3
  8
0
  6
CONTINUOUS
 62
     8
 10
378.8776117246
 20
576.0143036663
 30
0.0
  0
VERTEX
  5
7C4
  8
0
  6
CONTINUOUS
 62
     8
 10
378.7864985745
 20
575.9532387077
 30
0.0
  0
VERTEX
  5
7C5
  8
0
  6
CONTINUOUS
 62
     8
 10
378.5867336075
 20
575.9087587415
 30
0.0
  0
SEQEND
  5
B95
  8
0
  6
CONTINUOUS
 62
     8
  0
LINE
  5
2BF
  8
0
  6
CONTINUOUS
 62
     8
 10
382.0755052249
 20
641.3742090284
 30
0.0
 11
379.1059645693
 21
576.6121531545
 31
0.0
  0
POLYLINE
  5
2C0
  8
0
  6
CONTINUOUS
 62
     8
 66
     1
 10
0.0
 20
0.0
 30
0.0
 70
   128
  0
VERTEX
  5
7C6
  8
0
  6
CONTINUOUS
 62
     8
 10
381.685124604
 20
642.2235454141
 30
0.0
  0
VERTEX
  5
7C7
  8
0
  6
CONTINUOUS
 62
     8
 10
381.7823397796
 20
642.2057683288
 30
0.0
  0
VERTEX
  5
7C8
  8
0
  6
CONTINUOUS
 62
     8
 10
381.8676414769
 20
642.1565199911
 30
0.0
  0
VERTEX
  5
7C9
  8
0
  6
CONTINUOUS
 62
     8
 10
381.942072777
 20
642.0734311162
 30
0.0
  0
VERTEX
  5
7CA
  8
0
  6
CONTINUOUS
 62
     8
 10
382.0017370265
 20
641.9581557332
 30
0.0
  0
VERTEX
  5
7CB
  8
0
  6
CONTINUOUS
 62
     8
 10
382.0667209904
 20
641.6785950481
 30
0.0
  0
VERTEX
  5
7CC
  8
0
  6
CONTINUOUS
 62
     8
 10
382.0755052249
 20
641.3741792261
 30
0.0
  0
SEQEND
  5
B96
  8
0
  6
CONTINUOUS
 62
     8
  0
POLYLINE
  5
2C1
  8
0
  6
CONTINUOUS
 62
     8
 66
     1
 10
0.0
 20
0.0
 30
0.0
 70
   128
  0
VERTEX
  5
7CD
  8
0
  6
CONTINUOUS
 62
     8
 10
381.6851097028
 20
642.2235454141
 30
0.0
  0
VERTEX
  5
7CE
  8
0
  6
CONTINUOUS
 62
     8
 10
378.8855167906
 20
642.2668630897
 30
0.0
  0
VERTEX
  5
7CF
  8
0
  6
CONTINUOUS
 62
     8
 10
375.7011460941
 20
642.2976190864
 30
0.0
  0
VERTEX
  5
7D0
  8
0
  6
CONTINUOUS
 62
     8
 10
372.0030876677
 20
642.3174376308
 30
0.0
  0
VERTEX
  5
7D1
  8
0
  6
CONTINUOUS
 62
     8
 10
368.1642654221
 20
642.3240537464
 30
0.0
  0
VERTEX
  5
7D2
  8
0
  6
CONTINUOUS
 62
     8
 10
364.3256741445
 20
642.317452532
 30
0.0
  0
VERTEX
  5
7D3
  8
0
  6
CONTINUOUS
 62
     8
 10
360.6267961543
 20
642.2976339876
 30
0.0
  0
VERTEX
  5
7D4
  8
0
  6
CONTINUOUS
 62
     8
 10
357.4414494317
 20
642.266892892
 30
0.0
  0
VERTEX
  5
7D5
  8
0
  6
CONTINUOUS
 62
     8
 10
354.6400832813
 20
642.2235454141
 30
0.0
  0
SEQEND
  5
B97
  8
0
  6
CONTINUOUS
 62
     8
  0
POLYLINE
  5
2C2
  8
0
  6
CONTINUOUS
 62
     8
 66
     1
 10
0.0
 20
0.0
 30
0.0
 70
   128
  0
VERTEX
  5
7D6
  8
0
  6
CONTINUOUS
 62
     8
 10
354.2496952097
 20
641.3741643249
 30
0.0
  0
VERTEX
  5
7D7
  8
0
  6
CONTINUOUS
 62
     8
 10
354.2584347408
 20
641.6786546527
 30
0.0
  0
VERTEX
  5
7D8
  8
0
  6
CONTINUOUS
 62
     8
 10
354.32348576
 20
641.9581557332
 30
0.0
  0
VERTEX
  5
7D9
  8
0
  6
CONTINUOUS
 62
     8
 10
354.382375149
 20
642.0715833723
 30
0.0
  0
VERTEX
  5
7DA
  8
0
  6
CONTINUOUS
 62
     8
 10
354.45771542
 20
642.1563411771
 30
0.0
  0
VERTEX
  5
7DB
  8
0
  6
CONTINUOUS
 62
     8
 10
354.5426296871
 20
642.2057087242
 30
0.0
  0
VERTEX
  5
7DC
  8
0
  6
CONTINUOUS
 62
     8
 10
354.6400683801
 20
642.2235454141
 30
0.0
  0
SEQEND
  5
B98
  8
0
  6
CONTINUOUS
 62
     8
  0
LINE
  5
2C3
  8
0
  6
CONTINUOUS
 62
     8
 10
385.3249641936
 20
645.166718465
 30
0.0
 11
351.0002362411
 21
645.166718465
 31
0.0
  0
POLYLINE
  5
2C4
  8
0
  6
CONTINUOUS
 62
     8
 66
     1
 10
0.0
 20
0.0
 30
0.0
 70
   128
  0
VERTEX
  5
7DD
  8
0
  6
CONTINUOUS
 62
     8
 10
354.7588753383
 20
641.8867046653
 30
0.0
  0
VERTEX
  5
7DE
  8
0
  6
CONTINUOUS
 62
     8
 10
357.5314300935
 20
641.9299627363
 30
0.0
  0
VERTEX
  5
7DF
  8
0
  6
CONTINUOUS
 62
     8
 10
360.6936427634
 20
641.9608081399
 30
0.0
  0
VERTEX
  5
7E0
  8
0
  6
CONTINUOUS
 62
     8
 10
364.3485474269
 20
641.9805819808
 30
0.0
  0
VERTEX
  5
7E1
  8
0
  6
CONTINUOUS
 62
     8
 10
368.1642505209
 20
641.9871682941
 30
0.0
  0
VERTEX
  5
7E2
  8
0
  6
CONTINUOUS
 62
     8
 10
371.9850200098
 20
641.9805670797
 30
0.0
  0
VERTEX
  5
7E3
  8
0
  6
CONTINUOUS
 62
     8
 10
375.6342845838
 20
641.9607783376
 30
0.0
  0
VERTEX
  5
7E4
  8
0
  6
CONTINUOUS
 62
     8
 10
378.800736634
 20
641.9298584281
 30
0.0
  0
VERTEX
  5
7E5
  8
0
  6
CONTINUOUS
 62
     8
 10
381.5663176458
 20
641.8867046653
 30
0.0
  0
SEQEND
  5
B99
  8
0
  6
CONTINUOUS
 62
     8
  0
ARC
  5
2C5
  8
0
  6
CONTINUOUS
 62
     8
 10
355.2138272944
 20
642.2365022717
 30
0.0
 40
0.5738902968329128
 50
181.2936903474
 51
217.5566795993
  0
ARC
  5
2C6
  8
0
  6
CONTINUOUS
 62
     8
 10
381.111424534
 20
642.236496994
 30
0.0
 40
0.5738313483810857
 50
322.4413362732
 51
358.7067038301
  0
LINE
  5
2C7
  8
0
  6
CONTINUOUS
 62
     8
 10
354.7588380854
 20
641.8867046653
 30
0.0
 11
358.11899033
 21
639.3699134408
 31
0.0
  0
LINE
  5
2C8
  8
0
  6
CONTINUOUS
 62
     8
 10
378.2062026541
 20
639.3699134408
 30
0.0
 11
381.5663548987
 21
641.8867195665
 31
0.0
  0
LINE
  5
2C9
  8
0
  6
CONTINUOUS
 62
     8
 10
378.487260906
 20
576.2747908651
 30
0.0
 11
357.8379320781
 21
576.2747908651
 31
0.0
  0
ARC
  5
2CA
  8
0
  6
CONTINUOUS
 62
     8
 10
377.9595667783
 20
575.9348525936
 30
0.0
 40
0.627709423878611
 50
357.6175305506
 51
32.789458973
  0
ARC
  5
2CB
  8
0
  6
CONTINUOUS
 62
     8
 10
358.3656262058
 20
575.9348525936
 30
0.0
 40
0.6277094238785631
 50
147.210541027
 51
182.3824694494
  0
LINE
  5
2CC
  8
0
  6
CONTINUOUS
 62
     8
 10
378.487260906
 20
576.2747908651
 30
0.0
 11
377.8871389906
 21
576.7145092307
 31
0.0
  0
LINE
  5
2CD
  8
0
  6
CONTINUOUS
 62
     8
 10
357.8379320781
 20
576.2747908651
 30
0.0
 11
358.4380539935
 21
576.7145092307
 31
0.0
  0
POLYLINE
  5
2CE
  8
0
  6
CONTINUOUS
 62
     8
 66
     1
 10
0.0
 20
0.0
 30
0.0
 70
   128
  0
VERTEX
  5
7E6
  8
0
  6
CONTINUOUS
 62
     8
 10
354.6591940205
 20
641.391926509
 30
0.0
  0
VERTEX
  5
7E7
  8
0
  6
CONTINUOUS
 62
     8
 10
354.5918556731
 20
641.6001255332
 30
0.0
  0
VERTEX
  5
7E8
  8
0
  6
CONTINUOUS
 62
     8
 10
354.5753973405
 20
641.6951204359
 30
0.0
  0
VERTEX
  5
7E9
  8
0
  6
CONTINUOUS
 62
     8
 10
354.5746746342
 20
641.7780901014
 30
0.0
  0
VERTEX
  5
7EA
  8
0
  6
CONTINUOUS
 62
     8
 10
354.5932116787
 20
641.842671734
 30
0.0
  0
VERTEX
  5
7EB
  8
0
  6
CONTINUOUS
 62
     8
 10
354.6100350897
 20
641.8663198768
 30
0.0
  0
VERTEX
  5
7EC
  8
0
  6
CONTINUOUS
 62
     8
 10
354.6317088287
 20
641.8835158168
 30
0.0
  0
VERTEX
  5
7ED
  8
0
  6
CONTINUOUS
 62
     8
 10
354.6884748023
 20
641.8974186002
 30
0.0
  0
VERTEX
  5
7EE
  8
0
  6
CONTINUOUS
 62
     8
 10
354.7588380854
 20
641.8867046653
 30
0.0
  0
SEQEND
  5
B9A
  8
0
  6
CONTINUOUS
 62
     8
  0
POLYLINE
  5
2CF
  8
0
  6
CONTINUOUS
 62
     8
 66
     1
 10
0.0
 20
0.0
 30
0.0
 70
   128
  0
VERTEX
  5
7EF
  8
0
  6
CONTINUOUS
 62
     8
 10
354.2496952097
 20
641.3741643249
 30
0.0
  0
VERTEX
  5
7F0
  8
0
  6
CONTINUOUS
 62
     8
 10
354.3284329455
 20
641.377591592
 30
0.0
  0
VERTEX
  5
7F1
  8
0
  6
CONTINUOUS
 62
     8
 10
354.4285538476
 20
641.3819278299
 30
0.0
  0
VERTEX
  5
7F2
  8
0
  6
CONTINUOUS
 62
     8
 10
354.5421826522
 20
641.3868601142
 30
0.0
  0
VERTEX
  5
7F3
  8
0
  6
CONTINUOUS
 62
     8
 10
354.6591940205
 20
641.391926509
 30
0.0
  0
SEQEND
  5
B9B
  8
0
  6
CONTINUOUS
 62
     8
  0
POLYLINE
  5
2D0
  8
0
  6
CONTINUOUS
 62
     8
 66
     1
 10
0.0
 20
0.0
 30
0.0
 70
   128
  0
VERTEX
  5
7F4
  8
0
  6
CONTINUOUS
 62
     8
 10
381.6659989636
 20
641.3919414102
 30
0.0
  0
VERTEX
  5
7F5
  8
0
  6
CONTINUOUS
 62
     8
 10
381.733285157
 20
641.6000808298
 30
0.0
  0
VERTEX
  5
7F6
  8
0
  6
CONTINUOUS
 62
     8
 10
381.7498552482
 20
641.6951800405
 30
0.0
  0
VERTEX
  5
7F7
  8
0
  6
CONTINUOUS
 62
     8
 10
381.7505407016
 20
641.7781050025
 30
0.0
  0
VERTEX
  5
7F8
  8
0
  6
CONTINUOUS
 62
     8
 10
381.7320632618
 20
641.8428207456
 30
0.0
  0
VERTEX
  5
7F9
  8
0
  6
CONTINUOUS
 62
     8
 10
381.7153739612
 20
641.8665731965
 30
0.0
  0
VERTEX
  5
7FA
  8
0
  6
CONTINUOUS
 62
     8
 10
381.6936555188
 20
641.8836797296
 30
0.0
  0
VERTEX
  5
7FB
  8
0
  6
CONTINUOUS
 62
     8
 10
381.6366660278
 20
641.8974186002
 30
0.0
  0
VERTEX
  5
7FC
  8
0
  6
CONTINUOUS
 62
     8
 10
381.5663548987
 20
641.8867195665
 30
0.0
  0
SEQEND
  5
B9C
  8
0
  6
CONTINUOUS
 62
     8
  0
POLYLINE
  5
2D1
  8
0
  6
CONTINUOUS
 62
     8
 66
     1
 10
0.0
 20
0.0
 30
0.0
 70
   128
  0
VERTEX
  5
7FD
  8
0
  6
CONTINUOUS
 62
     8
 10
381.6659989636
 20
641.3919414102
 30
0.0
  0
VERTEX
  5
7FE
  8
0
  6
CONTINUOUS
 62
     8
 10
381.7830103319
 20
641.3868601142
 30
0.0
  0
VERTEX
  5
7FF
  8
0
  6
CONTINUOUS
 62
     8
 10
381.8966391366
 20
641.3819278299
 30
0.0
  0
VERTEX
  5
800
  8
0
  6
CONTINUOUS
 62
     8
 10
381.9967600386
 20
641.377591592
 30
0.0
  0
VERTEX
  5
801
  8
0
  6
CONTINUOUS
 62
     8
 10
382.0755052249
 20
641.3741792261
 30
0.0
  0
SEQEND
  5
B9D
  8
0
  6
CONTINUOUS
 62
     8
  0
POLYLINE
  5
2D2
  8
0
  6
CONTINUOUS
 62
     8
 66
     1
 10
0.0
 20
0.0
 30
0.0
 70
   128
  0
VERTEX
  5
802
  8
0
  6
CONTINUOUS
 62
     8
 10
378.7336888592
 20
576.6299153387
 30
0.0
  0
VERTEX
  5
803
  8
0
  6
CONTINUOUS
 62
     8
 10
378.7658455651
 20
576.4544690668
 30
0.0
  0
VERTEX
  5
804
  8
0
  6
CONTINUOUS
 62
     8
 10
378.7600192111
 20
576.3795758306
 30
0.0
  0
VERTEX
  5
805
  8
0
  6
CONTINUOUS
 62
     8
 10
378.7365722339
 20
576.3193006336
 30
0.0
  0
VERTEX
  5
806
  8
0
  6
CONTINUOUS
 62
     8
 10
378.6945733111
 20
576.2783820449
 30
0.0
  0
VERTEX
  5
807
  8
0
  6
CONTINUOUS
 62
     8
 10
378.6364811342
 20
576.258235675
 30
0.0
  0
VERTEX
  5
808
  8
0
  6
CONTINUOUS
 62
     8
 10
378.4872683566
 20
576.2747908651
 30
0.0
  0
SEQEND
  5
B9E
  8
0
  6
CONTINUOUS
 62
     8
  0
POLYLINE
  5
2D3
  8
0
  6
CONTINUOUS
 62
     8
 66
     1
 10
0.0
 20
0.0
 30
0.0
 70
   128
  0
VERTEX
  5
809
  8
0
  6
CONTINUOUS
 62
     8
 10
379.1059645693
 20
576.6121531545
 30
0.0
  0
VERTEX
  5
80A
  8
0
  6
CONTINUOUS
 62
     8
 10
379.0688904803
 20
576.6139263927
 30
0.0
  0
VERTEX
  5
80B
  8
0
  6
CONTINUOUS
 62
     8
 10
379.0281358044
 20
576.6158635436
 30
0.0
  0
VERTEX
  5
80C
  8
0
  6
CONTINUOUS
 62
     8
 10
378.9841624777
 20
576.6179646074
 30
0.0
  0
VERTEX
  5
80D
  8
0
  6
CONTINUOUS
 62
     8
 10
378.9374473374
 20
576.6201848804
 30
0.0
  0
VERTEX
  5
80E
  8
0
  6
CONTINUOUS
 62
     8
 10
378.8884895723
 20
576.6225243627
 30
0.0
  0
VERTEX
  5
80F
  8
0
  6
CONTINUOUS
 62
     8
 10
378.8378405254
 20
576.6249383508
 30
0.0
  0
VERTEX
  5
810
  8
0
  6
CONTINUOUS
 62
     8
 10
378.7860515397
 20
576.6274119436
 30
0.0
  0
VERTEX
  5
811
  8
0
  6
CONTINUOUS
 62
     8
 10
378.7336888592
 20
576.6299153387
 30
0.0
  0
SEQEND
  5
B9F
  8
0
  6
CONTINUOUS
 62
     8
  0
POLYLINE
  5
2D4
  8
0
  6
CONTINUOUS
 62
     8
 66
     1
 10
0.0
 20
0.0
 30
0.0
 70
   128
  0
VERTEX
  5
812
  8
0
  6
CONTINUOUS
 62
     8
 10
357.8379320781
 20
576.2747908651
 30
0.0
  0
VERTEX
  5
813
  8
0
  6
CONTINUOUS
 62
     8
 10
357.6886820476
 20
576.2581909715
 30
0.0
  0
VERTEX
  5
814
  8
0
  6
CONTINUOUS
 62
     8
 10
357.6306718271
 20
576.2784118473
 30
0.0
  0
VERTEX
  5
815
  8
0
  6
CONTINUOUS
 62
     8
 10
357.5886356514
 20
576.3193304359
 30
0.0
  0
VERTEX
  5
816
  8
0
  6
CONTINUOUS
 62
     8
 10
357.5651439707
 20
576.379516226
 30
0.0
  0
VERTEX
  5
817
  8
0
  6
CONTINUOUS
 62
     8
 10
357.5593921225
 20
576.4544839679
 30
0.0
  0
VERTEX
  5
818
  8
0
  6
CONTINUOUS
 62
     8
 10
357.5915041249
 20
576.6299153387
 30
0.0
  0
SEQEND
  5
BA0
  8
0
  6
CONTINUOUS
 62
     8
  0
POLYLINE
  5
2D5
  8
0
  6
CONTINUOUS
 62
     8
 66
     1
 10
0.0
 20
0.0
 30
0.0
 70
   128
  0
VERTEX
  5
819
  8
0
  6
CONTINUOUS
 62
     8
 10
357.2192284148
 20
576.6121531545
 30
0.0
  0
VERTEX
  5
81A
  8
0
  6
CONTINUOUS
 62
     8
 10
357.2563025038
 20
576.6139263927
 30
0.0
  0
VERTEX
  5
81B
  8
0
  6
CONTINUOUS
 62
     8
 10
357.2970571797
 20
576.6158635436
 30
0.0
  0
VERTEX
  5
81C
  8
0
  6
CONTINUOUS
 62
     8
 10
357.3410305064
 20
576.6179646074
 30
0.0
  0
VERTEX
  5
81D
  8
0
  6
CONTINUOUS
 62
     8
 10
357.3877530973
 20
576.6201848804
 30
0.0
  0
VERTEX
  5
81E
  8
0
  6
CONTINUOUS
 62
     8
 10
357.4367034118
 20
576.6225243627
 30
0.0
  0
VERTEX
  5
81F
  8
0
  6
CONTINUOUS
 62
     8
 10
357.4873524587
 20
576.6249383508
 30
0.0
  0
VERTEX
  5
820
  8
0
  6
CONTINUOUS
 62
     8
 10
357.5391414444
 20
576.6274119436
 30
0.0
  0
VERTEX
  5
821
  8
0
  6
CONTINUOUS
 62
     8
 10
357.5915041249
 20
576.6299153387
 30
0.0
  0
SEQEND
  5
BA1
  8
0
  6
CONTINUOUS
 62
     8
  0
LINE
  5
2D6
  8
0
  6
CONTINUOUS
 62
     8
 10
378.492342202
 20
639.0438760339
 30
0.0
 11
381.6659989636
 21
641.3919414102
 31
0.0
  0
LINE
  5
2D7
  8
0
  6
CONTINUOUS
 62
     8
 10
354.6591940205
 20
641.391926509
 30
0.0
 11
357.8328507822
 21
639.0438760339
 31
0.0
  0
LINE
  5
2D8
  8
0
  6
CONTINUOUS
 62
     8
 10
357.5915041249
 20
576.6299153387
 30
0.0
 11
358.1561165731
 21
577.0386541902
 31
0.0
  0
LINE
  5
2D9
  8
0
  6
CONTINUOUS
 62
     8
 10
378.7336888592
 20
576.6299153387
 30
0.0
 11
378.169076411
 21
577.0386541902
 31
0.0
  0
LINE
  5
2DA
  8
0
  6
CONTINUOUS
 62
     8
 10
357.5915041249
 20
576.6299153387
 30
0.0
 11
354.6591865699
 21
641.3919712125
 31
0.0
  0
LINE
  5
2DB
  8
0
  6
CONTINUOUS
 62
     8
 10
381.6660064142
 20
641.3919712125
 30
0.0
 11
378.7336888592
 21
576.6299153387
 31
0.0
  0
ARC
  5
2DC
  8
0
  6
CONTINUOUS
 62
     7
 10
562.7183474038
 20
438.9597834646
 30
0.0
 40
1.699999999999989
 50
0.0
 51
90.0
  0
ARC
  5
2DD
  8
0
  6
CONTINUOUS
 62
     7
 10
501.1183474038
 20
438.9597834646
 30
0.0
 40
1.699999999999989
 50
90.0
 51
180.0
  0
LINE
  5
2DE
  8
0
  6
CONTINUOUS
 62
     7
 10
499.4183485959
 20
438.9597834728
 30
0.0
 11
499.4183485959
 21
432.6597834646
 31
0.0
  0
LINE
  5
2DF
  8
0
  6
CONTINUOUS
 62
     7
 10
564.4183462117
 20
432.6597834646
 30
0.0
 11
564.4183462117
 21
438.9597834728
 31
0.0
  0
LINE
  5
2E0
  8
0
  6
CONTINUOUS
 62
     7
 10
504.9183467035
 20
451.6597828536
 30
0.0
 11
504.9183467035
 21
440.6597838445
 31
0.0
  0
LINE
  5
2E1
  8
0
  6
CONTINUOUS
 62
     7
 10
558.9183481042
 20
440.6597838445
 30
0.0
 11
558.9183481042
 21
451.6597828536
 31
0.0
  0
ARC
  5
2E2
  8
0
  6
CONTINUOUS
 62
     7
 10
557.9183474038
 20
451.6597834646
 30
0.0
 40
1.000000000000057
 50
0.0
 51
90.0
  0
ARC
  5
2E3
  8
0
  6
CONTINUOUS
 62
     7
 10
505.9183474038
 20
451.6597834646
 30
0.0
 40
1.000000000000057
 50
90.0
 51
180.0
  0
LINE
  5
2E4
  8
0
  6
CONTINUOUS
 62
     7
 10
555.9183476125
 20
452.6597830175
 30
0.0
 11
555.8927865331
 21
454.124157381
 31
0.0
  0
LINE
  5
2E5
  8
0
  6
CONTINUOUS
 62
     7
 10
507.9439082746
 20
454.124157381
 30
0.0
 11
507.9183471952
 21
452.6597830175
 31
0.0
  0
POLYLINE
  5
2E6
  8
0
  6
CONTINUOUS
 62
     7
 66
     1
 10
0.0
 20
0.0
 30
0.0
 70
   128
  0
VERTEX
  5
822
  8
0
  6
CONTINUOUS
 62
     7
 10
620.5924605583
 20
489.9802813946
 30
0.0
  0
VERTEX
  5
823
  8
0
  6
CONTINUOUS
 62
     7
 10
610.0555216525
 20
490.1266107975
 30
0.0
  0
VERTEX
  5
824
  8
0
  6
CONTINUOUS
 62
     7
 10
598.8195618246
 20
490.1727522432
 30
0.0
  0
VERTEX
  5
825
  8
0
  6
CONTINUOUS
 62
     7
 10
587.5339885805
 20
490.2213523804
 30
0.0
  0
VERTEX
  5
826
  8
0
  6
CONTINUOUS
 62
     7
 10
576.1803282057
 20
490.2449781715
 30
0.0
  0
VERTEX
  5
827
  8
0
  6
CONTINUOUS
 62
     7
 10
564.7799973939
 20
490.2709769725
 30
0.0
  0
VERTEX
  5
828
  8
0
  6
CONTINUOUS
 62
     7
 10
545.7691173632
 20
490.3827878355
 30
0.0
  0
VERTEX
  5
829
  8
0
  6
CONTINUOUS
 62
     7
 10
526.7867977363
 20
490.339432907
 30
0.0
  0
VERTEX
  5
82A
  8
0
  6
CONTINUOUS
 62
     7
 10
508.9740628008
 20
489.9949404119
 30
0.0
  0
SEQEND
  5
BA2
  8
0
  6
CONTINUOUS
 62
     7
  0
ARC
  5
2E7
  8
0
  6
CONTINUOUS
 62
     7
 10
531.9183474038
 20
450.1597834646
 30
0.0
 40
24.30000000000049
 50
141.8736447552
 51
170.6106272566
  0
ARC
  5
2E8
  8
0
  6
CONTINUOUS
 62
     7
 10
531.9183474038
 20
450.1597834646
 30
0.0
 40
24.30000000000043
 50
9.3893727434
 51
19.2213246493
  0
LINE
  5
2E9
  8
0
  6
CONTINUOUS
 62
     7
 10
557.0489955698
 20
464.680285257
 30
0.0
 11
557.5932157789
 21
464.8783663927
 31
0.0
  0
ARC
  5
2EA
  8
0
  6
CONTINUOUS
 62
     7
 10
557.5248109418
 20
465.0663033557
 30
0.0
 40
0.2000000000000213
 50
290.0
 51
0.0
  0
LINE
  5
2EB
  8
0
  6
CONTINUOUS
 62
     7
 10
557.7248116587
 20
465.066303563
 30
0.0
 11
557.7248116587
 21
471.4026163041
 31
0.0
  0
ARC
  5
2EC
  8
0
  6
CONTINUOUS
 62
     7
 10
575.2450602742
 20
467.0160527833
 30
0.0
 40
17.90567241830697
 50
97.4874541117
 51
167.4254673247
  0
POLYLINE
  5
2ED
  8
0
  6
CONTINUOUS
 62
     7
 66
     1
 10
0.0
 20
0.0
 30
0.0
 70
   128
  0
VERTEX
  5
82B
  8
0
  6
CONTINUOUS
 62
     7
 10
557.0427836482
 20
461.6239155351
 30
0.0
  0
VERTEX
  5
82C
  8
0
  6
CONTINUOUS
 62
     7
 10
557.0403864239
 20
464.0460881113
 30
0.0
  0
VERTEX
  5
82D
  8
0
  6
CONTINUOUS
 62
     7
 10
557.0552819972
 20
464.7011692344
 30
0.0
  0
SEQEND
  5
BA3
  8
0
  6
CONTINUOUS
 62
     7
  0
LINE
  5
2EE
  8
0
  6
CONTINUOUS
 62
     7
 10
563.5748920594
 20
432.6547834647
 30
0.0
 11
563.5748920594
 21
432.6597834646
 31
0.0
  0
LINE
  5
2EF
  8
0
  6
CONTINUOUS
 62
     7
 10
500.2618027483
 20
432.6597834646
 30
0.0
 11
500.2618027483
 21
432.6547834647
 31
0.0
  0
POLYLINE
  5
2F0
  8
0
  6
CONTINUOUS
 62
     7
 66
     1
 10
0.0
 20
0.0
 30
0.0
 70
   128
  0
VERTEX
  5
82E
  8
0
  6
CONTINUOUS
 62
     7
 10
760.5526154493
 20
540.7440001785
 30
0.0
  0
VERTEX
  5
82F
  8
0
  6
CONTINUOUS
 62
     7
 10
752.3292010282
 20
540.7685572921
 30
0.0
  0
VERTEX
  5
830
  8
0
  6
CONTINUOUS
 62
     7
 10
739.8891603206
 20
540.7806942879
 30
0.0
  0
SEQEND
  5
BA4
  8
0
  6
CONTINUOUS
 62
     7
  0
POLYLINE
  5
2F1
  8
0
  6
CONTINUOUS
 62
     7
 66
     1
 10
0.0
 20
0.0
 30
0.0
 70
   128
  0
VERTEX
  5
831
  8
0
  6
CONTINUOUS
 62
     7
 10
733.4557776902
 20
520.4179967462
 30
0.0
  0
VERTEX
  5
832
  8
0
  6
CONTINUOUS
 62
     7
 10
735.9921341394
 20
520.4423973977
 30
0.0
  0
VERTEX
  5
833
  8
0
  6
CONTINUOUS
 62
     7
 10
737.9998867963
 20
520.4599137126
 30
0.0
  0
SEQEND
  5
BA5
  8
0
  6
CONTINUOUS
 62
     7
  0
LINE
  5
2F2
  8
0
  6
CONTINUOUS
 62
     7
 10
763.3970832084
 20
540.7588864385
 30
0.0
 11
760.5823283647
 21
540.7643030106
 31
0.0
  0
LINE
  5
2F3
  8
0
  6
CONTINUOUS
 62
     7
 10
762.9238074277
 20
519.866422814
 30
0.0
 11
762.069017217
 21
524.7141654312
 31
0.0
  0
LINE
  5
2F4
  8
0
  6
CONTINUOUS
 62
     7
 10
738.4336297963
 20
520.5466086685
 30
0.0
 11
739.2884200071
 21
515.6988660513
 31
0.0
  0
ARC
  5
2F5
  8
0
  6
CONTINUOUS
 62
     7
 10
542.4183474038
 20
554.786767352
 30
0.0
 40
0.5000000000001137
 50
0.0
 51
89.0048202209
  0
ARC
  5
2F6
  8
0
  6
CONTINUOUS
 62
     7
 10
521.4183474038
 20
554.786767352
 30
0.0
 40
0.4999999999999442
 50
90.9951797791
 51
180.0
  0
ARC
  5
2F7
  8
0
  6
CONTINUOUS
 62
     7
 10
521.2183474038
 20
548.8597834646
 30
0.0
 40
0.3000000000000682
 50
180.0
 51
270.0
  0
ARC
  5
2F8
  8
0
  6
CONTINUOUS
 62
     7
 10
542.6183474038
 20
548.8597834646
 30
0.0
 40
0.3000000000000682
 50
270.0
 51
0.0
  0
LINE
  5
2F9
  8
0
  6
CONTINUOUS
 62
     7
 10
542.9183473442
 20
548.8597835123
 30
0.0
 11
542.9183473442
 21
554.7867650806
 31
0.0
  0
LINE
  5
2FA
  8
0
  6
CONTINUOUS
 62
     7
 10
520.9183474634
 20
554.7867650806
 30
0.0
 11
520.9183474634
 21
548.8597835123
 31
0.0
  0
LINE
  5
2FB
  8
0
  6
CONTINUOUS
 62
     7
 10
739.2884200071
 20
515.6988660513
 30
0.0
 11
740.3734778617
 21
515.3039331256
 31
0.0
  0
LINE
  5
2FC
  8
0
  6
CONTINUOUS
 62
     7
 10
762.0392595981
 20
519.124195975
 30
0.0
 11
762.9238074277
 21
519.866422814
 31
0.0
  0
ARC
  5
2FD
  8
0
  6
CONTINUOUS
 62
     7
 10
531.9183474038
 20
-49.6720422454
 30
0.0
 40
605.0499999999827
 50
89.0048202209
 51
90.9951797791
  0
POLYLINE
  5
2FE
  8
0
  6
CONTINUOUS
 62
     7
 66
     1
 10
0.0
 20
0.0
 30
0.0
 70
   128
  0
VERTEX
  5
834
  8
0
  6
CONTINUOUS
 62
     7
 10
556.919735447
 20
490.8917444467
 30
0.0
  0
VERTEX
  5
835
  8
0
  6
CONTINUOUS
 62
     7
 10
557.0562822376
 20
495.6677789508
 30
0.0
  0
VERTEX
  5
836
  8
0
  6
CONTINUOUS
 62
     7
 10
557.5340320919
 20
499.6608505665
 30
0.0
  0
VERTEX
  5
837
  8
0
  6
CONTINUOUS
 62
     7
 10
558.3021906768
 20
502.9182071506
 30
0.0
  0
VERTEX
  5
838
  8
0
  6
CONTINUOUS
 62
     7
 10
559.250191376
 20
505.5427412211
 30
0.0
  0
VERTEX
  5
839
  8
0
  6
CONTINUOUS
 62
     7
 10
560.6099204723
 20
508.2289586483
 30
0.0
  0
VERTEX
  5
83A
  8
0
  6
CONTINUOUS
 62
     7
 10
561.9062916939
 20
510.1671228825
 30
0.0
  0
VERTEX
  5
83B
  8
0
  6
CONTINUOUS
 62
     7
 10
563.1954414402
 20
511.7197419225
 30
0.0
  0
VERTEX
  5
83C
  8
0
  6
CONTINUOUS
 62
     7
 10
564.5055366312
 20
513.0234817683
 30
0.0
  0
VERTEX
  5
83D
  8
0
  6
CONTINUOUS
 62
     7
 10
565.8318517361
 20
514.1263465105
 30
0.0
  0
VERTEX
  5
83E
  8
0
  6
CONTINUOUS
 62
     7
 10
567.8171706949
 20
515.4589797079
 30
0.0
  0
VERTEX
  5
83F
  8
0
  6
CONTINUOUS
 62
     7
 10
570.0506312404
 20
516.6040519892
 30
0.0
  0
VERTEX
  5
840
  8
0
  6
CONTINUOUS
 62
     7
 10
573.0964248632
 20
517.7118117629
 30
0.0
  0
VERTEX
  5
841
  8
0
  6
CONTINUOUS
 62
     7
 10
575.6788035486
 20
518.3360288559
 30
0.0
  0
VERTEX
  5
842
  8
0
  6
CONTINUOUS
 62
     7
 10
578.7925464664
 20
518.7851796566
 30
0.0
  0
VERTEX
  5
843
  8
0
  6
CONTINUOUS
 62
     7
 10
582.5367165361
 20
518.9670855819
 30
0.0
  0
SEQEND
  5
BA6
  8
0
  6
CONTINUOUS
 62
     7
  0
LINE
  5
2FF
  8
0
  6
CONTINUOUS
 62
     7
 10
534.9183474299
 20
540.9596050798
 30
0.0
 11
534.9183474299
 21
548.5597858845
 31
0.0
  0
LINE
  5
300
  8
0
  6
CONTINUOUS
 62
     7
 10
528.9183473778
 20
548.5597858845
 30
0.0
 11
528.9183473778
 21
540.955462557
 31
0.0
  0
POLYLINE
  5
301
  8
0
  6
CONTINUOUS
 62
     7
 66
     1
 10
0.0
 20
0.0
 30
0.0
 70
   128
  0
VERTEX
  5
844
  8
0
  6
CONTINUOUS
 62
     7
 10
733.455658481
 20
520.4179967462
 30
0.0
  0
VERTEX
  5
845
  8
0
  6
CONTINUOUS
 62
     7
 10
735.9921341394
 20
520.4423973977
 30
0.0
  0
VERTEX
  5
846
  8
0
  6
CONTINUOUS
 62
     7
 10
738.0007510637
 20
520.4599211632
 30
0.0
  0
SEQEND
  5
BA7
  8
0
  6
CONTINUOUS
 62
     7
  0
LINE
  5
302
  8
0
  6
CONTINUOUS
 62
     7
 10
763.3970832084
 20
540.7588864385
 30
0.0
 11
760.5439578746
 21
540.7643775164
 31
0.0
  0
LINE
  5
303
  8
0
  6
CONTINUOUS
 62
     7
 10
563.6814800654
 20
432.6547834647
 30
0.0
 11
563.6814800654
 21
432.6597834646
 31
0.0
  0
LINE
  5
304
  8
0
  6
CONTINUOUS
 62
     7
 10
500.1552147423
 20
432.6597834646
 30
0.0
 11
500.1552147423
 21
432.6547834647
 31
0.0
  0
ARC
  5
305
  8
0
  6
CONTINUOUS
 62
     7
 10
515.3532142277
 20
655.0067834646
 30
0.0
 40
1.002999999999944
 50
90.0
 51
181.8273883304
  0
ARC
  5
306
  8
0
  6
CONTINUOUS
 62
     7
 10
548.4834805674
 20
655.0067834646
 30
0.0
 40
1.002999999999944
 50
358.1726116696
 51
90.0
  0
LINE
  5
307
  8
0
  6
CONTINUOUS
 62
     7
 10
514.3507239972
 20
654.9747968732
 30
0.0
 11
514.6444147085
 21
645.7695896446
 31
0.0
  0
LINE
  5
308
  8
0
  6
CONTINUOUS
 62
     7
 10
549.1922800992
 20
645.7695896446
 30
0.0
 11
549.4859708105
 21
654.9747968732
 31
0.0
  0
ARC
  5
309
  8
0
  6
CONTINUOUS
 62
     7
 10
548.8915334342
 20
645.7791834646
 30
0.0
 40
0.3009000000001303
 50
270.0
 51
358.1726116696
  0
ARC
  5
30A
  8
0
  6
CONTINUOUS
 62
     7
 10
514.9451613609
 20
645.7791834646
 30
0.0
 40
0.3009000000001303
 50
181.8273883304
 51
270.0
  0
ARC
  5
30B
  8
0
  6
CONTINUOUS
 62
     7
 10
548.7795175354
 20
645.1773834633
 30
0.0
 40
0.3008999792907631
 50
358.0107440896
 51
90.0000055724
  0
ARC
  5
30C
  8
0
  6
CONTINUOUS
 62
     7
 10
515.057177264
 20
645.1773834633
 30
0.0
 40
0.3008999792908397
 50
89.9999944276
 51
211.1444818386
  0
LINE
  5
30D
  8
0
  6
CONTINUOUS
 62
     7
 10
514.7558549051
 20
645.1703394472
 30
0.0
 11
517.3836299781
 21
571.0212970792
 31
0.0
  0
LINE
  5
30E
  8
0
  6
CONTINUOUS
 62
     7
 10
548.9799702172
 20
642.3240388452
 30
0.0
 11
549.0808399026
 21
645.1703394472
 31
0.0
  0
LINE
  5
30F
  8
0
  6
CONTINUOUS
 62
     7
 10
546.4530648295
 20
571.0212970792
 30
0.0
 11
546.6262712706
 21
575.9087587415
 31
0.0
  0
LINE
  5
310
  8
0
  6
CONTINUOUS
 62
     7
 10
547.0328829814
 20
540.9537489234
 30
0.0
 11
546.4531346787
 21
571.0238153755
 31
0.0
  0
LINE
  5
311
  8
0
  6
CONTINUOUS
 62
     7
 10
517.3835601289
 20
571.0238153755
 30
0.0
 11
516.8018141393
 21
540.8501113473
 31
0.0
  0
ARC
  5
312
  8
0
  6
CONTINUOUS
 62
     7
 10
548.478716409
 20
642.3418149106
 30
0.0
 40
0.5015106735590645
 50
315.0007729352
 51
357.9704268532
  0
LINE
  5
313
  8
0
  6
CONTINUOUS
 62
     7
 10
546.2563303862
 20
639.4101316749
 30
0.0
 11
548.838051558
 21
641.9918621599
 31
0.0
  0
ARC
  5
314
  8
0
  6
CONTINUOUS
 62
     7
 10
546.1250958571
 20
575.9265072756
 30
0.0
 40
0.501510062954808
 50
357.9718682361
 51
43.9849815961
  0
LINE
  5
315
  8
0
  6
CONTINUOUS
 62
     7
 10
546.000556611
 20
576.8730873882
 30
0.0
 11
546.000556611
 21
579.0933157026
 31
0.0
  0
LINE
  5
316
  8
0
  6
CONTINUOUS
 62
     7
 10
546.000556611
 20
581.9747532426
 30
0.0
 11
546.000556611
 21
584.1083164035
 31
0.0
  0
LINE
  5
317
  8
0
  6
CONTINUOUS
 62
     7
 10
546.000556611
 20
586.9897539436
 30
0.0
 11
546.000556611
 21
589.1233171045
 31
0.0
  0
LINE
  5
318
  8
0
  6
CONTINUOUS
 62
     7
 10
546.000556611
 20
592.0047546445
 30
0.0
 11
546.000556611
 21
594.1383178054
 31
0.0
  0
LINE
  5
319
  8
0
  6
CONTINUOUS
 62
     7
 10
546.000556611
 20
597.0197553455
 30
0.0
 11
546.000556611
 21
599.1533185064
 31
0.0
  0
LINE
  5
31A
  8
0
  6
CONTINUOUS
 62
     7
 10
546.000556611
 20
602.0347560464
 30
0.0
 11
546.000556611
 21
604.1683192073
 31
0.0
  0
LINE
  5
31B
  8
0
  6
CONTINUOUS
 62
     7
 10
546.000556611
 20
607.0497567474
 30
0.0
 11
546.000556611
 21
609.1833199083
 31
0.0
  0
LINE
  5
31C
  8
0
  6
CONTINUOUS
 62
     7
 10
546.000556611
 20
612.0647574483
 30
0.0
 11
546.000556611
 21
614.1983057081
 31
0.0
  0
LINE
  5
31D
  8
0
  6
CONTINUOUS
 62
     7
 10
546.000556611
 20
617.0797581493
 30
0.0
 11
546.000556611
 21
619.213306409
 31
0.0
  0
LINE
  5
31E
  8
0
  6
CONTINUOUS
 62
     7
 10
546.000556611
 20
622.0947588502
 30
0.0
 11
546.000556611
 21
624.22830711
 31
0.0
  0
LINE
  5
31F
  8
0
  6
CONTINUOUS
 62
     7
 10
546.000556611
 20
627.1097595512
 30
0.0
 11
546.000556611
 21
629.2433078109
 31
0.0
  0
LINE
  5
320
  8
0
  6
CONTINUOUS
 62
     7
 10
546.000556611
 20
632.1247602521
 30
0.0
 11
546.000556611
 21
634.2583085119
 31
0.0
  0
LINE
  5
321
  8
0
  6
CONTINUOUS
 62
     7
 10
546.000556611
 20
637.1397609531
 30
0.0
 11
546.000556611
 21
639.2095322429
 31
0.0
  0
LINE
  5
322
  8
0
  6
CONTINUOUS
 62
     7
 10
543.6683470015
 20
639.2095322429
 30
0.0
 11
543.6683470015
 21
639.4101316749
 31
0.0
  0
LINE
  5
323
  8
0
  6
CONTINUOUS
 62
     7
 10
546.4891712744
 20
576.2714232027
 30
0.0
 11
546.1020735656
 21
576.6724879562
 31
0.0
  0
LINE
  5
324
  8
0
  6
CONTINUOUS
 62
     7
 10
543.6683470015
 20
576.6724879562
 30
0.0
 11
543.6683470015
 21
576.8730873882
 31
0.0
  0
ARC
  5
325
  8
0
  6
CONTINUOUS
 62
     7
 10
542.8525516896
 20
635.6990334916
 30
0.0
 40
1.60479999999597
 50
297.2880804142
 51
0.0
  0
ARC
  5
326
  8
0
  6
CONTINUOUS
 62
     7
 10
542.8525516896
 20
635.6990334916
 30
0.0
 40
1.6047999999959
 50
0.0
 51
62.5428628399
  0
ARC
  5
327
  8
0
  6
CONTINUOUS
 62
     7
 10
542.852551696
 20
630.6840334916
 30
0.0
 40
1.604799999995976
 50
297.2880807412
 51
0.0
  0
ARC
  5
328
  8
0
  6
CONTINUOUS
 62
     7
 10
542.852551696
 20
630.6840334916
 30
0.0
 40
1.604799999995976
 50
0.0
 51
62.5428625172
  0
ARC
  5
329
  8
0
  6
CONTINUOUS
 62
     7
 10
542.8525517025
 20
625.6690334916
 30
0.0
 40
1.604799999995874
 50
297.2880810683
 51
0.0
  0
ARC
  5
32A
  8
0
  6
CONTINUOUS
 62
     7
 10
542.8525517025
 20
625.6690334916
 30
0.0
 40
1.604799999995862
 50
0.0
 51
62.5428621944
  0
ARC
  5
32B
  8
0
  6
CONTINUOUS
 62
     7
 10
542.8525517089
 20
620.6540334916
 30
0.0
 40
1.604799999995904
 50
297.2880813953
 51
0.0
  0
ARC
  5
32C
  8
0
  6
CONTINUOUS
 62
     7
 10
542.8525517089
 20
620.6540334916
 30
0.0
 40
1.604799999995897
 50
0.0
 51
62.5428618717
  0
ARC
  5
32D
  8
0
  6
CONTINUOUS
 62
     7
 10
542.8525517154
 20
615.6390334916
 30
0.0
 40
1.604799999995862
 50
297.2880817224
 51
0.0
  0
ARC
  5
32E
  8
0
  6
CONTINUOUS
 62
     7
 10
542.8525517154
 20
615.6390334916
 30
0.0
 40
1.60479999999592
 50
0.0
 51
62.5428615489
  0
ARC
  5
32F
  8
0
  6
CONTINUOUS
 62
     7
 10
542.8525517219
 20
610.6240334916
 30
0.0
 40
1.604799999995862
 50
297.2880820494
 51
0.0
  0
ARC
  5
330
  8
0
  6
CONTINUOUS
 62
     7
 10
542.8525517219
 20
610.6240334916
 30
0.0
 40
1.604799999995997
 50
0.0
 51
62.5428612259
  0
ARC
  5
331
  8
0
  6
CONTINUOUS
 62
     7
 10
542.8525517283
 20
605.6090334916
 30
0.0
 40
1.604799999995862
 50
297.2880823765
 51
0.0
  0
ARC
  5
332
  8
0
  6
CONTINUOUS
 62
     7
 10
542.8525517283
 20
605.6090334916
 30
0.0
 40
1.60479999999588
 50
0.0
 51
62.5428609032
  0
ARC
  5
333
  8
0
  6
CONTINUOUS
 62
     7
 10
542.8525517348
 20
600.5940334916
 30
0.0
 40
1.60479999999582
 50
297.2880827035
 51
0.0
  0
ARC
  5
334
  8
0
  6
CONTINUOUS
 62
     7
 10
542.8525517348
 20
600.5940334916
 30
0.0
 40
1.604799999995883
 50
0.0
 51
62.5428605805
  0
ARC
  5
335
  8
0
  6
CONTINUOUS
 62
     7
 10
542.8525517413
 20
595.5790334916
 30
0.0
 40
1.604799999995976
 50
297.2880830306
 51
0.0
  0
ARC
  5
336
  8
0
  6
CONTINUOUS
 62
     7
 10
542.8525517413
 20
595.5790334916
 30
0.0
 40
1.604799999995976
 50
0.0
 51
62.5428602577
  0
ARC
  5
337
  8
0
  6
CONTINUOUS
 62
     7
 10
542.8525517477
 20
590.5640334916
 30
0.0
 40
1.604799999995862
 50
297.2880833576
 51
0.0
  0
ARC
  5
338
  8
0
  6
CONTINUOUS
 62
     7
 10
542.8525517477
 20
590.5640334916
 30
0.0
 40
1.604799999995862
 50
0.0
 51
62.5428599349
  0
ARC
  5
339
  8
0
  6
CONTINUOUS
 62
     7
 10
542.8525517542
 20
585.5490334916
 30
0.0
 40
1.604799999995908
 50
297.2880836847
 51
0.0
  0
ARC
  5
33A
  8
0
  6
CONTINUOUS
 62
     7
 10
542.8525517542
 20
585.5490334916
 30
0.0
 40
1.604799999995862
 50
0.0
 51
62.5428596121
  0
ARC
  5
33B
  8
0
  6
CONTINUOUS
 62
     7
 10
542.8525517606
 20
580.5340334916
 30
0.0
 40
1.604799999995886
 50
297.2880840117
 51
0.0
  0
ARC
  5
33C
  8
0
  6
CONTINUOUS
 62
     7
 10
542.8525517606
 20
580.5340334916
 30
0.0
 40
1.60479999999585
 50
0.0
 51
62.5428592894
  0
ARC
  5
33D
  8
0
  6
CONTINUOUS
 62
     7
 10
544.4626948084
 20
580.534033476
 30
0.0
 40
1.604799999995976
 50
293.7632252947
 51
0.0
  0
ARC
  5
33E
  8
0
  6
CONTINUOUS
 62
     7
 10
544.4626948084
 20
580.534033476
 30
0.0
 40
1.604799999995976
 50
0.0
 51
65.924696691
  0
ARC
  5
33F
  8
0
  6
CONTINUOUS
 62
     7
 10
544.4626948269
 20
585.549033476
 30
0.0
 40
1.604799999995976
 50
293.7632249413
 51
0.0
  0
ARC
  5
340
  8
0
  6
CONTINUOUS
 62
     7
 10
544.4626948269
 20
585.549033476
 30
0.0
 40
1.604799999995976
 50
0.0
 51
65.9246970413
  0
ARC
  5
341
  8
0
  6
CONTINUOUS
 62
     7
 10
544.4626948455
 20
590.564033476
 30
0.0
 40
1.604799999995911
 50
293.7632245879
 51
0.0
  0
ARC
  5
342
  8
0
  6
CONTINUOUS
 62
     7
 10
544.4626948455
 20
590.564033476
 30
0.0
 40
1.604799999995862
 50
0.0
 51
65.9246973916
  0
ARC
  5
343
  8
0
  6
CONTINUOUS
 62
     7
 10
544.462694864
 20
595.579033476
 30
0.0
 40
1.604799999995976
 50
293.7632242346
 51
0.0
  0
ARC
  5
344
  8
0
  6
CONTINUOUS
 62
     7
 10
544.462694864
 20
595.579033476
 30
0.0
 40
1.604799999995976
 50
0.0
 51
65.9246977419
  0
ARC
  5
345
  8
0
  6
CONTINUOUS
 62
     7
 10
544.4626948825
 20
600.594033476
 30
0.0
 40
1.604799999995955
 50
293.7632238812
 51
0.0
  0
ARC
  5
346
  8
0
  6
CONTINUOUS
 62
     7
 10
544.4626948825
 20
600.594033476
 30
0.0
 40
1.60479999999591
 50
0.0
 51
65.9246980922
  0
ARC
  5
347
  8
0
  6
CONTINUOUS
 62
     7
 10
544.462694901
 20
605.609033476
 30
0.0
 40
1.604799999995931
 50
293.7632235279
 51
0.0
  0
ARC
  5
348
  8
0
  6
CONTINUOUS
 62
     7
 10
544.462694901
 20
605.609033476
 30
0.0
 40
1.604799999995939
 50
0.0
 51
65.9246984425
  0
ARC
  5
349
  8
0
  6
CONTINUOUS
 62
     7
 10
544.4626949195
 20
610.624033476
 30
0.0
 40
1.604799999995953
 50
293.7632231745
 51
0.0
  0
ARC
  5
34A
  8
0
  6
CONTINUOUS
 62
     7
 10
544.4626949195
 20
610.624033476
 30
0.0
 40
1.604799999995924
 50
0.0
 51
65.9246987927
  0
ARC
  5
34B
  8
0
  6
CONTINUOUS
 62
     7
 10
544.4626949381
 20
615.639033476
 30
0.0
 40
1.604799999995862
 50
293.7632228212
 51
0.0
  0
ARC
  5
34C
  8
0
  6
CONTINUOUS
 62
     7
 10
544.4626949381
 20
615.639033476
 30
0.0
 40
1.604799999996015
 50
0.0
 51
65.9246991431
  0
ARC
  5
34D
  8
0
  6
CONTINUOUS
 62
     7
 10
544.4626949566
 20
620.654033476
 30
0.0
 40
1.604799999995862
 50
293.7632224678
 51
0.0
  0
ARC
  5
34E
  8
0
  6
CONTINUOUS
 62
     7
 10
544.4626949566
 20
620.654033476
 30
0.0
 40
1.604799999995919
 50
0.0
 51
65.9246994934
  0
ARC
  5
34F
  8
0
  6
CONTINUOUS
 62
     7
 10
544.4626949751
 20
625.669033476
 30
0.0
 40
1.604799999995915
 50
293.7632221145
 51
0.0
  0
ARC
  5
350
  8
0
  6
CONTINUOUS
 62
     7
 10
544.4626949751
 20
625.669033476
 30
0.0
 40
1.604799999995935
 50
0.0
 51
65.9246998437
  0
ARC
  5
351
  8
0
  6
CONTINUOUS
 62
     7
 10
544.4626949936
 20
630.684033476
 30
0.0
 40
1.604799999995862
 50
293.7632217611
 51
0.0
  0
ARC
  5
352
  8
0
  6
CONTINUOUS
 62
     7
 10
544.4626949936
 20
630.684033476
 30
0.0
 40
1.604799999996007
 50
0.0
 51
65.924700194
  0
ARC
  5
353
  8
0
  6
CONTINUOUS
 62
     7
 10
544.4626950122
 20
635.699033476
 30
0.0
 40
1.604799999995976
 50
293.7632214077
 51
0.0
  0
ARC
  5
354
  8
0
  6
CONTINUOUS
 62
     7
 10
544.4626950122
 20
635.699033476
 30
0.0
 40
1.604799999995976
 50
0.0
 51
65.9247005442
  0
ARC
  5
355
  8
0
  6
CONTINUOUS
 62
     7
 10
545.2936563978
 20
580.5340334679
 30
0.0
 40
1.604799999995976
 50
292.2756404757
 51
0.0
  0
ARC
  5
356
  8
0
  6
CONTINUOUS
 62
     7
 10
545.2936563978
 20
580.5340334679
 30
0.0
 40
1.604799999995976
 50
0.0
 51
67.9374258619
  0
ARC
  5
357
  8
0
  6
CONTINUOUS
 62
     7
 10
545.2936564432
 20
585.5490334679
 30
0.0
 40
1.604799999995862
 50
292.2756400972
 51
0.0
  0
ARC
  5
358
  8
0
  6
CONTINUOUS
 62
     7
 10
545.2936564432
 20
585.5490334679
 30
0.0
 40
1.604799999995868
 50
0.0
 51
67.9374262225
  0
ARC
  5
359
  8
0
  6
CONTINUOUS
 62
     7
 10
545.2936564886
 20
590.5640334679
 30
0.0
 40
1.604799999995872
 50
292.2756397188
 51
0.0
  0
ARC
  5
35A
  8
0
  6
CONTINUOUS
 62
     7
 10
545.2936564886
 20
590.5640334679
 30
0.0
 40
1.604799999995862
 50
0.0
 51
67.9374265832
  0
ARC
  5
35B
  8
0
  6
CONTINUOUS
 62
     7
 10
545.293656534
 20
595.5790334679
 30
0.0
 40
1.604799999995894
 50
292.2756393403
 51
0.0
  0
ARC
  5
35C
  8
0
  6
CONTINUOUS
 62
     7
 10
545.293656534
 20
595.5790334679
 30
0.0
 40
1.604799999995862
 50
0.0
 51
67.9374269438
  0
ARC
  5
35D
  8
0
  6
CONTINUOUS
 62
     7
 10
545.2936565794
 20
600.5940334679
 30
0.0
 40
1.604799999995862
 50
292.2756389619
 51
0.0
  0
ARC
  5
35E
  8
0
  6
CONTINUOUS
 62
     7
 10
545.2936565794
 20
600.5940334679
 30
0.0
 40
1.604799999995951
 50
0.0
 51
67.9374273045
  0
ARC
  5
35F
  8
0
  6
CONTINUOUS
 62
     7
 10
545.2936566247
 20
605.6090334679
 30
0.0
 40
1.604799999995879
 50
292.2756385834
 51
0.0
  0
ARC
  5
360
  8
0
  6
CONTINUOUS
 62
     7
 10
545.2936566247
 20
605.6090334679
 30
0.0
 40
1.604799999995993
 50
0.0
 51
67.9374276651
  0
ARC
  5
361
  8
0
  6
CONTINUOUS
 62
     7
 10
545.2936566701
 20
610.6240334679
 30
0.0
 40
1.604799999995862
 50
292.2756382049
 51
0.0
  0
ARC
  5
362
  8
0
  6
CONTINUOUS
 62
     7
 10
545.2936566701
 20
610.6240334679
 30
0.0
 40
1.60479999999595
 50
0.0
 51
67.9374280258
  0
ARC
  5
363
  8
0
  6
CONTINUOUS
 62
     7
 10
545.2936567155
 20
615.6390334679
 30
0.0
 40
1.604799999995989
 50
292.2756378265
 51
0.0
  0
ARC
  5
364
  8
0
  6
CONTINUOUS
 62
     7
 10
545.2936567155
 20
615.6390334679
 30
0.0
 40
1.60479999999593
 50
0.0
 51
67.9374283864
  0
ARC
  5
365
  8
0
  6
CONTINUOUS
 62
     7
 10
545.2936567609
 20
620.6540334679
 30
0.0
 40
1.604799999995886
 50
292.275637448
 51
0.0
  0
ARC
  5
366
  8
0
  6
CONTINUOUS
 62
     7
 10
545.2936567609
 20
620.6540334679
 30
0.0
 40
1.604799999995867
 50
0.0
 51
67.9374287471
  0
ARC
  5
367
  8
0
  6
CONTINUOUS
 62
     7
 10
545.2936568063
 20
625.6690334679
 30
0.0
 40
1.604799999995976
 50
292.2756370696
 51
0.0
  0
ARC
  5
368
  8
0
  6
CONTINUOUS
 62
     7
 10
545.2936568063
 20
625.6690334679
 30
0.0
 40
1.604799999995976
 50
0.0
 51
67.9374291077
  0
ARC
  5
369
  8
0
  6
CONTINUOUS
 62
     7
 10
545.2936568517
 20
630.6840334679
 30
0.0
 40
1.604799999995976
 50
292.2756366911
 51
0.0
  0
ARC
  5
36A
  8
0
  6
CONTINUOUS
 62
     7
 10
545.2936568517
 20
630.6840334679
 30
0.0
 40
1.604799999995976
 50
0.0
 51
67.9374294684
  0
ARC
  5
36B
  8
0
  6
CONTINUOUS
 62
     7
 10
545.2936568971
 20
635.6990334679
 30
0.0
 40
1.604799999995862
 50
292.2756363127
 51
0.0
  0
ARC
  5
36C
  8
0
  6
CONTINUOUS
 62
     7
 10
545.2936568971
 20
635.6990334679
 30
0.0
 40
1.604799999995909
 50
0.0
 51
67.937429829
  0
LINE
  5
36D
  8
0
  6
CONTINUOUS
 62
     7
 10
501.1183475707
 20
440.6597838445
 30
0.0
 11
562.7183472369
 21
440.6597838445
 31
0.0
  0
LINE
  5
36E
  8
0
  6
CONTINUOUS
 62
     7
 10
499.4183485959
 20
432.6597834646
 30
0.0
 11
564.4183462117
 21
432.6597834646
 31
0.0
  0
LINE
  5
36F
  8
0
  6
CONTINUOUS
 62
     7
 10
505.9183468674
 20
452.6597830175
 30
0.0
 11
557.9183479403
 21
452.6597830175
 31
0.0
  0
ARC
  5
370
  8
0
  6
CONTINUOUS
 62
     7
 10
535.569210872
 20
478.1597906235
 30
0.0
 40
20.00000763577204
 50
249.9999968922
 51
269.9999891957
  0
POLYLINE
  5
371
  8
0
  6
CONTINUOUS
 62
     7
 66
     1
 10
0.0
 20
0.0
 30
0.0
 70
   128
  0
VERTEX
  5
847
  8
0
  6
CONTINUOUS
 62
     7
 10
569.3336469684
 20
489.9950409948
 30
0.0
  0
VERTEX
  5
848
  8
0
  6
CONTINUOUS
 62
     7
 10
561.845748276
 20
489.9948063015
 30
0.0
  0
VERTEX
  5
849
  8
0
  6
CONTINUOUS
 62
     7
 10
554.3895797436
 20
489.9950894236
 30
0.0
  0
VERTEX
  5
84A
  8
0
  6
CONTINUOUS
 62
     7
 10
549.5939073716
 20
489.9948435544
 30
0.0
  0
VERTEX
  5
84B
  8
0
  6
CONTINUOUS
 62
     7
 10
544.8281863336
 20
489.994903159
 30
0.0
  0
VERTEX
  5
84C
  8
0
  6
CONTINUOUS
 62
     7
 10
540.1163274054
 20
489.9947578727
 30
0.0
  0
SEQEND
  5
BA8
  8
0
  6
CONTINUOUS
 62
     7
  0
LINE
  5
372
  8
0
  6
CONTINUOUS
 62
     7
 10
507.0426674192
 20
467.3990803479
 30
0.0
 11
507.0426674192
 21
488.4957755624
 31
0.0
  0
ARC
  5
373
  8
0
  6
CONTINUOUS
 62
     7
 10
508.5426676005
 20
488.4957752671
 30
0.0
 40
1.499999999999955
 50
91.9102075605
 51
180.0
  0
LINE
  5
374
  8
0
  6
CONTINUOUS
 62
     7
 10
540.1163274054
 20
489.9949404119
 30
0.0
 11
508.49266775
 21
489.9949404119
 31
0.0
  0
POLYLINE
  5
375
  8
0
  6
CONTINUOUS
 62
     7
 66
     1
 10
0.0
 20
0.0
 30
0.0
 70
   128
  0
VERTEX
  5
84D
  8
0
  6
CONTINUOUS
 62
     7
 10
528.7288043745
 20
459.3659314035
 30
0.0
  0
VERTEX
  5
84E
  8
0
  6
CONTINUOUS
 62
     7
 10
525.8097043824
 20
460.4283972352
 30
0.0
  0
VERTEX
  5
84F
  8
0
  6
CONTINUOUS
 62
     7
 10
522.9792125155
 20
461.458611366
 30
0.0
  0
VERTEX
  5
850
  8
0
  6
CONTINUOUS
 62
     7
 10
520.2780138333
 20
462.4417676299
 30
0.0
  0
VERTEX
  5
851
  8
0
  6
CONTINUOUS
 62
     7
 10
517.7449356396
 20
463.3637322753
 30
0.0
  0
VERTEX
  5
852
  8
0
  6
CONTINUOUS
 62
     7
 10
515.4163879905
 20
464.211252582
 30
0.0
  0
VERTEX
  5
853
  8
0
  6
CONTINUOUS
 62
     7
 10
513.3258407567
 20
464.972150576
 30
0.0
  0
VERTEX
  5
854
  8
0
  6
CONTINUOUS
 62
     7
 10
511.5033411984
 20
465.6354869424
 30
0.0
  0
VERTEX
  5
855
  8
0
  6
CONTINUOUS
 62
     7
 10
509.9750892822
 20
466.1917249381
 30
0.0
  0
VERTEX
  5
856
  8
0
  6
CONTINUOUS
 62
     7
 10
508.7630493198
 20
466.6328700899
 30
0.0
  0
VERTEX
  5
857
  8
0
  6
CONTINUOUS
 62
     7
 10
507.8846444939
 20
466.9525856792
 30
0.0
  0
VERTEX
  5
858
  8
0
  6
CONTINUOUS
 62
     7
 10
507.3524998133
 20
467.1462709724
 30
0.0
  0
VERTEX
  5
859
  8
0
  6
CONTINUOUS
 62
     7
 10
507.1742632989
 20
467.2111431776
 30
0.0
  0
SEQEND
  5
BA9
  8
0
  6
CONTINUOUS
 62
     7
  0
ARC
  5
376
  8
0
  6
CONTINUOUS
 62
     7
 10
507.2426676005
 20
467.3990808288
 30
0.0
 40
0.2000000000000019
 50
180.0
 51
250.0
  0
LINE
  5
377
  8
0
  6
CONTINUOUS
 62
     7
 10
548.90666768
 20
458.1597829877
 30
0.0
 11
535.5692071006
 21
458.1597829877
 31
0.0
  0
LINE
  5
378
  8
0
  6
CONTINUOUS
 62
     7
 10
555.8927865331
 20
454.124157381
 30
0.0
 11
507.9439082746
 21
454.124157381
 31
0.0
  0
POLYLINE
  5
379
  8
0
  6
CONTINUOUS
 62
     7
 66
     1
 10
0.0
 20
0.0
 30
0.0
 70
   128
  0
VERTEX
  5
85A
  8
0
  6
CONTINUOUS
 62
     7
 10
581.1171909426
 20
489.9947839497
 30
0.0
  0
VERTEX
  5
85B
  8
0
  6
CONTINUOUS
 62
     7
 10
575.2073531602
 20
489.9950782477
 30
0.0
  0
VERTEX
  5
85C
  8
0
  6
CONTINUOUS
 62
     7
 10
569.3336469684
 20
489.9950409948
 30
0.0
  0
SEQEND
  5
BAA
  8
0
  6
CONTINUOUS
 62
     7
  0
LINE
  5
37A
  8
0
  6
CONTINUOUS
 62
     7
 10
557.0426681642
 20
461.6526934027
 30
0.0
 11
557.0426681642
 21
458.359782648
 31
0.0
  0
POLYLINE
  5
37B
  8
0
  6
CONTINUOUS
 62
     7
 66
     1
 10
0.0
 20
0.0
 30
0.0
 70
   128
  0
VERTEX
  5
85D
  8
0
  6
CONTINUOUS
 62
     7
 10
557.3494625841
 20
470.4348641156
 30
0.0
  0
VERTEX
  5
85E
  8
0
  6
CONTINUOUS
 62
     7
 10
557.1282865111
 20
469.6248407184
 30
0.0
  0
VERTEX
  5
85F
  8
0
  6
CONTINUOUS
 62
     7
 10
556.9926673178
 20
468.9502018212
 30
0.0
  0
SEQEND
  5
BAB
  8
0
  6
CONTINUOUS
 62
     7
  0
POLYLINE
  5
37C
  8
0
  6
CONTINUOUS
 62
     7
 66
     1
 10
0.0
 20
0.0
 30
0.0
 70
   128
  0
VERTEX
  5
860
  8
0
  6
CONTINUOUS
 62
     7
 10
556.9926673178
 20
468.9502018212
 30
0.0
  0
VERTEX
  5
861
  8
0
  6
CONTINUOUS
 62
     7
 10
556.8577745561
 20
467.6704677462
 30
0.0
  0
VERTEX
  5
862
  8
0
  6
CONTINUOUS
 62
     7
 10
556.8456450109
 20
466.6114310442
 30
0.0
  0
SEQEND
  5
BAC
  8
0
  6
CONTINUOUS
 62
     7
  0
ARC
  5
37D
  8
0
  6
CONTINUOUS
 62
     7
 10
556.8426676005
 20
458.3597834646
 30
0.0
 40
0.2000000000000455
 50
270.0
 51
0.0
  0
LINE
  5
37E
  8
0
  6
CONTINUOUS
 62
     7
 10
556.842668504
 20
458.1597829877
 30
0.0
 11
548.90666768
 21
458.1597829877
 31
0.0
  0
LINE
  5
37F
  8
0
  6
CONTINUOUS
 62
     7
 10
581.1274019633
 20
485.1101274311
 30
0.0
 11
570.4527390753
 21
485.0356029986
 31
0.0
  0
LINE
  5
380
  8
0
  6
CONTINUOUS
 62
     7
 10
619.2599465702
 20
485.3763478517
 30
0.0
 11
581.1274019633
 21
485.1101274311
 31
0.0
  0
ARC
  5
381
  8
0
  6
CONTINUOUS
 62
     7
 10
620.5426676005
 20
486.8853396763
 30
0.0
 40
1.500000000000045
 50
270.4
 51
0.0
  0
POLYLINE
  5
382
  8
0
  6
CONTINUOUS
 62
     7
 66
     1
 10
0.0
 20
0.0
 30
0.0
 70
   128
  0
VERTEX
  5
863
  8
0
  6
CONTINUOUS
 62
     7
 10
620.5531363939
 20
485.3853779553
 30
0.0
  0
VERTEX
  5
864
  8
0
  6
CONTINUOUS
 62
     7
 10
620.5324684833
 20
485.385232669
 30
0.0
  0
VERTEX
  5
865
  8
0
  6
CONTINUOUS
 62
     7
 10
620.4769691084
 20
485.3848452388
 30
0.0
  0
VERTEX
  5
866
  8
0
  6
CONTINUOUS
 62
     7
 10
620.4312523459
 20
485.3845248639
 30
0.0
  0
VERTEX
  5
867
  8
0
  6
CONTINUOUS
 62
     7
 10
620.3895812486
 20
485.3842342912
 30
0.0
  0
VERTEX
  5
868
  8
0
  6
CONTINUOUS
 62
     7
 10
620.3352739666
 20
485.3838543116
 30
0.0
  0
VERTEX
  5
869
  8
0
  6
CONTINUOUS
 62
     7
 10
620.1271941517
 20
485.3824014484
 30
0.0
  0
VERTEX
  5
86A
  8
0
  6
CONTINUOUS
 62
     7
 10
619.3776135896
 20
485.3771711408
 30
0.0
  0
VERTEX
  5
86B
  8
0
  6
CONTINUOUS
 62
     7
 10
619.2599465702
 20
485.3763478517
 30
0.0
  0
SEQEND
  5
BAD
  8
0
  6
CONTINUOUS
 62
     7
  0
LINE
  5
383
  8
0
  6
CONTINUOUS
 62
     7
 10
622.0426639174
 20
488.4957755624
 30
0.0
 11
622.0426639174
 21
486.885340017
 31
0.0
  0
ARC
  5
384
  8
0
  6
CONTINUOUS
 62
     7
 10
620.5426676005
 20
488.4957752671
 30
0.0
 40
1.499999999999929
 50
0.0
 51
88.0897868283
  0
POLYLINE
  5
385
  8
0
  6
CONTINUOUS
 62
     7
 66
     1
 10
0.0
 20
0.0
 30
0.0
 70
   128
  0
VERTEX
  5
86C
  8
0
  6
CONTINUOUS
 62
     7
 10
557.041446269
 20
464.7010276734
 30
0.0
  0
VERTEX
  5
86D
  8
0
  6
CONTINUOUS
 62
     7
 10
557.0149240647
 20
464.86325289
 30
0.0
  0
VERTEX
  5
86E
  8
0
  6
CONTINUOUS
 62
     7
 10
556.9926673178
 20
465.0072502612
 30
0.0
  0
SEQEND
  5
BAE
  8
0
  6
CONTINUOUS
 62
     7
  0
LINE
  5
386
  8
0
  6
CONTINUOUS
 62
     7
 10
556.9926673178
 20
465.0072502612
 30
0.0
 11
556.9926673178
 21
468.9502018212
 31
0.0
  0
LINE
  5
387
  8
0
  6
CONTINUOUS
 62
     7
 10
557.3495221887
 20
470.4357097565
 30
0.0
 11
557.5932157789
 21
471.1316126107
 31
0.0
  0
POLYLINE
  5
388
  8
0
  6
CONTINUOUS
 62
     7
 66
     1
 10
0.0
 20
0.0
 30
0.0
 70
   128
  0
VERTEX
  5
86F
  8
0
  6
CONTINUOUS
 62
     7
 10
556.9926673178
 20
465.0072502612
 30
0.0
  0
VERTEX
  5
870
  8
0
  6
CONTINUOUS
 62
     7
 10
556.9024501
 20
465.7531316101
 30
0.0
  0
VERTEX
  5
871
  8
0
  6
CONTINUOUS
 62
     7
 10
556.8450769041
 20
466.6114720224
 30
0.0
  0
SEQEND
  5
BAF
  8
0
  6
CONTINUOUS
 62
     7
  0
POLYLINE
  5
389
  8
0
  6
CONTINUOUS
 62
     7
 66
     1
 10
0.0
 20
0.0
 30
0.0
 70
   128
  0
VERTEX
  5
872
  8
0
  6
CONTINUOUS
 62
     7
 10
557.5932157789
 20
471.1316126107
 30
0.0
  0
VERTEX
  5
873
  8
0
  6
CONTINUOUS
 62
     7
 10
557.6907755439
 20
471.3568175851
 30
0.0
  0
VERTEX
  5
874
  8
0
  6
CONTINUOUS
 62
     7
 10
557.7062951033
 20
471.3847945153
 30
0.0
  0
VERTEX
  5
875
  8
0
  6
CONTINUOUS
 62
     7
 10
557.7199725066
 20
471.4025604247
 30
0.0
  0
VERTEX
  5
876
  8
0
  6
CONTINUOUS
 62
     7
 10
557.7235320215
 20
471.4027243375
 30
0.0
  0
VERTEX
  5
877
  8
0
  6
CONTINUOUS
 62
     7
 10
557.7247632299
 20
471.3945845782
 30
0.0
  0
VERTEX
  5
878
  8
0
  6
CONTINUOUS
 62
     7
 10
557.7233904604
 20
471.3830063759
 30
0.0
  0
SEQEND
  5
BB0
  8
0
  6
CONTINUOUS
 62
     7
  0
LINE
  5
38A
  8
0
  6
CONTINUOUS
 62
     7
 10
563.5748920594
 20
432.6547834647
 30
0.0
 11
500.2618027483
 21
432.6547834647
 31
0.0
  0
POLYLINE
  5
38B
  8
0
  6
CONTINUOUS
 62
     7
 66
     1
 10
0.0
 20
0.0
 30
0.0
 70
   128
  0
VERTEX
  5
879
  8
0
  6
CONTINUOUS
 62
     7
 10
535.4163074498
 20
540.6879047572
 30
0.0
  0
VERTEX
  5
87A
  8
0
  6
CONTINUOUS
 62
     7
 10
543.4018928189
 20
540.6885902106
 30
0.0
  0
VERTEX
  5
87B
  8
0
  6
CONTINUOUS
 62
     7
 10
551.4048603926
 20
540.6880835711
 30
0.0
  0
VERTEX
  5
87C
  8
0
  6
CONTINUOUS
 62
     7
 10
559.0515737985
 20
540.6872714578
 30
0.0
  0
SEQEND
  5
BB1
  8
0
  6
CONTINUOUS
 62
     7
  0
LINE
  5
38C
  8
0
  6
CONTINUOUS
 62
     7
 10
508.0909026418
 20
540.6872714578
 30
0.0
 11
531.9183474038
 21
540.6872714578
 31
0.0
  0
ARC
  5
38D
  8
0
  6
CONTINUOUS
 62
     7
 10
508.1183474038
 20
539.487582321
 30
0.0
 40
1.200000000000102
 50
91.3105291385
 51
180.0
  0
LINE
  5
38E
  8
0
  6
CONTINUOUS
 62
     7
 10
506.9183470313
 20
539.4875789701
 30
0.0
 11
506.9183470313
 21
527.191282314
 31
0.0
  0
LINE
  5
38F
  8
0
  6
CONTINUOUS
 62
     7
 10
506.9183470313
 20
527.191282314
 30
0.0
 11
506.9183470313
 21
452.6597830175
 31
0.0
  0
LINE
  5
390
  8
0
  6
CONTINUOUS
 62
     7
 10
556.9183477764
 20
452.6597830175
 30
0.0
 11
556.9183477764
 21
458.1746543466
 31
0.0
  0
LINE
  5
391
  8
0
  6
CONTINUOUS
 62
     7
 10
556.9183477764
 20
490.3172152757
 30
0.0
 11
556.9183477764
 21
491.2009062885
 31
0.0
  0
POLYLINE
  5
392
  8
0
  6
CONTINUOUS
 62
     7
 66
     1
 10
0.0
 20
0.0
 30
0.0
 70
   128
  0
VERTEX
  5
87D
  8
0
  6
CONTINUOUS
 62
     7
 10
760.4677831386
 20
540.7662178098
 30
0.0
  0
VERTEX
  5
87E
  8
0
  6
CONTINUOUS
 62
     7
 10
741.9293528055
 20
540.7780716835
 30
0.0
  0
VERTEX
  5
87F
  8
0
  6
CONTINUOUS
 62
     7
 10
723.7576847528
 20
540.7933900772
 30
0.0
  0
VERTEX
  5
880
  8
0
  6
CONTINUOUS
 62
     7
 10
705.7572906469
 20
540.8099676191
 30
0.0
  0
VERTEX
  5
881
  8
0
  6
CONTINUOUS
 62
     7
 10
687.5861739372
 20
540.8251295506
 30
0.0
  0
VERTEX
  5
882
  8
0
  6
CONTINUOUS
 62
     7
 10
669.5242529367
 20
540.8410737931
 30
0.0
  0
VERTEX
  5
883
  8
0
  6
CONTINUOUS
 62
     7
 10
651.5506958221
 20
540.8567945181
 30
0.0
  0
VERTEX
  5
884
  8
0
  6
CONTINUOUS
 62
     7
 10
633.1502055381
 20
540.8720905601
 30
0.0
  0
VERTEX
  5
885
  8
0
  6
CONTINUOUS
 62
     7
 10
621.945657358
 20
540.8817167102
 30
0.0
  0
VERTEX
  5
886
  8
0
  6
CONTINUOUS
 62
     7
 10
611.1101364349
 20
540.8917824446
 30
0.0
  0
VERTEX
  5
887
  8
0
  6
CONTINUOUS
 62
     7
 10
600.2985020731
 20
540.901848179
 30
0.0
  0
VERTEX
  5
888
  8
0
  6
CONTINUOUS
 62
     7
 10
588.9599924539
 20
540.9112508117
 30
0.0
  0
VERTEX
  5
889
  8
0
  6
CONTINUOUS
 62
     7
 10
577.0949205015
 20
540.9200052439
 30
0.0
  0
VERTEX
  5
88A
  8
0
  6
CONTINUOUS
 62
     7
 10
570.7714041327
 20
540.9250790893
 30
0.0
  0
VERTEX
  5
88B
  8
0
  6
CONTINUOUS
 62
     7
 10
564.8805280779
 20
540.9307117282
 30
0.0
  0
VERTEX
  5
88C
  8
0
  6
CONTINUOUS
 62
     7
 10
559.6411307905
 20
540.937163931
 30
0.0
  0
VERTEX
  5
88D
  8
0
  6
CONTINUOUS
 62
     7
 10
554.8843038832
 20
540.9442121803
 30
0.0
  0
VERTEX
  5
88E
  8
0
  6
CONTINUOUS
 62
     7
 10
551.8237320338
 20
540.9485409676
 30
0.0
  0
VERTEX
  5
88F
  8
0
  6
CONTINUOUS
 62
     7
 10
548.4843128924
 20
540.9524823247
 30
0.0
  0
VERTEX
  5
890
  8
0
  6
CONTINUOUS
 62
     7
 10
544.6731881802
 20
540.9558127343
 30
0.0
  0
VERTEX
  5
891
  8
0
  6
CONTINUOUS
 62
     7
 10
540.2105521042
 20
540.9582639753
 30
0.0
  0
VERTEX
  5
892
  8
0
  6
CONTINUOUS
 62
     7
 10
534.9183474299
 20
540.9596050798
 30
0.0
  0
SEQEND
  5
BB2
  8
0
  6
CONTINUOUS
 62
     7
  0
LINE
  5
393
  8
0
  6
CONTINUOUS
 62
     7
 10
760.5823134635
 20
540.7616580545
 30
0.0
 11
760.5527942632
 21
540.7628352462
 31
0.0
  0
POLYLINE
  5
394
  8
0
  6
CONTINUOUS
 62
     7
 66
     1
 10
0.0
 20
0.0
 30
0.0
 70
   128
  0
VERTEX
  5
893
  8
0
  6
CONTINUOUS
 62
     7
 10
531.9183474038
 20
540.9556190192
 30
0.0
  0
VERTEX
  5
894
  8
0
  6
CONTINUOUS
 62
     7
 10
532.9113621828
 20
540.9560362517
 30
0.0
  0
VERTEX
  5
895
  8
0
  6
CONTINUOUS
 62
     7
 10
533.7924219765
 20
540.957131487
 30
0.0
  0
VERTEX
  5
896
  8
0
  6
CONTINUOUS
 62
     7
 10
534.4621963431
 20
540.9584427892
 30
0.0
  0
VERTEX
  5
897
  8
0
  6
CONTINUOUS
 62
     7
 10
534.8451720182
 20
540.9593890129
 30
0.0
  0
VERTEX
  5
898
  8
0
  6
CONTINUOUS
 62
     7
 10
534.9183474299
 20
540.9596050798
 30
0.0
  0
SEQEND
  5
BB3
  8
0
  6
CONTINUOUS
 62
     7
  0
ARC
  5
395
  8
0
  6
CONTINUOUS
 62
     7
 10
531.9183474038
 20
-500.8568832027
 30
0.0
 40
1041.816666667312
 50
90.1649883147
 51
91.3105291385
  0
LINE
  5
396
  8
0
  6
CONTINUOUS
 62
     7
 10
531.9183474039
 20
540.955462557
 30
0.0
 11
528.9183473778
 21
540.955462557
 31
0.0
  0
LINE
  5
397
  8
0
  6
CONTINUOUS
 62
     7
 10
768.418342397
 20
539.4693623005
 30
0.0
 11
768.418342397
 21
528.5482714592
 31
0.0
  0
POLYLINE
  5
398
  8
0
  6
CONTINUOUS
 62
     7
 66
     1
 10
0.0
 20
0.0
 30
0.0
 70
   128
  0
VERTEX
  5
899
  8
0
  6
CONTINUOUS
 62
     7
 10
737.9998271917
 20
520.4701135575
 30
0.0
  0
VERTEX
  5
89A
  8
0
  6
CONTINUOUS
 62
     7
 10
738.1097232555
 20
520.4894925176
 30
0.0
  0
VERTEX
  5
89B
  8
0
  6
CONTINUOUS
 62
     7
 10
738.6304741357
 20
520.5813134729
 30
0.0
  0
VERTEX
  5
89C
  8
0
  6
CONTINUOUS
 62
     7
 10
739.45823364
 20
520.7272703468
 30
0.0
  0
VERTEX
  5
89D
  8
0
  6
CONTINUOUS
 62
     7
 10
740.6196450446
 20
520.9320644556
 30
0.0
  0
VERTEX
  5
89E
  8
0
  6
CONTINUOUS
 62
     7
 10
742.0168673251
 20
521.1784253537
 30
0.0
  0
VERTEX
  5
89F
  8
0
  6
CONTINUOUS
 62
     7
 10
743.6897610877
 20
521.4734012901
 30
0.0
  0
VERTEX
  5
8A0
  8
0
  6
CONTINUOUS
 62
     7
 10
745.5058103059
 20
521.7936197936
 30
0.0
  0
VERTEX
  5
8A1
  8
0
  6
CONTINUOUS
 62
     7
 10
747.5109254573
 20
522.1471796452
 30
0.0
  0
VERTEX
  5
8A2
  8
0
  6
CONTINUOUS
 62
     7
 10
750.2512937043
 20
522.6303795992
 30
0.0
  0
SEQEND
  5
BB4
  8
0
  6
CONTINUOUS
 62
     7
  0
POLYLINE
  5
399
  8
0
  6
CONTINUOUS
 62
     7
 66
     1
 10
0.0
 20
0.0
 30
0.0
 70
   128
  0
VERTEX
  5
8A3
  8
0
  6
CONTINUOUS
 62
     7
 10
737.9412358259
 20
520.459712547
 30
0.0
  0
VERTEX
  5
8A4
  8
0
  6
CONTINUOUS
 62
     7
 10
731.9412236665
 20
520.4022313177
 30
0.0
  0
VERTEX
  5
8A5
  8
0
  6
CONTINUOUS
 62
     7
 10
725.9412264083
 20
520.3447426378
 30
0.0
  0
SEQEND
  5
BB5
  8
0
  6
CONTINUOUS
 62
     7
  0
LINE
  5
39A
  8
0
  6
CONTINUOUS
 62
     7
 10
687.9104381059
 20
519.9795077263
 30
0.0
 11
725.9412264083
 21
520.3445861756
 31
0.0
  0
POLYLINE
  5
39B
  8
0
  6
CONTINUOUS
 62
     7
 66
     1
 10
0.0
 20
0.0
 30
0.0
 70
   128
  0
VERTEX
  5
8A6
  8
0
  6
CONTINUOUS
 62
     7
 10
767.7364354585
 20
527.2855247079
 30
0.0
  0
VERTEX
  5
8A7
  8
0
  6
CONTINUOUS
 62
     7
 10
764.8680960391
 20
525.8332724391
 30
0.0
  0
VERTEX
  5
8A8
  8
0
  6
CONTINUOUS
 62
     7
 10
762.5614260886
 20
524.8009870469
 30
0.0
  0
SEQEND
  5
BB6
  8
0
  6
CONTINUOUS
 62
     7
  0
POLYLINE
  5
39C
  8
0
  6
CONTINUOUS
 62
     7
 66
     1
 10
0.0
 20
0.0
 30
0.0
 70
   128
  0
VERTEX
  5
8A9
  8
0
  6
CONTINUOUS
 62
     7
 10
762.5614260886
 20
524.8009870469
 30
0.0
  0
VERTEX
  5
8AA
  8
0
  6
CONTINUOUS
 62
     7
 10
762.3942499612
 20
524.77151255
 30
0.0
  0
VERTEX
  5
8AB
  8
0
  6
CONTINUOUS
 62
     7
 10
761.898920462
 20
524.6841693937
 30
0.0
  0
VERTEX
  5
8AC
  8
0
  6
CONTINUOUS
 62
     7
 10
761.0616242145
 20
524.5365361391
 30
0.0
  0
VERTEX
  5
8AD
  8
0
  6
CONTINUOUS
 62
     7
 10
759.9196439241
 20
524.3351692974
 30
0.0
  0
VERTEX
  5
8AE
  8
0
  6
CONTINUOUS
 62
     7
 10
758.5051511977
 20
524.0857536613
 30
0.0
  0
VERTEX
  5
8AF
  8
0
  6
CONTINUOUS
 62
     7
 10
756.8601077054
 20
523.7956876575
 30
0.0
  0
VERTEX
  5
8B0
  8
0
  6
CONTINUOUS
 62
     7
 10
755.0110673164
 20
523.4696577012
 30
0.0
  0
VERTEX
  5
8B1
  8
0
  6
CONTINUOUS
 62
     7
 10
753.0253832792
 20
523.1195251166
 30
0.0
  0
VERTEX
  5
8B2
  8
0
  6
CONTINUOUS
 62
     7
 10
750.2512937043
 20
522.6303795992
 30
0.0
  0
SEQEND
  5
BB7
  8
0
  6
CONTINUOUS
 62
     7
  0
LINE
  5
39D
  8
0
  6
CONTINUOUS
 62
     7
 10
762.8879850362
 20
540.7598624646
 30
0.0
 11
763.2449274514
 21
540.7592142641
 31
0.0
  0
LINE
  5
39E
  8
0
  6
CONTINUOUS
 62
     7
 10
763.2449274514
 20
540.7592142641
 30
0.0
 11
767.2536378358
 21
540.6986112415
 31
0.0
  0
ARC
  5
39F
  8
0
  6
CONTINUOUS
 62
     7
 10
767.1183835369
 20
528.4291613901
 30
0.0
 40
1.299958860334958
 50
298.3879762504
 51
0.0008810125
  0
LINE
  5
3A0
  8
0
  6
CONTINUOUS
 62
     7
 10
768.418342397
 20
539.49912737
 30
0.0
 11
768.418342397
 21
539.4693623005
 31
0.0
  0
ARC
  5
3A1
  8
0
  6
CONTINUOUS
 62
     7
 10
767.2183462894
 20
539.4991342032
 30
0.0
 40
1.199996107706494
 50
359.9996737366
 51
88.3147043104
  0
POLYLINE
  5
3A2
  8
0
  6
CONTINUOUS
 62
     7
 66
     1
 10
0.0
 20
0.0
 30
0.0
 70
   128
  0
VERTEX
  5
8B3
  8
0
  6
CONTINUOUS
 62
     7
 10
762.9238074277
 20
519.866422814
 30
0.0
  0
VERTEX
  5
8B4
  8
0
  6
CONTINUOUS
 62
     7
 10
762.8768240665
 20
519.8581377684
 30
0.0
  0
VERTEX
  5
8B5
  8
0
  6
CONTINUOUS
 62
     7
 10
762.5031476472
 20
519.7922522842
 30
0.0
  0
VERTEX
  5
8B6
  8
0
  6
CONTINUOUS
 62
     7
 10
761.7676859353
 20
519.6625674783
 30
0.0
  0
VERTEX
  5
8B7
  8
0
  6
CONTINUOUS
 62
     7
 10
760.6937592481
 20
519.4732035219
 30
0.0
  0
VERTEX
  5
8B8
  8
0
  6
CONTINUOUS
 62
     7
 10
759.3154614423
 20
519.2301730334
 30
0.0
  0
VERTEX
  5
8B9
  8
0
  6
CONTINUOUS
 62
     7
 10
757.6765721296
 20
518.9411948143
 30
0.0
  0
VERTEX
  5
8BA
  8
0
  6
CONTINUOUS
 62
     7
 10
755.8290814613
 20
518.6154330789
 30
0.0
  0
SEQEND
  5
BB8
  8
0
  6
CONTINUOUS
 62
     7
  0
LINE
  5
3A3
  8
0
  6
CONTINUOUS
 62
     7
 10
755.8290814613
 20
518.6154330789
 30
0.0
 11
755.234748647
 21
521.9860831915
 31
0.0
  0
POLYLINE
  5
3A4
  8
0
  6
CONTINUOUS
 62
     7
 66
     1
 10
0.0
 20
0.0
 30
0.0
 70
   128
  0
VERTEX
  5
8BB
  8
0
  6
CONTINUOUS
 62
     7
 10
745.7887982581
 20
520.3205058991
 30
0.0
  0
VERTEX
  5
8BC
  8
0
  6
CONTINUOUS
 62
     7
 10
746.9252204154
 20
520.5208892642
 30
0.0
  0
VERTEX
  5
8BD
  8
0
  6
CONTINUOUS
 62
     7
 10
748.0995064233
 20
520.7279483496
 30
0.0
  0
VERTEX
  5
8BE
  8
0
  6
CONTINUOUS
 62
     7
 10
749.2992436145
 20
520.9394926845
 30
0.0
  0
VERTEX
  5
8BF
  8
0
  6
CONTINUOUS
 62
     7
 10
750.5117809032
 20
521.1532945453
 30
0.0
  0
VERTEX
  5
8C0
  8
0
  6
CONTINUOUS
 62
     7
 10
751.7243181918
 20
521.3670964061
 30
0.0
  0
VERTEX
  5
8C1
  8
0
  6
CONTINUOUS
 62
     7
 10
752.924055383
 20
521.5786481916
 30
0.0
  0
VERTEX
  5
8C2
  8
0
  6
CONTINUOUS
 62
     7
 10
754.0983264898
 20
521.7856998264
 30
0.0
  0
VERTEX
  5
8C3
  8
0
  6
CONTINUOUS
 62
     7
 10
755.234748647
 20
521.9860831915
 30
0.0
  0
SEQEND
  5
BB9
  8
0
  6
CONTINUOUS
 62
     7
  0
LINE
  5
3A5
  8
0
  6
CONTINUOUS
 62
     7
 10
745.7887982581
 20
520.3205058991
 30
0.0
 11
746.3831459735
 21
516.9498557865
 31
0.0
  0
POLYLINE
  5
3A6
  8
0
  6
CONTINUOUS
 62
     7
 66
     1
 10
0.0
 20
0.0
 30
0.0
 70
   128
  0
VERTEX
  5
8C4
  8
0
  6
CONTINUOUS
 62
     7
 10
746.3831459735
 20
516.9498557865
 30
0.0
  0
VERTEX
  5
8C5
  8
0
  6
CONTINUOUS
 62
     7
 10
744.5356553052
 20
516.624094051
 30
0.0
  0
VERTEX
  5
8C6
  8
0
  6
CONTINUOUS
 62
     7
 10
742.8967659925
 20
516.335115832
 30
0.0
  0
VERTEX
  5
8C7
  8
0
  6
CONTINUOUS
 62
     7
 10
741.5184681867
 20
516.0920853435
 30
0.0
  0
VERTEX
  5
8C8
  8
0
  6
CONTINUOUS
 62
     7
 10
740.4445414995
 20
515.902721387
 30
0.0
  0
VERTEX
  5
8C9
  8
0
  6
CONTINUOUS
 62
     7
 10
739.7090797876
 20
515.7730365812
 30
0.0
  0
VERTEX
  5
8CA
  8
0
  6
CONTINUOUS
 62
     7
 10
739.3354033683
 20
515.707151097
 30
0.0
  0
VERTEX
  5
8CB
  8
0
  6
CONTINUOUS
 62
     7
 10
739.2884200071
 20
515.6988660513
 30
0.0
  0
SEQEND
  5
BBA
  8
0
  6
CONTINUOUS
 62
     7
  0
LINE
  5
3A7
  8
0
  6
CONTINUOUS
 62
     7
 10
531.9183474038
 20
548.5597858845
 30
0.0
 11
521.2183469538
 21
548.5597858845
 31
0.0
  0
LINE
  5
3A8
  8
0
  6
CONTINUOUS
 62
     7
 10
542.6183478539
 20
548.5597858845
 30
0.0
 11
531.9183474038
 21
548.5597858845
 31
0.0
  0
POLYLINE
  5
3A9
  8
0
  6
CONTINUOUS
 62
     7
 66
     1
 10
0.0
 20
0.0
 30
0.0
 70
   128
  0
VERTEX
  5
8CC
  8
0
  6
CONTINUOUS
 62
     7
 10
751.2063687299
 20
517.2140682756
 30
0.0
  0
VERTEX
  5
8CD
  8
0
  6
CONTINUOUS
 62
     7
 10
749.2158269141
 20
516.8630788742
 30
0.0
  0
VERTEX
  5
8CE
  8
0
  6
CONTINUOUS
 62
     7
 10
747.2930853818
 20
516.5240476548
 30
0.0
  0
VERTEX
  5
8CF
  8
0
  6
CONTINUOUS
 62
     7
 10
745.5035900329
 20
516.2085081159
 30
0.0
  0
VERTEX
  5
8D0
  8
0
  6
CONTINUOUS
 62
     7
 10
743.9083015178
 20
515.927218896
 30
0.0
  0
VERTEX
  5
8D1
  8
0
  6
CONTINUOUS
 62
     7
 10
742.5615345691
 20
515.6897465407
 30
0.0
  0
VERTEX
  5
8D2
  8
0
  6
CONTINUOUS
 62
     7
 10
741.5091698621
 20
515.5041898309
 30
0.0
  0
VERTEX
  5
8D3
  8
0
  6
CONTINUOUS
 62
     7
 10
740.7870148872
 20
515.3768519579
 30
0.0
  0
VERTEX
  5
8D4
  8
0
  6
CONTINUOUS
 62
     7
 10
740.4197012637
 20
515.3120840608
 30
0.0
  0
VERTEX
  5
8D5
  8
0
  6
CONTINUOUS
 62
     7
 10
740.3734778617
 20
515.3039331256
 30
0.0
  0
SEQEND
  5
BBB
  8
0
  6
CONTINUOUS
 62
     7
  0
LINE
  5
3AA
  8
0
  6
CONTINUOUS
 62
     7
 10
746.3831459735
 20
516.9498557865
 30
0.0
 11
751.2063687299
 21
517.2140682756
 31
0.0
  0
POLYLINE
  5
3AB
  8
0
  6
CONTINUOUS
 62
     7
 66
     1
 10
0.0
 20
0.0
 30
0.0
 70
   128
  0
VERTEX
  5
8D6
  8
0
  6
CONTINUOUS
 62
     7
 10
751.2063687299
 20
517.2140682756
 30
0.0
  0
VERTEX
  5
8D7
  8
0
  6
CONTINUOUS
 62
     7
 10
752.3921137307
 20
517.4620906531
 30
0.0
  0
VERTEX
  5
8D8
  8
0
  6
CONTINUOUS
 62
     7
 10
755.8290814613
 20
518.6154330789
 30
0.0
  0
SEQEND
  5
BBC
  8
0
  6
CONTINUOUS
 62
     7
  0
POLYLINE
  5
3AC
  8
0
  6
CONTINUOUS
 62
     7
 66
     1
 10
0.0
 20
0.0
 30
0.0
 70
   128
  0
VERTEX
  5
8D9
  8
0
  6
CONTINUOUS
 62
     7
 10
762.0392595981
 20
519.124195975
 30
0.0
  0
VERTEX
  5
8DA
  8
0
  6
CONTINUOUS
 62
     7
 10
761.9930361961
 20
519.1160450398
 30
0.0
  0
VERTEX
  5
8DB
  8
0
  6
CONTINUOUS
 62
     7
 10
761.6257225726
 20
519.0512771427
 30
0.0
  0
VERTEX
  5
8DC
  8
0
  6
CONTINUOUS
 62
     7
 10
760.9035675977
 20
518.9239467203
 30
0.0
  0
VERTEX
  5
8DD
  8
0
  6
CONTINUOUS
 62
     7
 10
759.8512028907
 20
518.7383825599
 30
0.0
  0
VERTEX
  5
8DE
  8
0
  6
CONTINUOUS
 62
     7
 10
758.504435942
 20
518.5009102045
 30
0.0
  0
VERTEX
  5
8DF
  8
0
  6
CONTINUOUS
 62
     7
 10
756.9091474269
 20
518.2196209847
 30
0.0
  0
VERTEX
  5
8E0
  8
0
  6
CONTINUOUS
 62
     7
 10
755.119652078
 20
517.9040814458
 30
0.0
  0
VERTEX
  5
8E1
  8
0
  6
CONTINUOUS
 62
     7
 10
753.1969105457
 20
517.5650502263
 30
0.0
  0
VERTEX
  5
8E2
  8
0
  6
CONTINUOUS
 62
     7
 10
751.2063687299
 20
517.2140682756
 30
0.0
  0
SEQEND
  5
BBD
  8
0
  6
CONTINUOUS
 62
     7
  0
LINE
  5
3AD
  8
0
  6
CONTINUOUS
 62
     7
 10
582.2079410408
 20
518.9648057043
 30
0.0
 11
687.9104381059
 21
519.9795077263
 31
0.0
  0
POLYLINE
  5
3AE
  8
0
  6
CONTINUOUS
 62
     7
 66
     1
 10
0.0
 20
0.0
 30
0.0
 70
   128
  0
VERTEX
  5
8E3
  8
0
  6
CONTINUOUS
 62
     7
 10
760.5057363961
 20
540.7647425949
 30
0.0
  0
VERTEX
  5
8E4
  8
0
  6
CONTINUOUS
 62
     7
 10
760.4984050248
 20
540.7650406181
 30
0.0
  0
VERTEX
  5
8E5
  8
0
  6
CONTINUOUS
 62
     7
 10
760.4677831386
 20
540.7662178098
 30
0.0
  0
SEQEND
  5
BBE
  8
0
  6
CONTINUOUS
 62
     7
  0
LINE
  5
3AF
  8
0
  6
CONTINUOUS
 62
     7
 10
563.6814800654
 20
432.6547834647
 30
0.0
 11
563.5748920594
 21
432.6547834647
 31
0.0
  0
LINE
  5
3B0
  8
0
  6
CONTINUOUS
 62
     7
 10
500.2618027483
 20
432.6547834647
 30
0.0
 11
500.1552147423
 21
432.6547834647
 31
0.0
  0
LINE
  5
3B1
  8
0
  6
CONTINUOUS
 62
     7
 10
515.3532145177
 20
656.0097868263
 30
0.0
 11
548.48348029
 21
656.0097868263
 31
0.0
  0
LINE
  5
3B2
  8
0
  6
CONTINUOUS
 62
     7
 10
548.8915336881
 20
645.4782868444
 30
0.0
 11
514.9451611195
 21
645.4782868444
 31
0.0
  0
LINE
  5
3B3
  8
0
  6
CONTINUOUS
 62
     7
 10
517.3835852747
 20
571.0225636779
 30
0.0
 11
546.453109533
 21
571.0225636779
 31
0.0
  0
LINE
  5
3B4
  8
0
  6
CONTINUOUS
 62
     7
 10
541.9483469431
 20
576.6299153387
 30
0.0
 11
541.9483469431
 21
641.3919712125
 31
0.0
  0
LINE
  5
3B5
  8
0
  6
CONTINUOUS
 62
     7
 10
542.4321513255
 20
639.4101316749
 30
0.0
 11
546.2563303862
 21
639.4101316749
 31
0.0
  0
LINE
  5
3B6
  8
0
  6
CONTINUOUS
 62
     7
 10
542.4321513255
 20
639.4101316749
 30
0.0
 11
542.1932763983
 21
639.3699134408
 31
0.0
  0
ARC
  5
3B7
  8
0
  6
CONTINUOUS
 62
     7
 10
542.2518749496
 20
577.0123678885
 30
0.0
 40
0.3046641107325166
 50
175.0503883261
 51
257.8670263169
  0
POLYLINE
  5
3B8
  8
0
  6
CONTINUOUS
 62
     7
 66
     1
 10
0.0
 20
0.0
 30
0.0
 70
   128
  0
VERTEX
  5
8E6
  8
0
  6
CONTINUOUS
 62
     7
 10
544.4626524676
 20
581.1970765411
 30
0.0
  0
VERTEX
  5
8E7
  8
0
  6
CONTINUOUS
 62
     7
 10
544.4069333006
 20
580.8683122217
 30
0.0
  0
VERTEX
  5
8E8
  8
0
  6
CONTINUOUS
 62
     7
 10
544.4031791393
 20
580.8008248626
 30
0.0
  0
SEQEND
  5
BBF
  8
0
  6
CONTINUOUS
 62
     7
  0
LINE
  5
3B9
  8
0
  6
CONTINUOUS
 62
     7
 10
544.4094124813
 20
580.1851982891
 30
0.0
 11
544.4626953085
 21
579.8708433925
 31
0.0
  0
POLYLINE
  5
3BA
  8
0
  6
CONTINUOUS
 62
     7
 66
     1
 10
0.0
 20
0.0
 30
0.0
 70
   128
  0
VERTEX
  5
8E9
  8
0
  6
CONTINUOUS
 62
     7
 10
544.4626953085
 20
579.8708433925
 30
0.0
  0
VERTEX
  5
8EA
  8
0
  6
CONTINUOUS
 62
     7
 10
544.5751105998
 20
579.5171643316
 30
0.0
  0
VERTEX
  5
8EB
  8
0
  6
CONTINUOUS
 62
     7
 10
544.7109859069
 20
579.2645747482
 30
0.0
  0
VERTEX
  5
8EC
  8
0
  6
CONTINUOUS
 62
     7
 10
544.8656813805
 20
579.1018987714
 30
0.0
  0
VERTEX
  5
8ED
  8
0
  6
CONTINUOUS
 62
     7
 10
545.0225812946
 20
579.0463472425
 30
0.0
  0
SEQEND
  5
BC0
  8
0
  6
CONTINUOUS
 62
     7
  0
LINE
  5
3BB
  8
0
  6
CONTINUOUS
 62
     7
 10
545.0225812946
 20
579.0463472425
 30
0.0
 11
545.1065633078
 21
579.071634513
 31
0.0
  0
LINE
  5
3BC
  8
0
  6
CONTINUOUS
 62
     7
 10
545.1045218487
 20
581.9778526842
 30
0.0
 11
545.0225812946
 21
582.0217217027
 31
0.0
  0
ARC
  5
3BD
  8
0
  6
CONTINUOUS
 62
     7
 10
545.405870455
 20
581.1591031576
 30
0.0
 40
0.9439392644133798
 50
113.9571164521
 51
177.6944471311
  0
POLYLINE
  5
3BE
  8
0
  6
CONTINUOUS
 62
     7
 66
     1
 10
0.0
 20
0.0
 30
0.0
 70
   128
  0
VERTEX
  5
8EE
  8
0
  6
CONTINUOUS
 62
     7
 10
544.4626524676
 20
586.212077242
 30
0.0
  0
VERTEX
  5
8EF
  8
0
  6
CONTINUOUS
 62
     7
 10
544.406934232
 20
585.8833278238
 30
0.0
  0
VERTEX
  5
8F0
  8
0
  6
CONTINUOUS
 62
     7
 10
544.4031791393
 20
585.8158106624
 30
0.0
  0
SEQEND
  5
BC1
  8
0
  6
CONTINUOUS
 62
     7
  0
LINE
  5
3BF
  8
0
  6
CONTINUOUS
 62
     7
 10
544.4094124813
 20
585.20019899
 30
0.0
 11
544.4626953085
 21
584.8858440935
 31
0.0
  0
POLYLINE
  5
3C0
  8
0
  6
CONTINUOUS
 62
     7
 66
     1
 10
0.0
 20
0.0
 30
0.0
 70
   128
  0
VERTEX
  5
8F1
  8
0
  6
CONTINUOUS
 62
     7
 10
544.4626953085
 20
584.8858440935
 30
0.0
  0
VERTEX
  5
8F2
  8
0
  6
CONTINUOUS
 62
     7
 10
544.5751105998
 20
584.5321650325
 30
0.0
  0
VERTEX
  5
8F3
  8
0
  6
CONTINUOUS
 62
     7
 10
544.7109859069
 20
584.2795754491
 30
0.0
  0
VERTEX
  5
8F4
  8
0
  6
CONTINUOUS
 62
     7
 10
544.8656813805
 20
584.1168994724
 30
0.0
  0
VERTEX
  5
8F5
  8
0
  6
CONTINUOUS
 62
     7
 10
545.0225812946
 20
584.0613479434
 30
0.0
  0
SEQEND
  5
BC2
  8
0
  6
CONTINUOUS
 62
     7
  0
LINE
  5
3C1
  8
0
  6
CONTINUOUS
 62
     7
 10
545.0225812946
 20
584.0613479434
 30
0.0
 11
545.1065633078
 21
584.086635214
 31
0.0
  0
LINE
  5
3C2
  8
0
  6
CONTINUOUS
 62
     7
 10
545.1045218487
 20
586.9928533851
 30
0.0
 11
545.0225812946
 21
587.0367224037
 31
0.0
  0
ARC
  5
3C3
  8
0
  6
CONTINUOUS
 62
     7
 10
545.4058923205
 20
586.1740896994
 30
0.0
 40
0.9439610824126253
 50
113.9579803226
 51
177.6945455237
  0
POLYLINE
  5
3C4
  8
0
  6
CONTINUOUS
 62
     7
 66
     1
 10
0.0
 20
0.0
 30
0.0
 70
   128
  0
VERTEX
  5
8F6
  8
0
  6
CONTINUOUS
 62
     7
 10
544.4626524676
 20
591.227077943
 30
0.0
  0
VERTEX
  5
8F7
  8
0
  6
CONTINUOUS
 62
     7
 10
544.406934232
 20
590.8983285247
 30
0.0
  0
VERTEX
  5
8F8
  8
0
  6
CONTINUOUS
 62
     7
 10
544.4031791393
 20
590.8308113634
 30
0.0
  0
SEQEND
  5
BC3
  8
0
  6
CONTINUOUS
 62
     7
  0
LINE
  5
3C5
  8
0
  6
CONTINUOUS
 62
     7
 10
544.4094124813
 20
590.215199691
 30
0.0
 11
544.4626953085
 21
589.9008447944
 31
0.0
  0
POLYLINE
  5
3C6
  8
0
  6
CONTINUOUS
 62
     7
 66
     1
 10
0.0
 20
0.0
 30
0.0
 70
   128
  0
VERTEX
  5
8F9
  8
0
  6
CONTINUOUS
 62
     7
 10
544.4626953085
 20
589.9008447944
 30
0.0
  0
VERTEX
  5
8FA
  8
0
  6
CONTINUOUS
 62
     7
 10
544.5751105998
 20
589.5471657335
 30
0.0
  0
VERTEX
  5
8FB
  8
0
  6
CONTINUOUS
 62
     7
 10
544.7109859069
 20
589.2945761501
 30
0.0
  0
VERTEX
  5
8FC
  8
0
  6
CONTINUOUS
 62
     7
 10
544.8656813805
 20
589.1319001733
 30
0.0
  0
VERTEX
  5
8FD
  8
0
  6
CONTINUOUS
 62
     7
 10
545.0225812946
 20
589.0763486444
 30
0.0
  0
SEQEND
  5
BC4
  8
0
  6
CONTINUOUS
 62
     7
  0
LINE
  5
3C7
  8
0
  6
CONTINUOUS
 62
     7
 10
545.0225812946
 20
589.0763486444
 30
0.0
 11
545.1065633078
 21
589.1016359149
 31
0.0
  0
LINE
  5
3C8
  8
0
  6
CONTINUOUS
 62
     7
 10
545.1045218487
 20
592.0078540861
 30
0.0
 11
545.0225812946
 21
592.0517231046
 31
0.0
  0
ARC
  5
3C9
  8
0
  6
CONTINUOUS
 62
     7
 10
545.4058923205
 20
591.1890904003
 30
0.0
 40
0.9439610824126253
 50
113.9579803226
 51
177.6945455237
  0
POLYLINE
  5
3CA
  8
0
  6
CONTINUOUS
 62
     7
 66
     1
 10
0.0
 20
0.0
 30
0.0
 70
   128
  0
VERTEX
  5
8FE
  8
0
  6
CONTINUOUS
 62
     7
 10
544.4626524676
 20
596.2420786439
 30
0.0
  0
VERTEX
  5
8FF
  8
0
  6
CONTINUOUS
 62
     7
 10
544.406934232
 20
595.9133292257
 30
0.0
  0
VERTEX
  5
900
  8
0
  6
CONTINUOUS
 62
     7
 10
544.4031791393
 20
595.8458120643
 30
0.0
  0
SEQEND
  5
BC5
  8
0
  6
CONTINUOUS
 62
     7
  0
LINE
  5
3CB
  8
0
  6
CONTINUOUS
 62
     7
 10
544.4094124813
 20
595.2302003919
 30
0.0
 11
544.4626953085
 21
594.9158454954
 31
0.0
  0
POLYLINE
  5
3CC
  8
0
  6
CONTINUOUS
 62
     7
 66
     1
 10
0.0
 20
0.0
 30
0.0
 70
   128
  0
VERTEX
  5
901
  8
0
  6
CONTINUOUS
 62
     7
 10
544.4626953085
 20
594.9158454954
 30
0.0
  0
VERTEX
  5
902
  8
0
  6
CONTINUOUS
 62
     7
 10
544.5751105998
 20
594.5621664344
 30
0.0
  0
VERTEX
  5
903
  8
0
  6
CONTINUOUS
 62
     7
 10
544.7109859069
 20
594.309576851
 30
0.0
  0
VERTEX
  5
904
  8
0
  6
CONTINUOUS
 62
     7
 10
544.8656813805
 20
594.1469008743
 30
0.0
  0
VERTEX
  5
905
  8
0
  6
CONTINUOUS
 62
     7
 10
545.0225812946
 20
594.0913493453
 30
0.0
  0
SEQEND
  5
BC6
  8
0
  6
CONTINUOUS
 62
     7
  0
LINE
  5
3CD
  8
0
  6
CONTINUOUS
 62
     7
 10
545.0225812946
 20
594.0913493453
 30
0.0
 11
545.1065633078
 21
594.1166366159
 31
0.0
  0
LINE
  5
3CE
  8
0
  6
CONTINUOUS
 62
     7
 10
545.1045218487
 20
597.022854787
 30
0.0
 11
545.0225812946
 21
597.0667238056
 31
0.0
  0
ARC
  5
3CF
  8
0
  6
CONTINUOUS
 62
     7
 10
545.4058923205
 20
596.2040911013
 30
0.0
 40
0.9439610824126253
 50
113.9579803226
 51
177.6945455237
  0
POLYLINE
  5
3D0
  8
0
  6
CONTINUOUS
 62
     7
 66
     1
 10
0.0
 20
0.0
 30
0.0
 70
   128
  0
VERTEX
  5
906
  8
0
  6
CONTINUOUS
 62
     7
 10
544.4626524676
 20
601.2570793449
 30
0.0
  0
VERTEX
  5
907
  8
0
  6
CONTINUOUS
 62
     7
 10
544.406934232
 20
600.9283299266
 30
0.0
  0
VERTEX
  5
908
  8
0
  6
CONTINUOUS
 62
     7
 10
544.4031791393
 20
600.8608127653
 30
0.0
  0
SEQEND
  5
BC7
  8
0
  6
CONTINUOUS
 62
     7
  0
LINE
  5
3D1
  8
0
  6
CONTINUOUS
 62
     7
 10
544.4094124813
 20
600.2452010929
 30
0.0
 11
544.4626953085
 21
599.9308461963
 31
0.0
  0
POLYLINE
  5
3D2
  8
0
  6
CONTINUOUS
 62
     7
 66
     1
 10
0.0
 20
0.0
 30
0.0
 70
   128
  0
VERTEX
  5
909
  8
0
  6
CONTINUOUS
 62
     7
 10
544.4626953085
 20
599.9308461963
 30
0.0
  0
VERTEX
  5
90A
  8
0
  6
CONTINUOUS
 62
     7
 10
544.5751105998
 20
599.5771671354
 30
0.0
  0
VERTEX
  5
90B
  8
0
  6
CONTINUOUS
 62
     7
 10
544.7109868382
 20
599.324577552
 30
0.0
  0
VERTEX
  5
90C
  8
0
  6
CONTINUOUS
 62
     7
 10
544.8656813805
 20
599.1619015752
 30
0.0
  0
VERTEX
  5
90D
  8
0
  6
CONTINUOUS
 62
     7
 10
545.0225812946
 20
599.1063500463
 30
0.0
  0
SEQEND
  5
BC8
  8
0
  6
CONTINUOUS
 62
     7
  0
LINE
  5
3D3
  8
0
  6
CONTINUOUS
 62
     7
 10
545.0225812946
 20
599.1063500463
 30
0.0
 11
545.1065633078
 21
599.1316373168
 31
0.0
  0
LINE
  5
3D4
  8
0
  6
CONTINUOUS
 62
     7
 10
545.1045218487
 20
602.037855488
 30
0.0
 11
545.0225812946
 21
602.0817245065
 31
0.0
  0
ARC
  5
3D5
  8
0
  6
CONTINUOUS
 62
     7
 10
545.4058923205
 20
601.2190918022
 30
0.0
 40
0.9439610824126253
 50
113.9579803226
 51
177.6945455237
  0
POLYLINE
  5
3D6
  8
0
  6
CONTINUOUS
 62
     7
 66
     1
 10
0.0
 20
0.0
 30
0.0
 70
   128
  0
VERTEX
  5
90E
  8
0
  6
CONTINUOUS
 62
     7
 10
544.4626524676
 20
606.2720800458
 30
0.0
  0
VERTEX
  5
90F
  8
0
  6
CONTINUOUS
 62
     7
 10
544.406934232
 20
605.9433306276
 30
0.0
  0
VERTEX
  5
910
  8
0
  6
CONTINUOUS
 62
     7
 10
544.4031791393
 20
605.8758134662
 30
0.0
  0
SEQEND
  5
BC9
  8
0
  6
CONTINUOUS
 62
     7
  0
LINE
  5
3D7
  8
0
  6
CONTINUOUS
 62
     7
 10
544.4094124813
 20
605.2602017938
 30
0.0
 11
544.4626953085
 21
604.9458468973
 31
0.0
  0
POLYLINE
  5
3D8
  8
0
  6
CONTINUOUS
 62
     7
 66
     1
 10
0.0
 20
0.0
 30
0.0
 70
   128
  0
VERTEX
  5
911
  8
0
  6
CONTINUOUS
 62
     7
 10
544.4626953085
 20
604.9458468973
 30
0.0
  0
VERTEX
  5
912
  8
0
  6
CONTINUOUS
 62
     7
 10
544.5751105998
 20
604.5921678363
 30
0.0
  0
VERTEX
  5
913
  8
0
  6
CONTINUOUS
 62
     7
 10
544.7109868382
 20
604.3395782529
 30
0.0
  0
VERTEX
  5
914
  8
0
  6
CONTINUOUS
 62
     7
 10
544.8656813805
 20
604.1769022762
 30
0.0
  0
VERTEX
  5
915
  8
0
  6
CONTINUOUS
 62
     7
 10
545.0225812946
 20
604.1213507472
 30
0.0
  0
SEQEND
  5
BCA
  8
0
  6
CONTINUOUS
 62
     7
  0
LINE
  5
3D9
  8
0
  6
CONTINUOUS
 62
     7
 10
545.0225812946
 20
604.1213507472
 30
0.0
 11
545.1065633078
 21
604.1466380178
 31
0.0
  0
LINE
  5
3DA
  8
0
  6
CONTINUOUS
 62
     7
 10
545.1045218487
 20
607.0528561889
 30
0.0
 11
545.0225812946
 21
607.0967252075
 31
0.0
  0
ARC
  5
3DB
  8
0
  6
CONTINUOUS
 62
     7
 10
545.4058923205
 20
606.2340925032
 30
0.0
 40
0.9439610824126253
 50
113.9579803226
 51
177.6945455237
  0
POLYLINE
  5
3DC
  8
0
  6
CONTINUOUS
 62
     7
 66
     1
 10
0.0
 20
0.0
 30
0.0
 70
   128
  0
VERTEX
  5
916
  8
0
  6
CONTINUOUS
 62
     7
 10
544.4626524676
 20
611.2870807468
 30
0.0
  0
VERTEX
  5
917
  8
0
  6
CONTINUOUS
 62
     7
 10
544.406934232
 20
610.9583313285
 30
0.0
  0
VERTEX
  5
918
  8
0
  6
CONTINUOUS
 62
     7
 10
544.4031791393
 20
610.8908141672
 30
0.0
  0
SEQEND
  5
BCB
  8
0
  6
CONTINUOUS
 62
     7
  0
LINE
  5
3DD
  8
0
  6
CONTINUOUS
 62
     7
 10
544.4094124813
 20
610.2752024948
 30
0.0
 11
544.4626953085
 21
609.9608475982
 31
0.0
  0
POLYLINE
  5
3DE
  8
0
  6
CONTINUOUS
 62
     7
 66
     1
 10
0.0
 20
0.0
 30
0.0
 70
   128
  0
VERTEX
  5
919
  8
0
  6
CONTINUOUS
 62
     7
 10
544.4626953085
 20
609.9608475982
 30
0.0
  0
VERTEX
  5
91A
  8
0
  6
CONTINUOUS
 62
     7
 10
544.5751105998
 20
609.6071685373
 30
0.0
  0
VERTEX
  5
91B
  8
0
  6
CONTINUOUS
 62
     7
 10
544.7109868382
 20
609.3545789539
 30
0.0
  0
VERTEX
  5
91C
  8
0
  6
CONTINUOUS
 62
     7
 10
544.8656813805
 20
609.1919029771
 30
0.0
  0
VERTEX
  5
91D
  8
0
  6
CONTINUOUS
 62
     7
 10
545.0225812946
 20
609.1363514482
 30
0.0
  0
SEQEND
  5
BCC
  8
0
  6
CONTINUOUS
 62
     7
  0
LINE
  5
3DF
  8
0
  6
CONTINUOUS
 62
     7
 10
545.0225812946
 20
609.1363514482
 30
0.0
 11
545.1065633078
 21
609.1616387187
 31
0.0
  0
LINE
  5
3E0
  8
0
  6
CONTINUOUS
 62
     7
 10
545.1045218487
 20
612.0678568899
 30
0.0
 11
545.0225822259
 21
612.1117259084
 31
0.0
  0
ARC
  5
3E1
  8
0
  6
CONTINUOUS
 62
     7
 10
545.4058907924
 20
611.2490938087
 30
0.0
 40
0.943959531219192
 50
113.9578588048
 51
177.69457846
  0
POLYLINE
  5
3E2
  8
0
  6
CONTINUOUS
 62
     7
 66
     1
 10
0.0
 20
0.0
 30
0.0
 70
   128
  0
VERTEX
  5
91E
  8
0
  6
CONTINUOUS
 62
     7
 10
544.4626524676
 20
616.3020814477
 30
0.0
  0
VERTEX
  5
91F
  8
0
  6
CONTINUOUS
 62
     7
 10
544.406934232
 20
615.9733320295
 30
0.0
  0
VERTEX
  5
920
  8
0
  6
CONTINUOUS
 62
     7
 10
544.403178208
 20
615.9058148681
 30
0.0
  0
SEQEND
  5
BCD
  8
0
  6
CONTINUOUS
 62
     7
  0
LINE
  5
3E3
  8
0
  6
CONTINUOUS
 62
     7
 10
544.4094124813
 20
615.2902031957
 30
0.0
 11
544.4626953085
 21
614.9758482992
 31
0.0
  0
POLYLINE
  5
3E4
  8
0
  6
CONTINUOUS
 62
     7
 66
     1
 10
0.0
 20
0.0
 30
0.0
 70
   128
  0
VERTEX
  5
921
  8
0
  6
CONTINUOUS
 62
     7
 10
544.4626953085
 20
614.9758482992
 30
0.0
  0
VERTEX
  5
922
  8
0
  6
CONTINUOUS
 62
     7
 10
544.5751115312
 20
614.6221692382
 30
0.0
  0
VERTEX
  5
923
  8
0
  6
CONTINUOUS
 62
     7
 10
544.7109868382
 20
614.3695796548
 30
0.0
  0
VERTEX
  5
924
  8
0
  6
CONTINUOUS
 62
     7
 10
544.8656813805
 20
614.2069036781
 30
0.0
  0
VERTEX
  5
925
  8
0
  6
CONTINUOUS
 62
     7
 10
545.0225822259
 20
614.151337248
 30
0.0
  0
SEQEND
  5
BCE
  8
0
  6
CONTINUOUS
 62
     7
  0
LINE
  5
3E5
  8
0
  6
CONTINUOUS
 62
     7
 10
545.0225822259
 20
614.151337248
 30
0.0
 11
545.1065633078
 21
614.1766394197
 31
0.0
  0
LINE
  5
3E6
  8
0
  6
CONTINUOUS
 62
     7
 10
545.1045218487
 20
617.0828575908
 30
0.0
 11
545.0225822259
 21
617.1267266094
 31
0.0
  0
ARC
  5
3E7
  8
0
  6
CONTINUOUS
 62
     7
 10
545.4058907924
 20
616.2640945097
 30
0.0
 40
0.943959531219192
 50
113.9578588048
 51
177.69457846
  0
POLYLINE
  5
3E8
  8
0
  6
CONTINUOUS
 62
     7
 66
     1
 10
0.0
 20
0.0
 30
0.0
 70
   128
  0
VERTEX
  5
926
  8
0
  6
CONTINUOUS
 62
     7
 10
544.4626524676
 20
621.3170821487
 30
0.0
  0
VERTEX
  5
927
  8
0
  6
CONTINUOUS
 62
     7
 10
544.406934232
 20
620.9883178293
 30
0.0
  0
VERTEX
  5
928
  8
0
  6
CONTINUOUS
 62
     7
 10
544.403178208
 20
620.9208155691
 30
0.0
  0
SEQEND
  5
BCF
  8
0
  6
CONTINUOUS
 62
     7
  0
LINE
  5
3E9
  8
0
  6
CONTINUOUS
 62
     7
 10
544.4094124813
 20
620.3052038967
 30
0.0
 11
544.4626953085
 21
619.9908490001
 31
0.0
  0
POLYLINE
  5
3EA
  8
0
  6
CONTINUOUS
 62
     7
 66
     1
 10
0.0
 20
0.0
 30
0.0
 70
   128
  0
VERTEX
  5
929
  8
0
  6
CONTINUOUS
 62
     7
 10
544.4626953085
 20
619.9908490001
 30
0.0
  0
VERTEX
  5
92A
  8
0
  6
CONTINUOUS
 62
     7
 10
544.5751115312
 20
619.6371699392
 30
0.0
  0
VERTEX
  5
92B
  8
0
  6
CONTINUOUS
 62
     7
 10
544.7109868382
 20
619.3845803558
 30
0.0
  0
VERTEX
  5
92C
  8
0
  6
CONTINUOUS
 62
     7
 10
544.8656813805
 20
619.221904379
 30
0.0
  0
VERTEX
  5
92D
  8
0
  6
CONTINUOUS
 62
     7
 10
545.0225822259
 20
619.1663379489
 30
0.0
  0
SEQEND
  5
BD0
  8
0
  6
CONTINUOUS
 62
     7
  0
LINE
  5
3EB
  8
0
  6
CONTINUOUS
 62
     7
 10
545.0225822259
 20
619.1663379489
 30
0.0
 11
545.1065633078
 21
619.1916401206
 31
0.0
  0
LINE
  5
3EC
  8
0
  6
CONTINUOUS
 62
     7
 10
545.1045218487
 20
622.0978582918
 30
0.0
 11
545.0225822259
 21
622.1417273103
 31
0.0
  0
ARC
  5
3ED
  8
0
  6
CONTINUOUS
 62
     7
 10
545.4058907924
 20
621.2790952106
 30
0.0
 40
0.943959531219192
 50
113.9578588048
 51
177.69457846
  0
POLYLINE
  5
3EE
  8
0
  6
CONTINUOUS
 62
     7
 66
     1
 10
0.0
 20
0.0
 30
0.0
 70
   128
  0
VERTEX
  5
92E
  8
0
  6
CONTINUOUS
 62
     7
 10
544.4626524676
 20
626.3320828496
 30
0.0
  0
VERTEX
  5
92F
  8
0
  6
CONTINUOUS
 62
     7
 10
544.406934232
 20
626.0033185302
 30
0.0
  0
VERTEX
  5
930
  8
0
  6
CONTINUOUS
 62
     7
 10
544.403178208
 20
625.93581627
 30
0.0
  0
SEQEND
  5
BD1
  8
0
  6
CONTINUOUS
 62
     7
  0
LINE
  5
3EF
  8
0
  6
CONTINUOUS
 62
     7
 10
544.4094124813
 20
625.3202045976
 30
0.0
 11
544.4626953085
 21
625.0058497011
 31
0.0
  0
POLYLINE
  5
3F0
  8
0
  6
CONTINUOUS
 62
     7
 66
     1
 10
0.0
 20
0.0
 30
0.0
 70
   128
  0
VERTEX
  5
931
  8
0
  6
CONTINUOUS
 62
     7
 10
544.4626953085
 20
625.0058497011
 30
0.0
  0
VERTEX
  5
932
  8
0
  6
CONTINUOUS
 62
     7
 10
544.5751115312
 20
624.6521706401
 30
0.0
  0
VERTEX
  5
933
  8
0
  6
CONTINUOUS
 62
     7
 10
544.7109868382
 20
624.3995661556
 30
0.0
  0
VERTEX
  5
934
  8
0
  6
CONTINUOUS
 62
     7
 10
544.8656813805
 20
624.23690508
 30
0.0
  0
VERTEX
  5
935
  8
0
  6
CONTINUOUS
 62
     7
 10
545.0225822259
 20
624.1813386499
 30
0.0
  0
SEQEND
  5
BD2
  8
0
  6
CONTINUOUS
 62
     7
  0
LINE
  5
3F1
  8
0
  6
CONTINUOUS
 62
     7
 10
545.0225822259
 20
624.1813386499
 30
0.0
 11
545.1065633078
 21
624.2066408216
 31
0.0
  0
LINE
  5
3F2
  8
0
  6
CONTINUOUS
 62
     7
 10
545.1045218487
 20
627.1128589927
 30
0.0
 11
545.0225822259
 21
627.1567280113
 31
0.0
  0
ARC
  5
3F3
  8
0
  6
CONTINUOUS
 62
     7
 10
545.4058907924
 20
626.2940959116
 30
0.0
 40
0.943959531219192
 50
113.9578588048
 51
177.69457846
  0
POLYLINE
  5
3F4
  8
0
  6
CONTINUOUS
 62
     7
 66
     1
 10
0.0
 20
0.0
 30
0.0
 70
   128
  0
VERTEX
  5
936
  8
0
  6
CONTINUOUS
 62
     7
 10
544.4626524676
 20
631.3470835506
 30
0.0
  0
VERTEX
  5
937
  8
0
  6
CONTINUOUS
 62
     7
 10
544.406934232
 20
631.0183192312
 30
0.0
  0
VERTEX
  5
938
  8
0
  6
CONTINUOUS
 62
     7
 10
544.403178208
 20
630.950816971
 30
0.0
  0
SEQEND
  5
BD3
  8
0
  6
CONTINUOUS
 62
     7
  0
LINE
  5
3F5
  8
0
  6
CONTINUOUS
 62
     7
 10
544.4094124813
 20
630.3351903974
 30
0.0
 11
544.4626953085
 21
630.020850402
 31
0.0
  0
POLYLINE
  5
3F6
  8
0
  6
CONTINUOUS
 62
     7
 66
     1
 10
0.0
 20
0.0
 30
0.0
 70
   128
  0
VERTEX
  5
939
  8
0
  6
CONTINUOUS
 62
     7
 10
544.4626953085
 20
630.020850402
 30
0.0
  0
VERTEX
  5
93A
  8
0
  6
CONTINUOUS
 62
     7
 10
544.5751115312
 20
629.6671713411
 30
0.0
  0
VERTEX
  5
93B
  8
0
  6
CONTINUOUS
 62
     7
 10
544.7109868382
 20
629.4145668565
 30
0.0
  0
VERTEX
  5
93C
  8
0
  6
CONTINUOUS
 62
     7
 10
544.8656823118
 20
629.2519057809
 30
0.0
  0
VERTEX
  5
93D
  8
0
  6
CONTINUOUS
 62
     7
 10
545.0225822259
 20
629.1963393508
 30
0.0
  0
SEQEND
  5
BD4
  8
0
  6
CONTINUOUS
 62
     7
  0
LINE
  5
3F7
  8
0
  6
CONTINUOUS
 62
     7
 10
545.0225822259
 20
629.1963393508
 30
0.0
 11
545.1065633078
 21
629.2216415225
 31
0.0
  0
LINE
  5
3F8
  8
0
  6
CONTINUOUS
 62
     7
 10
545.1045218487
 20
632.1278596937
 30
0.0
 11
545.0225822259
 21
632.1717287122
 31
0.0
  0
ARC
  5
3F9
  8
0
  6
CONTINUOUS
 62
     7
 10
545.4058934734
 20
631.3090947923
 30
0.0
 40
0.943962283254607
 50
113.9579626504
 51
177.6944746144
  0
POLYLINE
  5
3FA
  8
0
  6
CONTINUOUS
 62
     7
 66
     1
 10
0.0
 20
0.0
 30
0.0
 70
   128
  0
VERTEX
  5
93E
  8
0
  6
CONTINUOUS
 62
     7
 10
544.4626524676
 20
636.3620842515
 30
0.0
  0
VERTEX
  5
93F
  8
0
  6
CONTINUOUS
 62
     7
 10
544.406934232
 20
636.0333199321
 30
0.0
  0
VERTEX
  5
940
  8
0
  6
CONTINUOUS
 62
     7
 10
544.403178208
 20
635.9658176719
 30
0.0
  0
SEQEND
  5
BD5
  8
0
  6
CONTINUOUS
 62
     7
  0
LINE
  5
3FB
  8
0
  6
CONTINUOUS
 62
     7
 10
544.4094124813
 20
635.3501910983
 30
0.0
 11
544.4626953085
 21
635.035851103
 31
0.0
  0
POLYLINE
  5
3FC
  8
0
  6
CONTINUOUS
 62
     7
 66
     1
 10
0.0
 20
0.0
 30
0.0
 70
   128
  0
VERTEX
  5
941
  8
0
  6
CONTINUOUS
 62
     7
 10
544.4626953085
 20
635.035851103
 30
0.0
  0
VERTEX
  5
942
  8
0
  6
CONTINUOUS
 62
     7
 10
544.5751115312
 20
634.682172042
 30
0.0
  0
VERTEX
  5
943
  8
0
  6
CONTINUOUS
 62
     7
 10
544.7109868382
 20
634.4295675575
 30
0.0
  0
VERTEX
  5
944
  8
0
  6
CONTINUOUS
 62
     7
 10
544.8656823118
 20
634.2668915807
 30
0.0
  0
VERTEX
  5
945
  8
0
  6
CONTINUOUS
 62
     7
 10
545.0225822259
 20
634.2113400518
 30
0.0
  0
SEQEND
  5
BD6
  8
0
  6
CONTINUOUS
 62
     7
  0
LINE
  5
3FD
  8
0
  6
CONTINUOUS
 62
     7
 10
545.0225822259
 20
634.2113400518
 30
0.0
 11
545.1065633078
 21
634.2366422235
 31
0.0
  0
LINE
  5
3FE
  8
0
  6
CONTINUOUS
 62
     7
 10
545.1045218487
 20
637.1428603946
 30
0.0
 11
545.0225822259
 21
637.1867294132
 31
0.0
  0
ARC
  5
3FF
  8
0
  6
CONTINUOUS
 62
     7
 10
545.4058934734
 20
636.3240954933
 30
0.0
 40
0.943962283254607
 50
113.9579626504
 51
177.6944746144
  0
ARC
  5
400
  8
0
  6
CONTINUOUS
 62
     7
 10
546.6300569623
 20
596.5034423006
 30
0.0
 40
0.9294404386896695
 50
142.696018158
 51
176.9569547048
  0
ARC
  5
401
  8
0
  6
CONTINUOUS
 62
     7
 10
546.5696581056
 20
594.6199756691
 30
0.0
 40
0.8604422141065697
 50
183.1644168194
 51
217.9058572351
  0
ARC
  5
402
  8
0
  6
CONTINUOUS
 62
     7
 10
546.6300569623
 20
581.4584401978
 30
0.0
 40
0.9294404386896695
 50
142.696018158
 51
176.9569547048
  0
ARC
  5
403
  8
0
  6
CONTINUOUS
 62
     7
 10
546.5696581056
 20
579.5749735663
 30
0.0
 40
0.8604422141065697
 50
183.1644168194
 51
217.9058572351
  0
ARC
  5
404
  8
0
  6
CONTINUOUS
 62
     7
 10
546.6300569623
 20
586.4734408987
 30
0.0
 40
0.9294404386896695
 50
142.696018158
 51
176.9569547048
  0
ARC
  5
405
  8
0
  6
CONTINUOUS
 62
     7
 10
546.5696581056
 20
584.5899742672
 30
0.0
 40
0.8604422141065697
 50
183.1644168194
 51
217.9058572351
  0
ARC
  5
406
  8
0
  6
CONTINUOUS
 62
     7
 10
546.6300569623
 20
591.4884415997
 30
0.0
 40
0.9294404386896695
 50
142.696018158
 51
176.9569547048
  0
ARC
  5
407
  8
0
  6
CONTINUOUS
 62
     7
 10
546.5696581056
 20
589.6049749682
 30
0.0
 40
0.8604422141065697
 50
183.1644168194
 51
217.9058572351
  0
ARC
  5
408
  8
0
  6
CONTINUOUS
 62
     7
 10
546.6300569623
 20
601.5184430016
 30
0.0
 40
0.9294404386896695
 50
142.696018158
 51
176.9569547048
  0
ARC
  5
409
  8
0
  6
CONTINUOUS
 62
     7
 10
546.5697036796
 20
599.6349949132
 30
0.0
 40
0.8604895653427512
 50
183.1664728051
 51
217.9049671142
  0
ARC
  5
40A
  8
0
  6
CONTINUOUS
 62
     7
 10
546.6300667732
 20
606.5334400979
 30
0.0
 40
0.929450427142029
 50
142.6962079416
 51
176.9567649213
  0
ARC
  5
40B
  8
0
  6
CONTINUOUS
 62
     7
 10
546.5697036796
 20
604.6499956142
 30
0.0
 40
0.8604895653427512
 50
183.1664728051
 51
217.9049671142
  0
ARC
  5
40C
  8
0
  6
CONTINUOUS
 62
     7
 10
546.629992891
 20
611.5484696252
 30
0.0
 40
0.9293741890845535
 50
142.6948611265
 51
176.9582946936
  0
ARC
  5
40D
  8
0
  6
CONTINUOUS
 62
     7
 10
546.5697036796
 20
609.6649963151
 30
0.0
 40
0.8604895653427512
 50
183.1664728051
 51
217.9049671142
  0
ARC
  5
40E
  8
0
  6
CONTINUOUS
 62
     7
 10
546.629851752
 20
616.563523609
 30
0.0
 40
0.9292296328503762
 50
142.6922001201
 51
176.9620311738
  0
ARC
  5
40F
  8
0
  6
CONTINUOUS
 62
     7
 10
546.5698381238
 20
614.6800310036
 30
0.0
 40
0.860625682013445
 50
183.1682376542
 51
217.9020364004
  0
ARC
  5
410
  8
0
  6
CONTINUOUS
 62
     7
 10
546.629851752
 20
621.57852431
 30
0.0
 40
0.9292296328503762
 50
142.6922001201
 51
176.9620311738
  0
ARC
  5
411
  8
0
  6
CONTINUOUS
 62
     7
 10
546.5697766699
 20
619.695008685
 30
0.0
 40
0.8605630500160614
 50
183.1669334955
 51
217.9033405591
  0
ARC
  5
412
  8
0
  6
CONTINUOUS
 62
     7
 10
546.629851752
 20
626.5935250109
 30
0.0
 40
0.9292296328503762
 50
142.6922001201
 51
176.9620311738
  0
ARC
  5
413
  8
0
  6
CONTINUOUS
 62
     7
 10
546.5697766699
 20
624.7100093859
 30
0.0
 40
0.8605630500160614
 50
183.1669334955
 51
217.9033405591
  0
ARC
  5
414
  8
0
  6
CONTINUOUS
 62
     7
 10
546.6299017742
 20
631.6085073341
 30
0.0
 40
0.9292805588808479
 50
142.6931681714
 51
176.9610631225
  0
ARC
  5
415
  8
0
  6
CONTINUOUS
 62
     7
 10
546.5697766699
 20
629.7250100869
 30
0.0
 40
0.8605630500160614
 50
183.1669334955
 51
217.9033405591
  0
ARC
  5
416
  8
0
  6
CONTINUOUS
 62
     7
 10
546.6299017742
 20
636.6235080351
 30
0.0
 40
0.9292805588808479
 50
142.6931681714
 51
176.9610631225
  0
ARC
  5
417
  8
0
  6
CONTINUOUS
 62
     7
 10
546.5697766699
 20
634.7400107878
 30
0.0
 40
0.8605630500160614
 50
183.1669334955
 51
217.9033405591
  0
POLYLINE
  5
418
  8
0
  6
CONTINUOUS
 62
     7
 66
     1
 10
0.0
 20
0.0
 30
0.0
 70
   128
  0
VERTEX
  5
946
  8
0
  6
CONTINUOUS
 62
     7
 10
543.3403426413
 20
634.2113400518
 30
0.0
  0
VERTEX
  5
947
  8
0
  6
CONTINUOUS
 62
     7
 10
543.5302495588
 20
634.2467154085
 30
0.0
  0
VERTEX
  5
948
  8
0
  6
CONTINUOUS
 62
     7
 10
543.5858560358
 20
634.2795724689
 30
0.0
  0
SEQEND
  5
BD7
  8
0
  6
CONTINUOUS
 62
     7
  0
LINE
  5
419
  8
0
  6
CONTINUOUS
 62
     7
 10
543.5833116625
 20
637.1072764217
 30
0.0
 11
543.3403426413
 21
637.1867294132
 31
0.0
  0
POLYLINE
  5
41A
  8
0
  6
CONTINUOUS
 62
     7
 66
     1
 10
0.0
 20
0.0
 30
0.0
 70
   128
  0
VERTEX
  5
949
  8
0
  6
CONTINUOUS
 62
     7
 10
543.3403426413
 20
637.1867294132
 30
0.0
  0
VERTEX
  5
94A
  8
0
  6
CONTINUOUS
 62
     7
 10
543.0858596791
 20
637.1272588788
 30
0.0
  0
VERTEX
  5
94B
  8
0
  6
CONTINUOUS
 62
     7
 10
542.8525521983
 20
636.9632268964
 30
0.0
  0
SEQEND
  5
BD8
  8
0
  6
CONTINUOUS
 62
     7
  0
ARC
  5
41B
  8
0
  6
CONTINUOUS
 62
     7
 10
544.0909132002
 20
635.6990207431
 30
0.0
 40
1.769699164646638
 50
134.4097375501
 51
225.5924150937
  0
POLYLINE
  5
41C
  8
0
  6
CONTINUOUS
 62
     7
 66
     1
 10
0.0
 20
0.0
 30
0.0
 70
   128
  0
VERTEX
  5
94C
  8
0
  6
CONTINUOUS
 62
     7
 10
542.8525521983
 20
634.4346488534
 30
0.0
  0
VERTEX
  5
94D
  8
0
  6
CONTINUOUS
 62
     7
 10
543.0911002312
 20
634.2682028829
 30
0.0
  0
VERTEX
  5
94E
  8
0
  6
CONTINUOUS
 62
     7
 10
543.3403426413
 20
634.2113400518
 30
0.0
  0
SEQEND
  5
BD9
  8
0
  6
CONTINUOUS
 62
     7
  0
POLYLINE
  5
41D
  8
0
  6
CONTINUOUS
 62
     7
 66
     1
 10
0.0
 20
0.0
 30
0.0
 70
   128
  0
VERTEX
  5
94F
  8
0
  6
CONTINUOUS
 62
     7
 10
543.3403426413
 20
629.1963393508
 30
0.0
  0
VERTEX
  5
950
  8
0
  6
CONTINUOUS
 62
     7
 10
543.5302495588
 20
629.2317147075
 30
0.0
  0
VERTEX
  5
951
  8
0
  6
CONTINUOUS
 62
     7
 10
543.5858560358
 20
629.2645717679
 30
0.0
  0
SEQEND
  5
BDA
  8
0
  6
CONTINUOUS
 62
     7
  0
LINE
  5
41E
  8
0
  6
CONTINUOUS
 62
     7
 10
543.5833116625
 20
632.0922757207
 30
0.0
 11
543.3403426413
 21
632.1717287122
 31
0.0
  0
POLYLINE
  5
41F
  8
0
  6
CONTINUOUS
 62
     7
 66
     1
 10
0.0
 20
0.0
 30
0.0
 70
   128
  0
VERTEX
  5
952
  8
0
  6
CONTINUOUS
 62
     7
 10
543.3403426413
 20
632.1717287122
 30
0.0
  0
VERTEX
  5
953
  8
0
  6
CONTINUOUS
 62
     7
 10
543.0858596791
 20
632.1122730791
 30
0.0
  0
VERTEX
  5
954
  8
0
  6
CONTINUOUS
 62
     7
 10
542.8525521983
 20
631.9482261955
 30
0.0
  0
SEQEND
  5
BDB
  8
0
  6
CONTINUOUS
 62
     7
  0
ARC
  5
420
  8
0
  6
CONTINUOUS
 62
     7
 10
544.0909229804
 20
630.6840200423
 30
0.0
 40
1.769706008558095
 50
134.4099637488
 51
225.5921888949
  0
POLYLINE
  5
421
  8
0
  6
CONTINUOUS
 62
     7
 66
     1
 10
0.0
 20
0.0
 30
0.0
 70
   128
  0
VERTEX
  5
955
  8
0
  6
CONTINUOUS
 62
     7
 10
542.8525521983
 20
629.4196481525
 30
0.0
  0
VERTEX
  5
956
  8
0
  6
CONTINUOUS
 62
     7
 10
543.0911002312
 20
629.253202182
 30
0.0
  0
VERTEX
  5
957
  8
0
  6
CONTINUOUS
 62
     7
 10
543.3403426413
 20
629.1963393508
 30
0.0
  0
SEQEND
  5
BDC
  8
0
  6
CONTINUOUS
 62
     7
  0
POLYLINE
  5
422
  8
0
  6
CONTINUOUS
 62
     7
 66
     1
 10
0.0
 20
0.0
 30
0.0
 70
   128
  0
VERTEX
  5
958
  8
0
  6
CONTINUOUS
 62
     7
 10
543.3403426413
 20
624.1813386499
 30
0.0
  0
VERTEX
  5
959
  8
0
  6
CONTINUOUS
 62
     7
 10
543.5302495588
 20
624.2167140066
 30
0.0
  0
VERTEX
  5
95A
  8
0
  6
CONTINUOUS
 62
     7
 10
543.5858560358
 20
624.249571067
 30
0.0
  0
SEQEND
  5
BDD
  8
0
  6
CONTINUOUS
 62
     7
  0
LINE
  5
423
  8
0
  6
CONTINUOUS
 62
     7
 10
543.5833116625
 20
627.0772750198
 30
0.0
 11
543.3403426413
 21
627.1567280113
 31
0.0
  0
POLYLINE
  5
424
  8
0
  6
CONTINUOUS
 62
     7
 66
     1
 10
0.0
 20
0.0
 30
0.0
 70
   128
  0
VERTEX
  5
95B
  8
0
  6
CONTINUOUS
 62
     7
 10
543.3403426413
 20
627.1567280113
 30
0.0
  0
VERTEX
  5
95C
  8
0
  6
CONTINUOUS
 62
     7
 10
543.0858596791
 20
627.0972723781
 30
0.0
  0
VERTEX
  5
95D
  8
0
  6
CONTINUOUS
 62
     7
 10
542.8525521983
 20
626.9332254945
 30
0.0
  0
SEQEND
  5
BDE
  8
0
  6
CONTINUOUS
 62
     7
  0
ARC
  5
425
  8
0
  6
CONTINUOUS
 62
     7
 10
544.0909229804
 20
625.6690193414
 30
0.0
 40
1.769706008558095
 50
134.4099637488
 51
225.5921888949
  0
POLYLINE
  5
426
  8
0
  6
CONTINUOUS
 62
     7
 66
     1
 10
0.0
 20
0.0
 30
0.0
 70
   128
  0
VERTEX
  5
95E
  8
0
  6
CONTINUOUS
 62
     7
 10
542.8525521983
 20
624.4046474515
 30
0.0
  0
VERTEX
  5
95F
  8
0
  6
CONTINUOUS
 62
     7
 10
543.0911002312
 20
624.238201481
 30
0.0
  0
VERTEX
  5
960
  8
0
  6
CONTINUOUS
 62
     7
 10
543.3403426413
 20
624.1813386499
 30
0.0
  0
SEQEND
  5
BDF
  8
0
  6
CONTINUOUS
 62
     7
  0
POLYLINE
  5
427
  8
0
  6
CONTINUOUS
 62
     7
 66
     1
 10
0.0
 20
0.0
 30
0.0
 70
   128
  0
VERTEX
  5
961
  8
0
  6
CONTINUOUS
 62
     7
 10
543.3403426413
 20
619.1663379489
 30
0.0
  0
VERTEX
  5
962
  8
0
  6
CONTINUOUS
 62
     7
 10
543.5302504901
 20
619.2017133056
 30
0.0
  0
VERTEX
  5
963
  8
0
  6
CONTINUOUS
 62
     7
 10
543.5858560358
 20
619.234570366
 30
0.0
  0
SEQEND
  5
BE0
  8
0
  6
CONTINUOUS
 62
     7
  0
LINE
  5
428
  8
0
  6
CONTINUOUS
 62
     7
 10
543.5833116625
 20
622.0622743188
 30
0.0
 11
543.3403426413
 21
622.1417273103
 31
0.0
  0
POLYLINE
  5
429
  8
0
  6
CONTINUOUS
 62
     7
 66
     1
 10
0.0
 20
0.0
 30
0.0
 70
   128
  0
VERTEX
  5
964
  8
0
  6
CONTINUOUS
 62
     7
 10
543.3403426413
 20
622.1417273103
 30
0.0
  0
VERTEX
  5
965
  8
0
  6
CONTINUOUS
 62
     7
 10
543.0858596791
 20
622.0822716772
 30
0.0
  0
VERTEX
  5
966
  8
0
  6
CONTINUOUS
 62
     7
 10
542.8525521983
 20
621.9182247936
 30
0.0
  0
SEQEND
  5
BE1
  8
0
  6
CONTINUOUS
 62
     7
  0
ARC
  5
42A
  8
0
  6
CONTINUOUS
 62
     7
 10
544.0909000896
 20
620.6540260907
 30
0.0
 40
1.76968466780075
 50
134.4096031284
 51
225.5925495281
  0
POLYLINE
  5
42B
  8
0
  6
CONTINUOUS
 62
     7
 66
     1
 10
0.0
 20
0.0
 30
0.0
 70
   128
  0
VERTEX
  5
967
  8
0
  6
CONTINUOUS
 62
     7
 10
542.8525521983
 20
619.3896467506
 30
0.0
  0
VERTEX
  5
968
  8
0
  6
CONTINUOUS
 62
     7
 10
543.0911002312
 20
619.2232007801
 30
0.0
  0
VERTEX
  5
969
  8
0
  6
CONTINUOUS
 62
     7
 10
543.3403426413
 20
619.1663379489
 30
0.0
  0
SEQEND
  5
BE2
  8
0
  6
CONTINUOUS
 62
     7
  0
POLYLINE
  5
42C
  8
0
  6
CONTINUOUS
 62
     7
 66
     1
 10
0.0
 20
0.0
 30
0.0
 70
   128
  0
VERTEX
  5
96A
  8
0
  6
CONTINUOUS
 62
     7
 10
543.3403426413
 20
614.151337248
 30
0.0
  0
VERTEX
  5
96B
  8
0
  6
CONTINUOUS
 62
     7
 10
543.5302504901
 20
614.1867126047
 30
0.0
  0
VERTEX
  5
96C
  8
0
  6
CONTINUOUS
 62
     7
 10
543.5858560358
 20
614.2195696651
 30
0.0
  0
SEQEND
  5
BE3
  8
0
  6
CONTINUOUS
 62
     7
  0
LINE
  5
42D
  8
0
  6
CONTINUOUS
 62
     7
 10
543.5833116625
 20
617.0472736179
 30
0.0
 11
543.3403426413
 21
617.1267266094
 31
0.0
  0
POLYLINE
  5
42E
  8
0
  6
CONTINUOUS
 62
     7
 66
     1
 10
0.0
 20
0.0
 30
0.0
 70
   128
  0
VERTEX
  5
96D
  8
0
  6
CONTINUOUS
 62
     7
 10
543.3403426413
 20
617.1267266094
 30
0.0
  0
VERTEX
  5
96E
  8
0
  6
CONTINUOUS
 62
     7
 10
543.0858596791
 20
617.0672709762
 30
0.0
  0
VERTEX
  5
96F
  8
0
  6
CONTINUOUS
 62
     7
 10
542.8525521983
 20
616.9032240926
 30
0.0
  0
SEQEND
  5
BE4
  8
0
  6
CONTINUOUS
 62
     7
  0
ARC
  5
42F
  8
0
  6
CONTINUOUS
 62
     7
 10
544.09092327
 20
615.6390328406
 30
0.0
 40
1.769706211193498
 50
134.4099704461
 51
225.5921821976
  0
POLYLINE
  5
430
  8
0
  6
CONTINUOUS
 62
     7
 66
     1
 10
0.0
 20
0.0
 30
0.0
 70
   128
  0
VERTEX
  5
970
  8
0
  6
CONTINUOUS
 62
     7
 10
542.8525521983
 20
614.3746460496
 30
0.0
  0
VERTEX
  5
971
  8
0
  6
CONTINUOUS
 62
     7
 10
543.0911002312
 20
614.2082000791
 30
0.0
  0
VERTEX
  5
972
  8
0
  6
CONTINUOUS
 62
     7
 10
543.3403426413
 20
614.151337248
 30
0.0
  0
SEQEND
  5
BE5
  8
0
  6
CONTINUOUS
 62
     7
  0
POLYLINE
  5
431
  8
0
  6
CONTINUOUS
 62
     7
 66
     1
 10
0.0
 20
0.0
 30
0.0
 70
   128
  0
VERTEX
  5
973
  8
0
  6
CONTINUOUS
 62
     7
 10
543.3403426413
 20
609.1363514482
 30
0.0
  0
VERTEX
  5
974
  8
0
  6
CONTINUOUS
 62
     7
 10
543.5302504901
 20
609.1717119037
 30
0.0
  0
VERTEX
  5
975
  8
0
  6
CONTINUOUS
 62
     7
 10
543.5858560358
 20
609.2045689641
 30
0.0
  0
SEQEND
  5
BE6
  8
0
  6
CONTINUOUS
 62
     7
  0
LINE
  5
432
  8
0
  6
CONTINUOUS
 62
     7
 10
543.5833116625
 20
612.0322729169
 30
0.0
 11
543.3403426413
 21
612.1117259084
 31
0.0
  0
POLYLINE
  5
433
  8
0
  6
CONTINUOUS
 62
     7
 66
     1
 10
0.0
 20
0.0
 30
0.0
 70
   128
  0
VERTEX
  5
976
  8
0
  6
CONTINUOUS
 62
     7
 10
543.3403426413
 20
612.1117259084
 30
0.0
  0
VERTEX
  5
977
  8
0
  6
CONTINUOUS
 62
     7
 10
543.0858596791
 20
612.0522702753
 30
0.0
  0
VERTEX
  5
978
  8
0
  6
CONTINUOUS
 62
     7
 10
542.8525521983
 20
611.8882233917
 30
0.0
  0
SEQEND
  5
BE7
  8
0
  6
CONTINUOUS
 62
     7
  0
ARC
  5
434
  8
0
  6
CONTINUOUS
 62
     7
 10
544.09092327
 20
610.6240321397
 30
0.0
 40
1.769706211193498
 50
134.4099704461
 51
225.5921821976
  0
POLYLINE
  5
435
  8
0
  6
CONTINUOUS
 62
     7
 66
     1
 10
0.0
 20
0.0
 30
0.0
 70
   128
  0
VERTEX
  5
979
  8
0
  6
CONTINUOUS
 62
     7
 10
542.8525521983
 20
609.3596453487
 30
0.0
  0
VERTEX
  5
97A
  8
0
  6
CONTINUOUS
 62
     7
 10
543.0911002312
 20
609.1931993781
 30
0.0
  0
VERTEX
  5
97B
  8
0
  6
CONTINUOUS
 62
     7
 10
543.3403426413
 20
609.1363514482
 30
0.0
  0
SEQEND
  5
BE8
  8
0
  6
CONTINUOUS
 62
     7
  0
POLYLINE
  5
436
  8
0
  6
CONTINUOUS
 62
     7
 66
     1
 10
0.0
 20
0.0
 30
0.0
 70
   128
  0
VERTEX
  5
97C
  8
0
  6
CONTINUOUS
 62
     7
 10
543.3403426413
 20
604.1213507472
 30
0.0
  0
VERTEX
  5
97D
  8
0
  6
CONTINUOUS
 62
     7
 10
543.5302504901
 20
604.1567261039
 30
0.0
  0
VERTEX
  5
97E
  8
0
  6
CONTINUOUS
 62
     7
 10
543.5858560358
 20
604.1895682632
 30
0.0
  0
SEQEND
  5
BE9
  8
0
  6
CONTINUOUS
 62
     7
  0
LINE
  5
437
  8
0
  6
CONTINUOUS
 62
     7
 10
543.5833116625
 20
607.017272216
 30
0.0
 11
543.3403426413
 21
607.0967252075
 31
0.0
  0
POLYLINE
  5
438
  8
0
  6
CONTINUOUS
 62
     7
 66
     1
 10
0.0
 20
0.0
 30
0.0
 70
   128
  0
VERTEX
  5
97F
  8
0
  6
CONTINUOUS
 62
     7
 10
543.3403426413
 20
607.0967252075
 30
0.0
  0
VERTEX
  5
980
  8
0
  6
CONTINUOUS
 62
     7
 10
543.0858596791
 20
607.0372695743
 30
0.0
  0
VERTEX
  5
981
  8
0
  6
CONTINUOUS
 62
     7
 10
542.8525521983
 20
606.8732226907
 30
0.0
  0
SEQEND
  5
BEA
  8
0
  6
CONTINUOUS
 62
     7
  0
ARC
  5
439
  8
0
  6
CONTINUOUS
 62
     7
 10
544.09092327
 20
605.6090314387
 30
0.0
 40
1.769706211193498
 50
134.4099704461
 51
225.5921821976
  0
POLYLINE
  5
43A
  8
0
  6
CONTINUOUS
 62
     7
 66
     1
 10
0.0
 20
0.0
 30
0.0
 70
   128
  0
VERTEX
  5
982
  8
0
  6
CONTINUOUS
 62
     7
 10
542.8525521983
 20
604.3446446477
 30
0.0
  0
VERTEX
  5
983
  8
0
  6
CONTINUOUS
 62
     7
 10
543.0911002312
 20
604.1781986772
 30
0.0
  0
VERTEX
  5
984
  8
0
  6
CONTINUOUS
 62
     7
 10
543.3403426413
 20
604.1213507472
 30
0.0
  0
SEQEND
  5
BEB
  8
0
  6
CONTINUOUS
 62
     7
  0
POLYLINE
  5
43B
  8
0
  6
CONTINUOUS
 62
     7
 66
     1
 10
0.0
 20
0.0
 30
0.0
 70
   128
  0
VERTEX
  5
985
  8
0
  6
CONTINUOUS
 62
     7
 10
543.3403426413
 20
599.1063500463
 30
0.0
  0
VERTEX
  5
986
  8
0
  6
CONTINUOUS
 62
     7
 10
543.5302504901
 20
599.141725403
 30
0.0
  0
VERTEX
  5
987
  8
0
  6
CONTINUOUS
 62
     7
 10
543.5858560358
 20
599.1745675622
 30
0.0
  0
SEQEND
  5
BEC
  8
0
  6
CONTINUOUS
 62
     7
  0
LINE
  5
43C
  8
0
  6
CONTINUOUS
 62
     7
 10
543.5833116625
 20
602.002271515
 30
0.0
 11
543.3403426413
 21
602.0817245065
 31
0.0
  0
POLYLINE
  5
43D
  8
0
  6
CONTINUOUS
 62
     7
 66
     1
 10
0.0
 20
0.0
 30
0.0
 70
   128
  0
VERTEX
  5
988
  8
0
  6
CONTINUOUS
 62
     7
 10
543.3403426413
 20
602.0817245065
 30
0.0
  0
VERTEX
  5
989
  8
0
  6
CONTINUOUS
 62
     7
 10
543.0858596791
 20
602.0222688734
 30
0.0
  0
VERTEX
  5
98A
  8
0
  6
CONTINUOUS
 62
     7
 10
542.8525521983
 20
601.8582219898
 30
0.0
  0
SEQEND
  5
BED
  8
0
  6
CONTINUOUS
 62
     7
  0
ARC
  5
43E
  8
0
  6
CONTINUOUS
 62
     7
 10
544.09092327
 20
600.5940307378
 30
0.0
 40
1.769706211193498
 50
134.4099704461
 51
225.5921821976
  0
POLYLINE
  5
43F
  8
0
  6
CONTINUOUS
 62
     7
 66
     1
 10
0.0
 20
0.0
 30
0.0
 70
   128
  0
VERTEX
  5
98B
  8
0
  6
CONTINUOUS
 62
     7
 10
542.8525521983
 20
599.3296439468
 30
0.0
  0
VERTEX
  5
98C
  8
0
  6
CONTINUOUS
 62
     7
 10
543.0911002312
 20
599.1631979762
 30
0.0
  0
VERTEX
  5
98D
  8
0
  6
CONTINUOUS
 62
     7
 10
543.3403426413
 20
599.1063500463
 30
0.0
  0
SEQEND
  5
BEE
  8
0
  6
CONTINUOUS
 62
     7
  0
POLYLINE
  5
440
  8
0
  6
CONTINUOUS
 62
     7
 66
     1
 10
0.0
 20
0.0
 30
0.0
 70
   128
  0
VERTEX
  5
98E
  8
0
  6
CONTINUOUS
 62
     7
 10
543.3403426413
 20
589.0763486444
 30
0.0
  0
VERTEX
  5
98F
  8
0
  6
CONTINUOUS
 62
     7
 10
543.5302504901
 20
589.1117240011
 30
0.0
  0
VERTEX
  5
990
  8
0
  6
CONTINUOUS
 62
     7
 10
543.5858560358
 20
589.1445661603
 30
0.0
  0
SEQEND
  5
BEF
  8
0
  6
CONTINUOUS
 62
     7
  0
LINE
  5
441
  8
0
  6
CONTINUOUS
 62
     7
 10
543.5833116625
 20
591.9722701131
 30
0.0
 11
543.3403426413
 21
592.0517231046
 31
0.0
  0
POLYLINE
  5
442
  8
0
  6
CONTINUOUS
 62
     7
 66
     1
 10
0.0
 20
0.0
 30
0.0
 70
   128
  0
VERTEX
  5
991
  8
0
  6
CONTINUOUS
 62
     7
 10
543.3403426413
 20
592.0517231046
 30
0.0
  0
VERTEX
  5
992
  8
0
  6
CONTINUOUS
 62
     7
 10
543.0858596791
 20
591.9922674714
 30
0.0
  0
VERTEX
  5
993
  8
0
  6
CONTINUOUS
 62
     7
 10
542.8525521983
 20
591.8282205879
 30
0.0
  0
SEQEND
  5
BF0
  8
0
  6
CONTINUOUS
 62
     7
  0
ARC
  5
443
  8
0
  6
CONTINUOUS
 62
     7
 10
544.09092327
 20
590.5640293359
 30
0.0
 40
1.769706211193498
 50
134.4099704461
 51
225.5921821976
  0
POLYLINE
  5
444
  8
0
  6
CONTINUOUS
 62
     7
 66
     1
 10
0.0
 20
0.0
 30
0.0
 70
   128
  0
VERTEX
  5
994
  8
0
  6
CONTINUOUS
 62
     7
 10
542.8525521983
 20
589.2996425449
 30
0.0
  0
VERTEX
  5
995
  8
0
  6
CONTINUOUS
 62
     7
 10
543.0911002312
 20
589.1331965743
 30
0.0
  0
VERTEX
  5
996
  8
0
  6
CONTINUOUS
 62
     7
 10
543.3403426413
 20
589.0763486444
 30
0.0
  0
SEQEND
  5
BF1
  8
0
  6
CONTINUOUS
 62
     7
  0
POLYLINE
  5
445
  8
0
  6
CONTINUOUS
 62
     7
 66
     1
 10
0.0
 20
0.0
 30
0.0
 70
   128
  0
VERTEX
  5
997
  8
0
  6
CONTINUOUS
 62
     7
 10
543.3403426413
 20
584.0613479434
 30
0.0
  0
VERTEX
  5
998
  8
0
  6
CONTINUOUS
 62
     7
 10
543.5302504901
 20
584.0967233001
 30
0.0
  0
VERTEX
  5
999
  8
0
  6
CONTINUOUS
 62
     7
 10
543.5858560358
 20
584.1295654594
 30
0.0
  0
SEQEND
  5
BF2
  8
0
  6
CONTINUOUS
 62
     7
  0
LINE
  5
446
  8
0
  6
CONTINUOUS
 62
     7
 10
543.5833116625
 20
586.9572694122
 30
0.0
 11
543.3403426413
 21
587.0367224037
 31
0.0
  0
POLYLINE
  5
447
  8
0
  6
CONTINUOUS
 62
     7
 66
     1
 10
0.0
 20
0.0
 30
0.0
 70
   128
  0
VERTEX
  5
99A
  8
0
  6
CONTINUOUS
 62
     7
 10
543.3403426413
 20
587.0367224037
 30
0.0
  0
VERTEX
  5
99B
  8
0
  6
CONTINUOUS
 62
     7
 10
543.0858596791
 20
586.9772667705
 30
0.0
  0
VERTEX
  5
99C
  8
0
  6
CONTINUOUS
 62
     7
 10
542.8525521983
 20
586.8132198869
 30
0.0
  0
SEQEND
  5
BF3
  8
0
  6
CONTINUOUS
 62
     7
  0
ARC
  5
448
  8
0
  6
CONTINUOUS
 62
     7
 10
544.090924582
 20
585.5490286349
 30
0.0
 40
1.769707129352774
 50
134.4100007921
 51
225.5921518517
  0
POLYLINE
  5
449
  8
0
  6
CONTINUOUS
 62
     7
 66
     1
 10
0.0
 20
0.0
 30
0.0
 70
   128
  0
VERTEX
  5
99D
  8
0
  6
CONTINUOUS
 62
     7
 10
542.8525521983
 20
584.2846418439
 30
0.0
  0
VERTEX
  5
99E
  8
0
  6
CONTINUOUS
 62
     7
 10
543.0911002312
 20
584.1181958734
 30
0.0
  0
VERTEX
  5
99F
  8
0
  6
CONTINUOUS
 62
     7
 10
543.3403426413
 20
584.0613479434
 30
0.0
  0
SEQEND
  5
BF4
  8
0
  6
CONTINUOUS
 62
     7
  0
POLYLINE
  5
44A
  8
0
  6
CONTINUOUS
 62
     7
 66
     1
 10
0.0
 20
0.0
 30
0.0
 70
   128
  0
VERTEX
  5
9A0
  8
0
  6
CONTINUOUS
 62
     7
 10
543.3403426413
 20
579.0463472425
 30
0.0
  0
VERTEX
  5
9A1
  8
0
  6
CONTINUOUS
 62
     7
 10
543.5302504901
 20
579.0817225992
 30
0.0
  0
VERTEX
  5
9A2
  8
0
  6
CONTINUOUS
 62
     7
 10
543.5858560358
 20
579.1145647584
 30
0.0
  0
SEQEND
  5
BF5
  8
0
  6
CONTINUOUS
 62
     7
  0
LINE
  5
44B
  8
0
  6
CONTINUOUS
 62
     7
 10
543.5833116625
 20
581.9422687112
 30
0.0
 11
543.3403426413
 21
582.0217217027
 31
0.0
  0
POLYLINE
  5
44C
  8
0
  6
CONTINUOUS
 62
     7
 66
     1
 10
0.0
 20
0.0
 30
0.0
 70
   128
  0
VERTEX
  5
9A3
  8
0
  6
CONTINUOUS
 62
     7
 10
543.3403426413
 20
582.0217217027
 30
0.0
  0
VERTEX
  5
9A4
  8
0
  6
CONTINUOUS
 62
     7
 10
543.0858596791
 20
581.9622660695
 30
0.0
  0
VERTEX
  5
9A5
  8
0
  6
CONTINUOUS
 62
     7
 10
542.8525521983
 20
581.798219186
 30
0.0
  0
SEQEND
  5
BF6
  8
0
  6
CONTINUOUS
 62
     7
  0
ARC
  5
44D
  8
0
  6
CONTINUOUS
 62
     7
 10
544.090924582
 20
580.534027934
 30
0.0
 40
1.769707129352774
 50
134.4100007921
 51
225.5921518517
  0
POLYLINE
  5
44E
  8
0
  6
CONTINUOUS
 62
     7
 66
     1
 10
0.0
 20
0.0
 30
0.0
 70
   128
  0
VERTEX
  5
9A6
  8
0
  6
CONTINUOUS
 62
     7
 10
542.8525521983
 20
579.269641143
 30
0.0
  0
VERTEX
  5
9A7
  8
0
  6
CONTINUOUS
 62
     7
 10
543.0911002312
 20
579.1031951724
 30
0.0
  0
VERTEX
  5
9A8
  8
0
  6
CONTINUOUS
 62
     7
 10
543.3403426413
 20
579.0463472425
 30
0.0
  0
SEQEND
  5
BF7
  8
0
  6
CONTINUOUS
 62
     7
  0
POLYLINE
  5
44F
  8
0
  6
CONTINUOUS
 62
     7
 66
     1
 10
0.0
 20
0.0
 30
0.0
 70
   128
  0
VERTEX
  5
9A9
  8
0
  6
CONTINUOUS
 62
     7
 10
543.3403426413
 20
594.0913493453
 30
0.0
  0
VERTEX
  5
9AA
  8
0
  6
CONTINUOUS
 62
     7
 10
543.5302504901
 20
594.126724702
 30
0.0
  0
VERTEX
  5
9AB
  8
0
  6
CONTINUOUS
 62
     7
 10
543.5858560358
 20
594.1595668613
 30
0.0
  0
SEQEND
  5
BF8
  8
0
  6
CONTINUOUS
 62
     7
  0
LINE
  5
450
  8
0
  6
CONTINUOUS
 62
     7
 10
543.5833116625
 20
596.9872708141
 30
0.0
 11
543.3403426413
 21
597.0667238056
 31
0.0
  0
POLYLINE
  5
451
  8
0
  6
CONTINUOUS
 62
     7
 66
     1
 10
0.0
 20
0.0
 30
0.0
 70
   128
  0
VERTEX
  5
9AC
  8
0
  6
CONTINUOUS
 62
     7
 10
543.3403426413
 20
597.0667238056
 30
0.0
  0
VERTEX
  5
9AD
  8
0
  6
CONTINUOUS
 62
     7
 10
543.0858596791
 20
597.0072681724
 30
0.0
  0
VERTEX
  5
9AE
  8
0
  6
CONTINUOUS
 62
     7
 10
542.8525521983
 20
596.8432212888
 30
0.0
  0
SEQEND
  5
BF9
  8
0
  6
CONTINUOUS
 62
     7
  0
ARC
  5
452
  8
0
  6
CONTINUOUS
 62
     7
 10
544.09092327
 20
595.5790300368
 30
0.0
 40
1.769706211193498
 50
134.4099704461
 51
225.5921821976
  0
POLYLINE
  5
453
  8
0
  6
CONTINUOUS
 62
     7
 66
     1
 10
0.0
 20
0.0
 30
0.0
 70
   128
  0
VERTEX
  5
9AF
  8
0
  6
CONTINUOUS
 62
     7
 10
542.8525521983
 20
594.3146432458
 30
0.0
  0
VERTEX
  5
9B0
  8
0
  6
CONTINUOUS
 62
     7
 10
543.0911002312
 20
594.1481972753
 30
0.0
  0
VERTEX
  5
9B1
  8
0
  6
CONTINUOUS
 62
     7
 10
543.3403426413
 20
594.0913493453
 30
0.0
  0
SEQEND
  5
BFA
  8
0
  6
CONTINUOUS
 62
     7
  0
ARC
  5
454
  8
0
  6
CONTINUOUS
 62
     7
 10
542.35379891
 20
577.3808871226
 30
0.0
 40
0.5085220189275571
 50
181.0206148614
 51
266.945864499
  0
LINE
  5
455
  8
0
  6
CONTINUOUS
 62
     7
 10
542.0088680093
 20
639.2095322429
 30
0.0
 11
546.000556611
 21
639.2095322429
 31
0.0
  0
LINE
  5
456
  8
0
  6
CONTINUOUS
 62
     7
 10
546.000556611
 20
576.8730873882
 30
0.0
 11
542.3267051209
 21
576.8730873882
 31
0.0
  0
LINE
  5
457
  8
0
  6
CONTINUOUS
 62
     7
 10
546.1020735656
 20
576.6724879562
 30
0.0
 11
542.4292688821
 21
576.6724879562
 31
0.0
  0
LINE
  5
458
  8
0
  6
CONTINUOUS
 62
     7
 10
542.1878374745
 20
576.7145092307
 30
0.0
 11
542.4292688821
 21
576.6724879562
 31
0.0
  0
LINE
  5
459
  8
0
  6
CONTINUOUS
 62
     7
 10
542.3267051209
 20
576.8730873882
 30
0.0
 11
541.9855942581
 21
576.8730873882
 31
0.0
  0
LINE
  5
45A
  8
0
  6
CONTINUOUS
 62
     8
 10
540.6134310742
 20
486.3237301527
 30
0.0
 11
540.6134310742
 21
488.4957755624
 31
0.0
  0
POLYLINE
  5
45B
  8
0
  6
CONTINUOUS
 62
     8
 66
     1
 10
0.0
 20
0.0
 30
0.0
 70
   128
  0
VERTEX
  5
9B2
  8
0
  6
CONTINUOUS
 62
     8
 10
540.1163283367
 20
489.9949404119
 30
0.0
  0
VERTEX
  5
9B3
  8
0
  6
CONTINUOUS
 62
     8
 10
540.2141796057
 20
489.9577918171
 30
0.0
  0
VERTEX
  5
9B4
  8
0
  6
CONTINUOUS
 62
     8
 10
540.3077970822
 20
489.8668090521
 30
0.0
  0
VERTEX
  5
9B5
  8
0
  6
CONTINUOUS
 62
     8
 10
540.3937330101
 20
489.7253448783
 30
0.0
  0
VERTEX
  5
9B6
  8
0
  6
CONTINUOUS
 62
     8
 10
540.4688236867
 20
489.5386072515
 30
0.0
  0
VERTEX
  5
9B7
  8
0
  6
CONTINUOUS
 62
     8
 10
540.5303040151
 20
489.3134730576
 30
0.0
  0
VERTEX
  5
9B8
  8
0
  6
CONTINUOUS
 62
     8
 10
540.5759108816
 20
489.0582273423
 30
0.0
  0
VERTEX
  5
9B9
  8
0
  6
CONTINUOUS
 62
     8
 10
540.6039641802
 20
488.7822764634
 30
0.0
  0
VERTEX
  5
9BA
  8
0
  6
CONTINUOUS
 62
     8
 10
540.6134310742
 20
488.4957755624
 30
0.0
  0
SEQEND
  5
BFB
  8
0
  6
CONTINUOUS
 62
     8
  0
POLYLINE
  5
45C
  8
0
  6
CONTINUOUS
 62
     8
 66
     1
 10
0.0
 20
0.0
 30
0.0
 70
   128
  0
VERTEX
  5
9BB
  8
0
  6
CONTINUOUS
 62
     8
 10
540.6134310742
 20
486.3237301527
 30
0.0
  0
VERTEX
  5
9BC
  8
0
  6
CONTINUOUS
 62
     8
 10
540.8013887335
 20
483.8819849013
 30
0.0
  0
VERTEX
  5
9BD
  8
0
  6
CONTINUOUS
 62
     8
 10
541.3618372385
 20
481.4256514131
 30
0.0
  0
VERTEX
  5
9BE
  8
0
  6
CONTINUOUS
 62
     8
 10
542.2038776432
 20
479.1468578099
 30
0.0
  0
VERTEX
  5
9BF
  8
0
  6
CONTINUOUS
 62
     8
 10
543.3258549873
 20
476.9237237691
 30
0.0
  0
VERTEX
  5
9C0
  8
0
  6
CONTINUOUS
 62
     8
 10
544.5974995945
 20
474.9166044115
 30
0.0
  0
VERTEX
  5
9C1
  8
0
  6
CONTINUOUS
 62
     8
 10
546.0291873295
 20
473.0340513109
 30
0.0
  0
VERTEX
  5
9C2
  8
0
  6
CONTINUOUS
 62
     8
 10
547.5155623261
 20
471.3583859323
 30
0.0
  0
VERTEX
  5
9C3
  8
0
  6
CONTINUOUS
 62
     8
 10
549.0426668529
 20
469.8602492629
 30
0.0
  0
SEQEND
  5
BFC
  8
0
  6
CONTINUOUS
 62
     8
  0
ARC
  5
45D
  8
0
  6
CONTINUOUS
 62
     8
 10
548.8671389894
 20
458.3329017258
 30
0.0
 40
0.177574251622569
 50
282.8620086987
 51
8.7068205638
  0
POLYLINE
  5
45E
  8
0
  6
CONTINUOUS
 62
     8
 66
     1
 10
0.0
 20
0.0
 30
0.0
 70
   128
  0
VERTEX
  5
9C4
  8
0
  6
CONTINUOUS
 62
     8
 10
620.5926691745
 20
489.9951527535
 30
0.0
  0
VERTEX
  5
9C5
  8
0
  6
CONTINUOUS
 62
     8
 10
620.5740576242
 20
489.9956444918
 30
0.0
  0
VERTEX
  5
9C6
  8
0
  6
CONTINUOUS
 62
     8
 10
620.523430929
 20
489.9952011823
 30
0.0
  0
VERTEX
  5
9C7
  8
0
  6
CONTINUOUS
 62
     8
 10
620.4790999745
 20
489.9946051358
 30
0.0
  0
VERTEX
  5
9C8
  8
0
  6
CONTINUOUS
 62
     8
 10
620.404460058
 20
489.9940202652
 30
0.0
  0
VERTEX
  5
9C9
  8
0
  6
CONTINUOUS
 62
     8
 10
620.344646797
 20
489.9942288815
 30
0.0
  0
VERTEX
  5
9CA
  8
0
  6
CONTINUOUS
 62
     8
 10
620.1363509153
 20
489.9952049076
 30
0.0
  0
VERTEX
  5
9CB
  8
0
  6
CONTINUOUS
 62
     8
 10
619.8440944408
 20
489.9955737113
 30
0.0
  0
VERTEX
  5
9CC
  8
0
  6
CONTINUOUS
 62
     8
 10
619.2497392748
 20
489.9952272593
 30
0.0
  0
SEQEND
  5
BFD
  8
0
  6
CONTINUOUS
 62
     8
  0
LINE
  5
45F
  8
0
  6
CONTINUOUS
 62
     8
 10
619.2497392748
 20
489.9949404119
 30
0.0
 11
581.1171909426
 21
489.9949404119
 31
0.0
  0
POLYLINE
  5
460
  8
0
  6
CONTINUOUS
 62
     8
 66
     1
 10
0.0
 20
0.0
 30
0.0
 70
   128
  0
VERTEX
  5
9CD
  8
0
  6
CONTINUOUS
 62
     8
 10
549.0426668529
 20
469.8602492629
 30
0.0
  0
VERTEX
  5
9CE
  8
0
  6
CONTINUOUS
 62
     8
 10
550.6342840944
 20
468.4948558628
 30
0.0
  0
VERTEX
  5
9CF
  8
0
  6
CONTINUOUS
 62
     8
 10
552.1499910955
 20
467.3653143166
 30
0.0
  0
VERTEX
  5
9D0
  8
0
  6
CONTINUOUS
 62
     8
 10
553.5470159356
 20
466.4716283499
 30
0.0
  0
VERTEX
  5
9D1
  8
0
  6
CONTINUOUS
 62
     8
 10
554.7784385834
 20
465.813790512
 30
0.0
  0
VERTEX
  5
9D2
  8
0
  6
CONTINUOUS
 62
     8
 10
555.7513316725
 20
465.4024551331
 30
0.0
  0
VERTEX
  5
9D3
  8
0
  6
CONTINUOUS
 62
     8
 10
556.4653301243
 20
465.1833261072
 30
0.0
  0
VERTEX
  5
9D4
  8
0
  6
CONTINUOUS
 62
     8
 10
556.6465058927
 20
465.1427502452
 30
0.0
  0
VERTEX
  5
9D5
  8
0
  6
CONTINUOUS
 62
     8
 10
556.8064735834
 20
465.1128994941
 30
0.0
  0
SEQEND
  5
BFE
  8
0
  6
CONTINUOUS
 62
     8
  0
LINE
  5
461
  8
0
  6
CONTINUOUS
 62
     8
 10
556.8064735834
 20
465.0811227678
 30
0.0
 11
556.8064735834
 21
465.1128994941
 31
0.0
  0
ARC
  5
462
  8
0
  6
CONTINUOUS
 62
     8
 10
582.0014942643
 20
465.094561439
 30
0.0
 40
25.19502992270836
 50
180.0308572643
 51
187.8516969648
  0
LINE
  5
463
  8
0
  6
CONTINUOUS
 62
     8
 10
556.8064661328
 20
465.1123518764
 30
0.0
 11
556.8456450109
 21
466.6114384948
 31
0.0
  0
POLYLINE
  5
464
  8
0
  6
CONTINUOUS
 62
     8
 66
     1
 10
0.0
 20
0.0
 30
0.0
 70
   128
  0
VERTEX
  5
9D6
  8
0
  6
CONTINUOUS
 62
     8
 10
557.3495519911
 20
470.4352776228
 30
0.0
  0
VERTEX
  5
9D7
  8
0
  6
CONTINUOUS
 62
     8
 10
557.7309360359
 20
471.9371097802
 30
0.0
  0
VERTEX
  5
9D8
  8
0
  6
CONTINUOUS
 62
     8
 10
558.2015817617
 20
473.3586693822
 30
0.0
  0
VERTEX
  5
9D9
  8
0
  6
CONTINUOUS
 62
     8
 10
558.8779585068
 20
474.9556156515
 30
0.0
  0
VERTEX
  5
9DA
  8
0
  6
CONTINUOUS
 62
     8
 10
559.7702344511
 20
476.6036840795
 30
0.0
  0
VERTEX
  5
9DB
  8
0
  6
CONTINUOUS
 62
     8
 10
560.7444574688
 20
478.0384200334
 30
0.0
  0
VERTEX
  5
9DC
  8
0
  6
CONTINUOUS
 62
     8
 10
561.8737196182
 20
479.3859543919
 30
0.0
  0
VERTEX
  5
9DD
  8
0
  6
CONTINUOUS
 62
     8
 10
562.8208635007
 20
480.3260537504
 30
0.0
  0
VERTEX
  5
9DE
  8
0
  6
CONTINUOUS
 62
     8
 10
563.6983258282
 20
481.0760329186
 30
0.0
  0
VERTEX
  5
9DF
  8
0
  6
CONTINUOUS
 62
     8
 10
564.5174650107
 20
481.688437116
 30
0.0
  0
VERTEX
  5
9E0
  8
0
  6
CONTINUOUS
 62
     8
 10
565.6114412103
 20
482.3936904489
 30
0.0
  0
VERTEX
  5
9E1
  8
0
  6
CONTINUOUS
 62
     8
 10
566.6776639972
 20
482.9746531962
 30
0.0
  0
VERTEX
  5
9E2
  8
0
  6
CONTINUOUS
 62
     8
 10
567.7238633488
 20
483.4562363743
 30
0.0
  0
VERTEX
  5
9E3
  8
0
  6
CONTINUOUS
 62
     8
 10
570.355438218
 20
484.3440401076
 30
0.0
  0
VERTEX
  5
9E4
  8
0
  6
CONTINUOUS
 62
     8
 10
573.1044267867
 20
484.8708036064
 30
0.0
  0
VERTEX
  5
9E5
  8
0
  6
CONTINUOUS
 62
     8
 10
576.2407933925
 20
485.0760112225
 30
0.0
  0
SEQEND
  5
BFF
  8
0
  6
CONTINUOUS
 62
     8
  0
ARC
  5
465
  8
0
  6
CONTINUOUS
 62
     8
 10
533.3019892263
 20
539.7716878022
 30
0.0
 40
2.304299255417514
 50
352.9341164148
 51
23.4289755182
  0
LINE
  5
466
  8
0
  6
CONTINUOUS
 62
     8
 10
535.5887881578
 20
527.191282314
 30
0.0
 11
535.5887881578
 21
539.4882346212
 31
0.0
  0
POLYLINE
  5
467
  8
0
  6
CONTINUOUS
 62
     8
 66
     1
 10
0.0
 20
0.0
 30
0.0
 70
   128
  0
VERTEX
  5
9E6
  8
0
  6
CONTINUOUS
 62
     8
 10
531.9183474038
 20
540.6872938095
 30
0.0
  0
VERTEX
  5
9E7
  8
0
  6
CONTINUOUS
 62
     8
 10
531.9184074038
 20
540.6872938095
 30
0.0
  0
VERTEX
  5
9E8
  8
0
  6
CONTINUOUS
 62
     8
 10
535.4163074498
 20
540.6879047572
 30
0.0
  0
SEQEND
  5
C00
  8
0
  6
CONTINUOUS
 62
     8
  0
LINE
  5
468
  8
0
  6
CONTINUOUS
 62
     8
 10
535.5887881578
 20
526.4406810223
 30
0.0
 11
535.5887881578
 21
527.191282314
 31
0.0
  0
LINE
  5
469
  8
0
  6
CONTINUOUS
 62
     8
 10
535.7825868395
 20
522.2228104888
 30
0.0
 11
535.5887881578
 21
526.4406810223
 31
0.0
  0
POLYLINE
  5
46A
  8
0
  6
CONTINUOUS
 62
     8
 66
     1
 10
0.0
 20
0.0
 30
0.0
 70
   128
  0
VERTEX
  5
9E9
  8
0
  6
CONTINUOUS
 62
     8
 10
556.3352057342
 20
493.7169748067
 30
0.0
  0
VERTEX
  5
9EA
  8
0
  6
CONTINUOUS
 62
     8
 10
555.5688595031
 20
494.105768454
 30
0.0
  0
VERTEX
  5
9EB
  8
0
  6
CONTINUOUS
 62
     8
 10
554.5375221972
 20
494.6551444649
 30
0.0
  0
VERTEX
  5
9EC
  8
0
  6
CONTINUOUS
 62
     8
 10
553.2180150603
 20
495.4043338715
 30
0.0
  0
VERTEX
  5
9ED
  8
0
  6
CONTINUOUS
 62
     8
 10
551.7225512867
 20
496.324093145
 30
0.0
  0
VERTEX
  5
9EE
  8
0
  6
CONTINUOUS
 62
     8
 10
550.0168842827
 20
497.4775473296
 30
0.0
  0
VERTEX
  5
9EF
  8
0
  6
CONTINUOUS
 62
     8
 10
548.2454342399
 20
498.8147998868
 30
0.0
  0
VERTEX
  5
9F0
  8
0
  6
CONTINUOUS
 62
     8
 10
546.3825152819
 20
500.4077116667
 30
0.0
  0
VERTEX
  5
9F1
  8
0
  6
CONTINUOUS
 62
     8
 10
544.5653233309
 20
502.1952549635
 30
0.0
  0
VERTEX
  5
9F2
  8
0
  6
CONTINUOUS
 62
     8
 10
541.1866265912
 20
506.4259479462
 30
0.0
  0
VERTEX
  5
9F3
  8
0
  6
CONTINUOUS
 62
     8
 10
539.7530985628
 20
508.7909708439
 30
0.0
  0
VERTEX
  5
9F4
  8
0
  6
CONTINUOUS
 62
     8
 10
538.5097363596
 20
511.328944069
 30
0.0
  0
VERTEX
  5
9F5
  8
0
  6
CONTINUOUS
 62
     8
 10
536.7509220359
 20
516.5090719878
 30
0.0
  0
VERTEX
  5
9F6
  8
0
  6
CONTINUOUS
 62
     8
 10
535.7825868395
 20
522.2228104888
 30
0.0
  0
SEQEND
  5
C01
  8
0
  6
CONTINUOUS
 62
     8
  0
ARC
  5
46B
  8
0
  6
CONTINUOUS
 62
     8
 10
584.5422317681
 20
498.9285613735
 30
0.0
 40
28.68443029087572
 50
190.4679140655
 51
195.6288343991
  0
POLYLINE
  5
46C
  8
0
  6
CONTINUOUS
 62
     8
 66
     1
 10
0.0
 20
0.0
 30
0.0
 70
   128
  0
VERTEX
  5
9F7
  8
0
  6
CONTINUOUS
 62
     8
 10
556.135636345
 20
498.1857548176
 30
0.0
  0
VERTEX
  5
9F8
  8
0
  6
CONTINUOUS
 62
     8
 10
556.6214961563
 20
501.4386857568
 30
0.0
  0
VERTEX
  5
9F9
  8
0
  6
CONTINUOUS
 62
     8
 10
557.3541527246
 20
504.3828199326
 30
0.0
  0
VERTEX
  5
9FA
  8
0
  6
CONTINUOUS
 62
     8
 10
558.3669492607
 20
507.1714530407
 30
0.0
  0
VERTEX
  5
9FB
  8
0
  6
CONTINUOUS
 62
     8
 10
558.5700111095
 20
507.6319957792
 30
0.0
  0
VERTEX
  5
9FC
  8
0
  6
CONTINUOUS
 62
     8
 10
558.7942903493
 20
508.1126103817
 30
0.0
  0
VERTEX
  5
9FD
  8
0
  6
CONTINUOUS
 62
     8
 10
559.0413255249
 20
508.6115757643
 30
0.0
  0
VERTEX
  5
9FE
  8
0
  6
CONTINUOUS
 62
     8
 10
559.3127091978
 20
509.1270218312
 30
0.0
  0
VERTEX
  5
9FF
  8
0
  6
CONTINUOUS
 62
     8
 10
559.3488650028
 20
509.1933618008
 30
0.0
  0
VERTEX
  5
A00
  8
0
  6
CONTINUOUS
 62
     8
 10
559.6170803164
 20
509.6693272411
 30
0.0
  0
VERTEX
  5
A01
  8
0
  6
CONTINUOUS
 62
     8
 10
560.5817945306
 20
511.1770714342
 30
0.0
  0
VERTEX
  5
A02
  8
0
  6
CONTINUOUS
 62
     8
 10
561.5024720882
 20
512.3794684826
 30
0.0
  0
VERTEX
  5
A03
  8
0
  6
CONTINUOUS
 62
     8
 10
562.3431266849
 20
513.3212442218
 30
0.0
  0
VERTEX
  5
A04
  8
0
  6
CONTINUOUS
 62
     8
 10
563.0725757782
 20
514.0386755287
 30
0.0
  0
VERTEX
  5
A05
  8
0
  6
CONTINUOUS
 62
     8
 10
564.7475501154
 20
515.4002020775
 30
0.0
  0
VERTEX
  5
A06
  8
0
  6
CONTINUOUS
 62
     8
 10
566.4474373315
 20
516.4672518789
 30
0.0
  0
VERTEX
  5
A07
  8
0
  6
CONTINUOUS
 62
     8
 10
568.4623909746
 20
517.4272517382
 30
0.0
  0
VERTEX
  5
A08
  8
0
  6
CONTINUOUS
 62
     8
 10
570.5926088248
 20
518.1760052859
 30
0.0
  0
VERTEX
  5
A09
  8
0
  6
CONTINUOUS
 62
     8
 10
575.4326773439
 20
519.1895152151
 30
0.0
  0
VERTEX
  5
A0A
  8
0
  6
CONTINUOUS
 62
     8
 10
578.1304617976
 20
519.4629217206
 30
0.0
  0
VERTEX
  5
A0B
  8
0
  6
CONTINUOUS
 62
     8
 10
579.5661924039
 20
519.5418382703
 30
0.0
  0
VERTEX
  5
A0C
  8
0
  6
CONTINUOUS
 62
     8
 10
579.9628017102
 20
519.5561061322
 30
0.0
  0
VERTEX
  5
A0D
  8
0
  6
CONTINUOUS
 62
     8
 10
580.3642240916
 20
519.5673118054
 30
0.0
  0
VERTEX
  5
A0E
  8
0
  6
CONTINUOUS
 62
     8
 10
580.9030538057
 20
519.5775116502
 30
0.0
  0
VERTEX
  5
A0F
  8
0
  6
CONTINUOUS
 62
     8
 10
581.0441454504
 20
519.5791805803
 30
0.0
  0
VERTEX
  5
A10
  8
0
  6
CONTINUOUS
 62
     8
 10
581.0823669289
 20
519.5794935047
 30
0.0
  0
VERTEX
  5
A11
  8
0
  6
CONTINUOUS
 62
     8
 10
581.093378887
 20
519.5795382081
 30
0.0
  0
VERTEX
  5
A12
  8
0
  6
CONTINUOUS
 62
     8
 10
581.0989928995
 20
519.5795158564
 30
0.0
  0
SEQEND
  5
C02
  8
0
  6
CONTINUOUS
 62
     8
  0
POLYLINE
  5
46D
  8
0
  6
CONTINUOUS
 62
     8
 66
     1
 10
0.0
 20
0.0
 30
0.0
 70
   128
  0
VERTEX
  5
A13
  8
0
  6
CONTINUOUS
 62
     8
 10
556.3354348396
 20
493.7169748067
 30
0.0
  0
VERTEX
  5
A14
  8
0
  6
CONTINUOUS
 62
     8
 10
556.0828433935
 20
495.8222890912
 30
0.0
  0
VERTEX
  5
A15
  8
0
  6
CONTINUOUS
 62
     8
 10
556.1356344823
 20
498.1857548176
 30
0.0
  0
SEQEND
  5
C03
  8
0
  6
CONTINUOUS
 62
     8
  0
ARC
  5
46E
  8
0
  6
CONTINUOUS
 62
     8
 10
766.2616327685
 20
683.0884260176
 30
0.0
 40
142.4400349150065
 50
267.7149169737
 51
269.0245708745
  0
POLYLINE
  5
46F
  8
0
  6
CONTINUOUS
 62
     8
 66
     1
 10
0.0
 20
0.0
 30
0.0
 70
   128
  0
VERTEX
  5
A16
  8
0
  6
CONTINUOUS
 62
     8
 10
568.4387316559
 20
540.6864965974
 30
0.0
  0
VERTEX
  5
A17
  8
0
  6
CONTINUOUS
 62
     8
 10
570.8387313042
 20
540.6862805306
 30
0.0
  0
VERTEX
  5
A18
  8
0
  6
CONTINUOUS
 62
     8
 10
580.4387298976
 20
540.6855578243
 30
0.0
  0
VERTEX
  5
A19
  8
0
  6
CONTINUOUS
 62
     8
 10
618.8387279962
 20
540.6822870194
 30
0.0
  0
VERTEX
  5
A1A
  8
0
  6
CONTINUOUS
 62
     8
 10
691.3377796863
 20
540.6761104881
 30
0.0
  0
VERTEX
  5
A1B
  8
0
  6
CONTINUOUS
 62
     8
 10
721.394047663
 20
540.6734953343
 30
0.0
  0
VERTEX
  5
A1C
  8
0
  6
CONTINUOUS
 62
     8
 10
763.8368313764
 20
540.6690324365
 30
0.0
  0
SEQEND
  5
C04
  8
0
  6
CONTINUOUS
 62
     8
  0
POLYLINE
  5
470
  8
0
  6
CONTINUOUS
 62
     8
 66
     1
 10
0.0
 20
0.0
 30
0.0
 70
   128
  0
VERTEX
  5
A1D
  8
0
  6
CONTINUOUS
 62
     8
 10
559.0515737985
 20
540.6872714578
 30
0.0
  0
VERTEX
  5
A1E
  8
0
  6
CONTINUOUS
 62
     8
 10
561.4515753095
 20
540.6871298968
 30
0.0
  0
VERTEX
  5
A1F
  8
0
  6
CONTINUOUS
 62
     8
 10
568.4387316559
 20
540.6864965974
 30
0.0
  0
SEQEND
  5
C05
  8
0
  6
CONTINUOUS
 62
     8
  0
LINE
  5
471
  8
0
  6
CONTINUOUS
 62
     8
 10
531.9183474039
 20
540.955462557
 30
0.0
 11
531.9183474038
 21
540.6872714578
 31
0.0
  0
ARC
  5
472
  8
0
  6
CONTINUOUS
 62
     8
 10
767.1191073474
 20
528.5484979162
 30
0.0
 40
1.299235069360512
 50
289.7696665921
 51
359.990013332
  0
ARC
  5
473
  8
0
  6
CONTINUOUS
 62
     8
 10
765.7499034291
 20
764.7092959609
 30
0.0
 40
224.0448358438005
 50
269.6599245871
 51
270.3777902134
  0
ARC
  5
474
  8
0
  6
CONTINUOUS
 62
     8
 10
767.2183632946
 20
539.4693836988
 30
0.0
 40
1.199979102593055
 50
359.9989782922
 51
89.579338614
  0
LINE
  5
475
  8
0
  6
CONTINUOUS
 62
     8
 10
763.8371144985
 20
540.6688312708
 30
0.0
 11
764.420107529
 21
540.6684065877
 31
0.0
  0
POLYLINE
  5
476
  8
0
  6
CONTINUOUS
 62
     8
 66
     1
 10
0.0
 20
0.0
 30
0.0
 70
   128
  0
VERTEX
  5
A20
  8
0
  6
CONTINUOUS
 62
     8
 10
581.0994473849
 20
519.5795084058
 30
0.0
  0
VERTEX
  5
A21
  8
0
  6
CONTINUOUS
 62
     8
 10
581.1452572797
 20
519.5799405395
 30
0.0
  0
VERTEX
  5
A22
  8
0
  6
CONTINUOUS
 62
     8
 10
581.3285043095
 20
519.5816392719
 30
0.0
  0
VERTEX
  5
A23
  8
0
  6
CONTINUOUS
 62
     8
 10
582.0614961539
 20
519.5882330357
 30
0.0
  0
VERTEX
  5
A24
  8
0
  6
CONTINUOUS
 62
     8
 10
584.993430004
 20
519.6117992221
 30
0.0
  0
VERTEX
  5
A25
  8
0
  6
CONTINUOUS
 62
     8
 10
596.7199658607
 20
519.6826989471
 30
0.0
  0
VERTEX
  5
A26
  8
0
  6
CONTINUOUS
 62
     8
 10
620.1658850168
 20
519.7817693173
 30
0.0
  0
VERTEX
  5
A27
  8
0
  6
CONTINUOUS
 62
     8
 10
643.6006134008
 20
519.8586518585
 30
0.0
  0
VERTEX
  5
A28
  8
0
  6
CONTINUOUS
 62
     8
 10
658.327922747
 20
519.9012393772
 30
0.0
  0
VERTEX
  5
A29
  8
0
  6
CONTINUOUS
 62
     8
 10
668.1839828943
 20
519.9281359731
 30
0.0
  0
VERTEX
  5
A2A
  8
0
  6
CONTINUOUS
 62
     8
 10
674.7798775886
 20
519.9455852329
 30
0.0
  0
VERTEX
  5
A2B
  8
0
  6
CONTINUOUS
 62
     8
 10
679.1939889644
 20
519.9570814787
 30
0.0
  0
VERTEX
  5
A2C
  8
0
  6
CONTINUOUS
 62
     8
 10
682.147950456
 20
519.9647034227
 30
0.0
  0
VERTEX
  5
A2D
  8
0
  6
CONTINUOUS
 62
     8
 10
684.1246341918
 20
519.9697847186
 30
0.0
  0
VERTEX
  5
A2E
  8
0
  6
CONTINUOUS
 62
     8
 10
685.4471122478
 20
519.9731747328
 30
0.0
  0
VERTEX
  5
A2F
  8
0
  6
CONTINUOUS
 62
     8
 10
686.33143656
 20
519.9754471599
 30
0.0
  0
VERTEX
  5
A30
  8
0
  6
CONTINUOUS
 62
     8
 10
686.9220589851
 20
519.9769596278
 30
0.0
  0
VERTEX
  5
A31
  8
0
  6
CONTINUOUS
 62
     8
 10
687.3152857278
 20
519.9779729067
 30
0.0
  0
VERTEX
  5
A32
  8
0
  6
CONTINUOUS
 62
     8
 10
687.6809751247
 20
519.9789116799
 30
0.0
  0
VERTEX
  5
A33
  8
0
  6
CONTINUOUS
 62
     8
 10
687.8091251109
 20
519.979246956
 30
0.0
  0
VERTEX
  5
A34
  8
0
  6
CONTINUOUS
 62
     8
 10
687.8968929504
 20
519.9794704734
 30
0.0
  0
VERTEX
  5
A35
  8
0
  6
CONTINUOUS
 62
     8
 10
687.9104381059
 20
519.9795077263
 30
0.0
  0
SEQEND
  5
C06
  8
0
  6
CONTINUOUS
 62
     8
  0
ARC
  5
477
  8
0
  6
CONTINUOUS
 62
     8
 10
767.2475417732
 20
525.5410265441
 30
0.0
 40
1.811709380471871
 50
74.3445304378
 51
80.1149931692
  0
ARC
  5
478
  8
0
  6
CONTINUOUS
 62
     8
 10
767.9209858223
 20
540.0688510203
 30
0.0
 40
0.9175790272485774
 50
136.6598598209
 51
139.124531087
  0
LINE
  5
479
  8
0
  6
CONTINUOUS
 62
     8
 10
521.4096629624
 20
555.2866915881
 30
0.0
 11
542.4270318453
 21
555.2866915881
 31
0.0
  0
POLYLINE
  5
47A
  8
0
  6
CONTINUOUS
 62
     8
 66
     1
 10
0.0
 20
0.0
 30
0.0
 70
   128
  0
VERTEX
  5
A36
  8
0
  6
CONTINUOUS
 62
     8
 10
581.0991307352
 20
519.5795009552
 30
0.0
  0
VERTEX
  5
A37
  8
0
  6
CONTINUOUS
 62
     8
 10
581.9287677859
 20
519.113571447
 30
0.0
  0
VERTEX
  5
A38
  8
0
  6
CONTINUOUS
 62
     8
 10
582.2080490742
 20
518.9648057043
 30
0.0
  0
SEQEND
  5
C07
  8
0
  6
CONTINUOUS
 62
     8
  0
LINE
  5
47B
  8
0
  6
CONTINUOUS
 62
     8
 10
514.3507239972
 20
654.9747968732
 30
0.0
 11
549.4859708105
 21
654.9747968732
 31
0.0
  0
LINE
  5
47C
  8
0
  6
CONTINUOUS
 62
     8
 10
514.6444147085
 20
645.7695896446
 30
0.0
 11
549.1922800992
 21
645.7695896446
 31
0.0
  0
LINE
  5
47D
  8
0
  6
CONTINUOUS
 62
     8
 10
514.7559834276
 20
645.166718465
 30
0.0
 11
549.0807113801
 21
645.166718465
 31
0.0
  0
LINE
  5
47E
  8
0
  6
CONTINUOUS
 62
     8
 10
541.7824048181
 20
576.6121531545
 30
0.0
 11
541.7358051617
 21
641.3742090284
 31
0.0
  0
POLYLINE
  5
47F
  8
0
  6
CONTINUOUS
 62
     8
 66
     1
 10
0.0
 20
0.0
 30
0.0
 70
   128
  0
VERTEX
  5
A39
  8
0
  6
CONTINUOUS
 62
     8
 10
542.294299752
 20
575.9087587415
 30
0.0
  0
VERTEX
  5
A3A
  8
0
  6
CONTINUOUS
 62
     8
 10
542.0919224252
 20
575.953179103
 30
0.0
  0
VERTEX
  5
A3B
  8
0
  6
CONTINUOUS
 62
     8
 10
541.9991608341
 20
576.0143185674
 30
0.0
  0
VERTEX
  5
A3C
  8
0
  6
CONTINUOUS
 62
     8
 10
541.9190736119
 20
576.1018330871
 30
0.0
  0
VERTEX
  5
A3D
  8
0
  6
CONTINUOUS
 62
     8
 10
541.8579332162
 20
576.2092555581
 30
0.0
  0
VERTEX
  5
A3E
  8
0
  6
CONTINUOUS
 62
     8
 10
541.8139589582
 20
576.3383294164
 30
0.0
  0
VERTEX
  5
A3F
  8
0
  6
CONTINUOUS
 62
     8
 10
541.7824048181
 20
576.6121531545
 30
0.0
  0
SEQEND
  5
C08
  8
0
  6
CONTINUOUS
 62
     8
  0
LINE
  5
480
  8
0
  6
CONTINUOUS
 62
     8
 10
546.6262712706
 20
575.9087587415
 30
0.0
 11
542.294299752
 21
575.9087587415
 31
0.0
  0
POLYLINE
  5
481
  8
0
  6
CONTINUOUS
 62
     8
 66
     1
 10
0.0
 20
0.0
 30
0.0
 70
   128
  0
VERTEX
  5
A40
  8
0
  6
CONTINUOUS
 62
     8
 10
548.97978209
 20
642.3240537464
 30
0.0
  0
VERTEX
  5
A41
  8
0
  6
CONTINUOUS
 62
     8
 10
548.5426956419
 20
642.317452532
 30
0.0
  0
VERTEX
  5
A42
  8
0
  6
CONTINUOUS
 62
     8
 10
547.2245156397
 20
642.2976339876
 30
0.0
  0
VERTEX
  5
A43
  8
0
  6
CONTINUOUS
 62
     8
 10
545.1881182943
 20
642.266892892
 30
0.0
  0
VERTEX
  5
A44
  8
0
  6
CONTINUOUS
 62
     8
 10
542.3163786162
 20
642.2235454141
 30
0.0
  0
SEQEND
  5
C09
  8
0
  6
CONTINUOUS
 62
     8
  0
POLYLINE
  5
482
  8
0
  6
CONTINUOUS
 62
     8
 66
     1
 10
0.0
 20
0.0
 30
0.0
 70
   128
  0
VERTEX
  5
A45
  8
0
  6
CONTINUOUS
 62
     8
 10
541.7358051617
 20
641.3741643249
 30
0.0
  0
VERTEX
  5
A46
  8
0
  6
CONTINUOUS
 62
     8
 10
541.7668657009
 20
641.6786546527
 30
0.0
  0
VERTEX
  5
A47
  8
0
  6
CONTINUOUS
 62
     8
 10
541.8750350927
 20
641.9581557332
 30
0.0
  0
VERTEX
  5
A48
  8
0
  6
CONTINUOUS
 62
     8
 10
541.9632099201
 20
642.0715833723
 30
0.0
  0
VERTEX
  5
A49
  8
0
  6
CONTINUOUS
 62
     8
 10
542.0708093424
 20
642.1563411771
 30
0.0
  0
VERTEX
  5
A4A
  8
0
  6
CONTINUOUS
 62
     8
 10
542.1873438735
 20
642.2057087242
 30
0.0
  0
VERTEX
  5
A4B
  8
0
  6
CONTINUOUS
 62
     8
 10
542.3163581271
 20
642.2235454141
 30
0.0
  0
SEQEND
  5
C0A
  8
0
  6
CONTINUOUS
 62
     8
  0
POLYLINE
  5
483
  8
0
  6
CONTINUOUS
 62
     8
 66
     1
 10
0.0
 20
0.0
 30
0.0
 70
   128
  0
VERTEX
  5
A4C
  8
0
  6
CONTINUOUS
 62
     8
 10
541.9483469431
 20
641.391926509
 30
0.0
  0
VERTEX
  5
A4D
  8
0
  6
CONTINUOUS
 62
     8
 10
541.9635116686
 20
641.6001255332
 30
0.0
  0
VERTEX
  5
A4E
  8
0
  6
CONTINUOUS
 62
     8
 10
541.9845036794
 20
641.6951204359
 30
0.0
  0
VERTEX
  5
A4F
  8
0
  6
CONTINUOUS
 62
     8
 10
542.0160913472
 20
641.7780901014
 30
0.0
  0
VERTEX
  5
A50
  8
0
  6
CONTINUOUS
 62
     8
 10
542.0589154218
 20
641.842671734
 30
0.0
  0
VERTEX
  5
A51
  8
0
  6
CONTINUOUS
 62
     8
 10
542.0840508868
 20
641.8663198768
 30
0.0
  0
VERTEX
  5
A52
  8
0
  6
CONTINUOUS
 62
     8
 10
542.1111616869
 20
641.8835158168
 30
0.0
  0
VERTEX
  5
A53
  8
0
  6
CONTINUOUS
 62
     8
 10
542.1695705135
 20
641.8974186002
 30
0.0
  0
VERTEX
  5
A54
  8
0
  6
CONTINUOUS
 62
     8
 10
542.2303504874
 20
641.8867046653
 30
0.0
  0
SEQEND
  5
C0B
  8
0
  6
CONTINUOUS
 62
     8
  0
ARC
  5
484
  8
0
  6
CONTINUOUS
 62
     8
 10
541.7694457239
 20
642.2521378258
 30
0.0
 40
0.8786177529243254
 50
267.8057198679
 51
281.7485320797
  0
ARC
  5
485
  8
0
  6
CONTINUOUS
 62
     8
 10
541.635264561
 20
642.2180463206
 30
0.0
 40
0.6811362538472927
 50
330.8907675667
 51
0.4625774528
  0
ARC
  5
486
  8
0
  6
CONTINUOUS
 62
     8
 10
541.8064068776
 20
577.1719485705
 30
0.0
 40
0.5603097416733357
 50
267.5448621601
 51
284.6743139173
  0
LINE
  5
487
  8
0
  6
CONTINUOUS
 62
     8
 10
542.230349556
 20
641.8867046653
 30
0.0
 11
542.1932829176
 21
639.3699134408
 31
0.0
  0
POLYLINE
  5
488
  8
0
  6
CONTINUOUS
 62
     8
 66
     1
 10
0.0
 20
0.0
 30
0.0
 70
   128
  0
VERTEX
  5
A55
  8
0
  6
CONTINUOUS
 62
     8
 10
542.2303691138
 20
641.8867046653
 30
0.0
  0
VERTEX
  5
A56
  8
0
  6
CONTINUOUS
 62
     8
 10
545.0722813238
 20
641.9299627363
 30
0.0
  0
VERTEX
  5
A57
  8
0
  6
CONTINUOUS
 62
     8
 10
547.0940652867
 20
641.9608081399
 30
0.0
  0
VERTEX
  5
A58
  8
0
  6
CONTINUOUS
 62
     8
 10
548.3975434308
 20
641.9805819808
 30
0.0
  0
VERTEX
  5
A59
  8
0
  6
CONTINUOUS
 62
     8
 10
548.8332757358
 20
641.9871682941
 30
0.0
  0
SEQEND
  5
C0C
  8
0
  6
CONTINUOUS
 62
     8
  0
POLYLINE
  5
489
  8
0
  6
CONTINUOUS
 62
     8
 66
     1
 10
0.0
 20
0.0
 30
0.0
 70
   128
  0
VERTEX
  5
A5A
  8
0
  6
CONTINUOUS
 62
     8
 10
542.1952889864
 20
576.2747908651
 30
0.0
  0
VERTEX
  5
A5B
  8
0
  6
CONTINUOUS
 62
     8
 10
542.0975681026
 20
576.2581909715
 30
0.0
  0
VERTEX
  5
A5C
  8
0
  6
CONTINUOUS
 62
     8
 10
542.0527891819
 20
576.2784118473
 30
0.0
  0
VERTEX
  5
A5D
  8
0
  6
CONTINUOUS
 62
     8
 10
542.014147677
 20
576.3193304359
 30
0.0
  0
VERTEX
  5
A5E
  8
0
  6
CONTINUOUS
 62
     8
 10
541.9841302191
 20
576.379516226
 30
0.0
  0
VERTEX
  5
A5F
  8
0
  6
CONTINUOUS
 62
     8
 10
541.963475347
 20
576.4544839679
 30
0.0
  0
VERTEX
  5
A60
  8
0
  6
CONTINUOUS
 62
     8
 10
541.9483469431
 20
576.6299153387
 30
0.0
  0
SEQEND
  5
C0D
  8
0
  6
CONTINUOUS
 62
     8
  0
ARC
  5
48A
  8
0
  6
CONTINUOUS
 62
     8
 10
541.6649584116
 20
575.9349306403
 30
0.0
 40
0.6298852998884631
 50
357.6186598571
 51
32.653616875
  0
LINE
  5
48B
  8
0
  6
CONTINUOUS
 62
     8
 10
542.1952889864
 20
576.2747908651
 30
0.0
 11
542.1878402684
 21
576.7145092307
 31
0.0
  0
LINE
  5
48C
  8
0
  6
CONTINUOUS
 62
     8
 10
542.1952889864
 20
576.2747908651
 30
0.0
 11
546.4859228213
 21
576.2747908651
 31
0.0
  0
LINE
  5
48D
  8
0
  6
CONTINUOUS
 62
     8
 10
542.8525521983
 20
636.9632119953
 30
0.0
 11
542.8525521983
 21
634.4346339523
 31
0.0
  0
LINE
  5
48E
  8
0
  6
CONTINUOUS
 62
     8
 10
542.8525521983
 20
631.9482261955
 30
0.0
 11
542.8525521983
 21
629.4196332513
 31
0.0
  0
LINE
  5
48F
  8
0
  6
CONTINUOUS
 62
     8
 10
542.8525521983
 20
626.9332254945
 30
0.0
 11
542.8525521983
 21
624.4046325504
 31
0.0
  0
LINE
  5
490
  8
0
  6
CONTINUOUS
 62
     8
 10
542.8525521983
 20
621.9182247936
 30
0.0
 11
542.8525521983
 21
619.3896318494
 31
0.0
  0
LINE
  5
491
  8
0
  6
CONTINUOUS
 62
     8
 10
542.8525521983
 20
616.9032240926
 30
0.0
 11
542.8525521983
 21
614.3746311485
 31
0.0
  0
LINE
  5
492
  8
0
  6
CONTINUOUS
 62
     8
 10
542.8525521983
 20
611.8882233917
 30
0.0
 11
542.8525521983
 21
609.3596304475
 31
0.0
  0
LINE
  5
493
  8
0
  6
CONTINUOUS
 62
     8
 10
542.8525521983
 20
606.8732226907
 30
0.0
 11
542.8525521983
 21
604.3446297466
 31
0.0
  0
LINE
  5
494
  8
0
  6
CONTINUOUS
 62
     8
 10
542.8525521983
 20
601.8582219898
 30
0.0
 11
542.8525521983
 21
599.3296290456
 31
0.0
  0
LINE
  5
495
  8
0
  6
CONTINUOUS
 62
     8
 10
542.8525521983
 20
596.8432212888
 30
0.0
 11
542.8525521983
 21
594.3146283447
 31
0.0
  0
LINE
  5
496
  8
0
  6
CONTINUOUS
 62
     8
 10
542.8525521983
 20
591.8282205879
 30
0.0
 11
542.8525521983
 21
589.2996276437
 31
0.0
  0
LINE
  5
497
  8
0
  6
CONTINUOUS
 62
     8
 10
542.8525521983
 20
586.8132198869
 30
0.0
 11
542.8525521983
 21
584.2846269428
 31
0.0
  0
LINE
  5
498
  8
0
  6
CONTINUOUS
 62
     8
 10
542.8525521983
 20
581.798219186
 30
0.0
 11
542.8525521983
 21
579.269641143
 31
0.0
  0
LINE
  5
499
  8
0
  6
CONTINUOUS
 62
     8
 10
544.4626953085
 20
636.3620693504
 30
0.0
 11
544.4626953085
 21
635.035851103
 31
0.0
  0
LINE
  5
49A
  8
0
  6
CONTINUOUS
 62
     8
 10
544.4626953085
 20
631.3470686494
 30
0.0
 11
544.4626953085
 21
630.020850402
 31
0.0
  0
LINE
  5
49B
  8
0
  6
CONTINUOUS
 62
     8
 10
544.4626953085
 20
626.3320679485
 30
0.0
 11
544.4626953085
 21
625.0058497011
 31
0.0
  0
LINE
  5
49C
  8
0
  6
CONTINUOUS
 62
     8
 10
544.4626953085
 20
621.3170672475
 30
0.0
 11
544.4626953085
 21
619.9908490001
 31
0.0
  0
LINE
  5
49D
  8
0
  6
CONTINUOUS
 62
     8
 10
544.4626953085
 20
616.3020665466
 30
0.0
 11
544.4626953085
 21
614.9758482992
 31
0.0
  0
LINE
  5
49E
  8
0
  6
CONTINUOUS
 62
     8
 10
544.4626953085
 20
611.2870658456
 30
0.0
 11
544.4626953085
 21
609.9608475982
 31
0.0
  0
LINE
  5
49F
  8
0
  6
CONTINUOUS
 62
     8
 10
544.4626953085
 20
606.2720651447
 30
0.0
 11
544.4626953085
 21
604.9458468973
 31
0.0
  0
LINE
  5
4A0
  8
0
  6
CONTINUOUS
 62
     8
 10
544.4626953085
 20
601.2570644437
 30
0.0
 11
544.4626953085
 21
599.9308461963
 31
0.0
  0
LINE
  5
4A1
  8
0
  6
CONTINUOUS
 62
     8
 10
544.4626953085
 20
596.2420637428
 30
0.0
 11
544.4626953085
 21
594.9158454954
 31
0.0
  0
LINE
  5
4A2
  8
0
  6
CONTINUOUS
 62
     8
 10
544.4626953085
 20
591.2270630418
 30
0.0
 11
544.4626953085
 21
589.9008447944
 31
0.0
  0
LINE
  5
4A3
  8
0
  6
CONTINUOUS
 62
     8
 10
544.4626953085
 20
586.2120623409
 30
0.0
 11
544.4626953085
 21
584.8858440935
 31
0.0
  0
LINE
  5
4A4
  8
0
  6
CONTINUOUS
 62
     8
 10
544.4626953085
 20
581.1970765411
 30
0.0
 11
544.4626953085
 21
579.8708433925
 31
0.0
  0
CIRCLE
  5
4A5
  8
0
  6
CONTINUOUS
 62
     7
 10
368.1625970881
 20
325.7381866984
 30
0.0
 40
17.56813316986376
  0
LINE
  5
4A6
  8
0
  6
CONTINUOUS
 62
     7
 10
124.7798594515
 20
316.7707302843
 30
0.0
 11
124.8719635289
 21
316.5332337145
 31
0.0
  0
ARC
  5
4A7
  8
0
  6
CONTINUOUS
 62
     7
 10
33.4908010087
 20
279.8293205516
 30
0.0
 40
98.48812206345303
 50
4.8863295238
 51
22.2005987615
  0
ARC
  5
4A8
  8
0
  6
CONTINUOUS
 62
     7
 10
262.8971368693
 20
279.8142070592
 30
0.0
 40
98.55192437874447
 50
157.8050488514
 51
175.1080228633
  0
ARC
  5
4A9
  8
0
  6
CONTINUOUS
 62
     7
 10
161.8344741096
 20
237.9542145832
 30
0.0
 40
2.384594392296071
 50
258.9449469522
 51
10.7549873951
  0
ARC
  5
4AA
  8
0
  6
CONTINUOUS
 62
     7
 10
134.4907203979
 20
237.9542199845
 30
0.0
 40
2.384599858393048
 50
169.2451696505
 51
281.0550484618
  0
POLYLINE
  5
4AB
  8
0
  6
CONTINUOUS
 62
     7
 66
     1
 10
0.0
 20
0.0
 30
0.0
 70
   128
  0
VERTEX
  5
A61
  8
0
  6
CONTINUOUS
 62
     7
 10
164.7042128127
 20
288.2184597899
 30
0.0
  0
VERTEX
  5
A62
  8
0
  6
CONTINUOUS
 62
     7
 10
164.5327153485
 20
285.223032092
 30
0.0
  0
VERTEX
  5
A63
  8
0
  6
CONTINUOUS
 62
     7
 10
164.3768417518
 20
276.5317510117
 30
0.0
  0
SEQEND
  5
C0E
  8
0
  6
CONTINUOUS
 62
     7
  0
POLYLINE
  5
4AC
  8
0
  6
CONTINUOUS
 62
     7
 66
     1
 10
0.0
 20
0.0
 30
0.0
 70
   128
  0
VERTEX
  5
A64
  8
0
  6
CONTINUOUS
 62
     7
 10
131.9483461659
 20
276.5317510117
 30
0.0
  0
VERTEX
  5
A65
  8
0
  6
CONTINUOUS
 62
     7
 10
131.928199796
 20
279.5316863109
 30
0.0
  0
VERTEX
  5
A66
  8
0
  6
CONTINUOUS
 62
     7
 10
131.6209825556
 20
288.2184597899
 30
0.0
  0
SEQEND
  5
C0F
  8
0
  6
CONTINUOUS
 62
     7
  0
LINE
  5
4AD
  8
0
  6
CONTINUOUS
 62
     7
 10
132.1480068247
 20
238.3992026795
 30
0.0
 11
131.9483461659
 21
276.5317510117
 31
0.0
  0
LINE
  5
4AE
  8
0
  6
CONTINUOUS
 62
     7
 10
164.3768417518
 20
276.5317510117
 30
0.0
 11
164.177181093
 21
238.3992026795
 31
0.0
  0
LINE
  5
4AF
  8
0
  6
CONTINUOUS
 62
     7
 10
148.1625976841
 20
235.6138701786
 30
0.0
 11
134.947972266
 21
235.6138701786
 31
0.0
  0
LINE
  5
4B0
  8
0
  6
CONTINUOUS
 62
     7
 10
161.3772231023
 20
235.6138701786
 30
0.0
 11
148.1625976841
 21
235.6138701786
 31
0.0
  0
ARC
  5
4B1
  8
0
  6
CONTINUOUS
 62
     7
 10
148.162597088
 20
325.6138664955
 30
0.0
 40
25.0
 50
339.9505790809
 51
90.0
  0
ARC
  5
4B2
  8
0
  6
CONTINUOUS
 62
     7
 10
148.162597088
 20
325.6138664955
 30
0.0
 40
25.00000000000005
 50
90.0
 51
200.0494209191
  0
ARC
  5
4B3
  8
0
  6
CONTINUOUS
 62
     7
 10
148.1625970881
 20
325.7381866921
 30
0.0
 40
27.0
 50
318.9637724031
 51
90.0
  0
ARC
  5
4B4
  8
0
  6
CONTINUOUS
 62
     7
 10
148.1625970881
 20
325.7381866921
 30
0.0
 40
27.00000000000001
 50
90.0
 51
220.6022265046
  0
ARC
  5
4B5
  8
0
  6
CONTINUOUS
 62
     7
 10
148.1625970881
 20
325.7381866921
 30
0.0
 40
32.5
 50
303.7875884578
 51
90.0
  0
ARC
  5
4B6
  8
0
  6
CONTINUOUS
 62
     7
 10
148.1625970881
 20
325.7381866921
 30
0.0
 40
32.5
 50
90.0
 51
236.4707090959
  0
CIRCLE
  5
4B7
  8
0
  6
CONTINUOUS
 62
     7
 10
258.1625970881
 20
325.7381866921
 30
0.0
 40
11.0
  0
LINE
  5
4B8
  8
0
  6
CONTINUOUS
 62
     7
 10
283.1625974606
 20
325.738207118
 30
0.0
 11
282.8916868995
 21
322.0677459382
 31
0.0
  0
LINE
  5
4B9
  8
0
  6
CONTINUOUS
 62
     7
 10
233.4335072767
 20
322.0677459382
 30
0.0
 11
233.1625967156
 21
325.738207118
 31
0.0
  0
ARC
  5
4BA
  8
0
  6
CONTINUOUS
 62
     7
 10
415.7925585414
 20
300.4513342461
 30
0.0
 40
134.6473577074847
 50
170.761705028
 51
180.7857491547
  0
ARC
  5
4BB
  8
0
  6
CONTINUOUS
 62
     7
 10
100.5326356348
 20
300.4513342461
 30
0.0
 40
134.6473577074847
 50
359.2142508453
 51
9.238294972
  0
POLYLINE
  5
4BC
  8
0
  6
CONTINUOUS
 62
     7
 66
     1
 10
0.0
 20
0.0
 30
0.0
 70
   128
  0
VERTEX
  5
A67
  8
0
  6
CONTINUOUS
 62
     7
 10
239.2031754236
 20
89.2381916989
 30
0.0
  0
VERTEX
  5
A68
  8
0
  6
CONTINUOUS
 62
     7
 10
237.6824839841
 20
89.3419633855
 30
0.0
  0
VERTEX
  5
A69
  8
0
  6
CONTINUOUS
 62
     7
 10
236.8911727201
 20
89.579130267
 30
0.0
  0
VERTEX
  5
A6A
  8
0
  6
CONTINUOUS
 62
     7
 10
236.1817284356
 20
90.0228868474
 30
0.0
  0
VERTEX
  5
A6B
  8
0
  6
CONTINUOUS
 62
     7
 10
235.635794593
 20
90.7331059922
 30
0.0
  0
VERTEX
  5
A6C
  8
0
  6
CONTINUOUS
 62
     7
 10
235.3034651707
 20
91.7366097917
 30
0.0
  0
VERTEX
  5
A6D
  8
0
  6
CONTINUOUS
 62
     7
 10
235.2031766306
 20
93.2374845494
 30
0.0
  0
SEQEND
  5
C10
  8
0
  6
CONTINUOUS
 62
     7
  0
POLYLINE
  5
4BD
  8
0
  6
CONTINUOUS
 62
     7
 66
     1
 10
0.0
 20
0.0
 30
0.0
 70
   128
  0
VERTEX
  5
A6E
  8
0
  6
CONTINUOUS
 62
     7
 10
281.1220175456
 20
93.2374845494
 30
0.0
  0
VERTEX
  5
A6F
  8
0
  6
CONTINUOUS
 62
     7
 10
281.0217290055
 20
91.7366097917
 30
0.0
  0
VERTEX
  5
A70
  8
0
  6
CONTINUOUS
 62
     7
 10
280.6893995832
 20
90.7331059922
 30
0.0
  0
VERTEX
  5
A71
  8
0
  6
CONTINUOUS
 62
     7
 10
280.1434657406
 20
90.0228868474
 30
0.0
  0
VERTEX
  5
A72
  8
0
  6
CONTINUOUS
 62
     7
 10
279.4340214561
 20
89.579130267
 30
0.0
  0
VERTEX
  5
A73
  8
0
  6
CONTINUOUS
 62
     7
 10
278.6427101921
 20
89.3419633855
 30
0.0
  0
VERTEX
  5
A74
  8
0
  6
CONTINUOUS
 62
     7
 10
277.1220187526
 20
89.2381916989
 30
0.0
  0
SEQEND
  5
C11
  8
0
  6
CONTINUOUS
 62
     7
  0
LINE
  5
4BE
  8
0
  6
CONTINUOUS
 62
     7
 10
277.1220187526
 20
89.2381916989
 30
0.0
 11
258.1625970881
 21
89.2381916989
 31
0.0
  0
LINE
  5
4BF
  8
0
  6
CONTINUOUS
 62
     7
 10
258.1625970881
 20
89.2381916989
 30
0.0
 11
239.2031754236
 21
89.2381916989
 31
0.0
  0
POLYLINE
  5
4C0
  8
0
  6
CONTINUOUS
 62
     7
 66
     1
 10
0.0
 20
0.0
 30
0.0
 70
   128
  0
VERTEX
  5
A75
  8
0
  6
CONTINUOUS
 62
     7
 10
281.1562231611
 20
289.2177167584
 30
0.0
  0
VERTEX
  5
A76
  8
0
  6
CONTINUOUS
 62
     7
 10
281.1508848201
 20
258.6266498317
 30
0.0
  0
VERTEX
  5
A77
  8
0
  6
CONTINUOUS
 62
     7
 10
281.1402062755
 20
197.4445234288
 30
0.0
  0
VERTEX
  5
A78
  8
0
  6
CONTINUOUS
 62
     7
 10
281.1295277308
 20
136.2623821248
 30
0.0
  0
VERTEX
  5
A79
  8
0
  6
CONTINUOUS
 62
     7
 10
281.1221199911
 20
93.820388173
 30
0.0
  0
SEQEND
  5
C12
  8
0
  6
CONTINUOUS
 62
     7
  0
POLYLINE
  5
4C1
  8
0
  6
CONTINUOUS
 62
     7
 66
     1
 10
0.0
 20
0.0
 30
0.0
 70
   128
  0
VERTEX
  5
A7A
  8
0
  6
CONTINUOUS
 62
     7
 10
235.2030741851
 20
93.820388173
 30
0.0
  0
VERTEX
  5
A7B
  8
0
  6
CONTINUOUS
 62
     7
 10
235.1956664454
 20
136.2623821248
 30
0.0
  0
VERTEX
  5
A7C
  8
0
  6
CONTINUOUS
 62
     7
 10
235.1849879007
 20
197.4445234288
 30
0.0
  0
VERTEX
  5
A7D
  8
0
  6
CONTINUOUS
 62
     7
 10
235.1743093561
 20
258.6266498317
 30
0.0
  0
VERTEX
  5
A7E
  8
0
  6
CONTINUOUS
 62
     7
 10
235.1689710151
 20
289.2177167584
 30
0.0
  0
SEQEND
  5
C13
  8
0
  6
CONTINUOUS
 62
     7
  0
LINE
  5
4C2
  8
0
  6
CONTINUOUS
 62
     7
 10
235.2031766306
 20
93.2374845494
 30
0.0
 11
235.2030741851
 21
93.820388173
 31
0.0
  0
LINE
  5
4C3
  8
0
  6
CONTINUOUS
 62
     7
 10
281.1221199911
 20
93.820388173
 30
0.0
 11
281.1220175456
 21
93.2374845494
 31
0.0
  0
ARC
  5
4C4
  8
0
  6
CONTINUOUS
 62
     7
 10
258.1625970881
 20
325.7381866921
 30
0.0
 40
25.00000000000006
 50
0.0000468127
 51
90.0
  0
ARC
  5
4C5
  8
0
  6
CONTINUOUS
 62
     7
 10
258.1625970881
 20
325.7381866921
 30
0.0
 40
25.00000000000006
 50
90.0
 51
179.9999531873
  0
LINE
  5
4C6
  8
0
  6
CONTINUOUS
 62
     7
 10
281.1578622888
 20
298.6048504014
 30
0.0
 11
281.1562231611
 21
289.2177167584
 31
0.0
  0
LINE
  5
4C7
  8
0
  6
CONTINUOUS
 62
     7
 10
235.1689710151
 20
289.2177167584
 30
0.0
 11
235.1673318874
 21
298.6048504014
 31
0.0
  0
ARC
  5
4C8
  8
0
  6
CONTINUOUS
 62
     7
 10
258.1625970881
 20
325.7381866921
 30
0.0
 40
32.5
 50
315.3930688047
 51
90.0
  0
ARC
  5
4C9
  8
0
  6
CONTINUOUS
 62
     7
 10
258.1625970881
 20
325.7381866921
 30
0.0
 40
32.50000000000002
 50
90.0
 51
224.7976573528
  0
CIRCLE
  5
4CA
  8
0
  6
CONTINUOUS
 62
     7
 10
368.1625970881
 20
325.7381866921
 30
0.0
 40
32.49999999999994
  0
ARC
  5
4CB
  8
0
  6
CONTINUOUS
 62
     8
 10
148.1625928959
 20
325.6138613327
 30
0.0
 40
23.55000501333226
 50
339.9505963049
 51
89.9999883505
  0
ARC
  5
4CC
  8
0
  6
CONTINUOUS
 62
     8
 10
258.7068923834
 20
280.8190562333
 30
0.0
 40
95.74341876200441
 50
157.447050136
 51
175.5048689607
  0
POLYLINE
  5
4CD
  8
0
  6
CONTINUOUS
 62
     8
 66
     1
 10
0.0
 20
0.0
 30
0.0
 70
   128
  0
VERTEX
  5
A7F
  8
0
  6
CONTINUOUS
 62
     8
 10
163.257980613
 20
288.3228871275
 30
0.0
  0
VERTEX
  5
A80
  8
0
  6
CONTINUOUS
 62
     8
 10
162.9917862694
 20
282.4351105143
 30
0.0
  0
VERTEX
  5
A81
  8
0
  6
CONTINUOUS
 62
     8
 10
162.9268619101
 20
276.5393431534
 30
0.0
  0
SEQEND
  5
C14
  8
0
  6
CONTINUOUS
 62
     8
  0
LINE
  5
4CE
  8
0
  6
CONTINUOUS
 62
     8
 10
162.9268619101
 20
276.5393431534
 30
0.0
 11
162.7272012513
 21
238.4067948212
 31
0.0
  0
POLYLINE
  5
4CF
  8
0
  6
CONTINUOUS
 62
     8
 66
     1
 10
0.0
 20
0.0
 30
0.0
 70
   128
  0
VERTEX
  5
A82
  8
0
  6
CONTINUOUS
 62
     8
 10
162.7272012513
 20
238.4067948212
 30
0.0
  0
VERTEX
  5
A83
  8
0
  6
CONTINUOUS
 62
     8
 10
162.7054828088
 20
237.8153528322
 30
0.0
  0
VERTEX
  5
A84
  8
0
  6
CONTINUOUS
 62
     8
 10
162.6540961545
 20
237.5198106517
 30
0.0
  0
VERTEX
  5
A85
  8
0
  6
CONTINUOUS
 62
     8
 10
162.6074778717
 20
237.3792703499
 30
0.0
  0
VERTEX
  5
A86
  8
0
  6
CONTINUOUS
 62
     8
 10
162.5323834698
 20
237.253512
 30
0.0
  0
VERTEX
  5
A87
  8
0
  6
CONTINUOUS
 62
     8
 10
162.4723243396
 20
237.2092331995
 30
0.0
  0
VERTEX
  5
A88
  8
0
  6
CONTINUOUS
 62
     8
 10
162.2648405712
 20
237.1323953618
 30
0.0
  0
VERTEX
  5
A89
  8
0
  6
CONTINUOUS
 62
     8
 10
161.972010402
 20
237.0828117479
 30
0.0
  0
VERTEX
  5
A8A
  8
0
  6
CONTINUOUS
 62
     8
 10
161.3772231023
 20
237.0638649215
 30
0.0
  0
SEQEND
  5
C15
  8
0
  6
CONTINUOUS
 62
     8
  0
LINE
  5
4D0
  8
0
  6
CONTINUOUS
 62
     8
 10
161.3772231023
 20
237.0638649215
 30
0.0
 11
148.1625976841
 21
237.0638649215
 31
0.0
  0
LINE
  5
4D1
  8
0
  6
CONTINUOUS
 62
     8
 10
148.1625976841
 20
237.0638649215
 30
0.0
 11
134.947972266
 21
237.0638649215
 31
0.0
  0
POLYLINE
  5
4D2
  8
0
  6
CONTINUOUS
 62
     8
 66
     1
 10
0.0
 20
0.0
 30
0.0
 70
   128
  0
VERTEX
  5
A8B
  8
0
  6
CONTINUOUS
 62
     8
 10
134.947972266
 20
237.0638649215
 30
0.0
  0
VERTEX
  5
A8C
  8
0
  6
CONTINUOUS
 62
     8
 10
134.3564930241
 20
237.0824764718
 30
0.0
  0
VERTEX
  5
A8D
  8
0
  6
CONTINUOUS
 62
     8
 10
134.0576800387
 20
237.133103167
 30
0.0
  0
VERTEX
  5
A8E
  8
0
  6
CONTINUOUS
 62
     8
 10
133.9214163702
 20
237.1774341215
 30
0.0
  0
VERTEX
  5
A8F
  8
0
  6
CONTINUOUS
 62
     8
 10
133.7942424099
 20
237.2520740379
 30
0.0
  0
VERTEX
  5
A90
  8
0
  6
CONTINUOUS
 62
     8
 10
133.7498220484
 20
237.311887299
 30
0.0
  0
VERTEX
  5
A91
  8
0
  6
CONTINUOUS
 62
     8
 10
133.6710098069
 20
237.5201831807
 30
0.0
  0
VERTEX
  5
A92
  8
0
  6
CONTINUOUS
 62
     8
 10
133.6200254839
 20
237.8124396552
 30
0.0
  0
VERTEX
  5
A93
  8
0
  6
CONTINUOUS
 62
     8
 10
133.597994117
 20
238.4067948212
 30
0.0
  0
SEQEND
  5
C16
  8
0
  6
CONTINUOUS
 62
     8
  0
LINE
  5
4D3
  8
0
  6
CONTINUOUS
 62
     8
 10
133.597994117
 20
238.4067948212
 30
0.0
 11
133.3983260076
 21
276.5393431534
 31
0.0
  0
POLYLINE
  5
4D4
  8
0
  6
CONTINUOUS
 62
     8
 66
     1
 10
0.0
 20
0.0
 30
0.0
 70
   128
  0
VERTEX
  5
A94
  8
0
  6
CONTINUOUS
 62
     8
 10
133.3983334582
 20
276.5393431534
 30
0.0
  0
VERTEX
  5
A95
  8
0
  6
CONTINUOUS
 62
     8
 10
133.3330887239
 20
282.4491809358
 30
0.0
  0
VERTEX
  5
A96
  8
0
  6
CONTINUOUS
 62
     8
 10
133.0672147553
 20
288.3228871275
 30
0.0
  0
SEQEND
  5
C17
  8
0
  6
CONTINUOUS
 62
     8
  0
ARC
  5
4D5
  8
0
  6
CONTINUOUS
 62
     8
 10
34.9681753942
 20
280.1816639507
 30
0.0
 40
98.4362790763301
 50
4.7440959124
 51
22.3039573674
  0
ARC
  5
4D6
  8
0
  6
CONTINUOUS
 62
     8
 10
148.1625965867
 20
325.6138706623
 30
0.0
 40
23.54999568373418
 50
89.9999973299
 51
200.0494361415
  0
POLYLINE
  5
4D7
  8
0
  6
CONTINUOUS
 62
     8
 66
     1
 10
0.0
 20
0.0
 30
0.0
 70
   128
  0
VERTEX
  5
A97
  8
0
  6
CONTINUOUS
 62
     8
 10
126.0397824328
 20
317.5402057592
 30
0.0
  0
VERTEX
  5
A98
  8
0
  6
CONTINUOUS
 62
     8
 10
125.7716658394
 20
317.4423544903
 30
0.0
  0
VERTEX
  5
A99
  8
0
  6
CONTINUOUS
 62
     8
 10
125.5151423495
 20
317.3487370138
 30
0.0
  0
VERTEX
  5
A9A
  8
0
  6
CONTINUOUS
 62
     8
 10
125.2796592991
 20
317.2628010858
 30
0.0
  0
VERTEX
  5
A9B
  8
0
  6
CONTINUOUS
 62
     8
 10
125.0739040654
 20
317.1877104093
 30
0.0
  0
VERTEX
  5
A9C
  8
0
  6
CONTINUOUS
 62
     8
 10
124.9054464381
 20
317.1262300809
 30
0.0
  0
VERTEX
  5
A9D
  8
0
  6
CONTINUOUS
 62
     8
 10
124.7804703991
 20
317.0806232144
 30
0.0
  0
VERTEX
  5
A9E
  8
0
  6
CONTINUOUS
 62
     8
 10
124.7036102097
 20
317.0525699158
 30
0.0
  0
VERTEX
  5
A9F
  8
0
  6
CONTINUOUS
 62
     8
 10
124.6776672881
 20
317.0431030218
 30
0.0
  0
SEQEND
  5
C18
  8
0
  6
CONTINUOUS
 62
     8
  0
POLYLINE
  5
4D8
  8
0
  6
CONTINUOUS
 62
     8
 66
     1
 10
0.0
 20
0.0
 30
0.0
 70
   128
  0
VERTEX
  5
AA0
  8
0
  6
CONTINUOUS
 62
     8
 10
133.0672147553
 20
288.3228871275
 30
0.0
  0
VERTEX
  5
AA1
  8
0
  6
CONTINUOUS
 62
     8
 10
132.7825280707
 20
288.3023309757
 30
0.0
  0
VERTEX
  5
AA2
  8
0
  6
CONTINUOUS
 62
     8
 10
132.5101795476
 20
288.2826651682
 30
0.0
  0
VERTEX
  5
AA3
  8
0
  6
CONTINUOUS
 62
     8
 10
132.2601529639
 20
288.2646124114
 30
0.0
  0
VERTEX
  5
AA4
  8
0
  6
CONTINUOUS
 62
     8
 10
132.0416870396
 20
288.2488395323
 30
0.0
  0
VERTEX
  5
AA5
  8
0
  6
CONTINUOUS
 62
     8
 10
131.8628284018
 20
288.2359239508
 30
0.0
  0
VERTEX
  5
AA6
  8
0
  6
CONTINUOUS
 62
     8
 10
131.7301484625
 20
288.2263425042
 30
0.0
  0
VERTEX
  5
AA7
  8
0
  6
CONTINUOUS
 62
     8
 10
131.6485199015
 20
288.2204490949
 30
0.0
  0
VERTEX
  5
AA8
  8
0
  6
CONTINUOUS
 62
     8
 10
131.6209825556
 20
288.2184597899
 30
0.0
  0
SEQEND
  5
C19
  8
0
  6
CONTINUOUS
 62
     8
  0
POLYLINE
  5
4D9
  8
0
  6
CONTINUOUS
 62
     8
 66
     1
 10
0.0
 20
0.0
 30
0.0
 70
   128
  0
VERTEX
  5
AA9
  8
0
  6
CONTINUOUS
 62
     8
 10
163.257980613
 20
288.3228871275
 30
0.0
  0
VERTEX
  5
AAA
  8
0
  6
CONTINUOUS
 62
     8
 10
163.542659847
 20
288.3023309757
 30
0.0
  0
VERTEX
  5
AAB
  8
0
  6
CONTINUOUS
 62
     8
 10
163.8150232713
 20
288.2826651682
 30
0.0
  0
VERTEX
  5
AAC
  8
0
  6
CONTINUOUS
 62
     8
 10
164.0650349538
 20
288.2646124114
 30
0.0
  0
VERTEX
  5
AAD
  8
0
  6
CONTINUOUS
 62
     8
 10
164.2835008781
 20
288.2488395323
 30
0.0
  0
VERTEX
  5
AAE
  8
0
  6
CONTINUOUS
 62
     8
 10
164.4623669665
 20
288.2359239508
 30
0.0
  0
VERTEX
  5
AAF
  8
0
  6
CONTINUOUS
 62
     8
 10
164.5950543563
 20
288.2263425042
 30
0.0
  0
VERTEX
  5
AB0
  8
0
  6
CONTINUOUS
 62
     8
 10
164.6766680162
 20
288.2204490949
 30
0.0
  0
VERTEX
  5
AB1
  8
0
  6
CONTINUOUS
 62
     8
 10
164.7042128127
 20
288.2184597899
 30
0.0
  0
SEQEND
  5
C1A
  8
0
  6
CONTINUOUS
 62
     8
  0
POLYLINE
  5
4DA
  8
0
  6
CONTINUOUS
 62
     8
 66
     1
 10
0.0
 20
0.0
 30
0.0
 70
   128
  0
VERTEX
  5
AB2
  8
0
  6
CONTINUOUS
 62
     8
 10
170.2854054849
 20
317.5402057592
 30
0.0
  0
VERTEX
  5
AB3
  8
0
  6
CONTINUOUS
 62
     8
 10
170.5535295289
 20
317.4423544903
 30
0.0
  0
VERTEX
  5
AB4
  8
0
  6
CONTINUOUS
 62
     8
 10
170.8100530188
 20
317.3487370138
 30
0.0
  0
VERTEX
  5
AB5
  8
0
  6
CONTINUOUS
 62
     8
 10
171.0455286186
 20
317.2628010858
 30
0.0
  0
VERTEX
  5
AB6
  8
0
  6
CONTINUOUS
 62
     8
 10
171.2512838523
 20
317.1877104093
 30
0.0
  0
VERTEX
  5
AB7
  8
0
  6
CONTINUOUS
 62
     8
 10
171.4197489302
 20
317.1262300809
 30
0.0
  0
VERTEX
  5
AB8
  8
0
  6
CONTINUOUS
 62
     8
 10
171.5447175186
 20
317.0806232144
 30
0.0
  0
VERTEX
  5
AB9
  8
0
  6
CONTINUOUS
 62
     8
 10
171.6215851586
 20
317.0525699158
 30
0.0
  0
VERTEX
  5
ABA
  8
0
  6
CONTINUOUS
 62
     8
 10
171.6475280802
 20
317.0431030218
 30
0.0
  0
SEQEND
  5
C1B
  8
0
  6
CONTINUOUS
 62
     8
  0
LINE
  5
4DB
  8
0
  6
CONTINUOUS
 62
     8
 10
161.3772231023
 20
235.6138701786
 30
0.0
 11
161.3772231023
 21
237.0638649215
 31
0.0
  0
POLYLINE
  5
4DC
  8
0
  6
CONTINUOUS
 62
     8
 66
     1
 10
0.0
 20
0.0
 30
0.0
 70
   128
  0
VERTEX
  5
ABB
  8
0
  6
CONTINUOUS
 62
     8
 10
164.177181093
 20
238.3992026795
 30
0.0
  0
VERTEX
  5
ABC
  8
0
  6
CONTINUOUS
 62
     8
 10
164.1495692413
 20
238.3993516911
 30
0.0
  0
VERTEX
  5
ABD
  8
0
  6
CONTINUOUS
 62
     8
 10
164.0677395146
 20
238.3997763742
 30
0.0
  0
VERTEX
  5
ABE
  8
0
  6
CONTINUOUS
 62
     8
 10
163.934709398
 20
238.4004767288
 30
0.0
  0
VERTEX
  5
ABF
  8
0
  6
CONTINUOUS
 62
     8
 10
163.7553813736
 20
238.401415502
 30
0.0
  0
VERTEX
  5
AC0
  8
0
  6
CONTINUOUS
 62
     8
 10
163.5363492053
 20
238.4025628914
 30
0.0
  0
VERTEX
  5
AC1
  8
0
  6
CONTINUOUS
 62
     8
 10
163.2856893222
 20
238.4038741936
 30
0.0
  0
VERTEX
  5
AC2
  8
0
  6
CONTINUOUS
 62
     8
 10
163.0126180928
 20
238.405304705
 30
0.0
  0
VERTEX
  5
AC3
  8
0
  6
CONTINUOUS
 62
     8
 10
162.7272012513
 20
238.4067948212
 30
0.0
  0
SEQEND
  5
C1C
  8
0
  6
CONTINUOUS
 62
     8
  0
POLYLINE
  5
4DD
  8
0
  6
CONTINUOUS
 62
     8
 66
     1
 10
0.0
 20
0.0
 30
0.0
 70
   128
  0
VERTEX
  5
AC4
  8
0
  6
CONTINUOUS
 62
     8
 10
132.1480068247
 20
238.3992026795
 30
0.0
  0
VERTEX
  5
AC5
  8
0
  6
CONTINUOUS
 62
     8
 10
132.1756335776
 20
238.3993516911
 30
0.0
  0
VERTEX
  5
AC6
  8
0
  6
CONTINUOUS
 62
     8
 10
132.2574558537
 20
238.3997763742
 30
0.0
  0
VERTEX
  5
AC7
  8
0
  6
CONTINUOUS
 62
     8
 10
132.3904785197
 20
238.4004767288
 30
0.0
  0
VERTEX
  5
AC8
  8
0
  6
CONTINUOUS
 62
     8
 10
132.5698139947
 20
238.401415502
 30
0.0
  0
VERTEX
  5
AC9
  8
0
  6
CONTINUOUS
 62
     8
 10
132.788846163
 20
238.4025628914
 30
0.0
  0
VERTEX
  5
ACA
  8
0
  6
CONTINUOUS
 62
     8
 10
133.0395134966
 20
238.4038741936
 30
0.0
  0
VERTEX
  5
ACB
  8
0
  6
CONTINUOUS
 62
     8
 10
133.3125772755
 20
238.405304705
 30
0.0
  0
VERTEX
  5
ACC
  8
0
  6
CONTINUOUS
 62
     8
 10
133.597994117
 20
238.4067948212
 30
0.0
  0
SEQEND
  5
C1D
  8
0
  6
CONTINUOUS
 62
     8
  0
LINE
  5
4DE
  8
0
  6
CONTINUOUS
 62
     8
 10
134.947972266
 20
235.6138701786
 30
0.0
 11
134.947972266
 21
237.0638649215
 31
0.0
  0
POLYLINE
  5
4DF
  8
0
  6
CONTINUOUS
 62
     8
 66
     1
 10
0.0
 20
0.0
 30
0.0
 70
   128
  0
VERTEX
  5
ACD
  8
0
  6
CONTINUOUS
 62
     8
 10
162.9268619101
 20
276.5393431534
 30
0.0
  0
VERTEX
  5
ACE
  8
0
  6
CONTINUOUS
 62
     8
 10
163.2122862022
 20
276.537849312
 30
0.0
  0
VERTEX
  5
ACF
  8
0
  6
CONTINUOUS
 62
     8
 10
163.4853499811
 20
276.5364188005
 30
0.0
  0
VERTEX
  5
AD0
  8
0
  6
CONTINUOUS
 62
     8
 10
163.7360173147
 20
276.5351074983
 30
0.0
  0
VERTEX
  5
AD1
  8
0
  6
CONTINUOUS
 62
     8
 10
163.9550420325
 20
276.5339601089
 30
0.0
  0
VERTEX
  5
AD2
  8
0
  6
CONTINUOUS
 62
     8
 10
164.1343700569
 20
276.5330213357
 30
0.0
  0
VERTEX
  5
AD3
  8
0
  6
CONTINUOUS
 62
     8
 10
164.2674001734
 20
276.5323247065
 30
0.0
  0
VERTEX
  5
AD4
  8
0
  6
CONTINUOUS
 62
     8
 10
164.3492299001
 20
276.5318962981
 30
0.0
  0
VERTEX
  5
AD5
  8
0
  6
CONTINUOUS
 62
     8
 10
164.3768417518
 20
276.5317510117
 30
0.0
  0
SEQEND
  5
C1E
  8
0
  6
CONTINUOUS
 62
     8
  0
POLYLINE
  5
4E0
  8
0
  6
CONTINUOUS
 62
     8
 66
     1
 10
0.0
 20
0.0
 30
0.0
 70
   128
  0
VERTEX
  5
AD6
  8
0
  6
CONTINUOUS
 62
     8
 10
131.9483461659
 20
276.5317510117
 30
0.0
  0
VERTEX
  5
AD7
  8
0
  6
CONTINUOUS
 62
     8
 10
131.9759580176
 20
276.5318962981
 30
0.0
  0
VERTEX
  5
AD8
  8
0
  6
CONTINUOUS
 62
     8
 10
132.0577951949
 20
276.5323247065
 30
0.0
  0
VERTEX
  5
AD9
  8
0
  6
CONTINUOUS
 62
     8
 10
132.1908178608
 20
276.5330213357
 30
0.0
  0
VERTEX
  5
ADA
  8
0
  6
CONTINUOUS
 62
     8
 10
132.3701533358
 20
276.5339601089
 30
0.0
  0
VERTEX
  5
ADB
  8
0
  6
CONTINUOUS
 62
     8
 10
132.5891855042
 20
276.5351074983
 30
0.0
  0
VERTEX
  5
ADC
  8
0
  6
CONTINUOUS
 62
     8
 10
132.8398379366
 20
276.5364188005
 30
0.0
  0
VERTEX
  5
ADD
  8
0
  6
CONTINUOUS
 62
     8
 10
133.1129166167
 20
276.537849312
 30
0.0
  0
VERTEX
  5
ADE
  8
0
  6
CONTINUOUS
 62
     8
 10
133.3983260076
 20
276.5393431534
 30
0.0
  0
SEQEND
  5
C1F
  8
0
  6
CONTINUOUS
 62
     8
  0
LINE
  5
4E1
  8
0
  6
CONTINUOUS
 62
     8
 10
148.1625976841
 20
235.6138701786
 30
0.0
 11
148.1625976841
 21
237.0638649215
 31
0.0
  0
LINE
  5
4E2
  8
0
  6
CONTINUOUS
 62
     8
 10
148.1625976841
 20
349.163866346
 30
0.0
 11
148.1625976841
 21
350.6138666768
 31
0.0
  0
ARC
  5
4E3
  8
0
  6
CONTINUOUS
 62
     8
 10
148.1625970881
 20
325.7381866921
 30
0.0
 40
26.00000000000001
 50
90.0
 51
214.4497516078
  0
ARC
  5
4E4
  8
0
  6
CONTINUOUS
 62
     8
 10
148.1625970881
 20
325.7381866921
 30
0.0
 40
26.0
 50
325.4912642309
 51
90.0
  0
ARC
  5
4E5
  8
0
  6
CONTINUOUS
 62
     8
 10
148.1625970881
 20
325.7381866921
 30
0.0
 40
30.80000000000007
 50
90.0
 51
232.8839539073
  0
ARC
  5
4E6
  8
0
  6
CONTINUOUS
 62
     8
 10
148.1625970881
 20
325.7381866921
 30
0.0
 40
30.80000000000007
 50
307.2070117175
 51
90.0
  0
CIRCLE
  5
4E7
  8
0
  6
CONTINUOUS
 62
     8
 10
258.1625970881
 20
325.7381866921
 30
0.0
 40
10.50868414523194
  0
POLYLINE
  5
4E8
  8
0
  6
CONTINUOUS
 62
     8
 66
     1
 10
0.0
 20
0.0
 30
0.0
 70
   128
  0
VERTEX
  5
ADF
  8
0
  6
CONTINUOUS
 62
     8
 10
281.7326317411
 20
322.2402266462
 30
0.0
  0
VERTEX
  5
AE0
  8
0
  6
CONTINUOUS
 62
     8
 10
281.9900977294
 20
325.7381266921
 30
0.0
  0
VERTEX
  5
AE1
  8
0
  6
CONTINUOUS
 62
     8
 10
281.9900977294
 20
325.7381866921
 30
0.0
  0
SEQEND
  5
C20
  8
0
  6
CONTINUOUS
 62
     8
  0
POLYLINE
  5
4E9
  8
0
  6
CONTINUOUS
 62
     8
 66
     1
 10
0.0
 20
0.0
 30
0.0
 70
   128
  0
VERTEX
  5
AE2
  8
0
  6
CONTINUOUS
 62
     8
 10
234.3350964468
 20
325.7381866921
 30
0.0
  0
VERTEX
  5
AE3
  8
0
  6
CONTINUOUS
 62
     8
 10
234.3350964468
 20
325.7381266921
 30
0.0
  0
VERTEX
  5
AE4
  8
0
  6
CONTINUOUS
 62
     8
 10
234.5925624352
 20
322.2402266462
 30
0.0
  0
SEQEND
  5
C21
  8
0
  6
CONTINUOUS
 62
     8
  0
POLYLINE
  5
4EA
  8
0
  6
CONTINUOUS
 62
     8
 66
     1
 10
0.0
 20
0.0
 30
0.0
 70
   128
  0
VERTEX
  5
AE5
  8
0
  6
CONTINUOUS
 62
     8
 10
234.3350964468
 20
325.7381866921
 30
0.0
  0
VERTEX
  5
AE6
  8
0
  6
CONTINUOUS
 62
     8
 10
233.8843959253
 20
325.7381916512
 30
0.0
  0
VERTEX
  5
AE7
  8
0
  6
CONTINUOUS
 62
     8
 10
233.5044107269
 20
325.7381967654
 30
0.0
  0
VERTEX
  5
AE8
  8
0
  6
CONTINUOUS
 62
     8
 10
233.2513368558
 20
325.7382019572
 30
0.0
  0
VERTEX
  5
AE9
  8
0
  6
CONTINUOUS
 62
     8
 10
233.1625967156
 20
325.738207118
 30
0.0
  0
SEQEND
  5
C22
  8
0
  6
CONTINUOUS
 62
     8
  0
ARC
  5
4EB
  8
0
  6
CONTINUOUS
 62
     8
 10
411.3012771134
 20
300.7796155463
 30
0.0
 40
131.3338939208176
 50
170.5954115
 51
180.9487593664
  0
POLYLINE
  5
4EC
  8
0
  6
CONTINUOUS
 62
     8
 66
     1
 10
0.0
 20
0.0
 30
0.0
 70
   128
  0
VERTEX
  5
AEA
  8
0
  6
CONTINUOUS
 62
     8
 10
279.9828535746
 20
289.2178024401
 30
0.0
  0
VERTEX
  5
AEB
  8
0
  6
CONTINUOUS
 62
     8
 10
279.9834850113
 20
291.6178020884
 30
0.0
  0
VERTEX
  5
AEC
  8
0
  6
CONTINUOUS
 62
     8
 10
279.9844219219
 20
295.1113811929
 30
0.0
  0
VERTEX
  5
AED
  8
0
  6
CONTINUOUS
 62
     8
 10
279.9853886347
 20
298.6049602975
 30
0.0
  0
SEQEND
  5
C23
  8
0
  6
CONTINUOUS
 62
     8
  0
POLYLINE
  5
4ED
  8
0
  6
CONTINUOUS
 62
     8
 66
     1
 10
0.0
 20
0.0
 30
0.0
 70
   128
  0
VERTEX
  5
AEE
  8
0
  6
CONTINUOUS
 62
     8
 10
279.9312080126
 20
93.8197027196
 30
0.0
  0
VERTEX
  5
AEF
  8
0
  6
CONTINUOUS
 62
     8
 10
279.943058161
 20
136.2624864329
 30
0.0
  0
VERTEX
  5
AF0
  8
0
  6
CONTINUOUS
 62
     8
 10
279.9590303432
 20
197.4446128358
 30
0.0
  0
VERTEX
  5
AF1
  8
0
  6
CONTINUOUS
 62
     8
 10
279.9749708604
 20
258.6267466892
 30
0.0
  0
VERTEX
  5
AF2
  8
0
  6
CONTINUOUS
 62
     8
 10
279.9828535746
 20
289.2178024401
 30
0.0
  0
SEQEND
  5
C24
  8
0
  6
CONTINUOUS
 62
     8
  0
POLYLINE
  5
4EE
  8
0
  6
CONTINUOUS
 62
     8
 66
     1
 10
0.0
 20
0.0
 30
0.0
 70
   128
  0
VERTEX
  5
AF3
  8
0
  6
CONTINUOUS
 62
     8
 10
236.3423406016
 20
289.2178024401
 30
0.0
  0
VERTEX
  5
AF4
  8
0
  6
CONTINUOUS
 62
     8
 10
236.3429664503
 20
286.8178027917
 30
0.0
  0
VERTEX
  5
AF5
  8
0
  6
CONTINUOUS
 62
     8
 10
236.3454437684
 20
277.2178041984
 30
0.0
  0
VERTEX
  5
AF6
  8
0
  6
CONTINUOUS
 62
     8
 10
236.3554200958
 20
238.8178060998
 30
0.0
  0
VERTEX
  5
AF7
  8
0
  6
CONTINUOUS
 62
     8
 10
236.3742812406
 20
166.3187544097
 30
0.0
  0
VERTEX
  5
AF8
  8
0
  6
CONTINUOUS
 62
     8
 10
236.3821360152
 20
136.2624864329
 30
0.0
  0
VERTEX
  5
AF9
  8
0
  6
CONTINUOUS
 62
     8
 10
236.3939861636
 20
93.8197027196
 30
0.0
  0
SEQEND
  5
C25
  8
0
  6
CONTINUOUS
 62
     8
  0
POLYLINE
  5
4EF
  8
0
  6
CONTINUOUS
 62
     8
 66
     1
 10
0.0
 20
0.0
 30
0.0
 70
   128
  0
VERTEX
  5
AFA
  8
0
  6
CONTINUOUS
 62
     8
 10
236.3398055415
 20
298.6049602975
 30
0.0
  0
VERTEX
  5
AFB
  8
0
  6
CONTINUOUS
 62
     8
 10
236.3404723685
 20
296.2049587865
 30
0.0
  0
VERTEX
  5
AFC
  8
0
  6
CONTINUOUS
 62
     8
 10
236.3423406016
 20
289.2178024401
 30
0.0
  0
SEQEND
  5
C26
  8
0
  6
CONTINUOUS
 62
     8
  0
ARC
  5
4F0
  8
0
  6
CONTINUOUS
 62
     8
 10
105.0239170628
 20
300.7796155463
 30
0.0
 40
131.3338939208177
 50
359.0512406336
 51
9.4045885
  0
ARC
  5
4F1
  8
0
  6
CONTINUOUS
 62
     8
 10
258.1625970881
 20
325.7381866921
 30
0.0
 40
23.82744526482691
 50
0.0
 51
90.0
  0
ARC
  5
4F2
  8
0
  6
CONTINUOUS
 62
     8
 10
258.1625970881
 20
325.7381866921
 30
0.0
 40
23.82744526482696
 50
90.0
 51
180.0
  0
LINE
  5
4F3
  8
0
  6
CONTINUOUS
 62
     8
 10
236.3943605553
 20
93.8194195975
 30
0.0
 11
236.3951726686
 21
93.236426567
 31
0.0
  0
POLYLINE
  5
4F4
  8
0
  6
CONTINUOUS
 62
     8
 66
     1
 10
0.0
 20
0.0
 30
0.0
 70
   128
  0
VERTEX
  5
AFD
  8
0
  6
CONTINUOUS
 62
     8
 10
239.2007018309
 20
90.4293607224
 30
0.0
  0
VERTEX
  5
AFE
  8
0
  6
CONTINUOUS
 62
     8
 10
247.3907665219
 20
90.4180060376
 30
0.0
  0
VERTEX
  5
AFF
  8
0
  6
CONTINUOUS
 62
     8
 10
255.5797175839
 20
90.4063831319
 30
0.0
  0
VERTEX
  5
B00
  8
0
  6
CONTINUOUS
 62
     8
 10
258.1625966456
 20
90.4028962602
 30
0.0
  0
SEQEND
  5
C27
  8
0
  6
CONTINUOUS
 62
     8
  0
POLYLINE
  5
4F5
  8
0
  6
CONTINUOUS
 62
     8
 66
     1
 10
0.0
 20
0.0
 30
0.0
 70
   128
  0
VERTEX
  5
B01
  8
0
  6
CONTINUOUS
 62
     8
 10
236.3951726686
 20
93.236426567
 30
0.0
  0
VERTEX
  5
B02
  8
0
  6
CONTINUOUS
 62
     8
 10
236.4767546635
 20
91.9544498671
 30
0.0
  0
VERTEX
  5
B03
  8
0
  6
CONTINUOUS
 62
     8
 10
236.6955782156
 20
91.2824522008
 30
0.0
  0
VERTEX
  5
B04
  8
0
  6
CONTINUOUS
 62
     8
 10
236.9743528645
 20
90.9153918971
 30
0.0
  0
VERTEX
  5
B05
  8
0
  6
CONTINUOUS
 62
     8
 10
237.3630738686
 20
90.6753639926
 30
0.0
  0
VERTEX
  5
B06
  8
0
  6
CONTINUOUS
 62
     8
 10
237.9047776442
 20
90.5140142192
 30
0.0
  0
VERTEX
  5
B07
  8
0
  6
CONTINUOUS
 62
     8
 10
239.2007018309
 20
90.4293607224
 30
0.0
  0
SEQEND
  5
C28
  8
0
  6
CONTINUOUS
 62
     8
  0
LINE
  5
4F6
  8
0
  6
CONTINUOUS
 62
     8
 10
279.9300215076
 20
93.236426567
 30
0.0
 11
279.9308336209
 21
93.8194195975
 31
0.0
  0
POLYLINE
  5
4F7
  8
0
  6
CONTINUOUS
 62
     8
 66
     1
 10
0.0
 20
0.0
 30
0.0
 70
   128
  0
VERTEX
  5
B08
  8
0
  6
CONTINUOUS
 62
     8
 10
277.1244923453
 20
90.4293607224
 30
0.0
  0
VERTEX
  5
B09
  8
0
  6
CONTINUOUS
 62
     8
 10
278.420416532
 20
90.5140142192
 30
0.0
  0
VERTEX
  5
B0A
  8
0
  6
CONTINUOUS
 62
     8
 10
278.9621203076
 20
90.6753639926
 30
0.0
  0
VERTEX
  5
B0B
  8
0
  6
CONTINUOUS
 62
     8
 10
279.3508413117
 20
90.9153918971
 30
0.0
  0
VERTEX
  5
B0C
  8
0
  6
CONTINUOUS
 62
     8
 10
279.6296159606
 20
91.2824522008
 30
0.0
  0
VERTEX
  5
B0D
  8
0
  6
CONTINUOUS
 62
     8
 10
279.8484395127
 20
91.9544498671
 30
0.0
  0
VERTEX
  5
B0E
  8
0
  6
CONTINUOUS
 62
     8
 10
279.9300215076
 20
93.236426567
 30
0.0
  0
SEQEND
  5
C29
  8
0
  6
CONTINUOUS
 62
     8
  0
POLYLINE
  5
4F8
  8
0
  6
CONTINUOUS
 62
     8
 66
     1
 10
0.0
 20
0.0
 30
0.0
 70
   128
  0
VERTEX
  5
B0F
  8
0
  6
CONTINUOUS
 62
     8
 10
258.1625975306
 20
90.4028962602
 30
0.0
  0
VERTEX
  5
B10
  8
0
  6
CONTINUOUS
 62
     8
 10
260.7454765923
 20
90.4063831319
 30
0.0
  0
VERTEX
  5
B11
  8
0
  6
CONTINUOUS
 62
     8
 10
268.9344276543
 20
90.4180060376
 30
0.0
  0
VERTEX
  5
B12
  8
0
  6
CONTINUOUS
 62
     8
 10
277.1244923453
 20
90.4293607224
 30
0.0
  0
SEQEND
  5
C2A
  8
0
  6
CONTINUOUS
 62
     8
  0
POLYLINE
  5
4F9
  8
0
  6
CONTINUOUS
 62
     8
 66
     1
 10
0.0
 20
0.0
 30
0.0
 70
   128
  0
VERTEX
  5
B13
  8
0
  6
CONTINUOUS
 62
     8
 10
236.3423406016
 20
289.2178024401
 30
0.0
  0
VERTEX
  5
B14
  8
0
  6
CONTINUOUS
 62
     8
 10
236.1120524685
 20
289.2177651872
 30
0.0
  0
VERTEX
  5
B15
  8
0
  6
CONTINUOUS
 62
     8
 10
235.8913606833
 20
289.2177353848
 30
0.0
  0
VERTEX
  5
B16
  8
0
  6
CONTINUOUS
 62
     8
 10
235.688511176
 20
289.2177093078
 30
0.0
  0
VERTEX
  5
B17
  8
0
  6
CONTINUOUS
 62
     8
 10
235.5110793244
 20
289.2176944066
 30
0.0
  0
VERTEX
  5
B18
  8
0
  6
CONTINUOUS
 62
     8
 10
235.3656942825
 20
289.2176869561
 30
0.0
  0
VERTEX
  5
B19
  8
0
  6
CONTINUOUS
 62
     8
 10
235.2577856611
 20
289.2176869561
 30
0.0
  0
VERTEX
  5
B1A
  8
0
  6
CONTINUOUS
 62
     8
 10
235.1913842242
 20
289.2176981319
 30
0.0
  0
VERTEX
  5
B1B
  8
0
  6
CONTINUOUS
 62
     8
 10
235.1689710151
 20
289.2177167584
 30
0.0
  0
SEQEND
  5
C2B
  8
0
  6
CONTINUOUS
 62
     8
  0
ENDSEC
  0
EOF
