  0
SECTION
  2
HEADER
  9
$ACADVER
  1
AC1024
  9
$ACADMAINTVER
 70
     6
  9
$DWGCODEPAGE
  3
ANSI_1252
  9
$INSBASE
 10
0.0
 20
0.0
 30
0.0
  9
$EXTMIN
 10
0.0
 20
0.0
 30
0.0
  9
$EXTMAX
 10
594.0
 20
841.0
 30
0.0
  9
$LIMMIN
 10
0.0
 20
0.0
  9
$LIMMAX
 10
594.0
 20
841.0
  9
$ORTHOMODE
 70
     0
  9
$REGENMODE
 70
     1
  9
$FILLMODE
 70
     1
  9
$QTEXTMODE
 70
     0
  9
$MIRRTEXT
 70
     1
  9
$LTSCALE
 40
1.0
  9
$ATTMODE
 70
     1
  9
$TEXTSIZE
 40
10.0
  9
$TRACEWID
 40
1.0
  9
$TEXTSTYLE
  7
Standard
  9
$CLAYER
  8
0
  9
$CELTYPE
  6
ByLayer
  9
$CECOLOR
 62
   256
  9
$CELTSCALE
 40
1.0
  9
$DISPSILH
 70
     0
  9
$DIMSCALE
 40
1.0
  9
$DIMASZ
 40
2.5
  9
$DIMEXO
 40
0.0
  9
$DIMDLI
 40
3.75
  9
$DIMRND
 40
0.0
  9
$DIMDLE
 40
0.0
  9
$DIMEXE
 40
1.0
  9
$DIMTP
 40
0.0
  9
$DIMTM
 40
0.0
  9
$DIMTXT
 40
3.5
  9
$DIMCEN
 40
2.5
  9
$DIMTSZ
 40
0.0
  9
$DIMTOL
 70
     0
  9
$DIMLIM
 70
     0
  9
$DIMTIH
 70
     1
  9
$DIMTOH
 70
     1
  9
$DIMSE1
 70
     0
  9
$DIMSE2
 70
     0
  9
$DIMTAD
 70
     1
  9
$DIMZIN
 70
     0
  9
$DIMBLK
  1

  9
$DIMASO
 70
     1
  9
$DIMSHO
 70
     1
  9
$DIMPOST
  1

  9
$DIMAPOST
  1

  9
$DIMALT
 70
     0
  9
$DIMALTD
 70
     3
  9
$DIMALTF
 40
0.0393700787
  9
$DIMLFAC
 40
1.0
  9
$DIMTOFL
 70
     1
  9
$DIMTVP
 40
0.0
  9
$DIMTIX
 70
     0
  9
$DIMSOXD
 70
     0
  9
$DIMSAH
 70
     0
  9
$DIMBLK1
  1

  9
$DIMBLK2
  1

  9
$DIMSTYLE
  2
ISO-25
  9
$DIMCLRD
 70
     0
  9
$DIMCLRE
 70
     0
  9
$DIMCLRT
 70
     0
  9
$DIMTFAC
 40
1.0
  9
$DIMGAP
 40
1.5
  9
$DIMJUST
 70
     0
  9
$DIMSD1
 70
     0
  9
$DIMSD2
 70
     0
  9
$DIMTOLJ
 70
     0
  9
$DIMTZIN
 70
     0
  9
$DIMALTZ
 70
     0
  9
$DIMALTTZ
 70
     0
  9
$DIMUPT
 70
     0
  9
$DIMDEC
 70
     2
  9
$DIMTDEC
 70
     2
  9
$DIMALTU
 70
     2
  9
$DIMALTTD
 70
     3
  9
$DIMTXSTY
  7
Standard
  9
$DIMAUNIT
 70
     0
  9
$DIMADEC
 70
     2
  9
$DIMALTRND
 40
0.0
  9
$DIMAZIN
 70
     0
  9
$DIMDSEP
 70
    44
  9
$DIMATFIT
 70
     3
  9
$DIMFRAC
 70
     0
  9
$DIMLDRBLK
  1

  9
$DIMLUNIT
 70
     2
  9
$DIMLWD
 70
    -2
  9
$DIMLWE
 70
    -2
  9
$DIMTMOVE
 70
     0
  9
$DIMFXL
 40
1.0
  9
$DIMFXLON
 70
     0
  9
$DIMJOGANG
 40
0.7853981634
  9
$DIMTFILL
 70
     0
  9
$DIMTFILLCLR
 70
     0
  9
$DIMARCSYM
 70
     0
  9
$DIMLTYPE
  6

  9
$DIMLTEX1
  6

  9
$DIMLTEX2
  6

  9
$DIMTXTDIRECTION
 70
     0
  9
$LUNITS
 70
     2
  9
$LUPREC
 70
     2
  9
$SKETCHINC
 40
1.0
  9
$FILLETRAD
 40
10.0
  9
$AUNITS
 70
     0
  9
$AUPREC
 70
     2
  9
$MENU
  1
.
  9
$ELEVATION
 40
0.0
  9
$PELEVATION
 40
0.0
  9
$THICKNESS
 40
0.0
  9
$LIMCHECK
 70
     0
  9
$CHAMFERA
 40
10.0
  9
$CHAMFERB
 40
10.0
  9
$CHAMFERC
 40
20.0
  9
$CHAMFERD
 40
0.0
  9
$SKPOLY
 70
     0
  9
$TDCREATE
 40
2456462.406870475
  9
$TDUCREATE
 40
2456462.323537141
  9
$TDUPDATE
 40
2456462.406873727
  9
$TDUUPDATE
 40
2456462.323540394
  9
$TDINDWG
 40
0.0000000116
  9
$TDUSRTIMER
 40
0.0000000116
  9
$USRTIMER
 70
     1
  9
$ANGBASE
 50
0.0
  9
$ANGDIR
 70
     0
  9
$PDMODE
 70
     0
  9
$PDSIZE
 40
-1.0
  9
$PLINEWID
 40
0.0
  9
$SPLFRAME
 70
     0
  9
$SPLINETYPE
 70
     6
  9
$SPLINESEGS
 70
     8
  9
$HANDSEED
  5
15F
  9
$SURFTAB1
 70
     6
  9
$SURFTAB2
 70
     6
  9
$SURFTYPE
 70
     6
  9
$SURFU
 70
     6
  9
$SURFV
 70
     6
  9
$UCSBASE
  2

  9
$UCSNAME
  2

  9
$UCSORG
 10
0.0
 20
0.0
 30
0.0
  9
$UCSXDIR
 10
1.0
 20
0.0
 30
0.0
  9
$UCSYDIR
 10
0.0
 20
1.0
 30
0.0
  9
$UCSORTHOREF
  2

  9
$UCSORTHOVIEW
 70
     0
  9
$UCSORGTOP
 10
0.0
 20
0.0
 30
0.0
  9
$UCSORGBOTTOM
 10
0.0
 20
0.0
 30
0.0
  9
$UCSORGLEFT
 10
0.0
 20
0.0
 30
0.0
  9
$UCSORGRIGHT
 10
0.0
 20
0.0
 30
0.0
  9
$UCSORGFRONT
 10
0.0
 20
0.0
 30
0.0
  9
$UCSORGBACK
 10
0.0
 20
0.0
 30
0.0
  9
$PUCSBASE
  2

  9
$PUCSNAME
  2

  9
$PUCSORG
 10
0.0
 20
0.0
 30
0.0
  9
$PUCSXDIR
 10
1.0
 20
0.0
 30
0.0
  9
$PUCSYDIR
 10
0.0
 20
1.0
 30
0.0
  9
$PUCSORTHOREF
  2

  9
$PUCSORTHOVIEW
 70
     0
  9
$PUCSORGTOP
 10
0.0
 20
0.0
 30
0.0
  9
$PUCSORGBOTTOM
 10
0.0
 20
0.0
 30
0.0
  9
$PUCSORGLEFT
 10
0.0
 20
0.0
 30
0.0
  9
$PUCSORGRIGHT
 10
0.0
 20
0.0
 30
0.0
  9
$PUCSORGFRONT
 10
0.0
 20
0.0
 30
0.0
  9
$PUCSORGBACK
 10
0.0
 20
0.0
 30
0.0
  9
$USERI1
 70
     0
  9
$USERI2
 70
     0
  9
$USERI3
 70
     0
  9
$USERI4
 70
     0
  9
$USERI5
 70
     0
  9
$USERR1
 40
0.0
  9
$USERR2
 40
0.0
  9
$USERR3
 40
0.0
  9
$USERR4
 40
0.0
  9
$USERR5
 40
0.0
  9
$WORLDVIEW
 70
     1
  9
$SHADEDGE
 70
     3
  9
$SHADEDIF
 70
    70
  9
$TILEMODE
 70
     1
  9
$MAXACTVP
 70
    64
  9
$PINSBASE
 10
0.0
 20
0.0
 30
0.0
  9
$PLIMCHECK
 70
     0
  9
$PEXTMIN
 10
1.0000000000E+20
 20
1.0000000000E+20
 30
1.0000000000E+20
  9
$PEXTMAX
 10
-1.0000000000E+20
 20
-1.0000000000E+20
 30
-1.0000000000E+20
  9
$PLIMMIN
 10
0.0
 20
0.0
  9
$PLIMMAX
 10
420.0
 20
297.0
  9
$UNITMODE
 70
     0
  9
$VISRETAIN
 70
     1
  9
$PLINEGEN
 70
     0
  9
$PSLTSCALE
 70
     1
  9
$TREEDEPTH
 70
  3020
  9
$CMLSTYLE
  2
Standard
  9
$CMLJUST
 70
     0
  9
$CMLSCALE
 40
20.0
  9
$PROXYGRAPHICS
 70
     1
  9
$MEASUREMENT
 70
     1
  9
$CELWEIGHT
370
    -1
  9
$ENDCAPS
280
     0
  9
$JOINSTYLE
280
     0
  9
$LWDISPLAY
290
     1
  9
$INSUNITS
 70
     4
  9
$HYPERLINKBASE
  1

  9
$STYLESHEET
  1

  9
$XEDIT
290
     1
  9
$CEPSNTYPE
380
     0
  9
$PSTYLEMODE
290
     1
  9
$FINGERPRINTGUID
  2
{D2D39702-D17B-4319-834F-6B14152206DE}
  9
$VERSIONGUID
  2
{FAEB1C32-E019-11D5-929B-00C0DF256EC4}
  9
$EXTNAMES
290
     1
  9
$PSVPSCALE
 40
0.0
  9
$OLESTARTUP
290
     0
  9
$SORTENTS
280
   127
  9
$INDEXCTL
280
     0
  9
$HIDETEXT
280
     1
  9
$XCLIPFRAME
280
     2
  9
$HALOGAP
280
     0
  9
$OBSCOLOR
 70
   257
  9
$OBSLTYPE
280
     0
  9
$INTERSECTIONDISPLAY
280
     0
  9
$INTERSECTIONCOLOR
 70
   257
  9
$DIMASSOC
280
     2
  9
$PROJECTNAME
  1

  9
$CAMERADISPLAY
290
     0
  9
$LENSLENGTH
 40
50.0
  9
$CAMERAHEIGHT
 40
0.0
  9
$STEPSPERSEC
 40
2.0
  9
$STEPSIZE
 40
6.0
  9
$3DDWFPREC
 40
2.0
  9
$PSOLWIDTH
 40
5.0
  9
$PSOLHEIGHT
 40
80.0
  9
$LOFTANG1
 40
1.5707963268
  9
$LOFTANG2
 40
1.5707963268
  9
$LOFTMAG1
 40
0.0
  9
$LOFTMAG2
 40
0.0
  9
$LOFTPARAM
 70
     7
  9
$LOFTNORMALS
280
     1
  9
$LATITUDE
 40
37.795
  9
$LONGITUDE
 40
-122.394
  9
$NORTHDIRECTION
 40
0.0
  9
$TIMEZONE
 70
 -8000
  9
$LIGHTGLYPHDISPLAY
280
     1
  9
$TILEMODELIGHTSYNCH
280
     1
  9
$SOLIDHIST
280
     1
  9
$SHOWHIST
280
     1
  9
$DWFFRAME
280
     2
  9
$DGNFRAME
280
     2
  9
$REALWORLDSCALE
290
     1
  9
$INTERFERECOLOR
 62
   256
  9
$CSHADOW
280
     0
  9
$SHADOWPLANELOCATION
 40
0.0
  0
ENDSEC
  0
SECTION
  2
CLASSES
  0
CLASS
  1
ACDBDICTIONARYWDFLT
  2
AcDbDictionaryWithDefault
  3
ObjectDBX Classes
 90
        0
 91
        4
280
     0
281
     0
  0
CLASS
  1
VISUALSTYLE
  2
AcDbVisualStyle
  3
ObjectDBX Classes
 90
     4095
 91
        4
280
     0
281
     0
  0
CLASS
  1
MATERIAL
  2
AcDbMaterial
  3
ObjectDBX Classes
 90
     1153
 91
        4
280
     0
281
     0
  0
ENDSEC
  0
SECTION
  2
TABLES
  0
TABLE
  2
VPORT
  5
8
330
0
100
AcDbSymbolTable
 70
     1
  0
VPORT
  5
29
330
8
100
AcDbSymbolTableRecord
100
AcDbViewportTableRecord
  2
*Active
 70
     0
 10
0.0
 20
0.0
 11
1.0
 21
1.0
 12
297.0
 22
420.5
 13
0.0
 23
0.0
 14
10.0
 24
10.0
 15
10.0
 25
10.0
 16
0.0
 26
0.0
 36
1.0
 17
0.0
 27
0.0
 37
0.0
 40
841.0
 41
0.7063020214
 42
50.0
 43
0.0
 44
0.0
 50
0.0
 51
0.0
 71
     0
 72
  2000
 73
     1
 74
     3
 75
     0
 76
     0
 77
     0
 78
     0
281
     0
 65
     1
110
0.0
120
0.0
130
0.0
111
1.0
121
0.0
131
0.0
112
0.0
122
1.0
132
0.0
 79
     0
146
0.0
 60
     3
 61
     5
292
     1
282
     1
141
0.0
142
0.0
 63
   250
  0
ENDTAB
  0
TABLE
  2
LTYPE
  5
5
330
0
100
AcDbSymbolTable
 70
     6
  0
LTYPE
  5
14
330
5
100
AcDbSymbolTableRecord
100
AcDbLinetypeTableRecord
  2
ByBlock
 70
     0
  3

 72
    65
 73
     0
 40
0.0
  0
LTYPE
  5
15
330
5
100
AcDbSymbolTableRecord
100
AcDbLinetypeTableRecord
  2
ByLayer
 70
     0
  3

 72
    65
 73
     0
 40
0.0
  0
LTYPE
  5
16
330
5
100
AcDbSymbolTableRecord
100
AcDbLinetypeTableRecord
  2
Continuous
 70
     0
  3
Solid line
 72
    65
 73
     0
 40
0.0
  0
LTYPE
  5
3F
330
5
100
AcDbSymbolTableRecord
100
AcDbLinetypeTableRecord
  2
HIDDEN
 70
     0
  3
Hidden __ __ __ __ __ __ __ __ __ __ __ __ __ __
 72
    65
 73
     2
 40
1.905
 49
1.27
 74
     0
 49
-0.635
 74
     0
  0
LTYPE
  5
40
330
5
100
AcDbSymbolTableRecord
100
AcDbLinetypeTableRecord
  2
PHANTOM
 70
     0
  3
Phantom ______  __  __  ______  __  __  ______
 72
    65
 73
     6
 40
12.7
 49
6.35
 74
     0
 49
-1.27
 74
     0
 49
1.27
 74
     0
 49
-1.27
 74
     0
 49
1.27
 74
     0
 49
-1.27
 74
     0
  0
LTYPE
  5
41
330
5
100
AcDbSymbolTableRecord
100
AcDbLinetypeTableRecord
  2
CENTER
 70
     0
  3
Center ____ _ ____ _ ____ _ ____ _ ____ _ ____
 72
    65
 73
     4
 40
10.16
 49
6.35
 74
     0
 49
-1.27
 74
     0
 49
1.27
 74
     0
 49
-1.27
 74
     0
  0
LTYPE
  5
42
330
5
100
AcDbSymbolTableRecord
100
AcDbLinetypeTableRecord
  2
CENTERX2
 70
     0
  3
Center (2x) ________  __  ________  __  _____
 72
    65
 73
     4
 40
20.32
 49
12.7
 74
     0
 49
-2.54
 74
     0
 49
2.54
 74
     0
 49
-2.54
 74
     0
  0
LTYPE
  5
43
330
5
100
AcDbSymbolTableRecord
100
AcDbLinetypeTableRecord
  2
DOT2
 70
     0
  3
Dot (.5x) ........................................
 72
    65
 73
     2
 40
0.635
 49
0.0
 74
     0
 49
-0.635
 74
     0
  0
ENDTAB
  0
TABLE
  2
LAYER
  5
2
330
0
100
AcDbSymbolTable
 70
     1
  0
LAYER
  5
10
330
2
100
AcDbSymbolTableRecord
100
AcDbLayerTableRecord
  2
0
 70
     0
 62
     7
  6
Continuous
370
    -3
390
F
347
3E
  0
ENDTAB
  0
TABLE
  2
STYLE
  5
3
330
0
100
AcDbSymbolTable
 70
     3
  0
STYLE
  5
11
330
3
100
AcDbSymbolTableRecord
100
AcDbTextStyleTableRecord
  2
Standard
 70
     0
 40
0.0
 41
1.0
 50
0.0
 71
     0
 42
10.0
  3
txt
  4

  0
STYLE
  5
47
330
3
100
AcDbSymbolTableRecord
100
AcDbTextStyleTableRecord
  2
SLDTEXTSTYLE0
 70
     0
 40
0.0
 41
0.96
 50
0.0
 71
     0
 42
0.2
  3
ISOCP3
  4

  0
STYLE
  5
5E
330
3
100
AcDbSymbolTableRecord
100
AcDbTextStyleTableRecord
  2
SLDTEXTSTYLE1
 70
     0
 40
0.0
 41
0.605
 50
0.0
 71
     0
 42
0.2
  3
TXT
  4

  0
ENDTAB
  0
TABLE
  2
VIEW
  5
6
330
0
100
AcDbSymbolTable
 70
     0
  0
ENDTAB
  0
TABLE
  2
UCS
  5
7
330
0
100
AcDbSymbolTable
 70
     0
  0
ENDTAB
  0
TABLE
  2
APPID
  5
9
330
0
100
AcDbSymbolTable
 70
     1
  0
APPID
  5
12
330
9
100
AcDbSymbolTableRecord
100
AcDbRegAppTableRecord
  2
ACAD
 70
     0
  0
ENDTAB
  0
TABLE
  2
DIMSTYLE
  5
A
330
0
100
AcDbSymbolTable
 70
     2
100
AcDbDimStyleTable
  0
DIMSTYLE
105
27
330
A
100
AcDbSymbolTableRecord
100
AcDbDimStyleTableRecord
  2
ISO-25
 70
     0
 41
2.5
 42
0.625
 43
3.75
 44
1.25
 73
     0
 74
     0
 77
     1
 78
     8
140
2.5
141
2.5
143
0.0393700787
147
0.625
171
     3
172
     1
178
     0
271
     2
272
     2
274
     3
278
    44
283
     0
284
     8
340
11
  0
DIMSTYLE
105
48
102
{ACAD_REACTORS
330
46
330
53
102
}
330
A
100
AcDbSymbolTableRecord
100
AcDbDimStyleTableRecord
  2
SLDDIMSTYLE0
 70
     0
 41
2.5
 44
0.0
 45
0.000000001
 73
     0
 74
     0
 77
     1
 78
    12
 79
     3
140
6.0
147
1.5
173
     1
178
     0
271
     2
272
     2
276
     2
284
    12
340
47
  0
ENDTAB
  0
TABLE
  2
BLOCK_RECORD
  5
1
330
0
100
AcDbSymbolTable
 70
     3
  0
BLOCK_RECORD
  5
1F
330
1
100
AcDbSymbolTableRecord
100
AcDbBlockTableRecord
  2
*Model_Space
340
22
 70
     0
280
     1
281
     0
  0
BLOCK_RECORD
  5
1B
330
1
100
AcDbSymbolTableRecord
100
AcDbBlockTableRecord
  2
*Paper_Space
340
1E
 70
     0
280
     1
281
     0
  0
BLOCK_RECORD
  5
23
330
1
100
AcDbSymbolTableRecord
100
AcDbBlockTableRecord
  2
*Paper_Space0
340
26
 70
     0
280
     1
281
     0
  0
BLOCK_RECORD
  5
49
330
1
100
AcDbSymbolTableRecord
100
AcDbBlockTableRecord
  2
_D
340
0
 70
     0
280
     1
281
     0
  0
BLOCK_RECORD
  5
54
330
1
100
AcDbSymbolTableRecord
100
AcDbBlockTableRecord
  2
_D_1
340
0
 70
     0
280
     1
281
     0
  0
ENDTAB
  0
ENDSEC
  0
SECTION
  2
BLOCKS
  0
BLOCK
  5
20
330
1F
100
AcDbEntity
  8
0
100
AcDbBlockBegin
  2
*Model_Space
 70
     0
 10
0.0
 20
0.0
 30
0.0
  3
*Model_Space
  1

  0
ENDBLK
  5
21
330
1F
100
AcDbEntity
  8
0
100
AcDbBlockEnd
  0
BLOCK
  5
1C
330
1B
100
AcDbEntity
 67
     1
  8
0
100
AcDbBlockBegin
  2
*Paper_Space
 70
     0
 10
0.0
 20
0.0
 30
0.0
  3
*Paper_Space
  1

  0
ENDBLK
  5
1D
330
1B
100
AcDbEntity
 67
     1
  8
0
100
AcDbBlockEnd
  0
BLOCK
  5
24
330
23
100
AcDbEntity
  8
0
100
AcDbBlockBegin
  2
*Paper_Space0
 70
     0
 10
0.0
 20
0.0
 30
0.0
  3
*Paper_Space0
  1

  0
ENDBLK
  5
25
330
23
100
AcDbEntity
  8
0
100
AcDbBlockEnd
  0
BLOCK
  5
4A
330
49
100
AcDbEntity
  8
0
100
AcDbBlockBegin
  2
_D
 70
     0
 10
0.0
 20
0.0
 30
0.0
  3
_D
  1

  0
SOLID
  5
4C
330
49
100
AcDbEntity
  8
0
  6
Continuous
 62
     7
370
     0
100
AcDbTrace
 10
42.7614395004
 20
152.0299240879
 30
0.0
 11
42.4614395004
 21
149.5299240879
 31
0.0
 12
43.0614395004
 22
149.5299240879
 32
0.0
 13
43.0614395004
 23
149.5299240879
 33
0.0
  0
SOLID
  5
4D
330
49
100
AcDbEntity
  8
0
  6
Continuous
 62
     7
370
     0
100
AcDbTrace
 10
42.7614395004
 20
52.0299240879
 30
0.0
 11
43.0614395004
 21
54.5299240879
 31
0.0
 12
42.4614395004
 22
54.5299240879
 32
0.0
 13
42.4614395004
 23
54.5299240879
 33
0.0
  0
LINE
  5
4E
330
49
100
AcDbEntity
  8
0
  6
Continuous
 62
     7
370
     0
100
AcDbLine
 10
56.6850079902
 20
152.0299240879
 30
0.0
 11
41.7614395004
 21
152.0299240879
 31
0.0
  0
LINE
  5
4F
330
49
100
AcDbEntity
  8
0
  6
Continuous
 62
     7
370
     0
100
AcDbLine
 10
56.6850079902
 20
52.0299240879
 30
0.0
 11
41.7614395004
 21
52.0299240879
 31
0.0
  0
LINE
  5
50
330
49
100
AcDbEntity
  8
0
  6
Continuous
 62
     7
370
     0
100
AcDbLine
 10
42.7614395004
 20
152.0299240879
 30
0.0
 11
42.7614395004
 21
52.0299240879
 31
0.0
  0
MTEXT
  5
51
330
49
100
AcDbEntity
  8
0
  6
Continuous
 62
     7
370
     0
100
AcDbMText
 10
35.0270329453
 20
91.6722208134
 30
0.1
 40
6.0
 41
0.0
 46
0.0
 71
     1
 72
     1
  1
100
  7
SLDTEXTSTYLE0
 11
-7.044195017643634E-15
 21
1.0
 31
0.0
 73
     1
 44
1.0
  0
MTEXT
  5
52
330
49
100
AcDbEntity
  8
0
  6
Continuous
 62
     7
370
     0
100
AcDbMText
 10
35.0270329453
 20
108.4388881795
 30
0.1
 40
6.0
 41
0.0
 46
0.0
 71
     1
 72
     1
  1
mm
  7
SLDTEXTSTYLE0
 11
-7.044195017643634E-15
 21
1.0
 31
0.0
 73
     1
 44
1.0
  0
ENDBLK
  5
4B
330
49
100
AcDbEntity
  8
0
100
AcDbBlockEnd
  0
BLOCK
  5
55
330
54
100
AcDbEntity
  8
0
100
AcDbBlockBegin
  2
_D_1
 70
     0
 10
0.0
 20
0.0
 30
0.0
  3
_D_1
  1

  0
SOLID
  5
57
330
54
100
AcDbEntity
  8
0
  6
Continuous
 62
     7
370
     0
100
AcDbTrace
 10
56.6850079902
 20
38.4602342313
 30
0.0
 11
59.1850079902
 21
38.1602342313
 31
0.0
 12
59.1850079902
 22
38.7602342313
 32
0.0
 13
59.1850079902
 23
38.7602342313
 33
0.0
  0
SOLID
  5
58
330
54
100
AcDbEntity
  8
0
  6
Continuous
 62
     7
370
     0
100
AcDbTrace
 10
156.6850079902
 20
38.4602342313
 30
0.0
 11
154.1850079902
 21
38.7602342313
 31
0.0
 12
154.1850079902
 22
38.1602342313
 32
0.0
 13
154.1850079902
 23
38.1602342313
 33
0.0
  0
LINE
  5
59
330
54
100
AcDbEntity
  8
0
  6
Continuous
 62
     7
370
     0
100
AcDbLine
 10
56.6850079902
 20
52.0299240879
 30
0.0
 11
56.6850079902
 21
37.4602342313
 31
0.0
  0
LINE
  5
5A
330
54
100
AcDbEntity
  8
0
  6
Continuous
 62
     7
370
     0
100
AcDbLine
 10
156.6850079902
 20
52.0299240879
 30
0.0
 11
156.6850079902
 21
37.4602342313
 31
0.0
  0
LINE
  5
5B
330
54
100
AcDbEntity
  8
0
  6
Continuous
 62
     7
370
     0
100
AcDbLine
 10
56.6850079902
 20
38.4602342313
 30
0.0
 11
156.6850079902
 21
38.4602342313
 31
0.0
  0
MTEXT
  5
5C
330
54
100
AcDbEntity
  8
0
  6
Continuous
 62
     7
370
     0
100
AcDbMText
 10
91.2668151533
 20
46.1946407863
 30
0.1
 40
6.0
 41
0.0
 46
0.0
 71
     1
 72
     1
  1
100
  7
SLDTEXTSTYLE0
 73
     1
 44
1.0
  0
MTEXT
  5
5D
330
54
100
AcDbEntity
  8
0
  6
Continuous
 62
     7
370
     0
100
AcDbMText
 10
108.0334825193
 20
46.1946407863
 30
0.1
 40
6.0
 41
0.0
 46
0.0
 71
     1
 72
     1
  1
mm
  7
SLDTEXTSTYLE0
 73
     1
 44
1.0
  0
ENDBLK
  5
56
330
54
100
AcDbEntity
  8
0
100
AcDbBlockEnd
  0
ENDSEC
  0
SECTION
  2
ENTITIES
  0
LINE
  5
44
330
1F
100
AcDbEntity
  8
0
  6
Continuous
 62
     7
370
     0
100
AcDbLine
 10
56.6850079902
 20
152.0299240879
 30
0.0
 11
56.6850079902
 21
52.0299240879
 31
0.0
  0
LINE
  5
45
330
1F
100
AcDbEntity
  8
0
  6
Continuous
 62
     7
370
     0
100
AcDbLine
 10
56.6850079902
 20
52.0299240879
 30
0.0
 11
156.6850079902
 21
52.0299240879
 31
0.0
  0
DIMENSION
  5
46
330
1F
100
AcDbEntity
  8
0
  6
Continuous
 62
     7
370
     0
100
AcDbDimension
280
     0
  2
_D
 10
42.7614395004
 20
52.0299240879
 30
0.0
 11
42.7614395004
 21
105.4472211621
 31
0.0
 70
   160
  1
<>mm
 71
     2
 42
-1.0
 73
     0
 74
     0
 75
     0
  3
SLDDIMSTYLE0
100
AcDbAlignedDimension
 13
56.6850079902
 23
152.0299240879
 33
0.0
 14
56.6850079902
 24
52.0299240879
 34
0.0
 50
90.0
100
AcDbRotatedDimension
  0
DIMENSION
  5
53
330
1F
100
AcDbEntity
  8
0
  6
Continuous
 62
     7
370
     0
100
AcDbDimension
280
     0
  2
_D_1
 10
156.6850079902
 20
38.4602342313
 30
0.0
 11
105.0418155019
 21
38.4602342313
 31
0.0
 70
   160
  1
<>mm
 71
     2
 42
-1.0
 73
     0
 74
     0
 75
     0
  3
SLDDIMSTYLE0
100
AcDbAlignedDimension
 13
56.6850079902
 23
52.0299240879
 33
0.0
 14
156.6850079902
 24
52.0299240879
 34
0.0
100
AcDbRotatedDimension
  0
MTEXT
  5
5F
330
1F
100
AcDbEntity
  8
0
  6
Continuous
 62
     7
370
     0
100
AcDbMText
 10
281.4417756516
 20
46.8636192619
 30
0.0
 40
10.0
 41
0.0
 46
0.0
 71
     1
 72
     1
  1
32 574 05 75
  7
SLDTEXTSTYLE1
 73
     1
 44
1.0
  0
MTEXT
  5
60
330
1F
100
AcDbEntity
  8
0
  6
Continuous
 62
     7
370
     0
100
AcDbMText
 10
412.8252631579
 20
48.4342449499
 30
0.0
 40
10.0
 41
0.0
 46
0.0
 71
     1
 72
     1
  1
KLUDI GmbH & Co KG
  7
SLDTEXTSTYLE1
 73
     1
 44
1.0
  0
SPLINE
  5
61
330
1F
100
AcDbEntity
  8
0
  6
Continuous
 62
     7
370
    15
100
AcDbSpline
210
0.0
220
0.0
230
1.0
 70
     8
 71
     3
 72
    21
 73
    17
 74
     0
 42
0.00000001
 43
0.00000001
 12
1.0
 22
0.0
 32
0.0
 13
1.0
 23
0.0
 33
0.0
 40
0.0
 40
0.0
 40
0.0
 40
0.0
 40
0.057382894092792
 40
0.1216391419076895
 40
0.1817078785856202
 40
0.2391914582090396
 40
0.3097580700767072
 40
0.386556378115151
 40
0.4680148184903001
 40
0.5511798385381863
 40
0.6336106432341074
 40
0.7155444536415532
 40
0.798764651922023
 40
0.8815481438853457
 40
0.9619953269130637
 40
1.0
 40
1.0
 40
1.0
 40
1.0
 10
182.7742703384714
 20
561.0836050181912
 30
0.0
 10
182.7578152976807
 20
561.3386516134186
 30
0.0
 10
182.7229342225191
 20
561.879294421357
 30
0.0
 10
182.5788899877321
 20
562.745769122857
 30
0.0
 10
182.2166236112097
 20
563.7537699397037
 30
0.0
 10
181.6211868810815
 20
564.6694878087835
 30
0.0
 10
180.7807816780572
 20
565.5715735111855
 30
0.0
 10
179.6267285376904
 20
566.4650272095212
 30
0.0
 10
178.1928587781856
 20
567.3007152717956
 30
0.0
 10
176.5166264931322
 20
568.0467774201554
 30
0.0
 10
174.6453065277473
 20
568.6786419679505
 30
0.0
 10
172.6185700367228
 20
569.1916473436296
 30
0.0
 10
170.4634686226751
 20
569.5851667313723
 30
0.0
 10
168.2281027161295
 20
569.8403560845661
 30
0.0
 10
166.3572430496259
 20
569.9574506409683
 30
0.0
 10
165.2506364005329
 20
569.9482257384029
 30
0.0
 10
164.8955873087407
 20
569.9452659755276
 30
0.0
  0
SPLINE
  5
62
330
1F
100
AcDbEntity
  8
0
  6
Continuous
 62
     7
370
    15
100
AcDbSpline
210
0.0
220
0.0
230
1.0
 70
     8
 71
     3
 72
    21
 73
    17
 74
     0
 42
0.00000001
 43
0.00000001
 12
1.0
 22
0.0
 32
0.0
 13
1.0
 23
0.0
 33
0.0
 40
0.0
 40
0.0
 40
0.0
 40
0.0
 40
0.0116263056740754
 40
0.0973634373169491
 40
0.1803391380564506
 40
0.2613129548236837
 40
0.3439180499180496
 40
0.4274187536893807
 40
0.5106584314772468
 40
0.5938293497266014
 40
0.6781311876700371
 40
0.7518378623070702
 40
0.818937449400216
 40
0.8796914433360681
 40
0.9353511523668655
 40
1.0
 40
1.0
 40
1.0
 40
1.0
 10
164.8926696456541
 20
569.9532529979275
 30
0.0
 10
164.7841952120476
 20
569.9554681299077
 30
0.0
 10
163.8757859535087
 20
569.9740185508022
 30
0.0
 10
162.1910698105122
 20
569.8865011913725
 30
0.0
 10
159.908120681356
 20
569.6670051920256
 30
0.0
 10
157.7375946501382
 20
569.3079100266848
 30
0.0
 10
155.677541843747
 20
568.8289890543207
 30
0.0
 10
153.7469794989523
 20
568.2243487560572
 30
0.0
 10
151.9995575911867
 20
567.4985798295618
 30
0.0
 10
150.4561129087061
 20
566.6582132832862
 30
0.0
 10
149.1940739106608
 20
565.7390369687198
 30
0.0
 10
148.2389656234666
 20
564.7650739318875
 30
0.0
 10
147.5851223939312
 20
563.790721694501
 30
0.0
 10
147.2243371443139
 20
562.7740860086363
 30
0.0
 10
147.0709593859854
 20
561.9061285478066
 30
0.0
 10
147.0375693718631
 20
561.3720546035902
 30
0.0
 10
147.0196269578294
 20
561.0850653319882
 30
0.0
  0
LINE
  5
63
330
1F
100
AcDbEntity
  8
0
  6
Continuous
 62
     7
370
    15
100
AcDbLine
 10
176.8955852962
 20
541.0695871978
 30
0.0
 11
176.8955852962
 21
544.7042933374
 31
0.0
  0
LINE
  5
64
330
1F
100
AcDbEntity
  8
0
  6
Continuous
 62
     7
370
    15
100
AcDbLine
 10
152.8955850876
 20
544.7056195407
 30
0.0
 11
152.8955850876
 21
541.0695871978
 31
0.0
  0
LINE
  5
65
330
1F
100
AcDbEntity
  8
0
  6
Continuous
 62
     7
370
    15
100
AcDbLine
 10
155.9955854095
 20
537.6409194141
 30
0.0
 11
155.9955854095
 21
537.4694815546
 31
0.0
  0
LINE
  5
66
330
1F
100
AcDbEntity
  8
0
  6
Continuous
 62
     7
370
    15
100
AcDbLine
 10
173.7955849743
 20
537.4694815546
 30
0.0
 11
173.7955849743
 21
537.6409194141
 31
0.0
  0
SPLINE
  5
67
330
1F
100
AcDbEntity
  8
0
  6
Continuous
 62
     7
370
    15
100
AcDbSpline
210
0.0
220
0.0
230
1.0
 70
     8
 71
     3
 72
    21
 73
    17
 74
     0
 42
0.00000001
 43
0.00000001
 12
1.0
 22
0.0
 32
0.0
 13
1.0
 23
0.0
 33
0.0
 40
0.0
 40
0.0
 40
0.0
 40
0.0
 40
0.1163861202224573
 40
0.211169195922573
 40
0.2852468240614004
 40
0.338099714891035
 40
0.3853915976005363
 40
0.4291366631453992
 40
0.4752015444758741
 40
0.5404050294717807
 40
0.6250548748441398
 40
0.7020508079383282
 40
0.7898552375773351
 40
0.8546116389786562
 40
0.9242527850233402
 40
1.0
 40
1.0
 40
1.0
 40
1.0
 10
181.3073050356464
 20
567.8065172105358
 30
0.0
 10
181.2619529035826
 20
568.355950226327
 30
0.0
 10
181.1796666890153
 20
569.3528330843187
 30
0.0
 10
181.0382303155888
 20
570.7164178992209
 30
0.0
 10
180.6330127845654
 20
571.7838328122054
 30
0.0
 10
180.0473837861077
 20
572.6631053881692
 30
0.0
 10
179.4412901960062
 20
573.3288336727742
 30
0.0
 10
178.7720691661496
 20
573.9147051311202
 30
0.0
 10
177.9351517632442
 20
574.5148605659097
 30
0.0
 10
176.7374430662002
 20
575.2028605825881
 30
0.0
 10
175.1235477131675
 20
575.8981588451913
 30
0.0
 10
173.1232618900229
 20
576.5293023450638
 30
0.0
 10
171.1085855701883
 20
576.980032471604
 30
0.0
 10
169.0507709337512
 20
577.2884151053335
 30
0.0
 10
167.0451212379918
 20
577.4888916618781
 30
0.0
 10
165.6318817748852
 20
577.5289891288322
 30
0.0
 10
164.8955851919027
 20
577.5498798757122
 30
0.0
  0
SPLINE
  5
68
330
1F
100
AcDbEntity
  8
0
  6
Continuous
 62
     7
370
    15
100
AcDbSpline
210
0.0
220
0.0
230
1.0
 70
     8
 71
     3
 72
    21
 73
    17
 74
     0
 42
0.00000001
 43
0.00000001
 12
1.0
 22
0.0
 32
0.0
 13
1.0
 23
0.0
 33
0.0
 40
0.0
 40
0.0
 40
0.0
 40
0.0
 40
0.09293783760933
 40
0.1768449759679899
 40
0.253227365606949
 40
0.3225960452201983
 40
0.4027849024179571
 40
0.4696356592757272
 40
0.5267189984052886
 40
0.5641704487220248
 40
0.5971873428122226
 40
0.6259970012632916
 40
0.6643903449333666
 40
0.7462901221263938
 40
0.8593705068557459
 40
0.9999999999999999
 40
0.9999999999999999
 40
0.9999999999999999
 40
0.9999999999999999
 10
164.8955851919027
 20
577.5498351722287
 30
0.0
 10
163.9934687154397
 20
577.5209297798596
 30
0.0
 10
162.2768937368928
 20
577.4659277101925
 30
0.0
 10
159.8837376301099
 20
577.1827798056006
 30
0.0
 10
157.8100143600448
 20
576.8032974357969
 30
0.0
 10
155.8993052792759
 20
576.3084264709081
 30
0.0
 10
154.2247029777027
 20
575.7243957895425
 30
0.0
 10
152.8233840143774
 20
575.0764112182998
 30
0.0
 10
151.8439061930961
 20
574.5018391306953
 30
0.0
 10
151.1476850248876
 20
574.0078609977351
 30
0.0
 10
150.6533155731456
 20
573.599476999757
 30
0.0
 10
150.1874155722174
 20
573.154649950189
 30
0.0
 10
149.5902783385952
 20
572.473473569007
 30
0.0
 10
148.9225170686546
 20
571.3790273375095
 30
0.0
 10
148.6479938945577
 20
569.7542143926614
 30
0.0
 10
148.5423921545093
 20
568.5010483789129
 30
0.0
 10
148.4838578975753
 20
567.8064278035687
 30
0.0
  0
SPLINE
  5
69
330
1F
100
AcDbEntity
  8
0
  6
Continuous
 62
     7
370
    15
100
AcDbSpline
210
0.0
220
0.0
230
1.0
 70
     8
 71
     3
 72
     9
 73
     5
 74
     0
 42
0.00000001
 43
0.00000001
 12
1.0
 22
0.0
 32
0.0
 13
1.0
 23
0.0
 33
0.0
 40
0.0
 40
0.0
 40
0.0
 40
0.0
 40
0.586637244582162
 40
0.9999999999999999
 40
0.9999999999999999
 40
0.9999999999999999
 40
0.9999999999999999
 10
148.4829731411294
 20
567.7948943048046
 30
0.0
 10
148.441528517235
 20
567.1986359519825
 30
0.0
 10
148.3708807288833
 20
566.1822355131616
 30
0.0
 10
148.3043476677934
 20
565.1653441523285
 30
0.0
 10
148.2768453783349
 20
564.7449991374539
 30
0.0
  0
LINE
  5
6A
330
1F
100
AcDbEntity
  8
0
  6
Continuous
 62
     7
370
    15
100
AcDbLine
 10
181.5036203838
 20
564.7394708067
 30
0.0
 11
181.3081748909
 21
567.7951774269
 31
0.0
  0
SPLINE
  5
6B
330
1F
100
AcDbEntity
  8
0
  6
Continuous
 62
     7
370
    15
100
AcDbSpline
210
0.0
220
0.0
230
1.0
 70
     8
 71
     3
 72
    12
 73
     8
 74
     0
 42
0.00000001
 43
0.00000001
 12
1.0
 22
0.0
 32
0.0
 13
1.0
 23
0.0
 33
0.0
 40
0.0
 40
0.0
 40
0.0
 40
0.0
 40
0.33096237074341
 40
0.5985852996981712
 40
0.8051731260812304
 40
0.9632447004705281
 40
1.0
 40
1.0
 40
1.0
 40
1.0
 10
188.7019485360937
 20
542.2300598292874
 30
0.0
 10
188.0577750094897
 20
542.9361101085979
 30
0.0
 10
186.8927096196879
 20
544.2130870564417
 30
0.0
 10
185.2056049869787
 20
545.8740883394631
 30
0.0
 10
184.1684355671638
 20
547.191637687207
 30
0.0
 10
183.6926365246722
 20
547.9893430219599
 30
0.0
 10
183.5106084871698
 20
548.3823766927807
 30
0.0
 10
183.4762677676038
 20
548.4565249352978
 30
0.0
  0
SPLINE
  5
6C
330
1F
100
AcDbEntity
  8
0
  6
Continuous
 62
     7
370
    15
100
AcDbSpline
210
0.0
220
0.0
230
1.0
 70
     8
 71
     3
 72
    12
 73
     8
 74
     0
 42
0.00000001
 43
0.00000001
 12
1.0
 22
0.0
 32
0.0
 13
1.0
 23
0.0
 33
0.0
 40
0.0
 40
0.0
 40
0.0
 40
0.0
 40
0.0375668441391724
 40
0.1965401651292313
 40
0.4038526880307729
 40
0.6705855648942298
 40
1.0
 40
1.0
 40
1.0
 40
1.0
 10
146.322435153182
 20
548.4763285785244
 30
0.0
 10
146.2880378497797
 20
548.4002990486173
 30
0.0
 10
146.1080799149147
 20
548.0025319030119
 30
0.0
 10
145.6308939139855
 20
547.1958950528534
 30
0.0
 10
144.591321180301
 20
545.8719318979555
 30
0.0
 10
142.8937426881334
 20
544.2108941605456
 30
0.0
 10
141.7314236902037
 20
542.9349865846564
 30
0.0
 10
141.0891585177736
 20
542.229955521159
 30
0.0
  0
SPLINE
  5
6D
330
1F
100
AcDbEntity
  8
0
  6
Continuous
 62
     7
370
    15
100
AcDbSpline
210
0.0
220
0.0
230
1.0
 70
     8
 71
     3
 72
    11
 73
     7
 74
     0
 42
0.00000001
 43
0.00000001
 12
1.0
 22
0.0
 32
0.0
 13
1.0
 23
0.0
 33
0.0
 40
0.0
 40
0.0
 40
0.0
 40
0.0
 40
0.09935339756051
 40
0.3431221674495324
 40
0.6881283674405335
 40
1.0
 40
1.0
 40
1.0
 40
1.0
 10
186.2647369629697
 20
473.2905751734303
 30
0.0
 10
186.2656503505803
 20
473.2921537070902
 30
0.0
 10
186.2688047825811
 20
473.2976052558451
 30
0.0
 10
186.219389332016
 20
473.4625865696792
 30
0.0
 10
186.166177904735
 20
473.7090215763592
 30
0.0
 10
186.1351099952288
 20
473.9411865623064
 30
0.0
 10
186.1203596121625
 20
474.051413562827
 30
0.0
  0
LINE
  5
6E
330
1F
100
AcDbEntity
  8
0
  6
Continuous
 62
     7
370
    15
100
AcDbLine
 10
186.0116332895
 20
478.3257296949
 30
0.0
 11
186.0109347976
 21
478.7935367494
 31
0.0
  0
LINE
  5
6F
330
1F
100
AcDbEntity
  8
0
  6
Continuous
 62
     7
370
    15
100
AcDbLine
 10
143.7802355862
 20
478.7935367494
 30
0.0
 11
143.7732096887
 21
477.9530740052
 31
0.0
  0
SPLINE
  5
70
330
1F
100
AcDbEntity
  8
0
  6
Continuous
 62
     7
370
    15
100
AcDbSpline
210
0.0
220
0.0
230
1.0
 70
     8
 71
     3
 72
    10
 73
     6
 74
     0
 42
0.00000001
 43
0.00000001
 12
1.0
 22
0.0
 32
0.0
 13
1.0
 23
0.0
 33
0.0
 40
0.0
 40
0.0
 40
0.0
 40
0.0
 40
0.2957473999164437
 40
0.7087371332835862
 40
1.0
 40
1.0
 40
1.0
 40
1.0
 10
143.6715409285383
 20
474.1766950755643
 30
0.0
 10
143.6592667442185
 20
474.0501562290647
 30
0.0
 10
143.6298525542353
 20
473.7469150869871
 30
0.0
 10
143.5586316867665
 20
473.404133854007
 30
0.0
 10
143.5360277602002
 20
473.3190401293615
 30
0.0
 10
143.5266792899923
 20
473.2838472991513
 30
0.0
  0
LINE
  5
71
330
1F
100
AcDbEntity
  8
0
  6
Continuous
 62
     7
370
    15
100
AcDbLine
 10
138.7955848253
 20
427.9980039864
 30
0.0
 11
138.7955848253
 21
367.9980034649
 31
0.0
  0
LINE
  5
72
330
1F
100
AcDbEntity
  8
0
  6
Continuous
 62
     7
370
    15
100
AcDbLine
 10
190.9955855585
 20
367.9980034649
 30
0.0
 11
190.9955855585
 21
427.9980039864
 31
0.0
  0
LINE
  5
73
330
1F
100
AcDbEntity
  8
0
  6
Continuous
 62
     7
370
    15
100
AcDbLine
 10
190.8955857283
 20
428.4980049997
 30
0.0
 11
190.8955857283
 21
493.4980026155
 31
0.0
  0
LINE
  5
74
330
1F
100
AcDbEntity
  8
0
  6
Continuous
 62
     7
370
    15
100
AcDbLine
 10
138.8955846555
 20
493.4980026155
 30
0.0
 11
138.8955846555
 21
428.4980049997
 31
0.0
  0
LINE
  5
75
330
1F
100
AcDbEntity
  8
0
  6
Continuous
 62
     7
370
    15
100
AcDbLine
 10
138.8955846555
 20
536.586975184
 30
0.0
 11
138.8955846555
 21
505.5980062752
 31
0.0
  0
LINE
  5
76
330
1F
100
AcDbEntity
  8
0
  6
Continuous
 62
     7
370
    15
100
AcDbLine
 10
190.8955857283
 20
505.5980062752
 30
0.0
 11
190.8955857283
 21
536.5814319521
 31
0.0
  0
LINE
  5
77
330
1F
100
AcDbEntity
  8
0
  6
Continuous
 62
     7
370
    15
100
AcDbLine
 10
190.845584882
 20
493.4980026155
 30
0.0
 11
190.7890126235
 21
496.7390051752
 31
0.0
  0
LINE
  5
78
330
1F
100
AcDbEntity
  8
0
  6
Continuous
 62
     7
370
    15
100
AcDbLine
 10
139.0021577603
 20
496.7390051752
 30
0.0
 11
138.9455855018
 21
493.4980026155
 31
0.0
  0
ARC
  5
79
330
1F
100
AcDbEntity
  8
0
  6
Continuous
 62
     7
370
    15
100
AcDbCircle
 10
164.9981971314
 20
496.2852406442
 30
0.0
 40
26.00000000000003
100
AcDbArc
 50
159.0113395279
 51
179.0
  0
ARC
  5
7A
330
1F
100
AcDbEntity
  8
0
  6
Continuous
 62
     7
370
    15
100
AcDbCircle
 10
164.7929732524
 20
496.2852406442
 30
0.0
 40
26.0
100
AcDbArc
 50
1.0
 51
20.9886604721
  0
LINE
  5
7B
330
1F
100
AcDbEntity
  8
0
  6
Continuous
 62
     7
370
    15
100
AcDbLine
 10
139.9955846495
 20
428.4980049997
 30
0.0
 11
139.9955846495
 21
427.9980039864
 31
0.0
  0
LINE
  5
7C
330
1F
100
AcDbEntity
  8
0
  6
Continuous
 62
     7
370
    15
100
AcDbLine
 10
189.7955857343
 20
427.9980039864
 30
0.0
 11
189.7955857343
 21
428.4980049997
 31
0.0
  0
SPLINE
  5
7D
330
1F
100
AcDbEntity
  8
0
  6
Continuous
 62
     7
370
    15
100
AcDbSpline
210
0.0
220
0.0
230
1.0
 70
     8
 71
     3
 72
     9
 73
     5
 74
     0
 42
0.00000001
 43
0.00000001
 12
1.0
 22
0.0
 32
0.0
 13
1.0
 23
0.0
 33
0.0
 40
0.0
 40
0.0
 40
0.0
 40
0.0
 40
0.5010215468533101
 40
1.0
 40
1.0
 40
1.0
 40
1.0
 10
190.8949580169277
 20
536.5804037719296
 30
0.0
 10
190.8085763792451
 20
537.5421999254207
 30
0.0
 10
190.6361653557571
 20
539.4618701662154
 30
0.0
 10
189.3493054064602
 20
541.3041241598595
 30
0.0
 10
188.7071900195436
 20
542.2233692079113
 30
0.0
  0
SPLINE
  5
7E
330
1F
100
AcDbEntity
  8
0
  6
Continuous
 62
     7
370
    15
100
AcDbSpline
210
0.0
220
0.0
230
1.0
 70
     8
 71
     3
 72
     9
 73
     5
 74
     0
 42
0.00000001
 43
0.00000001
 12
1.0
 22
0.0
 32
0.0
 13
1.0
 23
0.0
 33
0.0
 40
0.0
 40
0.0
 40
0.0
 40
0.0
 40
0.4991315096648922
 40
1.0
 40
1.0
 40
1.0
 40
1.0
 10
141.0839300728397
 20
542.2232947021054
 30
0.0
 10
140.4419572733946
 20
541.3043406952522
 30
0.0
 10
139.1557776052827
 20
539.4632347160485
 30
0.0
 10
138.9828950573002
 20
537.5444253515055
 30
0.0
 10
138.8963036364869
 20
536.583354201846
 30
0.0
  0
SPLINE
  5
7F
330
1F
100
AcDbEntity
  8
0
  6
Continuous
 62
     7
370
    15
100
AcDbSpline
210
0.0
220
0.0
230
1.0
 70
     8
 71
     3
 72
    12
 73
     8
 74
     0
 42
0.00000001
 43
0.00000001
 12
1.0
 22
0.0
 32
0.0
 13
1.0
 23
0.0
 33
0.0
 40
0.0
 40
0.0
 40
0.0
 40
0.0
 40
0.25
 40
0.25
 40
0.5
 40
0.5
 40
1.0
 40
1.0
 40
1.0
 40
1.0
 10
183.7229721743868
 20
543.7250763627794
 30
0.0
 10
183.6776805276517
 20
544.5973899061385
 30
0.0
 10
183.6337952267942
 20
545.471942937576
 30
0.0
 10
183.5428161445955
 20
547.2185593830551
 30
0.0
 10
183.4967207905168
 20
548.0917768894452
 30
0.0
 10
183.3551410326254
 20
550.7097945479518
 30
0.0
 10
183.2570621549384
 20
552.453625162198
 30
0.0
 10
183.1557110240095
 20
554.1960632928682
 30
0.0
  0
SPLINE
  5
80
330
1F
100
AcDbEntity
  8
0
  6
Continuous
 62
     7
370
    15
100
AcDbSpline
210
0.0
220
0.0
230
1.0
 70
     8
 71
     3
 72
    12
 73
     8
 74
     0
 42
0.00000001
 43
0.00000001
 12
1.0
 22
0.0
 32
0.0
 13
1.0
 23
0.0
 33
0.0
 40
0.0
 40
0.0
 40
0.0
 40
0.0
 40
0.0189654728576939
 40
0.247570489664521
 40
0.4946238971688287
 40
0.7460911968987615
 40
1.0
 40
1.0
 40
1.0
 40
1.0
 10
182.7350448942737
 20
560.7707104354428
 30
0.0
 10
182.7403557237646
 20
560.7307741959353
 30
0.0
 10
182.8096819497681
 20
560.2094566182299
 30
0.0
 10
182.8494625017261
 20
559.1081856004538
 30
0.0
 10
182.9613445520046
 20
557.5201854854582
 30
0.0
 10
183.057132403138
 20
555.8650301206904
 30
0.0
 10
183.1227515150012
 20
554.7541853590233
 30
0.0
 10
183.1557195759372
 20
554.1960796981381
 30
0.0
  0
SPLINE
  5
81
330
1F
100
AcDbEntity
  8
0
  6
Continuous
 62
     7
370
    15
100
AcDbSpline
210
0.0
220
0.0
230
1.0
 70
     8
 71
     3
 72
    12
 73
     8
 74
     0
 42
0.00000001
 43
0.00000001
 12
1.0
 22
0.0
 32
0.0
 13
1.0
 23
0.0
 33
0.0
 40
0.0
 40
0.0
 40
0.0
 40
0.0
 40
0.0156529443666006
 40
0.2450298612548503
 40
0.4929174610618117
 40
0.745233856895793
 40
1.0
 40
1.0
 40
1.0
 40
1.0
 10
147.0533501482562
 20
560.7494166760968
 30
0.0
 10
147.0489946652356
 20
560.716560113372
 30
0.0
 10
146.9808143040684
 20
560.2022262719423
 30
0.0
 10
146.9419011597023
 20
559.1080599911406
 30
0.0
 10
146.8297715708356
 20
557.5202207491476
 30
0.0
 10
146.7340518006427
 20
555.8650211392163
 30
0.0
 10
146.6684234902734
 20
554.754182355572
 30
0.0
 10
146.6354508078651
 20
554.1960796981381
 30
0.0
  0
SPLINE
  5
82
330
1F
100
AcDbEntity
  8
0
  6
Continuous
 62
     7
370
    15
100
AcDbSpline
210
0.0
220
0.0
230
1.0
 70
     8
 71
     3
 72
    12
 73
     8
 74
     0
 42
0.00000001
 43
0.00000001
 12
1.0
 22
0.0
 32
0.0
 13
1.0
 23
0.0
 33
0.0
 40
0.0
 40
0.0
 40
0.0
 40
0.0
 40
0.2499999999999992
 40
0.2499999999999992
 40
0.4999999999999984
 40
0.4999999999999984
 40
1.0
 40
1.0
 40
1.0
 40
1.0
 10
146.0681982094156
 20
543.7250763627794
 30
0.0
 10
146.1134898561507
 20
544.5973899061385
 30
0.0
 10
146.1573751570081
 20
545.4719429375762
 30
0.0
 10
146.2483542392068
 20
547.218559383055
 30
0.0
 10
146.2944495932856
 20
548.0917768894449
 30
0.0
 10
146.436029351177
 20
550.7097945479516
 30
0.0
 10
146.534108228864
 20
552.4536251621981
 30
0.0
 10
146.6354593597928
 20
554.196063292868
 30
0.0
  0
SPLINE
  5
83
330
1F
100
AcDbEntity
  8
0
  6
Continuous
 62
     7
370
    15
100
AcDbSpline
210
0.0
220
0.0
230
1.0
 70
     8
 71
     3
 72
    26
 73
    22
 74
     0
 42
0.00000001
 43
0.00000001
 12
1.0
 22
0.0
 32
0.0
 13
1.0
 23
0.0
 33
0.0
 40
0.0
 40
0.0
 40
0.0
 40
0.0
 40
0.048593567018647
 40
0.0974869743580312
 40
0.1473207926881219
 40
0.1974784840928968
 40
0.2489968443469864
 40
0.3008730058351101
 40
0.3538746886555804
 40
0.4072639212916399
 40
0.4588852273391211
 40
0.5108554352420134
 40
0.5639027069167855
 40
0.6173123308269021
 40
0.6703167058976948
 40
0.7236737394126599
 40
0.7781688188863454
 40
0.8330863673858713
 40
0.9230074601388797
 40
0.9686248798040182
 40
1.0
 40
1.0
 40
1.0
 40
1.0
 10
164.8955851919282
 20
549.2092719941662
 30
0.0
 10
164.5880507302842
 20
549.2067009223978
 30
0.0
 10
163.9710842053736
 20
549.2015429143952
 30
0.0
 10
163.044435049973
 20
549.1611779767303
 30
0.0
 10
162.1196120112998
 20
549.0966762583782
 30
0.0
 10
161.1965980311838
 20
549.0051988108974
 30
0.0
 10
160.2859472502452
 20
548.888073933656
 30
0.0
 10
159.3905235580301
 20
548.7453497958186
 30
0.0
 10
158.5236234351052
 20
548.5791691613293
 30
0.0
 10
157.704027014532
 20
548.3936537165556
 30
0.0
 10
156.9403780779524
 20
548.1922440201878
 30
0.0
 10
156.232909675272
 20
547.9757162376914
 30
0.0
 10
155.5775029015959
 20
547.7410759896728
 30
0.0
 10
154.982900461472
 20
547.4878201098936
 30
0.0
 10
154.4554887559024
 20
547.2139003438103
 30
0.0
 10
153.9959845461855
 20
546.9131240654609
 30
0.0
 10
153.6074130330477
 20
546.5763422456043
 30
0.0
 10
153.2290235109262
 20
546.1153467867043
 30
0.0
 10
153.0012343464882
 20
545.5968139913855
 30
0.0
 10
152.9028940219796
 20
545.0794918540211
 30
0.0
 10
152.9026889611904
 20
544.8138330698177
 30
0.0
 10
152.9026053971605
 20
544.7055748372601
 30
0.0
  0
SPLINE
  5
84
330
1F
100
AcDbEntity
  8
0
  6
Continuous
 62
     7
370
    15
100
AcDbSpline
210
0.0
220
0.0
230
1.0
 70
     8
 71
     3
 72
    26
 73
    22
 74
     0
 42
0.00000001
 43
0.00000001
 12
1.0
 22
0.0
 32
0.0
 13
1.0
 23
0.0
 33
0.0
 40
0.0
 40
0.0
 40
0.0
 40
0.0
 40
0.0224591408811474
 40
0.0727852433347636
 40
0.1611594592540952
 40
0.205924817527875
 40
0.2512126823869829
 40
0.2994752781327205
 40
0.3480096030490913
 40
0.3973759521360376
 40
0.4470265771851141
 40
0.5009422982946745
 40
0.5552467323250486
 40
0.6108021549254922
 40
0.6667993110388015
 40
0.7191563743623884
 40
0.771888725269911
 40
0.8258068658748061
 40
0.8801359693246502
 40
0.9397890781455689
 40
1.0
 40
1.0
 40
1.0
 40
1.0
 10
176.8863549581723
 20
544.7043231397198
 30
0.0
 10
176.888401913288
 20
544.7830234036625
 30
0.0
 10
176.8950356543997
 20
545.0380740261189
 30
0.0
 10
176.8056649412585
 20
545.5413087252316
 30
0.0
 10
176.5972785899295
 20
546.0475671552579
 30
0.0
 10
176.2763884637889
 20
546.4701166603492
 30
0.0
 10
175.971673708631
 20
546.7686510594631
 30
0.0
 10
175.5996855406968
 20
547.0481036265314
 30
0.0
 10
175.156659912012
 20
547.3120830281645
 30
0.0
 10
174.6498077249649
 20
547.5589262366547
 30
0.0
 10
174.064336715863
 20
547.7977117538626
 30
0.0
 10
173.3979322943804
 20
548.0281090127784
 30
0.0
 10
172.6434954311347
 20
548.2505497124891
 30
0.0
 10
171.8196102512949
 20
548.4580282009279
 30
0.0
 10
170.9512627749825
 20
548.6434024279024
 30
0.0
 10
170.0527122035877
 20
548.8042329947807
 30
0.0
 10
169.1286489686231
 20
548.9401752061814
 30
0.0
 10
168.1617298632843
 20
549.0522095448746
 30
0.0
 10
167.1276734300304
 20
549.1389216987111
 30
0.0
 10
166.035372305438
 20
549.1975750677775
 30
0.0
 10
165.2766911250682
 20
549.2053609409584
 30
0.0
 10
164.8955851919013
 20
549.2092719941662
 30
0.0
  0
LINE
  5
85
330
1F
100
AcDbEntity
  8
0
  6
Continuous
 62
     7
370
    15
100
AcDbLine
 10
175.8955851323
 20
540.6058481603
 30
0.0
 11
175.8955851323
 21
543.5396334796
 31
0.0
  0
LWPOLYLINE
  5
86
330
1F
100
AcDbEntity
  8
0
  6
Continuous
 62
     7
370
    15
100
AcDbPolyline
 90
       15
 70
   128
 43
0.0
 10
175.8955851323
 20
540.6058481603
 10
174.9541074163
 20
541.5062955289
 10
173.7372040874
 20
542.3144749075
 10
172.2781964703
 20
543.008213368
 10
170.6170359752
 20
543.5685417324
 10
168.7992081637
 20
543.9801118045
 10
166.8744901321
 20
544.2316434055
 10
164.8955851919
 20
544.3162670999
 10
162.9166802517
 20
544.2316434055
 10
160.9919622201
 20
543.9801118045
 10
159.1741344086
 20
543.5685417324
 10
157.5129739135
 20
543.008213368
 10
156.0539662964
 20
542.3144749075
 10
154.8370629675
 20
541.5062955289
 10
153.8955852515
 20
540.6058481603
  0
LINE
  5
87
330
1F
100
AcDbEntity
  8
0
  6
Continuous
 62
     7
370
    15
100
AcDbLine
 10
153.8955852515
 20
540.6058481603
 30
0.0
 11
153.8955852515
 21
543.5396334796
 31
0.0
  0
ARC
  5
88
330
1F
100
AcDbEntity
  8
0
  6
Continuous
 62
     7
370
    15
100
AcDbCircle
 10
156.5080169445
 20
541.0695946484
 30
0.0
 40
3.595259542524697
100
AcDbArc
 50
136.6048054535
 51
223.3951945465
  0
LWPOLYLINE
  5
89
330
1F
100
AcDbEntity
  8
0
  6
Continuous
 62
     7
370
    15
100
AcDbPolyline
 90
       15
 70
   128
 43
0.0
 10
153.8955852515
 20
535.6657704979
 10
154.8370629675
 20
534.7653082281
 10
156.0539662964
 20
533.9571437507
 10
157.5129739135
 20
533.2634052902
 10
159.1741344086
 20
532.7030769258
 10
160.9919622201
 20
532.2915068536
 10
162.9166802517
 20
532.0399752527
 10
164.8955851919
 20
531.9553515583
 10
166.8744901321
 20
532.0399752527
 10
168.7992081637
 20
532.2915068536
 10
170.6170359752
 20
532.7030769258
 10
172.2781964703
 20
533.2634052902
 10
173.7372040874
 20
533.9571437507
 10
174.9541074163
 20
534.7653082281
 10
175.8955851323
 20
535.6657704979
  0
ARC
  5
8A
330
1F
100
AcDbEntity
  8
0
  6
Continuous
 62
     7
370
    15
100
AcDbCircle
 10
173.2831534394
 20
541.0695946484
 30
0.0
 40
3.595259542524697
100
AcDbArc
 50
316.6048054535
 51
43.3951945465
  0
SPLINE
  5
8B
330
1F
100
AcDbEntity
  8
0
  6
Continuous
 62
     7
370
    15
100
AcDbSpline
210
0.0
220
0.0
230
1.0
 70
    24
 71
     3
 72
    10
 73
     6
 74
     0
 42
0.00000001
 43
0.00000001
 12
1.0
 22
0.0
 32
0.0
 13
1.0
 23
0.0
 33
0.0
 40
0.0
 40
0.0
 40
0.0
 40
0.0
 40
0.5
 40
0.5
 40
1.0
 40
1.0
 40
1.0
 40
1.0
 10
175.8955851919011
 20
537.6409214633057
 30
0.0
 10
175.8955851919011
 20
538.0567502524376
 30
0.0
 10
175.8955851919011
 20
538.5228506578405
 30
0.0
 10
175.8955851919011
 20
539.5182879058996
 30
0.0
 10
175.8955851919011
 20
540.0493152040276
 30
0.0
 10
175.8955851919011
 20
540.6058430704664
 30
0.0
  0
LWPOLYLINE
  5
8C
330
1F
100
AcDbEntity
  8
0
  6
Continuous
 62
     7
370
    15
100
AcDbPolyline
 90
       19
 70
   128
 43
0.0
 10
175.8955851323
 20
537.6409194141
 10
175.7284704722
 20
538.6247089773
 10
175.2322040624
 20
539.5786068111
 10
174.4218649468
 20
540.473630157
 10
173.3220745004
 20
541.2825843959
 10
171.9662490427
 20
541.9808826118
 10
170.3955851621
 20
542.5473204523
 10
168.6578068542
 20
542.964672175
 10
166.8057151032
 20
543.2202717929
 10
164.8955851919
 20
543.3063409
 10
162.9854552806
 20
543.2202717929
 10
161.1333635296
 20
542.964672175
 10
159.3955852217
 20
542.5473204523
 10
157.8249213411
 20
541.9808826118
 10
156.4690958834
 20
541.2825843959
 10
155.369305437
 20
540.473630157
 10
154.5589663214
 20
539.5786068111
 10
154.0626999116
 20
538.6247089773
 10
153.8955852515
 20
537.6409194141
  0
SPLINE
  5
8D
330
1F
100
AcDbEntity
  8
0
  6
Continuous
 62
     7
370
    15
100
AcDbSpline
210
0.0
220
0.0
230
1.0
 70
    24
 71
     3
 72
    10
 73
     6
 74
     0
 42
0.00000001
 43
0.00000001
 12
1.0
 22
0.0
 32
0.0
 13
1.0
 23
0.0
 33
0.0
 40
0.0
 40
0.0
 40
0.0
 40
0.0
 40
0.5
 40
0.5
 40
1.0
 40
1.0
 40
1.0
 40
1.0
 10
153.8955851919011
 20
537.6409214633057
 30
0.0
 10
153.8955851919011
 20
538.0567502524377
 30
0.0
 10
153.8955851919011
 20
538.5228506578404
 30
0.0
 10
153.8955851919011
 20
539.5182879058993
 30
0.0
 10
153.8955851919011
 20
540.0493152040275
 30
0.0
 10
153.8955851919011
 20
540.6058430704662
 30
0.0
  0
LWPOLYLINE
  5
8E
330
1F
100
AcDbEntity
  8
0
  6
Continuous
 62
     7
370
    15
100
AcDbPolyline
 90
        9
 70
   128
 43
0.0
 10
164.8955851919
 20
542.2247550159
 10
166.6318890997
 20
542.1366891532
 10
168.3014677032
 20
541.8758294254
 10
169.8401602111
 20
541.4522490173
 10
171.1888354397
 20
540.8821901947
 10
172.2956648222
 20
540.1875725656
 10
173.1181129939
 20
539.3950841098
 10
173.6245745919
 20
538.5351828008
 10
173.7955849743
 20
537.6409194141
  0
LWPOLYLINE
  5
8F
330
1F
100
AcDbEntity
  8
0
  6
Continuous
 62
     7
370
    15
100
AcDbPolyline
 90
        9
 70
   128
 43
0.0
 10
155.9955854095
 20
537.6409194141
 10
156.1665957919
 20
538.5351828008
 10
156.6730573899
 20
539.3950841098
 10
157.4955055616
 20
540.1875725656
 10
158.6023349441
 20
540.8821901947
 10
159.9510101727
 20
541.4522490173
 10
161.4897026806
 20
541.8758294254
 10
163.1592812841
 20
542.1366891532
 10
164.8955851919
 20
542.2247550159
  0
LWPOLYLINE
  5
90
330
1F
100
AcDbEntity
  8
0
  6
Continuous
 62
     7
370
    15
100
AcDbPolyline
 90
       19
 70
   128
 43
0.0
 10
153.8955852515
 20
537.6409194141
 10
154.0626999116
 20
536.6571298509
 10
154.5589663214
 20
535.7032320171
 10
155.369305437
 20
534.8082086711
 10
156.4690958834
 20
533.9992544323
 10
157.8249213411
 20
533.3009562164
 10
159.3955852217
 20
532.7345183759
 10
161.1333635296
 20
532.3171666532
 10
162.9854552806
 20
532.0615670353
 10
164.8955851919
 20
531.9754979282
 10
166.8057151032
 20
532.0615670353
 10
168.6578068542
 20
532.3171666532
 10
170.3955851621
 20
532.7345183759
 10
171.9662490427
 20
533.3009562164
 10
173.3220745004
 20
533.9992544323
 10
174.4218649468
 20
534.8082086711
 10
175.2322040624
 20
535.7032320171
 10
175.7284704722
 20
536.6571298509
 10
175.8955851323
 20
537.6409194141
  0
LWPOLYLINE
  5
91
330
1F
100
AcDbEntity
  8
0
  6
Continuous
 62
     7
370
    15
100
AcDbPolyline
 90
       33
 70
   128
 43
0.0
 10
157.9839809923
 20
534.5816067129
 10
157.0228919513
 20
535.3315672546
 10
156.3643463082
 20
536.1636927991
 10
156.0336504257
 20
537.0459905534
 10
156.0435149944
 20
537.9445603757
 10
156.3935591034
 20
538.8248911768
 10
157.0703307292
 20
539.6531126171
 10
158.0478231548
 20
540.3974256187
 10
159.2884710184
 20
541.0292199522
 10
160.7445971235
 20
541.5242216259
 10
162.3602436515
 20
541.863401857
 10
164.0733217131
 20
542.0337221294
 10
165.8179989094
 20
542.0286408334
 10
167.5272282804
 20
541.8483516841
 10
169.1353250421
 20
541.4997986227
 10
170.5804908774
 20
540.9963479906
 10
171.8071893915
 20
540.3573712974
 10
172.7682784325
 20
539.6074107557
 10
173.4268240756
 20
538.7752852111
 10
173.7575199581
 20
537.8929874569
 10
173.7476553894
 20
536.9944027334
 10
173.3976112804
 20
536.1140868335
 10
172.7208396546
 20
535.2858653932
 10
171.743347229
 20
534.5415523916
 10
170.5026993654
 20
533.909743157
 10
169.0465732603
 20
533.4147563844
 10
167.4309267323
 20
533.0755761533
 10
165.7178486707
 20
532.9052558809
 10
163.9731714744
 20
532.9103371769
 10
162.2639421034
 20
533.0906263261
 10
160.6558453417
 20
533.4391793876
 10
159.2106795064
 20
533.9426300197
 10
157.9839809923
 20
534.5816067129
  0
SPLINE
  5
92
330
1F
100
AcDbEntity
  8
0
  6
Continuous
 62
     7
370
    15
100
AcDbSpline
210
0.0
220
0.0
230
1.0
 70
    24
 71
     3
 72
     8
 73
     4
 74
     0
 42
0.00000001
 43
0.00000001
 12
1.0
 22
0.0
 32
0.0
 13
1.0
 23
0.0
 33
0.0
 40
0.0
 40
0.0
 40
0.0
 40
0.0
 40
1.0
 40
1.0
 40
1.0
 40
1.0
 10
175.8955851919011
 20
535.6657713997466
 30
0.0
 10
175.8955851919011
 20
536.1672848688835
 30
0.0
 10
175.8955851919011
 20
536.8073225114276
 30
0.0
 10
175.8955851919011
 20
537.6409214633057
 30
0.0
  0
SPLINE
  5
93
330
1F
100
AcDbEntity
  8
0
  6
Continuous
 62
     7
370
    15
100
AcDbSpline
210
0.0
220
0.0
230
1.0
 70
    24
 71
     3
 72
     8
 73
     4
 74
     0
 42
0.00000001
 43
0.00000001
 12
1.0
 22
0.0
 32
0.0
 13
1.0
 23
0.0
 33
0.0
 40
0.0
 40
0.0
 40
0.0
 40
0.0
 40
1.0
 40
1.0
 40
1.0
 40
1.0
 10
153.8955851919011
 20
535.6657713997469
 30
0.0
 10
153.8955851919011
 20
536.1672848688836
 30
0.0
 10
153.8955851919011
 20
536.8073225114277
 30
0.0
 10
153.8955851919011
 20
537.6409214633057
 30
0.0
  0
SPLINE
  5
94
330
1F
100
AcDbEntity
  8
0
  6
Continuous
 62
     7
370
    15
100
AcDbSpline
210
0.0
220
0.0
230
1.0
 70
     8
 71
     3
 72
     8
 73
     4
 74
     0
 42
0.00000001
 43
0.00000001
 12
1.0
 22
0.0
 32
0.0
 13
1.0
 23
0.0
 33
0.0
 40
0.0
 40
0.0
 40
0.0
 40
0.0
 40
1.0
 40
1.0
 40
1.0
 40
1.0
 10
143.7823628405458
 20
478.492161087034
 30
0.0
 10
144.1701310611307
 20
500.2446214649854
 30
0.0
 10
144.9306233912124
 20
521.9913973772609
 30
0.0
 10
146.0682294322918
 20
543.7248851269599
 30
0.0
  0
SPLINE
  5
95
330
1F
100
AcDbEntity
  8
0
  6
Continuous
 62
     7
370
    15
100
AcDbSpline
210
0.0
220
0.0
230
1.0
 70
     8
 71
     3
 72
     8
 73
     4
 74
     0
 42
0.00000001
 43
0.00000001
 12
1.0
 22
0.0
 32
0.0
 13
1.0
 23
0.0
 33
0.0
 40
0.0
 40
0.0
 40
0.0
 40
0.0
 40
1.0
 40
1.0
 40
1.0
 40
1.0
 10
186.0088075432565
 20
478.4921610870341
 30
0.0
 10
185.6210393226717
 20
500.2446214649856
 30
0.0
 10
184.8605469925899
 20
521.9913973772609
 30
0.0
 10
183.7229409515106
 20
543.7248851269599
 30
0.0
  0
LINE
  5
96
330
1F
100
AcDbEntity
  8
0
  6
Continuous
 62
     7
370
    15
100
AcDbLine
 10
138.7955848253
 20
367.9980034649
 30
0.0
 11
190.9955855585
 21
367.9980034649
 31
0.0
  0
LINE
  5
97
330
1F
100
AcDbEntity
  8
0
  6
Continuous
 62
     7
370
    15
100
AcDbLine
 10
138.7955848253
 20
427.9980039864
 30
0.0
 11
190.9955855585
 21
427.9980039864
 31
0.0
  0
LINE
  5
98
330
1F
100
AcDbEntity
  8
0
  6
Continuous
 62
     7
370
    15
100
AcDbLine
 10
164.8955851919
 20
428.4980049997
 30
0.0
 11
190.8955857283
 21
428.4980049997
 31
0.0
  0
LINE
  5
99
330
1F
100
AcDbEntity
  8
0
  6
Continuous
 62
     7
370
    15
100
AcDbLine
 10
138.8955846555
 20
428.4980049997
 30
0.0
 11
164.8955851919
 21
428.4980049997
 31
0.0
  0
LINE
  5
9A
330
1F
100
AcDbEntity
  8
0
  6
Continuous
 62
     7
370
    15
100
AcDbLine
 10
185.7011769093
 20
493.4980026155
 30
0.0
 11
190.8955857283
 21
493.4980026155
 31
0.0
  0
LINE
  5
9B
330
1F
100
AcDbEntity
  8
0
  6
Continuous
 62
     7
370
    15
100
AcDbLine
 10
138.8955846555
 20
493.4980026155
 30
0.0
 11
144.0811608112
 21
493.4980026155
 31
0.0
  0
LINE
  5
9C
330
1F
100
AcDbEntity
  8
0
  6
Continuous
 62
     7
370
    15
100
AcDbLine
 10
138.8955846555
 20
505.5980062752
 30
0.0
 11
144.4446392483
 21
505.5980062752
 31
0.0
  0
LINE
  5
9D
330
1F
100
AcDbEntity
  8
0
  6
Continuous
 62
     7
370
    15
100
AcDbLine
 10
185.3343885518
 20
505.5980062752
 30
0.0
 11
190.8955857283
 21
505.5980062752
 31
0.0
  0
LINE
  5
9E
330
1F
100
AcDbEntity
  8
0
  6
Continuous
 62
     7
370
    15
100
AcDbLine
 10
190.8569395668
 20
536.5814319521
 30
0.0
 11
190.8604413397
 21
536.6582176357
 31
0.0
  0
SPLINE
  5
9F
330
1F
100
AcDbEntity
  8
0
  6
Continuous
 62
     8
370
     0
100
AcDbSpline
210
0.0
220
0.0
230
1.0
 70
     8
 71
     3
 72
    17
 73
    13
 74
     0
 42
0.00000001
 43
0.00000001
 12
1.0
 22
0.0
 32
0.0
 13
1.0
 23
0.0
 33
0.0
 40
0.0
 40
0.0
 40
0.0
 40
0.0
 40
0.0906735336882001
 40
0.1821280645374102
 40
0.2745465738137697
 40
0.3683745304256761
 40
0.4636849626412856
 40
0.5601024426681848
 40
0.6576662072673136
 40
0.754957443294331
 40
0.8827222712609035
 40
0.9999999999999999
 40
0.9999999999999999
 40
0.9999999999999999
 40
0.9999999999999999
 10
164.8959292088974
 20
568.1446394591854
 30
0.0
 10
165.7596397943662
 20
568.1313360302461
 30
0.0
 10
167.4945003523857
 20
568.1046145861172
 30
0.0
 10
170.0570556665407
 20
567.8684309491979
 30
0.0
 10
172.5393581577755
 20
567.4897457658869
 30
0.0
 10
174.8983367124582
 20
566.9653882759496
 30
0.0
 10
177.0732874864664
 20
566.3059586892034
 30
0.0
 10
178.9987924196733
 20
565.5186428135248
 30
0.0
 10
180.591719669066
 20
564.6200906274146
 30
0.0
 10
181.9180123944411
 20
563.527986560826
 30
0.0
 10
182.6596167051501
 20
562.2315628046226
 30
0.0
 10
182.7106299027353
 20
561.2435667859235
 30
0.0
 10
182.7350448942737
 20
560.7707104354428
 30
0.0
  0
SPLINE
  5
A0
330
1F
100
AcDbEntity
  8
0
  6
Continuous
 62
     8
370
     0
100
AcDbSpline
210
0.0
220
0.0
230
1.0
 70
     8
 71
     3
 72
    17
 73
    13
 74
     0
 42
0.00000001
 43
0.00000001
 12
1.0
 22
0.0
 32
0.0
 13
1.0
 23
0.0
 33
0.0
 40
0.0
 40
0.0
 40
0.0
 40
0.0
 40
0.0905126740913798
 40
0.1818049598139095
 40
0.2740595138153808
 40
0.367721014719021
 40
0.4628623612370145
 40
0.5591087916055106
 40
0.656499472977381
 40
0.7536181092570975
 40
0.8811562757285396
 40
1.0
 40
1.0
 40
1.0
 40
1.0
 10
164.8952411749049
 20
568.1446394591854
 30
0.0
 10
164.0315305943502
 20
568.1313360296393
 30
0.0
 10
162.2966700462012
 20
568.1046145842914
 30
0.0
 10
159.7341146572657
 20
567.8684309566075
 30
0.0
 10
157.2518124550626
 20
567.4897457376006
 30
0.0
 10
154.8928327962553
 20
566.965388384025
 30
0.0
 10
152.7178862353426
 20
566.3059582769528
 30
0.0
 10
150.7923652889779
 20
565.5186443789322
 30
0.0
 10
149.1994985683977
 20
564.6200847173882
 30
0.0
 10
147.872956473042
 20
563.5280114485089
 30
0.0
 10
147.1286922098494
 20
562.224710414042
 30
0.0
 10
147.077866312583
 20
561.229474467785
 30
0.0
 10
147.0533501482562
 20
560.7494166760968
 30
0.0
  0
SPLINE
  5
A1
330
1F
100
AcDbEntity
  8
0
  6
Continuous
 62
     8
370
    15
100
AcDbSpline
210
0.0
220
0.0
230
1.0
 70
     8
 71
     3
 72
    12
 73
     8
 74
     0
 42
0.00000001
 43
0.00000001
 12
1.0
 22
0.0
 32
0.0
 13
1.0
 23
0.0
 33
0.0
 40
0.0
 40
0.0
 40
0.0
 40
0.0
 40
0.3186794643986977
 40
0.6066789032064976
 40
0.7351706631718998
 40
0.859567189002231
 40
0.9999999999999999
 40
0.9999999999999999
 40
0.9999999999999999
 40
0.9999999999999999
 10
146.6354545331554
 20
554.1960945992993
 30
0.0
 10
146.9084134863822
 20
552.8193339452672
 30
0.0
 10
147.4280529889669
 20
550.1983566408712
 30
0.0
 10
148.8218534593057
 20
547.1943512825648
 30
0.0
 10
150.2187110341504
 20
545.1825046982607
 30
0.0
 10
151.3844656428708
 20
543.8006014846941
 30
0.0
 10
152.3719468635097
 20
543.044837616707
 30
0.0
 10
152.895585087593
 20
542.6440736918972
 30
0.0
  0
SPLINE
  5
A2
330
1F
100
AcDbEntity
  8
0
  6
Continuous
 62
     8
370
    15
100
AcDbSpline
210
0.0
220
0.0
230
1.0
 70
     8
 71
     3
 72
    12
 73
     8
 74
     0
 42
0.00000001
 43
0.00000001
 12
1.0
 22
0.0
 32
0.0
 13
1.0
 23
0.0
 33
0.0
 40
0.0
 40
0.0
 40
0.0
 40
0.0
 40
0.3186794643986977
 40
0.6066789032064976
 40
0.7351706631718998
 40
0.859567189002231
 40
0.9999999999999999
 40
0.9999999999999999
 40
0.9999999999999999
 40
0.9999999999999999
 10
183.1557158506469
 20
554.1960945992993
 30
0.0
 10
182.88275689742
 20
552.8193339452672
 30
0.0
 10
182.3631173948354
 20
550.1983566408712
 30
0.0
 10
180.9693169244966
 20
547.1943512825648
 30
0.0
 10
179.5724593496519
 20
545.1825046982607
 30
0.0
 10
178.4067047409315
 20
543.8006014846941
 30
0.0
 10
177.4192235202926
 20
543.044837616707
 30
0.0
 10
176.8955852962093
 20
542.6440736918972
 30
0.0
  0
SPLINE
  5
A3
330
1F
100
AcDbEntity
  8
0
  6
Continuous
 62
     8
370
    15
100
AcDbSpline
210
0.0
220
0.0
230
1.0
 70
     8
 71
     3
 72
     8
 73
     4
 74
     0
 42
0.00000001
 43
0.00000001
 12
1.0
 22
0.0
 32
0.0
 13
1.0
 23
0.0
 33
0.0
 40
0.0
 40
0.0
 40
0.0
 40
0.0
 40
0.1774419611394032
 40
0.1774419611394032
 40
0.1774419611394032
 40
0.1774419611394032
 10
143.7823621145775
 20
478.4921665586219
 30
0.0
 10
143.7630270021214
 20
477.4074872100283
 30
0.0
 10
143.7446121213729
 20
476.3228075565285
 30
0.0
 10
143.7271166906672
 20
475.2381250264132
 30
0.0
  0
SPLINE
  5
A4
330
1F
100
AcDbEntity
  8
0
  6
Continuous
 62
     8
370
    15
100
AcDbSpline
210
0.0
220
0.0
230
1.0
 70
     8
 71
     3
 72
    17
 73
    13
 74
     0
 42
0.00000001
 43
0.00000001
 12
1.0
 22
0.0
 32
0.0
 13
1.0
 23
0.0
 33
0.0
 40
0.0
 40
0.0
 40
0.0
 40
0.0
 40
0.0624996212618261
 40
0.1249992425236523
 40
0.1874988637854784
 40
0.2499984850473045
 40
0.3124981063091307
 40
0.3749977275709568
 40
0.437497348832783
 40
0.4999969700946091
 40
0.4999969700946091
 40
0.4999973556913961
 40
0.4999973556913961
 40
0.4999973556913961
 40
0.4999973556913961
 10
143.7271166906642
 20
475.238125027941
 30
0.0
 10
143.9021271919449
 20
473.8939110729289
 30
0.0
 10
144.3785982890435
 20
471.3214601138887
 30
0.0
 10
145.5268952341173
 20
467.7151646797339
 30
0.0
 10
147.1917226699865
 20
464.3829110017948
 30
0.0
 10
149.4756595075916
 20
461.405668343296
 30
0.0
 10
152.4729653432989
 20
458.9253651180791
 30
0.0
 10
156.1895720196667
 20
457.1230195337932
 30
0.0
 10
160.4348976849538
 20
456.1075795650012
 30
0.0
 10
163.4098756000212
 20
455.9164522427316
 30
0.0
 10
164.8955668598142
 20
455.9164522427316
 30
0.0
 10
164.8955760258577
 20
455.9164522427354
 30
0.0
 10
164.8955851919011
 20
455.9164522427429
 30
0.0
  0
SPLINE
  5
A5
330
1F
100
AcDbEntity
  8
0
  6
Continuous
 62
     8
370
    15
100
AcDbSpline
210
0.0
220
0.0
230
1.0
 70
     8
 71
     3
 72
     8
 73
     4
 74
     0
 42
0.00000001
 43
0.00000001
 12
1.0
 22
0.0
 32
0.0
 13
1.0
 23
0.0
 33
0.0
 40
0.0
 40
0.0
 40
0.0
 40
0.0
 40
1.0
 40
1.0
 40
1.0
 40
1.0
 10
186.0640536931351
 20
475.2381250263995
 30
0.0
 10
186.0465485949594
 20
476.3227661225943
 30
0.0
 10
186.0281329581117
 20
477.4074402397485
 30
0.0
 10
186.0088075432565
 20
478.4921610870341
 30
0.0
  0
SPLINE
  5
A6
330
1F
100
AcDbEntity
  8
0
  6
Continuous
 62
     8
370
    15
100
AcDbSpline
210
0.0
220
0.0
230
1.0
 70
     8
 71
     3
 72
    34
 73
    30
 74
     0
 42
0.00000001
 43
0.00000001
 12
1.0
 22
0.0
 32
0.0
 13
1.0
 23
0.0
 33
0.0
 40
0.0
 40
0.0
 40
0.0
 40
0.0
 40
0.013037046023709
 40
0.0259396001948133
 40
0.0387127448828427
 40
0.0513616599604244
 40
0.0638916177674162
 40
0.0763079774552278
 40
0.0886161787055653
 40
0.1008217348246508
 40
0.1129302252214132
 40
0.1249472872861257
 40
0.1864597204880096
 40
0.2501302941065273
 40
0.3084373508798227
 40
0.3749040250632107
 40
0.4249819690143816
 40
0.5000292207730849
 40
0.5714554779847986
 40
0.62517509976528
 40
0.6914153335363992
 40
0.7496038477864004
 40
0.8167287149157751
 40
0.8748423566410414
 40
0.9038747559307726
 40
0.9309385515851905
 40
0.9559979432310665
 40
0.9790251272844069
 40
1.0
 40
1.0
 40
1.0
 40
1.0
 10
164.8955851919011
 20
455.9164522427316
 30
0.0
 10
165.0504898579587
 20
455.9170498936917
 30
0.0
 10
165.3587011735079
 20
455.9182390301674
 30
0.0
 10
165.8184963081288
 20
455.9279665651912
 30
0.0
 10
166.2733034553825
 20
455.9435160373663
 30
0.0
 10
166.723113532127
 20
455.9654294493985
 30
0.0
 10
167.1679176100681
 20
455.9935478168081
 30
0.0
 10
167.6077067200116
 20
456.0278965208758
 30
0.0
 10
168.0424733271332
 20
456.0684519700724
 30
0.0
 10
168.4722057131988
 20
456.1152016662583
 30
0.0
 10
168.8969087511366
 20
456.1681340508837
 30
0.0
 10
169.8935366705384
 20
456.3084680226848
 30
0.0
 10
171.4675900295939
 20
456.6110907213613
 30
0.0
 10
173.4812764340982
 20
457.204712742485
 30
0.0
 10
175.421035978576
 20
458.0040930216787
 30
0.0
 10
177.0748247556631
 20
458.9202472330733
 30
0.0
 10
178.7173742943985
 20
460.08267076564
 30
0.0
 10
180.2137193284294
 20
461.4355634517992
 30
0.0
 10
181.5149127844722
 20
462.9691698101472
 30
0.0
 10
182.5893777509137
 20
464.5396832265572
 30
0.0
 10
183.4488122855598
 20
466.0841200522183
 30
0.0
 10
184.2294081330145
 20
467.8223108703386
 30
0.0
 10
184.8500645998304
 20
469.555301340067
 30
0.0
 10
185.2750439196392
 20
471.0657375513092
 30
0.0
 10
185.5433388564965
 20
472.2117855071328
 30
0.0
 10
185.7136402327847
 20
473.0392912566825
 30
0.0
 10
185.8540344742152
 20
473.8176425572066
 30
0.0
 10
185.9698789891403
 20
474.542780501085
 30
0.0
 10
186.0336536350469
 20
475.0136643913461
 30
0.0
 10
186.0640536931032
 20
475.2381250276731
 30
0.0
  0
SPLINE
  5
A7
330
1F
100
AcDbEntity
  8
0
  6
Continuous
 62
     8
370
     0
100
AcDbSpline
210
0.0
220
0.0
230
1.0
 70
     8
 71
     3
 72
    30
 73
    26
 74
     0
 42
0.00000001
 43
0.00000001
 12
1.0
 22
0.0
 32
0.0
 13
1.0
 23
0.0
 33
0.0
 40
0.0
 40
0.0
 40
0.0
 40
0.0
 40
0.0488649663023296
 40
0.096475396542593
 40
0.1428406346768738
 40
0.1879385960798388
 40
0.2299175624427434
 40
0.2690260341972783
 40
0.3058464024118618
 40
0.340051583223492
 40
0.4188120072538217
 40
0.4923935175800968
 40
0.5645078525848578
 40
0.6317307218439288
 40
0.6925734978437974
 40
0.7459800605984294
 40
0.7837374536056162
 40
0.8193163647513393
 40
0.8524802587234767
 40
0.8830454898605885
 40
0.9109326478933237
 40
0.9362226000449663
 40
0.9591901021434244
 40
0.9802837251960336
 40
1.0
 40
1.0
 40
1.0
 40
1.0
 10
181.2449680091312
 20
567.3236533600486
 30
0.0
 10
181.2294214780105
 20
567.5323537460075
 30
0.0
 10
181.1987275500651
 20
567.9443964428019
 30
0.0
 10
181.1450111469389
 20
568.5503931266398
 30
0.0
 10
181.0760621809932
 20
569.1352624955284
 30
0.0
 10
181.0001424656893
 20
569.6896200613795
 30
0.0
 10
180.8537269161541
 20
570.2060528264434
 30
0.0
 10
180.6305327023451
 20
570.682981544081
 30
0.0
 10
180.3444868877969
 20
571.1234306306203
 30
0.0
 10
179.8604521639022
 20
571.7114410669349
 30
0.0
 10
179.0735859239797
 20
572.4125941062739
 30
0.0
 10
177.860844785296
 20
573.1962920075782
 30
0.0
 10
176.4801692199138
 20
573.8609170387278
 30
0.0
 10
175.0030005486529
 20
574.410287698385
 30
0.0
 10
173.5389062271817
 20
574.8454085232706
 30
0.0
 10
172.2339036506463
 20
575.1588773786692
 30
0.0
 10
171.0996780988563
 20
575.3741350175147
 30
0.0
 10
170.1216399997616
 20
575.5291395697407
 30
0.0
 10
169.1924502132038
 20
575.6550288281446
 30
0.0
 10
168.3234463646198
 20
575.7567581508765
 30
0.0
 10
167.5209652203682
 20
575.8368169900551
 30
0.0
 10
166.7854272257251
 20
575.895817737729
 30
0.0
 10
166.111208521911
 20
575.9334542937647
 30
0.0
 10
165.4882751622253
 20
575.9510747879639
 30
0.0
 10
165.0886527164909
 20
575.9519124248915
 30
0.0
 10
164.8955851919011
 20
575.9523171080865
 30
0.0
  0
SPLINE
  5
A8
330
1F
100
AcDbEntity
  8
0
  6
Continuous
 62
     8
370
     0
100
AcDbSpline
210
0.0
220
0.0
230
1.0
 70
     8
 71
     3
 72
     9
 73
     5
 74
     0
 42
0.00000001
 43
0.00000001
 12
1.0
 22
0.0
 32
0.0
 13
1.0
 23
0.0
 33
0.0
 40
0.0
 40
0.0
 40
0.0
 40
0.0
 40
0.4443339973217677
 40
1.0
 40
1.0
 40
1.0
 40
1.0
 10
181.2999513125972
 20
567.8062787919567
 30
0.0
 10
181.3055205983628
 20
567.7338733522337
 30
0.0
 10
181.3180546061119
 20
567.5709206181206
 30
0.0
 10
181.2710772166121
 20
567.4119786379754
 30
0.0
 10
181.2449734783725
 20
567.3236599832104
 30
0.0
  0
SPLINE
  5
A9
330
1F
100
AcDbEntity
  8
0
  6
Continuous
 62
     8
370
     0
100
AcDbSpline
210
0.0
220
0.0
230
1.0
 70
     8
 71
     3
 72
    39
 73
    35
 74
     0
 42
0.00000001
 43
0.00000001
 12
1.0
 22
0.0
 32
0.0
 13
1.0
 23
0.0
 33
0.0
 40
0.0
 40
0.0
 40
0.0
 40
0.0
 40
0.010913348191247
 40
0.022198191840766
 40
0.0339309714737064
 40
0.0462015864617517
 40
0.0591004113088279
 40
0.0727078357666643
 40
0.0870872362809791
 40
0.102281838123144
 40
0.1183153592692651
 40
0.1351930663718359
 40
0.1529043733900011
 40
0.1714261110357296
 40
0.1907258477024193
 40
0.2107650347500531
 40
0.2315013164043284
 40
0.2528898531487032
 40
0.3061236348923833
 40
0.3667731666674285
 40
0.4337941540688909
 40
0.5057147618257556
 40
0.5756206159772945
 40
0.6503382110251524
 40
0.7191169866428981
 40
0.7957014632558852
 40
0.8201462578807299
 40
0.8449587753605315
 40
0.8700675241552065
 40
0.8954658169145377
 40
0.9211563716659816
 40
0.9471412811937271
 40
0.9734221132407335
 40
1.0
 40
1.0
 40
1.0
 40
1.0
 10
164.8955851919011
 20
575.9523171080865
 30
0.0
 10
164.788727967831
 20
575.9522014428591
 30
0.0
 10
164.5713760499858
 20
575.9519661751059
 30
0.0
 10
164.2394192554667
 20
575.9481505910926
 30
0.0
 10
163.8947109091824
 20
575.9394990399959
 30
0.0
 10
163.5350356351718
 20
575.924939137681
 30
0.0
 10
163.1581600685044
 20
575.9039537984179
 30
0.0
 10
162.762130714145
 20
575.8763129631943
 30
0.0
 10
162.3454854995804
 20
575.8419687523136
 30
0.0
 10
161.9073702532368
 20
575.8009167551122
 30
0.0
 10
161.4475800982923
 20
575.7531080727933
 30
0.0
 10
160.9665489317338
 20
575.6983674586112
 30
0.0
 10
160.465311834056
 20
575.6363316211736
 30
0.0
 10
159.9454438486608
 20
575.5664089985631
 30
0.0
 10
159.4089898542935
 20
575.4877586858645
 30
0.0
 10
158.8584080396924
 20
575.3992618727397
 30
0.0
 10
158.2964990049179
 20
575.2995548612239
 30
0.0
 10
157.4487606718003
 20
575.1321018396926
 30
0.0
 10
156.2859584573452
 20
574.8542989657768
 30
0.0
 10
154.8239494922359
 20
574.422132935168
 30
0.0
 10
153.3473222180241
 20
573.876250232394
 30
0.0
 10
151.9878499183922
 20
573.2263252320321
 30
0.0
 10
150.8055748946165
 20
572.4740536627125
 30
0.0
 10
149.8800145178778
 20
571.6776702848302
 30
0.0
 10
149.1947831897143
 20
570.8072697951301
 30
0.0
 10
148.8973255771965
 20
570.1179160246646
 30
0.0
 10
148.7830106880752
 20
569.599722916691
 30
0.0
 10
148.7377868815787
 20
569.2909026989124
 30
0.0
 10
148.6956648880629
 20
568.9760196538796
 30
0.0
 10
148.6593727884627
 20
568.6555611992455
 30
0.0
 10
148.6270245751601
 20
568.3297685155385
 30
0.0
 10
148.5979982717264
 20
567.9988275897717
 30
0.0
 10
148.5712448272617
 20
567.663012352322
 30
0.0
 10
148.5545810744339
 20
567.4371960373327
 30
0.0
 10
148.5462023746537
 20
567.3236533601032
 30
0.0
  0
SPLINE
  5
AA
330
1F
100
AcDbEntity
  8
0
  6
Continuous
 62
     8
370
     0
100
AcDbSpline
210
0.0
220
0.0
230
1.0
 70
     8
 71
     3
 72
     9
 73
     5
 74
     0
 42
0.00000001
 43
0.00000001
 12
1.0
 22
0.0
 32
0.0
 13
1.0
 23
0.0
 33
0.0
 40
0.0
 40
0.0
 40
0.0
 40
0.0
 40
0.4441280262905432
 40
1.0
 40
1.0
 40
1.0
 40
1.0
 10
148.491206032689
 20
567.8062042861508
 30
0.0
 10
148.485640003348
 20
567.7338543626299
 30
0.0
 10
148.4731075149402
 20
567.5709510571909
 30
0.0
 10
148.520073221578
 20
567.41204886375
 30
0.0
 10
148.5461801416234
 20
567.3237195878552
 30
0.0
  0
SPLINE
  5
AB
330
1F
100
AcDbEntity
  8
0
  6
Continuous
 62
     8
370
     0
100
AcDbSpline
210
0.0
220
0.0
230
1.0
 70
     8
 71
     3
 72
     9
 73
     5
 74
     0
 42
0.00000001
 43
0.00000001
 12
1.0
 22
0.0
 32
0.0
 13
1.0
 23
0.0
 33
0.0
 40
0.0
 40
0.0
 40
0.0
 40
0.0
 40
0.2283224801655266
 40
1.0
 40
1.0
 40
1.0
 40
1.0
 10
181.2449846542434
 20
567.3236897855328
 30
0.0
 10
181.2039813919821
 20
567.1983284035983
 30
0.0
 10
181.024396524861
 20
566.6492743558166
 30
0.0
 10
180.6890423921265
 20
566.1675583993753
 30
0.0
 10
180.4302571467118
 20
565.795829024844
 30
0.0
  0
SPLINE
  5
AC
330
1F
100
AcDbEntity
  8
0
  6
Continuous
 62
     8
370
     0
100
AcDbSpline
210
0.0
220
0.0
230
1.0
 70
     8
 71
     3
 72
     9
 73
     5
 74
     0
 42
0.00000001
 43
0.00000001
 12
1.0
 22
0.0
 32
0.0
 13
1.0
 23
0.0
 33
0.0
 40
0.0
 40
0.0
 40
0.0
 40
0.0
 40
0.229403459741148
 40
1.0
 40
1.0
 40
1.0
 40
1.0
 10
148.5461913174943
 20
567.3236897855328
 30
0.0
 10
148.587191654199
 20
567.1983283029602
 30
0.0
 10
148.7659175406829
 20
566.6518610320916
 30
0.0
 10
149.0996104317694
 20
566.1723876250351
 30
0.0
 10
149.3567530191497
 20
565.8029070764111
 30
0.0
  0
LINE
  5
AD
330
1F
100
AcDbEntity
  8
0
  6
Continuous
 62
     8
370
     0
100
AcDbLine
 10
181.4101193226
 20
564.8405006795
 30
0.0
 11
181.2449958301
 21
567.3237195879
 31
0.0
  0
LINE
  5
AE
330
1F
100
AcDbEntity
  8
0
  6
Continuous
 62
     8
370
     0
100
AcDbLine
 10
148.5461745537
 20
567.3237195879
 30
0.0
 11
148.3818706251
 21
564.8528239399
 31
0.0
  0
SPLINE
  5
AF
330
1F
100
AcDbEntity
  8
0
  6
Continuous
 62
     8
370
     0
100
AcDbSpline
210
0.0
220
0.0
230
1.0
 70
     8
 71
     3
 72
    10
 73
     6
 74
     0
 42
0.00000001
 43
0.00000001
 12
1.0
 22
0.0
 32
0.0
 13
1.0
 23
0.0
 33
0.0
 40
0.0
 40
0.0
 40
0.0
 40
0.0
 40
0.3667954422183999
 40
0.7186237733437258
 40
1.0
 40
1.0
 40
1.0
 40
1.0
 10
188.9419950670556
 20
541.2594279914425
 30
0.0
 10
188.1887796015013
 20
542.0416712846238
 30
0.0
 10
186.7130836748458
 20
543.5742383842006
 30
0.0
 10
184.5145371314886
 20
545.7393240999027
 30
0.0
 10
183.8176786058098
 20
547.2128241011116
 30
0.0
 10
183.5080165541725
 20
547.8676012425946
 30
0.0
  0
SPLINE
  5
B0
330
1F
100
AcDbEntity
  8
0
  6
Continuous
 62
     8
370
     0
100
AcDbSpline
210
0.0
220
0.0
230
1.0
 70
     8
 71
     3
 72
    14
 73
    10
 74
     0
 42
0.00000001
 43
0.00000001
 12
1.0
 22
0.0
 32
0.0
 13
1.0
 23
0.0
 33
0.0
 40
0.0
 40
0.0
 40
0.0
 40
0.0
 40
0.2155168847939916
 40
0.432869772382869
 40
0.5669352610912455
 40
0.6937012833768932
 40
0.8261713487977803
 40
0.9521646652835074
 40
0.9999999999999999
 40
0.9999999999999999
 40
0.9999999999999999
 40
0.9999999999999999
 10
188.9422688758926
 20
541.2642857699917
 30
0.0
 10
188.904182425646
 20
539.4261745429687
 30
0.0
 10
188.827685064129
 20
535.7342930961096
 30
0.0
 10
188.4778530137069
 20
530.9579309772113
 30
0.0
 10
187.974153913456
 20
527.0346638664134
 30
0.0
 10
187.3870964809159
 20
523.9029728407465
 30
0.0
 10
186.5604930551422
 20
521.0052982876566
 30
0.0
 10
185.7381616162931
 20
518.8138048965137
 30
0.0
 10
185.0565084578659
 20
517.7561323986538
 30
0.0
 10
184.8689265674905
 20
517.4650749831723
 30
0.0
  0
SPLINE
  5
B1
330
1F
100
AcDbEntity
  8
0
  6
Continuous
 62
     8
370
     0
100
AcDbSpline
210
0.0
220
0.0
230
1.0
 70
     8
 71
     3
 72
    16
 73
    12
 74
     0
 42
0.00000001
 43
0.00000001
 12
1.0
 22
0.0
 32
0.0
 13
1.0
 23
0.0
 33
0.0
 40
0.0
 40
0.0
 40
0.0
 40
0.0
 40
0.1424862327402077
 40
0.2898990268189677
 40
0.4328148777338638
 40
0.5230729327333018
 40
0.6099216049954327
 40
0.6937010187722851
 40
0.8261697986419301
 40
0.9521646250844841
 40
0.9999999999999999
 40
0.9999999999999999
 40
0.9999999999999999
 40
0.9999999999999999
 10
140.8489517993287
 20
541.2599346309231
 30
0.0
 10
140.8704028568693
 20
540.044620318992
 30
0.0
 10
140.914046657296
 20
537.5719713512113
 30
0.0
 10
141.0966198668473
 20
533.9028223890086
 30
0.0
 10
141.3602062378751
 20
530.7143024022105
 30
0.0
 10
141.6793485822846
 20
528.0796906041925
 30
0.0
 10
142.0130532789034
 20
525.9718844664377
 30
0.0
 10
142.495437733822
 20
523.5792171412251
 30
0.0
 10
143.2309418952875
 20
521.0054378651022
 30
0.0
 10
144.0529822061158
 20
518.8138033205232
 30
0.0
 10
144.7346573821779
 20
517.7561302149361
 30
0.0
 10
144.9222438163118
 20
517.4650749831723
 30
0.0
  0
SPLINE
  5
B2
330
1F
100
AcDbEntity
  8
0
  6
Continuous
 62
     8
370
     0
100
AcDbSpline
210
0.0
220
0.0
230
1.0
 70
     8
 71
     3
 72
    11
 73
     7
 74
     0
 42
0.00000001
 43
0.00000001
 12
1.0
 22
0.0
 32
0.0
 13
1.0
 23
0.0
 33
0.0
 40
0.0
 40
0.0
 40
0.0
 40
0.0
 40
0.1193257549181559
 40
0.4053907407746804
 40
0.6980823763486019
 40
1.0
 40
1.0
 40
1.0
 40
1.0
 10
146.2957043326454
 20
547.9767820506619
 30
0.0
 10
146.2042247568619
 20
547.6933922884726
 30
0.0
 10
145.8934370897899
 20
546.7306195350079
 30
0.0
 10
144.6630224504518
 20
545.1186003193492
 30
0.0
 10
142.7034376473596
 20
543.2095288985938
 30
0.0
 10
141.4736233809124
 20
541.9161312340062
 30
0.0
 10
140.8491753167467
 20
541.2593981891201
 30
0.0
  0
SPLINE
  5
B3
330
1F
100
AcDbEntity
  8
0
  6
Continuous
 62
     8
370
     0
100
AcDbSpline
210
0.0
220
0.0
230
1.0
 70
     8
 71
     3
 72
    15
 73
    11
 74
     0
 42
0.00000001
 43
0.00000001
 12
1.0
 22
0.0
 32
0.0
 13
1.0
 23
0.0
 33
0.0
 40
0.0
 40
0.0
 40
0.0
 40
0.0
 40
0.062499680386339
 40
0.1249993016481651
 40
0.1874989229099913
 40
0.2499985441718174
 40
0.3124981654336435
 40
0.3749977866954697
 40
0.4374974079572958
 40
0.4999970292191219
 40
0.4999970292191219
 40
0.4999970292191219
 40
0.4999970292191219
 10
164.8955792407687
 20
432.0368716588394
 30
0.0
 10
162.7986607277873
 20
432.0368716588407
 30
0.0
 10
158.6057832593851
 20
432.530948971086
 30
0.0
 10
153.0125535042072
 20
434.7215799743608
 30
0.0
 10
148.5719943895855
 20
438.1968334131641
 30
0.0
 10
145.3525493211399
 20
442.6582694308437
 30
0.0
 10
143.1445974955849
 20
447.7990958470324
 30
0.0
 10
141.6979619522474
 20
453.3812705738433
 30
0.0
 10
140.7620274002226
 20
459.2537230347496
 30
0.0
 10
140.3927600509096
 20
463.3049669375851
 30
0.0
 10
140.2501141469911
 20
465.3535155503248
 30
0.0
  0
SPLINE
  5
B4
330
1F
100
AcDbEntity
  8
0
  6
Continuous
 62
     8
370
     0
100
AcDbSpline
210
0.0
220
0.0
230
1.0
 70
     8
 71
     3
 72
    35
 73
    31
 74
     0
 42
0.00000001
 43
0.00000001
 12
1.0
 22
0.0
 32
0.0
 13
1.0
 23
0.0
 33
0.0
 40
0.0
 40
0.0
 40
0.0
 40
0.0
 40
0.0154092071515804
 40
0.0308524855373427
 40
0.0463324440091025
 40
0.0618516729129247
 40
0.0774127429757414
 40
0.0930182042384153
 40
0.1086705850368965
 40
0.1243723910328719
 40
0.1868919006081103
 40
0.2482558561779485
 40
0.3773382760123907
 40
0.4981827010977176
 40
0.5636273672709273
 40
0.6268373241101602
 40
0.6884275503884788
 40
0.7490622682712097
 40
0.7806380463720648
 40
0.8120146673569627
 40
0.8432985671899514
 40
0.8745971272175972
 40
0.8903201961137012
 40
0.9060023340946952
 40
0.9216571374517278
 40
0.9372982737586031
 40
0.9529394464162017
 40
0.968594358729346
 40
0.9842766779849157
 40
1.0
 40
1.0
 40
1.0
 40
1.0
 10
189.5410562368112
 20
465.3535155503248
 30
0.0
 10
189.5230794561968
 20
465.1013047360399
 30
0.0
 10
189.4870861465827
 20
464.5963254451823
 30
0.0
 10
189.4275928429744
 20
463.8408500917512
 30
0.0
 10
189.3637551326139
 20
463.0858373300594
 30
0.0
 10
189.2949837596497
 20
462.3314855790719
 30
0.0
 10
189.2211615991398
 20
461.5777412415822
 30
0.0
 10
189.1420328042618
 20
460.824619891975
 30
0.0
 10
189.0573631903319
 20
460.0721132506019
 30
0.0
 10
188.8771198313254
 20
458.5738251737311
 30
0.0
 10
188.5666735894663
 20
456.3683826155359
 30
0.0
 10
187.8560468741772
 20
452.4543867505353
 30
0.0
 10
186.6527996644377
 20
447.8146037740374
 30
0.0
 10
184.791512473197
 20
443.4930984835348
 30
0.0
 10
182.822655533266
 20
440.409724679538
 30
0.0
 10
181.0256480630144
 20
438.2751074676
 30
0.0
 10
178.9757132827962
 20
436.4410088303877
 30
0.0
 10
177.0314509596911
 20
435.1494611118593
 30
0.0
 10
175.3345432235731
 20
434.2658680298751
 30
0.0
 10
173.9742762173827
 20
433.6760799569164
 30
0.0
 10
172.558759047386
 20
433.1746835385702
 30
0.0
 10
171.3359799717961
 20
432.8306293119658
 30
0.0
 10
170.3359543094078
 20
432.5999613184202
 30
0.0
 10
169.5759213527723
 20
432.4495086171927
 30
0.0
 10
168.809025455037
 20
432.3222080353982
 30
0.0
 10
168.0358994078043
 20
432.2180884136298
 30
0.0
 10
167.2572113787271
 20
432.137003623582
 30
0.0
 10
166.4736421515847
 20
432.079511732687
 30
0.0
 10
165.6858903567814
 20
432.0435227830657
 30
0.0
 10
165.1592494385076
 20
432.0390906291006
 30
0.0
 10
164.8955851919165
 20
432.0368716588394
 30
0.0
  0
SPLINE
  5
B5
330
1F
100
AcDbEntity
  8
0
  6
Continuous
 62
     8
370
     0
100
AcDbSpline
210
0.0
220
0.0
230
1.0
 70
     8
 71
     3
 72
    17
 73
    13
 74
     0
 42
0.00000001
 43
0.00000001
 12
1.0
 22
0.0
 32
0.0
 13
1.0
 23
0.0
 33
0.0
 40
0.0
 40
0.0
 40
0.0
 40
0.0
 40
0.0025082462423857
 40
0.1276898169258808
 40
0.2497740356035781
 40
0.4507152877294421
 40
0.5409807835723173
 40
0.6256645879034936
 40
0.718868577083942
 40
0.8121210454652935
 40
0.9064002779301262
 40
1.0
 40
1.0
 40
1.0
 40
1.0
 10
143.9303536093788
 20
484.5002940564679
 30
0.0
 10
143.9225022599499
 20
484.4922836773882
 30
0.0
 10
143.5228057093265
 20
484.0844912442102
 30
0.0
 10
142.8777206955228
 20
483.1887803906462
 30
0.0
 10
141.8218538794935
 20
481.4948548631581
 30
0.0
 10
141.0875036921256
 20
479.711702064422
 30
0.0
 10
140.6012739756898
 20
477.8818442200326
 30
0.0
 10
140.335649057848
 20
476.4775882481097
 30
0.0
 10
140.1501888013418
 20
474.9611166063727
 30
0.0
 10
140.0432490747659
 20
473.3167371956126
 30
0.0
 10
140.0043587801188
 20
471.6369022040772
 30
0.0
 10
140.0190733170442
 20
470.5147248552872
 30
0.0
 10
140.0264039761381
 20
469.9556654959248
 30
0.0
  0
SPLINE
  5
B6
330
1F
100
AcDbEntity
  8
0
  6
Continuous
 62
     8
370
     0
100
AcDbSpline
210
0.0
220
0.0
230
1.0
 70
     8
 71
     3
 72
    17
 73
    13
 74
     0
 42
0.00000001
 43
0.00000001
 12
1.0
 22
0.0
 32
0.0
 13
1.0
 23
0.0
 33
0.0
 40
0.0
 40
0.0
 40
0.0
 40
0.0
 40
0.0025082462423857
 40
0.1276898169258808
 40
0.2497740356035781
 40
0.4507152877294421
 40
0.5409807835723173
 40
0.6256645879034936
 40
0.718868577083942
 40
0.8121210454652935
 40
0.9064002779301262
 40
1.0
 40
1.0
 40
1.0
 40
1.0
 10
185.8608167744235
 20
484.5002940564679
 30
0.0
 10
185.8686681238524
 20
484.4922836773882
 30
0.0
 10
186.2683646744758
 20
484.0844912442102
 30
0.0
 10
186.9134496882795
 20
483.1887803906462
 30
0.0
 10
187.9693165043087
 20
481.4948548631581
 30
0.0
 10
188.7036666916767
 20
479.711702064422
 30
0.0
 10
189.1898964081124
 20
477.8818442200326
 30
0.0
 10
189.4555213259543
 20
476.4775882481097
 30
0.0
 10
189.6409815824605
 20
474.9611166063727
 30
0.0
 10
189.7479213090363
 20
473.3167371956126
 30
0.0
 10
189.7868116036834
 20
471.6369022040772
 30
0.0
 10
189.7720970667581
 20
470.5147248552872
 30
0.0
 10
189.7647664076642
 20
469.9556654959248
 30
0.0
  0
SPLINE
  5
B7
330
1F
100
AcDbEntity
  8
0
  6
Continuous
 62
     8
370
     0
100
AcDbSpline
210
0.0
220
0.0
230
1.0
 70
     8
 71
     3
 72
    11
 73
     7
 74
     0
 42
0.00000001
 43
0.00000001
 12
1.0
 22
0.0
 32
0.0
 13
1.0
 23
0.0
 33
0.0
 40
0.0
 40
0.0
 40
0.0
 40
0.0
 40
0.1896665172216129
 40
0.4754205276145193
 40
0.747071653071571
 40
1.0
 40
1.0
 40
1.0
 40
1.0
 10
188.6935927099542
 20
542.2253212600277
 30
0.0
 10
188.7347954938938
 20
542.1772578364995
 30
0.0
 10
188.8380749212103
 20
542.0567814418914
 30
0.0
 10
188.9284294201925
 20
541.8172155187948
 30
0.0
 10
188.9751579736103
 20
541.5386528389115
 30
0.0
 10
188.953523380981
 20
541.3495679426618
 30
0.0
 10
188.9430921650485
 20
541.2583998113201
 30
0.0
  0
SPLINE
  5
B8
330
1F
100
AcDbEntity
  8
0
  6
Continuous
 62
     8
370
     0
100
AcDbSpline
210
0.0
220
0.0
230
1.0
 70
     8
 71
     3
 72
    11
 73
     7
 74
     0
 42
0.00000001
 43
0.00000001
 12
1.0
 22
0.0
 32
0.0
 13
1.0
 23
0.0
 33
0.0
 40
0.0
 40
0.0
 40
0.0
 40
0.0
 40
0.1867420815477516
 40
0.4735086658773902
 40
0.7461405587181758
 40
1.0
 40
1.0
 40
1.0
 40
1.0
 10
141.0974528766231
 20
542.2253510623501
 30
0.0
 10
141.057055082564
 20
542.1782573807476
 30
0.0
 10
140.9546212582714
 20
542.058845268801
 30
0.0
 10
140.8648094322323
 20
541.8204387858838
 30
0.0
 10
140.8179968156603
 20
541.5418978949737
 30
0.0
 10
140.8396080659275
 20
541.3526968965296
 30
0.0
 10
140.850028408225
 20
541.2614694505261
 30
0.0
  0
SPLINE
  5
B9
330
1F
100
AcDbEntity
  8
0
  6
Continuous
 62
     8
370
     0
100
AcDbSpline
210
0.0
220
0.0
230
1.0
 70
     8
 71
     3
 72
    15
 73
    11
 74
     0
 42
0.00000001
 43
0.00000001
 12
1.0
 22
0.0
 32
0.0
 13
1.0
 23
0.0
 33
0.0
 40
0.0
 40
0.0
 40
0.0
 40
0.0
 40
0.0808957075635509
 40
0.1639809202706402
 40
0.2492843000448804
 40
0.3703886770488697
 40
0.4992148743529613
 40
0.7498562143270346
 40
0.8740863264776415
 40
1.0
 40
1.0
 40
1.0
 40
1.0
 10
189.764765792888
 20
469.9556635440011
 30
0.0
 10
189.761995812768
 20
469.8302496728539
 30
0.0
 10
189.7563808808649
 20
469.5760275067485
 30
0.0
 10
189.7450267520172
 20
469.1903671199723
 30
0.0
 10
189.7295780401599
 20
468.7433355016098
 30
0.0
 10
189.7083670484601
 20
468.2270129230046
 30
0.0
 10
189.6717091472969
 20
467.4583701771847
 30
0.0
 10
189.6280902445183
 20
466.6882715138661
 30
0.0
 10
189.5801253157346
 20
465.9250583133048
 30
0.0
 10
189.55413756555
 20
465.5448827127151
 30
0.0
 10
189.5410562368112
 20
465.3535155503248
 30
0.0
  0
SPLINE
  5
BA
330
1F
100
AcDbEntity
  8
0
  6
Continuous
 62
     8
370
     0
100
AcDbSpline
210
0.0
220
0.0
230
1.0
 70
     8
 71
     3
 72
    12
 73
     8
 74
     0
 42
0.00000001
 43
0.00000001
 12
1.0
 22
0.0
 32
0.0
 13
1.0
 23
0.0
 33
0.0
 40
0.0
 40
0.0
 40
0.0
 40
0.0
 40
0.2549018309035931
 40
0.5078664061995527
 40
0.5078664061995527
 40
0.7608388392665357
 40
1.0
 40
1.0
 40
1.0
 40
1.0
 10
140.2501141469911
 20
465.3535155503248
 30
0.0
 10
140.2231812970014
 20
465.7403002456276
 30
0.0
 10
140.1724287859028
 20
466.5146227290022
 30
0.0
 10
140.1288514006851
 20
467.2935264567875
 30
0.0
 10
140.0897356684358
 20
468.0703770720169
 30
0.0
 10
140.0561478616194
 20
468.8269393720908
 30
0.0
 10
140.0339225617888
 20
469.5860155605362
 30
0.0
 10
140.0264045909142
 20
469.9556635440011
 30
0.0
  0
SPLINE
  5
BB
330
1F
100
AcDbEntity
  8
0
  6
Continuous
 62
     8
370
     0
100
AcDbSpline
210
0.0
220
0.0
230
1.0
 70
     8
 71
     3
 72
    11
 73
     7
 74
     0
 42
0.00000001
 43
0.00000001
 12
1.0
 22
0.0
 32
0.0
 13
1.0
 23
0.0
 33
0.0
 40
0.0
 40
0.0
 40
0.0
 40
0.0
 40
0.0806608398942366
 40
0.3873128751175517
 40
0.6941721284167259
 40
1.0
 40
1.0
 40
1.0
 40
1.0
 10
190.8604413396673
 20
536.6582176356839
 30
0.0
 10
190.8690979298822
 20
536.7840681299315
 30
0.0
 10
190.9106646783724
 20
537.3883702525715
 30
0.0
 10
190.6238245383606
 20
538.4763420618566
 30
0.0
 10
190.0190552590427
 20
539.8987631166643
 30
0.0
 10
189.3007660598749
 20
540.807078098716
 30
0.0
 10
188.9422260350541
 20
541.2604710727261
 30
0.0
  0
SPLINE
  5
BC
330
1F
100
AcDbEntity
  8
0
  6
Continuous
 62
     8
370
     0
100
AcDbSpline
210
0.0
220
0.0
230
1.0
 70
     8
 71
     3
 72
    12
 73
     8
 74
     0
 42
0.00000001
 43
0.00000001
 12
1.0
 22
0.0
 32
0.0
 13
1.0
 23
0.0
 33
0.0
 40
0.0
 40
0.0
 40
0.0
 40
0.0
 40
0.1805606332173562
 40
0.3811482822497427
 40
0.6017726415612531
 40
0.8026032535184507
 40
1.0
 40
1.0
 40
1.0
 40
1.0
 10
140.8489462113933
 20
541.2604561715649
 30
0.0
 10
140.6269716327907
 20
540.9887218656313
 30
0.0
 10
140.158402001471
 20
540.41511364279
 30
0.0
 10
139.6022875388292
 20
539.4857159078732
 30
0.0
 10
139.189695137696
 20
538.5108544934152
 30
0.0
 10
138.9397904516691
 20
537.5328020848208
 30
0.0
 10
138.9111764490106
 20
536.9004332046221
 30
0.0
 10
138.8969928151922
 20
536.5869751840161
 30
0.0
  0
SPLINE
  5
BD
330
1F
100
AcDbEntity
  8
0
  6
Continuous
 62
     7
370
    15
100
AcDbSpline
210
0.0
220
0.0
230
1.0
 70
     8
 71
     3
 72
    14
 73
    10
 74
     0
 42
0.00000001
 43
0.00000001
 12
1.0
 22
0.0
 32
0.0
 13
1.0
 23
0.0
 33
0.0
 40
0.0
 40
0.0
 40
0.0
 40
0.0
 40
0.1888497360604117
 40
0.3761791454233063
 40
0.5463420760010808
 40
0.6989377555063719
 40
0.8357722623041922
 40
0.9606920640602316
 40
1.0
 40
1.0
 40
1.0
 40
1.0
 10
306.9577824259692
 20
509.8998746543453
 30
0.0
 10
307.0538233865862
 20
511.9162155337996
 30
0.0
 10
307.2451321341875
 20
515.9326648269698
 30
0.0
 10
307.7908339688539
 20
521.7371667206041
 30
0.0
 10
308.6139571619532
 20
527.1205151599765
 30
0.0
 10
309.8455994376222
 20
531.9117409205026
 30
0.0
 10
311.6227511859293
 20
536.0320098087373
 30
0.0
 10
313.3474698728591
 20
538.855986812283
 30
0.0
 10
314.5820887663908
 20
540.1503648201214
 30
0.0
 10
314.8775950009518
 20
540.460174408488
 30
0.0
  0
LINE
  5
BE
330
1F
100
AcDbEntity
  8
0
  6
Continuous
 62
     7
370
    15
100
AcDbLine
 10
255.3582686866
 20
427.9980039864
 30
0.0
 11
255.3582686866
 21
367.9980034649
 31
0.0
  0
LINE
  5
BF
330
1F
100
AcDbEntity
  8
0
  6
Continuous
 62
     7
370
    15
100
AcDbLine
 10
307.5582694198
 20
367.9980034649
 30
0.0
 11
307.5582694198
 21
427.9980039864
 31
0.0
  0
LINE
  5
C0
330
1F
100
AcDbEntity
  8
0
  6
Continuous
 62
     7
370
    15
100
AcDbLine
 10
255.4582685167
 20
524.3555656343
 30
0.0
 11
255.4582685167
 21
505.5980062752
 31
0.0
  0
LINE
  5
C1
330
1F
100
AcDbEntity
  8
0
  6
Continuous
 62
     7
370
    15
100
AcDbLine
 10
307.4582695896
 20
505.5980062752
 30
0.0
 11
307.4582695896
 21
508.6031458049
 31
0.0
  0
LINE
  5
C2
330
1F
100
AcDbEntity
  8
0
  6
Continuous
 62
     7
370
    15
100
AcDbLine
 10
307.4582695896
 20
492.0152700215
 30
0.0
 11
307.4582695896
 21
493.4980026155
 31
0.0
  0
LINE
  5
C3
330
1F
100
AcDbEntity
  8
0
  6
Continuous
 62
     7
370
    15
100
AcDbLine
 10
307.4582695896
 20
428.4980049997
 30
0.0
 11
307.4582695896
 21
432.0368705957
 31
0.0
  0
LINE
  5
C4
330
1F
100
AcDbEntity
  8
0
  6
Continuous
 62
     7
370
    15
100
AcDbLine
 10
255.4582685167
 20
493.4980026155
 30
0.0
 11
255.4582685167
 21
428.4980049997
 31
0.0
  0
LINE
  5
C5
330
1F
100
AcDbEntity
  8
0
  6
Continuous
 62
     7
370
    15
100
AcDbLine
 10
307.4082687432
 20
493.4980026155
 30
0.0
 11
307.3516964848
 21
496.7390051752
 31
0.0
  0
LINE
  5
C6
330
1F
100
AcDbEntity
  8
0
  6
Continuous
 62
     7
370
    15
100
AcDbLine
 10
255.5648416216
 20
496.7390051752
 30
0.0
 11
255.5082693631
 21
493.4980026155
 31
0.0
  0
ARC
  5
C7
330
1F
100
AcDbEntity
  8
0
  6
Continuous
 62
     7
370
    15
100
AcDbCircle
 10
281.5608809927
 20
496.2852406442
 30
0.0
 40
26.00000000000003
100
AcDbArc
 50
159.0113395279
 51
179.0
  0
ARC
  5
C8
330
1F
100
AcDbEntity
  8
0
  6
Continuous
 62
     7
370
    15
100
AcDbCircle
 10
281.3556571137
 20
496.2852406442
 30
0.0
 40
26.00000000000006
100
AcDbArc
 50
1.0
 51
20.9886604721
  0
SPLINE
  5
C9
330
1F
100
AcDbEntity
  8
0
  6
Continuous
 62
     7
370
    15
100
AcDbSpline
210
0.0
220
0.0
230
1.0
 70
     8
 71
     3
 72
    22
 73
    18
 74
     0
 42
0.00000001
 43
0.00000001
 12
1.0
 22
0.0
 32
0.0
 13
1.0
 23
0.0
 33
0.0
 40
0.0
 40
0.0
 40
0.0
 40
0.0
 40
0.0736984664455209
 40
0.155637966013019
 40
0.2384053579469833
 40
0.3135091720716776
 40
0.379846971276751
 40
0.4392561524960693
 40
0.496004526172786
 40
0.5520452085771773
 40
0.614095725600365
 40
0.6812277094527218
 40
0.7503389327647206
 40
0.8058871056582825
 40
0.864888711800595
 40
0.9314725849624791
 40
1.0
 40
1.0
 40
1.0
 40
1.0
 10
361.6822242672139
 20
577.4793675809428
 30
0.0
 10
358.9281021229725
 20
576.6141130181989
 30
0.0
 10
353.1118892578377
 20
574.7868502985802
 30
0.0
 10
344.5563432923357
 20
571.0209669277939
 30
0.0
 10
336.138102193074
 20
566.8717426136752
 30
0.0
 10
328.2416015489278
 20
563.0393509819662
 30
0.0
 10
321.1645698470494
 20
559.6142877221104
 30
0.0
 10
314.7404871496012
 20
556.4891246624936
 30
0.0
 10
308.6844789515611
 20
553.5289116564296
 30
0.0
 10
302.5268966218087
 20
550.5410231163571
 30
0.0
 10
295.9680104181232
 20
547.449511732943
 30
0.0
 10
288.8953636330129
 20
544.2507574110057
 30
0.0
 10
282.0611281675809
 20
541.1423486245257
 30
0.0
 10
275.5953935071531
 20
537.9952783773213
 30
0.0
 10
269.3468299832683
 20
534.6410297124722
 30
0.0
 10
262.8264735220704
 20
530.7248799946395
 30
0.0
 10
258.5257843698208
 20
527.6430819045918
 30
0.0
 10
256.344507628172
 20
526.080017414622
 30
0.0
  0
LINE
  5
CA
330
1F
100
AcDbEntity
  8
0
  6
Continuous
 62
     7
370
    15
100
AcDbLine
 10
256.5582685108
 20
428.4980049997
 30
0.0
 11
256.5582685108
 21
427.9980039864
 31
0.0
  0
LINE
  5
CB
330
1F
100
AcDbEntity
  8
0
  6
Continuous
 62
     7
370
    15
100
AcDbLine
 10
306.3582695956
 20
427.9980039864
 30
0.0
 11
306.3582695956
 21
428.4980049997
 31
0.0
  0
LINE
  5
CC
330
1F
100
AcDbEntity
  8
0
  6
Continuous
 62
     7
370
    15
100
AcDbLine
 10
494.1593214805
 20
544.3162670999
 30
0.0
 11
491.2193074758
 21
549.2092719942
 31
0.0
  0
LINE
  5
CD
330
1F
100
AcDbEntity
  8
0
  6
Continuous
 62
     7
370
    15
100
AcDbLine
 10
471.573631459
 20
535.3066674142
 30
0.0
 11
473.5873147781
 21
531.9553515583
 31
0.0
  0
LINE
  5
CE
330
1F
100
AcDbEntity
  8
0
  6
Continuous
 62
     7
370
    15
100
AcDbLine
 10
473.5873147781
 20
531.9553515583
 30
0.0
 11
474.741826945
 21
531.9754979282
 31
0.0
  0
LINE
  5
CF
330
1F
100
AcDbEntity
  8
0
  6
Continuous
 62
     7
370
    15
100
AcDbLine
 10
493.5995146568
 20
543.3063409
 30
0.0
 11
494.1593214805
 21
544.3162670999
 31
0.0
  0
LINE
  5
D0
330
1F
100
AcDbEntity
  8
0
  6
Continuous
 62
     7
370
    15
100
AcDbLine
 10
476.5418872173
 20
533.0570838123
 30
0.0
 11
476.6448989446
 21
532.8856459528
 31
0.0
  0
LINE
  5
D1
330
1F
100
AcDbEntity
  8
0
  6
Continuous
 62
     7
370
    15
100
AcDbLine
 10
491.9024661119
 20
542.0533320575
 30
0.0
 11
491.7994692857
 21
542.2247550159
 31
0.0
  0
SPLINE
  5
D2
330
1F
100
AcDbEntity
  8
0
  6
Continuous
 62
     7
370
    15
100
AcDbSpline
210
0.0
220
0.0
230
1.0
 70
     8
 71
     3
 72
    10
 73
     6
 74
     0
 42
0.00000001
 43
0.00000001
 12
1.0
 22
0.0
 32
0.0
 13
1.0
 23
0.0
 33
0.0
 40
0.0
 40
0.0
 40
0.0
 40
0.0
 40
0.3309999954297633
 40
0.7156734700431411
 40
1.0
 40
1.0
 40
1.0
 40
1.0
 10
309.0301521057778
 20
528.377672162585
 30
0.0
 10
309.329325977631
 20
529.603470754153
 30
0.0
 10
309.9761864186329
 20
532.2538379557069
 30
0.0
 10
311.4654546659076
 20
535.8414373453153
 30
0.0
 10
312.9515906997845
 20
537.9654736642691
 30
0.0
 10
313.583201908558
 20
538.8681939511821
 30
0.0
  0
LINE
  5
D3
330
1F
100
AcDbEntity
  8
0
  6
Continuous
 62
     7
370
    15
100
AcDbLine
 10
314.0079110796
 20
539.5166477829
 30
0.0
 11
314.8758739168
 21
540.4583117633
 31
0.0
  0
LINE
  5
D4
330
1F
100
AcDbEntity
  8
0
  6
Continuous
 62
     7
370
    15
100
AcDbLine
 10
307.457517081
 20
508.5980049043
 30
0.0
 11
307.7082682336
 21
508.5980049043
 31
0.0
  0
LINE
  5
D5
330
1F
100
AcDbEntity
  8
0
  6
Continuous
 62
     7
370
    15
100
AcDbLine
 10
307.7082682336
 20
516.5980062156
 30
0.0
 11
307.6058506901
 21
516.5980062156
 31
0.0
  0
LINE
  5
D6
330
1F
100
AcDbEntity
  8
0
  6
Continuous
 62
     7
370
    15
100
AcDbLine
 10
307.7082682336
 20
508.5980049043
 30
0.0
 11
308.3088166947
 21
508.8165900379
 31
0.0
  0
LINE
  5
D7
330
1F
100
AcDbEntity
  8
0
  6
Continuous
 62
     7
370
    15
100
AcDbLine
 10
308.3088166947
 20
516.3794210821
 30
0.0
 11
307.7082682336
 21
516.5980062156
 31
0.0
  0
ARC
  5
D8
330
1F
100
AcDbEntity
  8
0
  6
Continuous
 62
     7
370
    15
100
AcDbCircle
 10
308.2404123944
 20
516.1914833205
 30
0.0
 40
0.2000000000001087
100
AcDbArc
 50
0.0
 51
70.0
  0
ARC
  5
D9
330
1F
100
AcDbEntity
  8
0
  6
Continuous
 62
     7
370
    15
100
AcDbCircle
 10
308.2404123944
 20
509.0045231026
 30
0.0
 40
0.2000000000000455
100
AcDbArc
 50
290.0
 51
0.0
  0
LINE
  5
DA
330
1F
100
AcDbEntity
  8
0
  6
Continuous
 62
     7
370
    15
100
AcDbLine
 10
308.4404125745
 20
509.0045234829
 30
0.0
 11
308.4404125745
 21
516.1914876371
 31
0.0
  0
SPLINE
  5
DB
330
1F
100
AcDbEntity
  8
0
  6
Continuous
 62
     7
370
    15
100
AcDbSpline
210
0.0
220
0.0
230
1.0
 70
     8
 71
     3
 72
    70
 73
    66
 74
     0
 42
0.00000001
 43
0.00000001
 12
1.0
 22
0.0
 32
0.0
 13
1.0
 23
0.0
 33
0.0
 40
0.0
 40
0.0
 40
0.0
 40
0.0
 40
0.0106110848721781
 40
0.0212340677874239
 40
0.0393966718638833
 40
0.0486893734679791
 40
0.0766243999406311
 40
0.0952969243359599
 40
0.1046483526331765
 40
0.1390687486358201
 40
0.1563312461501254
 40
0.1649754910464178
 40
0.1895312419155243
 40
0.2134377710786829
 40
0.2214201923766818
 40
0.2374038649665143
 40
0.2522324922442963
 40
0.2670797603727872
 40
0.2893807848831687
 40
0.3037860313574107
 40
0.3107529249198221
 40
0.3386338248042146
 40
0.3658287310409699
 40
0.3724528391424173
 40
0.3923103698760317
 40
0.4183281203624797
 40
0.424719145640666
 40
0.4374822649283711
 40
0.4502171068389265
 40
0.456572564071341
 40
0.4816420156409756
 40
0.5003358685793526
 40
0.5065443310354776
 40
0.5189241035687234
 40
0.5557328024314891
 40
0.5679753741602314
 40
0.5922839851519192
 40
0.6288766118519435
 40
0.6410677053274861
 40
0.6659900031676974
 40
0.6755497636468587
 40
0.6787323253960583
 40
0.691444507857192
 40
0.7110410993867858
 40
0.7179459189548685
 40
0.7317536856421857
 40
0.7455695963342052
 40
0.7524847022005305
 40
0.7750816276127366
 40
0.7829421840356583
 40
0.7908203296522841
 40
0.8225526530632447
 40
0.8416566019754501
 40
0.8512855710747744
 40
0.8609713979494888
 40
0.8805328369172195
 40
0.9003842955172098
 40
0.9135765615617755
 40
0.9404494702469761
 40
0.9472826068362947
 40
0.9611009213618497
 40
0.9822464684583496
 40
0.9894183464909718
 40
0.9947343097606981
 40
1.0
 40
1.0
 40
1.0
 40
1.0
 10
291.345546218214
 20
541.2599331035691
 30
0.0
 10
291.3505905539786
 20
541.0911888033755
 30
0.0
 10
291.3606848816424
 20
540.7535109926505
 30
0.0
 10
291.3852702123249
 20
540.127231384534
 30
0.0
 10
291.4148529958831
 20
539.522196251699
 30
0.0
 10
291.4667906643211
 20
538.642680185002
 30
0.0
 10
291.53129749008
 20
537.7559200853503
 30
0.0
 10
291.6117046177216
 20
536.8698178518742
 30
0.0
 10
291.7123188338054
 20
535.882312773789
 30
0.0
 10
291.8275719742159
 20
534.9191535881426
 30
0.0
 10
291.9622409433513
 20
533.9706027131203
 30
0.0
 10
292.0838180861131
 20
533.1787956692403
 30
0.0
 10
292.234478425274
 20
532.2852302898799
 30
0.0
 10
292.4029796121853
 20
531.4064047950168
 30
0.0
 10
292.5571934058157
 20
530.6639877233566
 30
0.0
 10
292.6890820929646
 20
530.0642040844955
 30
0.0
 10
292.8550197639379
 20
529.3614471537119
 30
0.0
 10
293.0558975360053
 20
528.5652896708822
 30
0.0
 10
293.2702821272126
 20
527.7808158246725
 30
0.0
 10
293.4649045412948
 20
527.1213426460287
 30
0.0
 10
293.6929263104261
 20
526.3812209683103
 30
0.0
 10
293.9982442650372
 20
525.4566832811589
 30
0.0
 10
294.330575065431
 20
524.551718730593
 30
0.0
 10
294.6353897089792
 20
523.7737395923851
 30
0.0
 10
294.9453244690569
 20
523.0199900115198
 30
0.0
 10
295.2746094024675
 20
522.2836305478285
 30
0.0
 10
295.5715709704704
 20
521.6572694371566
 30
0.0
 10
295.7863589230653
 20
521.219368011825
 30
0.0
 10
296.0076507901646
 20
520.7880660902496
 30
0.0
 10
296.3213261372761
 20
520.1969793396057
 30
0.0
 10
296.690094839428
 20
519.5390844679838
 30
0.0
 10
297.0743406376303
 20
518.9037828377476
 30
0.0
 10
297.3675668165181
 20
518.439351744849
 30
0.0
 10
297.8102954958323
 20
517.7601086161534
 30
0.0
 10
298.3211753070431
 20
517.0399088078264
 30
0.0
 10
298.9480153588143
 20
516.2260831832568
 30
0.0
 10
299.5840193023444
 20
515.4497262841566
 30
0.0
 10
300.2316552678291
 20
514.7360651556858
 30
0.0
 10
300.8848733719059
 20
514.0705593893371
 30
0.0
 10
301.297464794974
 20
513.6751095447727
 30
0.0
 10
301.6269561644337
 20
513.3759104722342
 30
0.0
 10
301.8485706845372
 20
513.1786267570802
 30
0.0
 10
302.155608291296
 20
512.9121429826981
 30
0.0
 10
302.4892947615635
 20
512.636815537259
 30
0.0
 10
302.8260938226867
 20
512.3696987913071
 30
0.0
 10
303.1101887981741
 20
512.1513793324513
 30
0.0
 10
303.3876369925439
 20
511.9467009881183
 30
0.0
 10
303.7286062692444
 20
511.7025206084471
 30
0.0
 10
304.013704318055
 20
511.5070591884725
 30
0.0
 10
304.2950955746183
 20
511.3218277958439
 30
0.0
 10
304.6362604109172
 20
511.1020361122286
 30
0.0
 10
305.0348504728255
 20
510.8590834135188
 30
0.0
 10
305.4098951141858
 20
510.6438472315159
 30
0.0
 10
305.6348645022869
 20
510.5188885344566
 30
0.0
 10
305.8532872256047
 20
510.4002055975647
 30
0.0
 10
306.1111734717236
 20
510.2645024239387
 30
0.0
 10
306.3606015714254
 20
510.1383747267539
 30
0.0
 10
306.6182384727164
 20
510.0118549558815
 30
0.0
 10
306.7944208294756
 20
509.928354917236
 30
0.0
 10
306.950507050662
 20
509.8559730215724
 30
0.0
 10
307.0756419800755
 20
509.7987577704468
 30
0.0
 10
307.1809089038619
 20
509.7516478412991
 30
0.0
 10
307.2510942458856
 20
509.7206186245551
 30
0.0
 10
307.2851299190077
 20
509.7056455630118
 30
0.0
 10
307.3033692005356
 20
509.6976613503551
 30
0.0
 10
307.3124455142357
 20
509.6936882103711
 30
0.0
  0
SPLINE
  5
DC
330
1F
100
AcDbEntity
  8
0
  6
Continuous
 62
     7
370
    15
100
AcDbSpline
210
0.0
220
0.0
230
1.0
 70
     8
 71
     3
 72
    27
 73
    23
 74
     0
 42
0.00000001
 43
0.00000001
 12
1.0
 22
0.0
 32
0.0
 13
1.0
 23
0.0
 33
0.0
 40
0.0
 40
0.0
 40
0.0
 40
0.0
 40
0.0360201525284696
 40
0.0719594171849698
 40
0.107843303957062
 40
0.1436593353619767
 40
0.1793935242727319
 40
0.2150320123624189
 40
0.250558609071726
 40
0.3412511394008507
 40
0.4234912077301077
 40
0.4974384845974725
 40
0.5753667829776972
 40
0.6572204019353519
 40
0.7433592561395461
 40
0.785718461753749
 40
0.8280589281396548
 40
0.8704468320903401
 40
0.9015707438660933
 40
0.9335168000854563
 40
0.966315366512107
 40
0.9999999999999999
 40
0.9999999999999999
 40
0.9999999999999999
 40
0.9999999999999999
 10
316.2595455229435
 20
553.3355329214842
 30
0.0
 10
315.9494033989985
 20
553.1845492235203
 30
0.0
 10
315.3298156150225
 20
552.8829208808494
 30
0.0
 10
314.4016058669818
 20
552.4314340354033
 30
0.0
 10
313.4746786804727
 20
551.9826184308364
 30
0.0
 10
312.5496405983583
 20
551.535610515263
 30
0.0
 10
311.6271524351695
 20
551.0901458604455
 30
0.0
 10
310.7079262194423
 20
550.6460132852154
 30
0.0
 10
309.3183290990825
 20
549.9721896495873
 30
0.0
 10
307.5329221584116
 20
549.1043270916504
 30
0.0
 10
305.4305999061289
 20
548.0794573108398
 30
0.0
 10
303.4568219153034
 20
547.1090600433688
 30
0.0
 10
301.5091658554815
 20
546.1620425613659
 30
0.0
 10
299.5043773163096
 20
545.1795607137614
 30
0.0
 10
297.8290009660855
 20
544.3573415501879
 30
0.0
 10
296.477028845354
 20
543.7040852257484
 30
0.0
 10
295.472801808412
 20
543.2186664329295
 30
0.0
 10
294.5520986809129
 20
542.7855850427409
 30
0.0
 10
293.7104843104907
 20
542.3915539466867
 30
0.0
 10
292.9445747921299
 20
542.025924646606
 30
0.0
 10
292.1551985380365
 20
541.6472733477407
 30
0.0
 10
291.617827424242
 20
541.3898376015123
 30
0.0
 10
291.3455609112219
 20
541.259404217296
 30
0.0
  0
SPLINE
  5
DD
330
1F
100
AcDbEntity
  8
0
  6
Continuous
 62
     7
370
    15
100
AcDbSpline
210
0.0
220
0.0
230
1.0
 70
     8
 71
     3
 72
     9
 73
     5
 74
     0
 42
0.00000001
 43
0.00000001
 12
1.0
 22
0.0
 32
0.0
 13
1.0
 23
0.0
 33
0.0
 40
0.0
 40
0.0
 40
0.0
 40
0.0
 40
0.514286919118671
 40
1.0
 40
1.0
 40
1.0
 40
1.0
 10
307.6058525527411
 20
516.5980062156245
 30
0.0
 10
307.7177251784878
 20
518.6335472693124
 30
0.0
 10
307.935254774493
 20
522.5915344900961
 30
0.0
 10
308.672205498946
 20
526.4860533894359
 30
0.0
 10
309.0301521057778
 20
528.377672162585
 30
0.0
  0
SPLINE
  5
DE
330
1F
100
AcDbEntity
  8
0
  6
Continuous
 62
     7
370
    15
100
AcDbSpline
210
0.0
220
0.0
230
1.0
 70
     8
 71
     3
 72
     9
 73
     5
 74
     0
 42
0.00000001
 43
0.00000001
 12
1.0
 22
0.0
 32
0.0
 13
1.0
 23
0.0
 33
0.0
 40
0.0
 40
0.0
 40
0.0
 40
0.0
 40
0.1146427416407808
 40
1.0
 40
1.0
 40
1.0
 40
1.0
 10
314.8691497678452
 20
540.4665968089625
 30
0.0
 10
314.9937140852105
 20
540.6347316716751
 30
0.0
 10
316.0802575120561
 20
542.1013300825828
 30
0.0
 10
317.5379881964428
 20
543.2289082477325
 30
0.0
 10
318.8286006385975
 20
544.2272177606151
 30
0.0
  0
SPLINE
  5
DF
330
1F
100
AcDbEntity
  8
0
  6
Continuous
 62
     7
370
    15
100
AcDbSpline
210
0.0
220
0.0
230
1.0
 70
     8
 71
     3
 72
    32
 73
    28
 74
     0
 42
0.00000001
 43
0.00000001
 12
1.0
 22
0.0
 32
0.0
 13
1.0
 23
0.0
 33
0.0
 40
0.0
 40
0.0
 40
0.0
 40
0.0
 40
0.1250000000000062
 40
0.1250000000000062
 40
0.1875000000000093
 40
0.1875000000000093
 40
0.2500000000000124
 40
0.2500000000000124
 40
0.3125000000000154
 40
0.3125000000000154
 40
0.3750000000000185
 40
0.3750000000000185
 40
0.4375000000000215
 40
0.4375000000000215
 40
0.5000000000000245
 40
0.5000000000000245
 40
0.6250000000000228
 40
0.6250000000000228
 40
0.7500000000000209
 40
0.7500000000000209
 40
0.8125000000000157
 40
0.8125000000000157
 40
0.8750000000000104
 40
0.8750000000000104
 40
0.9375000000000052
 40
0.9375000000000052
 40
1.0
 40
1.0
 40
1.0
 40
1.0
 10
307.6058518801582
 20
516.5980032101085
 30
0.0
 10
307.6053823343245
 20
516.5980138544031
 30
0.0
 10
307.5939852759662
 20
516.53748255035
 30
0.0
 10
307.5625210022171
 20
516.3627300606637
 30
0.0
 10
307.5497103571978
 20
516.2906811767486
 30
0.0
 10
307.5199808269127
 20
516.1185461067187
 30
0.0
 10
307.5030323402484
 20
516.0182089295198
 30
0.0
 10
307.4670052285568
 20
515.7959478960421
 30
0.0
 10
307.4478056615943
 20
515.6733505723483
 30
0.0
 10
307.4080952314506
 20
515.405136048237
 30
0.0
 10
307.3874265832525
 20
515.258240180952
 30
0.0
 10
307.3471121967618
 20
514.9493123224136
 30
0.0
 10
307.327380131601
 20
514.7868348615679
 30
0.0
 10
307.289881213342
 20
514.4459430995556
 30
0.0
 10
307.2720108281224
 20
514.2663491883404
 30
0.0
 10
307.2237713979088
 20
513.7103595516314
 30
0.0
 10
307.1994353640899
 20
513.3255585481498
 30
0.0
 10
307.1714969385636
 20
512.5270699477863
 30
0.0
 10
307.168603465514
 20
512.1293030836491
 30
0.0
 10
307.1799939324601
 20
511.5450535462143
 30
0.0
 10
307.1864511009743
 20
511.3516538045735
 30
0.0
 10
307.2035009458614
 20
510.9809413187859
 30
0.0
 10
307.2141127133746
 20
510.8019076227508
 30
0.0
 10
307.2385515816385
 20
510.4564284682704
 30
0.0
 10
307.2525071406926
 20
510.2887999253289
 30
0.0
 10
307.281747677587
 20
509.9758247782209
 30
0.0
 10
307.2970585702813
 20
509.8296784972286
 30
0.0
 10
307.3124429103071
 20
509.6936893489901
 30
0.0
  0
SPLINE
  5
E0
330
1F
100
AcDbEntity
  8
0
  6
Continuous
 62
     7
370
    15
100
AcDbSpline
210
0.0
220
0.0
230
1.0
 70
     8
 71
     3
 72
    10
 73
     6
 74
     0
 42
0.00000001
 43
0.00000001
 12
1.0
 22
0.0
 32
0.0
 13
1.0
 23
0.0
 33
0.0
 40
0.0
 40
0.0
 40
0.0
 40
0.0
 40
0.8225580388243489
 40
0.8225580388243489
 40
1.0
 40
1.0
 40
1.0
 40
1.0
 10
289.0427173677018
 20
469.9556635440011
 30
0.0
 10
296.0229131030118
 20
472.2151868167063
 30
0.0
 10
297.6740419518549
 20
472.0520893969671
 30
0.0
 10
309.278829067109
 20
477.3387974613428
 30
0.0
 10
311.7053748379598
 20
478.4868341962022
 30
0.0
 10
314.6320241655844
 20
479.9144574530468
 30
0.0
  0
SPLINE
  5
E1
330
1F
100
AcDbEntity
  8
0
  6
Continuous
 62
     7
370
    15
100
AcDbSpline
210
0.0
220
0.0
230
1.0
 70
     8
 71
     3
 72
    63
 73
    59
 74
     0
 42
0.00000001
 43
0.00000001
 12
1.0
 22
0.0
 32
0.0
 13
1.0
 23
0.0
 33
0.0
 40
0.0
 40
0.0
 40
0.0
 40
0.0
 40
0.0171443971675708
 40
0.0343293360183483
 40
0.060891778332411
 40
0.0835821463931633
 40
0.1083869376585397
 40
0.1329596818606156
 40
0.1701117464587741
 40
0.1825833670388299
 40
0.1951024702693103
 40
0.2315924318909368
 40
0.2436305175142114
 40
0.2800783176155256
 40
0.3046824963076175
 40
0.3106187575763206
 40
0.3285248477766822
 40
0.3648051731439479
 40
0.370917800907404
 40
0.3893783068260102
 40
0.4135916095765456
 40
0.4254759857924744
 40
0.4374485819576469
 40
0.4495148287069969
 40
0.4739437941733831
 40
0.4925459952984204
 40
0.5071964971451546
 40
0.5156442732753447
 40
0.55002495333723
 40
0.5676044025266038
 40
0.5763715030932196
 40
0.6031130601507646
 40
0.6213377978022128
 40
0.6305792842808606
 40
0.6561769357916014
 40
0.6811142469466686
 40
0.689576042417947
 40
0.7067267555656728
 40
0.7469661218751755
 40
0.7538125375074
 40
0.7720698551009447
 40
0.8065706936333698
 40
0.8275029308961196
 40
0.8431890350760759
 40
0.8638215860163437
 40
0.871494221978187
 40
0.8791384607955505
 40
0.9018754953993244
 40
0.9056354658104226
 40
0.917461831916439
 40
0.9334885585757369
 40
0.937469604089894
 40
0.9493494908621882
 40
0.9650555558515992
 40
0.9689595750547344
 40
0.9796830830840949
 40
0.989873124858462
 40
1.0
 40
1.0
 40
1.0
 40
1.0
 10
302.3813677124875
 20
488.6697025716672
 30
0.0
 10
302.2966543278938
 20
488.6109951612883
 30
0.0
 10
302.1270272353491
 20
488.4934415139965
 30
0.0
 10
301.8194442222933
 20
488.2786514405036
 30
0.0
 10
301.4772407993405
 20
488.037843441667
 30
0.0
 10
301.0873604371299
 20
487.7607737174829
 30
0.0
 10
300.700647935398
 20
487.4831825318003
 30
0.0
 10
300.2277614469377
 20
487.1399182776962
 30
0.0
 10
299.8136960428424
 20
486.8348319149514
 30
0.0
 10
299.4619092421556
 20
486.5721076214484
 30
0.0
 10
299.1114898464195
 20
486.3085833094279
 30
0.0
 10
298.7590894801845
 20
486.0398239818733
 30
0.0
 10
298.2635019636115
 20
485.6557159672973
 30
0.0
 10
297.8330837661927
 20
485.3167061600745
 30
0.0
 10
297.4350165852841
 20
484.9958551095219
 30
0.0
 10
297.1461061801173
 20
484.7600790619778
 30
0.0
 10
296.7866417423681
 20
484.463824684453
 30
0.0
 10
296.4244591446572
 20
484.1581788054595
 30
0.0
 10
296.0585251291846
 20
483.8427884611921
 30
0.0
 10
295.7650142870824
 20
483.5866453441438
 30
0.0
 10
295.4369143739033
 20
483.293673933379
 30
0.0
 10
295.148410023576
 20
483.0304845446035
 30
0.0
 10
294.9332013312886
 20
482.8312524902955
 30
0.0
 10
294.6435383938779
 20
482.5589269218588
 30
0.0
 10
294.3157565850609
 20
482.2430995419031
 30
0.0
 10
293.97531182476
 20
481.9044120507196
 30
0.0
 10
293.7310629661703
 20
481.6549150379915
 30
0.0
 10
293.3965407203287
 20
481.3064144642704
 30
0.0
 10
293.0493872364476
 20
480.9310083140898
 30
0.0
 10
292.7079528865516
 20
480.541756572269
 30
0.0
 10
292.4133272199298
 20
480.1960057841915
 30
0.0
 10
292.120730497028
 20
479.8384016511769
 30
0.0
 10
291.8343492388903
 20
479.4674576885038
 30
0.0
 10
291.5600595021695
 20
479.0980002174227
 30
0.0
 10
291.2601403449583
 20
478.6726148743057
 30
0.0
 10
290.9795399206828
 20
478.2391873705744
 30
0.0
 10
290.7493490128208
 20
477.8599735047391
 30
0.0
 10
290.4600966811394
 20
477.3581650356023
 30
0.0
 10
290.2033156554012
 20
476.8510700798029
 30
0.0
 10
289.9679603736061
 20
476.3220076714163
 30
0.0
 10
289.7660165945155
 20
475.832935589495
 30
0.0
 10
289.551603905544
 20
475.2122923234003
 30
0.0
 10
289.3832945100559
 20
474.6005100128287
 30
0.0
 10
289.2685021324377
 20
474.1023018260373
 30
0.0
 10
289.1960363502545
 20
473.7157510221372
 30
0.0
 10
289.1465545952752
 20
473.3981590611122
 30
0.0
 10
289.0996720515351
 20
473.0610861574465
 30
0.0
 10
289.0671836780552
 20
472.7572338454623
 30
0.0
 10
289.0394273957997
 20
472.4154392954403
 30
0.0
 10
289.0206856388376
 20
472.1331284611552
 30
0.0
 10
289.0088758559652
 20
471.8484087773211
 30
0.0
 10
289.0017370521189
 20
471.5630847793024
 30
0.0
 10
288.9982562098609
 20
471.2805386255707
 30
0.0
 10
289.0005601306653
 20
470.9986583025245
 30
0.0
 10
289.0063277730895
 20
470.7272134523643
 30
0.0
 10
289.0133112529255
 20
470.5051869946376
 30
0.0
 10
289.0257560913458
 20
470.2276391250036
 30
0.0
 10
289.0370923749101
 20
470.0461697636929
 30
0.0
 10
289.0427428940661
 20
469.9557171831358
 30
0.0
  0
SPLINE
  5
E2
330
1F
100
AcDbEntity
  8
0
  6
Continuous
 62
     7
370
    15
100
AcDbSpline
210
0.0
220
0.0
230
1.0
 70
     8
 71
     3
 72
    46
 73
    42
 74
     0
 42
0.00000001
 43
0.00000001
 12
1.0
 22
0.0
 32
0.0
 13
1.0
 23
0.0
 33
0.0
 40
0.0
 40
0.0
 40
0.0
 40
0.0
 40
0.00974210794486
 40
0.0197912139415244
 40
0.0301473917342193
 40
0.0408107086219266
 40
0.0517812261767546
 40
0.0630590008648176
 40
0.0746440845850588
 40
0.0865365251386747
 40
0.0987363666395858
 40
0.1112436498746079
 40
0.1240584126205366
 40
0.1654522137230165
 40
0.2068871221006863
 40
0.2483633224865211
 40
0.2892408375676446
 40
0.3283169710552102
 40
0.3655936503106372
 40
0.4010731107784646
 40
0.4347579606477057
 40
0.4666512634448804
 40
0.4967566448089805
 40
0.5642761621488527
 40
0.6285064122440878
 40
0.6895293176500024
 40
0.747440470597528
 40
0.7661403898905821
 40
0.7847202355184575
 40
0.8031844225048541
 40
0.8215374493433429
 40
0.8397838967449981
 40
0.8579284261419937
 40
0.87597577794036
 40
0.8939307695164213
 40
0.9117982929529264
 40
0.9295833125125197
 40
0.9472908618479785
 40
0.9649260409505538
 40
0.9824940128397515
 40
1.0
 40
1.0
 40
1.0
 40
1.0
 10
291.3455919840317
 20
541.2604611408847
 30
0.0
 10
291.1962885164663
 20
541.189735909787
 30
0.0
 10
290.8929766577266
 20
541.0460567196528
 30
0.0
 10
290.4273333556097
 20
540.8253942082871
 30
0.0
 10
289.9448077508597
 20
540.5967515276167
 30
0.0
 10
289.4450235367204
 20
540.3599865676057
 30
0.0
 10
288.9279812794284
 20
540.1151389758585
 30
0.0
 10
288.3936123289801
 20
539.862197680821
 30
0.0
 10
287.8419078648209
 20
539.6011651341057
 30
0.0
 10
287.2728838721285
 20
539.3320426494295
 30
0.0
 10
286.6866043546941
 20
539.0548216642243
 30
0.0
 10
286.0831407434007
 20
538.7695359287818
 30
0.0
 10
285.0064932479663
 20
538.2602311111037
 30
0.0
 10
283.451569319887
 20
537.5268144878041
 30
0.0
 10
281.4203213672541
 20
536.5704671419811
 30
0.0
 10
279.4007925552855
 20
535.6114574591959
 30
0.0
 10
277.4300769112781
 20
534.6747106650597
 30
0.0
 10
275.5430815949929
 20
533.7855565866203
 30
0.0
 10
273.7674540453325
 20
532.9505490479194
 30
0.0
 10
272.1071714788187
 20
532.1703649704187
 30
0.0
 10
270.5644476527982
 20
531.4448309032506
 30
0.0
 10
269.1393849074358
 20
530.7739682631844
 30
0.0
 10
267.2629938206224
 20
529.8903920689652
 30
0.0
 10
265.0305267961476
 20
528.8436248606117
 30
0.0
 10
262.6083595626248
 20
527.7083744763353
 30
0.0
 10
260.5641219073756
 20
526.7475896317934
 30
0.0
 10
259.2406687054525
 20
526.1251033566674
 30
0.0
 10
258.4329883540651
 20
525.7472727037923
 30
0.0
 10
257.9914866648355
 20
525.5410030278465
 30
0.0
 10
257.5849189577042
 20
525.3512514943761
 30
0.0
 10
257.2135278654314
 20
525.1779918068906
 30
0.0
 10
256.8775247351986
 20
525.0212311787242
 30
0.0
 10
256.57705741803
 20
524.8809681133458
 30
0.0
 10
256.3122181371423
 20
524.757202735968
 30
0.0
 10
256.0830494294037
 20
524.6499372935178
 30
0.0
 10
255.889518773056
 20
524.559163998561
 30
0.0
 10
255.7316198738073
 20
524.4849128001532
 30
0.0
 10
255.6090020893895
 20
524.4270735809395
 30
0.0
 10
255.5223504344577
 20
524.3860556521464
 30
0.0
 10
255.4682722814564
 20
524.3603412339446
 30
0.0
 10
255.4615995317893
 20
524.357151665704
 30
0.0
 10
255.4582690531902
 20
524.3555596999782
 30
0.0
  0
ARC
  5
E3
330
1F
100
AcDbEntity
  8
0
  6
Continuous
 62
     7
370
    15
100
AcDbCircle
 10
257.6284094128
 20
524.3555597
 30
0.0
 40
2.170140359601839
100
AcDbArc
 50
126.6214308223
 51
180.0
  0
SPLINE
  5
E4
330
1F
100
AcDbEntity
  8
0
  6
Continuous
 62
     7
370
    15
100
AcDbSpline
210
0.0
220
0.0
230
1.0
 70
     8
 71
     3
 72
    33
 73
    29
 74
     0
 42
0.00000001
 43
0.00000001
 12
1.0
 22
0.0
 32
0.0
 13
1.0
 23
0.0
 33
0.0
 40
0.0
 40
0.0
 40
0.0
 40
0.0
 40
0.0145204379918171
 40
0.0313819706146066
 40
0.0449529442379922
 40
0.055370882726672
 40
0.0626539305679935
 40
0.0815894961657969
 40
0.1251859464179985
 40
0.1436847251574727
 40
0.187499106535044
 40
0.2187904001632036
 40
0.250168508100775
 40
0.2877189805199488
 40
0.3742057991334372
 40
0.4374043384973847
 40
0.4991389754369033
 40
0.5480575208550369
 40
0.6315938525909598
 40
0.7496267511556846
 40
0.8091451707913021
 40
0.8744846520222941
 40
0.9045284487271659
 40
0.9370195823510897
 40
0.9525103240262403
 40
0.968618429497807
 40
0.986800651255613
 40
1.0
 40
1.0
 40
1.0
 40
1.0
 10
290.1226420360162
 20
542.5915910152842
 30
0.0
 10
289.909897169447
 20
542.4888701046887
 30
0.0
 10
289.4501071028632
 20
542.2668668428292
 30
0.0
 10
288.7912438585798
 20
541.9448661982786
 30
0.0
 10
288.1893597265112
 20
541.6499776613562
 30
0.0
 10
287.7259029417335
 20
541.4228928458714
 30
0.0
 10
287.1830046842048
 20
541.1553636095841
 30
0.0
 10
286.1353414757111
 20
540.6440240271612
 30
0.0
 10
284.9055428561022
 20
540.0443114385155
 30
0.0
 10
283.2890163337929
 20
539.2549886777795
 30
0.0
 10
281.8525429335693
 20
538.5533080548051
 30
0.0
 10
280.2163239457871
 20
537.7545099266001
 30
0.0
 10
278.6784984923613
 20
537.0041983680911
 30
0.0
 10
276.3055564858432
 20
535.8457073611377
 30
0.0
 10
273.4862735278168
 20
534.4693468141992
 30
0.0
 10
270.4272358148495
 20
532.9760159986814
 30
0.0
 10
268.0270839613031
 20
531.8044680985772
 30
0.0
 10
265.4965441621023
 20
530.5694650925587
 30
0.0
 10
262.4993930766737
 20
529.1067547357326
 30
0.0
 10
259.922874312889
 20
527.8489218913033
 30
0.0
 10
258.131499854989
 20
526.9743250764591
 30
0.0
 10
257.2861485388161
 20
526.5619673982048
 30
0.0
 10
256.7915719424021
 20
526.320665698549
 30
0.0
 10
256.5707963371478
 20
526.2123505086462
 30
0.0
 10
256.4459064101953
 20
526.1515160191243
 30
0.0
 10
256.3826177366855
 20
526.1220923072939
 30
0.0
 10
256.3501931301999
 20
526.1078503273502
 30
0.0
 10
256.3387305303943
 20
526.1004478034266
 30
0.0
 10
256.3339092658773
 20
526.0973342404885
 30
0.0
  0
SPLINE
  5
E5
330
1F
100
AcDbEntity
  8
0
  6
Continuous
 62
     7
370
    15
100
AcDbSpline
210
0.0
220
0.0
230
1.0
 70
     8
 71
     3
 72
     8
 73
     4
 74
     0
 42
0.00000001
 43
0.00000001
 12
1.0
 22
0.0
 32
0.0
 13
1.0
 23
0.0
 33
0.0
 40
0.0
 40
0.0
 40
0.0
 40
0.0
 40
1.0
 40
1.0
 40
1.0
 40
1.0
 10
290.2065663045185
 20
542.6328855964683
 30
0.0
 10
290.17860138348
 20
542.6191259068581
 30
0.0
 10
290.1506266243924
 20
542.6053610447002
 30
0.0
 10
290.1226420361184
 20
542.591591015322
 30
0.0
  0
LINE
  5
E6
330
1F
100
AcDbEntity
  8
0
  6
Continuous
 62
     7
370
    15
100
AcDbLine
 10
255.3582686866
 20
367.9980034649
 30
0.0
 11
307.5582694198
 21
367.9980034649
 31
0.0
  0
LINE
  5
E7
330
1F
100
AcDbEntity
  8
0
  6
Continuous
 62
     7
370
    15
100
AcDbLine
 10
255.3582686866
 20
427.9980039864
 30
0.0
 11
307.5582694198
 21
427.9980039864
 31
0.0
  0
LINE
  5
E8
330
1F
100
AcDbEntity
  8
0
  6
Continuous
 62
     7
370
    15
100
AcDbLine
 10
255.4582685167
 20
505.5980062752
 30
0.0
 11
307.4582695896
 21
505.5980062752
 31
0.0
  0
SPLINE
  5
E9
330
1F
100
AcDbEntity
  8
0
  6
Continuous
 62
     7
370
    15
100
AcDbSpline
210
0.0
220
0.0
230
1.0
 70
     8
 71
     3
 72
    10
 73
     6
 74
     0
 42
0.00000001
 43
0.00000001
 12
1.0
 22
0.0
 32
0.0
 13
1.0
 23
0.0
 33
0.0
 40
0.0
 40
0.0
 40
0.0
 40
0.0
 40
0.4296878977788745
 40
0.86953079820416
 40
1.0
 40
1.0
 40
1.0
 40
1.0
 10
307.4574984545403
 20
508.6031458049343
 30
0.0
 10
307.4513093617227
 20
508.642692670569
 30
0.0
 10
307.4387849065409
 20
508.7227210302682
 30
0.0
 10
307.3663901878498
 20
509.2263607515375
 30
0.0
 10
307.3224398036824
 20
509.6066455598572
 30
0.0
 10
307.3123853588992
 20
509.6936425834224
 30
0.0
  0
SPLINE
  5
EA
330
1F
100
AcDbEntity
  8
0
  6
Continuous
 62
     7
370
    15
100
AcDbSpline
210
0.0
220
0.0
230
1.0
 70
     8
 71
     3
 72
    12
 73
     8
 74
     0
 42
0.00000001
 43
0.00000001
 12
1.0
 22
0.0
 32
0.0
 13
1.0
 23
0.0
 33
0.0
 40
0.0
 40
0.0
 40
0.0
 40
0.0
 40
0.2549018309035931
 40
0.5078664061995527
 40
0.5078664061995527
 40
0.7608388392665357
 40
1.0
 40
1.0
 40
1.0
 40
1.0
 10
289.7408264465621
 20
465.3535155503247
 30
0.0
 10
289.6606854052085
 20
465.7403002456276
 30
0.0
 10
289.5070074084809
 20
466.5146227290022
 30
0.0
 10
289.3711132905924
 20
467.2935264567874
 30
0.0
 10
289.2476215139436
 20
468.0703770720169
 30
0.0
 10
289.1400002698685
 20
468.8269393720907
 30
0.0
 10
289.0673685707532
 20
469.5860155605362
 30
0.0
 10
289.0427173677018
 20
469.9556635440011
 30
0.0
  0
SPLINE
  5
EB
330
1F
100
AcDbEntity
  8
0
  6
Continuous
 62
     7
370
    15
100
AcDbSpline
210
0.0
220
0.0
230
1.0
 70
     8
 71
     3
 72
    15
 73
    11
 74
     0
 42
0.00000001
 43
0.00000001
 12
1.0
 22
0.0
 32
0.0
 13
1.0
 23
0.0
 33
0.0
 40
0.0
 40
0.0
 40
0.0
 40
0.0
 40
0.062499680386339
 40
0.1249993016481651
 40
0.1874989229099913
 40
0.2499985441718174
 40
0.3124981654336435
 40
0.3749977866954697
 40
0.4374974079572958
 40
0.4999970292191219
 40
0.4999970292191219
 40
0.4999970292191219
 40
0.4999970292191219
 10
307.4582690531903
 20
432.0368716588393
 30
0.0
 10
307.458269053189
 20
432.0368716588406
 30
0.0
 10
306.9399389027939
 20
432.530948971086
 30
0.0
 10
304.8145796869778
 20
434.7215799743608
 30
0.0
 10
301.8918635610415
 20
438.1968334131641
 30
0.0
 10
298.7631303341201
 20
442.6582694308437
 30
0.0
 10
295.8368147713625
 20
447.7990958470324
 30
0.0
 10
293.289410136595
 20
453.3812705738433
 30
0.0
 10
291.2076513474729
 20
459.2537230347496
 30
0.0
 10
290.1652817600275
 20
463.304966937585
 30
0.0
 10
289.7408264465621
 20
465.3535155503247
 30
0.0
  0
SPLINE
  5
EC
330
1F
100
AcDbEntity
  8
0
  6
Continuous
 62
     7
370
    15
100
AcDbSpline
210
0.0
220
0.0
230
1.0
 70
     8
 71
     3
 72
    26
 73
    22
 74
     0
 42
0.00000001
 43
0.00000001
 12
1.0
 22
0.0
 32
0.0
 13
1.0
 23
0.0
 33
0.0
 40
0.0
 40
0.0
 40
0.0
 40
0.0
 40
0.0265317950657681
 40
0.0530722980966416
 40
0.0905821524047221
 40
0.1278938157487976
 40
0.1526671556584327
 40
0.2517304447119617
 40
0.3509308979067254
 40
0.3758486958434624
 40
0.4501665059499341
 40
0.4999893397038112
 40
0.5251207697264031
 40
0.6015016327196838
 40
0.6519402361093923
 40
0.7031779129806885
 40
0.8046976640497767
 40
0.8809434622599359
 40
0.9069027664461882
 40
0.952978339065789
 40
1.0
 40
1.0
 40
1.0
 40
1.0
 10
307.4579235880673
 20
492.0152717850059
 30
0.0
 10
307.4571975648818
 20
492.0148384740472
 30
0.0
 10
307.4557452802235
 20
492.0139717099133
 30
0.0
 10
307.4422467543686
 20
492.0057258551774
 30
0.0
 10
307.4158607095922
 20
491.9893440389252
 30
0.0
 10
307.3758905296667
 20
491.9641927933048
 30
0.0
 10
307.2928147485374
 20
491.9116142939283
 30
0.0
 10
307.1269169884263
 20
491.805943242382
 30
0.0
 10
306.882076952195
 20
491.6499493878284
 30
0.0
 10
306.6222048840273
 20
491.4839037671823
 30
0.0
 10
306.4017883979785
 20
491.3427356618235
 30
0.0
 10
306.1505443552809
 20
491.1811379471866
 30
0.0
 10
305.8776062516737
 20
491.0051013633295
 30
0.0
 10
305.5790188157715
 20
490.811697415167
 30
0.0
 10
305.1950490459344
 20
490.5612408155274
 30
0.0
 10
304.7267373955285
 20
490.2539185867674
 30
0.0
 10
304.1495637910227
 20
489.8717124206193
 30
0.0
 10
303.5894855883748
 20
489.4954176772545
 30
0.0
 10
303.1635645076269
 20
489.2064520133934
 30
0.0
 10
302.812395880433
 20
488.9667294147472
 30
0.0
 10
302.5259885326244
 20
488.7693387027829
 30
0.0
 10
302.3813295703369
 20
488.669640368308
 30
0.0
  0
LINE
  5
ED
330
1F
100
AcDbEntity
  8
0
  6
Continuous
 62
     7
370
    15
100
AcDbLine
 10
255.4582685167
 20
493.4980026155
 30
0.0
 11
307.4582695896
 21
493.4980026155
 31
0.0
  0
LINE
  5
EE
330
1F
100
AcDbEntity
  8
0
  6
Continuous
 62
     7
370
    15
100
AcDbLine
 10
255.4582685167
 20
428.4980049997
 30
0.0
 11
307.4582695896
 21
428.4980049997
 31
0.0
  0
SPLINE
  5
EF
330
1F
100
AcDbEntity
  8
0
  6
Continuous
 62
     7
370
    15
100
AcDbSpline
210
0.0
220
0.0
230
1.0
 70
     8
 71
     3
 72
    56
 73
    52
 74
     0
 42
0.00000001
 43
0.00000001
 12
1.0
 22
0.0
 32
0.0
 13
1.0
 23
0.0
 33
0.0
 40
0.0
 40
0.0
 40
0.0
 40
0.0
 40
0.0098631274082959
 40
0.0197850007549857
 40
0.0297852973185139
 40
0.0398832376026778
 40
0.0500975538331586
 40
0.0604465585646547
 40
0.0709483301718929
 40
0.0816100649958
 40
0.0924265523392057
 40
0.103391478073963
 40
0.114497796979414
 40
0.1257377045572539
 40
0.1371083051462849
 40
0.1486157573069304
 40
0.1602628706228552
 40
0.1720528219828962
 40
0.1839892301089405
 40
0.196076180736473
 40
0.2083182513285976
 40
0.2207205350304939
 40
0.2332886635446698
 40
0.2460288285837381
 40
0.2589468410700039
 40
0.2720390319479903
 40
0.2852979649862412
 40
0.2987159910158924
 40
0.3122849521570548
 40
0.3259962213604402
 40
0.3398407504508776
 40
0.3538091276413168
 40
0.3678916456042201
 40
0.382080560411767
 40
0.3964141607255142
 40
0.4109112963722422
 40
0.42557421779229
 40
0.4404054829751822
 40
0.4554079966386883
 40
0.4705850522498669
 40
0.4859403768207108
 40
0.5014781783665182
 40
0.6022532110695147
 40
0.7507887079299246
 40
0.7727297290895293
 40
0.7992871309545518
 40
0.8304019185790874
 40
0.8659290000007449
 40
0.9060452218438378
 40
0.9507344791492937
 40
1.0
 40
1.0
 40
1.0
 40
1.0
 10
361.6760808817347
 20
577.4996666734952
 30
0.0
 10
361.6753355997297
 20
577.4993117731165
 30
0.0
 10
361.6738405967331
 20
577.498599858531
 30
0.0
 10
361.6625661438707
 20
577.493112566831
 30
0.0
 10
361.6453221361331
 20
577.4847028905236
 30
0.0
 10
361.6220027225035
 20
577.4733177217291
 30
0.0
 10
361.5934573355147
 20
577.4593711185126
 30
0.0
 10
361.5603762095583
 20
577.4431990492919
 30
0.0
 10
361.5236101036637
 20
577.4252159347199
 30
0.0
 10
361.4817595322684
 20
577.4047414682358
 30
0.0
 10
361.4348418034987
 20
577.3817840003167
 30
0.0
 10
361.3825996399131
 20
577.3562185062344
 30
0.0
 10
361.3248521007644
 20
577.3279570991044
 30
0.0
 10
361.2613903063137
 20
577.2968982989407
 30
0.0
 10
361.1919556463764
 20
577.2629164502778
 30
0.0
 10
361.1162662913101
 20
577.2258742471299
 30
0.0
 10
361.0340582506736
 20
577.1856428822501
 30
0.0
 10
360.9450598411344
 20
577.1420898589822
 30
0.0
 10
360.8489961827495
 20
577.0950811105314
 30
0.0
 10
360.7455858252432
 20
577.0444793718916
 30
0.0
 10
360.6345417135029
 20
576.9901446476626
 30
0.0
 10
360.5155709182939
 20
576.9319340806146
 30
0.0
 10
360.3883751229275
 20
576.8697021985566
 30
0.0
 10
360.2526528434717
 20
576.8033019698992
 30
0.0
 10
360.1081429592348
 20
576.7326062204945
 30
0.0
 10
359.954558486215
 20
576.657474488018
 30
0.0
 10
359.7918571069732
 20
576.5778860705327
 30
0.0
 10
359.6199897044542
 20
576.4938169345435
 30
0.0
 10
359.438925585385
 20
576.405252035365
 30
0.0
 10
359.2486434816445
 20
576.3121809177151
 30
0.0
 10
359.0491359007967
 20
576.2145998492861
 30
0.0
 10
358.8404033050439
 20
576.1125089455102
 30
0.0
 10
358.6224629977654
 20
576.0059166210422
 30
0.0
 10
358.3950258773672
 20
575.8946810954262
 30
0.0
 10
358.157877554776
 20
575.7786985291349
 30
0.0
 10
357.9106577191095
 20
575.6577930495433
 30
0.0
 10
357.653144151554
 20
575.5318560746518
 30
0.0
 10
357.3852261053357
 20
575.400833650098
 30
0.0
 10
357.1067946891697
 20
575.2646725537692
 30
0.0
 10
356.817746728915
 20
575.1233229732969
 30
0.0
 10
356.5179868504166
 20
574.9767366131593
 30
0.0
 10
355.6408099976179
 20
574.5478102760085
 30
0.0
 10
353.7276275959299
 20
573.6119202786327
 30
0.0
 10
351.5170910637653
 20
572.530157616083
 30
0.0
 10
349.8744374024
 20
571.727015530869
 30
0.0
 10
349.2068654788826
 20
571.4010541312562
 30
0.0
 10
348.4230728646825
 20
571.0185266775208
 30
0.0
 10
347.5250628205521
 20
570.5803359742756
 30
0.0
 10
346.5125449555314
 20
570.086403985196
 30
0.0
 10
345.3842465474841
 20
569.536057272809
 30
0.0
 10
344.5934791239289
 20
569.1504012989128
 30
0.0
 10
344.1788374233391
 20
568.9481812224458
 30
0.0
  0
LINE
  5
F0
330
1F
100
AcDbEntity
  8
0
  6
Continuous
 62
     7
370
    15
100
AcDbLine
 10
344.1788509423
 20
568.9481696754
 30
0.0
 11
344.0886318619
 21
568.9041814476
 31
0.0
  0
SPLINE
  5
F1
330
1F
100
AcDbEntity
  8
0
  6
Continuous
 62
     7
370
    15
100
AcDbSpline
210
0.0
220
0.0
230
1.0
 70
     8
 71
     3
 72
    12
 73
     8
 74
     0
 42
0.00000001
 43
0.00000001
 12
1.0
 22
0.0
 32
0.0
 13
1.0
 23
0.0
 33
0.0
 40
0.0
 40
0.0
 40
0.0
 40
0.0
 40
0.4999999999999991
 40
0.4999999999999991
 40
0.7499999999999996
 40
0.7499999999999996
 40
1.0
 40
1.0
 40
1.0
 40
1.0
 10
344.0886339281619
 20
568.9041741675637
 30
0.0
 10
339.3699651948965
 20
566.6029931441084
 30
0.0
 10
334.6511847576563
 20
564.3016975291534
 30
0.0
 10
327.5725490772859
 20
560.8494472804206
 30
0.0
 10
325.2128090891645
 20
559.6985894410849
 30
0.0
 10
320.4929717911387
 20
557.3966872804803
 30
0.0
 10
318.1364536502342
 20
556.2473395593546
 30
0.0
 10
315.7816198302804
 20
555.0988849868648
 30
0.0
  0
SPLINE
  5
F2
330
1F
100
AcDbEntity
  8
0
  6
Continuous
 62
     7
370
    15
100
AcDbSpline
210
0.0
220
0.0
230
1.0
 70
     8
 71
     3
 72
     8
 73
     4
 74
     0
 42
0.00000001
 43
0.00000001
 12
1.0
 22
0.0
 32
0.0
 13
1.0
 23
0.0
 33
0.0
 40
0.0
 40
0.0
 40
0.0
 40
0.0
 40
1.0
 40
1.0
 40
1.0
 40
1.0
 10
315.7816454572043
 20
555.0988326150601
 30
0.0
 10
315.7516915696931
 20
555.0842283505202
 30
0.0
 10
315.7217381595681
 20
555.0696243181532
 30
0.0
 10
315.691785234094
 20
555.0550205210553
 30
0.0
  0
SPLINE
  5
F3
330
1F
100
AcDbEntity
  8
0
  6
Continuous
 62
     7
370
    15
100
AcDbSpline
210
0.0
220
0.0
230
1.0
 70
     8
 71
     3
 72
     8
 73
     4
 74
     0
 42
0.00000001
 43
0.00000001
 12
1.0
 22
0.0
 32
0.0
 13
1.0
 23
0.0
 33
0.0
 40
0.0
 40
0.0
 40
0.0
 40
0.0
 40
1.0
 40
1.0
 40
1.0
 40
1.0
 10
315.6917852341011
 20
555.0550205210589
 30
0.0
 10
315.6031667833929
 20
555.0118369493271
 30
0.0
 10
315.5145524591416
 20
554.9686553502703
 30
0.0
 10
315.4259423971145
 20
554.9254757785945
 30
0.0
  0
SPLINE
  5
F4
330
1F
100
AcDbEntity
  8
0
  6
Continuous
 62
     7
370
    15
100
AcDbSpline
210
0.0
220
0.0
230
1.0
 70
     8
 71
     3
 72
     8
 73
     4
 74
     0
 42
0.00000001
 43
0.00000001
 12
1.0
 22
0.0
 32
0.0
 13
1.0
 23
0.0
 33
0.0
 40
0.0
 40
0.0
 40
0.0
 40
0.0
 40
1.0
 40
1.0
 40
1.0
 40
1.0
 10
315.4268603230518
 20
554.9257735462895
 30
0.0
 10
315.3967540215466
 20
554.9111050255943
 30
0.0
 10
315.3666476189332
 20
554.8964364853821
 30
0.0
 10
315.3365411925334
 20
554.881767962239
 30
0.0
  0
SPLINE
  5
F5
330
1F
100
AcDbEntity
  8
0
  6
Continuous
 62
     7
370
    15
100
AcDbSpline
210
0.0
220
0.0
230
1.0
 70
     8
 71
     3
 72
    21
 73
    17
 74
     0
 42
0.00000001
 43
0.00000001
 12
1.0
 22
0.0
 32
0.0
 13
1.0
 23
0.0
 33
0.0
 40
0.0
 40
0.0
 40
0.0
 40
0.0
 40
0.0306975117820853
 40
0.0825806572861112
 40
0.1555833990159661
 40
0.2496012574775714
 40
0.3645524271585108
 40
0.500585983788434
 40
0.6062737747115252
 40
0.6993974674351225
 40
0.7804529747430022
 40
0.8493486084667453
 40
0.9057926609381731
 40
0.9497138621514035
 40
0.9811165645984622
 40
1.0
 40
1.0
 40
1.0
 40
1.0
 10
315.3365411930015
 20
554.8817679619348
 30
0.0
 10
315.0700991509475
 20
554.7516782578399
 30
0.0
 10
314.3533322964329
 20
554.4017185169146
 30
0.0
 10
313.0028592445296
 20
553.7434306703584
 30
0.0
 10
311.1040368637391
 20
552.8179714423451
 30
0.0
 10
308.6616534978378
 20
551.6278938023189
 30
0.0
 10
305.6827367806417
 20
550.1763711062828
 30
0.0
 10
302.6297181017097
 20
548.6887792252488
 30
0.0
 10
299.8251851217474
 20
547.322145876354
 30
0.0
 10
297.544372425506
 20
546.2106444501924
 30
0.0
 10
295.5987106200358
 20
545.2625169284564
 30
0.0
 10
293.9489453615519
 20
544.4585605971489
 30
0.0
 10
292.5916539741547
 20
543.7970159930208
 30
0.0
 10
291.5291434139866
 20
543.2788672741875
 30
0.0
 10
290.7653509830869
 20
542.9063081227476
 30
0.0
 10
290.3563762065618
 20
542.706283074866
 30
0.0
 10
290.2027981211535
 20
542.631169728883
 30
0.0
  0
SPLINE
  5
F6
330
1F
100
AcDbEntity
  8
0
  6
Continuous
 62
     7
370
    15
100
AcDbSpline
210
0.0
220
0.0
230
1.0
 70
     8
 71
     3
 72
     8
 73
     4
 74
     0
 42
0.00000001
 43
0.00000001
 12
1.0
 22
0.0
 32
0.0
 13
1.0
 23
0.0
 33
0.0
 40
0.0
 40
0.0
 40
0.0
 40
0.0
 40
0.1774419611394032
 40
0.1774419611394032
 40
0.1774419611394032
 40
0.1774419611394032
 10
315.3280339113163
 20
478.4921665586218
 30
0.0
 10
313.1031246954514
 20
477.4074872100283
 30
0.0
 10
310.8782079740777
 20
476.3228075565283
 30
0.0
 10
308.6532872217462
 20
475.2381250264131
 30
0.0
  0
SPLINE
  5
F7
330
1F
100
AcDbEntity
  8
0
  6
Continuous
 62
     7
370
    15
100
AcDbSpline
210
0.0
220
0.0
230
1.0
 70
     8
 71
     3
 72
     8
 73
     4
 74
     0
 42
0.00000001
 43
0.00000001
 12
1.0
 22
0.0
 32
0.0
 13
1.0
 23
0.0
 33
0.0
 40
0.1774419611394032
 40
0.1774419611394032
 40
0.1774419611394032
 40
0.1774419611394032
 40
1.0
 40
1.0
 40
1.0
 40
1.0
 10
308.6532872217462
 20
475.2381250264131
 30
0.0
 10
298.33934322309
 20
470.2099212756925
 30
0.0
 10
296.3600254521825
 20
469.052740616663
 30
0.0
 10
289.7408264465621
 20
465.3535155503247
 30
0.0
  0
SPLINE
  5
F8
330
1F
100
AcDbEntity
  8
0
  6
Continuous
 62
     7
370
    15
100
AcDbSpline
210
0.0
220
0.0
230
1.0
 70
     8
 71
     3
 72
    26
 73
    22
 74
     0
 42
0.00000001
 43
0.00000001
 12
1.0
 22
0.0
 32
0.0
 13
1.0
 23
0.0
 33
0.0
 40
0.0
 40
0.0
 40
0.0
 40
0.0
 40
0.1249999999999996
 40
0.1249999999999996
 40
0.2499999999999992
 40
0.2499999999999992
 40
0.3124999999999993
 40
0.3124999999999993
 40
0.3749999999999995
 40
0.3749999999999995
 40
0.4999999999999998
 40
0.4999999999999998
 40
0.5624999999999998
 40
0.5624999999999998
 40
0.6249999999999998
 40
0.6249999999999998
 40
0.7499999999999999
 40
0.7499999999999999
 40
0.8749999999999999
 40
0.8749999999999999
 40
1.0
 40
1.0
 40
1.0
 40
1.0
 10
307.4582690531896
 20
432.03687165884
 30
0.0
 10
307.4582690529378
 20
433.3128205455142
 30
0.0
 10
307.5069830799334
 20
434.5826339094181
 30
0.0
 10
307.7537038575443
 20
437.1034572461504
 30
0.0
 10
307.9517760167296
 20
438.3544589807812
 30
0.0
 10
308.4070824106213
 20
440.2110365541935
 30
0.0
 10
308.5864560350693
 20
440.8294699466043
 30
0.0
 10
308.9982511760688
 20
442.0367660261377
 30
0.0
 10
309.2307562132486
 20
442.6270895398546
 30
0.0
 10
310.0104426302268
 20
444.3569102145776
 30
0.0
 10
310.6403315226103
 20
445.4549889865576
 30
0.0
 10
311.7488938036554
 20
447.0201147254341
 30
0.0
 10
312.1448087506369
 20
447.5266460080819
 30
0.0
 10
312.9717800554064
 20
448.4956702951507
 30
0.0
 10
313.4045785760924
 20
448.9607396110858
 30
0.0
 10
314.7541580358093
 20
450.3044192368146
 30
0.0
 10
315.7230212597046
 20
451.1326164116164
 30
0.0
 10
317.7617688034264
 20
452.6789396075236
 30
0.0
 10
318.8202442056737
 20
453.3889847464175
 30
0.0
 10
320.9944430701029
 20
454.7166672449026
 30
0.0
 10
322.1102827151582
 20
455.3341170662379
 30
0.0
 10
323.2478764301306
 20
455.9164522427428
 30
0.0
  0
SPLINE
  5
F9
330
1F
100
AcDbEntity
  8
0
  6
Continuous
 62
     7
370
    15
100
AcDbSpline
210
0.0
220
0.0
230
1.0
 70
     8
 71
     3
 72
     8
 73
     4
 74
     0
 42
0.00000001
 43
0.00000001
 12
1.0
 22
0.0
 32
0.0
 13
1.0
 23
0.0
 33
0.0
 40
0.0
 40
0.0
 40
0.0
 40
0.0
 40
1.0
 40
1.0
 40
1.0
 40
1.0
 10
315.328036588871
 20
478.4921610870339
 30
0.0
 10
359.9472616223338
 20
500.2446214649854
 30
0.0
 10
404.5656236250085
 20
521.9913973772608
 30
0.0
 10
449.1812893530018
 20
543.7248851269599
 30
0.0
  0
SPLINE
  5
FA
330
1F
100
AcDbEntity
  8
0
  6
Continuous
 62
     7
370
    15
100
AcDbSpline
210
0.0
220
0.0
230
1.0
 70
     8
 71
     3
 72
     9
 73
     5
 74
     0
 42
0.00000001
 43
0.00000001
 12
1.0
 22
0.0
 32
0.0
 13
1.0
 23
0.0
 33
0.0
 40
0.0
 40
0.0
 40
0.0
 40
0.0
 40
0.5
 40
0.8388692518020254
 40
0.8388692518020254
 40
0.8388692518020254
 40
0.8388692518020254
 10
457.3559025752107
 20
527.3080998955817
 30
0.0
 10
432.1319021437153
 20
513.2044505749311
 30
0.0
 10
389.4340161728281
 20
490.0972030371935
 30
0.0
 10
342.9749446668189
 20
466.0147549851504
 30
0.0
 10
323.2478764301434
 20
455.9164522427315
 30
0.0
  0
SPLINE
  5
FB
330
1F
100
AcDbEntity
  8
0
  6
Continuous
 62
     7
370
    15
100
AcDbSpline
210
0.0
220
0.0
230
1.0
 70
    24
 71
     3
 72
     9
 73
     5
 74
     0
 42
0.00000001
 43
0.00000001
 12
1.0
 22
0.0
 32
0.0
 13
1.0
 23
0.0
 33
0.0
 40
0.1933632574953296
 40
0.1933632574953296
 40
0.1933632574953296
 40
0.1933632574953296
 40
0.5
 40
1.0
 40
1.0
 40
1.0
 40
1.0
 10
314.6320457293669
 20
479.9144111393836
 30
0.0
 10
331.589471252566
 20
488.1860973198428
 30
0.0
 10
376.1962869370805
 20
509.9449179820419
 30
0.0
 10
420.7983639584656
 20
531.7014271651625
 30
0.0
 10
448.4426322671526
 20
545.1860632512855
 30
0.0
  0
SPLINE
  5
FC
330
1F
100
AcDbEntity
  8
0
  6
Continuous
 62
     7
370
    15
100
AcDbSpline
210
0.0
220
0.0
230
1.0
 70
     8
 71
     3
 72
    10
 73
     6
 74
     0
 42
0.00000001
 43
0.00000001
 12
1.0
 22
0.0
 32
0.0
 13
1.0
 23
0.0
 33
0.0
 40
0.0
 40
0.0
 40
0.0
 40
0.0
 40
0.5
 40
0.5
 40
1.0
 40
1.0
 40
1.0
 40
1.0
 10
319.8102237508609
 20
486.2044184406172
 30
0.0
 10
341.0175739470698
 20
496.4374873052688
 30
0.0
 10
362.2296113853507
 20
506.6608267725714
 30
0.0
 10
404.67009056852
 20
527.0734549765393
 30
0.0
 10
425.8966591937146
 20
537.266614535759
 30
0.0
 10
447.1232291101433
 20
547.459762619859
 30
0.0
  0
SPLINE
  5
FD
330
1F
100
AcDbEntity
  8
0
  6
Continuous
 62
     7
370
    15
100
AcDbSpline
210
0.0
220
0.0
230
1.0
 70
     8
 71
     3
 72
    12
 73
     8
 74
     0
 42
0.00000001
 43
0.00000001
 12
1.0
 22
0.0
 32
0.0
 13
1.0
 23
0.0
 33
0.0
 40
0.0
 40
0.0
 40
0.0
 40
0.0
 40
0.2499999999999992
 40
0.2499999999999992
 40
0.4999999999999984
 40
0.4999999999999984
 40
1.0
 40
1.0
 40
1.0
 40
1.0
 10
449.181186321088
 20
543.7250763627794
 30
0.0
 10
450.9703601332818
 20
544.5973899061385
 30
0.0
 10
452.7584780113914
 20
545.471942937576
 30
0.0
 10
456.3358446912711
 20
547.218559383055
 30
0.0
 10
458.1245564757061
 20
548.0917768894449
 30
0.0
 10
463.4914034906684
 20
550.7097945479514
 30
0.0
 10
467.0699504818115
 20
552.4536251621981
 30
0.0
 10
470.6490721450734
 20
554.196063292868
 30
0.0
  0
SPLINE
  5
FE
330
1F
100
AcDbEntity
  8
0
  6
Continuous
 62
     7
370
    15
100
AcDbSpline
210
0.0
220
0.0
230
1.0
 70
     8
 71
     3
 72
    28
 73
    24
 74
     0
 42
0.00000001
 43
0.00000001
 12
1.0
 22
0.0
 32
0.0
 13
1.0
 23
0.0
 33
0.0
 40
0.0
 40
0.0
 40
0.0
 40
0.0
 40
0.1249999999999993
 40
0.1249999999999993
 40
0.1874999999999987
 40
0.1874999999999987
 40
0.2499999999999981
 40
0.2499999999999981
 40
0.3749999999999994
 40
0.3749999999999994
 40
0.4375000000000008
 40
0.4375000000000008
 40
0.5000000000000022
 40
0.5000000000000022
 40
0.625000000000003
 40
0.625000000000003
 40
0.6875000000000034
 40
0.6875000000000034
 40
0.7500000000000039
 40
0.7500000000000039
 40
0.8750000000000019
 40
0.8750000000000019
 40
1.0
 40
1.0
 40
1.0
 40
1.0
 10
471.5736342723744
 20
535.306667680337
 30
0.0
 10
471.5736109911791
 20
535.3067034620882
 30
0.0
 10
471.6058258336189
 20
535.3485923111601
 30
0.0
 10
471.6986306404585
 20
535.4757093589709
 30
0.0
 10
471.7370255371115
 20
535.5288253128485
 30
0.0
 10
471.8286359635034
 20
535.6571429550556
 30
0.0
 10
471.8821651643102
 20
535.7327953785582
 30
0.0
 10
472.0626201363979
 20
535.9901510389318
 30
0.0
 10
472.2088857521888
 20
536.2016527280833
 30
0.0
 10
472.4653035419384
 20
536.5747140309765
 30
0.0
 10
472.5569936282438
 20
536.708392910016
 30
0.0
 10
472.7530561662988
 20
536.9939627762155
 30
0.0
 10
472.8578985274569
 20
537.1465353082909
 30
0.0
 10
473.1882131894538
 20
537.625027202153
 30
0.0
 10
473.4290751952215
 20
537.971349475006
 30
0.0
 10
473.8238338163372
 20
538.5249771875049
 30
0.0
 10
473.9610420495518
 20
538.7152285996268
 30
0.0
 10
474.24769869076
 20
539.1061615136656
 30
0.0
 10
474.3976726096868
 20
539.3075343229854
 30
0.0
 10
474.8641914329248
 20
539.9207298624775
 30
0.0
 10
475.1951599626231
 20
540.3390776636361
 30
0.0
 10
475.9068095817406
 20
541.1838571137644
 30
0.0
 10
476.2874265196706
 20
541.6103231846237
 30
0.0
 10
476.7008971541222
 20
542.0351412292179
 30
0.0
  0
SPLINE
  5
FF
330
1F
100
AcDbEntity
  8
0
  6
Continuous
 62
     7
370
    15
100
AcDbSpline
210
0.0
220
0.0
230
1.0
 70
     8
 71
     3
 72
    11
 73
     7
 74
     0
 42
0.00000001
 43
0.00000001
 12
1.0
 22
0.0
 32
0.0
 13
1.0
 23
0.0
 33
0.0
 40
0.0
 40
0.0
 40
0.0
 40
0.0
 40
0.058142425299396
 40
0.5291875084084742
 40
0.7495594248366191
 40
1.0
 40
1.0
 40
1.0
 40
1.0
 10
471.5736342704705
 20
535.3066676792592
 30
0.0
 10
471.2984789732126
 20
535.1509468056488
 30
0.0
 10
468.7941330428271
 20
533.7336419600256
 30
0.0
 10
465.2437976032997
 20
531.7315877781415
 30
0.0
 10
460.7784149736493
 20
529.2234104481105
 30
0.0
 10
458.5443286034711
 20
527.9731034227794
 30
0.0
 10
457.3559449358654
 20
527.3080241902888
 30
0.0
  0
SPLINE
  5
100
330
1F
100
AcDbEntity
  8
0
  6
Continuous
 62
     7
370
    15
100
AcDbSpline
210
0.0
220
0.0
230
1.0
 70
     8
 71
     3
 72
    10
 73
     6
 74
     0
 42
0.00000001
 43
0.00000001
 12
1.0
 22
0.0
 32
0.0
 13
1.0
 23
0.0
 33
0.0
 40
0.0
 40
0.0
 40
0.0
 40
0.0
 40
0.1684339292268988
 40
0.7247279782473227
 40
1.0
 40
1.0
 40
1.0
 40
1.0
 10
469.9195026796456
 20
555.6622394493515
 30
0.0
 10
468.7137336392053
 20
555.0740749799551
 30
0.0
 10
463.5256188518675
 20
552.5433541878964
 30
0.0
 10
456.3666723813832
 20
549.0512561951494
 30
0.0
 10
450.4132736905219
 20
546.1473938022954
 30
0.0
 10
448.4425293906618
 20
545.1861327553778
 30
0.0
  0
SPLINE
  5
101
330
1F
100
AcDbEntity
  8
0
  6
Continuous
 62
     7
370
    15
100
AcDbSpline
210
0.0
220
0.0
230
1.0
 70
     8
 71
     3
 72
    41
 73
    37
 74
     0
 42
0.00000001
 43
0.00000001
 12
1.0
 22
0.0
 32
0.0
 13
1.0
 23
0.0
 33
0.0
 40
0.0
 40
0.0
 40
0.0
 40
0.0
 40
0.0102484668042712
 40
0.020149390494297
 40
0.0297071982124616
 40
0.0389256313057564
 40
0.0478076938011527
 40
0.0563556152970095
 40
0.0645708914673627
 40
0.0724559109983075
 40
0.1165437695368025
 40
0.1417391193544008
 40
0.1554572993141923
 40
0.1814219204177131
 40
0.2201407666675691
 40
0.2697305308923239
 40
0.2994988375969487
 40
0.3285191885311285
 40
0.3841027491997568
 40
0.4099544769718746
 40
0.4400469102027981
 40
0.4756193603311738
 40
0.4941679956432418
 40
0.5102123644929452
 40
0.5449932043311031
 40
0.5742596979786156
 40
0.5884452855890836
 40
0.5968542909237402
 40
0.617617136220656
 40
0.6399262108541481
 40
0.6664117537917749
 40
0.7082623765954338
 40
0.7575742498729183
 40
0.8244339815004421
 40
0.8816199057982578
 40
1.0
 40
1.0
 40
1.0
 40
1.0
 10
499.1896604249501
 20
569.9400259064331
 30
0.0
 10
499.1886831035895
 20
569.9395534375884
 30
0.0
 10
499.1867616035147
 20
569.938624522129
 30
0.0
 10
499.1725756811754
 20
569.9317162912253
 30
0.0
 10
499.1509546173003
 20
569.9211797186663
 30
0.0
 10
499.1219102321377
 20
569.9070193413825
 30
0.0
 10
499.0864508687759
 20
569.8897260778135
 30
0.0
 10
499.0453070206023
 20
569.8696551368222
 30
0.0
 10
498.9992709086791
 20
569.8471931836793
 30
0.0
 10
498.8715513251892
 20
569.7848536953511
 30
0.0
 10
498.6440108866809
 20
569.6738496977454
 30
0.0
 10
498.3121048122079
 20
569.5120750179349
 30
0.0
 10
498.0163142992026
 20
569.3676749051514
 30
0.0
 10
497.6141785237252
 20
569.1714413666982
 30
0.0
 10
496.9268136813137
 20
568.8361074701622
 30
0.0
 10
496.0767984262363
 20
568.4214721570103
 30
0.0
 10
495.1897522691434
 20
567.9889407846471
 30
0.0
 10
494.1751000320781
 20
567.4938439180695
 30
0.0
 10
493.0896208513868
 20
566.964534404552
 30
0.0
 10
491.9084252659348
 20
566.3882278599735
 30
0.0
 10
490.8941679345301
 20
565.8935973647261
 30
0.0
 10
489.9181384328998
 20
565.4174417806558
 30
0.0
 10
489.0815449462502
 20
565.0094098548403
 30
0.0
 10
488.2412354416822
 20
564.5995813519223
 30
0.0
 10
487.2508858627947
 20
564.1162610087589
 30
0.0
 10
486.2662301779071
 20
563.6359769557112
 30
0.0
 10
485.6113204029763
 20
563.316684569308
 30
0.0
 10
485.0633987853835
 20
563.0494309206264
 30
0.0
 10
484.4123221636455
 20
562.7320733261041
 30
0.0
 10
483.5325697381035
 20
562.3028855887358
 30
0.0
 10
482.385963492131
 20
561.7436378901926
 30
0.0
 10
480.8978150484205
 20
561.0174422354975
 30
0.0
 10
478.898614353169
 20
560.0423917061719
 30
0.0
 10
476.7054553593895
 20
558.9724484803378
 30
0.0
 10
473.6384198875668
 20
557.4763271009846
 30
0.0
 10
471.4172130228803
 20
556.3928179166749
 30
0.0
 10
469.9195047526218
 20
555.6622328045714
 30
0.0
  0
SPLINE
  5
102
330
1F
100
AcDbEntity
  8
0
  6
Continuous
 62
     7
370
    15
100
AcDbSpline
210
0.0
220
0.0
230
1.0
 70
     8
 71
     3
 72
    20
 73
    16
 74
     0
 42
0.00000001
 43
0.00000001
 12
1.0
 22
0.0
 32
0.0
 13
1.0
 23
0.0
 33
0.0
 40
0.0
 40
0.0
 40
0.0
 40
0.0
 40
0.125
 40
0.125
 40
0.25
 40
0.25
 40
0.375
 40
0.375
 40
0.5
 40
0.5
 40
0.625
 40
0.625
 40
0.75
 40
0.75
 40
1.0
 40
1.0
 40
1.0
 40
1.0
 10
500.9096639847508
 20
568.1446130071306
 30
0.0
 10
500.935729096745
 20
568.2651319662797
 30
0.0
 10
500.9466168571042
 20
568.3863238591416
 30
0.0
 10
500.9390634249506
 20
568.6300080325495
 30
0.0
 10
500.9200298387482
 20
568.7529277231835
 30
0.0
 10
500.8538581324262
 20
568.9868977171599
 30
0.0
 10
500.8059875298781
 20
569.1010276680923
 30
0.0
 10
500.6844289474743
 20
569.3132807855632
 30
0.0
 10
500.611673650716
 20
569.4106675888639
 30
0.0
 10
500.4420069903391
 20
569.587812770393
 30
0.0
 10
500.3465869215549
 20
569.6655793727518
 30
0.0
 10
500.1407837031724
 20
569.795364233269
 30
0.0
 10
500.0281271708245
 20
569.8484508826256
 30
0.0
 10
499.681265649124
 20
569.9626129201819
 30
0.0
 10
499.4304955714337
 20
569.9813990221858
 30
0.0
 10
499.1897289467433
 20
569.9400601200157
 30
0.0
  0
SPLINE
  5
103
330
1F
100
AcDbEntity
  8
0
  6
Continuous
 62
     7
370
    15
100
AcDbSpline
210
0.0
220
0.0
230
1.0
 70
     8
 71
     3
 72
    39
 73
    35
 74
     0
 42
0.00000001
 43
0.00000001
 12
1.0
 22
0.0
 32
0.0
 13
1.0
 23
0.0
 33
0.0
 40
0.0
 40
0.0
 40
0.0
 40
0.0
 40
0.0101485410704174
 40
0.020313471348003
 40
0.0304957047709494
 40
0.0406939162005145
 40
0.0509060595340184
 40
0.0611308571236966
 40
0.0713692521815096
 40
0.0816236956838312
 40
0.1012317123338828
 40
0.1209043852801588
 40
0.1444665005982072
 40
0.1681251672899755
 40
0.1990264783397162
 40
0.2301998828892004
 40
0.2768933684114824
 40
0.3239967243048821
 40
0.3362724814232574
 40
0.3613795207087817
 40
0.4346958080264441
 40
0.4733654308155764
 40
0.4940754592243988
 40
0.5148482028560409
 40
0.5457698297845208
 40
0.5764504681624731
 40
0.5947134372255197
 40
0.6220783832851845
 40
0.6494170619962981
 40
0.7108034668262972
 40
0.7754903959912455
 40
0.842395032159299
 40
0.9208885303029756
 40
1.0
 40
1.0
 40
1.0
 40
1.0
 10
500.9095744724337
 20
568.1446362953271
 30
0.0
 10
500.908688922266
 20
568.1443374809216
 30
0.0
 10
500.9069163918271
 20
568.1437393695456
 30
0.0
 10
500.8921847365797
 20
568.1374365071073
 30
0.0
 10
500.8684207723815
 20
568.1270624754334
 30
0.0
 10
500.8346335026029
 20
568.1121563146014
 30
0.0
 10
500.7909418986027
 20
568.0927533710944
 30
0.0
 10
500.7371918904465
 20
568.0687723488423
 30
0.0
 10
500.6733227564977
 20
568.0401876101731
 30
0.0
 10
500.5768072597754
 20
567.9969291424026
 30
0.0
 10
500.4339710933248
 20
567.9328830478228
 30
0.0
 10
500.2139120796795
 20
567.8343958157654
 30
0.0
 10
499.935337670736
 20
567.7097379877171
 30
0.0
 10
499.5554670785881
 20
567.539875520003
 30
0.0
 10
499.0714283961064
 20
567.3239925184492
 30
0.0
 10
498.3638734008351
 20
567.0103702471173
 30
0.0
 10
497.4179538242903
 20
566.5950760563428
 30
0.0
 10
496.4866263066546
 20
566.1898386594222
 30
0.0
 10
495.685928152673
 20
565.843380499267
 30
0.0
 10
494.589012688871
 20
565.3702152747087
 30
0.0
 10
493.0760994853493
 20
564.7234960694387
 30
0.0
 10
491.4854024980336
 20
564.0430795542349
 30
0.0
 10
490.4909939812198
 20
563.6154569267069
 30
0.0
 10
489.5746257198682
 20
563.2185656664616
 30
0.0
 10
488.5116903377799
 20
562.748587706515
 30
0.0
 10
487.4646653098702
 20
562.2731893880627
 30
0.0
 10
486.4544670098782
 20
561.8226833283022
 30
0.0
 10
485.490697017561
 20
561.380434630576
 30
0.0
 10
483.9642792314405
 20
560.6601610074096
 30
0.0
 10
481.9551664332478
 20
559.6902043995906
 30
0.0
 10
479.4295196538366
 20
558.4662377262842
 30
0.0
 10
476.681355958355
 20
557.1306969943302
 30
0.0
 10
473.7447718926842
 20
555.7028156348146
 30
0.0
 10
471.6836518099553
 20
554.6996397570092
 30
0.0
 10
470.6490509264886
 20
554.1960850839231
 30
0.0
  0
SPLINE
  5
104
330
1F
100
AcDbEntity
  8
0
  6
Continuous
 62
     7
370
    15
100
AcDbSpline
210
0.0
220
0.0
230
1.0
 70
     8
 71
     3
 72
    16
 73
    12
 74
     0
 42
0.00000001
 43
0.00000001
 12
1.0
 22
0.0
 32
0.0
 13
1.0
 23
0.0
 33
0.0
 40
0.0
 40
0.0
 40
0.0
 40
0.0
 40
0.2499999999999977
 40
0.2499999999999977
 40
0.4999999999999953
 40
0.4999999999999953
 40
0.6249999999999959
 40
0.6249999999999959
 40
0.7499999999999966
 40
0.7499999999999966
 40
1.0
 40
1.0
 40
1.0
 40
1.0
 10
500.9095753807784
 20
568.1446404673806
 30
0.0
 10
500.5276127877503
 20
566.3775718542836
 30
0.0
 10
500.0554554184126
 20
564.6426042958011
 30
0.0
 10
498.8837260081333
 20
561.2536079104564
 30
0.0
 10
498.185000375238
 20
559.5992778400854
 30
0.0
 10
496.9543753284723
 20
557.182748994469
 30
0.0
 10
496.5142287651204
 20
556.389456108746
 30
0.0
 10
495.5868367167388
 20
554.8488851054136
 30
0.0
 10
495.0980643548971
 20
554.0985197622791
 30
0.0
 10
493.558554749767
 20
551.9055664574695
 30
0.0
 10
492.4344196041655
 20
550.5212843724465
 30
0.0
 10
491.219308439671
 20
549.2092718805419
 30
0.0
  0
SPLINE
  5
105
330
1F
100
AcDbEntity
  8
0
  6
Continuous
 62
     7
370
    15
100
AcDbSpline
210
0.0
220
0.0
230
1.0
 70
     8
 71
     3
 72
    36
 73
    32
 74
     0
 42
0.00000001
 43
0.00000001
 12
1.0
 22
0.0
 32
0.0
 13
1.0
 23
0.0
 33
0.0
 40
0.0
 40
0.0
 40
0.0
 40
0.0
 40
0.1250000000000004
 40
0.1250000000000004
 40
0.1875000000000007
 40
0.1875000000000007
 40
0.250000000000001
 40
0.250000000000001
 40
0.3125000000000013
 40
0.3125000000000013
 40
0.3750000000000017
 40
0.3750000000000017
 40
0.5000000000000032
 40
0.5000000000000032
 40
0.562500000000004
 40
0.562500000000004
 40
0.6250000000000047
 40
0.6250000000000047
 40
0.6875000000000054
 40
0.6875000000000054
 40
0.7500000000000062
 40
0.7500000000000062
 40
0.8125000000000069
 40
0.8125000000000069
 40
0.8437500000000058
 40
0.8437500000000058
 40
0.8750000000000047
 40
0.8750000000000047
 40
0.9375000000000023
 40
0.9375000000000023
 40
1.0
 40
1.0
 40
1.0
 40
1.0
 10
491.2193084396707
 20
549.2092718805417
 30
0.0
 10
491.2195298059468
 20
549.2089034651925
 30
0.0
 10
491.1085418227777
 20
549.1661561446361
 30
0.0
 10
490.7772309831481
 20
549.0426934661282
 30
0.0
 10
490.6376972172324
 20
548.9911277845904
 30
0.0
 10
490.3081327474652
 20
548.8713161723546
 30
0.0
 10
490.1181140186499
 20
548.8030757650649
 30
0.0
 10
489.6882794716173
 20
548.6515664855618
 30
0.0
 10
489.4484555052398
 20
548.5683095404883
 30
0.0
 10
488.9176736800925
 20
548.3875152742552
 30
0.0
 10
488.6264309966259
 20
548.2899411770887
 30
0.0
 10
487.6998697049235
 20
547.9839042684558
 30
0.0
 10
487.0049885774311
 20
547.7612810166552
 30
0.0
 10
485.8537270717169
 20
547.3816883440007
 30
0.0
 10
485.4573360902576
 20
547.248959402482
 30
0.0
 10
484.6482927350521
 20
546.966680675958
 30
0.0
 10
484.2347728534349
 20
546.8168428799653
 30
0.0
 10
483.393035026811
 20
546.4909613200484
 30
0.0
 10
482.9629527988389
 20
546.3140638386951
 30
0.0
 10
482.0992166681173
 20
545.9264726327139
 30
0.0
 10
481.6711960347205
 20
545.718285185646
 30
0.0
 10
480.8265593876945
 20
545.2665858840852
 30
0.0
 10
480.4099562842385
 20
545.0230502287168
 30
0.0
 10
479.7953424276269
 20
544.6277545895267
 30
0.0
 10
479.591525931314
 20
544.490514821143
 30
0.0
 10
479.1936743117743
 20
544.2102558387865
 30
0.0
 10
478.9989899064676
 20
544.0668623087644
 30
0.0
 10
478.4270248851163
 20
543.6274826958605
 30
0.0
 10
478.0618331968109
 20
543.322274118906
 30
0.0
 10
477.3599581051236
 20
542.6914253068635
 30
0.0
 10
477.0215772764312
 20
542.3639906606302
 30
0.0
 10
476.7012134365369
 20
542.0345882065678
 30
0.0
  0
LWPOLYLINE
  5
106
330
1F
100
AcDbEntity
  8
0
  6
Continuous
 62
     7
370
    15
100
AcDbPolyline
 90
        3
 70
   128
 43
0.0
 10
469.8765531118
 20
555.7338646322
 10
469.8979511792
 20
555.6982508569
 10
469.9194982583
 20
555.6622496515
  0
SPLINE
  5
107
330
1F
100
AcDbEntity
  8
0
  6
Continuous
 62
     7
370
    15
100
AcDbSpline
210
0.0
220
0.0
230
1.0
 70
     8
 71
     3
 72
    15
 73
    11
 74
     0
 42
0.00000001
 43
0.00000001
 12
1.0
 22
0.0
 32
0.0
 13
1.0
 23
0.0
 33
0.0
 40
0.0
 40
0.0
 40
0.0
 40
0.0
 40
0.125013154506951
 40
0.2500596660317222
 40
0.3751357047653104
 40
0.5002348473938896
 40
0.6252183584363314
 40
0.750028033724118
 40
0.8748992868586599
 40
1.0
 40
1.0
 40
1.0
 40
1.0
 10
468.8818750466349
 20
557.7475247445808
 30
0.0
 10
467.9715892397938
 20
557.3264529646096
 30
0.0
 10
466.1507747363133
 20
556.4841970509003
 30
0.0
 10
463.4240229391602
 20
555.2103094888843
 30
0.0
 10
460.6995167310415
 20
553.9300137696762
 30
0.0
 10
457.9783920486132
 20
552.6437271294521
 30
0.0
 10
455.2615615502118
 20
551.3533710345508
 30
0.0
 10
452.5484412956125
 20
550.0594741139424
 30
0.0
 10
449.8362138263436
 20
548.7615277405448
 30
0.0
 10
448.0281442179129
 20
547.8938779454969
 30
0.0
 10
447.1232795613128
 20
547.4596548214622
 30
0.0
  0
SPLINE
  5
108
330
1F
100
AcDbEntity
  8
0
  6
Continuous
 62
     7
370
    15
100
AcDbSpline
210
0.0
220
0.0
230
1.0
 70
     8
 71
     3
 72
    15
 73
    11
 74
     0
 42
0.00000001
 43
0.00000001
 12
1.0
 22
0.0
 32
0.0
 13
1.0
 23
0.0
 33
0.0
 40
0.0
 40
0.0
 40
0.0
 40
0.0
 40
0.1810464497544381
 40
0.3478709080769408
 40
0.5005313745877664
 40
0.6257734995057357
 40
0.750854018683854
 40
0.835297172989662
 40
0.9189388228276656
 40
1.0
 40
1.0
 40
1.0
 40
1.0
 10
345.0081358897944
 20
567.3237226106523
 30
0.0
 10
343.2938011688312
 20
566.4918283588516
 30
0.0
 10
339.9998002263206
 20
564.8933887916005
 30
0.0
 10
335.2621445156589
 20
562.5885933198095
 30
0.0
 10
331.053114342068
 20
560.5394325825562
 30
0.0
 10
327.2377294863115
 20
558.6851984417509
 30
0.0
 10
324.0700022003351
 20
557.1407639914657
 30
0.0
 10
321.296052663129
 20
555.7874997676753
 30
0.0
 10
318.937635449264
 20
554.6402578765782
 30
0.0
 10
317.3800555865059
 20
553.880794544632
 30
0.0
 10
316.6134673044045
 20
553.50701230407
 30
0.0
  0
SPLINE
  5
109
330
1F
100
AcDbEntity
  8
0
  6
Continuous
 62
     7
370
    15
100
AcDbSpline
210
0.0
220
0.0
230
1.0
 70
     8
 71
     3
 72
     8
 73
     4
 74
     0
 42
0.00000001
 43
0.00000001
 12
1.0
 22
0.0
 32
0.0
 13
1.0
 23
0.0
 33
0.0
 40
0.0
 40
0.0
 40
0.0
 40
0.0
 40
1.0
 40
1.0
 40
1.0
 40
1.0
 10
316.6134867164442
 20
553.5069460698144
 30
0.0
 10
316.4947041593667
 20
553.4491350746675
 30
0.0
 10
316.3767837712843
 20
553.3917382484638
 30
0.0
 10
316.2597140578565
 20
553.3347570279205
 30
0.0
  0
SPLINE
  5
10A
330
1F
100
AcDbEntity
  8
0
  6
Continuous
 62
     7
370
    15
100
AcDbSpline
210
0.0
220
0.0
230
1.0
 70
     8
 71
     3
 72
    78
 73
    74
 74
     0
 42
0.00000001
 43
0.00000001
 12
1.0
 22
0.0
 32
0.0
 13
1.0
 23
0.0
 33
0.0
 40
0.0
 40
0.0
 40
0.0
 40
0.0
 40
0.0640381069596806
 40
0.1008218852519202
 40
0.1130830265494879
 40
0.1375169681447176
 40
0.1619511917688293
 40
0.1863857898144904
 40
0.2228090399685638
 40
0.2467863277342187
 40
0.2587754962278129
 40
0.3067316903564605
 40
0.3237705925744442
 40
0.3322907475493415
 40
0.357850573407926
 40
0.3706298591942479
 40
0.3748894856293631
 40
0.3805904327743087
 40
0.3976929769265535
 40
0.4033937939673103
 40
0.4090942955121903
 40
0.417645356006438
 40
0.4204959056654735
 40
0.4260225160380163
 40
0.4315493562626821
 40
0.4343132890646373
 40
0.4398411521958145
 40
0.4481325640540011
 40
0.4508964972860322
 40
0.456424622240698
 40
0.4647164763512764
 40
0.466936856656822
 40
0.4735978241095328
 40
0.4824795825681811
 40
0.4913614434266052
 40
0.4980230243130899
 40
0.5024634792904886
 40
0.5046834675230653
 40
0.5135637692860648
 40
0.5180043698107262
 40
0.5202247271409626
 40
0.5268851815711967
 40
0.5313242906429039
 40
0.5335442642296382
 40
0.5386197815126542
 40
0.5471855932735464
 40
0.5586061339976068
 40
0.5700266381776046
 40
0.604517206333217
 40
0.6160572809979507
 40
0.6275972173477378
 40
0.6392950485814191
 40
0.6509925948921023
 40
0.6743840878709683
 40
0.6862190970129322
 40
0.6921368400547921
 40
0.7098886856219422
 40
0.7336825921524744
 40
0.7456440607462177
 40
0.769564088363532
 40
0.7936879088045203
 40
0.8057507484378647
 40
0.8259207528511946
 40
0.85024405383642
 40
0.8583858314074524
 40
0.87466839444121
 40
0.8989053368886428
 40
0.9150026614454256
 40
0.9389873826560107
 40
0.9589555201748872
 40
0.9709291158658658
 40
0.985465134724646
 40
1.0
 40
1.0
 40
1.0
 40
1.0
 10
469.9195658354438
 20
555.6620982233646
 30
0.0
 10
470.7267749665842
 20
556.0557507852785
 30
0.0
 10
471.9976486737878
 20
556.6755191593089
 30
0.0
 10
473.4224034781033
 20
557.3719321416479
 30
0.0
 10
474.3483644809697
 20
557.8240412655371
 30
0.0
 10
475.1189053444223
 20
558.1997265423198
 30
0.0
 10
476.0429169828361
 20
558.6501571154572
 30
0.0
 10
477.1172353279097
 20
559.1759191695204
 30
0.0
 10
478.1858513978955
 20
559.6987110016277
 30
0.0
 10
479.0979741143239
 20
560.144184859905
 30
0.0
 10
480.1555126149556
 20
560.660376758597
 30
0.0
 10
481.1256390501883
 20
561.133770285001
 30
0.0
 10
482.0515327799274
 20
561.5867255258268
 30
0.0
 10
482.6952075296376
 20
561.9019244172882
 30
0.0
 10
483.2850689036906
 20
562.1911363562526
 30
0.0
 10
483.8213078381395
 20
562.4539215899607
 30
0.0
 10
484.1076015792014
 20
562.5940812115158
 30
0.0
 10
484.4483368422565
 20
562.760819136304
 30
0.0
 10
484.807214803778
 20
562.9362954493403
 30
0.0
 10
485.1660441163303
 20
563.1115116343869
 30
0.0
 10
485.4171941663019
 20
563.2340554419454
 30
0.0
 10
485.6323835421888
 20
563.3390166873694
 30
0.0
 10
485.8452556398035
 20
563.4428518547265
 30
0.0
 10
486.0199966834905
 20
563.5281133980096
 30
0.0
 10
486.1934545558589
 20
563.6128233956885
 30
0.0
 10
486.3667327661252
 20
563.6975189557818
 30
0.0
 10
486.5744099244798
 20
563.7991295173227
 30
0.0
 10
486.7815204754666
 20
563.9006669629314
 30
0.0
 10
486.9880531572548
 20
564.0020209122729
 30
0.0
 10
487.1941847109861
 20
564.103167737483
 30
0.0
 10
487.392798026804
 20
564.2006083212575
 30
0.0
 10
487.6047093395724
 20
564.3045709035613
 30
0.0
 10
487.8232764285538
 20
564.4117804193489
 30
0.0
 10
488.1222216855108
 20
564.5583287076861
 30
0.0
 10
488.4192445568402
 20
564.703796172818
 30
0.0
 10
488.6607383702187
 20
564.8220008207569
 30
0.0
 10
488.8209597127451
 20
564.9004028548203
 30
0.0
 10
489.007306520897
 20
564.9915779738571
 30
0.0
 10
489.1927230500291
 20
565.0822821128161
 30
0.0
 10
489.3769273402651
 20
565.1723893060012
 30
0.0
 10
489.5342909811291
 20
565.2493652088075
 30
0.0
 10
489.6909250552086
 20
565.3259835455108
 30
0.0
 10
489.846607496101
 20
565.4021473697576
 30
0.0
 10
489.9832512864748
 20
565.4690042337296
 30
0.0
 10
490.1671750145438
 20
565.5590090624152
 30
0.0
 10
490.4554206880161
 20
565.7001183630128
 30
0.0
 10
490.8120812043459
 20
565.8748318488236
 30
0.0
 10
491.4529424458735
 20
566.1889774030564
 30
0.0
 10
492.0743039023525
 20
566.493746515589
 30
0.0
 10
492.6721751794167
 20
566.7867612507061
 30
0.0
 10
493.0256823506681
 20
566.9599726796926
 30
0.0
 10
493.3727019377663
 20
567.1299762662026
 30
0.0
 10
493.8261780550289
 20
567.3521203459849
 30
0.0
 10
494.263739939269
 20
567.56647872754
 30
0.0
 10
494.6311419394654
 20
567.7465578276582
 30
0.0
 10
494.9410076274083
 20
567.8984651444672
 30
0.0
 10
495.342225292976
 20
568.0952418463346
 30
0.0
 10
495.7677842376048
 20
568.3040619065722
 30
0.0
 10
496.2157301322285
 20
568.5237906038475
 30
0.0
 10
496.6390330075048
 20
568.7313081933648
 30
0.0
 10
497.0250721180503
 20
568.9205694992689
 30
0.0
 10
497.3596724540346
 20
569.0846979347855
 30
0.0
 10
497.6707719645245
 20
569.2373888184233
 30
0.0
 10
497.9284400754495
 20
569.3637588399663
 30
0.0
 10
498.1443166374632
 20
569.469645707748
 30
0.0
 10
498.3425514720732
 20
569.5668953605881
 30
0.0
 10
498.5393156641397
 20
569.6634099519844
 30
0.0
 10
498.723194444123
 20
569.7536187870766
 30
0.0
 10
498.8577309905384
 20
569.8196065458412
 30
0.0
 10
498.9445263686579
 20
569.8622431058528
 30
0.0
 10
498.9934175900535
 20
569.8862599102262
 30
0.0
 10
499.0211469049092
 20
569.899894823652
 30
0.0
 10
499.0249003006588
 20
569.9017073331989
 30
0.0
 10
499.026776924063
 20
569.9026135520106
 30
0.0
  0
SPLINE
  5
10B
330
1F
100
AcDbEntity
  8
0
  6
Continuous
 62
     7
370
    15
100
AcDbSpline
210
0.0
220
0.0
230
1.0
 70
     8
 71
     3
 72
    16
 73
    12
 74
     0
 42
0.00000001
 43
0.00000001
 12
1.0
 22
0.0
 32
0.0
 13
1.0
 23
0.0
 33
0.0
 40
0.0
 40
0.0
 40
0.0
 40
0.0
 40
0.2499999999999989
 40
0.2499999999999989
 40
0.3749999999999988
 40
0.3749999999999988
 40
0.4999999999999987
 40
0.4999999999999987
 40
0.7499999999999993
 40
0.7499999999999993
 40
1.0
 40
1.0
 40
1.0
 40
1.0
 10
499.0267768989711
 20
569.9026135448289
 30
0.0
 10
496.4204821156788
 20
569.150426187512
 30
0.0
 10
493.831091585435
 20
568.3447848467612
 30
0.0
 10
489.9910323473816
 20
566.9971037374335
 30
0.0
 10
488.7200878212001
 20
566.5245878846888
 30
0.0
 10
486.1968208920236
 20
565.5324734790157
 30
0.0
 10
484.9443379671106
 20
565.0131679535722
 30
0.0
 10
481.2055706444655
 20
563.4077883378513
 30
0.0
 10
478.7391636902366
 20
562.2789366582808
 30
0.0
 10
473.8080889664653
 20
560.0185753956531
 30
0.0
 10
471.3441789502055
 20
558.8848166111543
 30
0.0
 10
468.8818105283591
 20
557.7476682203718
 30
0.0
  0
SPLINE
  5
10C
330
1F
100
AcDbEntity
  8
0
  6
Continuous
 62
     7
370
    15
100
AcDbSpline
210
0.0
220
0.0
230
1.0
 70
     8
 71
     3
 72
    13
 73
     9
 74
     0
 42
0.00000001
 43
0.00000001
 12
1.0
 22
0.0
 32
0.0
 13
1.0
 23
0.0
 33
0.0
 40
0.0
 40
0.0
 40
0.0
 40
0.0
 40
0.15247800921059
 40
0.4543873813276144
 40
0.7715845346660382
 40
0.7715845346660382
 40
0.8857922673330191
 40
1.0
 40
1.0
 40
1.0
 40
1.0
 10
346.9294472861638
 20
560.511800387147
 30
0.0
 10
345.1486905760343
 20
559.5199460146594
 30
0.0
 10
339.786869427095
 20
556.6654658868309
 30
0.0
 10
331.4347160739481
 20
552.0490655741888
 30
0.0
 10
326.0519273756545
 20
549.0378212983406
 30
0.0
 10
322.7344270729035
 20
546.9751013672758
 30
0.0
 10
321.0605218397019
 20
545.8897364442613
 30
0.0
 10
319.5466824097798
 20
544.788858749032
 30
0.0
 10
318.8284916146989
 20
544.2272729625886
 30
0.0
  0
SPLINE
  5
10D
330
1F
100
AcDbEntity
  8
0
  6
Continuous
 62
     7
370
    15
100
AcDbSpline
210
0.0
220
0.0
230
1.0
 70
     8
 71
     3
 72
     8
 73
     4
 74
     0
 42
0.00000001
 43
0.00000001
 12
1.0
 22
0.0
 32
0.0
 13
1.0
 23
0.0
 33
0.0
 40
0.0
 40
0.0
 40
0.0
 40
0.0
 40
1.0
 40
1.0
 40
1.0
 40
1.0
 10
499.0267771040366
 20
569.9026131898373
 30
0.0
 10
499.0788868502372
 20
569.9176828867986
 30
0.0
 10
499.1332745207
 20
569.9303447412683
 30
0.0
 10
499.1896604229507
 20
569.9400259055038
 30
0.0
  0
SPLINE
  5
10E
330
1F
100
AcDbEntity
  8
0
  6
Continuous
 62
     7
370
    15
100
AcDbSpline
210
0.0
220
0.0
230
1.0
 70
     8
 71
     3
 72
    39
 73
    35
 74
     0
 42
0.00000001
 43
0.00000001
 12
1.0
 22
0.0
 32
0.0
 13
1.0
 23
0.0
 33
0.0
 40
0.0
 40
0.0
 40
0.0
 40
0.0
 40
0.010913348191247
 40
0.022198191840766
 40
0.0339309714737064
 40
0.0462015864617517
 40
0.0591004113088279
 40
0.0727078357666643
 40
0.0870872362809791
 40
0.102281838123144
 40
0.1183153592692651
 40
0.1351930663718359
 40
0.1529043733900011
 40
0.1714261110357296
 40
0.1907258477024193
 40
0.2107650347500531
 40
0.2315013164043284
 40
0.2528898531487032
 40
0.3061236348923833
 40
0.3667731666674285
 40
0.4337941540688909
 40
0.5057147618257556
 40
0.5756206159772945
 40
0.6503382110251524
 40
0.7191169866428981
 40
0.7957014632558852
 40
0.8201462578807299
 40
0.8449587753605315
 40
0.8700675241552065
 40
0.8954658169145377
 40
0.9211563716659816
 40
0.9471412811937271
 40
0.9734221132407335
 40
1.0
 40
1.0
 40
1.0
 40
1.0
 10
363.2547524443652
 20
575.9523171080865
 30
0.0
 10
363.2538048877993
 20
575.952201442859
 30
0.0
 10
363.2518775194005
 20
575.9519661751058
 30
0.0
 10
363.2374938456332
 20
575.9481505910926
 30
0.0
 10
363.2150742756123
 20
575.9394990399958
 30
0.0
 10
363.1833806970694
 20
575.924939137681
 30
0.0
 10
363.1420971181318
 20
575.9039537984179
 30
0.0
 10
363.0902919400552
 20
575.8763129631942
 30
0.0
 10
363.0269054465648
 20
575.8419687523136
 30
0.0
 10
362.9506488004648
 20
575.8009167551121
 30
0.0
 10
362.8600751810405
 20
575.7531080727933
 30
0.0
 10
362.7535953195191
 20
575.6983674586111
 30
0.0
 10
362.6295172224761
 20
575.6363316211734
 30
0.0
 10
362.4860833618781
 20
575.566408998563
 30
0.0
 10
362.321510686644
 20
575.4877586858645
 30
0.0
 10
362.1340478517059
 20
575.3992618727397
 30
0.0
 10
361.922024492739
 20
575.2995548612238
 30
0.0
 10
361.5679012502159
 20
575.1321018396925
 30
0.0
 10
360.9927217887096
 20
574.8542989657767
 30
0.0
 10
360.0844985524805
 20
574.4221329351678
 30
0.0
 10
358.9184395173544
 20
573.876250232394
 30
0.0
 10
357.5265484279504
 20
573.226325232032
 30
0.0
 10
355.9276172558857
 20
572.4740536627124
 30
0.0
 10
354.22374266022
 20
571.6776702848302
 30
0.0
 10
352.3682709244378
 20
570.80726979513
 30
0.0
 10
350.8775657406562
 20
570.1179160246646
 30
0.0
 10
349.7654671893662
 20
569.5997229166909
 30
0.0
 10
349.1075444095252
 20
569.2909026989123
 30
0.0
 10
348.4420266440962
 20
568.9760196538796
 30
0.0
 10
347.769257075875
 20
568.6555611992455
 30
0.0
 10
347.0893307166329
 20
568.3297685155384
 30
0.0
 10
346.4021330294008
 20
567.9988275897716
 30
0.0
 10
345.7075446198619
 20
567.6630123523219
 30
0.0
 10
345.2421569477339
 20
567.4371960373326
 30
0.0
 10
345.0081554220006
 20
567.3236533601032
 30
0.0
  0
ARC
  5
10F
330
1F
100
AcDbEntity
  8
0
  6
Continuous
 62
     7
370
    15
100
AcDbCircle
 10
362.0415922718
 20
576.293588172
 30
0.0
 40
1.260247413551625
100
AcDbArc
 50
344.2883088269
 51
106.8608555874
  0
SPLINE
  5
110
330
1F
100
AcDbEntity
  8
0
  6
Continuous
 62
     7
370
    15
100
AcDbSpline
210
0.0
220
0.0
230
1.0
 70
     8
 71
     3
 72
    15
 73
    11
 74
     0
 42
0.00000001
 43
0.00000001
 12
1.0
 22
0.0
 32
0.0
 13
1.0
 23
0.0
 33
0.0
 40
0.0
 40
0.0
 40
0.0
 40
0.0
 40
0.2159249427285367
 40
0.2159249427285367
 40
0.3466041189404472
 40
0.4772832951523577
 40
0.6079624713642683
 40
0.7386416475761789
 40
0.8693208237880894
 40
0.8898059991320623
 40
0.8898059991320623
 40
0.8898059991320623
 40
0.8898059991320623
 10
346.9294472861638
 20
560.511800387147
 30
0.0
 10
348.7228682326843
 20
561.5107085464698
 30
0.0
 10
350.4975245080614
 20
562.5440830324707
 30
0.0
 10
353.2039207496246
 20
564.288819196212
 30
0.0
 10
355.1797538031926
 20
565.6436722294591
 30
0.0
 10
357.8557497157752
 20
567.819013236365
 30
0.0
 10
360.151048914786
 20
570.1627958722405
 30
0.0
 10
361.9727083544224
 20
572.7004003090202
 30
0.0
 10
362.8750077529159
 20
574.6823229238362
 30
0.0
 10
363.211863888811
 20
575.7998556398994
 30
0.0
 10
363.2547524443652
 20
575.9523171080865
 30
0.0
  0
SPLINE
  5
111
330
1F
100
AcDbEntity
  8
0
  6
Continuous
 62
     7
370
    15
100
AcDbSpline
210
0.0
220
0.0
230
1.0
 70
     8
 71
     3
 72
    32
 73
    28
 74
     0
 42
0.00000001
 43
0.00000001
 12
1.0
 22
0.0
 32
0.0
 13
1.0
 23
0.0
 33
0.0
 40
0.0
 40
0.0
 40
0.0
 40
0.0
 40
0.1250000000000015
 40
0.1250000000000015
 40
0.2500000000000029
 40
0.2500000000000029
 40
0.3750000000000044
 40
0.3750000000000044
 40
0.4375000000000051
 40
0.4375000000000051
 40
0.5000000000000058
 40
0.5000000000000058
 40
0.5625000000000064
 40
0.5625000000000064
 40
0.5937500000000061
 40
0.5937500000000061
 40
0.6250000000000058
 40
0.6250000000000058
 40
0.6875000000000052
 40
0.6875000000000052
 40
0.7500000000000046
 40
0.7500000000000046
 40
0.812500000000004
 40
0.812500000000004
 40
0.8750000000000034
 40
0.8750000000000034
 40
1.0
 40
1.0
 40
1.0
 40
1.0
 10
319.8102295732998
 20
486.2044878977308
 30
0.0
 10
319.1330664720082
 20
485.8770813461655
 30
0.0
 10
318.447105007599
 20
485.5727484152949
 30
0.0
 10
317.0502080230991
 20
485.0295767688183
 30
0.0
 10
316.339516961481
 20
484.7900969632738
 30
0.0
 10
314.8786768075951
 20
484.4146156492719
 30
0.0
 10
314.1377849273077
 20
484.2800549245391
 30
0.0
 10
313.0090832296269
 20
484.2201907733131
 30
0.0
 10
312.6292403458728
 20
484.2248055183934
 30
0.0
 10
311.8831047756815
 20
484.299076139739
 30
0.0
 10
311.5144307283895
 20
484.3683149854633
 30
0.0
 10
310.7890429303054
 20
484.5941824609778
 30
0.0
 10
310.4457604977973
 20
484.7471887320852
 30
0.0
 10
309.9652804618254
 20
485.0436607162137
 30
0.0
 10
309.8096920546815
 20
485.1546814900793
 30
0.0
 10
309.5175397244272
 20
485.3944334097986
 30
0.0
 10
309.3806449236306
 20
485.523079306207
 30
0.0
 10
308.9955185155622
 20
485.9334297058354
 30
0.0
 10
308.7709018059039
 20
486.243510447602
 30
0.0
 10
308.3938815537686
 20
486.8941608599787
 30
0.0
 10
308.2394401034957
 20
487.2351908160785
 30
0.0
 10
307.9806242388786
 20
487.9403302950565
 30
0.0
 10
307.8763363307924
 20
488.305728980424
 30
0.0
 10
307.709542612179
 20
489.0370431891818
 30
0.0
 10
307.6461433133248
 20
489.4052515691987
 30
0.0
 10
307.5001487427693
 20
490.5155161405716
 30
0.0
 10
307.4609650580755
 20
491.2637575314652
 30
0.0
 10
307.4579235880678
 20
492.0152717850064
 30
0.0
  0
LWPOLYLINE
  5
112
330
1F
100
AcDbEntity
  8
0
  6
Continuous
 62
     7
370
    15
100
AcDbPolyline
 90
        8
 70
   128
 43
0.0
 10
494.1593214805
 20
544.3162670999
 10
494.018490606
 20
544.2316434055
 10
493.5998722846
 20
543.9801118045
 10
492.914910608
 20
543.5685417324
 10
491.9823661382
 20
543.008213368
 10
490.8277794654
 20
542.3144749075
 10
489.4827559526
 20
541.5062955289
 10
487.9841461713
 20
540.6058481603
  0
LINE
  5
113
330
1F
100
AcDbEntity
  8
0
  6
Continuous
 62
     7
370
    15
100
AcDbLine
 10
487.9841461713
 20
540.6058481603
 30
0.0
 11
486.2213537032
 21
543.5396334796
 31
0.0
  0
LWPOLYLINE
  5
114
330
1F
100
AcDbEntity
  8
0
  6
Continuous
 62
     7
370
    15
100
AcDbPolyline
 90
        9
 70
   128
 43
0.0
 10
477.9996976192
 20
538.5995558172
 10
478.9888217981
 20
539.1938886314
 10
480.0108924443
 20
539.8080101877
 10
481.0551360185
 20
540.4354533821
 10
482.1105256612
 20
541.0695871978
 10
483.1659004028
 20
541.7037210136
 10
484.2101439769
 20
542.331164208
 10
485.2322295243
 20
542.9453006654
 10
486.2213537032
 20
543.5396334796
  0
LINE
  5
115
330
1F
100
AcDbEntity
  8
0
  6
Continuous
 62
     7
370
    15
100
AcDbLine
 10
477.9996976192
 20
538.5995558172
 30
0.0
 11
479.7624900872
 21
535.6657704979
 31
0.0
  0
LWPOLYLINE
  5
116
330
1F
100
AcDbEntity
  8
0
  6
Continuous
 62
     7
370
    15
100
AcDbPolyline
 90
        8
 70
   128
 43
0.0
 10
479.7624900872
 20
535.6657704979
 10
478.2638654048
 20
534.7653082281
 10
476.9188567931
 20
533.9571437507
 10
475.7642701204
 20
533.2634052902
 10
474.8317256505
 20
532.7030769258
 10
474.1467639739
 20
532.2915068536
 10
473.7281307513
 20
532.0399752527
 10
473.5873147781
 20
531.9553515583
  0
LWPOLYLINE
  5
117
330
1F
100
AcDbEntity
  8
0
  6
Continuous
 62
     7
370
    15
100
AcDbPolyline
 90
       10
 70
   128
 43
0.0
 10
484.1706708009
 20
537.6409194141
 10
482.5333759124
 20
536.6571298509
 10
480.9458211
 20
535.7032320171
 10
479.4562563235
 20
534.8082086711
 10
478.1099364097
 20
533.9992544323
 10
476.9477650459
 20
533.3009562164
 10
476.0050579841
 20
532.7345183759
 10
475.3104552562
 20
532.3171666532
 10
474.8850718076
 20
532.0615670353
 10
474.741826945
 20
531.9754979282
  0
SPLINE
  5
118
330
1F
100
AcDbEntity
  8
0
  6
Continuous
 62
     7
370
    15
100
AcDbSpline
210
0.0
220
0.0
230
1.0
 70
     8
 71
     3
 72
     8
 73
     4
 74
     0
 42
0.00000001
 43
0.00000001
 12
1.0
 22
0.0
 32
0.0
 13
1.0
 23
0.0
 33
0.0
 40
0.0
 40
0.0
 40
0.0
 40
0.0
 40
1.0
 40
1.0
 40
1.0
 40
1.0
 10
479.7624865332631
 20
535.6657713997469
 30
0.0
 10
481.3053450880041
 20
536.1672848688836
 30
0.0
 10
482.783332233796
 20
536.8073225114277
 30
0.0
 10
484.1706738659156
 20
537.6409214633057
 30
0.0
  0
LWPOLYLINE
  5
119
330
1F
100
AcDbEntity
  8
0
  6
Continuous
 62
     7
370
    15
100
AcDbPolyline
 90
       10
 70
   128
 43
0.0
 10
493.5995146568
 20
543.3063409
 10
493.4562697942
 20
543.2202717929
 10
493.0308863456
 20
542.964672175
 10
492.3362836177
 20
542.5473204523
 10
491.3935914571
 20
541.9808826118
 10
490.2314200933
 20
541.2825843959
 10
488.8851001794
 20
540.473630157
 10
487.3955205018
 20
539.5786068111
 10
485.8079805906
 20
538.6247089773
 10
484.1706708009
 20
537.6409194141
  0
SPLINE
  5
11A
330
1F
100
AcDbEntity
  8
0
  6
Continuous
 62
     7
370
    15
100
AcDbSpline
210
0.0
220
0.0
230
1.0
 70
     8
 71
     3
 72
    10
 73
     6
 74
     0
 42
0.00000001
 43
0.00000001
 12
1.0
 22
0.0
 32
0.0
 13
1.0
 23
0.0
 33
0.0
 40
0.0
 40
0.0
 40
0.0
 40
0.0
 40
0.5
 40
0.5
 40
1.0
 40
1.0
 40
1.0
 40
1.0
 10
484.1706738659156
 20
537.6409214633057
 30
0.0
 10
484.8627291878385
 20
538.0567502524376
 30
0.0
 10
485.5356161270135
 20
538.5228506578403
 30
0.0
 10
486.8058249961812
 20
539.5182879058993
 30
0.0
 10
487.4077041052074
 20
540.0493152040274
 30
0.0
 10
487.9841464561832
 20
540.6058430704661
 30
0.0
  0
LWPOLYLINE
  5
11B
330
1F
100
AcDbEntity
  8
0
  6
Continuous
 62
     7
370
    15
100
AcDbPolyline
 90
       13
 70
   128
 43
0.0
 10
479.4674470956
 20
534.5816067129
 10
480.7155832584
 20
535.3315672546
 10
482.1004673774
 20
536.1636927991
 10
483.5688576038
 20
537.0459905534
 10
485.0643381412
 20
537.9445603757
 10
486.5294352109
 20
538.8248911768
 10
487.907852226
 20
539.6531126171
 10
489.1466006572
 20
540.3974256187
 10
490.1980861957
 20
541.0292199522
 10
491.0218968923
 20
541.5242216259
 10
491.5863826806
 20
541.863401857
 10
491.86984747
 20
542.0337221294
 10
491.9024661119
 20
542.0533320575
  0
LWPOLYLINE
  5
11C
330
1F
100
AcDbEntity
  8
0
  6
Continuous
 62
     7
370
    15
100
AcDbPolyline
 90
        6
 70
   128
 43
0.0
 10
476.6448989446
 20
532.8856459528
 10
476.685981446
 20
532.9103371769
 10
476.9860163266
 20
533.0906263261
 10
477.5661334331
 20
533.4391793876
 10
478.4040108258
 20
533.9426300197
 10
479.4674470956
 20
534.5816067129
  0
LINE
  5
11D
330
1F
100
AcDbEntity
  8
0
  6
Continuous
 62
     7
370
    15
100
AcDbLine
 10
307.7082682336
 20
512.5979981094
 30
0.0
 11
307.7082682336
 21
516.5980062156
 31
0.0
  0
LINE
  5
11E
330
1F
100
AcDbEntity
  8
0
  6
Continuous
 62
     7
370
    15
100
AcDbLine
 10
307.7082682336
 20
508.5980049043
 30
0.0
 11
307.7082682336
 21
512.5979981094
 31
0.0
  0
LINE
  5
11F
330
1F
100
AcDbEntity
  8
0
  6
Continuous
 62
     8
370
    15
100
AcDbLine
 10
308.3088166947
 20
508.8165900379
 30
0.0
 11
308.3088166947
 21
516.3794210821
 31
0.0
  0
SPLINE
  5
120
330
1F
100
AcDbEntity
  8
0
  6
Continuous
 62
     7
370
    15
100
AcDbSpline
210
0.0
220
0.0
230
1.0
 70
     8
 71
     3
 72
    20
 73
    16
 74
     0
 42
0.00000001
 43
0.00000001
 12
1.0
 22
0.0
 32
0.0
 13
1.0
 23
0.0
 33
0.0
 40
0.0
 40
0.0
 40
0.0
 40
0.0
 40
0.084565608912048
 40
0.1597873488468884
 40
0.2276335508642034
 40
0.2880144092930588
 40
0.3572661720677586
 40
0.4128713352380818
 40
0.4586661960674507
 40
0.5500033639685817
 40
0.6075662204984902
 40
0.6734036308389499
 40
0.7738646638445673
 40
0.8822733445705666
 40
1.0
 40
1.0
 40
1.0
 40
1.0
 10
164.8955851919019
 20
215.1068807957131
 30
0.0
 10
165.7315534434202
 20
215.1567126329547
 30
0.0
 10
167.3111216904744
 20
215.2508702611377
 30
0.0
 10
169.5072691900749
 20
215.7313692313604
 30
0.0
 10
171.4028663261559
 20
216.3504581082332
 30
0.0
 10
173.1539006903636
 20
217.1431096484801
 30
0.0
 10
174.6917324417305
 20
218.0548968170707
 30
0.0
 10
175.9916822654972
 20
219.0365410833818
 30
0.0
 10
177.3366432506087
 20
220.2648339244024
 30
0.0
 10
178.512862806184
 20
221.6602204622202
 30
0.0
 10
179.5575587190653
 20
223.3410516005505
 30
0.0
 10
180.4189572176059
 20
225.1958095733861
 30
0.0
 10
181.0647005587336
 20
227.6106357114868
 30
0.0
 10
181.1949950887511
 20
230.5434097935624
 30
0.0
 10
181.2711225147128
 20
232.5536918500498
 30
0.0
 10
181.3107546544628
 20
233.6002500174004
 30
0.0
  0
SPLINE
  5
121
330
1F
100
AcDbEntity
  8
0
  6
Continuous
 62
     7
370
    15
100
AcDbSpline
210
0.0
220
0.0
230
1.0
 70
     8
 71
     3
 72
    21
 73
    17
 74
     0
 42
0.00000001
 43
0.00000001
 12
1.0
 22
0.0
 32
0.0
 13
1.0
 23
0.0
 33
0.0
 40
0.0
 40
0.0
 40
0.0
 40
0.0
 40
0.1024520492959788
 40
0.193586011634579
 40
0.2759389356695232
 40
0.3450620486442496
 40
0.3994632187907324
 40
0.4453189954406801
 40
0.5377658858421422
 40
0.5954000768078138
 40
0.660624623274949
 40
0.7339449550232241
 40
0.8143711115418932
 40
0.8720522765068865
 40
0.9333603143071632
 40
1.0
 40
1.0
 40
1.0
 40
1.0
 10
148.4804120040492
 20
233.6001978633362
 30
0.0
 10
148.5151741181749
 20
232.6896314896505
 30
0.0
 10
148.5808581047406
 20
230.969090867753
 30
0.0
 10
148.6721876786918
 20
228.501621367609
 30
0.0
 10
149.0295885469449
 20
226.3387985509993
 30
0.0
 10
149.6468992672378
 20
224.5722466208639
 30
0.0
 10
150.3337421253158
 20
223.1828713253659
 30
0.0
 10
151.2747080027579
 20
221.6752297766209
 30
0.0
 10
152.4478077055437
 20
220.2614768647601
 30
0.0
 10
153.9579497168111
 20
218.8935107688976
 30
0.0
 10
155.4836213020693
 20
217.7975384062946
 30
0.0
 10
157.3431900633537
 20
216.7793034029732
 30
0.0
 10
159.2719111045131
 20
216.0286703927549
 30
0.0
 10
161.1669613715535
 20
215.5298265574187
 30
0.0
 10
162.9716501840213
 20
215.2036411843722
 30
0.0
 10
164.2367017381626
 20
215.1400130966667
 30
0.0
 10
164.8955851919019
 20
215.1068733451325
 30
0.0
  0
SPLINE
  5
122
330
1F
100
AcDbEntity
  8
0
  6
Continuous
 62
     7
370
    15
100
AcDbSpline
210
0.0
220
0.0
230
1.0
 70
     8
 71
     3
 72
    16
 73
    12
 74
     0
 42
0.00000001
 43
0.00000001
 12
1.0
 22
0.0
 32
0.0
 13
1.0
 23
0.0
 33
0.0
 40
0.0
 40
0.0
 40
0.0
 40
0.0
 40
0.1290611432290115
 40
0.2383870697883289
 40
0.3279780701286675
 40
0.3978385558526039
 40
0.4528438600730681
 40
0.5432880237170029
 40
0.6648360657445415
 40
0.8173770490417118
 40
1.0
 40
1.0
 40
1.0
 40
1.0
 10
181.3110936558799
 20
233.5929484484154
 30
0.0
 10
181.3524652107291
 20
234.8140336253638
 30
0.0
 10
181.4288820429866
 20
237.0694833293707
 30
0.0
 10
181.528627368015
 20
240.1723931001447
 30
0.0
 10
181.6078128299282
 20
242.7151898841411
 30
0.0
 10
181.6691325934226
 20
244.7440823636444
 30
0.0
 10
181.7293924041039
 20
246.7812638768244
 30
0.0
 10
181.8016196878568
 20
249.3072252155068
 30
0.0
 10
181.8990378550138
 20
252.75566253225
 30
0.0
 10
181.9906545435401
 20
257.0762098214181
 30
0.0
 10
182.1148752079473
 20
260.2452095943607
 30
0.0
 10
182.1825601286249
 20
261.9719230947453
 30
0.0
  0
SPLINE
  5
123
330
1F
100
AcDbEntity
  8
0
  6
Continuous
 62
     7
370
    15
100
AcDbSpline
210
0.0
220
0.0
230
1.0
 70
     8
 71
     3
 72
     9
 73
     5
 74
     0
 42
0.00000001
 43
0.00000001
 12
1.0
 22
0.0
 32
0.0
 13
1.0
 23
0.0
 33
0.0
 40
0.0
 40
0.0
 40
0.0
 40
0.0
 40
0.4520383575208387
 40
1.0
 40
1.0
 40
1.0
 40
1.0
 10
147.6085972166614
 20
261.9717331049401
 30
0.0
 10
147.7360625977358
 20
257.6966886959742
 30
0.0
 10
148.0180417239619
 20
248.239428404144
 30
0.0
 10
148.3165165315417
 20
238.7775280781093
 30
0.0
 10
148.4800692773418
 20
233.5927696344811
 30
0.0
  0
SPLINE
  5
124
330
1F
100
AcDbEntity
  8
0
  6
Continuous
 62
     7
370
    15
100
AcDbSpline
210
0.0
220
0.0
230
1.0
 70
     8
 71
     3
 72
    10
 73
     6
 74
     0
 42
0.00000001
 43
0.00000001
 12
1.0
 22
0.0
 32
0.0
 13
1.0
 23
0.0
 33
0.0
 40
0.0
 40
0.0
 40
0.0
 40
0.0
 40
0.0523605337849976
 40
0.7950420959660471
 40
0.9999999999999999
 40
0.9999999999999999
 40
0.9999999999999999
 40
0.9999999999999999
 10
187.9652816927986
 20
284.8466043738085
 30
0.0
 10
187.9747508322229
 20
284.8690335187484
 30
0.0
 10
188.1185302002077
 20
285.2095975488429
 30
0.0
 10
188.1772389534143
 20
285.3372754511835
 30
0.0
 10
188.1607827419324
 20
285.3082311723712
 30
0.0
 10
188.1572235501365
 20
285.3019494009573
 30
0.0
  0
LINE
  5
125
330
1F
100
AcDbEntity
  8
0
  6
Continuous
 62
     7
370
    15
100
AcDbLine
 10
182.1823477871
 20
261.9749070523
 30
0.0
 11
182.2005067146
 21
262.3281279025
 31
0.0
  0
LINE
  5
126
330
1F
100
AcDbEntity
  8
0
  6
Continuous
 62
     7
370
    15
100
AcDbLine
 10
147.590648768
 20
262.327915561
 30
0.0
 11
147.6088076956
 21
261.9746947107
 31
0.0
  0
SPLINE
  5
127
330
1F
100
AcDbEntity
  8
0
  6
Continuous
 62
     7
370
    15
100
AcDbSpline
210
0.0
220
0.0
230
1.0
 70
     8
 71
     3
 72
    14
 73
    10
 74
     0
 42
0.00000001
 43
0.00000001
 12
1.0
 22
0.0
 32
0.0
 13
1.0
 23
0.0
 33
0.0
 40
0.0
 40
0.0
 40
0.0
 40
0.0
 40
0.2062240434910858
 40
0.3665156425883368
 40
0.4800676521550362
 40
0.5636208102750131
 40
0.6797410246249009
 40
0.8318402155035957
 40
1.0
 40
1.0
 40
1.0
 40
1.0
 10
182.2004433847026
 20
262.326809149738
 30
0.0
 10
182.3012986553984
 20
263.9420159533563
 30
0.0
 10
182.4805456225401
 20
266.8126732710945
 30
0.0
 10
182.921864461006
 20
270.5551353337387
 30
0.0
 10
183.4118305931008
 20
273.3230123911099
 30
0.0
 10
183.9951478476422
 20
275.7078693369571
 30
0.0
 10
184.8779935837199
 20
278.3186070021908
 30
0.0
 10
186.3147654286469
 20
281.447454414065
 30
0.0
 10
187.4157599575807
 20
283.7353974764595
 30
0.0
 10
187.9938639826135
 20
284.9367377725798
 30
0.0
  0
SPLINE
  5
128
330
1F
100
AcDbEntity
  8
0
  6
Continuous
 62
     7
370
    15
100
AcDbSpline
210
0.0
220
0.0
230
1.0
 70
     8
 71
     3
 72
    15
 73
    11
 74
     0
 42
0.00000001
 43
0.00000001
 12
1.0
 22
0.0
 32
0.0
 13
1.0
 23
0.0
 33
0.0
 40
0.0
 40
0.0
 40
0.0
 40
0.0
 40
0.1586888353961465
 40
0.2796037982748065
 40
0.3654219913505605
 40
0.4408611777089917
 40
0.541134757090745
 40
0.6673294036956869
 40
0.8202895885676857
 40
1.0
 40
1.0
 40
1.0
 40
1.0
 10
141.5399968749837
 20
285.4759139386374
 30
0.0
 10
142.0902314059295
 20
284.3174212663075
 30
0.0
 10
143.0597240889551
 20
282.2762004668203
 30
0.0
 10
144.3522516153668
 20
279.6227750195532
 30
0.0
 10
145.2028860374543
 20
277.5117612749877
 30
0.0
 10
145.852776966847
 20
275.492998501953
 30
0.0
 10
146.4302318083887
 20
273.1274841208337
 30
0.0
 10
146.9313477999794
 20
270.1133563155124
 30
0.0
 10
147.3383173577408
 20
266.4427959966529
 30
0.0
 10
147.5023393713707
 20
263.7723926259141
 30
0.0
 10
147.5909449285821
 20
262.3298266348797
 30
0.0
  0
SPLINE
  5
129
330
1F
100
AcDbEntity
  8
0
  6
Continuous
 62
     7
370
    15
100
AcDbSpline
210
0.0
220
0.0
230
1.0
 70
     8
 71
     3
 72
    18
 73
    14
 74
     0
 42
0.00000001
 43
0.00000001
 12
1.0
 22
0.0
 32
0.0
 13
1.0
 23
0.0
 33
0.0
 40
0.0
 40
0.0
 40
0.0
 40
0.0
 40
0.0756945823049371
 40
0.141121720982677
 40
0.2053666010457723
 40
0.2566009306512899
 40
0.3101036305636418
 40
0.3680026072467716
 40
0.4408398344510178
 40
0.5341909602857409
 40
0.6572528554899961
 40
0.8182144843030492
 40
1.0
 40
1.0
 40
1.0
 40
1.0
 10
140.1857085651712
 20
288.8684175354797
 30
0.0
 10
140.4009570319632
 20
288.1947037281477
 30
0.0
 10
140.802257008099
 20
286.9386607057095
 30
0.0
 10
141.4304816714241
 20
285.1300738740471
 30
0.0
 10
141.9590968216507
 20
283.5397953228245
 30
0.0
 10
142.3950195767434
 20
282.0758372760916
 30
0.0
 10
142.7482953633649
 20
280.6787595237886
 30
0.0
 10
143.0624429157261
 20
279.1169660301209
 30
0.0
 10
143.3392475208208
 20
277.2234222727164
 30
0.0
 10
143.5640241907335
 20
274.771772345874
 30
0.0
 10
143.7063924497758
 20
271.577115058471
 30
0.0
 10
143.7382358377247
 20
267.6392122280112
 30
0.0
 10
143.7647889471648
 20
264.7504704589127
 30
0.0
 10
143.7788721299724
 20
263.2183456239659
 30
0.0
  0
SPLINE
  5
12A
330
1F
100
AcDbEntity
  8
0
  6
Continuous
 62
     7
370
    15
100
AcDbSpline
210
0.0
220
0.0
230
1.0
 70
     8
 71
     3
 72
    18
 73
    14
 74
     0
 42
0.00000001
 43
0.00000001
 12
1.0
 22
0.0
 32
0.0
 13
1.0
 23
0.0
 33
0.0
 40
0.0
 40
0.0
 40
0.0
 40
0.0
 40
0.178789535392738
 40
0.3370983793136115
 40
0.4581321095520414
 40
0.5499447292340345
 40
0.621581536826846
 40
0.6964288515828493
 40
0.7648380567417784
 40
0.7988921470206437
 40
0.8447207032574838
 40
0.9090695469011666
 40
1.0
 40
1.0
 40
1.0
 40
1.0
 10
186.0122982538299
 20
263.2183456239659
 30
0.0
 10
186.0263804096837
 20
264.7504678344884
 30
0.0
 10
186.0529315828556
 20
267.6392046553711
 30
0.0
 10
186.0847872238662
 20
271.5771387990533
 30
0.0
 10
186.2271228535817
 20
274.7717127008175
 30
0.0
 10
186.4519816041506
 20
277.2235723882837
 30
0.0
 10
186.7510414149642
 20
279.270341565092
 30
0.0
 10
187.1387136017652
 20
281.125438929287
 30
0.0
 10
187.5703613390613
 20
282.6827634107052
 30
0.0
 10
187.9834673669578
 20
283.9955552744196
 30
0.0
 10
188.4147875201638
 20
285.285652688831
 30
0.0
 10
189.0393171696313
 20
287.0865461063457
 30
0.0
 10
189.4877655580357
 20
288.4920332787694
 30
0.0
 10
189.7503737485961
 20
289.3150765826363
 30
0.0
  0
SPLINE
  5
12B
330
1F
100
AcDbEntity
  8
0
  6
Continuous
 62
     7
370
    15
100
AcDbSpline
210
0.0
220
0.0
230
1.0
 70
     8
 71
     3
 72
    12
 73
     8
 74
     0
 42
0.00000001
 43
0.00000001
 12
1.0
 22
0.0
 32
0.0
 13
1.0
 23
0.0
 33
0.0
 40
0.0
 40
0.0
 40
0.0
 40
0.0
 40
0.25
 40
0.25
 40
0.5
 40
0.5
 40
1.0
 40
1.0
 40
1.0
 40
1.0
 10
183.7229721743868
 20
129.2236441995073
 30
0.0
 10
183.6776805276517
 20
127.4344703873137
 30
0.0
 10
183.6337952267942
 20
125.6463525092039
 30
0.0
 10
183.5428161445955
 20
122.0689858293241
 30
0.0
 10
183.4967207905168
 20
120.2802740448892
 30
0.0
 10
183.3551410326254
 20
114.9134270299269
 30
0.0
 10
183.2570621549384
 20
111.3348800387837
 30
0.0
 10
183.1557110240095
 20
107.7557583755219
 30
0.0
  0
SPLINE
  5
12C
330
1F
100
AcDbEntity
  8
0
  6
Continuous
 62
     7
370
    15
100
AcDbSpline
210
0.0
220
0.0
230
1.0
 70
     8
 71
     3
 72
    42
 73
    38
 74
     0
 42
0.00000001
 43
0.00000001
 12
1.0
 22
0.0
 32
0.0
 13
1.0
 23
0.0
 33
0.0
 40
0.0
 40
0.0
 40
0.0
 40
0.0
 40
0.2499999999999997
 40
0.2499999999999997
 40
0.3124999999999994
 40
0.3124999999999994
 40
0.3749999999999992
 40
0.3749999999999992
 40
0.4062499999999994
 40
0.4062499999999994
 40
0.4374999999999997
 40
0.4374999999999997
 40
0.4687500000000001
 40
0.4687500000000001
 40
0.5000000000000003
 40
0.5000000000000003
 40
0.5312500000000007
 40
0.5312500000000007
 40
0.5625000000000009
 40
0.5625000000000009
 40
0.6250000000000013
 40
0.6250000000000013
 40
0.6562500000000014
 40
0.6562500000000014
 40
0.6875000000000017
 40
0.6875000000000017
 40
0.7500000000000013
 40
0.7500000000000013
 40
0.8125000000000011
 40
0.8125000000000011
 40
0.8750000000000009
 40
0.8750000000000009
 40
0.9062500000000007
 40
0.9062500000000007
 40
0.9375000000000004
 40
0.9375000000000004
 40
1.0
 40
1.0
 40
1.0
 40
1.0
 10
183.1557110240095
 20
107.7557583755218
 30
0.0
 10
183.0674125408162
 20
104.637578922225
 30
0.0
 10
182.9776108064673
 20
101.5201064960231
 30
0.0
 10
182.8581748482139
 20
97.61812914000788
 30
0.0
 10
182.8337971590643
 20
96.8371573322477
 30
0.0
 10
182.7812066477212
 20
95.27257483502312
 30
0.0
 10
182.7536911738997
 20
94.49162821084168
 30
0.0
 10
182.7051346386403
 20
93.30861725693028
 30
0.0
 10
182.6876667303225
 20
92.91182668721724
 30
0.0
 10
182.6410679765174
 20
92.10459475687495
 30
0.0
 10
182.6122031147051
 20
91.69248550726857
 30
0.0
 10
182.5164009234039
 20
90.8403479184859
 30
0.0
 10
182.4470977301613
 20
90.4034965855386
 30
0.0
 10
182.2577480313553
 20
89.54522603974173
 30
0.0
 10
182.1399343631833
 20
89.12292627562142
 30
0.0
 10
181.8611187202606
 20
88.28477521718979
 30
0.0
 10
181.6989446073421
 20
87.86737775847782
 30
0.0
 10
181.3378810396529
 20
87.0543328686736
 30
0.0
 10
181.1390297104528
 20
86.658251286313
 30
0.0
 10
180.4911149843358
 20
85.50105657683086
 30
0.0
 10
179.9910165556019
 20
84.770500133872
 30
0.0
 10
179.1440849104152
 20
83.73428926625658
 30
0.0
 10
178.8455663661066
 20
83.3988968996305
 30
0.0
 10
178.2161380194309
 20
82.7482836689045
 30
0.0
 10
177.8875025252459
 20
82.43555877040843
 30
0.0
 10
176.8710685241789
 20
81.54200109660246
 30
0.0
 10
176.1490089486349
 20
81.00120248767493
 30
0.0
 10
174.617521530026
 20
80.02400270242167
 30
0.0
 10
173.8019755812822
 20
79.58582463243256
 30
0.0
 10
172.1321138513581
 20
78.83592542299348
 30
0.0
 10
171.2739630125132
 20
78.5204646906624
 30
0.0
 10
169.9473842182735
 20
78.1365526023373
 30
0.0
 10
169.4986316433661
 20
78.023640305785
 30
0.0
 10
168.5875158701893
 20
77.82927511250108
 30
0.0
 10
168.1245630756245
 20
77.747952227174
 30
0.0
 10
166.7409557162555
 20
77.55596482659121
 30
0.0
 10
165.8174987452262
 20
77.49548852505369
 30
0.0
 10
164.8959207994207
 20
77.49516665041307
 30
0.0
  0
SPLINE
  5
12D
330
1F
100
AcDbEntity
  8
0
  6
Continuous
 62
     7
370
    15
100
AcDbSpline
210
0.0
220
0.0
230
1.0
 70
     8
 71
     3
 72
    39
 73
    35
 74
     0
 42
0.00000001
 43
0.00000001
 12
1.0
 22
0.0
 32
0.0
 13
1.0
 23
0.0
 33
0.0
 40
0.0
 40
0.0
 40
0.0
 40
0.0
 40
0.0101485410704174
 40
0.020313471348003
 40
0.0304957047709494
 40
0.0406939162005145
 40
0.0509060595340184
 40
0.0611308571236966
 40
0.0713692521815096
 40
0.0816236956838312
 40
0.1012317123338828
 40
0.1209043852801588
 40
0.1444665005982072
 40
0.1681251672899755
 40
0.1990264783397162
 40
0.2301998828892004
 40
0.2768933684114824
 40
0.3239967243048821
 40
0.3362724814232574
 40
0.3613795207087817
 40
0.4346958080264441
 40
0.4733654308155764
 40
0.4940754592243988
 40
0.5148482028560409
 40
0.5457698297845208
 40
0.5764504681624731
 40
0.5947134372255197
 40
0.6220783832851845
 40
0.6494170619962981
 40
0.7108034668262972
 40
0.7754903959912455
 40
0.842395032159299
 40
0.9208885303029756
 40
1.0
 40
1.0
 40
1.0
 40
1.0
 10
164.8952411748944
 20
77.49525604816158
 30
0.0
 10
164.7475833948043
 20
77.49614159832927
 30
0.0
 10
164.4520293772999
 20
77.49791412876829
 30
0.0
 10
164.008565392673
 20
77.51264578401558
 30
0.0
 10
163.5648754283316
 20
77.53640974821387
 30
0.0
 10
163.1212621295357
 20
77.57019701799241
 30
0.0
 10
162.6780695097412
 20
77.61388862199252
 30
0.0
 10
162.2356170994773
 20
77.66763863014882
 30
0.0
 10
161.7941601455297
 20
77.7315077640977
 30
0.0
 10
161.2203365931415
 20
77.82802326081993
 30
0.0
 10
160.5165305114806
 20
77.97085942727051
 30
0.0
 10
159.6342343817704
 20
78.19091844091582
 30
0.0
 10
158.7095047286446
 20
78.46949284985928
 30
0.0
 10
157.6512092499372
 20
78.8493634420072
 30
0.0
 10
156.5207854468664
 20
79.33340212448887
 30
0.0
 10
155.1389833055787
 20
80.04095711976015
 30
0.0
 10
153.6380475443083
 20
80.98687669630505
 30
0.0
 10
152.4710771221646
 20
81.91820421394074
 30
0.0
 10
151.6049664510154
 20
82.71890236792235
 30
0.0
 10
150.5238524225636
 20
83.81581783172433
 30
0.0
 10
149.3707694049377
 20
85.32873103524601
 30
0.0
 10
148.5074077930189
 20
86.91942802256168
 30
0.0
 10
148.0718495630643
 20
87.91383653937547
 30
0.0
 10
147.7349446346276
 20
88.8302048007271
 30
0.0
 10
147.4346139172323
 20
89.8931401828154
 30
0.0
 10
147.2554789600015
 20
90.94016521072514
 30
0.0
 10
147.1572304849522
 20
91.95036351071715
 30
0.0
 10
147.1023030808634
 20
92.91413350303436
 30
0.0
 10
147.0388009728686
 20
94.44055128915487
 30
0.0
 10
146.9689867897265
 20
96.44966408734753
 30
0.0
 10
146.8910902644922
 20
98.97531086675869
 30
0.0
 10
146.8093651761835
 20
101.7234745622403
 30
0.0
 10
146.7236916050028
 20
104.6600586279111
 30
0.0
 10
146.6649408154425
 20
106.72117871064
 30
0.0
 10
146.6354502392782
 20
107.7557795941067
 30
0.0
  0
SPLINE
  5
12E
330
1F
100
AcDbEntity
  8
0
  6
Continuous
 62
     7
370
    15
100
AcDbSpline
210
0.0
220
0.0
230
1.0
 70
     8
 71
     3
 72
    12
 73
     8
 74
     0
 42
0.00000001
 43
0.00000001
 12
1.0
 22
0.0
 32
0.0
 13
1.0
 23
0.0
 33
0.0
 40
0.0
 40
0.0
 40
0.0
 40
0.0
 40
0.2499999999999992
 40
0.2499999999999992
 40
0.4999999999999984
 40
0.4999999999999984
 40
1.0
 40
1.0
 40
1.0
 40
1.0
 10
146.0681982094156
 20
129.2236441995073
 30
0.0
 10
146.1134898561507
 20
127.4344703873136
 30
0.0
 10
146.1573751570081
 20
125.6463525092039
 30
0.0
 10
146.2483542392068
 20
122.0689858293242
 30
0.0
 10
146.2944495932856
 20
120.2802740448892
 30
0.0
 10
146.436029351177
 20
114.9134270299269
 30
0.0
 10
146.534108228864
 20
111.3348800387837
 30
0.0
 10
146.6354593597928
 20
107.7557583755219
 30
0.0
  0
SPLINE
  5
12F
330
1F
100
AcDbEntity
  8
0
  6
Continuous
 62
     7
370
    15
100
AcDbSpline
210
0.0
220
0.0
230
1.0
 70
     8
 71
     3
 72
    10
 73
     6
 74
     0
 42
0.00000001
 43
0.00000001
 12
1.0
 22
0.0
 32
0.0
 13
1.0
 23
0.0
 33
0.0
 40
0.0
 40
0.0
 40
0.0
 40
0.0
 40
0.3947130322022335
 40
0.7927886511966521
 40
1.0
 40
1.0
 40
1.0
 40
1.0
 10
188.9422688758926
 20
287.0593476486761
 30
0.0
 10
188.9024021890814
 20
286.9639192123909
 30
0.0
 10
188.8223291884806
 20
286.772249378572
 30
0.0
 10
188.508076124359
 20
286.0331275368299
 30
0.0
 10
188.1322315302352
 20
285.2891455928358
 30
0.0
 10
188.0035665011958
 20
285.0344539997536
 30
0.0
  0
SPLINE
  5
130
330
1F
100
AcDbEntity
  8
0
  6
Continuous
 62
     7
370
    15
100
AcDbSpline
210
0.0
220
0.0
230
1.0
 70
     8
 71
     3
 72
    11
 73
     7
 74
     0
 42
0.00000001
 43
0.00000001
 12
1.0
 22
0.0
 32
0.0
 13
1.0
 23
0.0
 33
0.0
 40
0.0
 40
0.0
 40
0.0
 40
0.0
 40
0.2846416992626878
 40
0.5791250847287311
 40
0.8646250230291542
 40
1.0
 40
1.0
 40
1.0
 40
1.0
 10
140.8489517993287
 20
287.0592237827736
 30
0.0
 10
140.8701640739261
 20
287.0074188133004
 30
0.0
 10
140.9133220523788
 20
286.9020176812342
 30
0.0
 10
141.0995971222029
 20
286.4670459947646
 30
0.0
 10
141.336240778611
 20
285.9366449841558
 30
0.0
 10
141.5568769044594
 20
285.4907943012844
 30
0.0
 10
141.6278448081569
 20
285.347385835405
 30
0.0
  0
SPLINE
  5
131
330
1F
100
AcDbEntity
  8
0
  6
Continuous
 62
     7
370
    15
100
AcDbSpline
210
0.0
220
0.0
230
1.0
 70
     8
 71
     3
 72
     8
 73
     4
 74
     0
 42
0.00000001
 43
0.00000001
 12
1.0
 22
0.0
 32
0.0
 13
1.0
 23
0.0
 33
0.0
 40
0.0
 40
0.0
 40
0.0
 40
0.0
 40
1.0
 40
1.0
 40
1.0
 40
1.0
 10
186.0088075432565
 20
263.0767939317244
 30
0.0
 10
185.6210393226717
 20
218.4575688982616
 30
0.0
 10
184.8605469925899
 20
173.8392068955868
 30
0.0
 10
183.7229409515106
 20
129.2235411675935
 30
0.0
  0
SPLINE
  5
132
330
1F
100
AcDbEntity
  8
0
  6
Continuous
 62
     7
370
    15
100
AcDbSpline
210
0.0
220
0.0
230
1.0
 70
     8
 71
     3
 72
     8
 73
     4
 74
     0
 42
0.00000001
 43
0.00000001
 12
1.0
 22
0.0
 32
0.0
 13
1.0
 23
0.0
 33
0.0
 40
0.0
 40
0.0
 40
0.0
 40
0.0
 40
1.0
 40
1.0
 40
1.0
 40
1.0
 10
143.7823628405458
 20
263.0767939317244
 30
0.0
 10
144.1701310611307
 20
218.4575688982615
 30
0.0
 10
144.9306233912124
 20
173.8392068955868
 30
0.0
 10
146.0682294322918
 20
129.2235411675935
 30
0.0
  0
SPLINE
  5
133
330
1F
100
AcDbEntity
  8
0
  6
Continuous
 62
     7
370
    15
100
AcDbSpline
210
0.0
220
0.0
230
1.0
 70
     8
 71
     3
 72
    46
 73
    42
 74
     0
 42
0.00000001
 43
0.00000001
 12
1.0
 22
0.0
 32
0.0
 13
1.0
 23
0.0
 33
0.0
 40
0.0
 40
0.0
 40
0.0
 40
0.0
 40
0.00974210794486
 40
0.0197912139415244
 40
0.0301473917342193
 40
0.0408107086219266
 40
0.0517812261767546
 40
0.0630590008648176
 40
0.0746440845850588
 40
0.0865365251386747
 40
0.0987363666395858
 40
0.1112436498746079
 40
0.1240584126205366
 40
0.1654522137230165
 40
0.2068871221006863
 40
0.2483633224865211
 40
0.2892408375676446
 40
0.3283169710552102
 40
0.3655936503106372
 40
0.4010731107784646
 40
0.4347579606477057
 40
0.4666512634448804
 40
0.4967566448089805
 40
0.5642761621488527
 40
0.6285064122440878
 40
0.6895293176500024
 40
0.747440470597528
 40
0.7661403898905821
 40
0.7847202355184575
 40
0.8031844225048541
 40
0.8215374493433429
 40
0.8397838967449981
 40
0.8579284261419937
 40
0.87597577794036
 40
0.8939307695164213
 40
0.9117982929529264
 40
0.9295833125125197
 40
0.9472908618479785
 40
0.9649260409505538
 40
0.9824940128397515
 40
1.0
 40
1.0
 40
1.0
 40
1.0
 10
140.8489462321368
 20
287.0592385365636
 30
0.0
 10
140.7884940658683
 20
287.208542004129
 30
0.0
 10
140.6656847352162
 20
287.5118538628686
 30
0.0
 10
140.4899538057937
 20
287.9774971649856
 30
0.0
 10
140.3177420881744
 20
288.4600227697356
 30
0.0
 10
140.1507590404063
 20
288.9598069838749
 30
0.0
 10
139.9896832795321
 20
289.4768492411669
 30
0.0
 10
139.8355211294025
 20
290.0112181916152
 30
0.0
 10
139.689225663113
 20
290.5629226557745
 30
0.0
 10
139.5518020865348
 20
291.1319466484667
 30
0.0
 10
139.4242785569865
 20
291.7182261659012
 30
0.0
 10
139.30770812177
 20
292.3216897771946
 30
0.0
 10
139.126321499948
 20
293.398337272629
 30
0.0
 10
138.9455646519467
 20
294.9532612007083
 30
0.0
 10
138.8691737804264
 20
296.9845091533412
 30
0.0
 10
138.9509926911411
 20
299.0040379653098
 30
0.0
 10
139.1845335192656
 20
300.9747536093172
 30
0.0
 10
139.5541058249776
 20
302.8617489256023
 30
0.0
 10
140.0373870932792
 20
304.6373764752628
 30
0.0
 10
140.6151556552625
 20
306.2976590417767
 30
0.0
 10
141.2690060390141
 20
307.8403828677972
 30
0.0
 10
141.981667251506
 20
309.2654456131595
 30
0.0
 10
143.0644009811529
 20
311.1418366999729
 30
0.0
 10
144.6496602901475
 20
313.3743037244477
 30
0.0
 10
146.8909492976462
 20
315.7964709579705
 30
0.0
 10
149.3181333802511
 20
317.8407086132197
 30
0.0
 10
151.3360009813012
 20
319.1641618151428
 30
0.0
 10
152.8058799367661
 20
319.9718421665301
 30
0.0
 10
153.6869792911904
 20
320.4133438557598
 30
0.0
 10
154.5813330088267
 20
320.819911562891
 30
0.0
 10
155.4875470015318
 20
321.191302655164
 30
0.0
 10
156.4041975427602
 20
321.5273057853968
 30
0.0
 10
157.329875570754
 20
321.8277731025653
 30
0.0
 10
158.2631777119353
 20
322.092612383453
 30
0.0
 10
159.2027113653073
 20
322.3217810911916
 30
0.0
 10
160.1470959625198
 20
322.5153117475393
 30
0.0
 10
161.0949651541717
 20
322.673210646788
 30
0.0
 10
162.0449686505349
 20
322.7958284312058
 30
0.0
 10
162.9957740802448
 20
322.8824800861376
 30
0.0
 10
163.9460686673052
 20
322.9365582391389
 30
0.0
 10
164.5794528013938
 20
322.9432309888061
 30
0.0
 10
164.8955851919011
 20
322.9465614674051
 30
0.0
  0
SPLINE
  5
134
330
1F
100
AcDbEntity
  8
0
  6
Continuous
 62
     7
370
    15
100
AcDbSpline
210
0.0
220
0.0
230
1.0
 70
     8
 71
     3
 72
    52
 73
    48
 74
     0
 42
0.00000001
 43
0.00000001
 12
1.0
 22
0.0
 32
0.0
 13
1.0
 23
0.0
 33
0.0
 40
0.0
 40
0.0
 40
0.0
 40
0.0
 40
0.0084661916221675
 40
0.0169463522021199
 40
0.0254410789142347
 40
0.03395096586638
 40
0.042476603997097
 40
0.051018580975892
 40
0.0595774811067002
 40
0.0681538852345571
 40
0.0767483706555501
 40
0.0853615110300599
 40
0.0939938762993326
 40
0.102646032605416
 40
0.1113185422144696
 40
0.1200119634434564
 40
0.1287268505902398
 40
0.1374637538670684
 40
0.1462232193374532
 40
0.155005788856428
 40
0.1638120000141717
 40
0.1726423860829732
 40
0.1814974759675212
 40
0.1903777941584754
 40
0.1992838606892961
 40
0.2082161910962885
 40
0.2171752963818201
 40
0.2261616829806654
 40
0.235175852729427
 40
0.2442183028389833
 40
0.2532895258699034
 40
0.3110489150192196
 40
0.3719106491224687
 40
0.4359693813802424
 40
0.5033062365467704
 40
0.5723578498001142
 40
0.6550104506561132
 40
0.7512830412891286
 40
0.7927457869645583
 40
0.8342138659040846
 40
0.8756872812025738
 40
0.8964647694535083
 40
0.9172181819336144
 40
0.9379479637992191
 40
0.958654561730676
 40
0.9793384239103233
 40
0.9999999999999999
 40
0.9999999999999999
 40
0.9999999999999999
 40
0.9999999999999999
 10
164.8955851919011
 20
322.9465614674051
 30
0.0
 10
165.0484363222631
 20
322.9457831232163
 30
0.0
 10
165.3543907826871
 20
322.9442251505946
 30
0.0
 10
165.8135360132032
 20
322.9316099193578
 30
0.0
 10
166.2731179684928
 20
322.9114302269409
 30
0.0
 10
166.7329910815618
 20
322.8829152641221
 30
0.0
 10
167.1930085627278
 20
322.8462340308279
 30
0.0
 10
167.6530224359014
 20
322.8013063342938
 30
0.0
 10
168.1128835837931
 20
322.7481222734
 30
0.0
 10
168.5724417920184
 20
322.6866564439772
 30
0.0
 10
169.031545794787
 20
322.6168910386056
 30
0.0
 10
169.490043321449
 20
322.5388096835948
 30
0.0
 10
169.9477811440835
 20
322.4523991393061
 30
0.0
 10
170.4046051260731
 20
322.357648886126
 30
0.0
 10
170.8603602716685
 20
322.2545512778219
 30
0.0
 10
171.3148907765326
 20
322.1431015413915
 30
0.0
 10
171.7680400792554
 20
322.0232978171706
 30
0.0
 10
172.2196509138324
 20
321.895141187068
 30
0.0
 10
172.6695653630868
 20
321.7586357049205
 30
0.0
 10
173.1176249130619
 20
321.613788425144
 30
0.0
 10
173.5636705082345
 20
321.4606094307797
 30
0.0
 10
174.0075426080525
 20
321.299111860221
 30
0.0
 10
174.4490812428516
 20
321.1293119342239
 30
0.0
 10
174.8881260763878
 20
320.9512289773311
 30
0.0
 10
175.3245164477896
 20
320.7648854555162
 30
0.0
 10
175.7580914948086
 20
320.5703069482061
 30
0.0
 10
176.188689976399
 20
320.3675223613469
 30
0.0
 10
176.6161512264829
 20
320.1565632317631
 30
0.0
 10
177.0403118706947
 20
319.9374664331806
 30
0.0
 10
177.4610184332064
 20
319.7102641227922
 30
0.0
 10
178.6237869866711
 20
319.054407826069
 30
0.0
 10
180.493985503573
 20
317.8246252849324
 30
0.0
 10
182.9122993754817
 20
315.7843864446276
 30
0.0
 10
185.1459393340145
 20
313.3681776245181
 30
0.0
 10
187.1083441635888
 20
310.6039699503462
 30
0.0
 10
188.8147086190331
 20
307.369934651404
 30
0.0
 10
190.1858299182597
 20
303.5001162527815
 30
0.0
 10
190.8020586637732
 20
299.9234133063808
 30
0.0
 10
190.9219878700979
 20
296.997524070433
 30
0.0
 10
190.8465206509411
 20
294.9647779130738
 30
0.0
 10
190.6515296680915
 20
293.2811549733826
 30
0.0
 10
190.4167628721683
 20
291.9449289061279
 30
0.0
 10
190.2009144867896
 20
290.9477435095396
 30
0.0
 10
189.9460672742168
 20
289.9588580592626
 30
0.0
 10
189.6515412500189
 20
288.980005696085
 30
0.0
 10
189.3211655329663
 20
288.0115486736362
 30
0.0
 10
189.0684935858071
 20
287.3765636854375
 30
0.0
 10
188.9422257100635
 20
287.0592423266939
 30
0.0
  0
ARC
  5
135
330
1F
100
AcDbEntity
  8
0
  6
Continuous
 62
     7
370
    15
100
AcDbCircle
 10
164.8955851919
 20
296.9465614674
 30
0.0
 40
26.0
100
AcDbArc
 50
332.3918269277
 51
346.4103844245
  0
ARC
  5
136
330
1F
100
AcDbEntity
  8
0
  6
Continuous
 62
     7
370
    15
100
AcDbCircle
 10
164.8955851919
 20
296.9465614674
 30
0.0
 40
26.00000000000006
100
AcDbArc
 50
78.432988065
 51
90.0
  0
ARC
  5
137
330
1F
100
AcDbEntity
  8
0
  6
Continuous
 62
     7
370
    15
100
AcDbCircle
 10
164.8955851919
 20
296.9465614674
 30
0.0
 40
26.0
100
AcDbArc
 50
193.2533984249
 51
205.8997186172
  0
LINE
  5
138
330
1F
100
AcDbEntity
  8
0
  6
Continuous
 62
     7
370
    15
100
AcDbLine
 10
164.8955851919
 20
323.046561834
 30
0.0
 11
162.812574686
 21
322.9633071837
 31
0.0
  0
LWPOLYLINE
  5
139
330
1F
100
AcDbEntity
  8
0
  6
Continuous
 62
     7
370
    15
100
AcDbPolyline
 90
        3
 70
   128
 43
0.0
 10
139.7858992345
 20
289.8252089885
 10
140.2602311349
 20
288.326277901
 10
140.8935360736
 20
286.6941658226
  0
LWPOLYLINE
  5
13A
330
1F
100
AcDbEntity
  8
0
  6
Continuous
 62
     7
370
    15
100
AcDbPolyline
 90
        3
 70
   128
 43
0.0
 10
188.8269394762
 20
286.5302139339
 10
189.5309392489
 20
288.326277901
 10
190.0354515887
 20
289.9324936238
  0
LINE
  5
13B
330
1F
100
AcDbEntity
  8
0
  6
Continuous
 62
     7
370
    15
100
AcDbLine
 10
167.1113173137
 20
322.9523399291
 30
0.0
 11
164.8955851919
 21
323.046561834
 31
0.0
  0
SPLINE
  5
13C
330
1F
100
AcDbEntity
  8
0
  6
Continuous
 62
     8
370
     0
100
AcDbSpline
210
0.0
220
0.0
230
1.0
 70
     8
 71
     3
 72
    37
 73
    33
 74
     0
 42
0.00000001
 43
0.00000001
 12
1.0
 22
0.0
 32
0.0
 13
1.0
 23
0.0
 33
0.0
 40
0.0
 40
0.0
 40
0.0
 40
0.0
 40
0.0478674349294153
 40
0.0916370643545261
 40
0.1313074170494505
 40
0.1668614116277052
 40
0.1985233392707822
 40
0.2262145814359402
 40
0.2498554960527415
 40
0.3050477683452971
 40
0.374787878953743
 40
0.437173483948061
 40
0.4711466104223785
 40
0.4990374982948362
 40
0.5331084556265687
 40
0.5662797385250418
 40
0.5986868456521045
 40
0.6304460143435043
 40
0.6616149699912934
 40
0.6921100461206259
 40
0.7218325088535248
 40
0.7506960906414646
 40
0.7787926304206809
 40
0.8061992486249372
 40
0.8329077109128443
 40
0.8589072757561217
 40
0.884178775883937
 40
0.9086840578761868
 40
0.9324691132006299
 40
0.9555639056236233
 40
0.9780240193071715
 40
1.0
 40
1.0
 40
1.0
 40
1.0
 10
180.1811253441565
 20
234.2265143248759
 30
0.0
 10
180.1679865283903
 20
233.8234444582784
 30
0.0
 10
180.1428336764005
 20
233.0518104787424
 30
0.0
 10
180.1041649114552
 20
231.9462376952274
 30
0.0
 10
180.0646216854186
 20
230.9444823050272
 30
0.0
 10
180.0223676766713
 20
230.0449782472812
 30
0.0
 10
179.980939122098
 20
229.2463420314863
 30
0.0
 10
179.9103832793573
 20
228.5499396371852
 30
0.0
 10
179.7743895681357
 20
227.6610288441921
 30
0.0
 10
179.4729132621189
 20
226.4371563986141
 30
0.0
 10
178.8939230554402
 20
224.9421268946586
 30
0.0
 10
178.1855635100267
 20
223.6931319572343
 30
0.0
 10
177.5653795087666
 20
222.807352735683
 30
0.0
 10
177.0443569183241
 20
222.148686571802
 30
0.0
 10
176.4868692395996
 20
221.5227785453683
 30
0.0
 10
175.8566329569563
 20
220.9027834029323
 30
0.0
 10
175.1999036709648
 20
220.333159027018
 30
0.0
 10
174.5203494377963
 20
219.8111987380733
 30
0.0
 10
173.8214145350701
 20
219.336613522379
 30
0.0
 10
173.1092467638176
 20
218.9083881383815
 30
0.0
 10
172.3904354556212
 20
218.526098841008
 30
0.0
 10
171.6696309971146
 20
218.1886153919189
 30
0.0
 10
170.9496789262891
 20
217.89409609666
 30
0.0
 10
170.2329791291107
 20
217.6391552445907
 30
0.0
 10
169.5221279717586
 20
217.421097409916
 30
0.0
 10
168.8201725634954
 20
217.23745811194
 30
0.0
 10
168.1300112558608
 20
217.0861017541943
 30
0.0
 10
167.4540271063755
 20
216.963424775804
 30
0.0
 10
166.7933787646298
 20
216.8674100146486
 30
0.0
 10
166.1486922972183
 20
216.7934638768604
 30
0.0
 10
165.5181118815443
 20
216.7399449842192
 30
0.0
 10
165.1015813830783
 20
216.7324546190202
 30
0.0
 10
164.8955851919025
 20
216.728750240332
 30
0.0
  0
SPLINE
  5
13D
330
1F
100
AcDbEntity
  8
0
  6
Continuous
 62
     8
370
     0
100
AcDbSpline
210
0.0
220
0.0
230
1.0
 70
     8
 71
     3
 72
    56
 73
    52
 74
     0
 42
0.00000001
 43
0.00000001
 12
1.0
 22
0.0
 32
0.0
 13
1.0
 23
0.0
 33
0.0
 40
0.0
 40
0.0
 40
0.0
 40
0.0
 40
0.0098631274082959
 40
0.0197850007549857
 40
0.0297852973185139
 40
0.0398832376026778
 40
0.0500975538331586
 40
0.0604465585646547
 40
0.0709483301718929
 40
0.0816100649958
 40
0.0924265523392057
 40
0.103391478073963
 40
0.114497796979414
 40
0.1257377045572539
 40
0.1371083051462849
 40
0.1486157573069304
 40
0.1602628706228552
 40
0.1720528219828962
 40
0.1839892301089405
 40
0.196076180736473
 40
0.2083182513285976
 40
0.2207205350304939
 40
0.2332886635446698
 40
0.2460288285837381
 40
0.2589468410700039
 40
0.2720390319479903
 40
0.2852979649862412
 40
0.2987159910158924
 40
0.3122849521570548
 40
0.3259962213604402
 40
0.3398407504508776
 40
0.3538091276413168
 40
0.3678916456042201
 40
0.382080560411767
 40
0.3964141607255142
 40
0.4109112963722422
 40
0.42557421779229
 40
0.4404054829751822
 40
0.4554079966386883
 40
0.4705850522498669
 40
0.4859403768207108
 40
0.5014781783665182
 40
0.6022532110695147
 40
0.7507887079299246
 40
0.7727297290895293
 40
0.7992871309545518
 40
0.8304019185790874
 40
0.8659290000007449
 40
0.9060452218438378
 40
0.9507344791492937
 40
1.0
 40
1.0
 40
1.0
 40
1.0
 10
164.8934761118308
 20
216.7287496388606
 30
0.0
 10
164.8010749575804
 20
216.7294949208656
 30
0.0
 10
164.6157222970167
 20
216.7309899238622
 30
0.0
 10
164.3369195910894
 20
216.7422643767246
 30
0.0
 10
164.0563257900704
 20
216.7595083844622
 30
0.0
 10
163.7735197570799
 20
216.7828277980919
 30
0.0
 10
163.4880309634301
 20
216.8113731850806
 30
0.0
 10
163.199341420431
 20
216.844454311037
 30
0.0
 10
162.9069707791202
 20
216.8812204169316
 30
0.0
 10
162.6110096014414
 20
216.923070988327
 30
0.0
 10
162.3115879052176
 20
216.9699887170967
 30
0.0
 10
162.0090171596139
 20
217.0222308806823
 30
0.0
 10
161.7036339227136
 20
217.0799784198309
 30
0.0
 10
161.395757854763
 20
217.1434402142816
 30
0.0
 10
161.0856080842836
 20
217.212874874219
 30
0.0
 10
160.7733230964081
 20
217.2885642292853
 30
0.0
 10
160.4589922890724
 20
217.3707722699217
 30
0.0
 10
160.1427467055165
 20
217.4597706794609
 30
0.0
 10
159.8247218656762
 20
217.5558343378459
 30
0.0
 10
159.5050582994267
 20
217.6592446953522
 30
0.0
 10
159.1839013667153
 20
217.7702888070924
 30
0.0
 10
158.8614014733782
 20
217.8892596023015
 30
0.0
 10
158.5377138369387
 20
218.0164553976678
 30
0.0
 10
158.2130077909087
 20
218.1521776771237
 30
0.0
 10
157.8875468448556
 20
218.2966875613605
 30
0.0
 10
157.5617763124818
 20
218.4502720343803
 30
0.0
 10
157.2361653734013
 20
218.6129734136222
 30
0.0
 10
156.9112472563183
 20
218.7848408161412
 30
0.0
 10
156.5875739245469
 20
218.9659049352103
 30
0.0
 10
156.2657245789654
 20
219.1561870389508
 30
0.0
 10
155.9463032175971
 20
219.3556946197986
 30
0.0
 10
155.6299441766355
 20
219.5644272155514
 30
0.0
 10
155.3172774856018
 20
219.7823675228299
 30
0.0
 10
155.0086669595162
 20
220.0098046432282
 30
0.0
 10
154.7040912821825
 20
220.2469529658193
 30
0.0
 10
154.4035538799898
 20
220.4941728014859
 30
0.0
 10
154.1073979806584
 20
220.7516863690414
 30
0.0
 10
153.81608815153
 20
221.0196044152596
 30
0.0
 10
153.5301054714764
 20
221.2980358314256
 30
0.0
 10
153.2499514563191
 20
221.5870837916803
 30
0.0
 10
152.9761173373767
 20
221.8868436701787
 30
0.0
 10
152.2222517654182
 20
222.7640205229774
 30
0.0
 10
150.9229121608881
 20
224.6772029246654
 30
0.0
 10
150.1316183670095
 20
226.88773945683
 30
0.0
 10
149.8793796509989
 20
228.5303931181953
 30
0.0
 10
149.8096216726203
 20
229.1979650417127
 30
0.0
 10
149.7669284185504
 20
229.9817576559128
 30
0.0
 10
149.7250732386953
 20
230.8797677000432
 30
0.0
 10
149.6845585421915
 20
231.8922855650639
 30
0.0
 10
149.6450580799476
 20
233.0205839731112
 30
0.0
 10
149.6192774661614
 20
233.8113513966663
 30
0.0
 10
149.6057593099702
 20
234.2259930972562
 30
0.0
  0
SPLINE
  5
13E
330
1F
100
AcDbEntity
  8
0
  6
Continuous
 62
     8
370
     0
100
AcDbSpline
210
0.0
220
0.0
230
1.0
 70
     8
 71
     3
 72
     8
 73
     4
 74
     0
 42
0.00000001
 43
0.00000001
 12
1.0
 22
0.0
 32
0.0
 13
1.0
 23
0.0
 33
0.0
 40
0.0
 40
0.0
 40
0.0
 40
0.0
 40
1.0
 40
1.0
 40
1.0
 40
1.0
 10
181.0509799712314
 20
263.0670416534389
 30
0.0
 10
181.0495401133397
 20
263.037535939249
 30
0.0
 10
181.0481085576851
 20
263.0080313668814
 30
0.0
 10
181.0466851821236
 20
262.9785279917889
 30
0.0
  0
SPLINE
  5
13F
330
1F
100
AcDbEntity
  8
0
  6
Continuous
 62
     8
370
     0
100
AcDbSpline
210
0.0
220
0.0
230
1.0
 70
     8
 71
     3
 72
     8
 73
     4
 74
     0
 42
0.00000001
 43
0.00000001
 12
1.0
 22
0.0
 32
0.0
 13
1.0
 23
0.0
 33
0.0
 40
0.0
 40
0.0
 40
0.0
 40
0.0
 40
1.0
 40
1.0
 40
1.0
 40
1.0
 10
181.0467554527906
 20
262.9794479860924
 30
0.0
 10
181.0423769599702
 20
262.8908102715056
 30
0.0
 10
181.0380734580501
 20
262.8021696845454
 30
0.0
 10
181.0338429108471
 20
262.7135263320532
 30
0.0
  0
SPLINE
  5
140
330
1F
100
AcDbEntity
  8
0
  6
Continuous
 62
     8
370
     0
100
AcDbSpline
210
0.0
220
0.0
230
1.0
 70
     8
 71
     3
 72
     8
 73
     4
 74
     0
 42
0.00000001
 43
0.00000001
 12
1.0
 22
0.0
 32
0.0
 13
1.0
 23
0.0
 33
0.0
 40
0.0
 40
0.0
 40
0.0
 40
0.0
 40
1.0
 40
1.0
 40
1.0
 40
1.0
 10
181.033842910847
 20
262.7135263320533
 30
0.0
 10
181.0323630692296
 20
262.6835903651489
 30
0.0
 10
181.0308915494492
 20
262.6536540628918
 30
0.0
 10
181.0294282731435
 20
262.6237174314758
 30
0.0
  0
SPLINE
  5
141
330
1F
100
AcDbEntity
  8
0
  6
Continuous
 62
     8
370
     0
100
AcDbSpline
210
0.0
220
0.0
230
1.0
 70
     8
 71
     3
 72
    12
 73
     8
 74
     0
 42
0.00000001
 43
0.00000001
 12
1.0
 22
0.0
 32
0.0
 13
1.0
 23
0.0
 33
0.0
 40
0.0
 40
0.0
 40
0.0
 40
0.0
 40
0.25
 40
0.25
 40
0.5
 40
0.5
 40
1.0
 40
1.0
 40
1.0
 40
1.0
 10
181.0294402184797
 20
262.6237427008323
 30
0.0
 10
180.912865157272
 20
260.2688671619931
 30
0.0
 10
180.8547021950231
 20
257.9122964816458
 30
0.0
 10
180.7418775709055
 20
253.1924511178114
 30
0.0
 10
180.6790744109691
 20
250.832708868577
 30
0.0
 10
180.4813930319436
 20
243.7540603351666
 30
0.0
 10
180.3383560627801
 20
239.0352701413177
 30
0.0
 10
180.184078892288
 20
234.316596327612
 30
0.0
  0
LINE
  5
142
330
1F
100
AcDbEntity
  8
0
  6
Continuous
 62
     8
370
     0
100
AcDbLine
 10
180.1840787879
 20
234.3165935395
 30
0.0
 11
180.1811246327
 21
234.2265085695
 31
0.0
  0
LINE
  5
143
330
1F
100
AcDbEntity
  8
0
  6
Continuous
 62
     8
370
     0
100
AcDbLine
 10
149.6057598046
 20
234.2259795783
 30
0.0
 11
149.6028019241
 21
234.3161986587
 31
0.0
  0
SPLINE
  5
144
330
1F
100
AcDbEntity
  8
0
  6
Continuous
 62
     8
370
     0
100
AcDbSpline
210
0.0
220
0.0
230
1.0
 70
     8
 71
     3
 72
    12
 73
     8
 74
     0
 42
0.00000001
 43
0.00000001
 12
1.0
 22
0.0
 32
0.0
 13
1.0
 23
0.0
 33
0.0
 40
0.0
 40
0.0
 40
0.0
 40
0.0
 40
0.4999999999999991
 40
0.4999999999999991
 40
0.7499999999999996
 40
0.7499999999999996
 40
1.0
 40
1.0
 40
1.0
 40
1.0
 10
149.602801460545
 20
234.3161965924334
 30
0.0
 10
149.4485721991381
 20
239.0348653256988
 30
0.0
 10
149.3055781743895
 20
243.753645762939
 30
0.0
 10
149.1079620922663
 20
250.8322814433094
 30
0.0
 10
149.0451804406812
 20
253.1920214314308
 30
0.0
 10
148.9323983502062
 20
257.9118587294565
 30
0.0
 10
148.8742579853437
 20
260.2683768703611
 30
0.0
 10
148.7577053693886
 20
262.6232106903149
 30
0.0
  0
SPLINE
  5
145
330
1F
100
AcDbEntity
  8
0
  6
Continuous
 62
     8
370
     0
100
AcDbSpline
210
0.0
220
0.0
230
1.0
 70
     8
 71
     3
 72
     8
 73
     4
 74
     0
 42
0.00000001
 43
0.00000001
 12
1.0
 22
0.0
 32
0.0
 13
1.0
 23
0.0
 33
0.0
 40
0.0
 40
0.0
 40
0.0
 40
0.0
 40
1.0
 40
1.0
 40
1.0
 40
1.0
 10
148.7577176230096
 20
262.623185063391
 30
0.0
 10
148.756253846448
 20
262.6531389509022
 30
0.0
 10
148.7547818241286
 20
262.6830923610273
 30
0.0
 10
148.7533014778525
 20
262.7130452865013
 30
0.0
  0
SPLINE
  5
146
330
1F
100
AcDbEntity
  8
0
  6
Continuous
 62
     8
370
     0
100
AcDbSpline
210
0.0
220
0.0
230
1.0
 70
     8
 71
     3
 72
     8
 73
     4
 74
     0
 42
0.00000001
 43
0.00000001
 12
1.0
 22
0.0
 32
0.0
 13
1.0
 23
0.0
 33
0.0
 40
0.0
 40
0.0
 40
0.0
 40
0.0
 40
1.0
 40
1.0
 40
1.0
 40
1.0
 10
148.7533014778528
 20
262.7130452864942
 30
0.0
 10
148.7490211902845
 20
262.8016637372024
 30
0.0
 10
148.7446680500745
 20
262.8902780614537
 30
0.0
 10
148.7402400302468
 20
262.9788881234808
 30
0.0
  0
SPLINE
  5
147
330
1F
100
AcDbEntity
  8
0
  6
Continuous
 62
     8
370
     0
100
AcDbSpline
210
0.0
220
0.0
230
1.0
 70
     8
 71
     3
 72
     8
 73
     4
 74
     0
 42
0.00000001
 43
0.00000001
 12
1.0
 22
0.0
 32
0.0
 13
1.0
 23
0.0
 33
0.0
 40
0.0
 40
0.0
 40
0.0
 40
0.0
 40
1.0
 40
1.0
 40
1.0
 40
1.0
 10
148.7403116604645
 20
262.9779701975435
 30
0.0
 10
148.7388421619878
 20
263.0080764990487
 30
0.0
 10
148.7373641344335
 20
263.0381829016621
 30
0.0
 10
148.7358774560979
 20
263.0682893280619
 30
0.0
  0
SPLINE
  5
148
330
1F
100
AcDbEntity
  8
0
  6
Continuous
 62
     8
370
     0
100
AcDbSpline
210
0.0
220
0.0
230
1.0
 70
     8
 71
     3
 72
    21
 73
    17
 74
     0
 42
0.00000001
 43
0.00000001
 12
1.0
 22
0.0
 32
0.0
 13
1.0
 23
0.0
 33
0.0
 40
0.0
 40
0.0
 40
0.0
 40
0.0
 40
0.0306975117820853
 40
0.0825806572861112
 40
0.1555833990159661
 40
0.2496012574775714
 40
0.3645524271585108
 40
0.500585983788434
 40
0.6062737747115252
 40
0.6993974674351225
 40
0.7804529747430022
 40
0.8493486084667453
 40
0.9057926609381731
 40
0.9497138621514035
 40
0.9811165645984622
 40
1.0
 40
1.0
 40
1.0
 40
1.0
 10
148.7358774538267
 20
263.0682893275938
 30
0.0
 10
148.7211296234575
 20
263.3347313696478
 30
0.0
 10
148.681455869634
 20
264.0514982241624
 30
0.0
 10
148.5989060150073
 20
265.4019712760657
 30
0.0
 10
148.4576038625641
 20
267.3007936568562
 30
0.0
 10
148.2209598059339
 20
269.7431770227575
 30
0.0
 10
147.8247434983105
 20
272.7220937399536
 30
0.0
 10
147.1948983285867
 20
275.7751124188856
 30
0.0
 10
146.31137294535
 20
278.5796453988479
 30
0.0
 10
145.3637059603885
 20
280.8604580950893
 30
0.0
 10
144.4462198054319
 20
282.8061199005595
 30
0.0
 10
143.6614003990582
 20
284.4558851590434
 30
0.0
 10
143.0292089782614
 20
285.8131765464406
 30
0.0
 10
142.5532190037824
 20
286.8756871066088
 30
0.0
 10
142.2247325228493
 20
287.6394795375084
 30
0.0
 10
142.0537734957339
 20
288.0484543140334
 30
0.0
 10
141.9895750131509
 20
288.2020323994419
 30
0.0
  0
SPLINE
  5
149
330
1F
100
AcDbEntity
  8
0
  6
Continuous
 62
     8
370
     0
100
AcDbSpline
210
0.0
220
0.0
230
1.0
 70
     8
 71
     3
 72
     8
 73
     4
 74
     0
 42
0.00000001
 43
0.00000001
 12
1.0
 22
0.0
 32
0.0
 13
1.0
 23
0.0
 33
0.0
 40
0.0
 40
0.0
 40
0.0
 40
0.0
 40
1.0
 40
1.0
 40
1.0
 40
1.0
 10
141.9911562263835
 20
288.1982642160768
 30
0.0
 10
141.9793716879591
 20
288.2262291371152
 30
0.0
 10
141.967642571279
 20
288.2542038962029
 30
0.0
 10
141.9559688195301
 20
288.2821884844769
 30
0.0
  0
SPLINE
  5
14A
330
1F
100
AcDbEntity
  8
0
  6
Continuous
 62
     8
370
     0
100
AcDbSpline
210
0.0
220
0.0
230
1.0
 70
     8
 71
     3
 72
    33
 73
    29
 74
     0
 42
0.00000001
 43
0.00000001
 12
1.0
 22
0.0
 32
0.0
 13
1.0
 23
0.0
 33
0.0
 40
0.0
 40
0.0
 40
0.0
 40
0.0
 40
0.0145204379918171
 40
0.0313819706146066
 40
0.0449529442379922
 40
0.055370882726672
 40
0.0626539305679935
 40
0.0815894961657969
 40
0.1251859464179985
 40
0.1436847251574727
 40
0.187499106535044
 40
0.2187904001632036
 40
0.250168508100775
 40
0.2877189805199488
 40
0.3742057991334372
 40
0.4374043384973847
 40
0.4991389754369033
 40
0.5480575208550369
 40
0.6315938525909598
 40
0.7496267511556846
 40
0.8091451707913021
 40
0.8744846520222941
 40
0.9045284487271659
 40
0.9370195823510897
 40
0.9525103240262403
 40
0.968618429497807
 40
0.986800651255613
 40
1.0
 40
1.0
 40
1.0
 40
1.0
 10
141.9559688195548
 20
288.2821884845791
 30
0.0
 10
141.8799096682865
 20
288.4949333511483
 30
0.0
 10
141.7155285351955
 20
288.9547234177321
 30
0.0
 10
141.4861545417485
 20
289.6135866620155
 30
0.0
 10
141.2902312835102
 20
290.2154707940841
 30
0.0
 10
141.1511435107186
 20
290.6789275788618
 30
0.0
 10
140.9903230143299
 20
291.2218258363905
 30
0.0
 10
140.7334882732538
 20
292.2694890448842
 30
0.0
 10
140.5098469700808
 20
293.4992876644932
 30
0.0
 10
140.3069243581185
 20
295.1158141868024
 30
0.0
 10
140.2101517767125
 20
296.552287587026
 30
0.0
 10
140.2151843530094
 20
298.1885065748082
 30
0.0
 10
140.3122100240687
 20
299.726332028234
 30
0.0
 10
140.6123604465233
 20
302.0992740347522
 30
0.0
 10
141.3094276152989
 20
304.9185569927785
 30
0.0
 10
142.5412704483114
 20
307.9775947057458
 30
0.0
 10
143.8589796489628
 20
310.3777465592922
 30
0.0
 10
145.6237359087966
 20
312.9082863584929
 30
0.0
 10
148.3351131464756
 20
315.9054374439216
 30
0.0
 10
151.8202831867198
 20
318.4819562077063
 30
0.0
 10
155.4723201841046
 20
320.2733306656063
 30
0.0
 10
157.9589670474673
 20
321.1186819817793
 30
0.0
 10
160.0753883707607
 20
321.6132585781932
 30
0.0
 10
161.3876220224284
 20
321.8340341834475
 30
0.0
 10
162.4744895769437
 20
321.9589241104001
 30
0.0
 10
163.3227727715467
 20
322.0222127839099
 30
0.0
 10
164.1338376135378
 20
322.0546373903954
 30
0.0
 10
164.6700454050166
 20
322.0660999902011
 30
0.0
 10
164.8955788479235
 20
322.0709212547181
 30
0.0
  0
SPLINE
  5
14B
330
1F
100
AcDbEntity
  8
0
  6
Continuous
 62
     8
370
     0
100
AcDbSpline
210
0.0
220
0.0
230
1.0
 70
     8
 71
     3
 72
    34
 73
    30
 74
     0
 42
0.00000001
 43
0.00000001
 12
1.0
 22
0.0
 32
0.0
 13
1.0
 23
0.0
 33
0.0
 40
0.0
 40
0.0
 40
0.0
 40
0.0
 40
0.0144961281819169
 40
0.0316258703433983
 40
0.0454268715342721
 40
0.0558567669968504
 40
0.0629103343543091
 40
0.0716497908801195
 40
0.0925491378041947
 40
0.1254407131833046
 40
0.1460818821355775
 40
0.1884853737910525
 40
0.2182801966882311
 40
0.2507525764225988
 40
0.3305164916135497
 40
0.4135435850996668
 40
0.5006157794971723
 40
0.592525250301912
 40
0.6759325914729422
 40
0.749670060612509
 40
0.7950051134420135
 40
0.8499116139050406
 40
0.8592975511852834
 40
0.8687492392940843
 40
0.8873892079154025
 40
0.9247270675245702
 40
0.9627025040619162
 40
0.9857677725637143
 40
1.0
 40
1.0
 40
1.0
 40
1.0
 10
164.8955788479238
 20
322.070921359618
 30
0.0
 10
165.1431494820735
 20
322.0624644234529
 30
0.0
 10
165.6832686558414
 20
322.044014119806
 30
0.0
 10
166.4587320455009
 20
322.0073570367861
 30
0.0
 10
167.1636890839469
 20
321.9573291325166
 30
0.0
 10
167.6953522194303
 20
321.9053923163002
 30
0.0
 10
168.1408833287983
 20
321.8598817973068
 30
0.0
 10
168.760598307184
 20
321.7723337386142
 30
0.0
 10
169.8105881512819
 20
321.5913378310718
 30
0.0
 10
171.0434854835145
 20
321.3044035991993
 30
0.0
 10
172.6044979330846
 20
320.8521926212445
 30
0.0
 10
174.0800987382676
 20
320.3208771688293
 30
0.0
 10
175.6831088503444
 20
319.6043272977647
 30
0.0
 10
177.7790601991376
 20
318.5007504093309
 30
0.0
 10
180.4530618772645
 20
316.6807194726466
 30
0.0
 10
183.3979351676617
 20
313.8780998729803
 30
0.0
 10
185.9212394873839
 20
310.5316708899499
 30
0.0
 10
187.8062966702662
 20
306.8537963359219
 30
0.0
 10
188.978562338528
 20
303.1626469531803
 30
0.0
 10
189.4751328655119
 20
300.0761302358949
 30
0.0
 10
189.6030888230286
 20
297.4045171517083
 30
0.0
 10
189.531919401878
 20
295.7186748566893
 30
0.0
 10
189.4130155640554
 20
294.5911014530778
 30
0.0
 10
189.3424571443658
 20
294.0189651784001
 30
0.0
 10
189.1932931285532
 20
293.0228392184856
 30
0.0
 10
188.906982514828
 20
291.6017162583606
 30
0.0
 10
188.4975188781232
 20
290.1347169872316
 30
0.0
 10
188.1118686371464
 20
289.0322439455156
 30
0.0
 10
187.9082466216341
 20
288.4888770794273
 30
0.0
 10
187.830547173912
 20
288.2815355240491
 30
0.0
  0
SPLINE
  5
14C
330
1F
100
AcDbEntity
  8
0
  6
Continuous
 62
     8
370
     0
100
AcDbSpline
210
0.0
220
0.0
230
1.0
 70
     8
 71
     3
 72
     8
 73
     4
 74
     0
 42
0.00000001
 43
0.00000001
 12
1.0
 22
0.0
 32
0.0
 13
1.0
 23
0.0
 33
0.0
 40
0.0
 40
0.0
 40
0.0
 40
0.0
 40
1.0
 40
1.0
 40
1.0
 40
1.0
 10
187.830547173502
 20
288.2815355242022
 30
0.0
 10
187.8192600331416
 20
288.254251232668
 30
0.0
 10
187.8079206922486
 20
288.2269771279689
 30
0.0
 10
187.7965291081873
 20
288.1997132172829
 30
0.0
  0
SPLINE
  5
14D
330
1F
100
AcDbEntity
  8
0
  6
Continuous
 62
     8
370
     0
100
AcDbSpline
210
0.0
220
0.0
230
1.0
 70
     8
 71
     3
 72
    21
 73
    17
 74
     0
 42
0.00000001
 43
0.00000001
 12
1.0
 22
0.0
 32
0.0
 13
1.0
 23
0.0
 33
0.0
 40
0.0
 40
0.0
 40
0.0
 40
0.0
 40
0.01709242348617
 40
0.0622476652993376
 40
0.0865119523523037
 40
0.1248448141295538
 40
0.1946566203806221
 40
0.2507687956190359
 40
0.3477676758025997
 40
0.5001569985392708
 40
0.5623773929019241
 40
0.6248711073068847
 40
0.7500346172042663
 40
0.875433763282025
 40
0.9608945539452425
 40
0.9999999999999999
 40
0.9999999999999999
 40
0.9999999999999999
 40
0.9999999999999999
 10
187.7981020587612
 20
288.2034929074426
 30
0.0
 10
187.7409575937764
 20
288.0640714243926
 30
0.0
 10
187.5328472849628
 20
287.5563223729226
 30
0.0
 10
187.2316742488107
 20
286.8544269510604
 30
0.0
 10
186.8410192512566
 20
285.9861335777088
 30
0.0
 10
186.3457614363884
 20
284.9250534046872
 30
0.0
 10
185.7173879835387
 20
283.6140640303291
 30
0.0
 10
184.8736755745508
 20
281.8299970849477
 30
0.0
 10
183.7790591780825
 20
279.3620604275474
 30
0.0
 10
182.8715506624633
 20
276.771692345906
 30
0.0
 10
182.3152851549642
 20
274.4139319321006
 30
0.0
 10
181.9119373261958
 20
272.2708407583011
 30
0.0
 10
181.5385532072195
 20
269.569289055131
 30
0.0
 10
181.2683337291024
 20
266.6578224093097
 30
0.0
 10
181.1275441581489
 20
264.4880625840622
 30
0.0
 10
181.0692731620576
 20
263.406560774133
 30
0.0
 10
181.050979976406
 20
263.0670417214537
 30
0.0
  0
SPLINE
  5
14E
330
1F
100
AcDbEntity
  8
0
  6
Continuous
 62
     8
370
     0
100
AcDbSpline
210
0.0
220
0.0
230
1.0
 70
     8
 71
     3
 72
    67
 73
    63
 74
     0
 42
0.00000001
 43
0.00000001
 12
1.0
 22
0.0
 32
0.0
 13
1.0
 23
0.0
 33
0.0
 40
0.0
 40
0.0
 40
0.0
 40
0.0
 40
0.0098281262183327
 40
0.0195969696181551
 40
0.0293111685122165
 40
0.0389754495956431
 40
0.0485945957383483
 40
0.0581734106520423
 40
0.0677166818318019
 40
0.0772291452750717
 40
0.0867083122099905
 40
0.0961021298581234
 40
0.1054040322231633
 40
0.114619682269009
 40
0.1237545843746158
 40
0.1328139410075314
 40
0.1418026443769076
 40
0.1507254002617896
 40
0.1595867209481588
 40
0.1683909499023779
 40
0.1771422868953235
 40
0.1858448126204715
 40
0.1945025119387783
 40
0.2031192950135307
 40
0.2116990157755535
 40
0.2202414798824927
 40
0.2287082222368121
 40
0.2370918525348411
 40
0.2453963242983196
 40
0.2536253870007013
 40
0.2617826271172332
 40
0.2698715019786778
 40
0.2778953642939425
 40
0.2858574796268526
 40
0.2937610382343684
 40
0.3016091620813958
 40
0.309404907502945
 40
0.3171512638692034
 40
0.3248511487189804
 40
0.3325073672996339
 40
0.3401225550247116
 40
0.3476908122906612
 40
0.3551770799342825
 40
0.3625802550049089
 40
0.3699036056858497
 40
0.3771502200280565
 40
0.3843230289147844
 40
0.3914248264032251
 40
0.4338505481674022
 40
0.4890541471556653
 40
0.5136472943195284
 40
0.5381898200612986
 40
0.562790149809592
 40
0.5872628359291157
 40
0.6162709479843492
 40
0.6586254686784798
 40
0.714406185768317
 40
0.7836285060981056
 40
0.8359810240630521
 40
0.8894930536339208
 40
0.9441658028994674
 40
1.0
 40
1.0
 40
1.0
 40
1.0
 10
164.8955848263499
 20
79.21517383929304
 30
0.0
 10
165.033994872532
 20
79.21607910582397
 30
0.0
 10
165.3099800816777
 20
79.21788417835866
 30
0.0
 10
165.7225438420695
 20
79.23144929114508
 30
0.0
 10
166.1323495795125
 20
79.25299054503338
 30
0.0
 10
166.5393678883601
 20
79.28326263667047
 30
0.0
 10
166.9435709561539
 20
79.32203914058707
 30
0.0
 10
167.34493183337
 20
79.36933878105441
 30
0.0
 10
167.7434244617745
 20
79.42510107248192
 30
0.0
 10
168.1389245686136
 20
79.48925716920931
 30
0.0
 10
168.530529731742
 20
79.56157044268123
 30
0.0
 10
168.917209950696
 20
79.64167394680395
 30
0.0
 10
169.2980826679888
 20
79.72912934774303
 30
0.0
 10
169.6730777882336
 20
79.82363483849157
 30
0.0
 10
170.0422998760315
 20
79.92493201307356
 30
0.0
 10
170.4058504229328
 20
80.03278485180903
 30
0.0
 10
170.7638279668795
 20
80.1469726131085
 30
0.0
 10
171.1163276287527
 20
80.26729137340867
 30
0.0
 10
171.4634398978371
 20
80.39355819574367
 30
0.0
 10
171.8052489839424
 20
80.52561168555404
 30
0.0
 10
172.141831497679
 20
80.66331276630876
 30
0.0
 10
172.4732553813209
 20
80.80654468658165
 30
0.0
 10
172.7995791025361
 20
80.95521242132224
 30
0.0
 10
173.1208510018998
 20
81.10924174149017
 30
0.0
 10
173.4370601838242
 20
81.26855209661619
 30
0.0
 10
173.7476742136345
 20
81.43280661577622
 30
0.0
 10
174.0520546276825
 20
81.6015512263861
 30
0.0
 10
174.3496537289492
 20
81.77430759015165
 30
0.0
 10
174.6404439795941
 20
81.95086960837051
 30
0.0
 10
174.9245329875677
 20
82.1311100849532
 30
0.0
 10
175.2020256068153
 20
82.31490510869426
 30
0.0
 10
175.4730248210223
 20
82.50213472486979
 30
0.0
 10
175.7376315240087
 20
82.69268445633594
 30
0.0
 10
175.9959436868735
 20
82.88644679620667
 30
0.0
 10
176.2480551096573
 20
83.08332254955712
 30
0.0
 10
176.4940540257383
 20
83.28322177978512
 30
0.0
 10
176.7340218101014
 20
83.48606419718415
 30
0.0
 10
176.9680319126909
 20
83.69177897181639
 30
0.0
 10
177.1961491610512
 20
83.90030340119233
 30
0.0
 10
177.4184283014436
 20
84.11158128178046
 30
0.0
 10
177.6348367915291
 20
84.32548045815462
 30
0.0
 10
177.8449967615637
 20
84.54150594724936
 30
0.0
 10
178.0485472379668
 20
84.75908870199623
 30
0.0
 10
178.2452390702606
 20
84.97773518279743
 30
0.0
 10
178.4351809468909
 20
85.19731948428046
 30
0.0
 10
178.6185154917302
 20
85.41776169094011
 30
0.0
 10
178.7953827933442
 20
85.63898984579484
 30
0.0
 10
179.2491481841904
 20
86.22952764140739
 30
0.0
 10
180.0082960824785
 20
87.36936215737286
 30
0.0
 10
180.6941392901632
 20
88.79552840330919
 30
0.0
 10
181.1250254352653
 20
90.0589605299836
 30
0.0
 10
181.3602809152699
 20
90.96887326387655
 30
0.0
 10
181.5138603973289
 20
91.89132798212341
 30
0.0
 10
181.5975197508264
 20
92.87730143929983
 30
0.0
 10
181.6567472988031
 20
94.08923218341258
 30
0.0
 10
181.7164564583393
 20
95.6976501662609
 30
0.0
 10
181.7893325352188
 20
97.8148314815198
 30
0.0
 10
181.8580549134214
 20
100.0588037489537
 30
0.0
 10
181.9249014684659
 20
102.2741048509196
 30
0.0
 10
181.9852341407094
 20
104.3053344933721
 30
0.0
 10
182.0463379556398
 20
106.3806333391181
 30
0.0
 10
182.086828703623
 20
107.778871169778
 30
0.0
 10
182.107286860128
 20
108.4853379503537
 30
0.0
  0
SPLINE
  5
14F
330
1F
100
AcDbEntity
  8
0
  6
Continuous
 62
     8
370
     0
100
AcDbSpline
210
0.0
220
0.0
230
1.0
 70
     8
 71
     3
 72
    10
 73
     6
 74
     0
 42
0.00000001
 43
0.00000001
 12
1.0
 22
0.0
 32
0.0
 13
1.0
 23
0.0
 33
0.0
 40
0.0
 40
0.0
 40
0.0
 40
0.0
 40
0.3141858682607836
 40
0.6475246636078327
 40
1.0
 40
1.0
 40
1.0
 40
1.0
 10
182.107286860128
 20
108.4853379503537
 30
0.0
 10
182.1714240601514
 20
110.7345028306443
 30
0.0
 10
182.3036082958708
 20
115.3699428030746
 30
0.0
 10
182.4971816855906
 20
122.5288951716588
 30
0.0
 10
182.6230980265913
 20
127.4387635532692
 30
0.0
 10
182.6878129436475
 20
129.9621987368816
 30
0.0
  0
SPLINE
  5
150
330
1F
100
AcDbEntity
  8
0
  6
Continuous
 62
     8
370
     0
100
AcDbSpline
210
0.0
220
0.0
230
1.0
 70
     8
 71
     3
 72
    10
 73
     6
 74
     0
 42
0.00000001
 43
0.00000001
 12
1.0
 22
0.0
 32
0.0
 13
1.0
 23
0.0
 33
0.0
 40
0.0
 40
0.0
 40
0.0
 40
0.0
 40
0.1684339292268988
 40
0.7247279782473227
 40
1.0
 40
1.0
 40
1.0
 40
1.0
 10
147.6838516440519
 20
108.4853278409497
 30
0.0
 10
147.6492946304013
 20
109.69109688139
 30
0.0
 10
147.5006046678018
 20
114.8792116687278
 30
0.0
 10
147.3061850162206
 20
122.0381581392122
 30
0.0
 10
147.1537914853371
 20
127.9915568300735
 30
0.0
 10
147.1033448920683
 20
129.9623011299336
 30
0.0
  0
SPLINE
  5
151
330
1F
100
AcDbEntity
  8
0
  6
Continuous
 62
     8
370
     0
100
AcDbSpline
210
0.0
220
0.0
230
1.0
 70
     8
 71
     3
 72
    41
 73
    37
 74
     0
 42
0.00000001
 43
0.00000001
 12
1.0
 22
0.0
 32
0.0
 13
1.0
 23
0.0
 33
0.0
 40
0.0
 40
0.0
 40
0.0
 40
0.0
 40
0.0102484668042712
 40
0.020149390494297
 40
0.0297071982124616
 40
0.0389256313057564
 40
0.0478076938011527
 40
0.0563556152970095
 40
0.0645708914673627
 40
0.0724559109983075
 40
0.1165437695368025
 40
0.1417391193544008
 40
0.1554572993141923
 40
0.1814219204177131
 40
0.2201407666675691
 40
0.2697305308923239
 40
0.2994988375969487
 40
0.3285191885311285
 40
0.3841027491997568
 40
0.4099544769718746
 40
0.4400469102027981
 40
0.4756193603311738
 40
0.4941679956432418
 40
0.5102123644929452
 40
0.5449932043311031
 40
0.5742596979786156
 40
0.5884452855890836
 40
0.5968542909237402
 40
0.617617136220656
 40
0.6399262108541481
 40
0.6664117537917749
 40
0.7082623765954338
 40
0.7575742498729183
 40
0.8244339815004421
 40
0.8816199057982578
 40
1.0
 40
1.0
 40
1.0
 40
1.0
 10
164.8955855612013
 20
79.21517009564515
 30
0.0
 10
164.7512690285609
 20
79.21614741700574
 30
0.0
 10
164.4675299848102
 20
79.2180689170806
 30
0.0
 10
164.0494467092653
 20
79.23225483941988
 30
0.0
 10
163.6463181792762
 20
79.25387590329498
 30
0.0
 10
163.2581545010102
 20
79.28292028845762
 30
0.0
 10
162.884954584016
 20
79.31837965181944
 30
0.0
 10
162.5267183478203
 20
79.35952349999302
 30
0.0
 10
162.1834040617573
 20
79.40555961191622
 30
0.0
 10
161.3478669943738
 20
79.53327919540614
 30
0.0
 10
160.2882474234044
 20
79.7608196339144
 30
0.0
 10
159.1786707941818
 20
80.09272570838742
 30
0.0
 10
158.3262832271952
 20
80.38851622139275
 30
0.0
 10
157.3162067314754
 20
80.79065199687012
 30
0.0
 10
155.8978637744833
 20
81.47801683928165
 30
0.0
 10
154.5246989690998
 20
82.328032094359
 30
0.0
 10
153.3588672096935
 20
83.21507825145187
 30
0.0
 10
152.2087548101295
 20
84.22973048851725
 30
0.0
 10
151.21840167458
 20
85.31520966920854
 30
0.0
 10
150.357091580907
 20
86.4964052546605
 30
0.0
 10
149.731798226652
 20
87.51066258606517
 30
0.0
 10
149.2504670429399
 20
88.48669208769552
 30
0.0
 10
148.9178328691607
 20
89.32328557434509
 30
0.0
 10
148.6339540629047
 20
90.16359507891308
 30
0.0
 10
148.3823005936046
 20
91.15394465780054
 30
0.0
 10
148.2539454358291
 20
92.13860034268826
 30
0.0
 10
148.2043783899601
 20
92.79351011761901
 30
0.0
 10
148.1707967242781
 20
93.3414317352118
 30
0.0
 10
148.1402406180169
 20
93.99250835694981
 30
0.0
 10
148.1056458144436
 20
94.87226078249188
 30
0.0
 10
148.0633621804255
 20
96.01886702846434
 30
0.0
 10
148.0125700683523
 20
97.5070154721749
 30
0.0
 10
147.9498063614385
 20
99.50621616742626
 30
0.0
 10
147.8834850877925
 20
101.6993751612059
 30
0.0
 10
147.7920304268086
 20
104.7664106330285
 30
0.0
 10
147.7274423702409
 20
106.987617497715
 30
0.0
 10
147.6838921417505
 20
108.4853257679735
 30
0.0
  0
SPLINE
  5
152
330
1F
100
AcDbEntity
  8
0
  6
Continuous
 62
     8
370
     0
100
AcDbSpline
210
0.0
220
0.0
230
1.0
 70
     8
 71
     3
 72
     8
 73
     4
 74
     0
 42
0.00000001
 43
0.00000001
 12
1.0
 22
0.0
 32
0.0
 13
1.0
 23
0.0
 33
0.0
 40
0.0
 40
0.0
 40
0.0
 40
0.0
 40
1.0
 40
1.0
 40
1.0
 40
1.0
 10
181.8304758331126
 20
108.5282758993478
 30
0.0
 10
181.9227829664458
 20
108.514057507832
 30
0.0
 10
182.0150522335298
 20
108.4997433741997
 30
0.0
 10
182.1072835730675
 20
108.4853333434658
 30
0.0
  0
SPLINE
  5
153
330
1F
100
AcDbEntity
  8
0
  6
Continuous
 62
     8
370
     0
100
AcDbSpline
210
0.0
220
0.0
230
1.0
 70
     8
 71
     3
 72
    40
 73
    36
 74
     0
 42
0.00000001
 43
0.00000001
 12
1.0
 22
0.0
 32
0.0
 13
1.0
 23
0.0
 33
0.0
 40
0.0
 40
0.0
 40
0.0
 40
0.0
 40
0.048627757246334
 40
0.0955474690619719
 40
0.1407599071677272
 40
0.1842664756813146
 40
0.2260649908351419
 40
0.266156688238228
 40
0.304549294057313
 40
0.3412397575398788
 40
0.3762442203223801
 40
0.4096495638600707
 40
0.4416354287522495
 40
0.472127370715609
 40
0.5009527042717046
 40
0.5317429447295885
 40
0.5616817824946657
 40
0.5908591751116052
 40
0.6194587744829733
 40
0.6476577159206093
 40
0.6754111216533593
 40
0.7024091322674373
 40
0.7287296480638695
 40
0.7544943029504052
 40
0.7798041200951757
 40
0.8045765049991705
 40
0.82860461893867
 40
0.8519759563818115
 40
0.874773876245358
 40
0.8970715249637123
 40
0.9189355543360405
 40
0.9401982964684531
 40
0.9607579796963365
 40
0.980675051259478
 40
1.0
 40
1.0
 40
1.0
 40
1.0
 10
182.107284908133
 20
108.4853275384601
 30
0.0
 10
182.0893083769513
 20
107.8724376964287
 30
0.0
 10
182.0539867385662
 20
106.6681857108141
 30
0.0
 10
182.0002358503748
 20
104.8942674458504
 30
0.0
 10
181.9470948534714
 20
103.1850263378049
 30
0.0
 10
181.8947574684315
 20
101.5404697357879
 30
0.0
 10
181.8430489300301
 20
99.96058634548228
 30
0.0
 10
181.7911375788679
 20
98.4453020665821
 30
0.0
 10
181.7389318666387
 20
96.99453174016672
 30
0.0
 10
181.6847995609509
 20
95.6080870777788
 30
0.0
 10
181.628976986795
 20
94.28455160215766
 30
0.0
 10
181.5666076634429
 20
93.0207299155763
 30
0.0
 10
181.4661673148049
 20
91.81460776685589
 30
0.0
 10
181.2461554831682
 20
90.67911972991966
 30
0.0
 10
180.9144575619956
 20
89.58219793933404
 30
0.0
 10
180.4855464548374
 20
88.52019039210612
 30
0.0
 10
179.9581930209375
 20
87.48977232680636
 30
0.0
 10
179.3553970127472
 20
86.5250088301912
 30
0.0
 10
178.6858977258839
 20
85.62279101058536
 30
0.0
 10
177.9553642866543
 20
84.78236027332754
 30
0.0
 10
177.1742268212955
 20
84.00662129167517
 30
0.0
 10
176.3540236610955
 20
83.29798058290737
 30
0.0
 10
175.5037429982837
 20
82.65696292749679
 30
0.0
 10
174.6280231095154
 20
82.07954600227042
 30
0.0
 10
173.7316584833149
 20
81.56364505197062
 30
0.0
 10
172.8230640423226
 20
81.10877408744007
 30
0.0
 10
171.9107124797523
 20
80.71349696569264
 30
0.0
 10
171.000566759578
 20
80.37465749119939
 30
0.0
 10
170.0934709319034
 20
80.08975825681674
 30
0.0
 10
169.1904894479616
 20
79.8557864126554
 30
0.0
 10
168.2955207896273
 20
79.67124673694549
 30
0.0
 10
167.4147973527678
 20
79.5339730907325
 30
0.0
 10
166.5544266873978
 20
79.44207141182609
 30
0.0
 10
165.7171751631153
 20
79.38788438924348
 30
0.0
 10
165.166608605648
 20
79.3812973230588
 30
0.0
 10
164.8954790761547
 20
79.37805348608549
 30
0.0
  0
SPLINE
  5
154
330
1F
100
AcDbEntity
  8
0
  6
Continuous
 62
     8
370
     0
100
AcDbSpline
210
0.0
220
0.0
230
1.0
 70
     8
 71
     3
 72
    78
 73
    74
 74
     0
 42
0.00000001
 43
0.00000001
 12
1.0
 22
0.0
 32
0.0
 13
1.0
 23
0.0
 33
0.0
 40
0.0
 40
0.0
 40
0.0
 40
0.0
 40
0.0640381069596806
 40
0.1008218852519202
 40
0.1130830265494879
 40
0.1375169681447176
 40
0.1619511917688293
 40
0.1863857898144904
 40
0.2228090399685638
 40
0.2467863277342187
 40
0.2587754962278129
 40
0.3067316903564605
 40
0.3237705925744442
 40
0.3322907475493415
 40
0.357850573407926
 40
0.3706298591942479
 40
0.3748894856293631
 40
0.3805904327743087
 40
0.3976929769265535
 40
0.4033937939673103
 40
0.4090942955121903
 40
0.417645356006438
 40
0.4204959056654735
 40
0.4260225160380163
 40
0.4315493562626821
 40
0.4343132890646373
 40
0.4398411521958145
 40
0.4481325640540011
 40
0.4508964972860322
 40
0.456424622240698
 40
0.4647164763512764
 40
0.466936856656822
 40
0.4735978241095328
 40
0.4824795825681811
 40
0.4913614434266052
 40
0.4980230243130899
 40
0.5024634792904886
 40
0.5046834675230653
 40
0.5135637692860648
 40
0.5180043698107262
 40
0.5202247271409626
 40
0.5268851815711967
 40
0.5313242906429039
 40
0.5335442642296382
 40
0.5386197815126542
 40
0.5471855932735464
 40
0.5586061339976068
 40
0.5700266381776046
 40
0.604517206333217
 40
0.6160572809979507
 40
0.6275972173477378
 40
0.6392950485814191
 40
0.6509925948921023
 40
0.6743840878709683
 40
0.6862190970129322
 40
0.6921368400547921
 40
0.7098886856219422
 40
0.7336825921524744
 40
0.7456440607462177
 40
0.769564088363532
 40
0.7936879088045203
 40
0.8057507484378647
 40
0.8259207528511946
 40
0.85024405383642
 40
0.8583858314074524
 40
0.87466839444121
 40
0.8989053368886428
 40
0.9150026614454256
 40
0.9389873826560107
 40
0.9589555201748872
 40
0.9709291158658658
 40
0.985465134724646
 40
1.0
 40
1.0
 40
1.0
 40
1.0
 10
147.6839299401862
 20
108.4852646851515
 30
0.0
 10
147.7074566039637
 20
107.6780555540111
 30
0.0
 10
147.7444970898299
 20
106.4071818468075
 30
0.0
 10
147.7877421003938
 20
104.9824270424921
 30
0.0
 10
147.8161967895248
 20
104.0564660396255
 30
0.0
 10
147.8401308440696
 20
103.2859251761731
 30
0.0
 10
147.8691847917721
 20
102.3619135377593
 30
0.0
 10
147.903396727916
 20
101.2875951926856
 30
0.0
 10
147.9381049659557
 20
100.2189791226998
 30
0.0
 10
147.9686577337189
 20
99.3068564062714
 30
0.0
 10
148.0048113134355
 20
98.24931790563966
 30
0.0
 10
148.0391326292013
 20
97.27919147040697
 30
0.0
 10
148.0740893664354
 20
96.35329774066791
 30
0.0
 10
148.0991856162634
 20
95.70962299095768
 30
0.0
 10
148.123253469716
 20
95.11976161690468
 30
0.0
 10
148.1464337688818
 20
94.58352268245586
 30
0.0
 10
148.1591992594839
 20
94.29722894139393
 30
0.0
 10
148.1748593532693
 20
93.95649367833879
 30
0.0
 10
148.1929919849588
 20
93.59761571681732
 30
0.0
 10
148.2141019094174
 20
93.23878640426499
 30
0.0
 10
148.2301469390017
 20
92.98763635429337
 30
0.0
 10
148.2457510184759
 20
92.77244697840652
 30
0.0
 10
148.2631669133863
 20
92.55957488079179
 30
0.0
 10
148.2788290305421
 20
92.38483383710485
 30
0.0
 10
148.2965484132233
 20
92.2113759647364
 30
0.0
 10
148.3161434917463
 20
92.0380977544701
 30
0.0
 10
148.342080513571
 20
91.83042059611553
 30
0.0
 10
148.3726273155313
 20
91.62331004512882
 30
0.0
 10
148.4072396297736
 20
91.41677736334051
 30
0.0
 10
148.4448273888192
 20
91.2106458096092
 30
0.0
 10
148.4861936846944
 20
91.0120324937913
 30
0.0
 10
148.5344548428664
 20
90.800121181023
 30
0.0
 10
148.5877824497772
 20
90.58155409204146
 30
0.0
 10
148.668979596363
 20
90.28260883508456
 30
0.0
 10
148.7587529304548
 20
89.98558596375516
 30
0.0
 10
148.8382246872638
 20
89.74409215037662
 30
0.0
 10
148.8940250811791
 20
89.58387080785026
 30
0.0
 10
148.9610707119524
 20
89.3975239996983
 30
0.0
 10
149.0313526526268
 20
89.21210747056617
 30
0.0
 10
149.1054302641419
 20
89.02790318033028
 30
0.0
 10
149.170529630229
 20
88.87053953946621
 30
0.0
 10
149.2377487296853
 20
88.71390546538667
 30
0.0
 10
149.3076063157913
 20
88.55822302449432
 30
0.0
 10
149.3705353655573
 20
88.42157923412054
 30
0.0
 10
149.4576481260733
 20
88.23765550605155
 30
0.0
 10
149.6013176369591
 20
87.94940983257928
 30
0.0
 10
149.7923044559478
 20
87.5927493162494
 30
0.0
 10
150.1632669477443
 20
86.95188807472184
 30
0.0
 10
150.579168649539
 20
86.33052661824277
 30
0.0
 10
151.0364324734117
 20
85.73265534117853
 30
0.0
 10
151.3248021579524
 20
85.37914816992719
 30
0.0
 10
151.6263935117361
 20
85.03212858282903
 30
0.0
 10
152.0458411511417
 20
84.57865246556644
 30
0.0
 10
152.4891904606034
 20
84.14109058132628
 30
0.0
 10
152.8964279238483
 20
83.77368858112997
 30
0.0
 10
153.2556192587765
 20
83.46382289318697
 30
0.0
 10
153.7495598341815
 20
83.06260522761931
 30
0.0
 10
154.3322547631294
 20
82.63704628299053
 30
0.0
 10
155.0046206499497
 20
82.18910038836675
 30
0.0
 10
155.7026873845965
 20
81.76579751309056
 30
0.0
 10
156.4286898357935
 20
81.37975840254506
 30
0.0
 10
157.1260650001581
 20
81.04515806656075
 30
0.0
 10
157.840147335805
 20
80.73405855607078
 30
0.0
 10
158.5210348965398
 20
80.47639044514581
 30
0.0
 10
159.1612797699768
 20
80.26051388313215
 30
0.0
 10
159.807439437584
 20
80.0622790485221
 30
0.0
 10
160.5714420919462
 20
79.86551485645559
 30
0.0
 10
161.4504210667518
 20
79.6816360764724
 30
0.0
 10
162.2799910567869
 20
79.54709953005688
 30
0.0
 10
163.0589432313989
 20
79.46030415193744
 30
0.0
 10
163.7087575302235
 20
79.41141293054184
 30
0.0
 10
164.2839219468346
 20
79.38368361568617
 30
0.0
 10
164.6917735821041
 20
79.37993021993651
 30
0.0
 10
164.8956913076065
 20
79.37805359653231
 30
0.0
  0
LWPOLYLINE
  5
155
330
1F
100
AcDbEntity
  8
0
  6
Continuous
 62
     8
370
     0
100
AcDbPolyline
 90
        3
 70
   128
 43
0.0
 10
147.9606948919
 20
108.5282774088
 10
147.8222631044
 20
108.5068793414
 10
147.6838871962
 20
108.4853322623
  0
SPLINE
  5
156
330
1F
100
AcDbEntity
  8
0
  6
Continuous
 62
     8
370
     0
100
AcDbSpline
210
0.0
220
0.0
230
1.0
 70
     8
 71
     3
 72
     8
 73
     4
 74
     0
 42
0.00000001
 43
0.00000001
 12
1.0
 22
0.0
 32
0.0
 13
1.0
 23
0.0
 33
0.0
 40
0.0
 40
0.0
 40
0.0
 40
0.0
 40
1.0
 40
1.0
 40
1.0
 40
1.0
 10
164.8956879311012
 20
79.3780534165587
 30
0.0
 10
164.8956532770322
 20
79.32594367035816
 30
0.0
 10
164.8956179130405
 20
79.27155599989537
 30
0.0
 10
164.8955821542617
 20
79.21517009764469
 30
0.0
  0
LINE
  5
157
330
1F
100
AcDbEntity
  8
0
  6
Continuous
 62
     8
370
     0
100
AcDbLine
 10
188.9419950671
 20
287.0592703489
 30
0.0
 11
186.7706947154
 21
282.3743294371
 31
0.0
  0
SPLINE
  5
158
330
1F
100
AcDbEntity
  8
0
  6
Continuous
 62
     8
370
     0
100
AcDbSpline
210
0.0
220
0.0
230
1.0
 70
     8
 71
     3
 72
     9
 73
     5
 74
     0
 42
0.00000001
 43
0.00000001
 12
1.0
 22
0.0
 32
0.0
 13
1.0
 23
0.0
 33
0.0
 40
0.1933632574953296
 40
0.1933632574953296
 40
0.1933632574953296
 40
0.1933632574953296
 40
0.5
 40
1.0
 40
1.0
 40
1.0
 40
1.0
 10
144.7492293747438
 20
263.7727847912284
 30
0.0
 10
144.9051557553735
 20
246.8153592680293
 30
0.0
 10
145.4569770636416
 20
202.2085435835148
 30
0.0
 10
146.3835580104157
 20
157.6064665621297
 30
0.0
 10
147.1032487285254
 20
129.9621982534427
 30
0.0
  0
SPLINE
  5
159
330
1F
100
AcDbEntity
  8
0
  6
Continuous
 62
     8
370
     0
100
AcDbSpline
210
0.0
220
0.0
230
1.0
 70
     8
 71
     3
 72
    20
 73
    16
 74
     0
 42
0.00000001
 43
0.00000001
 12
1.0
 22
0.0
 32
0.0
 13
1.0
 23
0.0
 33
0.0
 40
0.0
 40
0.0
 40
0.0
 40
0.0
 40
0.069259497140061
 40
0.1397962467179858
 40
0.2116103253435065
 40
0.2847015934511696
 40
0.3590700034388612
 40
0.4347156452011308
 40
0.5116386187528906
 40
0.5898390346500497
 40
0.6693168068555418
 40
0.7500716735789553
 40
0.8321037424120487
 40
0.9154131391736936
 40
1.0
 40
1.0
 40
1.0
 40
1.0
 10
182.6879216554065
 20
129.9621982584215
 30
0.0
 10
182.7672914085143
 20
133.0510087969717
 30
0.0
 10
182.9274946159527
 20
139.2855923262032
 30
0.0
 10
183.1558890977285
 20
148.7232064655735
 30
0.0
 10
183.3776759157224
 20
158.3319201729977
 30
0.0
 10
183.5912099424948
 20
168.1117494596942
 30
0.0
 10
183.7961427869611
 20
178.0626817008007
 30
0.0
 10
183.9917580568619
 20
188.1847215443534
 30
0.0
 10
184.1774258073632
 20
198.4778773453081
 30
0.0
 10
184.3524878520475
 20
208.9421489453047
 30
0.0
 10
184.5162453335588
 20
219.5775184409828
 30
0.0
 10
184.6681357477988
 20
230.3839673639369
 30
0.0
 10
184.8071341320135
 20
241.361490056393
 30
0.0
 10
184.9339783004824
 20
252.5100838635199
 30
0.0
 10
185.0058456728928
 20
259.9995705609452
 30
0.0
 10
185.0420527659832
 20
263.7728063556962
 30
0.0
  0
LWPOLYLINE
  5
15A
330
1F
100
AcDbEntity
  8
0
  6
Continuous
 62
     8
370
     0
100
AcDbPolyline
 90
        9
 70
   128
 43
0.0
 10
164.895578848
 20
322.0709641842
 10
164.8955794389
 20
322.2645712463
 10
164.8955801076
 20
322.4380188999
 10
164.8955808452
 20
322.5889583496
 10
164.8955816417
 20
322.7153444109
 10
164.8955824863
 20
322.815465313
 10
164.8955833676
 20
322.8879669127
 10
164.8955842735
 20
322.9318620083
 10
164.8955851919
 20
322.9465620038
  0
SPLINE
  5
15B
330
1F
100
AcDbEntity
  8
0
  6
Continuous
 62
     8
370
     0
100
AcDbSpline
210
0.0
220
0.0
230
1.0
 70
     8
 71
     3
 72
    16
 73
    12
 74
     0
 42
0.00000001
 43
0.00000001
 12
1.0
 22
0.0
 32
0.0
 13
1.0
 23
0.0
 33
0.0
 40
0.0
 40
0.0
 40
0.0
 40
0.0
 40
0.1719415335689614
 40
0.3139860829466578
 40
0.4310914087453663
 40
0.5282639698104359
 40
0.610540843699018
 40
0.682924468591497
 40
0.7882743485331839
 40
0.8988789842683064
 40
1.0
 40
1.0
 40
1.0
 40
1.0
 10
144.7491184002714
 20
263.7728066561181
 30
0.0
 10
144.7283056050112
 20
265.1785036917298
 30
0.0
 10
144.6902989179517
 20
267.7454768765096
 30
0.0
 10
144.5152057601477
 20
271.2942482281383
 30
0.0
 10
144.2592351455232
 20
274.2450053235571
 30
0.0
 10
143.9212023234557
 20
276.7149809331835
 30
0.0
 10
143.5054888026307
 20
278.8190024306509
 30
0.0
 10
142.9324819199105
 20
280.9881611813348
 30
0.0
 10
142.1172873950359
 20
283.3744475034185
 30
0.0
 10
141.1258042070444
 20
285.9796011401137
 30
0.0
 10
140.5592671319296
 20
287.7341542976976
 30
0.0
 10
140.2886867648916
 20
288.5721358848173
 30
0.0
  0
SPLINE
  5
15C
330
1F
100
AcDbEntity
  8
0
  6
Continuous
 62
     8
370
     0
100
AcDbSpline
210
0.0
220
0.0
230
1.0
 70
     8
 71
     3
 72
    29
 73
    25
 74
     0
 42
0.00000001
 43
0.00000001
 12
1.0
 22
0.0
 32
0.0
 13
1.0
 23
0.0
 33
0.0
 40
0.0
 40
0.0
 40
0.0
 40
0.0
 40
0.0411994358189728
 40
0.0822308400756173
 40
0.1231046804218898
 40
0.1637734136496292
 40
0.2042119674800697
 40
0.2443483970299028
 40
0.2841205313305227
 40
0.3234591002528193
 40
0.3623024461069407
 40
0.4006029748353442
 40
0.43831565731054
 40
0.4754419594800587
 40
0.5119621166145036
 40
0.547841313612662
 40
0.5830612656564189
 40
0.6176296361091136
 40
0.6934677949053273
 40
0.7673453374528934
 40
0.8406496872382986
 40
0.9142305364002591
 40
0.988945430616019
 40
1.0
 40
1.0
 40
1.0
 40
1.0
 10
185.0421429634092
 20
263.7727361768727
 30
0.0
 10
185.045809620709
 20
264.119960049749
 30
0.0
 10
185.0531279808768
 20
264.8129916457733
 30
0.0
 10
185.0715627436211
 20
265.852130502277
 30
0.0
 10
185.0955824445676
 20
266.8878629391708
 30
0.0
 10
185.1275760794126
 20
267.9203194910059
 30
0.0
 10
185.1670022915969
 20
268.9478986582308
 30
0.0
 10
185.2156273896884
 20
269.9696636390627
 30
0.0
 10
185.2740509826047
 20
270.9838334251692
 30
0.0
 10
185.3435724745177
 20
271.9888985620579
 30
0.0
 10
185.4255089944711
 20
272.9833878113621
 30
0.0
 10
185.5210084966224
 20
273.9659052146723
 30
0.0
 10
185.6324994600069
 20
274.9358146999405
 30
0.0
 10
185.7611431186772
 20
275.8922317277654
 30
0.0
 10
185.9089580815129
 20
276.8344395186396
 30
0.0
 10
186.0778020246583
 20
277.7613366527708
 30
0.0
 10
186.2691845603474
 20
278.6718500279192
 30
0.0
 10
186.5703040358833
 20
279.9260256156577
 30
0.0
 10
187.0317973094374
 20
281.509385106088
 30
0.0
 10
187.6974943176088
 20
283.410336483395
 30
0.0
 10
188.3934964702316
 20
285.2848096690885
 30
0.0
 10
189.0660602767385
 20
287.1708425683336
 30
0.0
 10
189.5103384308807
 20
288.5328439704948
 30
0.0
 10
189.7357412358806
 20
289.267415473694
 30
0.0
 10
189.7647927285988
 20
289.3620921955574
 30
0.0
  0
ENDSEC
  0
SECTION
  2
OBJECTS
  0
DICTIONARY
  5
C
330
0
100
AcDbDictionary
281
     1
  3
ACAD_GROUP
350
D
  3
ACAD_LAYOUT
350
1A
  3
ACAD_MATERIAL
350
3B
  3
ACAD_MLEADERSTYLE
350
15E
  3
ACAD_MLINESTYLE
350
17
  3
ACAD_PLOTSETTINGS
350
19
  3
ACAD_PLOTSTYLENAME
350
E
  3
ACAD_TABLESTYLE
350
15D
  3
ACAD_VISUALSTYLE
350
2A
  0
DICTIONARY
  5
D
102
{ACAD_REACTORS
330
C
102
}
330
C
100
AcDbDictionary
281
     1
  0
DICTIONARY
  5
1A
102
{ACAD_REACTORS
330
C
102
}
330
C
100
AcDbDictionary
281
     1
  3
Layout1
350
1E
  3
Layout2
350
26
  3
Model
350
22
  0
DICTIONARY
  5
3B
102
{ACAD_REACTORS
330
C
102
}
330
C
100
AcDbDictionary
281
     1
  3
ByBlock
350
3D
  3
ByLayer
350
3C
  3
Global
350
3E
  0
DICTIONARY
  5
15E
102
{ACAD_REACTORS
330
C
102
}
330
C
100
AcDbDictionary
281
     1
  0
DICTIONARY
  5
17
102
{ACAD_REACTORS
330
C
102
}
330
C
100
AcDbDictionary
281
     1
  3
Standard
350
18
  0
DICTIONARY
  5
19
102
{ACAD_REACTORS
330
C
102
}
330
C
100
AcDbDictionary
281
     1
  0
ACDBDICTIONARYWDFLT
  5
E
102
{ACAD_REACTORS
330
C
102
}
330
C
100
AcDbDictionary
281
     1
  3
Normal
350
F
100
AcDbDictionaryWithDefault
340
F
  0
DICTIONARY
  5
15D
102
{ACAD_REACTORS
330
C
102
}
330
C
100
AcDbDictionary
281
     1
  0
DICTIONARY
  5
2A
102
{ACAD_REACTORS
330
C
102
}
330
C
100
AcDbDictionary
281
     1
  3
2dWireframe
350
2F
  3
3D Hidden
350
31
  3
3dWireframe
350
30
  3
Basic
350
32
  3
Brighten
350
36
  3
ColorChange
350
3A
  3
Conceptual
350
34
  3
Dim
350
35
  3
Facepattern
350
39
  3
Flat
350
2B
  3
FlatWithEdges
350
2C
  3
Gouraud
350
2D
  3
GouraudWithEdges
350
2E
  3
Linepattern
350
38
  3
Realistic
350
33
  3
Thicken
350
37
  0
LAYOUT
  5
1E
102
{ACAD_REACTORS
330
1A
102
}
330
1A
100
AcDbPlotSettings
  1

  2
none_device
  4

  6

 40
0.0
 41
0.0
 42
0.0
 43
0.0
 44
0.0
 45
0.0
 46
0.0
 47
0.0
 48
0.0
 49
0.0
140
0.0
141
0.0
142
1.0
143
1.0
 70
   688
 72
     0
 73
     0
 74
     5
  7

 75
    16
 76
     0
 77
     2
 78
   300
147
1.0
148
0.0
149
0.0
100
AcDbLayout
  1
Layout1
 70
     1
 71
     1
 10
0.0
 20
0.0
 11
420.0
 21
297.0
 12
0.0
 22
0.0
 32
0.0
 14
1.0000000000E+20
 24
1.0000000000E+20
 34
1.0000000000E+20
 15
-1.0000000000E+20
 25
-1.0000000000E+20
 35
-1.0000000000E+20
146
0.0
 13
0.0
 23
0.0
 33
0.0
 16
1.0
 26
0.0
 36
0.0
 17
0.0
 27
1.0
 37
0.0
 76
     0
330
1B
  0
LAYOUT
  5
26
102
{ACAD_REACTORS
330
1A
102
}
330
1A
100
AcDbPlotSettings
  1

  2
none_device
  4

  6

 40
0.0
 41
0.0
 42
0.0
 43
0.0
 44
0.0
 45
0.0
 46
0.0
 47
0.0
 48
0.0
 49
0.0
140
0.0
141
0.0
142
1.0
143
1.0
 70
   688
 72
     0
 73
     0
 74
     5
  7

 75
    16
 76
     0
 77
     2
 78
   300
147
1.0
148
0.0
149
0.0
100
AcDbLayout
  1
Layout2
 70
     1
 71
     2
 10
0.0
 20
0.0
 11
0.0
 21
0.0
 12
0.0
 22
0.0
 32
0.0
 14
0.0
 24
0.0
 34
0.0
 15
0.0
 25
0.0
 35
0.0
146
0.0
 13
0.0
 23
0.0
 33
0.0
 16
1.0
 26
0.0
 36
0.0
 17
0.0
 27
1.0
 37
0.0
 76
     0
330
23
  0
LAYOUT
  5
22
102
{ACAD_REACTORS
330
1A
102
}
330
1A
100
AcDbPlotSettings
  1

  2
none_device
  4

  6

 40
0.0
 41
0.0
 42
0.0
 43
0.0
 44
0.0
 45
0.0
 46
0.0
 47
0.0
 48
0.0
 49
0.0
140
0.0
141
0.0
142
1.0
143
1.0
 70
  1712
 72
     0
 73
     0
 74
     0
  7

 75
     0
 76
     0
 77
     2
 78
   300
147
1.0
148
0.0
149
0.0
100
AcDbLayout
  1
Model
 70
     1
 71
     0
 10
0.0
 20
0.0
 11
594.0
 21
841.0
 12
0.0
 22
0.0
 32
0.0
 14
0.0
 24
0.0
 34
0.0
 15
594.0
 25
841.0
 35
0.0
146
0.0
 13
0.0
 23
0.0
 33
0.0
 16
1.0
 26
0.0
 36
0.0
 17
0.0
 27
1.0
 37
0.0
 76
     0
330
1F
331
29
  0
MATERIAL
  5
3D
102
{ACAD_REACTORS
330
3B
102
}
330
3B
100
AcDbMaterial
  1
ByBlock
 72
     1
 94
      127
  0
MATERIAL
  5
3C
102
{ACAD_REACTORS
330
3B
102
}
330
3B
100
AcDbMaterial
  1
ByLayer
 72
     1
 94
      127
  0
MATERIAL
  5
3E
102
{ACAD_REACTORS
330
3B
102
}
330
3B
100
AcDbMaterial
  1
Global
 72
     1
 94
      127
  0
MLINESTYLE
  5
18
102
{ACAD_REACTORS
330
17
102
}
330
17
100
AcDbMlineStyle
  2
Standard
 70
     0
  3

 62
   256
 51
90.0
 52
90.0
 71
     2
 49
0.5
 62
   256
  6
BYLAYER
 49
-0.5
 62
   256
  6
BYLAYER
  0
ACDBPLACEHOLDER
  5
F
102
{ACAD_REACTORS
330
E
102
}
330
E
  0
VISUALSTYLE
  5
2F
102
{ACAD_REACTORS
330
2A
102
}
330
2A
100
AcDbVisualStyle
  2
2dWireframe
 70
     4
177
     2
291
     0
 71
     0
176
     1
 72
     2
176
     1
 73
     0
176
     1
 90
        0
176
     1
 40
-0.6
176
     1
 41
-30.0
176
     1
 62
     5
 63
     7
421
 16777215
176
     1
 74
     1
176
     1
 91
        4
176
     1
 64
     7
176
     1
 65
   257
176
     1
 75
     1
176
     1
175
     1
176
     1
 42
1.0
176
     1
 92
        0
176
     1
 66
   257
176
     1
 43
1.0
176
     1
 76
     1
176
     1
 77
     6
176
     1
 78
     2
176
     1
 67
     7
176
     1
 79
     5
176
     1
170
     0
176
     1
171
     0
176
     1
290
     0
176
     1
 93
        1
176
     1
 44
0.0
176
     1
173
     0
176
     1
  0
VISUALSTYLE
  5
31
102
{ACAD_REACTORS
330
2A
102
}
330
2A
100
AcDbVisualStyle
  2
3D Hidden
 70
     6
177
     2
291
     0
 71
     1
176
     1
 72
     2
176
     1
 73
     2
176
     1
 90
        0
176
     1
 40
-0.6
176
     1
 41
-30.0
176
     1
 62
     5
 63
     7
421
 16777215
176
     1
 74
     2
176
     1
 91
        2
176
     1
 64
     7
176
     1
 65
   257
176
     1
 75
     2
176
     1
175
     1
176
     1
 42
40.0
176
     1
 92
        0
176
     1
 66
   257
176
     1
 43
1.0
176
     1
 76
     1
176
     1
 77
     6
176
     1
 78
     2
176
     1
 67
     7
176
     1
 79
     3
176
     1
170
     0
176
     1
171
     0
176
     1
290
     0
176
     1
 93
        1
176
     1
 44
0.0
176
     1
173
     0
176
     1
  0
VISUALSTYLE
  5
30
102
{ACAD_REACTORS
330
2A
102
}
330
2A
100
AcDbVisualStyle
  2
3dWireframe
 70
     5
177
     2
291
     0
 71
     0
176
     1
 72
     2
176
     1
 73
     0
176
     1
 90
        0
176
     1
 40
-0.6
176
     1
 41
-30.0
176
     1
 62
     5
 63
     7
421
 16777215
176
     1
 74
     1
176
     1
 91
        4
176
     1
 64
     7
176
     1
 65
   257
176
     1
 75
     1
176
     1
175
     1
176
     1
 42
1.0
176
     1
 92
        0
176
     1
 66
   257
176
     1
 43
1.0
176
     1
 76
     1
176
     1
 77
     6
176
     1
 78
     2
176
     1
 67
     7
176
     1
 79
     5
176
     1
170
     0
176
     1
171
     0
176
     1
290
     0
176
     1
 93
        1
176
     1
 44
0.0
176
     1
173
     0
176
     1
  0
VISUALSTYLE
  5
32
102
{ACAD_REACTORS
330
2A
102
}
330
2A
100
AcDbVisualStyle
  2
Basic
 70
     7
177
     2
291
     1
 71
     1
176
     1
 72
     0
176
     1
 73
     1
176
     1
 90
        0
176
     1
 40
-0.6
176
     1
 41
-30.0
176
     1
 62
     5
 63
     7
421
 16777215
176
     1
 74
     0
176
     1
 91
        4
176
     1
 64
     7
176
     1
 65
   257
176
     1
 75
     1
176
     1
175
     1
176
     1
 42
1.0
176
     1
 92
        8
176
     1
 66
     7
176
     1
 43
1.0
176
     1
 76
     1
176
     1
 77
     6
176
     1
 78
     2
176
     1
 67
     7
176
     1
 79
     5
176
     1
170
     0
176
     1
171
     0
176
     1
290
     0
176
     1
 93
        1
176
     1
 44
0.0
176
     1
173
     0
176
     1
  0
VISUALSTYLE
  5
36
102
{ACAD_REACTORS
330
2A
102
}
330
2A
100
AcDbVisualStyle
  2
Brighten
 70
    12
177
     2
291
     1
 71
     2
176
     1
 72
     2
176
     1
 73
     0
176
     1
 90
        0
176
     1
 40
-0.6
176
     1
 41
-30.0
176
     1
 62
     5
 63
     7
421
 16777215
176
     1
 74
     1
176
     1
 91
        4
176
     1
 64
     7
176
     1
 65
   257
176
     1
 75
     1
176
     1
175
     1
176
     1
 42
1.0
176
     1
 92
        8
176
     1
 66
     7
176
     1
 43
1.0
176
     1
 76
     1
176
     1
 77
     6
176
     1
 78
     2
176
     1
 67
     7
176
     1
 79
     5
176
     1
170
     0
176
     1
171
     0
176
     1
290
     0
176
     1
 93
        1
176
     1
 44
50.0
176
     1
173
     0
176
     1
  0
VISUALSTYLE
  5
3A
102
{ACAD_REACTORS
330
2A
102
}
330
2A
100
AcDbVisualStyle
  2
ColorChange
 70
    16
177
     2
291
     1
 71
     2
176
     1
 72
     2
176
     1
 73
     3
176
     1
 90
        0
176
     1
 40
-0.6
176
     1
 41
-30.0
176
     1
 62
     5
 63
     8
421
  8421504
176
     1
 74
     1
176
     1
 91
        4
176
     1
 64
     7
176
     1
 65
   257
176
     1
 75
     1
176
     1
175
     1
176
     1
 42
1.0
176
     1
 92
        8
176
     1
 66
     8
424
  8421504
176
     1
 43
1.0
176
     1
 76
     1
176
     1
 77
     6
176
     1
 78
     2
176
     1
 67
     7
176
     1
 79
     5
176
     1
170
     0
176
     1
171
     0
176
     1
290
     0
176
     1
 93
        1
176
     1
 44
0.0
176
     1
173
     0
176
     1
  0
VISUALSTYLE
  5
34
102
{ACAD_REACTORS
330
2A
102
}
330
2A
100
AcDbVisualStyle
  2
Conceptual
 70
     9
177
     2
291
     0
 71
     3
176
     1
 72
     2
176
     1
 73
     0
176
     1
 90
        0
176
     1
 40
-0.6
176
     1
 41
-30.0
176
     1
 62
     5
 63
     7
421
 16777215
176
     1
 74
     2
176
     1
 91
        2
176
     1
 64
     7
176
     1
 65
   257
176
     1
 75
     1
176
     1
175
     1
176
     1
 42
40.0
176
     1
 92
        8
176
     1
 66
     7
176
     1
 43
1.0
176
     1
 76
     1
176
     1
 77
     6
176
     1
 78
     2
176
     1
 67
     7
176
     1
 79
     3
176
     1
170
     0
176
     1
171
     0
176
     1
290
     0
176
     1
 93
        1
176
     1
 44
0.0
176
     1
173
     0
176
     1
  0
VISUALSTYLE
  5
35
102
{ACAD_REACTORS
330
2A
102
}
330
2A
100
AcDbVisualStyle
  2
Dim
 70
    11
177
     2
291
     1
 71
     2
176
     1
 72
     2
176
     1
 73
     0
176
     1
 90
        0
176
     1
 40
-0.6
176
     1
 41
-30.0
176
     1
 62
     5
 63
     7
421
 16777215
176
     1
 74
     1
176
     1
 91
        4
176
     1
 64
     7
176
     1
 65
   257
176
     1
 75
     1
176
     1
175
     1
176
     1
 42
1.0
176
     1
 92
        8
176
     1
 66
     7
176
     1
 43
1.0
176
     1
 76
     1
176
     1
 77
     6
176
     1
 78
     2
176
     1
 67
     7
176
     1
 79
     5
176
     1
170
     0
176
     1
171
     0
176
     1
290
     0
176
     1
 93
        1
176
     1
 44
-50.0
176
     1
173
     0
176
     1
  0
VISUALSTYLE
  5
39
102
{ACAD_REACTORS
330
2A
102
}
330
2A
100
AcDbVisualStyle
  2
Facepattern
 70
    15
177
     2
291
     1
 71
     2
176
     1
 72
     2
176
     1
 73
     0
176
     1
 90
        0
176
     1
 40
-0.6
176
     1
 41
-30.0
176
     1
 62
     5
 63
     7
421
 16777215
176
     1
 74
     1
176
     1
 91
        4
176
     1
 64
     7
176
     1
 65
   257
176
     1
 75
     1
176
     1
175
     1
176
     1
 42
1.0
176
     1
 92
        8
176
     1
 66
     7
176
     1
 43
1.0
176
     1
 76
     1
176
     1
 77
     6
176
     1
 78
     2
176
     1
 67
     7
176
     1
 79
     5
176
     1
170
     0
176
     1
171
     0
176
     1
290
     0
176
     1
 93
        1
176
     1
 44
0.0
176
     1
173
     0
176
     1
  0
VISUALSTYLE
  5
2B
102
{ACAD_REACTORS
330
2A
102
}
330
2A
100
AcDbVisualStyle
  2
Flat
 70
     0
177
     2
291
     1
 71
     2
176
     1
 72
     1
176
     1
 73
     1
176
     1
 90
        2
176
     1
 40
-0.6
176
     1
 41
30.0
176
     1
 62
     5
 63
     7
421
 16777215
176
     1
 74
     0
176
     1
 91
        4
176
     1
 64
     7
176
     1
 65
   257
176
     1
 75
     1
176
     1
175
     1
176
     1
 42
1.0
176
     1
 92
        8
176
     1
 66
     7
176
     1
 43
1.0
176
     1
 76
     1
176
     1
 77
     6
176
     1
 78
     2
176
     1
 67
     7
176
     1
 79
     5
176
     1
170
     0
176
     1
171
     0
176
     1
290
     0
176
     1
 93
       13
176
     1
 44
0.0
176
     1
173
     0
176
     1
  0
VISUALSTYLE
  5
2C
102
{ACAD_REACTORS
330
2A
102
}
330
2A
100
AcDbVisualStyle
  2
FlatWithEdges
 70
     1
177
     2
291
     1
 71
     2
176
     1
 72
     1
176
     1
 73
     1
176
     1
 90
        2
176
     1
 40
-0.6
176
     1
 41
30.0
176
     1
 62
     5
 63
     7
421
 16777215
176
     1
 74
     1
176
     1
 91
        4
176
     1
 64
     7
176
     1
 65
   257
176
     1
 75
     1
176
     1
175
     1
176
     1
 42
1.0
176
     1
 92
        0
176
     1
 66
   257
176
     1
 43
1.0
176
     1
 76
     1
176
     1
 77
     6
176
     1
 78
     2
176
     1
 67
     7
176
     1
 79
     5
176
     1
170
     0
176
     1
171
     0
176
     1
290
     0
176
     1
 93
       13
176
     1
 44
0.0
176
     1
173
     0
176
     1
  0
VISUALSTYLE
  5
2D
102
{ACAD_REACTORS
330
2A
102
}
330
2A
100
AcDbVisualStyle
  2
Gouraud
 70
     2
177
     2
291
     1
 71
     2
176
     1
 72
     2
176
     1
 73
     1
176
     1
 90
        2
176
     1
 40
-0.6
176
     1
 41
30.0
176
     1
 62
     5
 63
     7
421
 16777215
176
     1
 74
     0
176
     1
 91
        4
176
     1
 64
     7
176
     1
 65
   257
176
     1
 75
     1
176
     1
175
     1
176
     1
 42
1.0
176
     1
 92
        0
176
     1
 66
     7
176
     1
 43
1.0
176
     1
 76
     1
176
     1
 77
     6
176
     1
 78
     2
176
     1
 67
     7
176
     1
 79
     5
176
     1
170
     0
176
     1
171
     0
176
     1
290
     0
176
     1
 93
       13
176
     1
 44
0.0
176
     1
173
     0
176
     1
  0
VISUALSTYLE
  5
2E
102
{ACAD_REACTORS
330
2A
102
}
330
2A
100
AcDbVisualStyle
  2
GouraudWithEdges
 70
     3
177
     2
291
     1
 71
     2
176
     1
 72
     2
176
     1
 73
     1
176
     1
 90
        2
176
     1
 40
-0.6
176
     1
 41
30.0
176
     1
 62
     5
 63
     7
421
 16777215
176
     1
 74
     1
176
     1
 91
        4
176
     1
 64
     7
176
     1
 65
   257
176
     1
 75
     1
176
     1
175
     1
176
     1
 42
1.0
176
     1
 92
        0
176
     1
 66
   257
176
     1
 43
1.0
176
     1
 76
     1
176
     1
 77
     6
176
     1
 78
     2
176
     1
 67
     7
176
     1
 79
     5
176
     1
170
     0
176
     1
171
     0
176
     1
290
     0
176
     1
 93
       13
176
     1
 44
0.0
176
     1
173
     0
176
     1
  0
VISUALSTYLE
  5
38
102
{ACAD_REACTORS
330
2A
102
}
330
2A
100
AcDbVisualStyle
  2
Linepattern
 70
    14
177
     2
291
     1
 71
     2
176
     1
 72
     2
176
     1
 73
     0
176
     1
 90
        0
176
     1
 40
-0.6
176
     1
 41
-30.0
176
     1
 62
     5
 63
     7
421
 16777215
176
     1
 74
     1
176
     1
 91
        4
176
     1
 64
     7
176
     1
 65
   257
176
     1
 75
     7
176
     1
175
     7
176
     1
 42
1.0
176
     1
 92
        8
176
     1
 66
     7
176
     1
 43
1.0
176
     1
 76
     1
176
     1
 77
     6
176
     1
 78
     2
176
     1
 67
     7
176
     1
 79
     5
176
     1
170
     0
176
     1
171
     0
176
     1
290
     0
176
     1
 93
        1
176
     1
 44
0.0
176
     1
173
     0
176
     1
  0
VISUALSTYLE
  5
33
102
{ACAD_REACTORS
330
2A
102
}
330
2A
100
AcDbVisualStyle
  2
Realistic
 70
     8
177
     2
291
     0
 71
     2
176
     1
 72
     2
176
     1
 73
     0
176
     1
 90
        0
176
     1
 40
-0.6
176
     1
 41
-30.0
176
     1
 62
     5
 63
     7
421
 16777215
176
     1
 74
     1
176
     1
 91
        0
176
     1
 64
     7
176
     1
 65
   257
176
     1
 75
     1
176
     1
175
     1
176
     1
 42
1.0
176
     1
 92
        8
176
     1
 66
     8
424
  7895160
176
     1
 43
1.0
176
     1
 76
     1
176
     1
 77
     6
176
     1
 78
     2
176
     1
 67
     7
176
     1
 79
     5
176
     1
170
     0
176
     1
171
     0
176
     1
290
     0
176
     1
 93
       13
176
     1
 44
0.0
176
     1
173
     0
176
     1
  0
VISUALSTYLE
  5
37
102
{ACAD_REACTORS
330
2A
102
}
330
2A
100
AcDbVisualStyle
  2
Thicken
 70
    13
177
     2
291
     1
 71
     2
176
     1
 72
     2
176
     1
 73
     0
176
     1
 90
        0
176
     1
 40
-0.6
176
     1
 41
-30.0
176
     1
 62
     5
 63
     7
421
 16777215
176
     1
 74
     1
176
     1
 91
        4
176
     1
 64
     7
176
     1
 65
   257
176
     1
 75
     1
176
     1
175
     1
176
     1
 42
1.0
176
     1
 92
       12
176
     1
 66
     7
176
     1
 43
1.0
176
     1
 76
     1
176
     1
 77
     6
176
     1
 78
     2
176
     1
 67
     7
176
     1
 79
     5
176
     1
170
     0
176
     1
171
     0
176
     1
290
     0
176
     1
 93
        1
176
     1
 44
0.0
176
     1
173
     0
176
     1
  0
ENDSEC
  0
EOF
