  0
SECTION
  2
HEADER
  9
$ACADVER
  1
AC1015
  9
$ACADMAINTVER
 70
     6
  9
$DWGCODEPAGE
  3
ANSI_1252
  9
$INSBASE
 10
0.0
 20
0.0
 30
0.0
  9
$EXTMIN
 10
0.0
 20
0.0
 30
0.0
  9
$EXTMAX
 10
594.0
 20
841.0
 30
0.0
  9
$LIMMIN
 10
0.0
 20
0.0
  9
$LIMMAX
 10
594.0
 20
841.0
  9
$ORTHOMODE
 70
     0
  9
$REGENMODE
 70
     1
  9
$FILLMODE
 70
     1
  9
$QTEXTMODE
 70
     0
  9
$MIRRTEXT
 70
     1
  9
$LTSCALE
 40
1.0
  9
$ATTMODE
 70
     1
  9
$TEXTSIZE
 40
10.0
  9
$TRACEWID
 40
1.0
  9
$TEXTSTYLE
  7
Standard
  9
$CLAYER
  8
0
  9
$CELTYPE
  6
ByLayer
  9
$CECOLOR
 62
   256
  9
$CELTSCALE
 40
1.0
  9
$DISPSILH
 70
     0
  9
$DIMSCALE
 40
1.0
  9
$DIMASZ
 40
2.5
  9
$DIMEXO
 40
0.0
  9
$DIMDLI
 40
3.75
  9
$DIMRND
 40
0.0
  9
$DIMDLE
 40
0.0
  9
$DIMEXE
 40
1.0
  9
$DIMTP
 40
0.0
  9
$DIMTM
 40
0.0
  9
$DIMTXT
 40
3.5
  9
$DIMCEN
 40
2.5
  9
$DIMTSZ
 40
0.0
  9
$DIMTOL
 70
     0
  9
$DIMLIM
 70
     0
  9
$DIMTIH
 70
     1
  9
$DIMTOH
 70
     1
  9
$DIMSE1
 70
     0
  9
$DIMSE2
 70
     0
  9
$DIMTAD
 70
     1
  9
$DIMZIN
 70
     0
  9
$DIMBLK
  1

  9
$DIMASO
 70
     1
  9
$DIMSHO
 70
     1
  9
$DIMPOST
  1

  9
$DIMAPOST
  1

  9
$DIMALT
 70
     0
  9
$DIMALTD
 70
     3
  9
$DIMALTF
 40
0.0393700787
  9
$DIMLFAC
 40
1.0
  9
$DIMTOFL
 70
     1
  9
$DIMTVP
 40
0.0
  9
$DIMTIX
 70
     0
  9
$DIMSOXD
 70
     0
  9
$DIMSAH
 70
     0
  9
$DIMBLK1
  1

  9
$DIMBLK2
  1

  9
$DIMSTYLE
  2
ISO-25
  9
$DIMCLRD
 70
     0
  9
$DIMCLRE
 70
     0
  9
$DIMCLRT
 70
     0
  9
$DIMTFAC
 40
1.0
  9
$DIMGAP
 40
1.5
  9
$DIMJUST
 70
     0
  9
$DIMSD1
 70
     0
  9
$DIMSD2
 70
     0
  9
$DIMTOLJ
 70
     0
  9
$DIMTZIN
 70
     0
  9
$DIMALTZ
 70
     0
  9
$DIMALTTZ
 70
     0
  9
$DIMUPT
 70
     0
  9
$DIMDEC
 70
     2
  9
$DIMTDEC
 70
     2
  9
$DIMALTU
 70
     2
  9
$DIMALTTD
 70
     3
  9
$DIMTXSTY
  7
Standard
  9
$DIMAUNIT
 70
     0
  9
$DIMADEC
 70
     2
  9
$DIMALTRND
 40
0.0
  9
$DIMAZIN
 70
     0
  9
$DIMDSEP
 70
    44
  9
$DIMATFIT
 70
     3
  9
$DIMFRAC
 70
     0
  9
$DIMLDRBLK
  1

  9
$DIMLUNIT
 70
     2
  9
$DIMLWD
 70
    -2
  9
$DIMLWE
 70
    -2
  9
$DIMTMOVE
 70
     0
  9
$LUNITS
 70
     2
  9
$LUPREC
 70
     2
  9
$SKETCHINC
 40
1.0
  9
$FILLETRAD
 40
0.0
  9
$AUNITS
 70
     0
  9
$AUPREC
 70
     2
  9
$MENU
  1
.
  9
$ELEVATION
 40
0.0
  9
$PELEVATION
 40
0.0
  9
$THICKNESS
 40
0.0
  9
$LIMCHECK
 70
     0
  9
$CHAMFERA
 40
0.0
  9
$CHAMFERB
 40
0.0
  9
$CHAMFERC
 40
0.0
  9
$CHAMFERD
 40
0.0
  9
$SKPOLY
 70
     0
  9
$TDCREATE
 40
2460384.560604305
  9
$TDUCREATE
 40
2460384.518937639
  9
$TDUPDATE
 40
2460384.560605208
  9
$TDUUPDATE
 40
2460384.518938542
  9
$TDINDWG
 40
0.0000000116
  9
$TDUSRTIMER
 40
0.0000000116
  9
$USRTIMER
 70
     1
  9
$ANGBASE
 50
0.0
  9
$ANGDIR
 70
     0
  9
$PDMODE
 70
     0
  9
$PDSIZE
 40
-1.0
  9
$PLINEWID
 40
0.0
  9
$SPLFRAME
 70
     0
  9
$SPLINETYPE
 70
     6
  9
$SPLINESEGS
 70
     8
  9
$HANDSEED
  5
176
  9
$SURFTAB1
 70
     6
  9
$SURFTAB2
 70
     6
  9
$SURFTYPE
 70
     6
  9
$SURFU
 70
     6
  9
$SURFV
 70
     6
  9
$UCSBASE
  2

  9
$UCSNAME
  2

  9
$UCSORG
 10
0.0
 20
0.0
 30
0.0
  9
$UCSXDIR
 10
1.0
 20
0.0
 30
0.0
  9
$UCSYDIR
 10
0.0
 20
1.0
 30
0.0
  9
$UCSORTHOREF
  2

  9
$UCSORTHOVIEW
 70
     0
  9
$UCSORGTOP
 10
0.0
 20
0.0
 30
0.0
  9
$UCSORGBOTTOM
 10
0.0
 20
0.0
 30
0.0
  9
$UCSORGLEFT
 10
0.0
 20
0.0
 30
0.0
  9
$UCSORGRIGHT
 10
0.0
 20
0.0
 30
0.0
  9
$UCSORGFRONT
 10
0.0
 20
0.0
 30
0.0
  9
$UCSORGBACK
 10
0.0
 20
0.0
 30
0.0
  9
$PUCSBASE
  2

  9
$PUCSNAME
  2

  9
$PUCSORG
 10
0.0
 20
0.0
 30
0.0
  9
$PUCSXDIR
 10
1.0
 20
0.0
 30
0.0
  9
$PUCSYDIR
 10
0.0
 20
1.0
 30
0.0
  9
$PUCSORTHOREF
  2

  9
$PUCSORTHOVIEW
 70
     0
  9
$PUCSORGTOP
 10
0.0
 20
0.0
 30
0.0
  9
$PUCSORGBOTTOM
 10
0.0
 20
0.0
 30
0.0
  9
$PUCSORGLEFT
 10
0.0
 20
0.0
 30
0.0
  9
$PUCSORGRIGHT
 10
0.0
 20
0.0
 30
0.0
  9
$PUCSORGFRONT
 10
0.0
 20
0.0
 30
0.0
  9
$PUCSORGBACK
 10
0.0
 20
0.0
 30
0.0
  9
$USERI1
 70
     0
  9
$USERI2
 70
     0
  9
$USERI3
 70
     0
  9
$USERI4
 70
     0
  9
$USERI5
 70
     0
  9
$USERR1
 40
0.0
  9
$USERR2
 40
0.0
  9
$USERR3
 40
0.0
  9
$USERR4
 40
0.0
  9
$USERR5
 40
0.0
  9
$WORLDVIEW
 70
     1
  9
$SHADEDGE
 70
     3
  9
$SHADEDIF
 70
    70
  9
$TILEMODE
 70
     1
  9
$MAXACTVP
 70
    64
  9
$PINSBASE
 10
0.0
 20
0.0
 30
0.0
  9
$PLIMCHECK
 70
     0
  9
$PEXTMIN
 10
1.0000000000E+20
 20
1.0000000000E+20
 30
1.0000000000E+20
  9
$PEXTMAX
 10
-1.0000000000E+20
 20
-1.0000000000E+20
 30
-1.0000000000E+20
  9
$PLIMMIN
 10
0.0
 20
0.0
  9
$PLIMMAX
 10
420.0
 20
297.0
  9
$UNITMODE
 70
     0
  9
$VISRETAIN
 70
     1
  9
$PLINEGEN
 70
     0
  9
$PSLTSCALE
 70
     1
  9
$TREEDEPTH
 70
  3020
  9
$CMLSTYLE
  2
Standard
  9
$CMLJUST
 70
     0
  9
$CMLSCALE
 40
20.0
  9
$PROXYGRAPHICS
 70
     1
  9
$MEASUREMENT
 70
     1
  9
$CELWEIGHT
370
    -1
  9
$ENDCAPS
280
     0
  9
$JOINSTYLE
280
     0
  9
$LWDISPLAY
290
     1
  9
$INSUNITS
 70
     4
  9
$HYPERLINKBASE
  1

  9
$STYLESHEET
  1

  9
$XEDIT
290
     1
  9
$CEPSNTYPE
380
     0
  9
$PSTYLEMODE
290
     1
  9
$FINGERPRINTGUID
  2
{ea44aad3-4368-490c-968f-2e931868ab75}
  9
$VERSIONGUID
  2
{FAEB1C32-E019-11D5-929B-00C0DF256EC4}
  9
$EXTNAMES
290
     1
  9
$PSVPSCALE
 40
0.0
  9
$OLESTARTUP
290
     0
  0
ENDSEC
  0
SECTION
  2
CLASSES
  0
CLASS
  1
ACDBDICTIONARYWDFLT
  2
AcDbDictionaryWithDefault
  3
ObjectDBX Classes
 90
        0
280
     0
281
     0
  0
CLASS
  1
VISUALSTYLE
  2
AcDbVisualStyle
  3
ObjectDBX Classes
 90
     4095
280
     0
281
     0
  0
CLASS
  1
MATERIAL
  2
AcDbMaterial
  3
ObjectDBX Classes
 90
     1153
280
     0
281
     0
  0
CLASS
  1
SCALE
  2
AcDbScale
  3
ObjectDBX Classes
 90
     1153
280
     0
281
     0
  0
CLASS
  1
TABLESTYLE
  2
AcDbTableStyle
  3
ObjectDBX Classes
 90
     4095
280
     0
281
     0
  0
CLASS
  1
MLEADERSTYLE
  2
AcDbMLeaderStyle
  3
ACDB_MLEADERSTYLE_CLASS
 90
     4095
280
     0
281
     0
  0
CLASS
  1
SUN
  2
AcDbSun
  3
SCENEOE
 90
     1153
280
     0
281
     0
  0
CLASS
  1
ACDBPLACEHOLDER
  2
AcDbPlaceHolder
  3
ObjectDBX Classes
 90
        0
280
     0
281
     0
  0
CLASS
  1
LAYOUT
  2
AcDbLayout
  3
ObjectDBX Classes
 90
        0
280
     0
281
     0
  0
ENDSEC
  0
SECTION
  2
TABLES
  0
TABLE
  2
VPORT
  5
8
330
0
100
AcDbSymbolTable
 70
     1
  0
VPORT
  5
29
330
8
100
AcDbSymbolTableRecord
100
AcDbViewportTableRecord
  2
*Active
 70
     0
 10
0.0
 20
0.0
 11
1.0
 21
1.0
 12
297.0
 22
420.5
 13
0.0
 23
0.0
 14
10.0
 24
10.0
 15
10.0
 25
10.0
 16
0.0
 26
0.0
 36
1.0
 17
0.0
 27
0.0
 37
0.0
 40
841.0
 41
0.7063020214
 42
50.0
 43
0.0
 44
0.0
 50
0.0
 51
0.0
 71
     0
 72
  2000
 73
     1
 74
     3
 75
     0
 76
     0
 77
     0
 78
     0
281
     0
 65
     1
110
0.0
120
0.0
130
0.0
111
1.0
121
0.0
131
0.0
112
0.0
122
1.0
132
0.0
 79
     0
146
0.0
  0
ENDTAB
  0
TABLE
  2
LTYPE
  5
5
330
0
100
AcDbSymbolTable
 70
     6
  0
LTYPE
  5
14
330
5
100
AcDbSymbolTableRecord
100
AcDbLinetypeTableRecord
  2
ByBlock
 70
     0
  3

 72
    65
 73
     0
 40
0.0
  0
LTYPE
  5
15
330
5
100
AcDbSymbolTableRecord
100
AcDbLinetypeTableRecord
  2
ByLayer
 70
     0
  3

 72
    65
 73
     0
 40
0.0
  0
LTYPE
  5
16
330
5
100
AcDbSymbolTableRecord
100
AcDbLinetypeTableRecord
  2
Continuous
 70
     0
  3
Solid line
 72
    65
 73
     0
 40
0.0
  0
LTYPE
  5
5E
330
5
100
AcDbSymbolTableRecord
100
AcDbLinetypeTableRecord
  2
HIDDEN
 70
     0
  3
Hidden __ __ __ __ __ __ __ __ __ __ __ __ __ __
 72
    65
 73
     2
 40
1.905
 49
1.27
 74
     0
 49
-0.635
 74
     0
  0
LTYPE
  5
5F
330
5
100
AcDbSymbolTableRecord
100
AcDbLinetypeTableRecord
  2
PHANTOM
 70
     0
  3
Phantom ______  __  __  ______  __  __  ______
 72
    65
 73
     6
 40
12.7
 49
6.35
 74
     0
 49
-1.27
 74
     0
 49
1.27
 74
     0
 49
-1.27
 74
     0
 49
1.27
 74
     0
 49
-1.27
 74
     0
  0
LTYPE
  5
60
330
5
100
AcDbSymbolTableRecord
100
AcDbLinetypeTableRecord
  2
CENTER
 70
     0
  3
Center ____ _ ____ _ ____ _ ____ _ ____ _ ____
 72
    65
 73
     4
 40
10.16
 49
6.35
 74
     0
 49
-1.27
 74
     0
 49
1.27
 74
     0
 49
-1.27
 74
     0
  0
LTYPE
  5
61
330
5
100
AcDbSymbolTableRecord
100
AcDbLinetypeTableRecord
  2
CENTERX2
 70
     0
  3
Center (2x) ________  __  ________  __  _____
 72
    65
 73
     4
 40
20.32
 49
12.7
 74
     0
 49
-2.54
 74
     0
 49
2.54
 74
     0
 49
-2.54
 74
     0
  0
LTYPE
  5
62
330
5
100
AcDbSymbolTableRecord
100
AcDbLinetypeTableRecord
  2
DOT2
 70
     0
  3
Dot (.5x) ........................................
 72
    65
 73
     2
 40
0.635
 49
0.0
 74
     0
 49
-0.635
 74
     0
  0
ENDTAB
  0
TABLE
  2
LAYER
  5
2
330
0
100
AcDbSymbolTable
 70
     1
  0
LAYER
  5
10
330
2
100
AcDbSymbolTableRecord
100
AcDbLayerTableRecord
  2
0
 70
     0
 62
     7
  6
Continuous
370
    -3
390
F
  0
ENDTAB
  0
TABLE
  2
STYLE
  5
3
330
0
100
AcDbSymbolTable
 70
     3
  0
STYLE
  5
11
330
3
100
AcDbSymbolTableRecord
100
AcDbTextStyleTableRecord
  2
Standard
 70
     0
 40
0.0
 41
1.0
 50
0.0
 71
     0
 42
10.0
  3
txt
  4

  0
STYLE
  5
66
330
3
100
AcDbSymbolTableRecord
100
AcDbTextStyleTableRecord
  2
SLDTEXTSTYLE0
 70
     0
 40
0.0
 41
0.96
 50
0.0
 71
     0
 42
10.0
  3
ISOCP3
  4

  0
STYLE
  5
7D
330
3
100
AcDbSymbolTableRecord
100
AcDbTextStyleTableRecord
  2
SLDTEXTSTYLE1
 70
     0
 40
0.0
 41
0.605
 50
0.0
 71
     0
 42
10.0
  3
TXT
  4

  0
ENDTAB
  0
TABLE
  2
VIEW
  5
6
330
0
100
AcDbSymbolTable
 70
     0
  0
ENDTAB
  0
TABLE
  2
UCS
  5
7
330
0
100
AcDbSymbolTable
 70
     0
  0
ENDTAB
  0
TABLE
  2
APPID
  5
9
330
0
100
AcDbSymbolTable
 70
     1
  0
APPID
  5
12
330
9
100
AcDbSymbolTableRecord
100
AcDbRegAppTableRecord
  2
ACAD
 70
     0
  0
ENDTAB
  0
TABLE
  2
DIMSTYLE
  5
A
330
0
100
AcDbSymbolTable
 70
     2
100
AcDbDimStyleTable
  0
DIMSTYLE
105
27
330
A
100
AcDbSymbolTableRecord
100
AcDbDimStyleTableRecord
  2
ISO-25
 70
     0
 41
2.5
 42
0.625
 43
3.75
 44
1.25
 73
     0
 74
     0
 77
     1
 78
     8
140
2.5
141
2.5
143
0.0393700787
147
0.625
171
     3
172
     1
178
     0
271
     2
272
     2
274
     3
278
    44
283
     0
284
     8
340
11
  0
DIMSTYLE
105
67
102
{ACAD_REACTORS
330
65
330
72
102
}
330
A
100
AcDbSymbolTableRecord
100
AcDbDimStyleTableRecord
  2
SLDDIMSTYLE0
 70
     0
 41
2.5
 44
0.0
 45
0.000000001
 73
     0
 74
     0
 77
     1
 78
    12
 79
     3
140
6.0
147
1.5
173
     1
178
     0
271
     2
272
     2
276
     2
284
    12
340
66
  0
ENDTAB
  0
TABLE
  2
BLOCK_RECORD
  5
1
330
0
100
AcDbSymbolTable
 70
     3
  0
BLOCK_RECORD
  5
1F
330
1
100
AcDbSymbolTableRecord
100
AcDbBlockTableRecord
  2
*Model_Space
340
22
  0
BLOCK_RECORD
  5
1B
330
1
100
AcDbSymbolTableRecord
100
AcDbBlockTableRecord
  2
*Paper_Space
340
1E
  0
BLOCK_RECORD
  5
23
330
1
100
AcDbSymbolTableRecord
100
AcDbBlockTableRecord
  2
*Paper_Space0
340
26
  0
BLOCK_RECORD
  5
68
330
1
100
AcDbSymbolTableRecord
100
AcDbBlockTableRecord
  2
_D
340
0
  0
BLOCK_RECORD
  5
73
330
1
100
AcDbSymbolTableRecord
100
AcDbBlockTableRecord
  2
_D_1
340
0
  0
ENDTAB
  0
ENDSEC
  0
SECTION
  2
BLOCKS
  0
BLOCK
  5
20
330
1F
100
AcDbEntity
  8
0
100
AcDbBlockBegin
  2
*Model_Space
 70
     0
 10
0.0
 20
0.0
 30
0.0
  3
*Model_Space
  1

  0
ENDBLK
  5
21
330
1F
100
AcDbEntity
  8
0
100
AcDbBlockEnd
  0
BLOCK
  5
1C
330
1B
100
AcDbEntity
 67
     1
  8
0
100
AcDbBlockBegin
  2
*Paper_Space
 70
     0
 10
0.0
 20
0.0
 30
0.0
  3
*Paper_Space
  1

  0
ENDBLK
  5
1D
330
1B
100
AcDbEntity
 67
     1
  8
0
100
AcDbBlockEnd
  0
BLOCK
  5
24
330
23
100
AcDbEntity
  8
0
100
AcDbBlockBegin
  2
*Paper_Space0
 70
     0
 10
0.0
 20
0.0
 30
0.0
  3
*Paper_Space0
  1

  0
ENDBLK
  5
25
330
23
100
AcDbEntity
  8
0
100
AcDbBlockEnd
  0
BLOCK
  5
69
330
68
100
AcDbEntity
  8
0
100
AcDbBlockBegin
  2
_D
 70
     0
 10
0.0
 20
0.0
 30
0.0
  3
_D
  1

  0
SOLID
  5
6B
330
68
100
AcDbEntity
  8
0
  6
Continuous
 62
     7
370
    18
100
AcDbTrace
 10
42.7614395004
 20
152.0299240879
 30
0.0
 11
42.4614395004
 21
149.5299240879
 31
0.0
 12
43.0614395004
 22
149.5299240879
 32
0.0
 13
43.0614395004
 23
149.5299240879
 33
0.0
  0
SOLID
  5
6C
330
68
100
AcDbEntity
  8
0
  6
Continuous
 62
     7
370
    18
100
AcDbTrace
 10
42.7614395004
 20
52.0299240879
 30
0.0
 11
43.0614395004
 21
54.5299240879
 31
0.0
 12
42.4614395004
 22
54.5299240879
 32
0.0
 13
42.4614395004
 23
54.5299240879
 33
0.0
  0
LINE
  5
6D
330
68
100
AcDbEntity
  8
0
  6
Continuous
 62
     7
370
     0
100
AcDbLine
 10
56.6850079902
 20
152.0299240879
 30
0.0
 11
41.7614395004
 21
152.0299240879
 31
0.0
  0
LINE
  5
6E
330
68
100
AcDbEntity
  8
0
  6
Continuous
 62
     7
370
     0
100
AcDbLine
 10
56.6850079902
 20
52.0299240879
 30
0.0
 11
41.7614395004
 21
52.0299240879
 31
0.0
  0
LINE
  5
6F
330
68
100
AcDbEntity
  8
0
  6
Continuous
 62
     7
370
     0
100
AcDbLine
 10
42.7614395004
 20
152.0299240879
 30
0.0
 11
42.7614395004
 21
52.0299240879
 31
0.0
  0
MTEXT
  5
70
330
68
100
AcDbEntity
  8
0
  6
Continuous
 62
     7
370
    18
100
AcDbMText
 10
35.0270332946
 20
94.3680541463
 30
0.0
 40
6.0
 41
0.0
 71
     1
 72
     1
  1
100
  7
SLDTEXTSTYLE0
 11
-7.044195017643634E-15
 21
1.0
 31
0.0
 73
     1
 44
1.0
  0
MTEXT
  5
71
330
68
100
AcDbEntity
  8
0
  6
Continuous
 62
     7
370
    18
100
AcDbMText
 10
35.0270332946
 20
105.7430548466
 30
0.0
 40
6.0
 41
0.0
 71
     1
 72
     1
  1
mm
  7
SLDTEXTSTYLE0
 11
-7.044195017643634E-15
 21
1.0
 31
0.0
 73
     1
 44
1.0
  0
ENDBLK
  5
6A
330
68
100
AcDbEntity
  8
0
100
AcDbBlockEnd
  0
BLOCK
  5
74
330
73
100
AcDbEntity
  8
0
100
AcDbBlockBegin
  2
_D_1
 70
     0
 10
0.0
 20
0.0
 30
0.0
  3
_D_1
  1

  0
SOLID
  5
76
330
73
100
AcDbEntity
  8
0
  6
Continuous
 62
     7
370
    18
100
AcDbTrace
 10
56.6850079902
 20
38.4602342313
 30
0.0
 11
59.1850079902
 21
38.1602342313
 31
0.0
 12
59.1850079902
 22
38.7602342313
 32
0.0
 13
59.1850079902
 23
38.7602342313
 33
0.0
  0
SOLID
  5
77
330
73
100
AcDbEntity
  8
0
  6
Continuous
 62
     7
370
    18
100
AcDbTrace
 10
156.6850079902
 20
38.4602342313
 30
0.0
 11
154.1850079902
 21
38.7602342313
 31
0.0
 12
154.1850079902
 22
38.1602342313
 32
0.0
 13
154.1850079902
 23
38.1602342313
 33
0.0
  0
LINE
  5
78
330
73
100
AcDbEntity
  8
0
  6
Continuous
 62
     7
370
     0
100
AcDbLine
 10
56.6850079902
 20
52.0299240879
 30
0.0
 11
56.6850079902
 21
37.4602342313
 31
0.0
  0
LINE
  5
79
330
73
100
AcDbEntity
  8
0
  6
Continuous
 62
     7
370
     0
100
AcDbLine
 10
156.6850079902
 20
52.0299240879
 30
0.0
 11
156.6850079902
 21
37.4602342313
 31
0.0
  0
LINE
  5
7A
330
73
100
AcDbEntity
  8
0
  6
Continuous
 62
     7
370
     0
100
AcDbLine
 10
56.6850079902
 20
38.4602342313
 30
0.0
 11
156.6850079902
 21
38.4602342313
 31
0.0
  0
MTEXT
  5
7B
330
73
100
AcDbEntity
  8
0
  6
Continuous
 62
     7
370
    18
100
AcDbMText
 10
93.9626484861
 20
46.1946404371
 30
0.0
 40
6.0
 41
0.0
 71
     1
 72
     1
  1
100
  7
SLDTEXTSTYLE0
 73
     1
 44
1.0
  0
MTEXT
  5
7C
330
73
100
AcDbEntity
  8
0
  6
Continuous
 62
     7
370
    18
100
AcDbMText
 10
105.3376491864
 20
46.1946404371
 30
0.0
 40
6.0
 41
0.0
 71
     1
 72
     1
  1
mm
  7
SLDTEXTSTYLE0
 73
     1
 44
1.0
  0
ENDBLK
  5
75
330
73
100
AcDbEntity
  8
0
100
AcDbBlockEnd
  0
ENDSEC
  0
SECTION
  2
ENTITIES
  0
LINE
  5
63
330
1F
100
AcDbEntity
  8
0
  6
Continuous
 62
     7
370
    18
100
AcDbLine
 10
56.6850079902
 20
152.0299240879
 30
0.0
 11
56.6850079902
 21
52.0299240879
 31
0.0
  0
LINE
  5
64
330
1F
100
AcDbEntity
  8
0
  6
Continuous
 62
     7
370
    18
100
AcDbLine
 10
56.6850079902
 20
52.0299240879
 30
0.0
 11
156.6850079902
 21
52.0299240879
 31
0.0
  0
DIMENSION
  5
65
330
1F
100
AcDbEntity
  8
0
  6
Continuous
 62
     7
370
    18
100
AcDbDimension
  2
_D
 10
42.7614395004
 20
52.0299240879
 30
0.0
 11
42.7614395004
 21
105.4472211621
 31
0.0
 70
   160
  1
<>mm
 71
     2
 42
-1.0
  3
SLDDIMSTYLE0
100
AcDbAlignedDimension
 13
56.6850079902
 23
152.0299240879
 33
0.0
 14
56.6850079902
 24
52.0299240879
 34
0.0
 50
90.0
100
AcDbRotatedDimension
  0
DIMENSION
  5
72
330
1F
100
AcDbEntity
  8
0
  6
Continuous
 62
     7
370
    18
100
AcDbDimension
  2
_D_1
 10
156.6850079902
 20
38.4602342313
 30
0.0
 11
105.0418155019
 21
38.4602342313
 31
0.0
 70
   160
  1
<>mm
 71
     2
 42
-1.0
  3
SLDDIMSTYLE0
100
AcDbAlignedDimension
 13
56.6850079902
 23
52.0299240879
 33
0.0
 14
156.6850079902
 24
52.0299240879
 34
0.0
100
AcDbRotatedDimension
  0
MTEXT
  5
7E
330
1F
100
AcDbEntity
  8
0
  6
Continuous
 62
     7
370
     0
100
AcDbMText
 10
412.8252631579
 20
48.4342449499
 30
0.0
 40
10.0
 41
0.0
 71
     1
 72
     1
  1
KLUDI GmbH & Co KG
  7
SLDTEXTSTYLE1
 73
     1
 44
1.0
  0
MTEXT
  5
7F
330
1F
100
AcDbEntity
  8
0
  6
Continuous
 62
     7
370
     0
100
AcDbMText
 10
210.0873490389
 20
48.4342449499
 30
0.0
 40
10.0
 41
0.0
 71
     1
 72
     1
  1
54 846..75
  7
SLDTEXTSTYLE1
 73
     1
 44
1.0
  0
SPLINE
  5
80
330
1F
100
AcDbEntity
  8
0
  6
Continuous
 62
     7
370
    25
100
AcDbSpline
210
0.0
220
0.0
230
1.0
 70
     8
 71
     3
 72
    16
 73
    12
 74
     0
 42
0.00000001
 43
0.00000001
 40
0.0
 40
0.0
 40
0.0
 40
0.0
 40
0.1057030580189527
 40
0.2127580367761575
 40
0.3211649804301464
 40
0.4309239300103874
 40
0.5420349235510591
 40
0.65449799621671
 40
0.7683131804205288
 40
0.8834805059356465
 40
1.0
 40
1.0
 40
1.0
 40
1.0
 10
189.5604439501668
 20
301.1059191743292
 30
0.0
 10
189.5317989038092
 20
301.0758652059751
 30
0.0
 10
189.4741424467432
 20
301.0153728850889
 30
0.0
 10
189.3971391744371
 20
300.9152612340871
 30
0.0
 10
189.3274321733925
 20
300.8081595107147
 30
0.0
 10
189.2665447535267
 20
300.6939396506804
 30
0.0
 10
189.2151267705598
 20
300.5734422112475
 30
0.0
 10
189.1739267744398
 20
300.4473696396302
 30
0.0
 10
189.1439473340585
 20
300.3165876689572
 30
0.0
 10
189.1247319797581
 20
300.1820408831154
 30
0.0
 10
189.1223275489217
 20
300.0910585729242
 30
0.0
 10
189.1211183171446
 20
300.0453019227551
 30
0.0
  0
SPLINE
  5
81
330
1F
100
AcDbEntity
  8
0
  6
Continuous
 62
     7
370
    25
100
AcDbSpline
210
0.0
220
0.0
230
1.0
 70
     8
 71
     3
 72
    17
 73
    13
 74
     0
 42
0.00000001
 43
0.00000001
 40
0.0
 40
0.0
 40
0.0
 40
0.0
 40
0.1049290128402316
 40
0.2087626174290065
 40
0.3115008378520629
 40
0.413143699797613
 40
0.5136912306173694
 40
0.613143459390861
 40
0.7115004169933861
 40
0.8087621361677378
 40
0.9049286516000604
 40
1.0
 40
1.0
 40
1.0
 40
1.0
 10
190.6210612017408
 20
301.5452448073514
 30
0.0
 10
190.5798563042258
 20
301.5442641842011
 30
0.0
 10
190.4978766684388
 20
301.542313175133
 30
0.0
 10
190.3763794771827
 20
301.5266999022716
 30
0.0
 10
190.2577679966984
 20
301.5022727768745
 30
0.0
 10
190.1427515391712
 20
301.4685885572861
 30
0.0
 10
190.0319728169201
 20
301.426400794121
 30
0.0
 10
189.9260245625115
 20
301.3761839732596
 30
0.0
 10
189.825382414072
 20
301.3185751414829
 30
0.0
 10
189.7306480144305
 20
301.2540230156032
 30
0.0
 10
189.6416569092197
 20
301.1837004487352
 30
0.0
 10
189.5874113867523
 20
301.1317470915673
 30
0.0
 10
189.5604439501668
 20
301.1059191743292
 30
0.0
  0
SPLINE
  5
82
330
1F
100
AcDbEntity
  8
0
  6
Continuous
 62
     7
370
    25
100
AcDbSpline
210
0.0
220
0.0
230
1.0
 70
     8
 71
     3
 72
    16
 73
    12
 74
     0
 42
0.00000001
 43
0.00000001
 40
0.0
 40
0.0
 40
0.0
 40
0.0
 40
0.1057030580188662
 40
0.2127580367760147
 40
0.3211649804299606
 40
0.4309239300101836
 40
0.5420349235508543
 40
0.654497996216526
 40
0.7683131804203852
 40
0.8834805059355682
 40
1.0
 40
1.0
 40
1.0
 40
1.0
 10
230.176510870255
 20
301.1059191743292
 30
0.0
 10
230.1464569019009
 20
301.1345642206867
 30
0.0
 10
230.0859645810147
 20
301.1922206777526
 30
0.0
 10
229.985852930013
 20
301.2692239500588
 30
0.0
 10
229.8787512066407
 20
301.3389309511034
 30
0.0
 10
229.7645313466064
 20
301.3998183709691
 30
0.0
 10
229.6440339071735
 20
301.4512363539361
 30
0.0
 10
229.5179613355562
 20
301.492436350056
 30
0.0
 10
229.3871793648831
 20
301.5224157904374
 30
0.0
 10
229.2526325790413
 20
301.5416311447378
 30
0.0
 10
229.16165026885
 20
301.5440355755742
 30
0.0
 10
229.1158936186809
 20
301.5452448073514
 30
0.0
  0
SPLINE
  5
83
330
1F
100
AcDbEntity
  8
0
  6
Continuous
 62
     7
370
    25
100
AcDbSpline
210
0.0
220
0.0
230
1.0
 70
     8
 71
     3
 72
    17
 73
    13
 74
     0
 42
0.00000001
 43
0.00000001
 40
0.0
 40
0.0
 40
0.0
 40
0.0
 40
0.1049290128402693
 40
0.2087626174290738
 40
0.3115008378521471
 40
0.4131436997977131
 40
0.513691230617471
 40
0.6131434593909578
 40
0.7115004169934668
 40
0.8087621361678041
 40
0.9049286516000967
 40
1.0
 40
1.0
 40
1.0
 40
1.0
 10
230.6158365032772
 20
300.0453019227551
 30
0.0
 10
230.6148558801269
 20
300.0865068202702
 30
0.0
 10
230.6129048710588
 20
300.1684864560572
 30
0.0
 10
230.5972915981974
 20
300.2899836473133
 30
0.0
 10
230.5728644728002
 20
300.4085951277976
 30
0.0
 10
230.5391802532118
 20
300.5236115853248
 30
0.0
 10
230.4969924900467
 20
300.634390307576
 30
0.0
 10
230.4467756691853
 20
300.7403385619846
 30
0.0
 10
230.3891668374086
 20
300.840980710424
 30
0.0
 10
230.324614711529
 20
300.9357151100655
 30
0.0
 10
230.2542921446609
 20
301.0247062152763
 30
0.0
 10
230.2023387874931
 20
301.0789517377437
 30
0.0
 10
230.1765108702549
 20
301.1059191743292
 30
0.0
  0
SPLINE
  5
84
330
1F
100
AcDbEntity
  8
0
  6
Continuous
 62
     7
370
    25
100
AcDbSpline
210
0.0
220
0.0
230
1.0
 70
     8
 71
     3
 72
    16
 73
    12
 74
     0
 42
0.00000001
 43
0.00000001
 40
0.0
 40
0.0
 40
0.0
 40
0.0
 40
0.1057030580186641
 40
0.2127580367756609
 40
0.3211649804295023
 40
0.4309239300096809
 40
0.5420349235503481
 40
0.6544979962160723
 40
0.7683131804200338
 40
0.8834805059353668
 40
1.0
 40
1.0
 40
1.0
 40
1.0
 10
189.5604439501668
 20
260.489852254241
 30
0.0
 10
189.5904979185208
 20
260.4612072078834
 30
0.0
 10
189.6509902394068
 20
260.4035507508176
 30
0.0
 10
189.7511018904084
 20
260.3265474785116
 30
0.0
 10
189.8582036137805
 20
260.2568404774671
 30
0.0
 10
189.9724234738148
 20
260.1959530576012
 30
0.0
 10
190.0929209132477
 20
260.1445350746342
 30
0.0
 10
190.2189934848651
 20
260.1033350785142
 30
0.0
 10
190.3497754555382
 20
260.0733556381328
 30
0.0
 10
190.4843222413802
 20
260.0541402838323
 30
0.0
 10
190.5753045515716
 20
260.0517358529959
 30
0.0
 10
190.6210612017408
 20
260.0505266212188
 30
0.0
  0
SPLINE
  5
85
330
1F
100
AcDbEntity
  8
0
  6
Continuous
 62
     7
370
    25
100
AcDbSpline
210
0.0
220
0.0
230
1.0
 70
     8
 71
     3
 72
    17
 73
    13
 74
     0
 42
0.00000001
 43
0.00000001
 40
0.0
 40
0.0
 40
0.0
 40
0.0
 40
0.1049290128405677
 40
0.2087626174296021
 40
0.3115008378528416
 40
0.413143699798508
 40
0.5136912306183006
 40
0.613143459391753
 40
0.7115004169941636
 40
0.8087621361683323
 40
0.9049286516003953
 40
1.0
 40
1.0
 40
1.0
 40
1.0
 10
189.1211183171446
 20
261.550469505815
 30
0.0
 10
189.1220989402948
 20
261.5092646082999
 30
0.0
 10
189.1240499493629
 20
261.4272849725127
 30
0.0
 10
189.1396632222245
 20
261.3057877812562
 30
0.0
 10
189.1640903476217
 20
261.1871763007716
 30
0.0
 10
189.1977745672102
 20
261.0721598432444
 30
0.0
 10
189.2399623303754
 20
260.9613811209933
 30
0.0
 10
189.2901791512368
 20
260.8554328665847
 30
0.0
 10
189.3477879830135
 20
260.7547907181454
 30
0.0
 10
189.4123401088931
 20
260.6600563185041
 30
0.0
 10
189.482662675761
 20
260.5710652132936
 30
0.0
 10
189.5346160329288
 20
260.5168196908264
 30
0.0
 10
189.5604439501668
 20
260.489852254241
 30
0.0
  0
SPLINE
  5
86
330
1F
100
AcDbEntity
  8
0
  6
Continuous
 62
     7
370
    25
100
AcDbSpline
210
0.0
220
0.0
230
1.0
 70
     8
 71
     3
 72
    14
 73
    10
 74
     0
 42
0.00000001
 43
0.00000001
 40
0.0
 40
0.0
 40
0.0
 40
0.0
 40
0.25
 40
0.25
 40
0.5
 40
0.5
 40
0.75
 40
0.75
 40
1.0
 40
1.0
 40
1.0
 40
1.0
 10
229.1158936186809
 20
260.0505266212188
 30
0.0
 10
229.3122735126334
 20
260.0505296119975
 30
0.0
 10
229.5085030377087
 20
260.0895706542156
 30
0.0
 10
229.8712940450463
 20
260.2398448353274
 30
0.0
 10
230.0376775254929
 20
260.3510189094789
 30
0.0
 10
230.315344215017
 20
260.6286855990031
 30
0.0
 10
230.4265182891685
 20
260.7950690794497
 30
0.0
 10
230.5767924702803
 20
261.157860086787
 30
0.0
 10
230.6158335124985
 20
261.3540896118625
 30
0.0
 10
230.6158365032772
 20
261.550469505815
 30
0.0
  0
LINE
  5
87
330
1F
100
AcDbEntity
  8
0
  6
Continuous
 62
     7
370
    25
100
AcDbLine
 10
230.6158365033
 20
300.0453019228
 30
0.0
 11
230.6158365033
 21
261.5504695058
 31
0.0
  0
LINE
  5
88
330
1F
100
AcDbEntity
  8
0
  6
Continuous
 62
     7
370
    25
100
AcDbLine
 10
189.1211183171
 20
261.5504695058
 30
0.0
 11
189.1211183171
 21
300.0453019228
 31
0.0
  0
LINE
  5
89
330
1F
100
AcDbEntity
  8
0
  6
Continuous
 62
     7
370
    25
100
AcDbLine
 10
190.6210612017
 20
301.5452448074
 30
0.0
 11
229.1158936187
 21
301.5452448074
 31
0.0
  0
LINE
  5
8A
330
1F
100
AcDbEntity
  8
0
  6
Continuous
 62
     7
370
    25
100
AcDbLine
 10
229.1158936187
 20
260.0505266212
 30
0.0
 11
190.6210612017
 21
260.0505266212
 31
0.0
  0
SPLINE
  5
8B
330
1F
100
AcDbEntity
  8
0
  6
Continuous
 62
     7
370
    25
100
AcDbSpline
210
0.0
220
0.0
230
1.0
 70
     8
 71
     3
 72
    18
 73
    14
 74
     0
 42
0.00000001
 43
0.00000001
 40
0.0
 40
0.0
 40
0.0
 40
0.0
 40
0.0863807640641049
 40
0.1736665713609804
 40
0.2618576428871709
 40
0.350954192452779
 40
0.4409564269645012
 40
0.5318645466947644
 40
0.6236787455377022
 40
0.7163992112527642
 40
0.8100261256967128
 40
0.9045596650445242
 40
1.0
 40
1.0
 40
1.0
 40
1.0
 10
249.4206690703586
 20
320.3500773744328
 30
0.0
 10
249.3880656796277
 20
320.381426606311
 30
0.0
 10
249.3225173003753
 20
320.4444535275715
 30
0.0
 10
249.2157681582376
 20
320.5306766953392
 30
0.0
 10
249.10261988493
 20
320.6106662136223
 30
0.0
 10
248.9828397380404
 20
320.6831926867691
 30
0.0
 10
248.857023803996
 20
320.7478093240837
 30
0.0
 10
248.7256177764608
 20
320.8038854147512
 30
0.0
 10
248.5891836497196
 20
320.8508489558259
 30
0.0
 10
248.4483268119577
 20
320.8882317207943
 30
0.0
 10
248.3037148224653
 20
320.9152714980482
 30
0.0
 10
248.1560706795018
 20
320.9325162654667
 30
0.0
 10
248.0566128523773
 20
320.9346688395065
 30
0.0
 10
248.0066465695423
 20
320.9357502639292
 30
0.0
  0
SPLINE
  5
8C
330
1F
100
AcDbEntity
  8
0
  6
Continuous
 62
     7
370
    25
100
AcDbSpline
210
0.0
220
0.0
230
1.0
 70
     8
 71
     3
 72
    19
 73
    15
 74
     0
 42
0.00000001
 43
0.00000001
 40
0.0
 40
0.0
 40
0.0
 40
0.0
 40
0.0875219065052871
 40
0.174281782429396
 40
0.2602797601982956
 40
0.3455159760638839
 40
0.4299905702389538
 40
0.5137036870381267
 40
0.5966554750252983
 40
0.6788460871677462
 40
0.7602756809974137
 40
0.8409444187797279
 40
0.9208524676902834
 40
0.9999999999999999
 40
0.9999999999999999
 40
0.9999999999999999
 40
0.9999999999999999
 10
250.006341959855
 20
318.9360548736164
 30
0.0
 10
250.0054324984087
 20
318.9818754360834
 30
0.0
 10
250.0036214939613
 20
319.0731176132423
 30
0.0
 10
249.9891008635099
 20
319.2087412187214
 30
0.0
 10
249.966291959844
 20
319.3419228943404
 30
0.0
 10
249.9346927401488
 20
319.4720966580796
 30
0.0
 10
249.8949014139436
 20
319.598736417665
 30
0.0
 10
249.8472600599167
 20
319.7213557409291
 30
0.0
 10
249.7922124823234
 20
319.839513080602
 30
0.0
 10
249.7301895029442
 20
319.9527957105424
 30
0.0
 10
249.6616908318084
 20
320.0608804261507
 30
0.0
 10
249.5870519173041
 20
320.1633103493232
 30
0.0
 10
249.5072628374544
 20
320.2603151296731
 30
0.0
 10
249.4494415027482
 20
320.3202521548459
 30
0.0
 10
249.4206690703586
 20
320.3500773744328
 30
0.0
  0
SPLINE
  5
8D
330
1F
100
AcDbEntity
  8
0
  6
Continuous
 62
     7
370
    25
100
AcDbSpline
210
0.0
220
0.0
230
1.0
 70
     8
 71
     3
 72
    18
 73
    14
 74
     0
 42
0.00000001
 43
0.00000001
 40
0.0
 40
0.0
 40
0.0
 40
0.0
 40
0.0863807640641111
 40
0.1736665713609928
 40
0.2618576428871833
 40
0.350954192452795
 40
0.440956426964521
 40
0.5318645466947841
 40
0.6236787455377204
 40
0.7163992112527824
 40
0.8100261256967258
 40
0.9045596650445287
 40
0.9999999999999999
 40
0.9999999999999999
 40
0.9999999999999999
 40
0.9999999999999999
 10
170.3162857500632
 20
241.2456940541373
 30
0.0
 10
170.3488891407941
 20
241.2143448222591
 30
0.0
 10
170.4144375200465
 20
241.1513179009986
 30
0.0
 10
170.5211866621842
 20
241.0650947332309
 30
0.0
 10
170.6343349354918
 20
240.9851052149478
 30
0.0
 10
170.7541150823813
 20
240.9125787418009
 30
0.0
 10
170.8799310164258
 20
240.8479621044863
 30
0.0
 10
171.011337043961
 20
240.7918860138189
 30
0.0
 10
171.1477711707022
 20
240.7449224727442
 30
0.0
 10
171.2886280084641
 20
240.7075397077758
 30
0.0
 10
171.4332399979565
 20
240.6804999305219
 30
0.0
 10
171.5808841409199
 20
240.6632551631033
 30
0.0
 10
171.6803419680445
 20
240.6611025890637
 30
0.0
 10
171.7303082508795
 20
240.6600211646409
 30
0.0
  0
SPLINE
  5
8E
330
1F
100
AcDbEntity
  8
0
  6
Continuous
 62
     7
370
    25
100
AcDbSpline
210
0.0
220
0.0
230
1.0
 70
     8
 71
     3
 72
    19
 73
    15
 74
     0
 42
0.00000001
 43
0.00000001
 40
0.0
 40
0.0
 40
0.0
 40
0.0
 40
0.0875219065052787
 40
0.1742817824293792
 40
0.2602797601982698
 40
0.3455159760638584
 40
0.4299905702389231
 40
0.5137036870380964
 40
0.5966554750252664
 40
0.6788460871677127
 40
0.7602756809973905
 40
0.8409444187797085
 40
0.9208524676902706
 40
1.0
 40
1.0
 40
1.0
 40
1.0
 10
169.7306128605667
 20
242.6597165549536
 30
0.0
 10
169.7315223220131
 20
242.6138959924867
 30
0.0
 10
169.7333333264605
 20
242.5226538153277
 30
0.0
 10
169.7478539569119
 20
242.3870302098487
 30
0.0
 10
169.7706628605778
 20
242.2538485342298
 30
0.0
 10
169.802262080273
 20
242.1236747704905
 30
0.0
 10
169.8420534064781
 20
241.9970350109051
 30
0.0
 10
169.889694760505
 20
241.8744156876411
 30
0.0
 10
169.9447423380984
 20
241.7562583479681
 30
0.0
 10
170.0067653174775
 20
241.6429757180277
 30
0.0
 10
170.0752639886134
 20
241.5348910024194
 30
0.0
 10
170.1499029031176
 20
241.4324610792469
 30
0.0
 10
170.2296919829673
 20
241.335456298897
 30
0.0
 10
170.2875133176736
 20
241.2755192737242
 30
0.0
 10
170.3162857500632
 20
241.2456940541373
 30
0.0
  0
SPLINE
  5
8F
330
1F
100
AcDbEntity
  8
0
  6
Continuous
 62
     7
370
    25
100
AcDbSpline
210
0.0
220
0.0
230
1.0
 70
     8
 71
     3
 72
    18
 73
    14
 74
     0
 42
0.00000001
 43
0.00000001
 40
0.0
 40
0.0
 40
0.0
 40
0.0
 40
0.0863807640641049
 40
0.1736665713609832
 40
0.2618576428871712
 40
0.3509541924527791
 40
0.4409564269645013
 40
0.5318645466947645
 40
0.6236787455377022
 40
0.7163992112527643
 40
0.8100261256967128
 40
0.9045596650445242
 40
1.0
 40
1.0
 40
1.0
 40
1.0
 10
249.4206690703586
 20
241.2456940541374
 30
0.0
 10
249.4520183022368
 20
241.2782974448683
 30
0.0
 10
249.5150452234973
 20
241.3438458241206
 30
0.0
 10
249.6012683912651
 20
241.4505949662583
 30
0.0
 10
249.6812579095482
 20
241.563743239566
 30
0.0
 10
249.753784382695
 20
241.6835233864554
 30
0.0
 10
249.8184010200095
 20
241.8093393205
 30
0.0
 10
249.874477110677
 20
241.9407453480351
 30
0.0
 10
249.9214406517517
 20
242.0771794747763
 30
0.0
 10
249.9588234167201
 20
242.2180363125382
 30
0.0
 10
249.9858631939741
 20
242.3626483020307
 30
0.0
 10
250.0031079613926
 20
242.5102924449941
 30
0.0
 10
250.0052605354323
 20
242.6097502721186
 30
0.0
 10
250.006341959855
 20
242.6597165549537
 30
0.0
  0
SPLINE
  5
90
330
1F
100
AcDbEntity
  8
0
  6
Continuous
 62
     7
370
    25
100
AcDbSpline
210
0.0
220
0.0
230
1.0
 70
     8
 71
     3
 72
    19
 73
    15
 74
     0
 42
0.00000001
 43
0.00000001
 40
0.0
 40
0.0
 40
0.0
 40
0.0
 40
0.0875219065052826
 40
0.1742817824293914
 40
0.2602797601982816
 40
0.3455159760638741
 40
0.4299905702389397
 40
0.5137036870381125
 40
0.5966554750252822
 40
0.6788460871677301
 40
0.7602756809974076
 40
0.840944418779719
 40
0.9208524676902774
 40
1.0
 40
1.0
 40
1.0
 40
1.0
 10
248.0066465695423
 20
240.6600211646409
 30
0.0
 10
248.0524671320092
 20
240.6609306260873
 30
0.0
 10
248.1437093091682
 20
240.6627416305346
 30
0.0
 10
248.2793329146472
 20
240.677262260986
 30
0.0
 10
248.4125145902662
 20
240.7000711646519
 30
0.0
 10
248.5426883540054
 20
240.7316703843471
 30
0.0
 10
248.6693281135909
 20
240.7714617105523
 30
0.0
 10
248.7919474368549
 20
240.8191030645792
 30
0.0
 10
248.9101047765278
 20
240.8741506421725
 30
0.0
 10
249.0233874064682
 20
240.9361736215517
 30
0.0
 10
249.1314721220765
 20
241.0046722926875
 30
0.0
 10
249.2339020452491
 20
241.0793112071918
 30
0.0
 10
249.3309068255989
 20
241.1591002870415
 30
0.0
 10
249.3908438507717
 20
241.2169216217477
 30
0.0
 10
249.4206690703586
 20
241.2456940541373
 30
0.0
  0
SPLINE
  5
91
330
1F
100
AcDbEntity
  8
0
  6
Continuous
 62
     7
370
    25
100
AcDbSpline
210
0.0
220
0.0
230
1.0
 70
     8
 71
     3
 72
    18
 73
    14
 74
     0
 42
0.00000001
 43
0.00000001
 40
0.0
 40
0.0
 40
0.0
 40
0.0
 40
0.0863807640641111
 40
0.1736665713609928
 40
0.2618576428871833
 40
0.350954192452795
 40
0.4409564269645191
 40
0.531864546694784
 40
0.6236787455377202
 40
0.716399211252778
 40
0.8100261256967214
 40
0.9045596650445288
 40
1.0
 40
1.0
 40
1.0
 40
1.0
 10
170.3162857500632
 20
320.3500773744327
 30
0.0
 10
170.284936518185
 20
320.3174739837018
 30
0.0
 10
170.2219095969245
 20
320.2519256044494
 30
0.0
 10
170.1356864291567
 20
320.1451764623117
 30
0.0
 10
170.0556969108736
 20
320.0320281890041
 30
0.0
 10
169.9831704377268
 20
319.9122480421146
 30
0.0
 10
169.9185538004122
 20
319.7864321080701
 30
0.0
 10
169.8624777097448
 20
319.6550260805349
 30
0.0
 10
169.8155141686701
 20
319.5185919537938
 30
0.0
 10
169.7781314037017
 20
319.3777351160318
 30
0.0
 10
169.7510916264478
 20
319.2331231265394
 30
0.0
 10
169.7338468590292
 20
319.085478983576
 30
0.0
 10
169.7316942849895
 20
318.9860211564514
 30
0.0
 10
169.7306128605667
 20
318.9360548736164
 30
0.0
  0
SPLINE
  5
92
330
1F
100
AcDbEntity
  8
0
  6
Continuous
 62
     7
370
    25
100
AcDbSpline
210
0.0
220
0.0
230
1.0
 70
     8
 71
     3
 72
    19
 73
    15
 74
     0
 42
0.00000001
 43
0.00000001
 40
0.0
 40
0.0
 40
0.0
 40
0.0
 40
0.0875219065052871
 40
0.1742817824294003
 40
0.2602797601982955
 40
0.3455159760638881
 40
0.4299905702389579
 40
0.5137036870381324
 40
0.5966554750253019
 40
0.6788460871677461
 40
0.7602756809974174
 40
0.8409444187797314
 40
0.9208524676902834
 40
1.0
 40
1.0
 40
1.0
 40
1.0
 10
171.7303082508795
 20
320.9357502639292
 30
0.0
 10
171.6844876884126
 20
320.9348408024829
 30
0.0
 10
171.5932455112536
 20
320.9330297980355
 30
0.0
 10
171.4576219057746
 20
320.9185091675841
 30
0.0
 10
171.3244402301556
 20
320.8957002639181
 30
0.0
 10
171.1942664664163
 20
320.864101044223
 30
0.0
 10
171.0676267068309
 20
320.8243097180178
 30
0.0
 10
170.9450073835669
 20
320.7766683639909
 30
0.0
 10
170.8268500438939
 20
320.7216207863975
 30
0.0
 10
170.7135674139535
 20
320.6595978070184
 30
0.0
 10
170.6054826983452
 20
320.5910991358825
 30
0.0
 10
170.5030527751727
 20
320.5164602213782
 30
0.0
 10
170.4060479948228
 20
320.4366711415286
 30
0.0
 10
170.3461109696501
 20
320.3788498068224
 30
0.0
 10
170.3162857500632
 20
320.3500773744327
 30
0.0
  0
LINE
  5
93
330
1F
100
AcDbEntity
  8
0
  6
Continuous
 62
     7
370
    25
100
AcDbLine
 10
250.0063419599
 20
318.9360548736
 30
0.0
 11
250.0063419599
 21
242.659716555
 31
0.0
  0
LINE
  5
94
330
1F
100
AcDbEntity
  8
0
  6
Continuous
 62
     7
370
    25
100
AcDbLine
 10
171.7303082509
 20
320.9357502639
 30
0.0
 11
248.0066465695
 21
320.9357502639
 31
0.0
  0
LINE
  5
95
330
1F
100
AcDbEntity
  8
0
  6
Continuous
 62
     7
370
    25
100
AcDbLine
 10
169.7306128606
 20
242.659716555
 30
0.0
 11
169.7306128606
 21
318.9360548736
 31
0.0
  0
LINE
  5
96
330
1F
100
AcDbEntity
  8
0
  6
Continuous
 62
     7
370
    25
100
AcDbLine
 10
248.0066465695
 20
240.6600211646
 30
0.0
 11
171.7303082509
 21
240.6600211646
 31
0.0
  0
LINE
  5
97
330
1F
100
AcDbEntity
  8
0
  6
Continuous
 62
     8
370
    18
100
AcDbLine
 10
190.9056484781
 20
261.8350567822
 30
0.0
 11
190.9056484781
 21
299.7607146464
 31
0.0
  0
LINE
  5
98
330
1F
100
AcDbEntity
  8
0
  6
Continuous
 62
     8
370
    18
100
AcDbLine
 10
189.4057055935
 20
261.8350567822
 30
0.0
 11
190.9056484781
 21
261.8350567822
 31
0.0
  0
LINE
  5
99
330
1F
100
AcDbEntity
  8
0
  6
Continuous
 62
     8
370
    18
100
AcDbLine
 10
189.4057055935
 20
261.8350567822
 30
0.0
 11
189.4057055935
 21
299.7607146464
 31
0.0
  0
LINE
  5
9A
330
1F
100
AcDbEntity
  8
0
  6
Continuous
 62
     8
370
    18
100
AcDbLine
 10
190.9056484781
 20
299.7607146464
 30
0.0
 11
189.4057055935
 21
299.7607146464
 31
0.0
  0
LINE
  5
9B
330
1F
100
AcDbEntity
  8
0
  6
Continuous
 62
     8
370
    18
100
AcDbLine
 10
190.9056484781
 20
299.7607146464
 30
0.0
 11
228.8313063423
 21
299.7607146464
 31
0.0
  0
LINE
  5
9C
330
1F
100
AcDbEntity
  8
0
  6
Continuous
 62
     8
370
    18
100
AcDbLine
 10
228.8313063423
 20
299.7607146464
 30
0.0
 11
228.8313063423
 21
261.8350567822
 31
0.0
  0
LINE
  5
9D
330
1F
100
AcDbEntity
  8
0
  6
Continuous
 62
     8
370
    18
100
AcDbLine
 10
228.8313063423
 20
261.8350567822
 30
0.0
 11
190.9056484781
 21
261.8350567822
 31
0.0
  0
LINE
  5
9E
330
1F
100
AcDbEntity
  8
0
  6
Continuous
 62
     8
370
    18
100
AcDbLine
 10
190.9056484781
 20
301.260657531
 30
0.0
 11
190.9056484781
 21
299.7607146464
 31
0.0
  0
LINE
  5
9F
330
1F
100
AcDbEntity
  8
0
  6
Continuous
 62
     8
370
    18
100
AcDbLine
 10
190.9056484781
 20
301.260657531
 30
0.0
 11
228.8313063423
 21
301.260657531
 31
0.0
  0
LINE
  5
A0
330
1F
100
AcDbEntity
  8
0
  6
Continuous
 62
     8
370
    18
100
AcDbLine
 10
228.8313063423
 20
299.7607146464
 30
0.0
 11
228.8313063423
 21
301.260657531
 31
0.0
  0
LINE
  5
A1
330
1F
100
AcDbEntity
  8
0
  6
Continuous
 62
     8
370
    18
100
AcDbLine
 10
230.3312492269
 20
299.7607146464
 30
0.0
 11
230.3312492269
 21
261.8350567822
 31
0.0
  0
LINE
  5
A2
330
1F
100
AcDbEntity
  8
0
  6
Continuous
 62
     8
370
    18
100
AcDbLine
 10
228.8313063423
 20
261.8350567822
 30
0.0
 11
230.3312492269
 21
261.8350567822
 31
0.0
  0
LINE
  5
A3
330
1F
100
AcDbEntity
  8
0
  6
Continuous
 62
     8
370
    18
100
AcDbLine
 10
230.3312492269
 20
299.7607146464
 30
0.0
 11
228.8313063423
 21
299.7607146464
 31
0.0
  0
LINE
  5
A4
330
1F
100
AcDbEntity
  8
0
  6
Continuous
 62
     8
370
    18
100
AcDbLine
 10
228.8313063423
 20
260.3351138976
 30
0.0
 11
190.9056484781
 21
260.3351138976
 31
0.0
  0
LINE
  5
A5
330
1F
100
AcDbEntity
  8
0
  6
Continuous
 62
     8
370
    18
100
AcDbLine
 10
190.9056484781
 20
261.8350567822
 30
0.0
 11
190.9056484781
 21
260.3351138976
 31
0.0
  0
LINE
  5
A6
330
1F
100
AcDbEntity
  8
0
  6
Continuous
 62
     8
370
    18
100
AcDbLine
 10
228.8313063423
 20
260.3351138976
 30
0.0
 11
228.8313063423
 21
261.8350567822
 31
0.0
  0
ARC
  5
A7
330
1F
100
AcDbEntity
  8
0
  6
Continuous
 62
     8
370
    18
100
AcDbCircle
 10
190.9057822679
 20
299.7605808566
 30
0.0
 40
1.500076680360146
100
AcDbArc
 50
90.0051101326
 51
179.9948898674
  0
ARC
  5
A8
330
1F
100
AcDbEntity
  8
0
  6
Continuous
 62
     8
370
    18
100
AcDbCircle
 10
190.9057822679
 20
261.835190572
 30
0.0
 40
1.500076680360146
100
AcDbArc
 50
180.0051101326
 51
269.9948898674
  0
ARC
  5
A9
330
1F
100
AcDbEntity
  8
0
  6
Continuous
 62
     8
370
    18
100
AcDbCircle
 10
228.8311725525
 20
299.7605808566
 30
0.0
 40
1.500076680360146
100
AcDbArc
 50
0.0051101326
 51
89.9948898674
  0
ARC
  5
AA
330
1F
100
AcDbEntity
  8
0
  6
Continuous
 62
     8
370
    18
100
AcDbCircle
 10
228.8311725525
 20
261.835190572
 30
0.0
 40
1.500076680360146
100
AcDbArc
 50
270.0051101326
 51
359.9948898674
  0
LINE
  5
AB
330
1F
100
AcDbEntity
  8
0
  6
Continuous
 62
     8
370
    18
100
AcDbLine
 10
190.6210612017
 20
301.5452448074
 30
0.0
 11
190.9056484781
 21
301.260657531
 31
0.0
  0
LINE
  5
AC
330
1F
100
AcDbEntity
  8
0
  6
Continuous
 62
     8
370
    18
100
AcDbLine
 10
189.4057055935
 20
299.7607146464
 30
0.0
 11
189.1211183171
 21
300.0453019228
 31
0.0
  0
LINE
  5
AD
330
1F
100
AcDbEntity
  8
0
  6
Continuous
 62
     8
370
    18
100
AcDbLine
 10
230.6158365033
 20
300.0453019228
 30
0.0
 11
230.3312492269
 21
299.7607146464
 31
0.0
  0
LINE
  5
AE
330
1F
100
AcDbEntity
  8
0
  6
Continuous
 62
     8
370
    18
100
AcDbLine
 10
228.8313063423
 20
301.260657531
 30
0.0
 11
229.1158936187
 21
301.5452448074
 31
0.0
  0
LINE
  5
AF
330
1F
100
AcDbEntity
  8
0
  6
Continuous
 62
     8
370
    18
100
AcDbLine
 10
189.1211183171
 20
261.5504695058
 30
0.0
 11
189.4057055935
 21
261.8350567822
 31
0.0
  0
LINE
  5
B0
330
1F
100
AcDbEntity
  8
0
  6
Continuous
 62
     8
370
    18
100
AcDbLine
 10
190.9056484781
 20
260.3351138976
 30
0.0
 11
190.6210612017
 21
260.0505266212
 31
0.0
  0
LINE
  5
B1
330
1F
100
AcDbEntity
  8
0
  6
Continuous
 62
     8
370
    18
100
AcDbLine
 10
229.1158936187
 20
260.0505266212
 30
0.0
 11
228.8313063423
 21
260.3351138976
 31
0.0
  0
LINE
  5
B2
330
1F
100
AcDbEntity
  8
0
  6
Continuous
 62
     8
370
    18
100
AcDbLine
 10
230.3312492269
 20
261.8350567822
 30
0.0
 11
230.6158365033
 21
261.5504695058
 31
0.0
  0
LINE
  5
B3
330
1F
100
AcDbEntity
  8
0
  6
Continuous
 62
     8
370
    18
100
AcDbLine
 10
247.894507668
 20
242.271931609
 30
0.0
 11
171.8424471525
 21
242.271931609
 31
0.0
  0
LINE
  5
B4
330
1F
100
AcDbEntity
  8
0
  6
Continuous
 62
     8
370
    18
100
AcDbLine
 10
247.894507668
 20
240.7721600662
 30
0.0
 11
247.894507668
 21
242.271931609
 31
0.0
  0
LINE
  5
B5
330
1F
100
AcDbEntity
  8
0
  6
Continuous
 62
     8
370
    18
100
AcDbLine
 10
247.894507668
 20
240.7721600662
 30
0.0
 11
171.8424471525
 21
240.7721600662
 31
0.0
  0
LINE
  5
B6
330
1F
100
AcDbEntity
  8
0
  6
Continuous
 62
     8
370
    18
100
AcDbLine
 10
171.8424471525
 20
242.271931609
 30
0.0
 11
171.8424471525
 21
240.7721600662
 31
0.0
  0
LINE
  5
B7
330
1F
100
AcDbEntity
  8
0
  6
Continuous
 62
     8
370
    18
100
AcDbLine
 10
171.8424471525
 20
319.3238398196
 30
0.0
 11
247.894507668
 21
319.3238398196
 31
0.0
  0
LINE
  5
B8
330
1F
100
AcDbEntity
  8
0
  6
Continuous
 62
     8
370
    18
100
AcDbLine
 10
171.8424471525
 20
320.8236113623
 30
0.0
 11
171.8424471525
 21
319.3238398196
 31
0.0
  0
LINE
  5
B9
330
1F
100
AcDbEntity
  8
0
  6
Continuous
 62
     8
370
    18
100
AcDbLine
 10
171.8424471525
 20
320.8236113623
 30
0.0
 11
247.894507668
 21
320.8236113623
 31
0.0
  0
LINE
  5
BA
330
1F
100
AcDbEntity
  8
0
  6
Continuous
 62
     8
370
    18
100
AcDbLine
 10
247.894507668
 20
319.3238398196
 30
0.0
 11
247.894507668
 21
320.8236113623
 31
0.0
  0
SPLINE
  5
BB
330
1F
100
AcDbEntity
  8
0
  6
Continuous
 62
     8
370
    18
100
AcDbSpline
210
0.0
220
0.0
230
1.0
 70
     8
 71
     3
 72
    12
 73
     8
 74
     0
 42
0.00000001
 43
0.00000001
 40
0.0
 40
0.0
 40
0.0
 40
0.0
 40
0.1665688703924325
 40
0.3323505923067357
 40
0.5002129602155954
 40
0.7493803296395605
 40
1.0
 40
1.0
 40
1.0
 40
1.0
 10
247.8945076679591
 20
242.2719316089586
 30
0.0
 10
247.9162999313816
 20
242.2727372335605
 30
0.0
 10
247.9597814753163
 20
242.2743446756533
 30
0.0
 10
248.0241386247554
 20
242.2876157052985
 30
0.0
 10
248.096342281027
 20
242.3121546518848
 30
0.0
 10
248.1747306747011
 20
242.3526341090137
 30
0.0
 10
248.2235405777186
 20
242.3964000962898
 30
0.0
 10
248.2480164461002
 20
242.4183466783957
 30
0.0
  0
SPLINE
  5
BC
330
1F
100
AcDbEntity
  8
0
  6
Continuous
 62
     8
370
    18
100
AcDbSpline
210
0.0
220
0.0
230
1.0
 70
     8
 71
     3
 72
     8
 73
     4
 74
     0
 42
0.00000001
 43
0.00000001
 40
0.0
 40
0.0
 40
0.0
 40
0.0
 40
1.0
 40
1.0
 40
1.0
 40
1.0
 10
171.4889383743216
 20
242.4183466783957
 30
0.0
 10
171.5814971171908
 20
242.3257879358957
 30
0.0
 10
171.711529352934
 20
242.2719316092207
 30
0.0
 10
171.8424471524626
 20
242.2719316089586
 30
0.0
  0
SPLINE
  5
BD
330
1F
100
AcDbEntity
  8
0
  6
Continuous
 62
     8
370
    18
100
AcDbSpline
210
0.0
220
0.0
230
1.0
 70
     8
 71
     3
 72
    12
 73
     8
 74
     0
 42
0.00000001
 43
0.00000001
 40
0.0
 40
0.0
 40
0.0
 40
0.0
 40
0.1665688703924325
 40
0.3323505923067357
 40
0.5002129602155954
 40
0.7493803296395605
 40
1.0
 40
1.0
 40
1.0
 40
1.0
 10
171.3425233048844
 20
242.7718554565368
 30
0.0
 10
171.3433289294863
 20
242.7500631931144
 30
0.0
 10
171.3449363715791
 20
242.7065816491796
 30
0.0
 10
171.3582074012244
 20
242.6422244997405
 30
0.0
 10
171.3827463478106
 20
242.5700208434689
 30
0.0
 10
171.4232258049396
 20
242.4916324497948
 30
0.0
 10
171.4669917922157
 20
242.4428225467773
 30
0.0
 10
171.4889383743216
 20
242.4183466783957
 30
0.0
  0
LINE
  5
BE
330
1F
100
AcDbEntity
  8
0
  6
Continuous
 62
     8
370
    18
100
AcDbLine
 10
171.3425233049
 20
242.7718554565
 30
0.0
 11
171.3425233049
 21
318.823915972
 31
0.0
  0
SPLINE
  5
BF
330
1F
100
AcDbEntity
  8
0
  6
Continuous
 62
     8
370
    18
100
AcDbSpline
210
0.0
220
0.0
230
1.0
 70
     8
 71
     3
 72
    12
 73
     8
 74
     0
 42
0.00000001
 43
0.00000001
 40
0.0
 40
0.0
 40
0.0
 40
0.0
 40
0.166546981377348
 40
0.3323150261576683
 40
0.5001726347380334
 40
0.7493502562372268
 40
1.0
 40
1.0
 40
1.0
 40
1.0
 10
171.4889383743216
 20
319.1774247501743
 30
0.0
 10
171.4741007134909
 20
319.1614475333665
 30
0.0
 10
171.4444947872453
 20
319.1295678248451
 30
0.0
 10
171.4083771987891
 20
319.0746788372285
 30
0.0
 10
171.3746779356975
 20
319.0062702567045
 30
0.0
 10
171.3478769476797
 20
318.9222118234608
 30
0.0
 10
171.344311353019
 20
318.8567455276279
 30
0.0
 10
171.3425233048844
 20
318.8239159720333
 30
0.0
  0
SPLINE
  5
C0
330
1F
100
AcDbEntity
  8
0
  6
Continuous
 62
     8
370
    18
100
AcDbSpline
210
0.0
220
0.0
230
1.0
 70
     8
 71
     3
 72
    12
 73
     8
 74
     0
 42
0.00000001
 43
0.00000001
 40
0.0
 40
0.0
 40
0.0
 40
0.0
 40
0.1665688703932625
 40
0.3323505923075694
 40
0.5002129602156419
 40
0.7493803296404926
 40
1.0
 40
1.0
 40
1.0
 40
1.0
 10
171.8424471524626
 20
319.3238398196115
 30
0.0
 10
171.8206548890401
 20
319.3230341950096
 30
0.0
 10
171.7771733451052
 20
319.3214267529169
 30
0.0
 10
171.7128161956661
 20
319.3081557232715
 30
0.0
 10
171.6406125393946
 20
319.2836167766852
 30
0.0
 10
171.5622241457207
 20
319.2431373195562
 30
0.0
 10
171.5134142427031
 20
319.1993713322802
 30
0.0
 10
171.4889383743216
 20
319.1774247501743
 30
0.0
  0
SPLINE
  5
C1
330
1F
100
AcDbEntity
  8
0
  6
Continuous
 62
     8
370
    18
100
AcDbSpline
210
0.0
220
0.0
230
1.0
 70
     8
 71
     3
 72
    12
 73
     8
 74
     0
 42
0.00000001
 43
0.00000001
 40
0.0
 40
0.0
 40
0.0
 40
0.0
 40
0.166546981377348
 40
0.3323150261576683
 40
0.5001726347380334
 40
0.7493502562372268
 40
1.0
 40
1.0
 40
1.0
 40
1.0
 10
248.2480164461002
 20
319.1774247501743
 30
0.0
 10
248.2320392292923
 20
319.1922624110051
 30
0.0
 10
248.2001595207709
 20
319.2218683372507
 30
0.0
 10
248.1452705331544
 20
319.2579859257069
 30
0.0
 10
248.0768619526303
 20
319.2916851887985
 30
0.0
 10
247.9928035193866
 20
319.3184861768162
 30
0.0
 10
247.9273372235538
 20
319.3220517714769
 30
0.0
 10
247.8945076679591
 20
319.3238398196115
 30
0.0
  0
SPLINE
  5
C2
330
1F
100
AcDbEntity
  8
0
  6
Continuous
 62
     8
370
    18
100
AcDbSpline
210
0.0
220
0.0
230
1.0
 70
     8
 71
     3
 72
    12
 73
     8
 74
     0
 42
0.00000001
 43
0.00000001
 40
0.0
 40
0.0
 40
0.0
 40
0.0
 40
0.1665688703924325
 40
0.3323505923067357
 40
0.5002129602155954
 40
0.7493803296395605
 40
1.0
 40
1.0
 40
1.0
 40
1.0
 10
248.3944315155373
 20
318.8239159720333
 30
0.0
 10
248.3936258909355
 20
318.8457082354557
 30
0.0
 10
248.3920184488427
 20
318.8891897793905
 30
0.0
 10
248.3787474191974
 20
318.9535469288296
 30
0.0
 10
248.3542084726111
 20
319.0257505851012
 30
0.0
 10
248.3137290154822
 20
319.1041389787753
 30
0.0
 10
248.2699630282061
 20
319.1529488817928
 30
0.0
 10
248.2480164461002
 20
319.1774247501743
 30
0.0
  0
LINE
  5
C3
330
1F
100
AcDbEntity
  8
0
  6
Continuous
 62
     8
370
    18
100
AcDbLine
 10
248.3944315155
 20
318.823915972
 30
0.0
 11
248.3944315155
 21
242.7718554565
 31
0.0
  0
SPLINE
  5
C4
330
1F
100
AcDbEntity
  8
0
  6
Continuous
 62
     8
370
    18
100
AcDbSpline
210
0.0
220
0.0
230
1.0
 70
     8
 71
     3
 72
    12
 73
     8
 74
     0
 42
0.00000001
 43
0.00000001
 40
0.0
 40
0.0
 40
0.0
 40
0.0
 40
0.1665469813777081
 40
0.3323150261580273
 40
0.5001726347380518
 40
0.7493502562376159
 40
0.9999999999999999
 40
0.9999999999999999
 40
0.9999999999999999
 40
0.9999999999999999
 10
248.2480164461002
 20
242.4183466783957
 30
0.0
 10
248.2628541069309
 20
242.4343238952036
 30
0.0
 10
248.2924600331766
 20
242.4662036037251
 30
0.0
 10
248.3285776216328
 20
242.5210925913416
 30
0.0
 10
248.3622768847243
 20
242.5895011718657
 30
0.0
 10
248.389077872742
 20
242.6735596051094
 30
0.0
 10
248.3926434674028
 20
242.7390259009422
 30
0.0
 10
248.3944315155373
 20
242.7718554565368
 30
0.0
  0
LINE
  5
C5
330
1F
100
AcDbEntity
  8
0
  6
Continuous
 62
     8
370
    18
100
AcDbLine
 10
249.8942030583
 20
318.823915972
 30
0.0
 11
248.3944315155
 21
318.823915972
 31
0.0
  0
LINE
  5
C6
330
1F
100
AcDbEntity
  8
0
  6
Continuous
 62
     8
370
    18
100
AcDbLine
 10
249.8942030583
 20
318.823915972
 30
0.0
 11
249.8942030583
 21
242.7718554565
 31
0.0
  0
LINE
  5
C7
330
1F
100
AcDbEntity
  8
0
  6
Continuous
 62
     8
370
    18
100
AcDbLine
 10
248.3944315155
 20
242.7718554565
 30
0.0
 11
249.8942030583
 21
242.7718554565
 31
0.0
  0
LINE
  5
C8
330
1F
100
AcDbEntity
  8
0
  6
Continuous
 62
     8
370
    18
100
AcDbLine
 10
169.8427517621
 20
242.7718554565
 30
0.0
 11
171.3425233049
 21
242.7718554565
 31
0.0
  0
LINE
  5
C9
330
1F
100
AcDbEntity
  8
0
  6
Continuous
 62
     8
370
    18
100
AcDbLine
 10
169.8427517621
 20
242.7718554565
 30
0.0
 11
169.8427517621
 21
318.823915972
 31
0.0
  0
LINE
  5
CA
330
1F
100
AcDbEntity
  8
0
  6
Continuous
 62
     8
370
    18
100
AcDbLine
 10
171.3425233049
 20
318.823915972
 30
0.0
 11
169.8427517621
 21
318.823915972
 31
0.0
  0
LINE
  5
CB
330
1F
100
AcDbEntity
  8
0
  6
Continuous
 62
     8
370
    18
100
AcDbLine
 10
171.4889383743
 20
319.1774247502
 30
0.0
 11
170.4286012161
 21
320.2377619084
 31
0.0
  0
SPLINE
  5
CC
330
1F
100
AcDbEntity
  8
0
  6
Continuous
 62
     8
370
    18
100
AcDbSpline
210
0.0
220
0.0
230
1.0
 70
     8
 71
     3
 72
    10
 73
     6
 74
     0
 42
0.00000001
 43
0.00000001
 40
0.0
 40
0.0
 40
0.0
 40
0.0
 40
0.5
 40
0.5
 40
1.0
 40
1.0
 40
1.0
 40
1.0
 10
170.4286012161158
 20
320.2377619083802
 30
0.0
 10
170.6137187014854
 20
320.4228793937497
 30
0.0
 10
170.8354852070829
 20
320.5710695186749
 30
0.0
 10
171.3190964572588
 20
320.7714614988502
 30
0.0
 10
171.580671418184
 20
320.8235515668851
 30
0.0
 10
171.8424471524626
 20
320.8236113623461
 30
0.0
  0
LINE
  5
CD
330
1F
100
AcDbEntity
  8
0
  6
Continuous
 62
     8
370
    18
100
AcDbLine
 10
171.4889383743
 20
242.4183466784
 30
0.0
 11
170.4286012161
 21
241.3580095202
 31
0.0
  0
SPLINE
  5
CE
330
1F
100
AcDbEntity
  8
0
  6
Continuous
 62
     8
370
    18
100
AcDbSpline
210
0.0
220
0.0
230
1.0
 70
     8
 71
     3
 72
    10
 73
     6
 74
     0
 42
0.00000001
 43
0.00000001
 40
0.0
 40
0.0
 40
0.0
 40
0.0
 40
0.5
 40
0.5
 40
1.0
 40
1.0
 40
1.0
 40
1.0
 10
170.4286012161158
 20
241.3580095201899
 30
0.0
 10
170.2434837307462
 20
241.5431270055595
 30
0.0
 10
170.095293605821
 20
241.764893511157
 30
0.0
 10
169.8949016256457
 20
242.248504761333
 30
0.0
 10
169.8428115576108
 20
242.5100797222581
 30
0.0
 10
169.8427517621498
 20
242.7718554565368
 30
0.0
  0
SPLINE
  5
CF
330
1F
100
AcDbEntity
  8
0
  6
Continuous
 62
     8
370
    18
100
AcDbSpline
210
0.0
220
0.0
230
1.0
 70
     8
 71
     3
 72
    19
 73
    15
 74
     0
 42
0.00000001
 43
0.00000001
 40
0.0
 40
0.0
 40
0.0
 40
0.0
 40
0.0875155696262819
 40
0.174270723500849
 40
0.2602654635968123
 40
0.3454997922149388
 40
0.4299737119930206
 40
0.5136872259156225
 40
0.5966403373243552
 40
0.6788330499285561
 40
0.7602653678165033
 40
0.8409372954671456
 40
0.9208488377623941
 40
1.0
 40
1.0
 40
1.0
 40
1.0
 10
171.8424471524626
 20
240.772160066224
 30
0.0
 10
171.796635970687
 20
240.7730791028566
 30
0.0
 10
171.7054116568129
 20
240.7749091906864
 30
0.0
 10
171.5698139349168
 20
240.7894555517728
 30
0.0
 10
171.4366556661455
 20
240.8122878411659
 30
0.0
 10
171.3065028708278
 20
240.8439079515763
 30
0.0
 10
171.1798816293701
 20
240.8837177070855
 30
0.0
 10
171.0572783748318
 20
240.931375020547
 30
0.0
 10
170.9391346536265
 20
240.9864360905182
 30
0.0
 10
170.8258631855719
 20
241.048470089681
 30
0.0
 10
170.717787191562
 20
241.1169773259398
 30
0.0
 10
170.6153634837521
 20
241.1916222864336
 30
0.0
 10
170.5183626444402
 20
241.2714151270735
 30
0.0
 10
170.458426185889
 20
241.3292368590878
 30
0.0
 10
170.4286012161158
 20
241.3580095201899
 30
0.0
  0
LINE
  5
D0
330
1F
100
AcDbEntity
  8
0
  6
Continuous
 62
     8
370
    18
100
AcDbLine
 10
248.2480164461
 20
319.1774247502
 30
0.0
 11
249.3083536043
 21
320.2377619084
 31
0.0
  0
SPLINE
  5
D1
330
1F
100
AcDbEntity
  8
0
  6
Continuous
 62
     8
370
    18
100
AcDbSpline
210
0.0
220
0.0
230
1.0
 70
     8
 71
     3
 72
    10
 73
     6
 74
     0
 42
0.00000001
 43
0.00000001
 40
0.0
 40
0.0
 40
0.0
 40
0.0
 40
0.5
 40
0.5
 40
1.0
 40
1.0
 40
1.0
 40
1.0
 10
249.308353604306
 20
320.2377619083802
 30
0.0
 10
249.4934710896756
 20
320.0526444230106
 30
0.0
 10
249.6416612146008
 20
319.830877917413
 30
0.0
 10
249.8420531947761
 20
319.3472666672371
 30
0.0
 10
249.894143262811
 20
319.0856917063119
 30
0.0
 10
249.8942030582719
 20
318.8239159720334
 30
0.0
  0
SPLINE
  5
D2
330
1F
100
AcDbEntity
  8
0
  6
Continuous
 62
     8
370
    18
100
AcDbSpline
210
0.0
220
0.0
230
1.0
 70
     8
 71
     3
 72
    19
 73
    15
 74
     0
 42
0.00000001
 43
0.00000001
 40
0.0
 40
0.0
 40
0.0
 40
0.0
 40
0.0875155696262907
 40
0.1742707235008578
 40
0.2602654635968253
 40
0.3454997922149572
 40
0.4299737119930389
 40
0.5136872259156424
 40
0.596640337324375
 40
0.678833049928578
 40
0.7602653678165191
 40
0.8409372954671578
 40
0.9208488377623972
 40
1.0
 40
1.0
 40
1.0
 40
1.0
 10
169.8427517621498
 20
318.8239159720333
 30
0.0
 10
169.8436707987825
 20
318.8697271538089
 30
0.0
 10
169.8455008866123
 20
318.9609514676831
 30
0.0
 10
169.8600472476987
 20
319.0965491895792
 30
0.0
 10
169.8828795370917
 20
319.2297074583504
 30
0.0
 10
169.9144996475021
 20
319.3598602536682
 30
0.0
 10
169.9543094030114
 20
319.4864814951259
 30
0.0
 10
170.0019667164729
 20
319.6090847496642
 30
0.0
 10
170.0570277864441
 20
319.7272284708694
 30
0.0
 10
170.1190617856068
 20
319.840499938924
 30
0.0
 10
170.1875690218656
 20
319.948575932934
 30
0.0
 10
170.2622139823594
 20
320.0509996407438
 30
0.0
 10
170.3420068229994
 20
320.1480004800557
 30
0.0
 10
170.3998285550136
 20
320.207936938607
 30
0.0
 10
170.4286012161158
 20
320.2377619083802
 30
0.0
  0
SPLINE
  5
D3
330
1F
100
AcDbEntity
  8
0
  6
Continuous
 62
     8
370
    18
100
AcDbSpline
210
0.0
220
0.0
230
1.0
 70
     8
 71
     3
 72
    19
 73
    15
 74
     0
 42
0.00000001
 43
0.00000001
 40
0.0
 40
0.0
 40
0.0
 40
0.0
 40
0.0875155696262907
 40
0.1742707235008578
 40
0.2602654635968253
 40
0.3454997922149572
 40
0.4299737119930389
 40
0.5136872259156424
 40
0.596640337324375
 40
0.6788330499285719
 40
0.7602653678165191
 40
0.8409372954671578
 40
0.9208488377623972
 40
1.0
 40
1.0
 40
1.0
 40
1.0
 10
247.8945076679591
 20
320.8236113623461
 30
0.0
 10
247.9403188497348
 20
320.8226923257135
 30
0.0
 10
248.0315431636089
 20
320.8208622378837
 30
0.0
 10
248.167140885505
 20
320.8063158767973
 30
0.0
 10
248.3002991542763
 20
320.7834835874042
 30
0.0
 10
248.430451949594
 20
320.7518634769938
 30
0.0
 10
248.5570731910518
 20
320.7120537214846
 30
0.0
 10
248.67967644559
 20
320.6643964080231
 30
0.0
 10
248.7978201667953
 20
320.6093353380518
 30
0.0
 10
248.9110916348499
 20
320.5473013388891
 30
0.0
 10
249.0191676288598
 20
320.4787941026303
 30
0.0
 10
249.1215913366697
 20
320.4041491421365
 30
0.0
 10
249.2185921759816
 20
320.3243563014966
 30
0.0
 10
249.2785286345328
 20
320.2665345694824
 30
0.0
 10
249.308353604306
 20
320.2377619083802
 30
0.0
  0
LINE
  5
D4
330
1F
100
AcDbEntity
  8
0
  6
Continuous
 62
     8
370
    18
100
AcDbLine
 10
249.3083536043
 20
241.3580095202
 30
0.0
 11
248.2480164461
 21
242.4183466784
 31
0.0
  0
SPLINE
  5
D5
330
1F
100
AcDbEntity
  8
0
  6
Continuous
 62
     8
370
    18
100
AcDbSpline
210
0.0
220
0.0
230
1.0
 70
     8
 71
     3
 72
    18
 73
    14
 74
     0
 42
0.00000001
 43
0.00000001
 40
0.0
 40
0.0
 40
0.0
 40
0.0
 40
0.0863847203144899
 40
0.1736743030824768
 40
0.2618687533476214
 40
0.3509680755497302
 40
0.440972273544462
 40
0.5318813506220404
 40
0.6236953095250282
 40
0.7164141524652772
 40
0.8100378811400022
 40
0.9045664967471578
 40
1.0
 40
1.0
 40
1.0
 40
1.0
 10
249.308353604306
 20
241.3580095201899
 30
0.0
 10
249.2757505124448
 20
241.3266600167869
 30
0.0
 10
249.2102028179368
 20
241.2636326302806
 30
0.0
 10
249.1034583805656
 20
241.1774049899547
 30
0.0
 10
248.9903175183823
 20
241.0974082768979
 30
0.0
 10
248.8705477659757
 20
241.0248716067543
 30
0.0
 10
248.7447451299331
 20
240.9602418476281
 30
0.0
 10
248.6133553233654
 20
240.9041496892659
 30
0.0
 10
248.4769403312736
 20
240.8571671391747
 30
0.0
 10
248.3361055445266
 20
240.8197624312474
 30
0.0
 10
248.1915185071383
 20
240.7926977396556
 30
0.0
 10
248.0439022626763
 20
240.775425260257
 30
0.0
 10
247.9444637585093
 20
240.7732519151566
 30
0.0
 10
247.8945076679591
 20
240.772160066224
 30
0.0
  0
SPLINE
  5
D6
330
1F
100
AcDbEntity
  8
0
  6
Continuous
 62
     8
370
    18
100
AcDbSpline
210
0.0
220
0.0
230
1.0
 70
     8
 71
     3
 72
    10
 73
     6
 74
     0
 42
0.00000001
 43
0.00000001
 40
0.0
 40
0.0
 40
0.0
 40
0.0
 40
0.5
 40
0.5
 40
1.0
 40
1.0
 40
1.0
 40
1.0
 10
249.8942030582719
 20
242.7718554565368
 30
0.0
 10
249.894143262811
 20
242.5100797222582
 30
0.0
 10
249.842053194776
 20
242.2485047613329
 30
0.0
 10
249.6416612146008
 20
241.7648935111571
 30
0.0
 10
249.4934710896755
 20
241.5431270055595
 30
0.0
 10
249.308353604306
 20
241.3580095201899
 30
0.0
  0
LINE
  5
D7
330
1F
100
AcDbEntity
  8
0
  6
Continuous
 62
     8
370
    18
100
AcDbLine
 10
247.894507668
 20
320.8236113623
 30
0.0
 11
248.0066465695
 21
320.9357502639
 31
0.0
  0
LINE
  5
D8
330
1F
100
AcDbEntity
  8
0
  6
Continuous
 62
     8
370
    18
100
AcDbLine
 10
250.0063419599
 20
318.9360548736
 30
0.0
 11
249.8942030583
 21
318.823915972
 31
0.0
  0
LINE
  5
D9
330
1F
100
AcDbEntity
  8
0
  6
Continuous
 62
     8
370
    18
100
AcDbLine
 10
171.8424471525
 20
240.7721600662
 30
0.0
 11
171.7303082509
 21
240.6600211646
 31
0.0
  0
LINE
  5
DA
330
1F
100
AcDbEntity
  8
0
  6
Continuous
 62
     8
370
    18
100
AcDbLine
 10
169.7306128606
 20
242.659716555
 30
0.0
 11
169.8427517621
 21
242.7718554565
 31
0.0
  0
LINE
  5
DB
330
1F
100
AcDbEntity
  8
0
  6
Continuous
 62
     8
370
    18
100
AcDbLine
 10
249.8942030583
 20
242.7718554565
 30
0.0
 11
250.0063419599
 21
242.659716555
 31
0.0
  0
LINE
  5
DC
330
1F
100
AcDbEntity
  8
0
  6
Continuous
 62
     8
370
    18
100
AcDbLine
 10
248.0066465695
 20
240.6600211646
 30
0.0
 11
247.894507668
 21
240.7721600662
 31
0.0
  0
LINE
  5
DD
330
1F
100
AcDbEntity
  8
0
  6
Continuous
 62
     8
370
    18
100
AcDbLine
 10
169.8427517621
 20
318.823915972
 30
0.0
 11
169.7306128606
 21
318.9360548736
 31
0.0
  0
LINE
  5
DE
330
1F
100
AcDbEntity
  8
0
  6
Continuous
 62
     8
370
    18
100
AcDbLine
 10
171.7303082509
 20
320.9357502639
 30
0.0
 11
171.8424471525
 21
320.8236113623
 31
0.0
  0
SPLINE
  5
DF
330
1F
100
AcDbEntity
  8
0
  6
Continuous
 62
     7
370
    25
100
AcDbSpline
210
0.0
220
0.0
230
1.0
 70
     8
 71
     3
 72
    10
 73
     6
 74
     0
 42
0.00000001
 43
0.00000001
 40
0.0
 40
0.0
 40
0.0
 40
0.0
 40
0.3409562511006778
 40
0.6821582142588395
 40
1.0
 40
1.0
 40
1.0
 40
1.0
 10
249.339619287225
 20
152.614179976905
 30
0.0
 10
249.4462529475012
 20
152.717194663003
 30
0.0
 10
249.6595971142058
 20
152.9232982733173
 30
0.0
 10
249.8462733161728
 20
153.3261322563073
 30
0.0
 10
249.8720380900691
 20
153.6102895662695
 30
0.0
 10
249.8844638535455
 20
153.7473321631845
 30
0.0
  0
SPLINE
  5
E0
330
1F
100
AcDbEntity
  8
0
  6
Continuous
 62
     7
370
    25
100
AcDbSpline
210
0.0
220
0.0
230
1.0
 70
     8
 71
     3
 72
     9
 73
     5
 74
     0
 42
0.00000001
 43
0.00000001
 40
0.0
 40
0.0
 40
0.0
 40
0.0
 40
0.9707950476571076
 40
1.0
 40
1.0
 40
1.0
 40
1.0
 10
248.9412151584601
 20
152.3791567324033
 30
0.0
 10
249.0850083469867
 20
152.4370755857119
 30
0.0
 10
249.2331273437549
 20
152.4967368432023
 30
0.0
 10
249.3365974477684
 20
152.6108473839992
 30
0.0
 10
249.339619287225
 20
152.614179976905
 30
0.0
  0
SPLINE
  5
E1
330
1F
100
AcDbEntity
  8
0
  6
Continuous
 62
     7
370
    25
100
AcDbSpline
210
0.0
220
0.0
230
1.0
 70
     8
 71
     3
 72
     9
 73
     5
 74
     0
 42
0.00000001
 43
0.00000001
 40
0.0
 40
0.0
 40
0.0
 40
0.0
 40
0.0634861971618598
 40
0.9999999999999999
 40
0.9999999999999999
 40
0.9999999999999999
 40
0.9999999999999999
 10
170.3859251796733
 20
152.6266528742273
 30
0.0
 10
170.392700982887
 20
152.6191022990176
 30
0.0
 10
170.4994297446751
 20
152.5001697507294
 30
0.0
 10
170.6524417794255
 20
152.4376796108957
 30
0.0
 10
170.7957396619695
 20
152.3791567324002
 30
0.0
  0
SPLINE
  5
E2
330
1F
100
AcDbEntity
  8
0
  6
Continuous
 62
     7
370
    25
100
AcDbSpline
210
0.0
220
0.0
230
1.0
 70
     8
 71
     3
 72
    10
 73
     6
 74
     0
 42
0.00000001
 43
0.00000001
 40
0.0
 40
0.0
 40
0.0
 40
0.0
 40
0.3220402029859357
 40
0.6677491512868828
 40
1.0
 40
1.0
 40
1.0
 40
1.0
 10
169.8524909668763
 20
153.7473321631845
 30
0.0
 10
169.8649503371719
 20
153.6103164094156
 30
0.0
 10
169.8907847946816
 20
153.3262147586161
 30
0.0
 10
170.0744825219221
 20
152.9281973506398
 30
0.0
 10
170.2834939809911
 20
152.7258286338934
 30
0.0
 10
170.3859251796733
 20
152.6266528742273
 30
0.0
  0
SPLINE
  5
E3
330
1F
100
AcDbEntity
  8
0
  6
Continuous
 62
     7
370
    25
100
AcDbSpline
210
0.0
220
0.0
230
1.0
 70
     8
 71
     3
 72
    11
 73
     7
 74
     0
 42
0.00000001
 43
0.00000001
 40
0.0
 40
0.0
 40
0.0
 40
0.0
 40
0.2527843079683231
 40
0.5106963432290211
 40
0.7628028463833416
 40
1.0
 40
1.0
 40
1.0
 40
1.0
 10
189.310146010122
 20
135.7046737564177
 30
0.0
 10
189.2826912510229
 20
135.6907601411808
 30
0.0
 10
189.2272248132964
 20
135.6626506731538
 30
0.0
 10
189.1674305234594
 20
135.5913934575309
 30
0.0
 10
189.1310486556831
 20
135.5088532849429
 30
0.0
 10
189.1293593519007
 20
135.4510885015916
 30
0.0
 10
189.1285404370137
 20
135.4230861721574
 30
0.0
  0
SPLINE
  5
E4
330
1F
100
AcDbEntity
  8
0
  6
Continuous
 62
     7
370
    25
100
AcDbSpline
210
0.0
220
0.0
230
1.0
 70
     8
 71
     3
 72
    11
 73
     7
 74
     0
 42
0.00000001
 43
0.00000001
 40
0.0
 40
0.0
 40
0.0
 40
0.0
 40
0.2371971536167053
 40
0.4893036567710161
 40
0.7472156920317515
 40
0.9999999999999999
 40
0.9999999999999999
 40
0.9999999999999999
 40
0.9999999999999999
 10
230.608414383408
 20
135.4230861721574
 30
0.0
 10
230.607595468521
 20
135.4510885015916
 30
0.0
 10
230.6059061647386
 20
135.5088532849429
 30
0.0
 10
230.5695242969623
 20
135.5913934575309
 30
0.0
 10
230.5097300071253
 20
135.6626506731538
 30
0.0
 10
230.4542635693988
 20
135.6907601411808
 30
0.0
 10
230.4268088102997
 20
135.7046737564177
 30
0.0
  0
LINE
  5
E5
330
1F
100
AcDbEntity
  8
0
  6
Continuous
 62
     7
370
    25
100
AcDbLine
 10
191.0184774102
 20
152.2759486453
 30
0.0
 11
191.0184774102
 21
135.7259486549
 31
0.0
  0
LINE
  5
E6
330
1F
100
AcDbEntity
  8
0
  6
Continuous
 62
     7
370
    25
100
AcDbLine
 10
228.7184774102
 20
135.7259486549
 30
0.0
 11
228.7184774102
 21
152.2759486453
 31
0.0
  0
LINE
  5
E7
330
1F
100
AcDbEntity
  8
0
  6
Continuous
 62
     7
370
    25
100
AcDbLine
 10
250.0063419599
 20
160.1742034046
 30
0.0
 11
249.8942030583
 21
153.7497700356
 31
0.0
  0
LINE
  5
E8
330
1F
100
AcDbEntity
  8
0
  6
Continuous
 62
     7
370
    25
100
AcDbLine
 10
169.8427517621
 20
153.7497700356
 30
0.0
 11
169.7306128606
 21
160.1742034046
 31
0.0
  0
LINE
  5
E9
330
1F
100
AcDbEntity
  8
0
  6
Continuous
 62
     7
370
    25
100
AcDbLine
 10
248.0066465695
 20
160.2759486453
 30
0.0
 11
171.7303082509
 21
160.2759486453
 31
0.0
  0
SPLINE
  5
EA
330
1F
100
AcDbEntity
  8
0
  6
Continuous
 62
     7
370
    25
100
AcDbSpline
210
0.0
220
0.0
230
1.0
 70
    24
 71
     3
 72
    10
 73
     6
 74
     0
 42
0.00000001
 43
0.00000001
 40
0.0
 40
0.0
 40
0.0
 40
0.0
 40
0.5
 40
0.5
 40
1.0
 40
1.0
 40
1.0
 40
1.0
 10
248.0066465695423
 20
160.2759486452636
 30
0.0
 10
248.2553904957055
 20
160.2759486452636
 30
0.0
 10
248.5039318620201
 20
160.2759486452636
 30
0.0
 10
248.9634243077821
 20
160.2759486452636
 30
0.0
 10
249.174118239672
 20
160.2759486452636
 30
0.0
 10
249.3499799264782
 20
160.2759486452636
 30
0.0
  0
SPLINE
  5
EB
330
1F
100
AcDbEntity
  8
0
  6
Continuous
 62
     7
370
    25
100
AcDbSpline
210
0.0
220
0.0
230
1.0
 70
    24
 71
     3
 72
    10
 73
     6
 74
     0
 42
0.00000001
 43
0.00000001
 40
0.0
 40
0.0
 40
0.0
 40
0.0
 40
0.5
 40
0.5
 40
1.0
 40
1.0
 40
1.0
 40
1.0
 10
170.3869748939436
 20
160.2759486452636
 30
0.0
 10
170.5628365807495
 20
160.2759486452636
 30
0.0
 10
170.7735305126396
 20
160.2759486452636
 30
0.0
 10
171.2330229584019
 20
160.2759486452636
 30
0.0
 10
171.4815643247162
 20
160.2759486452636
 30
0.0
 10
171.7303082508795
 20
160.2759486452636
 30
0.0
  0
LINE
  5
EC
330
1F
100
AcDbEntity
  8
0
  6
Continuous
 62
     7
370
    25
100
AcDbLine
 10
171.8424471525
 20
152.2759486453
 30
0.0
 11
247.894507668
 21
152.2759486453
 31
0.0
  0
SPLINE
  5
ED
330
1F
100
AcDbEntity
  8
0
  6
Continuous
 62
     7
370
    25
100
AcDbSpline
210
0.0
220
0.0
230
1.0
 70
    24
 71
     3
 72
    12
 73
     8
 74
     0
 42
0.00000001
 43
0.00000001
 40
0.0
 40
0.0
 40
0.0
 40
0.0
 40
0.166546981377348
 40
0.3323150261576683
 40
0.5001726347380334
 40
0.7493502562372268
 40
1.0
 40
1.0
 40
1.0
 40
1.0
 10
248.2480164461002
 20
152.2759486452636
 30
0.0
 10
248.2320392292923
 20
152.2759486452636
 30
0.0
 10
248.2001595207709
 20
152.2759486452636
 30
0.0
 10
248.1452705331544
 20
152.2759486452636
 30
0.0
 10
248.0768619526303
 20
152.2759486452636
 30
0.0
 10
247.9928035193866
 20
152.2759486452636
 30
0.0
 10
247.9273372235538
 20
152.2759486452636
 30
0.0
 10
247.8945076679591
 20
152.2759486452636
 30
0.0
  0
SPLINE
  5
EE
330
1F
100
AcDbEntity
  8
0
  6
Continuous
 62
     7
370
    25
100
AcDbSpline
210
0.0
220
0.0
230
1.0
 70
    24
 71
     3
 72
    12
 73
     8
 74
     0
 42
0.00000001
 43
0.00000001
 40
0.0
 40
0.0
 40
0.0
 40
0.0
 40
0.1665688703932625
 40
0.3323505923075694
 40
0.5002129602156419
 40
0.7493803296404926
 40
1.0
 40
1.0
 40
1.0
 40
1.0
 10
171.8424471524626
 20
152.2759486452636
 30
0.0
 10
171.8206548890401
 20
152.2759486452636
 30
0.0
 10
171.7771733451052
 20
152.2759486452636
 30
0.0
 10
171.7128161956661
 20
152.2759486452636
 30
0.0
 10
171.6406125393946
 20
152.2759486452636
 30
0.0
 10
171.5622241457207
 20
152.2759486452636
 30
0.0
 10
171.5134142427031
 20
152.2759486452636
 30
0.0
 10
171.4889383743216
 20
152.2759486452636
 30
0.0
  0
ARC
  5
EF
330
1F
100
AcDbEntity
  8
0
  6
Continuous
 62
     7
370
    25
100
AcDbCircle
 10
249.9063571903
 20
160.1759486453
 30
0.0
 40
0.0999999999999943
100
AcDbArc
 50
359.0
 51
90.0
  0
SPLINE
  5
F0
330
1F
100
AcDbEntity
  8
0
  6
Continuous
 62
     7
370
    25
100
AcDbSpline
210
0.0
220
0.0
230
1.0
 70
    24
 71
     3
 72
    10
 73
     6
 74
     0
 42
0.00000001
 43
0.00000001
 40
0.0
 40
0.0
 40
0.0
 40
0.0
 40
0.5
 40
0.5
 40
1.0
 40
1.0
 40
1.0
 40
1.0
 10
249.3499799264782
 20
160.2759486452636
 30
0.0
 10
249.5258416132738
 20
160.2759486452636
 30
0.0
 10
249.666606127398
 20
160.2759486452636
 30
0.0
 10
249.8569171536354
 20
160.2759486452636
 30
0.0
 10
249.9063571903299
 20
160.2759486452636
 30
0.0
 10
249.9063571903394
 20
160.2759486452636
 30
0.0
  0
ARC
  5
F1
330
1F
100
AcDbEntity
  8
0
  6
Continuous
 62
     7
370
    25
100
AcDbCircle
 10
169.8305976301
 20
160.1759486453
 30
0.0
 40
0.0999999999999943
100
AcDbArc
 50
90.0
 51
181.0
  0
SPLINE
  5
F2
330
1F
100
AcDbEntity
  8
0
  6
Continuous
 62
     7
370
    25
100
AcDbSpline
210
0.0
220
0.0
230
1.0
 70
    24
 71
     3
 72
    10
 73
     6
 74
     0
 42
0.00000001
 43
0.00000001
 40
0.0
 40
0.0
 40
0.0
 40
0.0
 40
0.5
 40
0.5
 40
1.0
 40
1.0
 40
1.0
 40
1.0
 10
169.8305976300824
 20
160.2759486452636
 30
0.0
 10
169.8305976300919
 20
160.2759486452636
 30
0.0
 10
169.8800376667856
 20
160.2759486452636
 30
0.0
 10
170.0703486930246
 20
160.2759486452636
 30
0.0
 10
170.2111132071478
 20
160.2759486452636
 30
0.0
 10
170.3869748939436
 20
160.2759486452636
 30
0.0
  0
ARC
  5
F3
330
1F
100
AcDbEntity
  8
0
  6
Continuous
 62
     7
370
    25
100
AcDbCircle
 10
248.3944315155
 20
153.7759486453
 30
0.0
 40
1.5
100
AcDbArc
 50
270.0
 51
359.0
  0
SPLINE
  5
F4
330
1F
100
AcDbEntity
  8
0
  6
Continuous
 62
     7
370
    25
100
AcDbSpline
210
0.0
220
0.0
230
1.0
 70
    24
 71
     3
 72
    12
 73
     8
 74
     0
 42
0.00000001
 43
0.00000001
 40
0.0
 40
0.0
 40
0.0
 40
0.0
 40
0.1665688703924325
 40
0.3323505923067357
 40
0.5002129602155954
 40
0.7493803296395605
 40
1.0
 40
1.0
 40
1.0
 40
1.0
 10
248.3944315155373
 20
152.2759486452636
 30
0.0
 10
248.3936258909355
 20
152.2759486452636
 30
0.0
 10
248.3920184488427
 20
152.2759486452636
 30
0.0
 10
248.3787474191974
 20
152.2759486452636
 30
0.0
 10
248.3542084726111
 20
152.2759486452636
 30
0.0
 10
248.3137290154822
 20
152.2759486452636
 30
0.0
 10
248.2699630282061
 20
152.2759486452636
 30
0.0
 10
248.2480164461002
 20
152.2759486452636
 30
0.0
  0
SPLINE
  5
F5
330
1F
100
AcDbEntity
  8
0
  6
Continuous
 62
     7
370
    25
100
AcDbSpline
210
0.0
220
0.0
230
1.0
 70
    24
 71
     3
 72
    12
 73
     8
 74
     0
 42
0.00000001
 43
0.00000001
 40
0.0
 40
0.0
 40
0.0
 40
0.0
 40
0.166546981377348
 40
0.3323150261576683
 40
0.5001726347380334
 40
0.7493502562372268
 40
1.0
 40
1.0
 40
1.0
 40
1.0
 10
171.4889383743216
 20
152.2759486452636
 30
0.0
 10
171.4741007134909
 20
152.2759486452636
 30
0.0
 10
171.4444947872453
 20
152.2759486452636
 30
0.0
 10
171.4083771987891
 20
152.2759486452636
 30
0.0
 10
171.3746779356975
 20
152.2759486452636
 30
0.0
 10
171.3478769476797
 20
152.2759486452636
 30
0.0
 10
171.344311353019
 20
152.2759486452636
 30
0.0
 10
171.3425233048844
 20
152.2759486452636
 30
0.0
  0
ARC
  5
F6
330
1F
100
AcDbEntity
  8
0
  6
Continuous
 62
     7
370
    25
100
AcDbCircle
 10
171.3425233049
 20
153.7759486453
 30
0.0
 40
1.5
100
AcDbArc
 50
181.0
 51
270.0
  0
LINE
  5
F7
330
1F
100
AcDbEntity
  8
0
  6
Continuous
 62
     7
370
    25
100
AcDbLine
 10
230.6158365033
 20
135.4233306942
 30
0.0
 11
230.6008301832
 21
135.4230967594
 31
0.0
  0
LINE
  5
F8
330
1F
100
AcDbEntity
  8
0
  6
Continuous
 62
     7
370
    25
100
AcDbLine
 10
230.6158365033
 20
135.4233306942
 30
0.0
 11
230.3312492269
 21
102.8128588516
 31
0.0
  0
LINE
  5
F9
330
1F
100
AcDbEntity
  8
0
  6
Continuous
 62
     7
370
    25
100
AcDbLine
 10
229.1158936187
 20
135.7259486549
 30
0.0
 11
190.6210612017
 21
135.7259486549
 31
0.0
  0
LINE
  5
FA
330
1F
100
AcDbEntity
  8
0
  6
Continuous
 62
     7
370
    25
100
AcDbLine
 10
189.4057055935
 20
102.8128588516
 30
0.0
 11
189.1211183171
 21
135.4233306942
 31
0.0
  0
SPLINE
  5
FB
330
1F
100
AcDbEntity
  8
0
  6
Continuous
 62
     7
370
    25
100
AcDbSpline
210
0.0
220
0.0
230
1.0
 70
    24
 71
     3
 72
     8
 73
     4
 74
     0
 42
0.00000001
 43
0.00000001
 40
0.0
 40
0.0
 40
0.0
 40
0.0
 40
1.0
 40
1.0
 40
1.0
 40
1.0
 10
189.7725598307697
 20
135.7259486548663
 30
0.0
 10
189.9960235792244
 20
135.7259486548663
 30
0.0
 10
190.3050236462686
 20
135.7259486548663
 30
0.0
 10
190.6210612017408
 20
135.7259486548663
 30
0.0
  0
SPLINE
  5
FC
330
1F
100
AcDbEntity
  8
0
  6
Continuous
 62
     7
370
    25
100
AcDbSpline
210
0.0
220
0.0
230
1.0
 70
    24
 71
     3
 72
     8
 73
     4
 74
     0
 42
0.00000001
 43
0.00000001
 40
0.0
 40
0.0
 40
0.0
 40
0.0
 40
1.0
 40
1.0
 40
1.0
 40
1.0
 10
229.1158936186809
 20
135.7259486548663
 30
0.0
 10
229.4319311741542
 20
135.7259486548663
 30
0.0
 10
229.7409312411958
 20
135.7259486548663
 30
0.0
 10
229.9643949896521
 20
135.7259486548663
 30
0.0
  0
ARC
  5
FD
330
1F
100
AcDbEntity
  8
0
  6
Continuous
 62
     7
370
    25
100
AcDbCircle
 10
190.9056484781
 20
102.8259486549
 30
0.0
 40
1.500000000000008
100
AcDbArc
 50
180.5
 51
270.0
  0
ARC
  5
FE
330
1F
100
AcDbEntity
  8
0
  6
Continuous
 62
     7
370
    25
100
AcDbCircle
 10
228.8313063423
 20
102.8259486549
 30
0.0
 40
1.5
100
AcDbArc
 50
270.0
 51
359.5
  0
LINE
  5
FF
330
1F
100
AcDbEntity
  8
0
  6
Continuous
 62
     7
370
    25
100
AcDbLine
 10
190.9056484781
 20
101.3259486549
 30
0.0
 11
228.8313063423
 21
101.3259486549
 31
0.0
  0
LWPOLYLINE
  5
100
330
1F
100
AcDbEntity
  8
0
  6
Continuous
 62
     7
370
    25
100
AcDbPolyline
 90
        3
 70
   128
 43
0.0
 10
189.1211183171
 20
135.4233306942
 10
189.1264329899
 20
135.4822273385
 10
189.1297832623
 20
135.4975764537
  0
ARC
  5
101
330
1F
100
AcDbEntity
  8
0
  6
Continuous
 62
     7
370
    25
100
AcDbCircle
 10
189.4211068941
 20
135.4259486549
 30
0.0
 40
0.2999999999999963
100
AcDbArc
 50
90.0
 51
131.9896015709
  0
SPLINE
  5
102
330
1F
100
AcDbEntity
  8
0
  6
Continuous
 62
     7
370
    25
100
AcDbSpline
210
0.0
220
0.0
230
1.0
 70
    24
 71
     3
 72
     8
 73
     4
 74
     0
 42
0.00000001
 43
0.00000001
 40
0.0
 40
0.0
 40
0.0
 40
0.0
 40
1.0
 40
1.0
 40
1.0
 40
1.0
 10
189.4211068940638
 20
135.7259486548663
 30
0.0
 10
189.4211068941099
 20
135.7259486548663
 30
0.0
 10
189.5490960823791
 20
135.7259486548663
 30
0.0
 10
189.7725598307696
 20
135.7259486548663
 30
0.0
  0
LWPOLYLINE
  5
103
330
1F
100
AcDbEntity
  8
0
  6
Continuous
 62
     7
370
    25
100
AcDbPolyline
 90
        3
 70
   128
 43
0.0
 10
230.6158365033
 20
135.4233306942
 10
230.6105218305
 20
135.4822273385
 10
230.6071715582
 20
135.4975764537
  0
ARC
  5
104
330
1F
100
AcDbEntity
  8
0
  6
Continuous
 62
     7
370
    25
100
AcDbCircle
 10
230.3158479264
 20
135.4259486549
 30
0.0
 40
0.3000000000000153
100
AcDbArc
 50
48.0103984291
 51
90.0
  0
SPLINE
  5
105
330
1F
100
AcDbEntity
  8
0
  6
Continuous
 62
     7
370
    25
100
AcDbSpline
210
0.0
220
0.0
230
1.0
 70
    24
 71
     3
 72
     8
 73
     4
 74
     0
 42
0.00000001
 43
0.00000001
 40
0.0
 40
0.0
 40
0.0
 40
0.0
 40
1.0
 40
1.0
 40
1.0
 40
1.0
 10
229.9643949896521
 20
135.7259486548663
 30
0.0
 10
230.1878587380431
 20
135.7259486548663
 30
0.0
 10
230.3158479263118
 20
135.7259486548663
 30
0.0
 10
230.3158479263579
 20
135.7259486548663
 30
0.0
  0
LINE
  5
106
330
1F
100
AcDbEntity
  8
0
  6
Continuous
 62
     8
370
    18
100
AcDbLine
 10
247.894507668
 20
153.7497700356
 30
0.0
 11
248.0066465695
 21
160.1742034046
 31
0.0
  0
SPLINE
  5
107
330
1F
100
AcDbEntity
  8
0
  6
Continuous
 62
     8
370
    18
100
AcDbSpline
210
0.0
220
0.0
230
1.0
 70
     8
 71
     3
 72
    18
 73
    14
 74
     0
 42
0.00000001
 43
0.00000001
 40
0.0
 40
0.0
 40
0.0
 40
0.0
 40
0.0863807640641049
 40
0.1736665713609804
 40
0.2618576428871709
 40
0.350954192452779
 40
0.4409564269645012
 40
0.5318645466947644
 40
0.6236787455377022
 40
0.7163992112527642
 40
0.8100261256967128
 40
0.9045596650445242
 40
1.0
 40
1.0
 40
1.0
 40
1.0
 10
249.4206690703586
 20
160.1734808780713
 30
0.0
 10
249.3880656796277
 20
160.1734806763672
 30
0.0
 10
249.3225173003753
 20
160.1734802708456
 30
0.0
 10
249.2157681582376
 20
160.1734836424278
 30
0.0
 10
249.10261988493
 20
160.1734972617888
 30
0.0
 10
248.9828397380404
 20
160.1735253260131
 30
0.0
 10
248.857023803996
 20
160.1735710095431
 30
0.0
 10
248.7256177764608
 20
160.1736360495536
 30
0.0
 10
248.5891836497196
 20
160.1737207185127
 30
0.0
 10
248.4483268119577
 20
160.1738237593262
 30
0.0
 10
248.3037148224653
 20
160.1739421044771
 30
0.0
 10
248.1560706795018
 20
160.1740715496148
 30
0.0
 10
248.0566128523773
 20
160.1741593133117
 30
0.0
 10
248.0066465695423
 20
160.1742034046199
 30
0.0
  0
SPLINE
  5
108
330
1F
100
AcDbEntity
  8
0
  6
Continuous
 62
     8
370
    18
100
AcDbSpline
210
0.0
220
0.0
230
1.0
 70
     8
 71
     3
 72
    19
 73
    15
 74
     0
 42
0.00000001
 43
0.00000001
 40
0.0
 40
0.0
 40
0.0
 40
0.0
 40
0.0875219065052871
 40
0.174281782429396
 40
0.2602797601982956
 40
0.3455159760638839
 40
0.4299905702389538
 40
0.5137036870381267
 40
0.5966554750252983
 40
0.6788460871677462
 40
0.7602756809974137
 40
0.8409444187797279
 40
0.9208524676902834
 40
0.9999999999999999
 40
0.9999999999999999
 40
0.9999999999999999
 40
0.9999999999999999
 10
250.006341959855
 20
160.1742034046199
 30
0.0
 10
250.0054324984087
 20
160.1741630087744
 30
0.0
 10
250.0036214939613
 20
160.1740825687995
 30
0.0
 10
249.9891008635099
 20
160.1739632129264
 30
0.0
 10
249.966291959844
 20
160.1738523685663
 30
0.0
 10
249.9346927401488
 20
160.1737535233522
 30
0.0
 10
249.8949014139436
 20
160.1736694327441
 30
0.0
 10
249.8472600599167
 20
160.1736015310257
 30
0.0
 10
249.7922124823234
 20
160.1735501566579
 30
0.0
 10
249.7301895029442
 20
160.1735145614616
 30
0.0
 10
249.6616908318084
 20
160.1734930046755
 30
0.0
 10
249.5870519173041
 20
160.1734827427484
 30
0.0
 10
249.5072628374544
 20
160.1734803638662
 30
0.0
 10
249.4494415027482
 20
160.1734807072169
 30
0.0
 10
249.4206690703586
 20
160.1734808780713
 30
0.0
  0
SPLINE
  5
109
330
1F
100
AcDbEntity
  8
0
  6
Continuous
 62
     8
370
    18
100
AcDbSpline
210
0.0
220
0.0
230
1.0
 70
     8
 71
     3
 72
    10
 73
     6
 74
     0
 42
0.00000001
 43
0.00000001
 40
0.0
 40
0.0
 40
0.0
 40
0.0
 40
0.5
 40
0.5
 40
1.0
 40
1.0
 40
1.0
 40
1.0
 10
249.308353604306
 20
153.7389321373791
 30
0.0
 10
249.4934710896756
 20
153.7389321373758
 30
0.0
 10
249.6416612146008
 20
153.7398952010426
 30
0.0
 10
249.8420531947761
 20
153.7436023443579
 30
0.0
 10
249.894143262811
 20
153.7463443559436
 30
0.0
 10
249.8942030582719
 20
153.7497700356077
 30
0.0
  0
SPLINE
  5
10A
330
1F
100
AcDbEntity
  8
0
  6
Continuous
 62
     8
370
    18
100
AcDbSpline
210
0.0
220
0.0
230
1.0
 70
     8
 71
     3
 72
    19
 73
    15
 74
     0
 42
0.00000001
 43
0.00000001
 40
0.0
 40
0.0
 40
0.0
 40
0.0
 40
0.0875155696262907
 40
0.1742707235008578
 40
0.2602654635968253
 40
0.3454997922149572
 40
0.4299737119930389
 40
0.5136872259156424
 40
0.596640337324375
 40
0.6788330499285719
 40
0.7602653678165191
 40
0.8409372954671578
 40
0.9208488377623972
 40
1.0
 40
1.0
 40
1.0
 40
1.0
 10
247.8945076679591
 20
153.7497700356077
 30
0.0
 10
247.9403188497348
 20
153.7491821068651
 30
0.0
 10
248.0315431636089
 20
153.7480113578456
 30
0.0
 10
248.167140885505
 20
153.746423266567
 30
0.0
 10
248.3002991542763
 20
153.7449753398706
 30
0.0
 10
248.430451949594
 20
153.743682228908
 30
0.0
 10
248.5570731910518
 20
153.7425437319925
 30
0.0
 10
248.67967644559
 20
153.7415620829618
 30
0.0
 10
248.7978201667953
 20
153.7407373419227
 30
0.0
 10
248.9110916348499
 20
153.7400690790417
 30
0.0
 10
249.0191676288598
 20
153.7395545666745
 30
0.0
 10
249.1215913366697
 20
153.7391946423669
 30
0.0
 10
249.2185921759816
 20
153.7389727286954
 30
0.0
 10
249.2785286345328
 20
153.7389456246286
 30
0.0
 10
249.308353604306
 20
153.7389321373791
 30
0.0
  0
SPLINE
  5
10B
330
1F
100
AcDbEntity
  8
0
  6
Continuous
 62
     8
370
    18
100
AcDbSpline
210
0.0
220
0.0
230
1.0
 70
     8
 71
     3
 72
    18
 73
    14
 74
     0
 42
0.00000001
 43
0.00000001
 40
0.0
 40
0.0
 40
0.0
 40
0.0
 40
0.0863807640641111
 40
0.1736665713609928
 40
0.2618576428871833
 40
0.350954192452795
 40
0.4409564269645191
 40
0.531864546694784
 40
0.6236787455377202
 40
0.716399211252778
 40
0.8100261256967214
 40
0.9045596650445288
 40
1.0
 40
1.0
 40
1.0
 40
1.0
 10
170.3162857500632
 20
160.1734808780713
 30
0.0
 10
170.284936518185
 20
160.1734806763672
 30
0.0
 10
170.2219095969245
 20
160.1734802708456
 30
0.0
 10
170.1356864291567
 20
160.1734836424278
 30
0.0
 10
170.0556969108736
 20
160.1734972617888
 30
0.0
 10
169.9831704377268
 20
160.1735253260131
 30
0.0
 10
169.9185538004122
 20
160.1735710095431
 30
0.0
 10
169.8624777097448
 20
160.1736360495536
 30
0.0
 10
169.8155141686701
 20
160.1737207185127
 30
0.0
 10
169.7781314037017
 20
160.1738237593262
 30
0.0
 10
169.7510916264478
 20
160.1739421044771
 30
0.0
 10
169.7338468590292
 20
160.1740715496148
 30
0.0
 10
169.7316942849895
 20
160.1741593133117
 30
0.0
 10
169.7306128605667
 20
160.1742034046199
 30
0.0
  0
SPLINE
  5
10C
330
1F
100
AcDbEntity
  8
0
  6
Continuous
 62
     8
370
    18
100
AcDbSpline
210
0.0
220
0.0
230
1.0
 70
     8
 71
     3
 72
    19
 73
    15
 74
     0
 42
0.00000001
 43
0.00000001
 40
0.0
 40
0.0
 40
0.0
 40
0.0
 40
0.0875219065052871
 40
0.1742817824294003
 40
0.2602797601982955
 40
0.3455159760638881
 40
0.4299905702389579
 40
0.5137036870381324
 40
0.5966554750253019
 40
0.6788460871677461
 40
0.7602756809974174
 40
0.8409444187797314
 40
0.9208524676902834
 40
1.0
 40
1.0
 40
1.0
 40
1.0
 10
171.7303082508795
 20
160.1742034046199
 30
0.0
 10
171.6844876884126
 20
160.1741630087744
 30
0.0
 10
171.5932455112536
 20
160.1740825687995
 30
0.0
 10
171.4576219057746
 20
160.1739632129264
 30
0.0
 10
171.3244402301556
 20
160.1738523685663
 30
0.0
 10
171.1942664664163
 20
160.1737535233522
 30
0.0
 10
171.0676267068309
 20
160.1736694327441
 30
0.0
 10
170.9450073835669
 20
160.1736015310257
 30
0.0
 10
170.8268500438939
 20
160.1735501566579
 30
0.0
 10
170.7135674139535
 20
160.1735145614616
 30
0.0
 10
170.6054826983452
 20
160.1734930046755
 30
0.0
 10
170.5030527751727
 20
160.1734827427484
 30
0.0
 10
170.4060479948228
 20
160.1734803638662
 30
0.0
 10
170.3461109696501
 20
160.1734807072169
 30
0.0
 10
170.3162857500632
 20
160.1734808780713
 30
0.0
  0
LINE
  5
10D
330
1F
100
AcDbEntity
  8
0
  6
Continuous
 62
     8
370
    18
100
AcDbLine
 10
171.7303082509
 20
160.1742034046
 30
0.0
 11
171.8424471525
 21
153.7497700356
 31
0.0
  0
SPLINE
  5
10E
330
1F
100
AcDbEntity
  8
0
  6
Continuous
 62
     8
370
    18
100
AcDbSpline
210
0.0
220
0.0
230
1.0
 70
     8
 71
     3
 72
    10
 73
     6
 74
     0
 42
0.00000001
 43
0.00000001
 40
0.0
 40
0.0
 40
0.0
 40
0.0
 40
0.5
 40
0.5
 40
1.0
 40
1.0
 40
1.0
 40
1.0
 10
170.4286012161158
 20
153.7389321373791
 30
0.0
 10
170.6137187014854
 20
153.7389321373758
 30
0.0
 10
170.8354852070829
 20
153.7398952010426
 30
0.0
 10
171.3190964572588
 20
153.7436023443579
 30
0.0
 10
171.580671418184
 20
153.7463443559436
 30
0.0
 10
171.8424471524626
 20
153.7497700356077
 30
0.0
  0
SPLINE
  5
10F
330
1F
100
AcDbEntity
  8
0
  6
Continuous
 62
     8
370
    18
100
AcDbSpline
210
0.0
220
0.0
230
1.0
 70
     8
 71
     3
 72
    19
 73
    15
 74
     0
 42
0.00000001
 43
0.00000001
 40
0.0
 40
0.0
 40
0.0
 40
0.0
 40
0.0875155696262907
 40
0.1742707235008578
 40
0.2602654635968253
 40
0.3454997922149572
 40
0.4299737119930389
 40
0.5136872259156424
 40
0.596640337324375
 40
0.678833049928578
 40
0.7602653678165191
 40
0.8409372954671578
 40
0.9208488377623972
 40
1.0
 40
1.0
 40
1.0
 40
1.0
 10
169.8427517621498
 20
153.7497700356077
 30
0.0
 10
169.8436707987825
 20
153.7491821068651
 30
0.0
 10
169.8455008866123
 20
153.7480113578456
 30
0.0
 10
169.8600472476987
 20
153.746423266567
 30
0.0
 10
169.8828795370917
 20
153.7449753398706
 30
0.0
 10
169.9144996475021
 20
153.743682228908
 30
0.0
 10
169.9543094030114
 20
153.7425437319925
 30
0.0
 10
170.0019667164729
 20
153.7415620829618
 30
0.0
 10
170.0570277864441
 20
153.7407373419227
 30
0.0
 10
170.1190617856068
 20
153.7400690790417
 30
0.0
 10
170.1875690218656
 20
153.7395545666745
 30
0.0
 10
170.2622139823594
 20
153.7391946423669
 30
0.0
 10
170.3420068229994
 20
153.7389727286954
 30
0.0
 10
170.3998285550136
 20
153.7389456246286
 30
0.0
 10
170.4286012161158
 20
153.7389321373791
 30
0.0
  0
LINE
  5
110
330
1F
100
AcDbEntity
  8
0
  6
Continuous
 62
     8
370
    18
100
AcDbLine
 10
171.7303082509
 20
160.1742034046
 30
0.0
 11
248.0066465695
 21
160.1742034046
 31
0.0
  0
LINE
  5
111
330
1F
100
AcDbEntity
  8
0
  6
Continuous
 62
     8
370
    18
100
AcDbLine
 10
171.8424471525
 20
153.7497700356
 30
0.0
 11
247.894507668
 21
153.7497700356
 31
0.0
  0
LINE
  5
112
330
1F
100
AcDbEntity
  8
0
  6
Continuous
 62
     8
370
    18
100
AcDbLine
 10
248.0066465695
 20
160.1742034046
 30
0.0
 11
248.0066465695
 21
160.2759486453
 31
0.0
  0
LINE
  5
113
330
1F
100
AcDbEntity
  8
0
  6
Continuous
 62
     8
370
    18
100
AcDbLine
 10
171.7303082509
 20
160.1742034046
 30
0.0
 11
171.7303082509
 21
160.2759486453
 31
0.0
  0
ARC
  5
114
330
1F
100
AcDbEntity
  8
0
  6
Continuous
 62
     8
370
    18
100
AcDbCircle
 10
249.331715815
 20
160.1877318934
 30
0.0
 40
0.0900875855839164
100
AcDbArc
 50
350.8981083054
 51
78.3029268394
  0
ARC
  5
115
330
1F
100
AcDbEntity
  8
0
  6
Continuous
 62
     8
370
    18
100
AcDbCircle
 10
170.4052390054
 20
160.1877318934
 30
0.0
 40
0.0900875855838374
100
AcDbArc
 50
101.6970731606
 51
189.1018916946
  0
LINE
  5
116
330
1F
100
AcDbEntity
  8
0
  6
Continuous
 62
     8
370
    18
100
AcDbLine
 10
171.8424471525
 20
153.7497700356
 30
0.0
 11
171.8424471525
 21
152.2759486453
 31
0.0
  0
LINE
  5
117
330
1F
100
AcDbEntity
  8
0
  6
Continuous
 62
     8
370
    18
100
AcDbLine
 10
247.894507668
 20
152.2759486453
 30
0.0
 11
247.894507668
 21
153.7497700356
 31
0.0
  0
ARC
  5
118
330
1F
100
AcDbEntity
  8
0
  6
Continuous
 62
     8
370
    18
100
AcDbCircle
 10
247.9916218758
 20
153.5775234709
 30
0.0
 40
1.326587804262662
100
AcDbArc
 50
281.1438971937
 51
6.9886115513
  0
ARC
  5
119
330
1F
100
AcDbEntity
  8
0
  6
Continuous
 62
     8
370
    18
100
AcDbCircle
 10
171.7453329446
 20
153.5775234709
 30
0.0
 40
1.326587804262714
100
AcDbArc
 50
173.0113884487
 51
258.8561028063
  0
SPLINE
  5
11A
330
1F
100
AcDbEntity
  8
0
  6
Continuous
 62
     8
370
    18
100
AcDbSpline
210
0.0
220
0.0
230
1.0
 70
     8
 71
     3
 72
    16
 73
    12
 74
     0
 42
0.00000001
 43
0.00000001
 40
0.0
 40
0.0
 40
0.0
 40
0.0
 40
0.1057030580188662
 40
0.2127580367760147
 40
0.3211649804299606
 40
0.4309239300101836
 40
0.5420349235508543
 40
0.654497996216526
 40
0.7683131804203852
 40
0.8834805059355682
 40
1.0
 40
1.0
 40
1.0
 40
1.0
 10
230.176510870255
 20
135.4222464403736
 30
0.0
 10
230.1464569019009
 20
135.4222482885283
 30
0.0
 10
230.0859645810147
 20
135.4222520084753
 30
0.0
 10
229.985852930013
 20
135.4222861044439
 30
0.0
 10
229.8787512066407
 20
135.4223457387543
 30
0.0
 10
229.7645313466064
 20
135.4224352312565
 30
0.0
 10
229.6440339071735
 20
135.4225555294384
 30
0.0
 10
229.5179613355562
 20
135.4227068642934
 30
0.0
 10
229.3871793648831
 20
135.4228884156492
 30
0.0
 10
229.2526325790413
 20
135.423096333321
 30
0.0
 10
229.16165026885
 20
135.4232522705584
 30
0.0
 10
229.1158936186809
 20
135.4233306942168
 30
0.0
  0
SPLINE
  5
11B
330
1F
100
AcDbEntity
  8
0
  6
Continuous
 62
     8
370
    18
100
AcDbSpline
210
0.0
220
0.0
230
1.0
 70
     8
 71
     3
 72
    10
 73
     6
 74
     0
 42
0.00000001
 43
0.00000001
 40
0.0
 40
0.0
 40
0.0
 40
0.0
 40
0.1549179056682013
 40
0.44528090419894
 40
1.0
 40
1.0
 40
1.0
 40
1.0
 10
230.6008301831841
 20
135.4230967594346
 30
0.0
 10
230.5969103522183
 20
135.4230095252099
 30
0.0
 10
230.5856435727636
 20
135.4227587876708
 30
0.0
 10
230.4774568539968
 20
135.4223578958496
 30
0.0
 10
230.2957710088825
 20
135.4222906084178
 30
0.0
 10
230.1765108702549
 20
135.4222464403736
 30
0.0
  0
ARC
  5
11C
330
1F
100
AcDbEntity
  8
0
  6
Continuous
 62
     8
370
    18
100
AcDbCircle
 10
229.5812777846
 20
145.787390865
 30
0.0
 40
42.98107559073302
100
AcDbArc
 50
269.0002023313
 51
270.9997976686
  0
LINE
  5
11D
330
1F
100
AcDbEntity
  8
0
  6
Continuous
 62
     8
370
    18
100
AcDbLine
 10
228.8313063423
 20
102.8128588516
 30
0.0
 11
229.1158936187
 21
135.4233306942
 31
0.0
  0
LINE
  5
11E
330
1F
100
AcDbEntity
  8
0
  6
Continuous
 62
     8
370
    18
100
AcDbLine
 10
190.6210612017
 20
135.4233306942
 30
0.0
 11
229.1158936187
 21
135.4233306942
 31
0.0
  0
LINE
  5
11F
330
1F
100
AcDbEntity
  8
0
  6
Continuous
 62
     8
370
    18
100
AcDbLine
 10
190.9056484781
 20
102.8128588516
 30
0.0
 11
228.8313063423
 21
102.8128588516
 31
0.0
  0
LINE
  5
120
330
1F
100
AcDbEntity
  8
0
  6
Continuous
 62
     8
370
    18
100
AcDbLine
 10
190.6210612017
 20
135.4233306942
 30
0.0
 11
190.9056484781
 21
102.8128588516
 31
0.0
  0
LINE
  5
121
330
1F
100
AcDbEntity
  8
0
  6
Continuous
 62
     8
370
    18
100
AcDbLine
 10
229.1158936187
 20
135.4233306942
 30
0.0
 11
229.1158936187
 21
135.7259486549
 31
0.0
  0
LINE
  5
122
330
1F
100
AcDbEntity
  8
0
  6
Continuous
 62
     8
370
    18
100
AcDbLine
 10
190.6210612017
 20
135.4233306942
 30
0.0
 11
190.6210612017
 21
135.7259486549
 31
0.0
  0
SPLINE
  5
123
330
1F
100
AcDbEntity
  8
0
  6
Continuous
 62
     8
370
    18
100
AcDbSpline
210
0.0
220
0.0
230
1.0
 70
     8
 71
     3
 72
    16
 73
    12
 74
     0
 42
0.00000001
 43
0.00000001
 40
0.0
 40
0.0
 40
0.0
 40
0.0
 40
0.1057030580189527
 40
0.2127580367761575
 40
0.3211649804301464
 40
0.4309239300103874
 40
0.5420349235510591
 40
0.65449799621671
 40
0.7683131804205288
 40
0.8834805059356465
 40
1.0
 40
1.0
 40
1.0
 40
1.0
 10
189.5604439501668
 20
135.4222464403736
 30
0.0
 10
189.5317989038092
 20
135.4222482885283
 30
0.0
 10
189.4741424467432
 20
135.4222520084753
 30
0.0
 10
189.3971391744371
 20
135.4222861044439
 30
0.0
 10
189.3274321733925
 20
135.4223457387543
 30
0.0
 10
189.2665447535267
 20
135.4224352312565
 30
0.0
 10
189.2151267705598
 20
135.4225555294385
 30
0.0
 10
189.1739267744398
 20
135.4227068642934
 30
0.0
 10
189.1439473340585
 20
135.4228884156492
 30
0.0
 10
189.1247319797581
 20
135.423096333321
 30
0.0
 10
189.1223275489217
 20
135.4232522705584
 30
0.0
 10
189.1211183171446
 20
135.4233306942168
 30
0.0
  0
SPLINE
  5
124
330
1F
100
AcDbEntity
  8
0
  6
Continuous
 62
     8
370
    18
100
AcDbSpline
210
0.0
220
0.0
230
1.0
 70
     8
 71
     3
 72
    17
 73
    13
 74
     0
 42
0.00000001
 43
0.00000001
 40
0.0
 40
0.0
 40
0.0
 40
0.0
 40
0.1049290128402316
 40
0.2087626174290065
 40
0.3115008378520629
 40
0.413143699797613
 40
0.5136912306173694
 40
0.613143459390861
 40
0.7115004169933861
 40
0.8087621361677378
 40
0.9049286516000604
 40
1.0
 40
1.0
 40
1.0
 40
1.0
 10
190.6210612017408
 20
135.4233306942168
 30
0.0
 10
190.5798563042258
 20
135.4232599427218
 30
0.0
 10
190.4978766684388
 20
135.4231191783433
 30
0.0
 10
190.3763794771827
 20
135.4229286716267
 30
0.0
 10
190.2577679966984
 20
135.4227589482596
 30
0.0
 10
190.1427515391712
 20
135.4226131990862
 30
0.0
 10
190.0319728169201
 20
135.4224923099458
 30
0.0
 10
189.9260245625115
 20
135.4223966710781
 30
0.0
 10
189.825382414072
 20
135.4223256068996
 30
0.0
 10
189.7306480144305
 20
135.4222781912667
 30
0.0
 10
189.6416569092197
 20
135.4222509381434
 30
0.0
 10
189.5874113867523
 20
135.4222479338954
 30
0.0
 10
189.5604439501668
 20
135.4222464403736
 30
0.0
  0
ARC
  5
125
330
1F
100
AcDbEntity
  8
0
  6
Continuous
 62
     8
370
    18
100
AcDbCircle
 10
190.1556770358
 20
145.7873908629
 30
0.0
 40
42.98107558855359
100
AcDbArc
 50
269.0002023313
 51
270.9997976687
  0
ARC
  5
126
330
1F
100
AcDbEntity
  8
0
  6
Continuous
 62
     8
370
    18
100
AcDbCircle
 10
189.8264720543
 20
135.4623689841
 30
0.0
 40
0.2690367460256353
100
AcDbArc
 50
101.5597552262
 51
188.5767477284
  0
ARC
  5
127
330
1F
100
AcDbEntity
  8
0
  6
Continuous
 62
     8
370
    18
100
AcDbCircle
 10
229.9104827661
 20
135.4623689841
 30
0.0
 40
0.2690367460257024
100
AcDbArc
 50
351.4232522716
 51
78.4402447738
  0
LINE
  5
128
330
1F
100
AcDbEntity
  8
0
  6
Continuous
 62
     8
370
    18
100
AcDbLine
 10
190.9056484781
 20
102.8128588516
 30
0.0
 11
190.9056484781
 21
101.3259486549
 31
0.0
  0
LINE
  5
129
330
1F
100
AcDbEntity
  8
0
  6
Continuous
 62
     8
370
    18
100
AcDbLine
 10
228.8313063423
 20
101.3259486549
 30
0.0
 11
228.8313063423
 21
102.8128588516
 31
0.0
  0
SPLINE
  5
12A
330
1F
100
AcDbEntity
  8
0
  6
Continuous
 62
     7
370
    25
100
AcDbSpline
210
0.0
220
0.0
230
1.0
 70
     8
 71
     3
 72
    10
 73
     6
 74
     0
 42
0.00000001
 43
0.00000001
 40
0.0
 40
0.0
 40
0.0
 40
0.0
 40
0.3409562511006531
 40
0.682158214258828
 40
1.0
 40
1.0
 40
1.0
 40
1.0
 10
341.9736460047348
 20
320.2690275912991
 30
0.0
 10
341.8706313186367
 20
320.3756612515752
 30
0.0
 10
341.6645277083225
 20
320.5890054182799
 30
0.0
 10
341.2616937253324
 20
320.7756816202469
 30
0.0
 10
340.9775364153702
 20
320.8014463941433
 30
0.0
 10
340.8404938184552
 20
320.8138721576196
 30
0.0
  0
SPLINE
  5
12B
330
1F
100
AcDbEntity
  8
0
  6
Continuous
 62
     7
370
    25
100
AcDbSpline
210
0.0
220
0.0
230
1.0
 70
     8
 71
     3
 72
     9
 73
     5
 74
     0
 42
0.00000001
 43
0.00000001
 40
0.0
 40
0.0
 40
0.0
 40
0.0
 40
0.9707950476570065
 40
1.0
 40
1.0
 40
1.0
 40
1.0
 10
342.2086692492365
 20
319.870623462534
 30
0.0
 10
342.1507503959278
 20
320.0144166510605
 30
0.0
 10
342.0910891384375
 20
320.1625356478287
 30
0.0
 10
341.9769785976406
 20
320.2660057518424
 30
0.0
 10
341.9736460047348
 20
320.2690275912991
 30
0.0
  0
SPLINE
  5
12C
330
1F
100
AcDbEntity
  8
0
  6
Continuous
 62
     7
370
    25
100
AcDbSpline
210
0.0
220
0.0
230
1.0
 70
     8
 71
     3
 72
     9
 73
     5
 74
     0
 42
0.00000001
 43
0.00000001
 40
0.0
 40
0.0
 40
0.0
 40
0.0
 40
0.0634861971617419
 40
0.9999999999999999
 40
0.9999999999999999
 40
0.9999999999999999
 40
0.9999999999999999
 10
341.9611731074124
 20
241.3153334837475
 30
0.0
 10
341.968723682622
 20
241.3221092869612
 30
0.0
 10
342.0876562309102
 20
241.4288380487494
 30
0.0
 10
342.1501463707439
 20
241.5818500834996
 30
0.0
 10
342.2086692492394
 20
241.7251479660436
 30
0.0
  0
SPLINE
  5
12D
330
1F
100
AcDbEntity
  8
0
  6
Continuous
 62
     7
370
    25
100
AcDbSpline
210
0.0
220
0.0
230
1.0
 70
     8
 71
     3
 72
    10
 73
     6
 74
     0
 42
0.00000001
 43
0.00000001
 40
0.0
 40
0.0
 40
0.0
 40
0.0
 40
0.32204020298592
 40
0.6677491512868511
 40
1.0
 40
1.0
 40
1.0
 40
1.0
 10
340.8404938184551
 20
240.7818992709504
 30
0.0
 10
340.977509572224
 20
240.794358641246
 30
0.0
 10
341.2616112230236
 20
240.8201930987558
 30
0.0
 10
341.6596286309999
 20
241.0038908259963
 30
0.0
 10
341.8619973477463
 20
241.2129022850653
 30
0.0
 10
341.9611731074124
 20
241.3153334837475
 30
0.0
  0
SPLINE
  5
12E
330
1F
100
AcDbEntity
  8
0
  6
Continuous
 62
     7
370
    25
100
AcDbSpline
210
0.0
220
0.0
230
1.0
 70
     8
 71
     3
 72
    11
 73
     7
 74
     0
 42
0.00000001
 43
0.00000001
 40
0.0
 40
0.0
 40
0.0
 40
0.0
 40
0.2371971536167179
 40
0.4893036567710413
 40
0.7472156920317495
 40
1.0
 40
1.0
 40
1.0
 40
1.0
 10
359.1647398094822
 20
301.5378226874822
 30
0.0
 10
359.1367374800481
 20
301.5370037725953
 30
0.0
 10
359.0789726966967
 20
301.5353144688128
 30
0.0
 10
358.9964325241088
 20
301.4989326010365
 30
0.0
 10
358.9251753084859
 20
301.4391383111995
 30
0.0
 10
358.8970658404588
 20
301.383671873473
 30
0.0
 10
358.8831522252219
 20
301.3562171143739
 30
0.0
  0
SPLINE
  5
12F
330
1F
100
AcDbEntity
  8
0
  6
Continuous
 62
     7
370
    25
100
AcDbSpline
210
0.0
220
0.0
230
1.0
 70
     8
 71
     3
 72
    11
 73
     7
 74
     0
 42
0.00000001
 43
0.00000001
 40
0.0
 40
0.0
 40
0.0
 40
0.0
 40
0.2527843079682917
 40
0.5106963432289666
 40
0.762802846383311
 40
1.0
 40
1.0
 40
1.0
 40
1.0
 10
358.8831522252219
 20
260.2395543141962
 30
0.0
 10
358.8970658404588
 20
260.2120995550971
 30
0.0
 10
358.9251753084859
 20
260.1566331173706
 30
0.0
 10
358.9964325241087
 20
260.0968388275336
 30
0.0
 10
359.0789726966967
 20
260.0604569597573
 30
0.0
 10
359.1367374800481
 20
260.0587676559749
 30
0.0
 10
359.1647398094822
 20
260.0579487410879
 30
0.0
  0
LINE
  5
130
330
1F
100
AcDbEntity
  8
0
  6
Continuous
 62
     7
370
    25
100
AcDbLine
 10
342.3118773364
 20
261.9478857143
 30
0.0
 11
358.8618773268
 21
261.9478857143
 31
0.0
  0
LINE
  5
131
330
1F
100
AcDbEntity
  8
0
  6
Continuous
 62
     7
370
    25
100
AcDbLine
 10
358.8618773268
 20
299.6478857143
 30
0.0
 11
342.3118773364
 21
299.6478857143
 31
0.0
  0
LINE
  5
132
330
1F
100
AcDbEntity
  8
0
  6
Continuous
 62
     7
370
    25
100
AcDbLine
 10
340.838055946
 20
240.7721600662
 30
0.0
 11
334.413622577
 21
240.6600211646
 31
0.0
  0
LINE
  5
133
330
1F
100
AcDbEntity
  8
0
  6
Continuous
 62
     7
370
    25
100
AcDbLine
 10
334.413622577
 20
320.9357502639
 30
0.0
 11
340.838055946
 21
320.8236113623
 31
0.0
  0
LINE
  5
134
330
1F
100
AcDbEntity
  8
0
  6
Continuous
 62
     7
370
    25
100
AcDbLine
 10
334.3118773364
 20
318.9360548736
 30
0.0
 11
334.3118773364
 21
242.659716555
 31
0.0
  0
SPLINE
  5
135
330
1F
100
AcDbEntity
  8
0
  6
Continuous
 62
     7
370
    25
100
AcDbSpline
210
0.0
220
0.0
230
1.0
 70
    24
 71
     3
 72
    10
 73
     6
 74
     0
 42
0.00000001
 43
0.00000001
 40
0.0
 40
0.0
 40
0.0
 40
0.0
 40
0.5
 40
0.5
 40
1.0
 40
1.0
 40
1.0
 40
1.0
 10
334.311877336376
 20
318.9360548736164
 30
0.0
 10
334.311877336376
 20
319.1847987997796
 30
0.0
 10
334.311877336376
 20
319.4333401660942
 30
0.0
 10
334.311877336376
 20
319.8928326118562
 30
0.0
 10
334.311877336376
 20
320.1035265437461
 30
0.0
 10
334.311877336376
 20
320.2793882305523
 30
0.0
  0
SPLINE
  5
136
330
1F
100
AcDbEntity
  8
0
  6
Continuous
 62
     7
370
    25
100
AcDbSpline
210
0.0
220
0.0
230
1.0
 70
    24
 71
     3
 72
    10
 73
     6
 74
     0
 42
0.00000001
 43
0.00000001
 40
0.0
 40
0.0
 40
0.0
 40
0.0
 40
0.5
 40
0.5
 40
1.0
 40
1.0
 40
1.0
 40
1.0
 10
334.311877336376
 20
241.3163831980177
 30
0.0
 10
334.311877336376
 20
241.4922448848237
 30
0.0
 10
334.311877336376
 20
241.7029388167137
 30
0.0
 10
334.311877336376
 20
242.162431262476
 30
0.0
 10
334.311877336376
 20
242.4109726287903
 30
0.0
 10
334.311877336376
 20
242.6597165549536
 30
0.0
  0
LINE
  5
137
330
1F
100
AcDbEntity
  8
0
  6
Continuous
 62
     7
370
    25
100
AcDbLine
 10
342.3118773364
 20
242.7718554565
 30
0.0
 11
342.3118773364
 21
318.823915972
 31
0.0
  0
SPLINE
  5
138
330
1F
100
AcDbEntity
  8
0
  6
Continuous
 62
     7
370
    25
100
AcDbSpline
210
0.0
220
0.0
230
1.0
 70
    24
 71
     3
 72
    12
 73
     8
 74
     0
 42
0.00000001
 43
0.00000001
 40
0.0
 40
0.0
 40
0.0
 40
0.0
 40
0.1665688703924325
 40
0.3323505923067357
 40
0.5002129602155954
 40
0.7493803296395605
 40
1.0
 40
1.0
 40
1.0
 40
1.0
 10
342.311877336376
 20
242.7718554565368
 30
0.0
 10
342.311877336376
 20
242.7500631931144
 30
0.0
 10
342.311877336376
 20
242.7065816491796
 30
0.0
 10
342.311877336376
 20
242.6422244997405
 30
0.0
 10
342.311877336376
 20
242.5700208434689
 30
0.0
 10
342.311877336376
 20
242.4916324497948
 30
0.0
 10
342.311877336376
 20
242.4428225467773
 30
0.0
 10
342.311877336376
 20
242.4183466783957
 30
0.0
  0
SPLINE
  5
139
330
1F
100
AcDbEntity
  8
0
  6
Continuous
 62
     7
370
    25
100
AcDbSpline
210
0.0
220
0.0
230
1.0
 70
    24
 71
     3
 72
    12
 73
     8
 74
     0
 42
0.00000001
 43
0.00000001
 40
0.0
 40
0.0
 40
0.0
 40
0.0
 40
0.166546981377348
 40
0.3323150261576683
 40
0.5001726347380334
 40
0.7493502562372268
 40
1.0
 40
1.0
 40
1.0
 40
1.0
 10
342.311877336376
 20
319.1774247501743
 30
0.0
 10
342.311877336376
 20
319.1614475333665
 30
0.0
 10
342.311877336376
 20
319.1295678248451
 30
0.0
 10
342.311877336376
 20
319.0746788372285
 30
0.0
 10
342.311877336376
 20
319.0062702567045
 30
0.0
 10
342.311877336376
 20
318.9222118234608
 30
0.0
 10
342.311877336376
 20
318.8567455276279
 30
0.0
 10
342.311877336376
 20
318.8239159720333
 30
0.0
  0
ARC
  5
13A
330
1F
100
AcDbEntity
  8
0
  6
Continuous
 62
     7
370
    25
100
AcDbCircle
 10
334.4118773364
 20
240.7600059342
 30
0.0
 40
0.1000000000000186
100
AcDbArc
 50
180.0
 51
271.0
  0
SPLINE
  5
13B
330
1F
100
AcDbEntity
  8
0
  6
Continuous
 62
     7
370
    25
100
AcDbSpline
210
0.0
220
0.0
230
1.0
 70
    24
 71
     3
 72
    10
 73
     6
 74
     0
 42
0.00000001
 43
0.00000001
 40
0.0
 40
0.0
 40
0.0
 40
0.0
 40
0.5
 40
0.5
 40
1.0
 40
1.0
 40
1.0
 40
1.0
 10
334.311877336376
 20
240.7600059341565
 30
0.0
 10
334.311877336376
 20
240.760005934166
 30
0.0
 10
334.311877336376
 20
240.8094459708598
 30
0.0
 10
334.311877336376
 20
240.9997569970987
 30
0.0
 10
334.311877336376
 20
241.1405215112219
 30
0.0
 10
334.311877336376
 20
241.3163831980177
 30
0.0
  0
ARC
  5
13C
330
1F
100
AcDbEntity
  8
0
  6
Continuous
 62
     7
370
    25
100
AcDbCircle
 10
334.4118773364
 20
320.8357654944
 30
0.0
 40
0.0999999999999659
100
AcDbArc
 50
89.0
 51
180.0
  0
SPLINE
  5
13D
330
1F
100
AcDbEntity
  8
0
  6
Continuous
 62
     7
370
    25
100
AcDbSpline
210
0.0
220
0.0
230
1.0
 70
    24
 71
     3
 72
    10
 73
     6
 74
     0
 42
0.00000001
 43
0.00000001
 40
0.0
 40
0.0
 40
0.0
 40
0.0
 40
0.5
 40
0.5
 40
1.0
 40
1.0
 40
1.0
 40
1.0
 10
334.311877336376
 20
320.2793882305523
 30
0.0
 10
334.311877336376
 20
320.455249917348
 30
0.0
 10
334.311877336376
 20
320.5960144314722
 30
0.0
 10
334.311877336376
 20
320.7863254577095
 30
0.0
 10
334.311877336376
 20
320.8357654944041
 30
0.0
 10
334.311877336376
 20
320.8357654944136
 30
0.0
  0
ARC
  5
13E
330
1F
100
AcDbEntity
  8
0
  6
Continuous
 62
     7
370
    25
100
AcDbCircle
 10
340.8118773364
 20
319.3238398196
 30
0.0
 40
1.500000000000076
100
AcDbArc
 50
0.0
 51
89.0
  0
SPLINE
  5
13F
330
1F
100
AcDbEntity
  8
0
  6
Continuous
 62
     7
370
    25
100
AcDbSpline
210
0.0
220
0.0
230
1.0
 70
    24
 71
     3
 72
    12
 73
     8
 74
     0
 42
0.00000001
 43
0.00000001
 40
0.0
 40
0.0
 40
0.0
 40
0.0
 40
0.1665688703932625
 40
0.3323505923075694
 40
0.5002129602156419
 40
0.7493803296404926
 40
1.0
 40
1.0
 40
1.0
 40
1.0
 10
342.311877336376
 20
319.3238398196115
 30
0.0
 10
342.311877336376
 20
319.3230341950096
 30
0.0
 10
342.311877336376
 20
319.3214267529169
 30
0.0
 10
342.311877336376
 20
319.3081557232715
 30
0.0
 10
342.311877336376
 20
319.2836167766852
 30
0.0
 10
342.311877336376
 20
319.2431373195562
 30
0.0
 10
342.311877336376
 20
319.1993713322802
 30
0.0
 10
342.311877336376
 20
319.1774247501743
 30
0.0
  0
SPLINE
  5
140
330
1F
100
AcDbEntity
  8
0
  6
Continuous
 62
     7
370
    25
100
AcDbSpline
210
0.0
220
0.0
230
1.0
 70
    24
 71
     3
 72
     8
 73
     4
 74
     0
 42
0.00000001
 43
0.00000001
 40
0.0
 40
0.0
 40
0.0
 40
0.0
 40
1.0
 40
1.0
 40
1.0
 40
1.0
 10
342.311877336376
 20
242.4183466783957
 30
0.0
 10
342.311877336376
 20
242.3257879358957
 30
0.0
 10
342.311877336376
 20
242.2719316092207
 30
0.0
 10
342.311877336376
 20
242.2719316089586
 30
0.0
  0
ARC
  5
141
330
1F
100
AcDbEntity
  8
0
  6
Continuous
 62
     7
370
    25
100
AcDbCircle
 10
340.8118773364
 20
242.271931609
 30
0.0
 40
1.5
100
AcDbArc
 50
271.0
 51
0.0
  0
LINE
  5
142
330
1F
100
AcDbEntity
  8
0
  6
Continuous
 62
     7
370
    25
100
AcDbLine
 10
359.1644952874
 20
301.5452448074
 30
0.0
 11
359.1647292222
 21
301.5302384873
 31
0.0
  0
LINE
  5
143
330
1F
100
AcDbEntity
  8
0
  6
Continuous
 62
     7
370
    25
100
AcDbLine
 10
359.1644952874
 20
301.5452448074
 30
0.0
 11
391.77496713
 21
301.260657531
 31
0.0
  0
LINE
  5
144
330
1F
100
AcDbEntity
  8
0
  6
Continuous
 62
     7
370
    25
100
AcDbLine
 10
358.8618773268
 20
300.0453019228
 30
0.0
 11
358.8618773268
 21
261.5504695058
 31
0.0
  0
LINE
  5
145
330
1F
100
AcDbEntity
  8
0
  6
Continuous
 62
     7
370
    25
100
AcDbLine
 10
391.77496713
 20
260.3351138976
 30
0.0
 11
359.1644952874
 21
260.0505266212
 31
0.0
  0
SPLINE
  5
146
330
1F
100
AcDbEntity
  8
0
  6
Continuous
 62
     7
370
    25
100
AcDbSpline
210
0.0
220
0.0
230
1.0
 70
    24
 71
     3
 72
     8
 73
     4
 74
     0
 42
0.00000001
 43
0.00000001
 40
0.0
 40
0.0
 40
0.0
 40
0.0
 40
1.0
 40
1.0
 40
1.0
 40
1.0
 10
358.8618773267733
 20
300.0453019227551
 30
0.0
 10
358.8618773267733
 20
300.3613394782284
 30
0.0
 10
358.8618773267733
 20
300.67033954527
 30
0.0
 10
358.8618773267733
 20
300.8938032937263
 30
0.0
  0
SPLINE
  5
147
330
1F
100
AcDbEntity
  8
0
  6
Continuous
 62
     7
370
    25
100
AcDbSpline
210
0.0
220
0.0
230
1.0
 70
    24
 71
     3
 72
     8
 73
     4
 74
     0
 42
0.00000001
 43
0.00000001
 40
0.0
 40
0.0
 40
0.0
 40
0.0
 40
1.0
 40
1.0
 40
1.0
 40
1.0
 10
358.8618773267733
 20
260.7019681348438
 30
0.0
 10
358.8618773267733
 20
260.925431883299
 30
0.0
 10
358.8618773267733
 20
261.2344319503425
 30
0.0
 10
358.8618773267733
 20
261.550469505815
 30
0.0
  0
ARC
  5
148
330
1F
100
AcDbEntity
  8
0
  6
Continuous
 62
     7
370
    25
100
AcDbCircle
 10
391.7618773268
 20
299.7607146464
 30
0.0
 40
1.500000000000038
100
AcDbArc
 50
0.0
 51
89.5
  0
ARC
  5
149
330
1F
100
AcDbEntity
  8
0
  6
Continuous
 62
     7
370
    25
100
AcDbCircle
 10
391.7618773268
 20
261.8350567822
 30
0.0
 40
1.5
100
AcDbArc
 50
270.5
 51
0.0
  0
LINE
  5
14A
330
1F
100
AcDbEntity
  8
0
  6
Continuous
 62
     7
370
    25
100
AcDbLine
 10
393.2618773268
 20
261.8350567822
 30
0.0
 11
393.2618773268
 21
299.7607146464
 31
0.0
  0
LWPOLYLINE
  5
14B
330
1F
100
AcDbEntity
  8
0
  6
Continuous
 62
     7
370
    25
100
AcDbPolyline
 90
        3
 70
   128
 43
0.0
 10
359.1644952874
 20
301.5452448074
 10
359.1055986432
 20
301.5399301346
 10
359.090249528
 20
301.5365798622
  0
ARC
  5
14C
330
1F
100
AcDbEntity
  8
0
  6
Continuous
 62
     7
370
    25
100
AcDbCircle
 10
359.1618773268
 20
301.2452562304
 30
0.0
 40
0.3000000000000114
100
AcDbArc
 50
138.0103984291
 51
180.0
  0
SPLINE
  5
14D
330
1F
100
AcDbEntity
  8
0
  6
Continuous
 62
     7
370
    25
100
AcDbSpline
210
0.0
220
0.0
230
1.0
 70
    24
 71
     3
 72
     8
 73
     4
 74
     0
 42
0.00000001
 43
0.00000001
 40
0.0
 40
0.0
 40
0.0
 40
0.0
 40
1.0
 40
1.0
 40
1.0
 40
1.0
 10
358.8618773267733
 20
300.8938032937263
 30
0.0
 10
358.8618773267733
 20
301.1172670421175
 30
0.0
 10
358.8618773267733
 20
301.2452562303861
 30
0.0
 10
358.8618773267733
 20
301.2452562304321
 30
0.0
  0
LWPOLYLINE
  5
14E
330
1F
100
AcDbEntity
  8
0
  6
Continuous
 62
     7
370
    25
100
AcDbPolyline
 90
        3
 70
   128
 43
0.0
 10
359.1644952874
 20
260.0505266212
 10
359.1055986432
 20
260.055841294
 10
359.090249528
 20
260.0591915663
  0
ARC
  5
14F
330
1F
100
AcDbEntity
  8
0
  6
Continuous
 62
     7
370
    25
100
AcDbCircle
 10
359.1618773268
 20
260.3505151981
 30
0.0
 40
0.3000000000000114
100
AcDbArc
 50
180.0
 51
221.9896015709
  0
SPLINE
  5
150
330
1F
100
AcDbEntity
  8
0
  6
Continuous
 62
     7
370
    25
100
AcDbSpline
210
0.0
220
0.0
230
1.0
 70
    24
 71
     3
 72
     8
 73
     4
 74
     0
 42
0.00000001
 43
0.00000001
 40
0.0
 40
0.0
 40
0.0
 40
0.0
 40
1.0
 40
1.0
 40
1.0
 40
1.0
 10
358.8618773267733
 20
260.350515198138
 30
0.0
 10
358.8618773267733
 20
260.3505151981841
 30
0.0
 10
358.8618773267733
 20
260.4785043864533
 30
0.0
 10
358.8618773267733
 20
260.7019681348438
 30
0.0
  0
SPLINE
  5
151
330
1F
100
AcDbEntity
  8
0
  6
Continuous
 62
     8
370
    18
100
AcDbSpline
210
0.0
220
0.0
230
1.0
 70
     8
 71
     3
 72
    18
 73
    14
 74
     0
 42
0.00000001
 43
0.00000001
 40
0.0
 40
0.0
 40
0.0
 40
0.0
 40
0.0863807640641111
 40
0.1736665713609928
 40
0.2618576428871833
 40
0.350954192452795
 40
0.440956426964521
 40
0.5318645466947841
 40
0.6236787455377204
 40
0.7163992112527824
 40
0.8100261256967258
 40
0.9045596650445287
 40
0.9999999999999999
 40
0.9999999999999999
 40
0.9999999999999999
 40
0.9999999999999999
 10
334.4143451035683
 20
241.2456940541373
 30
0.0
 10
334.4143453052724
 20
241.2143448222591
 30
0.0
 10
334.414345710794
 20
241.1513179009986
 30
0.0
 10
334.4143423392118
 20
241.0650947332309
 30
0.0
 10
334.4143287198509
 20
240.9851052149478
 30
0.0
 10
334.4143006556265
 20
240.9125787418009
 30
0.0
 10
334.4142549720965
 20
240.8479621044863
 30
0.0
 10
334.414189932086
 20
240.7918860138189
 30
0.0
 10
334.4141052631269
 20
240.7449224727442
 30
0.0
 10
334.4140022223134
 20
240.7075397077758
 30
0.0
 10
334.4138838771625
 20
240.6804999305219
 30
0.0
 10
334.4137544320248
 20
240.6632551631033
 30
0.0
 10
334.4136666683279
 20
240.6611025890637
 30
0.0
 10
334.4136225770197
 20
240.6600211646409
 30
0.0
  0
SPLINE
  5
152
330
1F
100
AcDbEntity
  8
0
  6
Continuous
 62
     8
370
    18
100
AcDbSpline
210
0.0
220
0.0
230
1.0
 70
     8
 71
     3
 72
    19
 73
    15
 74
     0
 42
0.00000001
 43
0.00000001
 40
0.0
 40
0.0
 40
0.0
 40
0.0
 40
0.0875219065052787
 40
0.1742817824293792
 40
0.2602797601982698
 40
0.3455159760638584
 40
0.4299905702389231
 40
0.5137036870380964
 40
0.5966554750252664
 40
0.6788460871677127
 40
0.7602756809973905
 40
0.8409444187797085
 40
0.9208524676902706
 40
1.0
 40
1.0
 40
1.0
 40
1.0
 10
334.4136225770197
 20
242.6597165549536
 30
0.0
 10
334.4136629728652
 20
242.6138959924867
 30
0.0
 10
334.4137434128401
 20
242.5226538153277
 30
0.0
 10
334.4138627687133
 20
242.3870302098487
 30
0.0
 10
334.4139736130733
 20
242.2538485342298
 30
0.0
 10
334.4140724582875
 20
242.1236747704905
 30
0.0
 10
334.4141565488955
 20
241.9970350109051
 30
0.0
 10
334.414224450614
 20
241.8744156876411
 30
0.0
 10
334.4142758249818
 20
241.7562583479681
 30
0.0
 10
334.414311420178
 20
241.6429757180277
 30
0.0
 10
334.4143329769641
 20
241.5348910024194
 30
0.0
 10
334.4143432388912
 20
241.4324610792469
 30
0.0
 10
334.4143456177734
 20
241.335456298897
 30
0.0
 10
334.4143452744228
 20
241.2755192737242
 30
0.0
 10
334.4143451035683
 20
241.2456940541373
 30
0.0
  0
LINE
  5
153
330
1F
100
AcDbEntity
  8
0
  6
Continuous
 62
     8
370
    18
100
AcDbLine
 10
334.413622577
 20
242.659716555
 30
0.0
 11
340.838055946
 21
242.7718554565
 31
0.0
  0
SPLINE
  5
154
330
1F
100
AcDbEntity
  8
0
  6
Continuous
 62
     8
370
    18
100
AcDbSpline
210
0.0
220
0.0
230
1.0
 70
     8
 71
     3
 72
    10
 73
     6
 74
     0
 42
0.00000001
 43
0.00000001
 40
0.0
 40
0.0
 40
0.0
 40
0.0
 40
0.5
 40
0.5
 40
1.0
 40
1.0
 40
1.0
 40
1.0
 10
340.8488938442606
 20
241.3580095201899
 30
0.0
 10
340.8488938442638
 20
241.5431270055595
 30
0.0
 10
340.847930780597
 20
241.764893511157
 30
0.0
 10
340.8442236372818
 20
242.248504761333
 30
0.0
 10
340.8414816256961
 20
242.5100797222581
 30
0.0
 10
340.8380559460319
 20
242.7718554565368
 30
0.0
  0
SPLINE
  5
155
330
1F
100
AcDbEntity
  8
0
  6
Continuous
 62
     8
370
    18
100
AcDbSpline
210
0.0
220
0.0
230
1.0
 70
     8
 71
     3
 72
    19
 73
    15
 74
     0
 42
0.00000001
 43
0.00000001
 40
0.0
 40
0.0
 40
0.0
 40
0.0
 40
0.0875155696262819
 40
0.174270723500849
 40
0.2602654635968123
 40
0.3454997922149388
 40
0.4299737119930206
 40
0.5136872259156225
 40
0.5966403373243552
 40
0.6788330499285561
 40
0.7602653678165033
 40
0.8409372954671456
 40
0.9208488377623941
 40
1.0
 40
1.0
 40
1.0
 40
1.0
 10
340.8380559460319
 20
240.772160066224
 30
0.0
 10
340.8386438747744
 20
240.7730791028566
 30
0.0
 10
340.839814623794
 20
240.7749091906864
 30
0.0
 10
340.8414027150726
 20
240.7894555517728
 30
0.0
 10
340.8428506417691
 20
240.8122878411659
 30
0.0
 10
340.8441437527316
 20
240.8439079515763
 30
0.0
 10
340.8452822496471
 20
240.8837177070855
 30
0.0
 10
340.8462638986778
 20
240.931375020547
 30
0.0
 10
340.8470886397169
 20
240.9864360905182
 30
0.0
 10
340.847756902598
 20
241.048470089681
 30
0.0
 10
340.8482714149651
 20
241.1169773259398
 30
0.0
 10
340.8486313392728
 20
241.1916222864336
 30
0.0
 10
340.8488532529443
 20
241.2714151270735
 30
0.0
 10
340.8488803570111
 20
241.3292368590878
 30
0.0
 10
340.8488938442606
 20
241.3580095201899
 30
0.0
  0
LINE
  5
156
330
1F
100
AcDbEntity
  8
0
  6
Continuous
 62
     8
370
    18
100
AcDbLine
 10
340.838055946
 20
318.823915972
 30
0.0
 11
334.413622577
 21
318.9360548736
 31
0.0
  0
SPLINE
  5
157
330
1F
100
AcDbEntity
  8
0
  6
Continuous
 62
     8
370
    18
100
AcDbSpline
210
0.0
220
0.0
230
1.0
 70
     8
 71
     3
 72
    18
 73
    14
 74
     0
 42
0.00000001
 43
0.00000001
 40
0.0
 40
0.0
 40
0.0
 40
0.0
 40
0.0863807640641111
 40
0.1736665713609928
 40
0.2618576428871833
 40
0.350954192452795
 40
0.4409564269645191
 40
0.531864546694784
 40
0.6236787455377202
 40
0.716399211252778
 40
0.8100261256967214
 40
0.9045596650445288
 40
1.0
 40
1.0
 40
1.0
 40
1.0
 10
334.4143451035683
 20
320.3500773744327
 30
0.0
 10
334.4143453052724
 20
320.3174739837018
 30
0.0
 10
334.414345710794
 20
320.2519256044494
 30
0.0
 10
334.4143423392118
 20
320.1451764623117
 30
0.0
 10
334.4143287198509
 20
320.0320281890041
 30
0.0
 10
334.4143006556265
 20
319.9122480421146
 30
0.0
 10
334.4142549720965
 20
319.7864321080701
 30
0.0
 10
334.414189932086
 20
319.6550260805349
 30
0.0
 10
334.4141052631269
 20
319.5185919537938
 30
0.0
 10
334.4140022223134
 20
319.3777351160318
 30
0.0
 10
334.4138838771625
 20
319.2331231265394
 30
0.0
 10
334.4137544320248
 20
319.085478983576
 30
0.0
 10
334.4136666683279
 20
318.9860211564514
 30
0.0
 10
334.4136225770197
 20
318.9360548736164
 30
0.0
  0
SPLINE
  5
158
330
1F
100
AcDbEntity
  8
0
  6
Continuous
 62
     8
370
    18
100
AcDbSpline
210
0.0
220
0.0
230
1.0
 70
     8
 71
     3
 72
    19
 73
    15
 74
     0
 42
0.00000001
 43
0.00000001
 40
0.0
 40
0.0
 40
0.0
 40
0.0
 40
0.0875219065052871
 40
0.1742817824294003
 40
0.2602797601982955
 40
0.3455159760638881
 40
0.4299905702389579
 40
0.5137036870381324
 40
0.5966554750253019
 40
0.6788460871677461
 40
0.7602756809974174
 40
0.8409444187797314
 40
0.9208524676902834
 40
1.0
 40
1.0
 40
1.0
 40
1.0
 10
334.4136225770197
 20
320.9357502639292
 30
0.0
 10
334.4136629728652
 20
320.9348408024829
 30
0.0
 10
334.4137434128401
 20
320.9330297980355
 30
0.0
 10
334.4138627687133
 20
320.9185091675841
 30
0.0
 10
334.4139736130733
 20
320.8957002639181
 30
0.0
 10
334.4140724582875
 20
320.864101044223
 30
0.0
 10
334.4141565488956
 20
320.8243097180178
 30
0.0
 10
334.414224450614
 20
320.7766683639909
 30
0.0
 10
334.4142758249818
 20
320.7216207863975
 30
0.0
 10
334.414311420178
 20
320.6595978070184
 30
0.0
 10
334.4143329769641
 20
320.5910991358825
 30
0.0
 10
334.4143432388913
 20
320.5164602213782
 30
0.0
 10
334.4143456177734
 20
320.4366711415286
 30
0.0
 10
334.4143452744228
 20
320.3788498068224
 30
0.0
 10
334.4143451035683
 20
320.3500773744327
 30
0.0
  0
SPLINE
  5
159
330
1F
100
AcDbEntity
  8
0
  6
Continuous
 62
     8
370
    18
100
AcDbSpline
210
0.0
220
0.0
230
1.0
 70
     8
 71
     3
 72
    10
 73
     6
 74
     0
 42
0.00000001
 43
0.00000001
 40
0.0
 40
0.0
 40
0.0
 40
0.0
 40
0.5
 40
0.5
 40
1.0
 40
1.0
 40
1.0
 40
1.0
 10
340.8488938442606
 20
320.2377619083802
 30
0.0
 10
340.8488938442638
 20
320.4228793937497
 30
0.0
 10
340.847930780597
 20
320.5710695186749
 30
0.0
 10
340.8442236372818
 20
320.7714614988502
 30
0.0
 10
340.8414816256961
 20
320.8235515668851
 30
0.0
 10
340.8380559460319
 20
320.8236113623461
 30
0.0
  0
SPLINE
  5
15A
330
1F
100
AcDbEntity
  8
0
  6
Continuous
 62
     8
370
    18
100
AcDbSpline
210
0.0
220
0.0
230
1.0
 70
     8
 71
     3
 72
    19
 73
    15
 74
     0
 42
0.00000001
 43
0.00000001
 40
0.0
 40
0.0
 40
0.0
 40
0.0
 40
0.0875155696262907
 40
0.1742707235008578
 40
0.2602654635968253
 40
0.3454997922149572
 40
0.4299737119930389
 40
0.5136872259156424
 40
0.596640337324375
 40
0.678833049928578
 40
0.7602653678165191
 40
0.8409372954671578
 40
0.9208488377623972
 40
1.0
 40
1.0
 40
1.0
 40
1.0
 10
340.8380559460319
 20
318.8239159720333
 30
0.0
 10
340.8386438747744
 20
318.8697271538089
 30
0.0
 10
340.839814623794
 20
318.9609514676831
 30
0.0
 10
340.8414027150726
 20
319.0965491895792
 30
0.0
 10
340.8428506417691
 20
319.2297074583504
 30
0.0
 10
340.8441437527316
 20
319.3598602536682
 30
0.0
 10
340.8452822496471
 20
319.4864814951259
 30
0.0
 10
340.8462638986778
 20
319.6090847496642
 30
0.0
 10
340.8470886397169
 20
319.7272284708694
 30
0.0
 10
340.847756902598
 20
319.840499938924
 30
0.0
 10
340.8482714149651
 20
319.948575932934
 30
0.0
 10
340.8486313392728
 20
320.0509996407438
 30
0.0
 10
340.8488532529443
 20
320.1480004800557
 30
0.0
 10
340.8488803570111
 20
320.207936938607
 30
0.0
 10
340.8488938442606
 20
320.2377619083802
 30
0.0
  0
LINE
  5
15B
330
1F
100
AcDbEntity
  8
0
  6
Continuous
 62
     8
370
    18
100
AcDbLine
 10
334.413622577
 20
242.659716555
 30
0.0
 11
334.413622577
 21
318.9360548736
 31
0.0
  0
LINE
  5
15C
330
1F
100
AcDbEntity
  8
0
  6
Continuous
 62
     8
370
    18
100
AcDbLine
 10
340.838055946
 20
242.7718554565
 30
0.0
 11
340.838055946
 21
318.823915972
 31
0.0
  0
LINE
  5
15D
330
1F
100
AcDbEntity
  8
0
  6
Continuous
 62
     8
370
    18
100
AcDbLine
 10
334.413622577
 20
242.659716555
 30
0.0
 11
334.3118773364
 21
242.659716555
 31
0.0
  0
LINE
  5
15E
330
1F
100
AcDbEntity
  8
0
  6
Continuous
 62
     8
370
    18
100
AcDbLine
 10
334.413622577
 20
318.9360548736
 30
0.0
 11
334.3118773364
 21
318.9360548736
 31
0.0
  0
ARC
  5
15F
330
1F
100
AcDbEntity
  8
0
  6
Continuous
 62
     8
370
    18
100
AcDbCircle
 10
334.4000940882
 20
320.2611241191
 30
0.0
 40
0.0900875855838874
100
AcDbArc
 50
80.8981083053
 51
168.3029268394
  0
ARC
  5
160
330
1F
100
AcDbEntity
  8
0
  6
Continuous
 62
     8
370
    18
100
AcDbCircle
 10
334.4000940882
 20
241.3346473095
 30
0.0
 40
0.0900875855838816
100
AcDbArc
 50
191.6970731606
 51
279.1018916947
  0
LINE
  5
161
330
1F
100
AcDbEntity
  8
0
  6
Continuous
 62
     8
370
    18
100
AcDbLine
 10
340.838055946
 20
242.7718554565
 30
0.0
 11
342.3118773364
 21
242.7718554565
 31
0.0
  0
LINE
  5
162
330
1F
100
AcDbEntity
  8
0
  6
Continuous
 62
     8
370
    18
100
AcDbLine
 10
342.3118773364
 20
318.823915972
 30
0.0
 11
340.838055946
 21
318.823915972
 31
0.0
  0
ARC
  5
163
330
1F
100
AcDbEntity
  8
0
  6
Continuous
 62
     8
370
    18
100
AcDbCircle
 10
341.0103025107
 20
242.6747412487
 30
0.0
 40
1.32658780426274
100
AcDbArc
 50
263.0113884487
 51
348.8561028063
  0
ARC
  5
164
330
1F
100
AcDbEntity
  8
0
  6
Continuous
 62
     8
370
    18
100
AcDbCircle
 10
341.0103025107
 20
318.9210301799
 30
0.0
 40
1.3265878042627
100
AcDbArc
 50
11.1438971937
 51
96.9886115513
  0
SPLINE
  5
165
330
1F
100
AcDbEntity
  8
0
  6
Continuous
 62
     8
370
    18
100
AcDbSpline
210
0.0
220
0.0
230
1.0
 70
     8
 71
     3
 72
    16
 73
    12
 74
     0
 42
0.00000001
 43
0.00000001
 40
0.0
 40
0.0
 40
0.0
 40
0.0
 40
0.1057030580189527
 40
0.2127580367761575
 40
0.3211649804301464
 40
0.4309239300103874
 40
0.5420349235510591
 40
0.65449799621671
 40
0.7683131804205288
 40
0.8834805059356465
 40
1.0
 40
1.0
 40
1.0
 40
1.0
 10
359.165579541266
 20
301.1059191743292
 30
0.0
 10
359.1655776931113
 20
301.0758652059751
 30
0.0
 10
359.1655739731643
 20
301.0153728850889
 30
0.0
 10
359.1655398771958
 20
300.9152612340871
 30
0.0
 10
359.1654802428853
 20
300.8081595107147
 30
0.0
 10
359.165390750383
 20
300.6939396506804
 30
0.0
 10
359.1652704522012
 20
300.5734422112475
 30
0.0
 10
359.1651191173462
 20
300.4473696396302
 30
0.0
 10
359.1649375659904
 20
300.3165876689572
 30
0.0
 10
359.1647296483187
 20
300.1820408831154
 30
0.0
 10
359.1645737110813
 20
300.0910585729242
 30
0.0
 10
359.1644952874228
 20
300.0453019227551
 30
0.0
  0
SPLINE
  5
166
330
1F
100
AcDbEntity
  8
0
  6
Continuous
 62
     8
370
    18
100
AcDbSpline
210
0.0
220
0.0
230
1.0
 70
     8
 71
     3
 72
    10
 73
     6
 74
     0
 42
0.00000001
 43
0.00000001
 40
0.0
 40
0.0
 40
0.0
 40
0.0
 40
0.1549179056680682
 40
0.4452809041987946
 40
1.0
 40
1.0
 40
1.0
 40
1.0
 10
359.164729222205
 20
301.5302384872584
 30
0.0
 10
359.1648164564297
 20
301.5263186562926
 30
0.0
 10
359.1650671939689
 20
301.5150518768378
 30
0.0
 10
359.1654680857901
 20
301.4068651580711
 30
0.0
 10
359.1655353732218
 20
301.2251793129567
 30
0.0
 10
359.165579541266
 20
301.1059191743292
 30
0.0
  0
ARC
  5
167
330
1F
100
AcDbEntity
  8
0
  6
Continuous
 62
     8
370
    18
100
AcDbCircle
 10
348.8004351187
 20
300.5106860887
 30
0.0
 40
42.98107558863488
100
AcDbArc
 50
359.0002023313
 51
0.9997976687
  0
LINE
  5
168
330
1F
100
AcDbEntity
  8
0
  6
Continuous
 62
     8
370
    18
100
AcDbLine
 10
391.77496713
 20
299.7607146464
 30
0.0
 11
359.1644952874
 21
300.0453019228
 31
0.0
  0
LINE
  5
169
330
1F
100
AcDbEntity
  8
0
  6
Continuous
 62
     8
370
    18
100
AcDbLine
 10
359.1644952874
 20
261.5504695058
 30
0.0
 11
359.1644952874
 21
300.0453019228
 31
0.0
  0
LINE
  5
16A
330
1F
100
AcDbEntity
  8
0
  6
Continuous
 62
     8
370
    18
100
AcDbLine
 10
391.77496713
 20
261.8350567822
 30
0.0
 11
391.77496713
 21
299.7607146464
 31
0.0
  0
LINE
  5
16B
330
1F
100
AcDbEntity
  8
0
  6
Continuous
 62
     8
370
    18
100
AcDbLine
 10
359.1644952874
 20
261.5504695058
 30
0.0
 11
391.77496713
 21
261.8350567822
 31
0.0
  0
LINE
  5
16C
330
1F
100
AcDbEntity
  8
0
  6
Continuous
 62
     8
370
    18
100
AcDbLine
 10
359.1644952874
 20
300.0453019228
 30
0.0
 11
358.8618773268
 21
300.0453019228
 31
0.0
  0
LINE
  5
16D
330
1F
100
AcDbEntity
  8
0
  6
Continuous
 62
     8
370
    18
100
AcDbLine
 10
359.1644952874
 20
261.5504695058
 30
0.0
 11
358.8618773268
 21
261.5504695058
 31
0.0
  0
SPLINE
  5
16E
330
1F
100
AcDbEntity
  8
0
  6
Continuous
 62
     8
370
    18
100
AcDbSpline
210
0.0
220
0.0
230
1.0
 70
     8
 71
     3
 72
    16
 73
    12
 74
     0
 42
0.00000001
 43
0.00000001
 40
0.0
 40
0.0
 40
0.0
 40
0.0
 40
0.1057030580186641
 40
0.2127580367756609
 40
0.3211649804295023
 40
0.4309239300096809
 40
0.5420349235503481
 40
0.6544979962160723
 40
0.7683131804200338
 40
0.8834805059353668
 40
1.0
 40
1.0
 40
1.0
 40
1.0
 10
359.165579541266
 20
260.489852254241
 30
0.0
 10
359.1655776931113
 20
260.4612072078834
 30
0.0
 10
359.1655739731643
 20
260.4035507508176
 30
0.0
 10
359.1655398771958
 20
260.3265474785116
 30
0.0
 10
359.1654802428853
 20
260.2568404774671
 30
0.0
 10
359.165390750383
 20
260.1959530576012
 30
0.0
 10
359.1652704522012
 20
260.1445350746342
 30
0.0
 10
359.1651191173462
 20
260.1033350785142
 30
0.0
 10
359.1649375659904
 20
260.0733556381328
 30
0.0
 10
359.1647296483187
 20
260.0541402838323
 30
0.0
 10
359.1645737110813
 20
260.0517358529959
 30
0.0
 10
359.1644952874228
 20
260.0505266212188
 30
0.0
  0
SPLINE
  5
16F
330
1F
100
AcDbEntity
  8
0
  6
Continuous
 62
     8
370
    18
100
AcDbSpline
210
0.0
220
0.0
230
1.0
 70
     8
 71
     3
 72
    17
 73
    13
 74
     0
 42
0.00000001
 43
0.00000001
 40
0.0
 40
0.0
 40
0.0
 40
0.0
 40
0.1049290128405677
 40
0.2087626174296021
 40
0.3115008378528416
 40
0.413143699798508
 40
0.5136912306183006
 40
0.613143459391753
 40
0.7115004169941636
 40
0.8087621361683323
 40
0.9049286516003953
 40
1.0
 40
1.0
 40
1.0
 40
1.0
 10
359.1644952874228
 20
261.550469505815
 30
0.0
 10
359.1645660389178
 20
261.5092646082999
 30
0.0
 10
359.1647068032964
 20
261.4272849725127
 30
0.0
 10
359.1648973100129
 20
261.3057877812562
 30
0.0
 10
359.16506703338
 20
261.1871763007716
 30
0.0
 10
359.1652127825535
 20
261.0721598432444
 30
0.0
 10
359.1653336716938
 20
260.9613811209933
 30
0.0
 10
359.1654293105615
 20
260.8554328665847
 30
0.0
 10
359.16550037474
 20
260.7547907181454
 30
0.0
 10
359.1655477903729
 20
260.6600563185041
 30
0.0
 10
359.1655750434962
 20
260.5710652132936
 30
0.0
 10
359.1655780477442
 20
260.5168196908264
 30
0.0
 10
359.165579541266
 20
260.489852254241
 30
0.0
  0
ARC
  5
170
330
1F
100
AcDbEntity
  8
0
  6
Continuous
 62
     8
370
    18
100
AcDbCircle
 10
348.800435117
 20
261.0850853399
 30
0.0
 40
42.98107559033995
100
AcDbArc
 50
359.0002023313
 51
0.9997976687
  0
ARC
  5
171
330
1F
100
AcDbEntity
  8
0
  6
Continuous
 62
     8
370
    18
100
AcDbCircle
 10
359.1254569976
 20
300.8398910702
 30
0.0
 40
0.2690367460258606
100
AcDbArc
 50
81.4232522716
 51
168.4402447738
  0
ARC
  5
172
330
1F
100
AcDbEntity
  8
0
  6
Continuous
 62
     8
370
    18
100
AcDbCircle
 10
359.1254569976
 20
260.7558803584
 30
0.0
 40
0.2690367460257567
100
AcDbArc
 50
191.5597552262
 51
278.5767477284
  0
LINE
  5
173
330
1F
100
AcDbEntity
  8
0
  6
Continuous
 62
     8
370
    18
100
AcDbLine
 10
393.2618773268
 20
299.7607146464
 30
0.0
 11
391.77496713
 21
299.7607146464
 31
0.0
  0
LINE
  5
174
330
1F
100
AcDbEntity
  8
0
  6
Continuous
 62
     8
370
    18
100
AcDbLine
 10
391.77496713
 20
261.8350567822
 30
0.0
 11
393.2618773268
 21
261.8350567822
 31
0.0
  0
ENDSEC
  0
SECTION
  2
OBJECTS
  0
DICTIONARY
  5
C
330
0
100
AcDbDictionary
281
     1
  3
ACAD_GROUP
350
D
  3
ACAD_LAYOUT
350
1A
  3
ACAD_MLINESTYLE
350
17
  3
ACAD_PLOTSETTINGS
350
19
  3
ACAD_PLOTSTYLENAME
350
E
  3
ACAD_SCALELIST
350
47
  3
DWGPROPS
350
175
  0
DICTIONARY
  5
D
102
{ACAD_REACTORS
330
C
102
}
330
C
100
AcDbDictionary
281
     1
  0
DICTIONARY
  5
1A
102
{ACAD_REACTORS
330
C
102
}
330
C
100
AcDbDictionary
281
     1
  3
Layout1
350
1E
  3
Layout2
350
26
  3
Model
350
22
  0
DICTIONARY
  5
17
102
{ACAD_REACTORS
330
C
102
}
330
C
100
AcDbDictionary
281
     1
  3
Standard
350
18
  0
DICTIONARY
  5
19
102
{ACAD_REACTORS
330
C
102
}
330
C
100
AcDbDictionary
281
     1
  0
ACDBDICTIONARYWDFLT
  5
E
102
{ACAD_REACTORS
330
C
102
}
330
C
100
AcDbDictionary
281
     1
  3
Normal
350
F
100
AcDbDictionaryWithDefault
340
F
  0
DICTIONARY
  5
47
102
{ACAD_REACTORS
330
C
102
}
330
C
100
AcDbDictionary
281
     1
  3
A0
350
48
  3
A1
350
49
  3
A2
350
4A
  3
A3
350
4B
  3
A4
350
4C
  3
A5
350
4D
  3
A6
350
4E
  3
A7
350
4F
  3
A8
350
50
  3
A9
350
51
  3
B0
350
52
  3
B1
350
53
  3
B2
350
54
  3
B3
350
55
  3
B4
350
56
  3
B5
350
57
  3
B6
350
58
  0
XRECORD
  5
175
102
{ACAD_REACTORS
330
C
102
}
330
C
100
AcDbXrecord
280
     1
  1
DWGPROPS COOKIE
  2

  3

  4

  6

  7

  8
fue-task
  9

300
=
301
=
302
=
303
=
304
=
305
=
306
=
307
=
308
=
309
=
 40
0.0
 41
2460384.518937639
 42
2460384.518938542
  1

 90
        0
  0
LAYOUT
  5
1E
102
{ACAD_REACTORS
330
1A
102
}
330
1A
100
AcDbPlotSettings
  1

  2
none_device
  4

  6

 40
0.0
 41
0.0
 42
0.0
 43
0.0
 44
0.0
 45
0.0
 46
0.0
 47
0.0
 48
0.0
 49
0.0
140
0.0
141
0.0
142
1.0
143
1.0
 70
   688
 72
     1
 73
     0
 74
     5
  7

 75
    16
147
1.0
148
0.0
149
0.0
100
AcDbLayout
  1
Layout1
 70
     1
 71
     1
 10
0.0
 20
0.0
 11
420.0
 21
297.0
 12
0.0
 22
0.0
 32
0.0
 14
1.0000000000E+20
 24
1.0000000000E+20
 34
1.0000000000E+20
 15
-1.0000000000E+20
 25
-1.0000000000E+20
 35
-1.0000000000E+20
146
0.0
 13
0.0
 23
0.0
 33
0.0
 16
1.0
 26
0.0
 36
0.0
 17
0.0
 27
1.0
 37
0.0
 76
     0
330
1B
  0
LAYOUT
  5
26
102
{ACAD_REACTORS
330
1A
102
}
330
1A
100
AcDbPlotSettings
  1

  2
none_device
  4

  6

 40
0.0
 41
0.0
 42
0.0
 43
0.0
 44
0.0
 45
0.0
 46
0.0
 47
0.0
 48
0.0
 49
0.0
140
0.0
141
0.0
142
1.0
143
1.0
 70
   688
 72
     1
 73
     0
 74
     5
  7

 75
    16
147
1.0
148
0.0
149
0.0
100
AcDbLayout
  1
Layout2
 70
     1
 71
     2
 10
0.0
 20
0.0
 11
0.0
 21
0.0
 12
0.0
 22
0.0
 32
0.0
 14
0.0
 24
0.0
 34
0.0
 15
0.0
 25
0.0
 35
0.0
146
0.0
 13
0.0
 23
0.0
 33
0.0
 16
1.0
 26
0.0
 36
0.0
 17
0.0
 27
1.0
 37
0.0
 76
     0
330
23
  0
LAYOUT
  5
22
102
{ACAD_REACTORS
330
1A
102
}
330
1A
100
AcDbPlotSettings
  1

  2
none_device
  4
Letter_(8.50_x_11.00_Inches)
  6

 40
6.35
 41
6.35
 42
6.35000508
 43
6.35000508
 44
215.9
 45
279.4
 46
0.0
 47
0.0
 48
0.0
 49
0.0
140
0.0
141
0.0
142
1.0
143
1.0
 70
  1712
 72
     1
 73
     0
 74
     0
  7

 75
     0
147
1.0
148
0.0
149
0.0
100
AcDbLayout
  1
Model
 70
     1
 71
     0
 10
0.0
 20
0.0
 11
594.0
 21
841.0
 12
0.0
 22
0.0
 32
0.0
 14
0.0
 24
0.0
 34
0.0
 15
594.0
 25
841.0
 35
0.0
146
0.0
 13
0.0
 23
0.0
 33
0.0
 16
1.0
 26
0.0
 36
0.0
 17
0.0
 27
1.0
 37
0.0
 76
     0
330
1F
331
29
  0
MLINESTYLE
  5
18
102
{ACAD_REACTORS
330
17
102
}
330
17
100
AcDbMlineStyle
  2
Standard
 70
     0
  3

 62
   256
 51
90.0
 52
90.0
 71
     2
 49
0.5
 62
   256
  6
BYLAYER
 49
-0.5
 62
   256
  6
BYLAYER
  0
ACDBPLACEHOLDER
  5
F
102
{ACAD_REACTORS
330
E
102
}
330
E
  0
SCALE
  5
48
102
{ACAD_REACTORS
330
47
102
}
330
47
100
AcDbScale
 70
     0
300
1:1
140
1.0
141
1.0
290
     1
  0
SCALE
  5
49
102
{ACAD_REACTORS
330
47
102
}
330
47
100
AcDbScale
 70
     0
300
1:2
140
1.0
141
2.0
290
     0
  0
SCALE
  5
4A
102
{ACAD_REACTORS
330
47
102
}
330
47
100
AcDbScale
 70
     0
300
1:4
140
1.0
141
4.0
290
     0
  0
SCALE
  5
4B
102
{ACAD_REACTORS
330
47
102
}
330
47
100
AcDbScale
 70
     0
300
1:5
140
1.0
141
5.0
290
     0
  0
SCALE
  5
4C
102
{ACAD_REACTORS
330
47
102
}
330
47
100
AcDbScale
 70
     0
300
1:8
140
1.0
141
8.0
290
     0
  0
SCALE
  5
4D
102
{ACAD_REACTORS
330
47
102
}
330
47
100
AcDbScale
 70
     0
300
1:10
140
1.0
141
10.0
290
     0
  0
SCALE
  5
4E
102
{ACAD_REACTORS
330
47
102
}
330
47
100
AcDbScale
 70
     0
300
1:16
140
1.0
141
16.0
290
     0
  0
SCALE
  5
4F
102
{ACAD_REACTORS
330
47
102
}
330
47
100
AcDbScale
 70
     0
300
1:20
140
1.0
141
20.0
290
     0
  0
SCALE
  5
50
102
{ACAD_REACTORS
330
47
102
}
330
47
100
AcDbScale
 70
     0
300
1:30
140
1.0
141
30.0
290
     0
  0
SCALE
  5
51
102
{ACAD_REACTORS
330
47
102
}
330
47
100
AcDbScale
 70
     0
300
1:40
140
1.0
141
40.0
290
     0
  0
SCALE
  5
52
102
{ACAD_REACTORS
330
47
102
}
330
47
100
AcDbScale
 70
     0
300
1:50
140
1.0
141
50.0
290
     0
  0
SCALE
  5
53
102
{ACAD_REACTORS
330
47
102
}
330
47
100
AcDbScale
 70
     0
300
1:100
140
1.0
141
100.0
290
     0
  0
SCALE
  5
54
102
{ACAD_REACTORS
330
47
102
}
330
47
100
AcDbScale
 70
     0
300
2:1
140
2.0
141
1.0
290
     0
  0
SCALE
  5
55
102
{ACAD_REACTORS
330
47
102
}
330
47
100
AcDbScale
 70
     0
300
4:1
140
4.0
141
1.0
290
     0
  0
SCALE
  5
56
102
{ACAD_REACTORS
330
47
102
}
330
47
100
AcDbScale
 70
     0
300
8:1
140
8.0
141
1.0
290
     0
  0
SCALE
  5
57
102
{ACAD_REACTORS
330
47
102
}
330
47
100
AcDbScale
 70
     0
300
10:1
140
10.0
141
1.0
290
     0
  0
SCALE
  5
58
102
{ACAD_REACTORS
330
47
102
}
330
47
100
AcDbScale
 70
     0
300
100:1
140
100.0
141
1.0
290
     0
  0
ENDSEC
  0
EOF
