  0
SECTION
  2
HEADER
  9
$ACADVER
  1
AC1024
  9
$ACADMAINTVER
 70
     6
  9
$DWGCODEPAGE
  3
ANSI_1252
  9
$INSBASE
 10
0.0
 20
0.0
 30
0.0
  9
$EXTMIN
 10
0.0
 20
0.0
 30
0.0
  9
$EXTMAX
 10
594.0
 20
841.0
 30
0.0
  9
$LIMMIN
 10
0.0
 20
0.0
  9
$LIMMAX
 10
594.0
 20
841.0
  9
$ORTHOMODE
 70
     0
  9
$REGENMODE
 70
     1
  9
$FILLMODE
 70
     1
  9
$QTEXTMODE
 70
     0
  9
$MIRRTEXT
 70
     1
  9
$LTSCALE
 40
1.0
  9
$ATTMODE
 70
     1
  9
$TEXTSIZE
 40
10.0
  9
$TRACEWID
 40
1.0
  9
$TEXTSTYLE
  7
Standard
  9
$CLAYER
  8
0
  9
$CELTYPE
  6
ByLayer
  9
$CECOLOR
 62
   256
  9
$CELTSCALE
 40
1.0
  9
$DISPSILH
 70
     0
  9
$DIMSCALE
 40
1.0
  9
$DIMASZ
 40
2.5
  9
$DIMEXO
 40
0.0
  9
$DIMDLI
 40
3.75
  9
$DIMRND
 40
0.0
  9
$DIMDLE
 40
0.0
  9
$DIMEXE
 40
1.0
  9
$DIMTP
 40
0.0
  9
$DIMTM
 40
0.0
  9
$DIMTXT
 40
3.5
  9
$DIMCEN
 40
2.5
  9
$DIMTSZ
 40
0.0
  9
$DIMTOL
 70
     0
  9
$DIMLIM
 70
     0
  9
$DIMTIH
 70
     1
  9
$DIMTOH
 70
     1
  9
$DIMSE1
 70
     0
  9
$DIMSE2
 70
     0
  9
$DIMTAD
 70
     1
  9
$DIMZIN
 70
     0
  9
$DIMBLK
  1

  9
$DIMASO
 70
     1
  9
$DIMSHO
 70
     1
  9
$DIMPOST
  1

  9
$DIMAPOST
  1

  9
$DIMALT
 70
     0
  9
$DIMALTD
 70
     3
  9
$DIMALTF
 40
0.0393700787
  9
$DIMLFAC
 40
1.0
  9
$DIMTOFL
 70
     1
  9
$DIMTVP
 40
0.0
  9
$DIMTIX
 70
     0
  9
$DIMSOXD
 70
     0
  9
$DIMSAH
 70
     0
  9
$DIMBLK1
  1

  9
$DIMBLK2
  1

  9
$DIMSTYLE
  2
ISO-25
  9
$DIMCLRD
 70
     0
  9
$DIMCLRE
 70
     0
  9
$DIMCLRT
 70
     0
  9
$DIMTFAC
 40
1.0
  9
$DIMGAP
 40
1.5
  9
$DIMJUST
 70
     0
  9
$DIMSD1
 70
     0
  9
$DIMSD2
 70
     0
  9
$DIMTOLJ
 70
     0
  9
$DIMTZIN
 70
     0
  9
$DIMALTZ
 70
     0
  9
$DIMALTTZ
 70
     0
  9
$DIMUPT
 70
     0
  9
$DIMDEC
 70
     2
  9
$DIMTDEC
 70
     2
  9
$DIMALTU
 70
     2
  9
$DIMALTTD
 70
     3
  9
$DIMTXSTY
  7
Standard
  9
$DIMAUNIT
 70
     0
  9
$DIMADEC
 70
     2
  9
$DIMALTRND
 40
0.0
  9
$DIMAZIN
 70
     0
  9
$DIMDSEP
 70
    44
  9
$DIMATFIT
 70
     3
  9
$DIMFRAC
 70
     0
  9
$DIMLDRBLK
  1

  9
$DIMLUNIT
 70
     2
  9
$DIMLWD
 70
    -2
  9
$DIMLWE
 70
    -2
  9
$DIMTMOVE
 70
     0
  9
$DIMFXL
 40
1.0
  9
$DIMFXLON
 70
     0
  9
$DIMJOGANG
 40
0.7853981634
  9
$DIMTFILL
 70
     0
  9
$DIMTFILLCLR
 70
     0
  9
$DIMARCSYM
 70
     0
  9
$DIMLTYPE
  6

  9
$DIMLTEX1
  6

  9
$DIMLTEX2
  6

  9
$DIMTXTDIRECTION
 70
     0
  9
$LUNITS
 70
     2
  9
$LUPREC
 70
     2
  9
$SKETCHINC
 40
1.0
  9
$FILLETRAD
 40
10.0
  9
$AUNITS
 70
     0
  9
$AUPREC
 70
     2
  9
$MENU
  1
.
  9
$ELEVATION
 40
0.0
  9
$PELEVATION
 40
0.0
  9
$THICKNESS
 40
0.0
  9
$LIMCHECK
 70
     0
  9
$CHAMFERA
 40
10.0
  9
$CHAMFERB
 40
10.0
  9
$CHAMFERC
 40
20.0
  9
$CHAMFERD
 40
0.0
  9
$SKPOLY
 70
     0
  9
$TDCREATE
 40
2456276.414155914
  9
$TDUCREATE
 40
2456276.372489247
  9
$TDUPDATE
 40
2456276.414156458
  9
$TDUUPDATE
 40
2456276.372489792
  9
$TDINDWG
 40
0.0000000116
  9
$TDUSRTIMER
 40
0.0000000116
  9
$USRTIMER
 70
     1
  9
$ANGBASE
 50
0.0
  9
$ANGDIR
 70
     0
  9
$PDMODE
 70
     0
  9
$PDSIZE
 40
-1.0
  9
$PLINEWID
 40
0.0
  9
$SPLFRAME
 70
     0
  9
$SPLINETYPE
 70
     6
  9
$SPLINESEGS
 70
     8
  9
$HANDSEED
  5
167
  9
$SURFTAB1
 70
     6
  9
$SURFTAB2
 70
     6
  9
$SURFTYPE
 70
     6
  9
$SURFU
 70
     6
  9
$SURFV
 70
     6
  9
$UCSBASE
  2

  9
$UCSNAME
  2

  9
$UCSORG
 10
0.0
 20
0.0
 30
0.0
  9
$UCSXDIR
 10
1.0
 20
0.0
 30
0.0
  9
$UCSYDIR
 10
0.0
 20
1.0
 30
0.0
  9
$UCSORTHOREF
  2

  9
$UCSORTHOVIEW
 70
     0
  9
$UCSORGTOP
 10
0.0
 20
0.0
 30
0.0
  9
$UCSORGBOTTOM
 10
0.0
 20
0.0
 30
0.0
  9
$UCSORGLEFT
 10
0.0
 20
0.0
 30
0.0
  9
$UCSORGRIGHT
 10
0.0
 20
0.0
 30
0.0
  9
$UCSORGFRONT
 10
0.0
 20
0.0
 30
0.0
  9
$UCSORGBACK
 10
0.0
 20
0.0
 30
0.0
  9
$PUCSBASE
  2

  9
$PUCSNAME
  2

  9
$PUCSORG
 10
0.0
 20
0.0
 30
0.0
  9
$PUCSXDIR
 10
1.0
 20
0.0
 30
0.0
  9
$PUCSYDIR
 10
0.0
 20
1.0
 30
0.0
  9
$PUCSORTHOREF
  2

  9
$PUCSORTHOVIEW
 70
     0
  9
$PUCSORGTOP
 10
0.0
 20
0.0
 30
0.0
  9
$PUCSORGBOTTOM
 10
0.0
 20
0.0
 30
0.0
  9
$PUCSORGLEFT
 10
0.0
 20
0.0
 30
0.0
  9
$PUCSORGRIGHT
 10
0.0
 20
0.0
 30
0.0
  9
$PUCSORGFRONT
 10
0.0
 20
0.0
 30
0.0
  9
$PUCSORGBACK
 10
0.0
 20
0.0
 30
0.0
  9
$USERI1
 70
     0
  9
$USERI2
 70
     0
  9
$USERI3
 70
     0
  9
$USERI4
 70
     0
  9
$USERI5
 70
     0
  9
$USERR1
 40
0.0
  9
$USERR2
 40
0.0
  9
$USERR3
 40
0.0
  9
$USERR4
 40
0.0
  9
$USERR5
 40
0.0
  9
$WORLDVIEW
 70
     1
  9
$SHADEDGE
 70
     3
  9
$SHADEDIF
 70
    70
  9
$TILEMODE
 70
     1
  9
$MAXACTVP
 70
    64
  9
$PINSBASE
 10
0.0
 20
0.0
 30
0.0
  9
$PLIMCHECK
 70
     0
  9
$PEXTMIN
 10
1.0000000000E+20
 20
1.0000000000E+20
 30
1.0000000000E+20
  9
$PEXTMAX
 10
-1.0000000000E+20
 20
-1.0000000000E+20
 30
-1.0000000000E+20
  9
$PLIMMIN
 10
0.0
 20
0.0
  9
$PLIMMAX
 10
420.0
 20
297.0
  9
$UNITMODE
 70
     0
  9
$VISRETAIN
 70
     1
  9
$PLINEGEN
 70
     0
  9
$PSLTSCALE
 70
     1
  9
$TREEDEPTH
 70
  3020
  9
$CMLSTYLE
  2
Standard
  9
$CMLJUST
 70
     0
  9
$CMLSCALE
 40
20.0
  9
$PROXYGRAPHICS
 70
     1
  9
$MEASUREMENT
 70
     1
  9
$CELWEIGHT
370
    -1
  9
$ENDCAPS
280
     0
  9
$JOINSTYLE
280
     0
  9
$LWDISPLAY
290
     1
  9
$INSUNITS
 70
     4
  9
$HYPERLINKBASE
  1

  9
$STYLESHEET
  1

  9
$XEDIT
290
     1
  9
$CEPSNTYPE
380
     0
  9
$PSTYLEMODE
290
     1
  9
$FINGERPRINTGUID
  2
{F309292F-EB44-41A4-A4BD-51B1F4952F39}
  9
$VERSIONGUID
  2
{FAEB1C32-E019-11D5-929B-00C0DF256EC4}
  9
$EXTNAMES
290
     1
  9
$PSVPSCALE
 40
0.0
  9
$OLESTARTUP
290
     0
  9
$SORTENTS
280
   127
  9
$INDEXCTL
280
     0
  9
$HIDETEXT
280
     1
  9
$XCLIPFRAME
280
     2
  9
$HALOGAP
280
     0
  9
$OBSCOLOR
 70
   257
  9
$OBSLTYPE
280
     0
  9
$INTERSECTIONDISPLAY
280
     0
  9
$INTERSECTIONCOLOR
 70
   257
  9
$DIMASSOC
280
     2
  9
$PROJECTNAME
  1

  9
$CAMERADISPLAY
290
     0
  9
$LENSLENGTH
 40
50.0
  9
$CAMERAHEIGHT
 40
0.0
  9
$STEPSPERSEC
 40
2.0
  9
$STEPSIZE
 40
6.0
  9
$3DDWFPREC
 40
2.0
  9
$PSOLWIDTH
 40
5.0
  9
$PSOLHEIGHT
 40
80.0
  9
$LOFTANG1
 40
1.5707963268
  9
$LOFTANG2
 40
1.5707963268
  9
$LOFTMAG1
 40
0.0
  9
$LOFTMAG2
 40
0.0
  9
$LOFTPARAM
 70
     7
  9
$LOFTNORMALS
280
     1
  9
$LATITUDE
 40
37.795
  9
$LONGITUDE
 40
-122.394
  9
$NORTHDIRECTION
 40
0.0
  9
$TIMEZONE
 70
 -8000
  9
$LIGHTGLYPHDISPLAY
280
     1
  9
$TILEMODELIGHTSYNCH
280
     1
  9
$SOLIDHIST
280
     1
  9
$SHOWHIST
280
     1
  9
$DWFFRAME
280
     2
  9
$DGNFRAME
280
     2
  9
$REALWORLDSCALE
290
     1
  9
$INTERFERECOLOR
 62
   256
  9
$CSHADOW
280
     0
  9
$SHADOWPLANELOCATION
 40
0.0
  0
ENDSEC
  0
SECTION
  2
CLASSES
  0
CLASS
  1
ACDBDICTIONARYWDFLT
  2
AcDbDictionaryWithDefault
  3
ObjectDBX Classes
 90
        0
 91
        4
280
     0
281
     0
  0
CLASS
  1
VISUALSTYLE
  2
AcDbVisualStyle
  3
ObjectDBX Classes
 90
     4095
 91
        4
280
     0
281
     0
  0
CLASS
  1
MATERIAL
  2
AcDbMaterial
  3
ObjectDBX Classes
 90
     1153
 91
        4
280
     0
281
     0
  0
ENDSEC
  0
SECTION
  2
TABLES
  0
TABLE
  2
VPORT
  5
8
330
0
100
AcDbSymbolTable
 70
     1
  0
VPORT
  5
29
330
8
100
AcDbSymbolTableRecord
100
AcDbViewportTableRecord
  2
*Active
 70
     0
 10
0.0
 20
0.0
 11
1.0
 21
1.0
 12
297.0
 22
420.5
 13
0.0
 23
0.0
 14
10.0
 24
10.0
 15
10.0
 25
10.0
 16
0.0
 26
0.0
 36
1.0
 17
0.0
 27
0.0
 37
0.0
 40
841.0
 41
0.7063020214
 42
50.0
 43
0.0
 44
0.0
 50
0.0
 51
0.0
 71
     0
 72
  2000
 73
     1
 74
     3
 75
     0
 76
     0
 77
     0
 78
     0
281
     0
 65
     1
110
0.0
120
0.0
130
0.0
111
1.0
121
0.0
131
0.0
112
0.0
122
1.0
132
0.0
 79
     0
146
0.0
 60
     3
 61
     5
292
     1
282
     1
141
0.0
142
0.0
 63
   250
  0
ENDTAB
  0
TABLE
  2
LTYPE
  5
5
330
0
100
AcDbSymbolTable
 70
     6
  0
LTYPE
  5
14
330
5
100
AcDbSymbolTableRecord
100
AcDbLinetypeTableRecord
  2
ByBlock
 70
     0
  3

 72
    65
 73
     0
 40
0.0
  0
LTYPE
  5
15
330
5
100
AcDbSymbolTableRecord
100
AcDbLinetypeTableRecord
  2
ByLayer
 70
     0
  3

 72
    65
 73
     0
 40
0.0
  0
LTYPE
  5
16
330
5
100
AcDbSymbolTableRecord
100
AcDbLinetypeTableRecord
  2
Continuous
 70
     0
  3
Solid line
 72
    65
 73
     0
 40
0.0
  0
LTYPE
  5
3F
330
5
100
AcDbSymbolTableRecord
100
AcDbLinetypeTableRecord
  2
HIDDEN
 70
     0
  3
Hidden __ __ __ __ __ __ __ __ __ __ __ __ __ __
 72
    65
 73
     2
 40
1.905
 49
1.27
 74
     0
 49
-0.635
 74
     0
  0
LTYPE
  5
40
330
5
100
AcDbSymbolTableRecord
100
AcDbLinetypeTableRecord
  2
PHANTOM
 70
     0
  3
Phantom ______  __  __  ______  __  __  ______
 72
    65
 73
     6
 40
12.7
 49
6.35
 74
     0
 49
-1.27
 74
     0
 49
1.27
 74
     0
 49
-1.27
 74
     0
 49
1.27
 74
     0
 49
-1.27
 74
     0
  0
LTYPE
  5
41
330
5
100
AcDbSymbolTableRecord
100
AcDbLinetypeTableRecord
  2
CENTER
 70
     0
  3
Center ____ _ ____ _ ____ _ ____ _ ____ _ ____
 72
    65
 73
     4
 40
10.16
 49
6.35
 74
     0
 49
-1.27
 74
     0
 49
1.27
 74
     0
 49
-1.27
 74
     0
  0
LTYPE
  5
42
330
5
100
AcDbSymbolTableRecord
100
AcDbLinetypeTableRecord
  2
CENTERX2
 70
     0
  3
Center (2x) ________  __  ________  __  _____
 72
    65
 73
     4
 40
20.32
 49
12.7
 74
     0
 49
-2.54
 74
     0
 49
2.54
 74
     0
 49
-2.54
 74
     0
  0
LTYPE
  5
43
330
5
100
AcDbSymbolTableRecord
100
AcDbLinetypeTableRecord
  2
DOT2
 70
     0
  3
Dot (.5x) ........................................
 72
    65
 73
     2
 40
0.635
 49
0.0
 74
     0
 49
-0.635
 74
     0
  0
ENDTAB
  0
TABLE
  2
LAYER
  5
2
330
0
100
AcDbSymbolTable
 70
     1
  0
LAYER
  5
10
330
2
100
AcDbSymbolTableRecord
100
AcDbLayerTableRecord
  2
0
 70
     0
 62
     7
  6
Continuous
370
    -3
390
F
347
3E
  0
ENDTAB
  0
TABLE
  2
STYLE
  5
3
330
0
100
AcDbSymbolTable
 70
     3
  0
STYLE
  5
11
330
3
100
AcDbSymbolTableRecord
100
AcDbTextStyleTableRecord
  2
Standard
 70
     0
 40
0.0
 41
1.0
 50
0.0
 71
     0
 42
10.0
  3
txt
  4

  0
STYLE
  5
47
330
3
100
AcDbSymbolTableRecord
100
AcDbTextStyleTableRecord
  2
SLDTEXTSTYLE0
 70
     0
 40
0.0
 41
0.96
 50
0.0
 71
     0
 42
0.2
  3
ISOCP3
  4

  0
STYLE
  5
5E
330
3
100
AcDbSymbolTableRecord
100
AcDbTextStyleTableRecord
  2
SLDTEXTSTYLE1
 70
     0
 40
0.0
 41
0.605
 50
0.0
 71
     0
 42
0.2
  3
TXT
  4

  0
ENDTAB
  0
TABLE
  2
VIEW
  5
6
330
0
100
AcDbSymbolTable
 70
     0
  0
ENDTAB
  0
TABLE
  2
UCS
  5
7
330
0
100
AcDbSymbolTable
 70
     0
  0
ENDTAB
  0
TABLE
  2
APPID
  5
9
330
0
100
AcDbSymbolTable
 70
     1
  0
APPID
  5
12
330
9
100
AcDbSymbolTableRecord
100
AcDbRegAppTableRecord
  2
ACAD
 70
     0
  0
ENDTAB
  0
TABLE
  2
DIMSTYLE
  5
A
330
0
100
AcDbSymbolTable
 70
     2
100
AcDbDimStyleTable
  0
DIMSTYLE
105
27
330
A
100
AcDbSymbolTableRecord
100
AcDbDimStyleTableRecord
  2
ISO-25
 70
     0
 41
2.5
 42
0.625
 43
3.75
 44
1.25
 73
     0
 74
     0
 77
     1
 78
     8
140
2.5
141
2.5
143
0.0393700787
147
0.625
171
     3
172
     1
178
     0
271
     2
272
     2
274
     3
278
    44
283
     0
284
     8
340
11
  0
DIMSTYLE
105
48
102
{ACAD_REACTORS
330
46
330
53
102
}
330
A
100
AcDbSymbolTableRecord
100
AcDbDimStyleTableRecord
  2
SLDDIMSTYLE0
 70
     0
 41
2.5
 44
0.0
 45
0.000000001
 73
     0
 74
     0
 77
     1
 78
    12
 79
     3
140
6.0
147
1.5
173
     1
178
     0
271
     2
272
     2
276
     2
284
    12
340
47
  0
ENDTAB
  0
TABLE
  2
BLOCK_RECORD
  5
1
330
0
100
AcDbSymbolTable
 70
     3
  0
BLOCK_RECORD
  5
1F
330
1
100
AcDbSymbolTableRecord
100
AcDbBlockTableRecord
  2
*Model_Space
340
22
 70
     0
280
     1
281
     0
  0
BLOCK_RECORD
  5
1B
330
1
100
AcDbSymbolTableRecord
100
AcDbBlockTableRecord
  2
*Paper_Space
340
1E
 70
     0
280
     1
281
     0
  0
BLOCK_RECORD
  5
23
330
1
100
AcDbSymbolTableRecord
100
AcDbBlockTableRecord
  2
*Paper_Space0
340
26
 70
     0
280
     1
281
     0
  0
BLOCK_RECORD
  5
49
330
1
100
AcDbSymbolTableRecord
100
AcDbBlockTableRecord
  2
_D
340
0
 70
     0
280
     1
281
     0
  0
BLOCK_RECORD
  5
54
330
1
100
AcDbSymbolTableRecord
100
AcDbBlockTableRecord
  2
_D_1
340
0
 70
     0
280
     1
281
     0
  0
ENDTAB
  0
ENDSEC
  0
SECTION
  2
BLOCKS
  0
BLOCK
  5
20
330
1F
100
AcDbEntity
  8
0
100
AcDbBlockBegin
  2
*Model_Space
 70
     0
 10
0.0
 20
0.0
 30
0.0
  3
*Model_Space
  1

  0
ENDBLK
  5
21
330
1F
100
AcDbEntity
  8
0
100
AcDbBlockEnd
  0
BLOCK
  5
1C
330
1B
100
AcDbEntity
 67
     1
  8
0
100
AcDbBlockBegin
  2
*Paper_Space
 70
     0
 10
0.0
 20
0.0
 30
0.0
  3
*Paper_Space
  1

  0
ENDBLK
  5
1D
330
1B
100
AcDbEntity
 67
     1
  8
0
100
AcDbBlockEnd
  0
BLOCK
  5
24
330
23
100
AcDbEntity
  8
0
100
AcDbBlockBegin
  2
*Paper_Space0
 70
     0
 10
0.0
 20
0.0
 30
0.0
  3
*Paper_Space0
  1

  0
ENDBLK
  5
25
330
23
100
AcDbEntity
  8
0
100
AcDbBlockEnd
  0
BLOCK
  5
4A
330
49
100
AcDbEntity
  8
0
100
AcDbBlockBegin
  2
_D
 70
     0
 10
0.0
 20
0.0
 30
0.0
  3
_D
  1

  0
SOLID
  5
4C
330
49
100
AcDbEntity
  8
0
  6
Continuous
 62
     7
370
     0
100
AcDbTrace
 10
42.7614395004
 20
152.0299240879
 30
0.0
 11
42.4614395004
 21
149.5299240879
 31
0.0
 12
43.0614395004
 22
149.5299240879
 32
0.0
 13
43.0614395004
 23
149.5299240879
 33
0.0
  0
SOLID
  5
4D
330
49
100
AcDbEntity
  8
0
  6
Continuous
 62
     7
370
     0
100
AcDbTrace
 10
42.7614395004
 20
52.0299240879
 30
0.0
 11
43.0614395004
 21
54.5299240879
 31
0.0
 12
42.4614395004
 22
54.5299240879
 32
0.0
 13
42.4614395004
 23
54.5299240879
 33
0.0
  0
LINE
  5
4E
330
49
100
AcDbEntity
  8
0
  6
Continuous
 62
     7
370
     0
100
AcDbLine
 10
56.6850079902
 20
152.0299240879
 30
0.0
 11
41.7614395004
 21
152.0299240879
 31
0.0
  0
LINE
  5
4F
330
49
100
AcDbEntity
  8
0
  6
Continuous
 62
     7
370
     0
100
AcDbLine
 10
56.6850079902
 20
52.0299240879
 30
0.0
 11
41.7614395004
 21
52.0299240879
 31
0.0
  0
LINE
  5
50
330
49
100
AcDbEntity
  8
0
  6
Continuous
 62
     7
370
     0
100
AcDbLine
 10
42.7614395004
 20
152.0299240879
 30
0.0
 11
42.7614395004
 21
52.0299240879
 31
0.0
  0
MTEXT
  5
51
330
49
100
AcDbEntity
  8
0
  6
Continuous
 62
     7
370
     0
100
AcDbMText
 10
35.0270332946
 20
91.6722208134
 30
0.1
 40
6.0
 41
0.0
 46
0.0
 71
     1
 72
     1
  1
100
  7
SLDTEXTSTYLE0
 11
-7.044195017643634E-15
 21
1.0
 31
0.0
 73
     1
 44
1.0
  0
MTEXT
  5
52
330
49
100
AcDbEntity
  8
0
  6
Continuous
 62
     7
370
     0
100
AcDbMText
 10
35.0270332946
 20
108.4388881795
 30
0.1
 40
6.0
 41
0.0
 46
0.0
 71
     1
 72
     1
  1
mm
  7
SLDTEXTSTYLE0
 11
-7.044195017643634E-15
 21
1.0
 31
0.0
 73
     1
 44
1.0
  0
ENDBLK
  5
4B
330
49
100
AcDbEntity
  8
0
100
AcDbBlockEnd
  0
BLOCK
  5
55
330
54
100
AcDbEntity
  8
0
100
AcDbBlockBegin
  2
_D_1
 70
     0
 10
0.0
 20
0.0
 30
0.0
  3
_D_1
  1

  0
SOLID
  5
57
330
54
100
AcDbEntity
  8
0
  6
Continuous
 62
     7
370
     0
100
AcDbTrace
 10
56.6850079902
 20
38.4602342313
 30
0.0
 11
59.1850079902
 21
38.1602342313
 31
0.0
 12
59.1850079902
 22
38.7602342313
 32
0.0
 13
59.1850079902
 23
38.7602342313
 33
0.0
  0
SOLID
  5
58
330
54
100
AcDbEntity
  8
0
  6
Continuous
 62
     7
370
     0
100
AcDbTrace
 10
156.6850079902
 20
38.4602342313
 30
0.0
 11
154.1850079902
 21
38.7602342313
 31
0.0
 12
154.1850079902
 22
38.1602342313
 32
0.0
 13
154.1850079902
 23
38.1602342313
 33
0.0
  0
LINE
  5
59
330
54
100
AcDbEntity
  8
0
  6
Continuous
 62
     7
370
     0
100
AcDbLine
 10
56.6850079902
 20
52.0299240879
 30
0.0
 11
56.6850079902
 21
37.4602342313
 31
0.0
  0
LINE
  5
5A
330
54
100
AcDbEntity
  8
0
  6
Continuous
 62
     7
370
     0
100
AcDbLine
 10
156.6850079902
 20
52.0299240879
 30
0.0
 11
156.6850079902
 21
37.4602342313
 31
0.0
  0
LINE
  5
5B
330
54
100
AcDbEntity
  8
0
  6
Continuous
 62
     7
370
     0
100
AcDbLine
 10
56.6850079902
 20
38.4602342313
 30
0.0
 11
156.6850079902
 21
38.4602342313
 31
0.0
  0
MTEXT
  5
5C
330
54
100
AcDbEntity
  8
0
  6
Continuous
 62
     7
370
     0
100
AcDbMText
 10
91.2668151533
 20
46.1946404371
 30
0.1
 40
6.0
 41
0.0
 46
0.0
 71
     1
 72
     1
  1
100
  7
SLDTEXTSTYLE0
 73
     1
 44
1.0
  0
MTEXT
  5
5D
330
54
100
AcDbEntity
  8
0
  6
Continuous
 62
     7
370
     0
100
AcDbMText
 10
108.0334825193
 20
46.1946404371
 30
0.1
 40
6.0
 41
0.0
 46
0.0
 71
     1
 72
     1
  1
mm
  7
SLDTEXTSTYLE0
 73
     1
 44
1.0
  0
ENDBLK
  5
56
330
54
100
AcDbEntity
  8
0
100
AcDbBlockEnd
  0
ENDSEC
  0
SECTION
  2
ENTITIES
  0
LINE
  5
44
330
1F
100
AcDbEntity
  8
0
  6
Continuous
 62
     7
370
     0
100
AcDbLine
 10
56.6850079902
 20
152.0299240879
 30
0.0
 11
56.6850079902
 21
52.0299240879
 31
0.0
  0
LINE
  5
45
330
1F
100
AcDbEntity
  8
0
  6
Continuous
 62
     7
370
     0
100
AcDbLine
 10
56.6850079902
 20
52.0299240879
 30
0.0
 11
156.6850079902
 21
52.0299240879
 31
0.0
  0
DIMENSION
  5
46
330
1F
100
AcDbEntity
  8
0
  6
Continuous
 62
     7
370
     0
100
AcDbDimension
280
     0
  2
_D
 10
42.7614395004
 20
52.0299240879
 30
0.0
 11
42.7614395004
 21
105.4472211621
 31
0.0
 70
   160
  1
<>mm
 71
     2
 42
-1.0
 73
     0
 74
     0
 75
     0
  3
SLDDIMSTYLE0
100
AcDbAlignedDimension
 13
56.6850079902
 23
152.0299240879
 33
0.0
 14
56.6850079902
 24
52.0299240879
 34
0.0
 50
90.0
100
AcDbRotatedDimension
  0
DIMENSION
  5
53
330
1F
100
AcDbEntity
  8
0
  6
Continuous
 62
     7
370
     0
100
AcDbDimension
280
     0
  2
_D_1
 10
156.6850079902
 20
38.4602342313
 30
0.0
 11
105.0418155019
 21
38.4602342313
 31
0.0
 70
   160
  1
<>mm
 71
     2
 42
-1.0
 73
     0
 74
     0
 75
     0
  3
SLDDIMSTYLE0
100
AcDbAlignedDimension
 13
56.6850079902
 23
52.0299240879
 33
0.0
 14
156.6850079902
 24
52.0299240879
 34
0.0
100
AcDbRotatedDimension
  0
MTEXT
  5
5F
330
1F
100
AcDbEntity
  8
0
  6
Continuous
 62
     7
370
     0
100
AcDbMText
 10
279.6490630444
 20
45.8632519178
 30
0.0
 40
10.0
 41
0.0
 46
0.0
 71
     1
 72
     1
  1
42 210 05 75
  7
SLDTEXTSTYLE1
 73
     1
 44
1.0
  0
MTEXT
  5
60
330
1F
100
AcDbEntity
  8
0
  6
Continuous
 62
     7
370
     0
100
AcDbMText
 10
412.8252631579
 20
48.4342449499
 30
0.0
 40
10.0
 41
0.0
 46
0.0
 71
     1
 72
     1
  1
KLUDI GmbH & Co KG
  7
SLDTEXTSTYLE1
 73
     1
 44
1.0
  0
LINE
  5
61
330
1F
100
AcDbEntity
  8
0
  6
Continuous
 62
     7
370
    15
100
AcDbLine
 10
188.5709113551
 20
603.668442945
 30
0.0
 11
188.5709113551
 21
641.0716010279
 31
0.0
  0
LINE
  5
62
330
1F
100
AcDbEntity
  8
0
  6
Continuous
 62
     7
370
    15
100
AcDbLine
 10
165.5709113551
 20
641.0716010279
 30
0.0
 11
165.5709113551
 21
603.668442945
 31
0.0
  0
ARC
  5
63
330
1F
100
AcDbEntity
  8
0
  6
Continuous
 62
     7
370
    15
100
AcDbCircle
 10
177.0709113551
 20
727.8385423729
 30
0.0
 40
11.5
100
AcDbArc
 50
0.0
 51
180.0
  0
LINE
  5
64
330
1F
100
AcDbEntity
  8
0
  6
Continuous
 62
     7
370
    15
100
AcDbLine
 10
165.5709113551
 20
727.8385423729
 30
0.0
 11
165.5709113551
 21
641.0716010279
 31
0.0
  0
LINE
  5
65
330
1F
100
AcDbEntity
  8
0
  6
Continuous
 62
     7
370
    15
100
AcDbLine
 10
188.5709113551
 20
641.0716010279
 30
0.0
 11
188.5709113551
 21
727.8385423729
 31
0.0
  0
LINE
  5
66
330
1F
100
AcDbEntity
  8
0
  6
Continuous
 62
     7
370
    15
100
AcDbLine
 10
146.8758746682
 20
528.4659886899
 30
0.0
 11
142.8351963988
 21
526.9953020736
 31
0.0
  0
ARC
  5
67
330
1F
100
AcDbEntity
  8
0
  6
Continuous
 62
     7
370
    15
100
AcDbCircle
 10
147.6283189835
 20
526.3986649242
 30
0.0
 40
2.20000000000005
100
AcDbArc
 50
20.0
 51
110.0
  0
ARC
  5
68
330
1F
100
AcDbEntity
  8
0
  6
Continuous
 62
     7
370
    15
100
AcDbCircle
 10
143.5876407141
 20
524.9279783079
 30
0.0
 40
2.20000000000004
100
AcDbArc
 50
110.0
 51
200.0
  0
ARC
  5
69
330
1F
100
AcDbEntity
  8
0
  6
Continuous
 62
     7
370
    15
100
AcDbCircle
 10
203.7709113551
 20
478.0385423729
 30
0.0
 40
0.3000000000000114
100
AcDbArc
 50
0.0
 51
90.0
  0
ARC
  5
6A
330
1F
100
AcDbEntity
  8
0
  6
Continuous
 62
     7
370
    15
100
AcDbCircle
 10
150.3709113551
 20
478.0385423729
 30
0.0
 40
0.2999999999999829
100
AcDbArc
 50
90.0
 51
180.0
  0
ARC
  5
6B
330
1F
100
AcDbEntity
  8
0
  6
Continuous
 62
     7
370
    15
100
AcDbCircle
 10
150.3709113551
 20
364.6385423729
 30
0.0
 40
0.3000000000000114
100
AcDbArc
 50
180.0
 51
270.0
  0
ARC
  5
6C
330
1F
100
AcDbEntity
  8
0
  6
Continuous
 62
     7
370
    15
100
AcDbCircle
 10
203.7709113551
 20
364.6385423729
 30
0.0
 40
0.3000000000000114
100
AcDbArc
 50
270.0
 51
0.0
  0
LINE
  5
6D
330
1F
100
AcDbEntity
  8
0
  6
Continuous
 62
     7
370
    15
100
AcDbLine
 10
150.0709113551
 20
478.0385423729
 30
0.0
 11
150.0709113551
 21
364.6385423729
 31
0.0
  0
LINE
  5
6E
330
1F
100
AcDbEntity
  8
0
  6
Continuous
 62
     7
370
    15
100
AcDbLine
 10
204.0709113551
 20
364.6385423729
 30
0.0
 11
204.0709113551
 21
478.0385423729
 31
0.0
  0
ARC
  5
6F
330
1F
100
AcDbEntity
  8
0
  6
Continuous
 62
     7
370
    15
100
AcDbCircle
 10
203.7709113551
 20
511.4146094267
 30
0.0
 40
0.3000000000000114
100
AcDbArc
 50
0.0
 51
89.4999999998
  0
LINE
  5
70
330
1F
100
AcDbEntity
  8
0
  6
Continuous
 62
     7
370
    15
100
AcDbLine
 10
204.0709113551
 20
506.8385423729
 30
0.0
 11
204.0709113551
 21
511.4146094267
 31
0.0
  0
ARC
  5
71
330
1F
100
AcDbEntity
  8
0
  6
Continuous
 62
     7
370
    15
100
AcDbCircle
 10
203.8709113551
 20
506.8385423729
 30
0.0
 40
0.2000000000001023
100
AcDbArc
 50
270.0
 51
0.0
  0
LINE
  5
72
330
1F
100
AcDbEntity
  8
0
  6
Continuous
 62
     7
370
    15
100
AcDbLine
 10
150.0709113551
 20
500.6829689373
 30
0.0
 11
150.0709113551
 21
478.3385423729
 31
0.0
  0
LINE
  5
73
330
1F
100
AcDbEntity
  8
0
  6
Continuous
 62
     7
370
    15
100
AcDbLine
 10
204.0709113551
 20
478.3385423729
 30
0.0
 11
204.0709113551
 21
506.3385423729
 31
0.0
  0
LINE
  5
74
330
1F
100
AcDbEntity
  8
0
  6
Continuous
 62
     7
370
    15
100
AcDbLine
 10
203.7735293157
 20
511.7145980037
 30
0.0
 11
189.5209113551
 21
511.8389787163
 31
0.0
  0
LINE
  5
75
330
1F
100
AcDbEntity
  8
0
  6
Continuous
 62
     7
370
    15
100
AcDbLine
 10
164.6209113551
 20
511.8389787163
 30
0.0
 11
155.2984137197
 21
511.7576225119
 31
0.0
  0
LINE
  5
76
330
1F
100
AcDbEntity
  8
0
  6
Continuous
 62
     7
370
    15
100
AcDbLine
 10
203.5709113551
 20
506.3385423729
 30
0.0
 11
203.5709113551
 21
506.6385423729
 31
0.0
  0
LINE
  5
77
330
1F
100
AcDbEntity
  8
0
  6
Continuous
 62
     7
370
    15
100
AcDbLine
 10
164.6209113551
 20
512.0385423729
 30
0.0
 11
164.6209113551
 21
511.8389787163
 31
0.0
  0
LINE
  5
78
330
1F
100
AcDbEntity
  8
0
  6
Continuous
 62
     7
370
    15
100
AcDbLine
 10
189.5209113551
 20
511.8389787163
 30
0.0
 11
189.5209113551
 21
512.0385423729
 31
0.0
  0
LINE
  5
79
330
1F
100
AcDbEntity
  8
0
  6
Continuous
 62
     7
370
    15
100
AcDbLine
 10
188.5709113551
 20
512.0385423729
 30
0.0
 11
188.5709113551
 21
603.668442945
 31
0.0
  0
LINE
  5
7A
330
1F
100
AcDbEntity
  8
0
  6
Continuous
 62
     7
370
    15
100
AcDbLine
 10
165.5709113551
 20
603.668442945
 30
0.0
 11
165.5709113551
 21
512.0385423729
 31
0.0
  0
LWPOLYLINE
  5
7B
330
1F
100
AcDbEntity
  8
0
  6
Continuous
 62
     7
370
    15
100
AcDbPolyline
 90
       36
 70
   128
 43
0.0
 10
165.5709113551
 20
603.668442945
 10
165.7557210862
 20
603.311873032
 10
166.3042103427
 20
602.9667635694
 10
167.1987502286
 20
602.6442066593
 10
168.410589496
 20
602.3545695461
 10
169.9007786337
 20
602.107161405
 10
171.6214217366
 20
601.9099341373
 10
173.5172159198
 20
601.7692267895
 10
175.5272287982
 20
601.6895618117
 10
177.5868569041
 20
601.6734997017
 10
179.6299020956
 20
601.721556709
 10
181.5906992191
 20
601.8321882418
 10
183.4062266418
 20
602.0018385117
 10
185.0181318184
 20
602.2250548193
 10
186.3746067904
 20
602.4946628089
 10
187.4320533359
 20
602.8019970579
 10
188.1564842531
 20
603.1371795906
 10
188.524615736
 20
603.4894373647
 10
188.524615736
 20
603.8474485254
 10
188.1564842531
 20
604.1997062994
 10
187.4320533359
 20
604.5348888321
 10
186.3746067904
 20
604.8422230811
 10
185.0181318184
 20
605.1118310707
 10
183.4062266418
 20
605.3350473784
 10
181.5906992191
 20
605.5046976482
 10
179.6299020956
 20
605.615329181
 10
177.5868569041
 20
605.6633861883
 10
175.5272287982
 20
605.6473240784
 10
173.5172159198
 20
605.5676591005
 10
171.6214217366
 20
605.4269517528
 10
169.9007786337
 20
605.229724485
 10
168.410589496
 20
604.9823163439
 10
167.1987502286
 20
604.6926792308
 10
166.3042103427
 20
604.3701223206
 10
165.7557210862
 20
604.025012858
 10
165.5709113551
 20
603.668442945
  0
SPLINE
  5
7C
330
1F
100
AcDbEntity
  8
0
  6
Continuous
 62
     7
370
    15
100
AcDbSpline
210
0.0
220
0.0
230
1.0
 70
     8
 71
     3
 72
     8
 73
     4
 74
     0
 42
0.00000001
 43
0.00000001
 12
1.0
 22
0.0
 32
0.0
 13
1.0
 23
0.0
 33
0.0
 40
0.0
 40
0.0
 40
0.0
 40
0.0
 40
1.0
 40
1.0
 40
1.0
 40
1.0
 10
171.4557723825721
 20
464.2595469569317
 30
0.0
 10
171.400684316672
 20
464.1905315207699
 30
0.0
 10
171.3183784023558
 20
464.1511571126972
 30
0.0
 10
171.2323495645357
 20
464.1312486386104
 30
0.0
  0
SPLINE
  5
7D
330
1F
100
AcDbEntity
  8
0
  6
Continuous
 62
     7
370
    15
100
AcDbSpline
210
0.0
220
0.0
230
1.0
 70
     8
 71
     3
 72
     8
 73
     4
 74
     0
 42
0.00000001
 43
0.00000001
 12
1.0
 22
0.0
 32
0.0
 13
1.0
 23
0.0
 33
0.0
 40
0.0
 40
0.0
 40
0.0
 40
0.0
 40
1.0
 40
1.0
 40
1.0
 40
1.0
 10
165.5306279278914
 20
462.0559916788004
 30
0.0
 10
165.4521256805414
 20
462.0160442206288
 30
0.0
 10
165.3632656571629
 20
461.9932628364458
 30
0.0
 10
165.2770075503081
 20
462.0106604734568
 30
0.0
  0
SPLINE
  5
7E
330
1F
100
AcDbEntity
  8
0
  6
Continuous
 62
     7
370
    15
100
AcDbSpline
210
0.0
220
0.0
230
1.0
 70
     8
 71
     3
 72
    14
 73
    10
 74
     0
 42
0.00000001
 43
0.00000001
 12
1.0
 22
0.0
 32
0.0
 13
1.0
 23
0.0
 33
0.0
 40
0.0
 40
0.0
 40
0.0
 40
0.0
 40
0.25
 40
0.25
 40
0.5
 40
0.5
 40
0.75
 40
0.75
 40
1.0
 40
1.0
 40
1.0
 40
1.0
 10
172.7802352083538
 20
465.707288963722
 30
0.0
 10
172.9886992408675
 20
465.5435160669656
 30
0.0
 10
173.2122366073084
 20
465.3979682365518
 30
0.0
 10
173.677661484761
 20
465.1500992967599
 30
0.0
 10
173.9207910264775
 20
465.0466613881743
 30
0.0
 10
174.4286585627551
 20
464.8823115520645
 30
0.0
 10
174.6929139521284
 20
464.8221981699193
 30
0.0
 10
175.2219800510205
 20
464.7506856093163
 30
0.0
 10
175.4894009452081
 20
464.7383102987973
 30
0.0
 10
175.7598332916054
 20
464.7503181285082
 30
0.0
  0
SPLINE
  5
7F
330
1F
100
AcDbEntity
  8
0
  6
Continuous
 62
     7
370
    15
100
AcDbSpline
210
0.0
220
0.0
230
1.0
 70
     8
 71
     3
 72
    14
 73
    10
 74
     0
 42
0.00000001
 43
0.00000001
 12
1.0
 22
0.0
 32
0.0
 13
1.0
 23
0.0
 33
0.0
 40
0.0
 40
0.0
 40
0.0
 40
0.0
 40
0.25
 40
0.25
 40
0.5
 40
0.5
 40
0.75
 40
0.75
 40
1.0
 40
1.0
 40
1.0
 40
1.0
 10
161.6644439798168
 20
459.6200159786232
 30
0.0
 10
161.8793256601715
 20
459.7846480089218
 30
0.0
 10
162.0762272538701
 20
459.966022884132
 30
0.0
 10
162.4355480110766
 20
460.3608818168681
 30
0.0
 10
162.599339246451
 20
460.5767914292996
 30
0.0
 10
162.8827463121515
 20
461.0291416676602
 30
0.0
 10
163.0025057405308
 20
461.2646603597042
 30
0.0
 10
163.1997147982683
 20
461.75370832812
 30
0.0
 10
163.2773980136531
 20
462.0088914842667
 30
0.0
 10
163.3318195385128
 20
462.2683468989257
 30
0.0
  0
ARC
  5
80
330
1F
100
AcDbEntity
  8
0
  6
Continuous
 62
     7
370
    15
100
AcDbCircle
 10
176.8687991955
 20
439.7749263473
 30
0.0
 40
25.00000000000002
100
AcDbArc
 50
127.4576031237
 51
92.5423968763
  0
ARC
  5
81
330
1F
100
AcDbEntity
  8
0
  6
Continuous
 62
     7
370
    15
100
AcDbCircle
 10
158.927660041
 20
463.1921321123
 30
0.0
 40
4.500000000000009
100
AcDbArc
 50
348.1537815189
 51
20.0
  0
ARC
  5
82
330
1F
100
AcDbEntity
  8
0
  6
Continuous
 62
     7
370
    15
100
AcDbCircle
 10
175.5602194289
 20
469.2458886491
 30
0.0
 40
4.500000000000046
100
AcDbArc
 50
200.0
 51
231.8462184811
  0
LINE
  5
83
330
1F
100
AcDbEntity
  8
0
  6
Continuous
 62
     7
370
    15
100
AcDbLine
 10
149.6956427492
 20
527.1511092395
 30
0.0
 11
151.730662602
 21
521.5599381458
 31
0.0
  0
LINE
  5
84
330
1F
100
AcDbEntity
  8
0
  6
Continuous
 62
     7
370
    15
100
AcDbLine
 10
143.5553368012
 20
518.5843628989
 30
0.0
 11
141.5203169484
 21
524.1755339926
 31
0.0
  0
LINE
  5
85
330
1F
100
AcDbEntity
  8
0
  6
Continuous
 62
     7
370
    15
100
AcDbLine
 10
151.730662602
 20
521.5599381458
 30
0.0
 11
171.3316026354
 21
467.7067980042
 31
0.0
  0
LINE
  5
86
330
1F
100
AcDbEntity
  8
0
  6
Continuous
 62
     7
370
    15
100
AcDbLine
 10
163.1562768345
 20
464.7312227572
 30
0.0
 11
143.5553368012
 21
518.5843628989
 31
0.0
  0
LINE
  5
87
330
1F
100
AcDbEntity
  8
0
  6
Continuous
 62
     7
370
    15
100
AcDbLine
 10
163.3320407863
 20
462.3028050784
 30
0.0
 11
163.1746858743
 21
461.7496115684
 31
0.0
  0
LINE
  5
88
330
1F
100
AcDbEntity
  8
0
  6
Continuous
 62
     7
370
    15
100
AcDbLine
 10
173.0368290824
 20
465.5212202365
 30
0.0
 11
172.7501480127
 21
465.7349541529
 31
0.0
  0
ARC
  5
89
330
1F
100
AcDbEntity
  8
0
  6
Continuous
 62
     7
370
    15
100
AcDbCircle
 10
177.0709113551
 20
439.3385423729
 30
0.0
 40
25.00000000000002
100
AcDbArc
 50
204.3002153108
 51
25.4024108265
  0
LINE
  5
8A
330
1F
100
AcDbEntity
  8
0
  6
Continuous
 62
     7
370
    15
100
AcDbLine
 10
203.7709112534
 20
364.3385423729
 30
0.0
 11
150.3709113551
 21
364.3385423729
 31
0.0
  0
LINE
  5
8B
330
1F
100
AcDbEntity
  8
0
  6
Continuous
 62
     7
370
    15
100
AcDbLine
 10
203.8709112421
 20
506.6385423729
 30
0.0
 11
157.1616065171
 21
506.6385423729
 31
0.0
  0
LINE
  5
8C
330
1F
100
AcDbEntity
  8
0
  6
Continuous
 62
     7
370
    15
100
AcDbLine
 10
150.0709113551
 20
478.3385423729
 30
0.0
 11
158.2036175263
 21
478.3385423729
 31
0.0
  0
LINE
  5
8D
330
1F
100
AcDbEntity
  8
0
  6
Continuous
 62
     7
370
    15
100
AcDbLine
 10
167.4619641468
 20
478.3385423729
 30
0.0
 11
204.0709113551
 21
478.3385423729
 31
0.0
  0
LINE
  5
8E
330
1F
100
AcDbEntity
  8
0
  6
Continuous
 62
     7
370
    15
100
AcDbLine
 10
157.2707975874
 20
506.3385423729
 30
0.0
 11
204.0709113551
 21
506.3385423729
 31
0.0
  0
LINE
  5
8F
330
1F
100
AcDbEntity
  8
0
  6
Continuous
 62
     7
370
    15
100
AcDbLine
 10
164.6209113551
 20
511.8389787163
 30
0.0
 11
189.5209113551
 21
511.8389787163
 31
0.0
  0
LINE
  5
90
330
1F
100
AcDbEntity
  8
0
  6
Continuous
 62
     7
370
    15
100
AcDbLine
 10
164.6209113551
 20
512.0385423729
 30
0.0
 11
189.5209113551
 21
512.0385423729
 31
0.0
  0
LINE
  5
91
330
1F
100
AcDbEntity
  8
0
  6
Continuous
 62
     8
370
     0
100
AcDbLine
 10
169.313226354
 20
604.935489615
 30
0.0
 11
170.697226495
 21
604.7094437302
 31
0.0
  0
ARC
  5
92
330
1F
100
AcDbEntity
  8
0
  6
Continuous
 62
     8
370
     0
100
AcDbCircle
 10
171.236628067
 20
593.5049716943
 30
0.0
 40
11.59121279617278
100
AcDbArc
 50
99.5516240792
 51
109.3652598582
  0
LINE
  5
93
330
1F
100
AcDbEntity
  8
0
  6
Continuous
 62
     8
370
     0
100
AcDbLine
 10
169.1196640347
 20
604.3026788841
 30
0.0
 11
167.3931074737
 21
604.440398688
 31
0.0
  0
ARC
  5
94
330
1F
100
AcDbEntity
  8
0
  6
Continuous
 62
     8
370
     0
100
AcDbCircle
 10
172.2774861184
 20
595.3181731381
 30
0.0
 40
9.523296898252436
100
AcDbArc
 50
99.5516240792
 51
109.3652598582
  0
LINE
  5
95
330
1F
100
AcDbEntity
  8
0
  6
Continuous
 62
     8
370
     0
100
AcDbLine
 10
184.367542319
 20
605.0155508084
 30
0.0
 11
183.0657959498
 21
604.775221706
 31
0.0
  0
ARC
  5
96
330
1F
100
AcDbEntity
  8
0
  6
Continuous
 62
     8
370
     0
100
AcDbCircle
 10
178.8357796165
 20
570.0701445557
 30
0.0
 40
35.38052878013472
100
AcDbArc
 50
81.0048718638
 51
85.6547532679
  0
LINE
  5
97
330
1F
100
AcDbEntity
  8
0
  6
Continuous
 62
     8
370
     0
100
AcDbLine
 10
180.7233305603
 20
605.0491625524
 30
0.0
 11
181.516427302
 21
605.3489759528
 31
0.0
  0
ARC
  5
98
330
1F
100
AcDbEntity
  8
0
  6
Continuous
 62
     8
370
     0
100
AcDbCircle
 10
178.5209204901
 20
576.0642071791
 30
0.0
 40
29.06850956116277
100
AcDbArc
 50
81.0048718638
 51
85.6547532679
  0
LINE
  5
99
330
1F
100
AcDbEntity
  8
0
  6
Continuous
 62
     8
370
     0
100
AcDbLine
 10
184.8285963562
 20
602.401396275
 30
0.0
 11
183.4445962151
 21
602.6274421598
 31
0.0
  0
ARC
  5
9A
330
1F
100
AcDbEntity
  8
0
  6
Continuous
 62
     8
370
     0
100
AcDbCircle
 10
182.9051946431
 20
613.8319141958
 30
0.0
 40
11.59121279620225
100
AcDbArc
 50
279.5516240792
 51
289.3652598581
  0
LINE
  5
9B
330
1F
100
AcDbEntity
  8
0
  6
Continuous
 62
     8
370
     0
100
AcDbLine
 10
185.0221586754
 20
603.0342070059
 30
0.0
 11
186.7487152364
 21
602.896487202
 31
0.0
  0
ARC
  5
9C
330
1F
100
AcDbEntity
  8
0
  6
Continuous
 62
     8
370
     0
100
AcDbCircle
 10
181.8643365917
 20
612.018712752
 30
0.0
 40
9.523296898294905
100
AcDbArc
 50
279.5516240792
 51
289.3652598581
  0
LINE
  5
9D
330
1F
100
AcDbEntity
  8
0
  6
Continuous
 62
     8
370
     0
100
AcDbLine
 10
168.8658800682
 20
603.1405992811
 30
0.0
 11
167.0842161316
 21
603.0259817998
 31
0.0
  0
ARC
  5
9E
330
1F
100
AcDbEntity
  8
0
  6
Continuous
 62
     8
370
     0
100
AcDbCircle
 10
169.1103633769
 20
603.9598731114
 30
0.0
 40
0.8549746763752812
100
AcDbArc
 50
203.2825501448
 51
253.3841262037
  0
LINE
  5
9F
330
1F
100
AcDbEntity
  8
0
  6
Continuous
 62
     8
370
     0
100
AcDbLine
 10
166.4259024501
 20
603.6118311323
 30
0.0
 11
168.32501202
 21
603.6219308923
 31
0.0
  0
ARC
  5
A0
330
1F
100
AcDbEntity
  8
0
  6
Continuous
 62
     8
370
     0
100
AcDbCircle
 10
167.3817872445
 20
604.0231550904
 30
0.0
 40
1.040626320388781
100
AcDbArc
 50
203.2825501448
 51
253.3841262037
  0
LINE
  5
A1
330
1F
100
AcDbEntity
  8
0
  6
Continuous
 62
     8
370
     0
100
AcDbLine
 10
169.7742803911
 20
602.3213350817
 30
0.0
 11
171.0760267603
 21
602.561664184
 31
0.0
  0
ARC
  5
A2
330
1F
100
AcDbEntity
  8
0
  6
Continuous
 62
     8
370
     0
100
AcDbCircle
 10
175.3060430936
 20
637.2667413343
 30
0.0
 40
35.38052878007329
100
AcDbArc
 50
261.0048718638
 51
265.654753268
  0
LINE
  5
A3
330
1F
100
AcDbEntity
  8
0
  6
Continuous
 62
     8
370
     0
100
AcDbLine
 10
173.4184921498
 20
602.2877233377
 30
0.0
 11
172.6253954081
 21
601.9879099372
 31
0.0
  0
ARC
  5
A4
330
1F
100
AcDbEntity
  8
0
  6
Continuous
 62
     8
370
     0
100
AcDbCircle
 10
175.6209022201
 20
631.2726787109
 30
0.0
 40
29.06850956114918
100
AcDbArc
 50
261.0048718638
 51
265.654753268
  0
LINE
  5
A5
330
1F
100
AcDbEntity
  8
0
  6
Continuous
 62
     8
370
     0
100
AcDbLine
 10
177.3969257913
 20
601.8199565474
 30
0.0
 11
177.3387635914
 21
602.1497334634
 31
0.0
  0
ARC
  5
A6
330
1F
100
AcDbEntity
  8
0
  6
Continuous
 62
     8
370
     0
100
AcDbCircle
 10
177.1325064727
 20
659.4658848807
 30
0.0
 40
57.64653476989597
100
AcDbArc
 50
270.2628113582
 51
273.6184591269
  0
LINE
  5
A7
330
1F
100
AcDbEntity
  8
0
  6
Continuous
 62
     8
370
     0
100
AcDbLine
 10
180.1106418664
 20
602.2436542143
 30
0.0
 11
180.7706976346
 21
601.9342715185
 31
0.0
  0
ARC
  5
A8
330
1F
100
AcDbEntity
  8
0
  6
Continuous
 62
     8
370
     0
100
AcDbCircle
 10
177.1215176724
 20
649.5114116716
 30
0.0
 40
47.36217645428079
100
AcDbArc
 50
270.2628113582
 51
273.6184591269
  0
LINE
  5
A9
330
1F
100
AcDbEntity
  8
0
  6
Continuous
 62
     8
370
     0
100
AcDbLine
 10
187.7159202601
 20
603.7250547578
 30
0.0
 11
185.8168106902
 21
603.7149549977
 31
0.0
  0
ARC
  5
AA
330
1F
100
AcDbEntity
  8
0
  6
Continuous
 62
     8
370
     0
100
AcDbCircle
 10
186.7600354657
 20
603.3137307996
 30
0.0
 40
1.040626320387375
100
AcDbArc
 50
23.2825501448
 51
73.3841262037
  0
LINE
  5
AB
330
1F
100
AcDbEntity
  8
0
  6
Continuous
 62
     8
370
     0
100
AcDbLine
 10
185.2759426419
 20
604.1962866089
 30
0.0
 11
187.0576065785
 21
604.3109040902
 31
0.0
  0
ARC
  5
AC
330
1F
100
AcDbEntity
  8
0
  6
Continuous
 62
     8
370
     0
100
AcDbCircle
 10
185.0314593333
 20
603.3770127786
 30
0.0
 40
0.8549746763752739
100
AcDbArc
 50
23.2825501448
 51
73.3841262037
  0
LINE
  5
AD
330
1F
100
AcDbEntity
  8
0
  6
Continuous
 62
     8
370
     0
100
AcDbLine
 10
176.7448969189
 20
605.5169293426
 30
0.0
 11
176.8030591188
 21
605.1871524266
 31
0.0
  0
ARC
  5
AE
330
1F
100
AcDbEntity
  8
0
  6
Continuous
 62
     8
370
     0
100
AcDbCircle
 10
177.0093162374
 20
547.8710010094
 30
0.0
 40
57.64653476985766
100
AcDbArc
 50
90.2628113582
 51
93.6184591269
  0
LINE
  5
AF
330
1F
100
AcDbEntity
  8
0
  6
Continuous
 62
     8
370
     0
100
AcDbLine
 10
174.0311808437
 20
605.0932316757
 30
0.0
 11
173.3711250756
 21
605.4026143715
 31
0.0
  0
ARC
  5
B0
330
1F
100
AcDbEntity
  8
0
  6
Continuous
 62
     8
370
     0
100
AcDbCircle
 10
177.0203050378
 20
557.8254742185
 30
0.0
 40
47.36217645419324
100
AcDbArc
 50
90.2628113582
 51
93.6184591269
  0
SPLINE
  5
B1
330
1F
100
AcDbEntity
  8
0
  6
Continuous
 62
     8
370
     0
100
AcDbSpline
210
0.0
220
0.0
230
1.0
 70
     8
 71
     3
 72
    14
 73
    10
 74
     0
 42
0.00000001
 43
0.00000001
 12
1.0
 22
0.0
 32
0.0
 13
1.0
 23
0.0
 33
0.0
 40
0.0
 40
0.0
 40
0.0
 40
0.0
 40
0.2500000000000011
 40
0.2500000000000011
 40
0.3750000000000017
 40
0.3750000000000017
 40
0.5000000000000023
 40
0.5000000000000023
 40
1.0
 40
1.0
 40
1.0
 40
1.0
 10
175.8418190009006
 20
462.9038905666988
 30
0.0
 10
175.4468408008599
 20
462.8863526093176
 30
0.0
 10
175.0558331100206
 20
462.9032255030392
 30
0.0
 10
174.4750558020522
 20
462.9782298680861
 30
0.0
 10
174.2824246203014
 20
463.0115618967302
 30
0.0
 10
173.899113265741
 20
463.0951335618122
 30
0.0
 10
173.7076421435339
 20
463.1456772228154
 30
0.0
 10
172.7726649875273
 20
463.4362956917337
 30
0.0
 10
172.0824357527115
 20
463.7891464482141
 30
0.0
 10
171.4557723825721
 20
464.2595469569318
 30
0.0
  0
ARC
  5
B2
330
1F
100
AcDbEntity
  8
0
  6
Continuous
 62
     8
370
     0
100
AcDbCircle
 10
176.8687991955
 20
439.7749263473
 30
0.0
 40
23.1517531556803
100
AcDbArc
 50
127.4576031237
 51
92.5423968763
  0
SPLINE
  5
B3
330
1F
100
AcDbEntity
  8
0
  6
Continuous
 62
     8
370
     0
100
AcDbSpline
210
0.0
220
0.0
230
1.0
 70
     8
 71
     3
 72
    16
 73
    12
 74
     0
 42
0.00000001
 43
0.00000001
 12
1.0
 22
0.0
 32
0.0
 13
1.0
 23
0.0
 33
0.0
 40
0.0
 40
0.0
 40
0.0
 40
0.0
 40
0.2499999999999983
 40
0.2499999999999983
 40
0.4999999999999967
 40
0.4999999999999967
 40
0.6249999999999961
 40
0.6249999999999961
 40
0.7499999999999957
 40
0.7499999999999957
 40
1.0
 40
1.0
 40
1.0
 40
1.0
 10
165.2770075503081
 20
462.0106604734568
 30
0.0
 10
165.1882776485583
 20
461.6295631684441
 30
0.0
 10
165.0668052298216
 20
461.2574390101724
 30
0.0
 10
164.7648739018715
 20
460.5443123392341
 30
0.0
 10
164.5839914917484
 20
460.2012410304429
 30
0.0
 10
164.2663253820201
 20
459.7075360397327
 30
0.0
 10
164.1522414907579
 20
459.5460320933401
 30
0.0
 10
163.9125446738484
 20
459.2361251997165
 30
0.0
 10
163.7865318284009
 20
459.0870047627866
 30
0.0
 10
163.3902679276297
 20
458.6568890651537
 30
0.0
 10
163.1019313943724
 20
458.393007066526
 30
0.0
 10
162.7885000417108
 20
458.1528710071711
 30
0.0
  0
ARC
  5
B4
330
1F
100
AcDbEntity
  8
0
  6
Continuous
 62
     8
370
     0
100
AcDbCircle
 10
158.927660041
 20
463.1921321123
 30
0.0
 40
6.700000000000006
100
AcDbArc
 50
350.2369951188
 51
20.0
  0
ARC
  5
B5
330
1F
100
AcDbEntity
  8
0
  6
Continuous
 62
     8
370
     0
100
AcDbCircle
 10
175.5602194289
 20
469.2458886491
 30
0.0
 40
6.700000000000035
100
AcDbArc
 50
200.0
 51
229.7630048812
  0
LINE
  5
B6
330
1F
100
AcDbEntity
  8
0
  6
Continuous
 62
     8
370
     0
100
AcDbLine
 10
142.8351963988
 20
526.9953020736
 30
0.0
 11
145.6226605669
 21
519.3368072142
 31
0.0
  0
LINE
  5
B7
330
1F
100
AcDbEntity
  8
0
  6
Continuous
 62
     8
370
     0
100
AcDbLine
 10
149.6633388363
 20
520.8074938305
 30
0.0
 11
146.8758746682
 21
528.4659886899
 31
0.0
  0
LINE
  5
B8
330
1F
100
AcDbEntity
  8
0
  6
Continuous
 62
     8
370
     0
100
AcDbLine
 10
169.2642788696
 20
466.9543536888
 30
0.0
 11
149.6633388363
 21
520.8074938305
 31
0.0
  0
LINE
  5
B9
330
1F
100
AcDbEntity
  8
0
  6
Continuous
 62
     8
370
     0
100
AcDbLine
 10
145.6226605669
 20
519.3368072142
 30
0.0
 11
165.2236006003
 21
465.4836670725
 31
0.0
  0
ARC
  5
BA
330
1F
100
AcDbEntity
  8
0
  6
Continuous
 62
     8
370
     0
100
AcDbCircle
 10
177.0709113551
 20
439.3385423729
 30
0.0
 40
24.70000000000002
100
AcDbArc
 50
243.0115308905
 51
346.6910952471
  0
SPLINE
  5
BB
330
1F
100
AcDbEntity
  8
0
  6
Continuous
 62
     8
370
     0
100
AcDbSpline
210
0.0
220
0.0
230
1.0
 70
     8
 71
     3
 72
    19
 73
    15
 74
     0
 42
0.00000001
 43
0.00000001
 12
1.0
 22
0.0
 32
0.0
 13
1.0
 23
0.0
 33
0.0
 40
0.0
 40
0.0
 40
0.0
 40
0.0
 40
0.0529196310312664
 40
0.1066454972464439
 40
0.1937687215825284
 40
0.2824390879291624
 40
0.3748745722056163
 40
0.4678572100936424
 40
0.5622072302503242
 40
0.6569829473128463
 40
0.7534166234727082
 40
0.8504390896315578
 40
0.949745896091395
 40
1.0
 40
1.0
 40
1.0
 40
1.0
 10
151.6591466491857
 20
439.3385423728814
 30
0.0
 10
151.6664408902067
 20
439.9186325394427
 30
0.0
 10
151.6811405006455
 20
441.0876505967333
 30
0.0
 10
151.8224028920538
 20
443.1776923391935
 30
0.0
 10
152.1135140110509
 20
445.5683387340723
 30
0.0
 10
152.6256577211206
 20
448.2198350771025
 30
0.0
 10
153.3131419593769
 20
450.805095704496
 30
0.0
 10
154.1838745857193
 20
453.3355356865885
 30
0.0
 10
155.2360837170619
 20
455.7899228190946
 30
0.0
 10
156.4873792187515
 20
458.1773010109702
 30
0.0
 10
157.9461260737631
 20
460.4865961266268
 30
0.0
 10
159.6597584549638
 20
462.7014589874041
 30
0.0
 10
161.2591420786342
 20
464.4794317729285
 30
0.0
 10
162.4021524092003
 20
465.4289177582299
 30
0.0
 10
162.7862163987774
 20
465.7479554482757
 30
0.0
  0
LWPOLYLINE
  5
BC
330
1F
100
AcDbEntity
  8
0
  6
Continuous
 62
     8
370
     0
100
AcDbPolyline
 90
       67
 70
   128
 43
0.0
 10
170.4210991158
 20
470.2083858645
 10
172.8826624568
 20
470.9009244433
 10
175.769935859
 20
471.2965787073
 10
177.4198663416
 20
471.3355251345
 10
179.0019412556
 20
471.2460178955
 10
180.5806576592
 20
471.0318606593
 10
182.1708766116
 20
470.6874757468
 10
183.7277982855
 20
470.2210545931
 10
185.2057883
 20
469.6545797318
 10
186.6308277824
 20
468.987768429
 10
189.3307670763
 20
467.3681295228
 10
191.1652650879
 20
465.9654589127
 10
192.8522844695
 20
464.4198147023
 10
194.4133546711
 20
462.728158407
 10
195.82644153
 20
460.9298955412
 10
197.4776548397
 20
458.4080107966
 10
198.8916543795
 20
455.7385733619
 10
200.0907744722
 20
452.8920386134
 10
201.0611082546
 20
449.8914233432
 10
201.6529883326
 20
447.4487270095
 10
202.1001552669
 20
444.8699359142
 10
202.3291632654
 20
442.8506107811
 10
202.4584306129
 20
440.7360656664
 10
202.4781968134
 20
438.7377409425
 10
202.3558754515
 20
436.1457859149
 10
202.0668282849
 20
433.5731256119
 10
201.7363792998
 20
431.6403086601
 10
201.3182971627
 20
429.7630313832
 10
200.2171703121
 20
426.1308106661
 10
199.0816686084
 20
423.3462298637
 10
197.7091087534
 20
420.6682414987
 10
196.0583465559
 20
418.0710331982
 10
194.1187020801
 20
415.6079155016
 10
192.7592251264
 20
414.1648632602
 10
191.2710764885
 20
412.800924107
 10
189.6259148818
 20
411.5169004448
 10
187.8323380188
 20
410.3495988119
 10
186.3837244127
 20
409.5648677667
 10
184.8497737418
 20
408.8746927682
 10
183.2063770948
 20
408.2852538331
 10
181.4823398023
 20
407.8244105088
 10
179.9399605264
 20
407.543147711
 10
178.3569339557
 20
407.3795463394
 10
176.7137708314
 20
407.341702831
 10
175.0571511744
 20
407.4391774217
 10
174.5421681
 20
407.4973747219
 10
173.0095929605
 20
407.7498668962
 10
171.4994990963
 20
408.117110406
 10
169.9997147987
 20
408.6024004762
 10
168.546028016
 20
409.1929132842
 10
167.0778803195
 20
409.9166533573
 10
165.6756636245
 20
410.7362731288
 10
163.0555063997
 20
412.6456258156
 10
161.2123492169
 20
414.3345936042
 10
159.5436633943
 20
416.1683990676
 10
158.0260483614
 20
418.1526147846
 10
156.6777200838
 20
420.2460981898
 10
155.4464219244
 20
422.5313584242
 10
154.3854884594
 20
424.9185461693
 10
153.483216733
 20
427.4334832326
 10
152.7485041158
 20
430.0696507138
 10
152.2755426472
 20
432.3332257187
 10
151.9254087406
 20
434.7183334105
 10
151.7472978938
 20
436.6754586022
 10
151.6639776021
 20
438.7146016594
 10
151.6591466492
 20
439.3385423729
 10
151.6591466492
 20
439.3385423729
  0
LINE
  5
BD
330
1F
100
AcDbEntity
  8
0
  6
Continuous
 62
     8
370
     0
100
AcDbLine
 10
155.31407336
 20
511.7145980037
 30
0.0
 11
203.7735293157
 21
511.7145980037
 31
0.0
  0
SPLINE
  5
BE
330
1F
100
AcDbEntity
  8
0
  6
Continuous
 62
     7
370
    15
100
AcDbSpline
210
0.0
220
0.0
230
1.0
 70
     8
 71
     3
 72
    24
 73
    20
 74
     0
 42
0.00000001
 43
0.00000001
 12
1.0
 22
0.0
 32
0.0
 13
1.0
 23
0.0
 33
0.0
 40
0.0
 40
0.0
 40
0.0
 40
0.0
 40
0.0387662754008242
 40
0.1009872137852857
 40
0.1632253883324625
 40
0.2255466050048488
 40
0.2880507038758008
 40
0.3507940758460372
 40
0.413788962392811
 40
0.4770135529554529
 40
0.5404243586527204
 40
0.6039612040299216
 40
0.6675363560125473
 40
0.7310668179228688
 40
0.7944615887802633
 40
0.8576364768136059
 40
0.9205368703664597
 40
0.9831590756937473
 40
1.0
 40
1.0
 40
1.0
 40
1.0
 10
405.8029456951556
 20
520.8074938305318
 30
0.0
 10
405.7907876392717
 20
521.1256734375473
 30
0.0
 10
405.7591155692553
 20
521.9545400661711
 30
0.0
 10
405.438287823821
 20
523.2693341044135
 30
0.0
 10
404.7896099442628
 20
524.6753548350205
 30
0.0
 10
403.8627145856972
 20
525.9315180245762
 30
0.0
 10
402.6985600741987
 20
526.9908346080038
 30
0.0
 10
401.3384901811086
 20
527.8135233845207
 30
0.0
 10
399.8334141121472
 20
528.3673843011989
 30
0.0
 10
398.2399943680298
 20
528.6294555757019
 30
0.0
 10
396.6195436842441
 20
528.5873881464165
 30
0.0
 10
395.0356804322718
 20
528.2405257457701
 30
0.0
 10
393.55169425869
 20
527.600571427062
 30
0.0
 10
392.2276178582972
 20
526.6916362803527
 30
0.0
 10
391.117644562379
 20
525.5496581330244
 30
0.0
 10
390.2658380946981
 20
524.2208591268275
 30
0.0
 10
389.7091392874891
 20
522.7603339703014
 30
0.0
 10
389.5166856429532
 20
521.5975295988163
 30
0.0
 10
389.5053484332686
 20
520.945649308195
 30
0.0
 10
389.5029456951556
 20
520.8074938305323
 30
0.0
  0
LINE
  5
BF
330
1F
100
AcDbEntity
  8
0
  6
Continuous
 62
     7
370
    15
100
AcDbLine
 10
279.6650721327
 20
478.0385423729
 30
0.0
 11
279.6650721327
 21
364.6385423729
 31
0.0
  0
LINE
  5
C0
330
1F
100
AcDbEntity
  8
0
  6
Continuous
 62
     7
370
    15
100
AcDbLine
 10
333.6650721327
 20
471.3272915919
 30
0.0
 11
333.6650721327
 21
478.0385423729
 31
0.0
  0
LINE
  5
C1
330
1F
100
AcDbEntity
  8
0
  6
Continuous
 62
     7
370
    15
100
AcDbLine
 10
333.6650721327
 20
364.6385423729
 30
0.0
 11
333.6650721327
 21
407.3499247228
 31
0.0
  0
SPLINE
  5
C2
330
1F
100
AcDbEntity
  8
0
  6
Continuous
 62
     7
370
    15
100
AcDbSpline
210
0.0
220
0.0
230
1.0
 70
     8
 71
     3
 72
    17
 73
    13
 74
     0
 42
0.00000001
 43
0.00000001
 12
1.0
 22
0.0
 32
0.0
 13
1.0
 23
0.0
 33
0.0
 40
0.0
 40
0.0
 40
0.0
 40
0.0
 40
0.0100370058359093
 40
0.1251100354230436
 40
0.2481581750495384
 40
0.3748519214350416
 40
0.5032331456601422
 40
0.6400872303383833
 40
0.7657126910682837
 40
0.8820635154042182
 40
0.9903533279701104
 40
1.0
 40
1.0
 40
1.0
 40
1.0
 10
333.6740597952304
 20
407.3520739774933
 30
0.0
 10
333.6710813894979
 20
407.3886042125627
 30
0.0
 10
333.6339559306925
 20
407.8439490712047
 30
0.0
 10
333.7836417842874
 20
408.7517975247903
 30
0.0
 10
334.1509650474516
 20
410.0332618500878
 30
0.0
 10
334.8106756236405
 20
411.2594119806615
 30
0.0
 10
335.7254061066736
 20
412.3707675553745
 30
0.0
 10
336.8500390933086
 20
413.2658759252411
 30
0.0
 10
338.0925139429121
 20
413.8981959067427
 30
0.0
 10
339.3281731591568
 20
414.2338756941564
 30
0.0
 10
340.1846583231535
 20
414.3626961938824
 30
0.0
 10
340.6143022216328
 20
414.3336808897732
 30
0.0
 10
340.6494451529528
 20
414.3313075688831
 30
0.0
  0
SPLINE
  5
C3
330
1F
100
AcDbEntity
  8
0
  6
Continuous
 62
     7
370
    15
100
AcDbSpline
210
0.0
220
0.0
230
1.0
 70
     8
 71
     3
 72
    16
 73
    12
 74
     0
 42
0.00000001
 43
0.00000001
 12
1.0
 22
0.0
 32
0.0
 13
1.0
 23
0.0
 33
0.0
 40
0.0
 40
0.0
 40
0.0
 40
0.0
 40
0.0754132721242145
 40
0.197807888618518
 40
0.3241211498630431
 40
0.4522974561824036
 40
0.5903519659718551
 40
0.7169542452370027
 40
0.834090730897783
 40
0.943098270894211
 40
1.0
 40
1.0
 40
1.0
 40
1.0
 10
340.6561512887931
 20
464.3628174000579
 30
0.0
 10
340.380147326528
 20
464.3630563462397
 30
0.0
 10
339.6561930478157
 20
464.3636830985125
 30
0.0
 10
338.4927879086341
 20
464.6432104398411
 30
0.0
 10
337.2221366897501
 20
465.1882513894503
 30
0.0
 10
336.0388584140541
 20
466.0172142707668
 30
0.0
 10
335.0514355438324
 20
467.0728785127298
 30
0.0
 10
334.3219709862786
 20
468.2737239098308
 30
0.0
 10
333.8814812361346
 20
469.4893609294932
 30
0.0
 10
333.6761860622594
 20
470.512069356163
 30
0.0
 10
333.6838852311471
 20
471.1188789220152
 30
0.0
 10
333.6865258070761
 20
471.326995766371
 30
0.0
  0
ARC
  5
C4
330
1F
100
AcDbEntity
  8
0
  6
Continuous
 62
     7
370
    15
100
AcDbCircle
 10
333.3650721327
 20
478.0385423729
 30
0.0
 40
0.3000000000000114
100
AcDbArc
 50
0.0
 51
90.0
  0
ARC
  5
C5
330
1F
100
AcDbEntity
  8
0
  6
Continuous
 62
     7
370
    15
100
AcDbCircle
 10
279.9650721327
 20
478.0385423729
 30
0.0
 40
0.2999999999999545
100
AcDbArc
 50
90.0
 51
180.0
  0
ARC
  5
C6
330
1F
100
AcDbEntity
  8
0
  6
Continuous
 62
     7
370
    15
100
AcDbCircle
 10
279.9650721327
 20
364.6385423729
 30
0.0
 40
0.3000000000000114
100
AcDbArc
 50
180.0
 51
270.0
  0
ARC
  5
C7
330
1F
100
AcDbEntity
  8
0
  6
Continuous
 62
     7
370
    15
100
AcDbCircle
 10
333.3650721327
 20
364.6385423729
 30
0.0
 40
0.3000000000000114
100
AcDbArc
 50
270.0
 51
0.0
  0
LINE
  5
C8
330
1F
100
AcDbEntity
  8
0
  6
Continuous
 62
     7
370
    15
100
AcDbLine
 10
279.6650721327
 20
506.3385423729
 30
0.0
 11
279.6650721327
 21
478.3385423729
 31
0.0
  0
LINE
  5
C9
330
1F
100
AcDbEntity
  8
0
  6
Continuous
 62
     7
370
    15
100
AcDbLine
 10
333.6650721327
 20
478.3385423729
 30
0.0
 11
333.6650721327
 21
506.3385423729
 31
0.0
  0
ARC
  5
CA
330
1F
100
AcDbEntity
  8
0
  6
Continuous
 62
     7
370
    15
100
AcDbCircle
 10
279.8650721327
 20
506.8385423729
 30
0.0
 40
0.2000000000001023
100
AcDbArc
 50
180.0
 51
270.0
  0
ARC
  5
CB
330
1F
100
AcDbEntity
  8
0
  6
Continuous
 62
     7
370
    15
100
AcDbCircle
 10
333.4650721327
 20
506.8385423729
 30
0.0
 40
0.2000000000001023
100
AcDbArc
 50
270.0
 51
0.0
  0
LINE
  5
CC
330
1F
100
AcDbEntity
  8
0
  6
Continuous
 62
     7
370
    15
100
AcDbLine
 10
279.6650721327
 20
511.4146094267
 30
0.0
 11
279.6650721327
 21
506.8385423729
 31
0.0
  0
LINE
  5
CD
330
1F
100
AcDbEntity
  8
0
  6
Continuous
 62
     7
370
    15
100
AcDbLine
 10
333.6650721327
 20
506.8385423729
 30
0.0
 11
333.6650721327
 21
511.4146094267
 31
0.0
  0
ARC
  5
CE
330
1F
100
AcDbEntity
  8
0
  6
Continuous
 62
     7
370
    15
100
AcDbCircle
 10
333.3650721327
 20
511.4146094267
 30
0.0
 40
0.3000000000000114
100
AcDbArc
 50
0.0
 51
89.4999999998
  0
ARC
  5
CF
330
1F
100
AcDbEntity
  8
0
  6
Continuous
 62
     7
370
    15
100
AcDbCircle
 10
279.9650721327
 20
511.4146094267
 30
0.0
 40
0.3000000000000039
100
AcDbArc
 50
90.5000000002
 51
180.0
  0
LINE
  5
D0
330
1F
100
AcDbEntity
  8
0
  6
Continuous
 62
     7
370
    15
100
AcDbLine
 10
333.3676900934
 20
511.7145980037
 30
0.0
 11
319.1150721327
 21
511.8389787163
 31
0.0
  0
LINE
  5
D1
330
1F
100
AcDbEntity
  8
0
  6
Continuous
 62
     7
370
    15
100
AcDbLine
 10
294.2150721327
 20
511.8389787163
 30
0.0
 11
279.9624541721
 21
511.7145980037
 31
0.0
  0
LINE
  5
D2
330
1F
100
AcDbEntity
  8
0
  6
Continuous
 62
     7
370
    15
100
AcDbLine
 10
280.1650721327
 20
506.6385423729
 30
0.0
 11
280.1650721327
 21
506.3385423729
 31
0.0
  0
LINE
  5
D3
330
1F
100
AcDbEntity
  8
0
  6
Continuous
 62
     7
370
    15
100
AcDbLine
 10
333.1650721327
 20
506.3385423729
 30
0.0
 11
333.1650721327
 21
506.6385423729
 31
0.0
  0
LINE
  5
D4
330
1F
100
AcDbEntity
  8
0
  6
Continuous
 62
     7
370
    15
100
AcDbLine
 10
379.9137351087
 20
414.7749263473
 30
0.0
 11
403.9429007553
 21
414.7749263473
 31
0.0
  0
LINE
  5
D5
330
1F
100
AcDbEntity
  8
0
  6
Continuous
 62
     7
370
    15
100
AcDbLine
 10
385.0103273462
 20
464.7749263473
 30
0.0
 11
383.5048044267
 21
464.7749263473
 31
0.0
  0
LINE
  5
D6
330
1F
100
AcDbEntity
  8
0
  6
Continuous
 62
     7
370
    15
100
AcDbLine
 10
376.8500396387
 20
464.7749263473
 30
0.0
 11
373.1774220327
 21
464.7749263473
 31
0.0
  0
ARC
  5
D7
330
1F
100
AcDbEntity
  8
0
  6
Continuous
 62
     7
370
    15
100
AcDbCircle
 10
403.9429007553
 20
416.9749263473
 30
0.0
 40
2.199999999999989
100
AcDbArc
 50
270.0
 51
350.7996163194
  0
ARC
  5
D8
330
1F
100
AcDbEntity
  8
0
  6
Continuous
 62
     7
370
    15
100
AcDbCircle
 10
366.3650721327
 20
414.6385423729
 30
0.0
 40
0.3000000000000114
100
AcDbArc
 50
270.0
 51
0.0
  0
ARC
  5
D9
330
1F
100
AcDbEntity
  8
0
  6
Continuous
 62
     7
370
    15
100
AcDbCircle
 10
366.3650721327
 20
464.0385423729
 30
0.0
 40
0.2999999999999545
100
AcDbArc
 50
0.0
 51
90.0
  0
LINE
  5
DA
330
1F
100
AcDbEntity
  8
0
  6
Continuous
 62
     7
370
    15
100
AcDbLine
 10
340.6504154079
 20
414.3385423729
 30
0.0
 11
366.3650721327
 21
414.3385423729
 31
0.0
  0
LINE
  5
DB
330
1F
100
AcDbEntity
  8
0
  6
Continuous
 62
     7
370
    15
100
AcDbLine
 10
366.3650721327
 20
464.3385423729
 30
0.0
 11
340.6556288105
 21
464.3385423729
 31
0.0
  0
LINE
  5
DC
330
1F
100
AcDbEntity
  8
0
  6
Continuous
 62
     7
370
    15
100
AcDbLine
 10
366.6650721327
 20
415.3385423729
 30
0.0
 11
368.1294462896
 21
415.3641031189
 31
0.0
  0
LINE
  5
DD
330
1F
100
AcDbEntity
  8
0
  6
Continuous
 62
     7
370
    15
100
AcDbLine
 10
368.1294462896
 20
463.3129816269
 30
0.0
 11
366.6650721327
 21
463.3385423729
 31
0.0
  0
ARC
  5
DE
330
1F
100
AcDbEntity
  8
0
  6
Continuous
 62
     7
370
    15
100
AcDbCircle
 10
364.1650721327
 20
439.3385423729
 30
0.0
 40
24.30000000000047
100
AcDbArc
 50
279.3893727434
 51
303.0635650941
  0
ARC
  5
DF
330
1F
100
AcDbEntity
  8
0
  6
Continuous
 62
     7
370
    15
100
AcDbCircle
 10
364.1650721327
 20
439.3385423729
 30
0.0
 40
24.30000000000046
100
AcDbArc
 50
68.2301871803
 51
80.6106272566
  0
ARC
  5
E0
330
1F
100
AcDbEntity
  8
0
  6
Continuous
 62
     7
370
    15
100
AcDbCircle
 10
263.1774220327
 20
439.7749263473
 30
0.0
 40
144.8
100
AcDbArc
 50
350.7996163194
 51
0.0
  0
ARC
  5
E1
330
1F
100
AcDbEntity
  8
0
  6
Continuous
 62
     7
370
    15
100
AcDbCircle
 10
263.1774220327
 20
439.7749263473
 30
0.0
 40
144.8
100
AcDbArc
 50
0.0
 51
9.2003836806
  0
LINE
  5
E2
330
1F
100
AcDbEntity
  8
0
  6
Continuous
 62
     7
370
    15
100
AcDbLine
 10
384.1421677779
 20
463.7773698435
 30
0.0
 11
383.9255128918
 21
464.3317960964
 31
0.0
  0
LINE
  5
E3
330
1F
100
AcDbEntity
  8
0
  6
Continuous
 62
     7
370
    15
100
AcDbLine
 10
376.4293311736
 20
464.3317960964
 30
0.0
 11
376.2126762874
 21
463.7773698435
 31
0.0
  0
LINE
  5
E4
330
1F
100
AcDbEntity
  8
0
  6
Continuous
 62
     7
370
    15
100
AcDbLine
 10
384.1774220327
 20
463.2668038892
 30
0.0
 11
384.1774220327
 21
463.5961342842
 31
0.0
  0
LINE
  5
E5
330
1F
100
AcDbEntity
  8
0
  6
Continuous
 62
     7
370
    15
100
AcDbLine
 10
376.1774220327
 20
463.5961342842
 30
0.0
 11
376.1774220327
 21
463.2668087493
 31
0.0
  0
LINE
  5
E6
330
1F
100
AcDbEntity
  8
0
  6
Continuous
 62
     7
370
    15
100
AcDbLine
 10
294.2150721327
 20
512.0385423729
 30
0.0
 11
294.2150721327
 21
511.8389787163
 31
0.0
  0
LINE
  5
E7
330
1F
100
AcDbEntity
  8
0
  6
Continuous
 62
     7
370
    15
100
AcDbLine
 10
319.1150721327
 20
511.8389787163
 30
0.0
 11
319.1150721327
 21
512.0385423729
 31
0.0
  0
ARC
  5
E8
330
1F
100
AcDbEntity
  8
0
  6
Continuous
 62
     7
370
    15
100
AcDbCircle
 10
411.6650721327
 20
622.8385423729
 30
0.0
 40
93.50000000000006
100
AcDbArc
 50
10.0
 51
180.0
  0
ARC
  5
E9
330
1F
100
AcDbEntity
  8
0
  6
Continuous
 62
     7
370
    15
100
AcDbCircle
 10
411.6650721327
 20
622.8385423729
 30
0.0
 40
116.5000000000001
100
AcDbArc
 50
10.0
 51
180.0
  0
LINE
  5
EA
330
1F
100
AcDbEntity
  8
0
  6
Continuous
 62
     7
370
    15
100
AcDbLine
 10
532.9903612924
 20
605.6653969882
 30
0.0
 11
526.3951753587
 21
643.0685550711
 31
0.0
  0
LINE
  5
EB
330
1F
100
AcDbEntity
  8
0
  6
Continuous
 62
     7
370
    15
100
AcDbLine
 10
503.7445970394
 20
639.0746469847
 30
0.0
 11
510.3397829731
 21
601.6714889018
 31
0.0
  0
LINE
  5
EC
330
1F
100
AcDbEntity
  8
0
  6
Continuous
 62
     7
370
    15
100
AcDbLine
 10
318.1650721327
 20
512.0385423729
 30
0.0
 11
318.1650721327
 21
622.8385423729
 31
0.0
  0
LINE
  5
ED
330
1F
100
AcDbEntity
  8
0
  6
Continuous
 62
     7
370
    15
100
AcDbLine
 10
295.1650721327
 20
622.8385423729
 30
0.0
 11
295.1650721327
 21
512.0385423729
 31
0.0
  0
LWPOLYLINE
  5
EE
330
1F
100
AcDbEntity
  8
0
  6
Continuous
 62
     7
370
    15
100
AcDbPolyline
 90
        3
 70
   128
 43
0.0
 10
389.5029456952
 20
519.3368072142
 10
389.6810427492
 20
520.9290978296
 10
389.7891380239
 20
521.348502114
  0
LINE
  5
EF
330
1F
100
AcDbEntity
  8
0
  6
Continuous
 62
     7
370
    15
100
AcDbLine
 10
389.5029456952
 20
519.3368072142
 30
0.0
 11
389.5029456952
 21
520.8074938305
 31
0.0
  0
LINE
  5
F0
330
1F
100
AcDbEntity
  8
0
  6
Continuous
 62
     7
370
    15
100
AcDbLine
 10
405.8029456952
 20
519.3368072142
 30
0.0
 11
405.8029456952
 21
520.8074938305
 31
0.0
  0
LINE
  5
F1
330
1F
100
AcDbEntity
  8
0
  6
Continuous
 62
     7
370
    15
100
AcDbLine
 10
389.5029456952
 20
466.686794799
 30
0.0
 11
389.5029456952
 21
519.3368072142
 31
0.0
  0
LINE
  5
F2
330
1F
100
AcDbEntity
  8
0
  6
Continuous
 62
     7
370
    15
100
AcDbLine
 10
405.8029456952
 20
519.3368072142
 30
0.0
 11
405.8029456952
 21
465.4836670725
 31
0.0
  0
LINE
  5
F3
330
1F
100
AcDbEntity
  8
0
  6
Continuous
 62
     7
370
    15
100
AcDbLine
 10
306.6650721327
 20
364.3385423729
 30
0.0
 11
279.9650721327
 21
364.3385423729
 31
0.0
  0
LINE
  5
F4
330
1F
100
AcDbEntity
  8
0
  6
Continuous
 62
     7
370
    15
100
AcDbLine
 10
333.3650721327
 20
364.3385423729
 30
0.0
 11
306.6650721327
 21
364.3385423729
 31
0.0
  0
LINE
  5
F5
330
1F
100
AcDbEntity
  8
0
  6
Continuous
 62
     7
370
    15
100
AcDbLine
 10
306.6650721327
 20
478.3385423729
 30
0.0
 11
333.6650721327
 21
478.3385423729
 31
0.0
  0
LINE
  5
F6
330
1F
100
AcDbEntity
  8
0
  6
Continuous
 62
     7
370
    15
100
AcDbLine
 10
279.6650721327
 20
478.3385423729
 30
0.0
 11
306.6650721327
 21
478.3385423729
 31
0.0
  0
LINE
  5
F7
330
1F
100
AcDbEntity
  8
0
  6
Continuous
 62
     7
370
    15
100
AcDbLine
 10
306.6650721327
 20
506.6385423729
 30
0.0
 11
279.8650721327
 21
506.6385423729
 31
0.0
  0
LINE
  5
F8
330
1F
100
AcDbEntity
  8
0
  6
Continuous
 62
     7
370
    15
100
AcDbLine
 10
333.4650721327
 20
506.6385423729
 30
0.0
 11
306.6650721327
 21
506.6385423729
 31
0.0
  0
LINE
  5
F9
330
1F
100
AcDbEntity
  8
0
  6
Continuous
 62
     7
370
    15
100
AcDbLine
 10
294.2150721327
 20
511.8389787163
 30
0.0
 11
319.1150721327
 21
511.8389787163
 31
0.0
  0
ELLIPSE
  5
FA
330
1F
100
AcDbEntity
  8
0
  6
Continuous
 62
     7
370
    15
100
AcDbEllipse
 10
373.1774220327
 20
439.7749263473
 30
0.0
 11
-6.795130988579158
 21
24.99228780441985
 31
0.0
210
0.0
220
0.0
230
1.0
 40
0.0913782192
 41
1.895022544132604
 42
3.116753020528658
  0
SPLINE
  5
FB
330
1F
100
AcDbEntity
  8
0
  6
Continuous
 62
     7
370
    15
100
AcDbSpline
210
0.0
220
0.0
230
1.0
 70
     8
 71
     3
 72
    22
 73
    18
 74
     0
 42
0.00000001
 43
0.00000001
 12
1.0
 22
0.0
 32
0.0
 13
1.0
 23
0.0
 33
0.0
 40
0.0
 40
0.0
 40
0.0
 40
0.0
 40
0.104861717396783
 40
0.1586762248609953
 40
0.2128879495186405
 40
0.3181191333684729
 40
0.3715214905583955
 40
0.425688100200944
 40
0.5317676879605527
 40
0.5856025146773344
 40
0.6402138533183173
 40
0.6931927934974299
 40
0.7469377372051405
 40
0.8010732826781123
 40
0.856013876777916
 40
0.9617263673476647
 40
1.0
 40
1.0
 40
1.0
 40
1.0
 10
380.1774220326626
 20
461.5965101297095
 30
0.0
 10
380.3975674971634
 20
461.6014930755193
 30
0.0
 10
380.7306905099696
 20
461.6090332441281
 30
0.0
 10
381.1676638177269
 20
461.6555966060805
 30
0.0
 10
381.5957894590048
 20
461.7181070913179
 30
0.0
 10
382.0051272577939
 20
461.8058565250589
 30
0.0
 10
382.3866539430169
 20
461.9144003169372
 30
0.0
 10
382.7488181334647
 20
462.0363038443945
 30
0.0
 10
383.0772543505867
 20
462.1757184574817
 30
0.0
 10
383.3639935610087
 20
462.3271971317009
 30
0.0
 10
383.5570767659181
 20
462.4460224702131
 30
0.0
 10
383.7260574046536
 20
462.5681861922216
 30
0.0
 10
383.8695801793606
 20
462.6920740265582
 30
0.0
 10
383.988536359165
 20
462.8183528081096
 30
0.0
 10
384.1076218899077
 20
462.984125530514
 30
0.0
 10
384.172770981332
 20
463.1358399963582
 30
0.0
 10
384.1741424768954
 20
463.2393162961629
 30
0.0
 10
384.1745070406201
 20
463.2668218209893
 30
0.0
  0
SPLINE
  5
FC
330
1F
100
AcDbEntity
  8
0
  6
Continuous
 62
     7
370
    15
100
AcDbSpline
210
0.0
220
0.0
230
1.0
 70
     8
 71
     3
 72
    22
 73
    18
 74
     0
 42
0.00000001
 43
0.00000001
 12
1.0
 22
0.0
 32
0.0
 13
1.0
 23
0.0
 33
0.0
 40
0.0
 40
0.0
 40
0.0
 40
0.0
 40
0.0990650028100085
 40
0.1523522202450425
 40
0.2064167259035456
 40
0.3113224418794306
 40
0.3645555398159576
 40
0.4185463892906461
 40
0.5245693418054713
 40
0.5783746416526919
 40
0.6329549972203538
 40
0.6859364378798167
 40
0.7392892615588343
 40
0.7938203735939988
 40
0.8487619643647478
 40
0.9239697968661663
 40
1.0
 40
1.0
 40
1.0
 40
1.0
 10
376.1803189057335
 20
463.2668815016513
 30
0.0
 10
376.1880221192126
 20
463.1945544120774
 30
0.0
 10
376.1998689030746
 20
463.0833224697378
 30
0.0
 10
376.288071738428
 20
462.9250668917662
 30
0.0
 10
376.4111717834935
 20
462.7610367382412
 30
0.0
 10
376.5883319651466
 20
462.5960468930527
 30
0.0
 10
376.8132953227064
 20
462.4357781082947
 30
0.0
 10
377.070874447402
 20
462.2793037817781
 30
0.0
 10
377.374104644962
 20
462.1317474769849
 30
0.0
 10
377.7158359394622
 20
461.9987890130041
 30
0.0
 10
377.9908160315941
 20
461.9074256718534
 30
0.0
 10
378.2806015474476
 20
461.8261622199568
 30
0.0
 10
378.5837665349291
 20
461.7557030278713
 30
0.0
 10
378.9023251643166
 20
461.6963093451238
 30
0.0
 10
379.2744074060013
 20
461.6441044218165
 30
0.0
 10
379.7006654924263
 20
461.6046475189059
 30
0.0
 10
380.0179281377133
 20
461.5992324078287
 30
0.0
 10
380.1774220326626
 20
461.5965101297095
 30
0.0
  0
LINE
  5
FD
330
1F
100
AcDbEntity
  8
0
  6
Continuous
 62
     7
370
    15
100
AcDbLine
 10
373.1774220327
 20
431.2244227642
 30
0.0
 11
373.1774220327
 21
464.7749263473
 31
0.0
  0
LINE
  5
FE
330
1F
100
AcDbEntity
  8
0
  6
Continuous
 62
     7
370
    15
100
AcDbLine
 10
366.6650721327
 20
439.3385423729
 30
0.0
 11
366.6650721327
 21
414.6385423729
 31
0.0
  0
LINE
  5
FF
330
1F
100
AcDbEntity
  8
0
  6
Continuous
 62
     7
370
    15
100
AcDbLine
 10
366.6650721327
 20
464.0385423729
 30
0.0
 11
366.6650721327
 21
439.3385423729
 31
0.0
  0
SPLINE
  5
100
330
1F
100
AcDbEntity
  8
0
  6
Continuous
 62
     7
370
    15
100
AcDbSpline
210
0.0
220
0.0
230
1.0
 70
     8
 71
     3
 72
     8
 73
     4
 74
     0
 42
0.00000001
 43
0.00000001
 12
1.0
 22
0.0
 32
0.0
 13
1.0
 23
0.0
 33
0.0
 40
0.0
 40
0.0
 40
0.0
 40
0.0
 40
1.0
 40
1.0
 40
1.0
 40
1.0
 10
405.8029456951544
 20
462.0559916788004
 30
0.0
 10
405.8029456951544
 20
462.0160442206288
 30
0.0
 10
405.7993560377269
 20
461.9932628364458
 30
0.0
 10
405.7896322193276
 20
462.0106604734568
 30
0.0
  0
SPLINE
  5
101
330
1F
100
AcDbEntity
  8
0
  6
Continuous
 62
     7
370
    15
100
AcDbSpline
210
0.0
220
0.0
230
1.0
 70
     8
 71
     3
 72
    22
 73
    18
 74
     0
 42
0.00000001
 43
0.00000001
 12
1.0
 22
0.0
 32
0.0
 13
1.0
 23
0.0
 33
0.0
 40
0.0
 40
0.0
 40
0.0
 40
0.0
 40
0.1250000000000011
 40
0.1250000000000011
 40
0.1875000000000017
 40
0.1875000000000017
 40
0.2500000000000023
 40
0.2500000000000023
 40
0.3750000000000011
 40
0.3750000000000011
 40
0.4999999999999999
 40
0.4999999999999999
 40
0.7500000000000001
 40
0.7500000000000001
 40
0.8750000000000001
 40
0.8750000000000001
 40
1.0
 40
1.0
 40
1.0
 40
1.0
 10
389.420481681759
 20
467.3580907497687
 30
0.0
 10
389.3501925748733
 20
467.0206571845104
 30
0.0
 10
389.2402469707001
 20
466.728836297023
 30
0.0
 10
389.0317340859258
 20
466.3443337539215
 30
0.0
 10
388.9556566805517
 20
466.2268141249474
 30
0.0
 10
388.7960516797544
 20
466.013241008549
 30
0.0
 10
388.7122609668421
 20
465.9166176064454
 30
0.0
 10
388.4513557493269
 20
465.651005389692
 30
0.0
 10
388.2634955318573
 20
465.5053279726534
 30
0.0
 10
387.8796321358293
 20
465.2639710274883
 30
0.0
 10
387.6829194027273
 20
465.1674137057958
 30
0.0
 10
387.0830409594572
 20
464.9281753790965
 30
0.0
 10
386.6688776548118
 20
464.834857035664
 30
0.0
 10
386.0466146295567
 20
464.758144011976
 30
0.0
 10
385.8385482905353
 20
464.7433774471689
 30
0.0
 10
385.4214252231404
 20
464.7327909490193
 30
0.0
 10
385.2112495165447
 20
464.7370564253649
 30
0.0
 10
385.0029456951544
 20
464.7503181285086
 30
0.0
  0
SPLINE
  5
102
330
1F
100
AcDbEntity
  8
0
  6
Continuous
 62
     7
370
    15
100
AcDbSpline
210
0.0
220
0.0
230
1.0
 70
     8
 71
     3
 72
     8
 73
     4
 74
     0
 42
0.00000001
 43
0.00000001
 12
1.0
 22
0.0
 32
0.0
 13
1.0
 23
0.0
 33
0.0
 40
0.0
 40
0.0
 40
0.0
 40
0.0
 40
1.0
 40
1.0
 40
1.0
 40
1.0
 10
389.5029456951545
 20
468.1574814153004
 30
0.0
 10
389.5029456951545
 20
467.8884105091704
 30
0.0
 10
389.4754435911937
 20
467.6219437687591
 30
0.0
 10
389.420481681759
 20
467.3580907497687
 30
0.0
  0
LINE
  5
103
330
1F
100
AcDbEntity
  8
0
  6
Continuous
 62
     7
370
    15
100
AcDbLine
 10
405.8029456952
 20
465.4836670725
 30
0.0
 11
405.8029456952
 21
462.0559916788
 31
0.0
  0
LWPOLYLINE
  5
104
330
1F
100
AcDbEntity
  8
0
  6
Continuous
 62
     7
370
    15
100
AcDbPolyline
 90
       20
 70
   128
 43
0.0
 10
380.1774220327
 20
465.5036920016
 10
379.0183481082
 20
465.4375400972
 10
377.9848778283
 20
465.2462529691
 10
377.1890037338
 20
464.9505595459
 10
376.7169711321
 20
464.582502798
 10
376.6199320799
 20
464.1819673852
 10
376.9084022642
 20
463.7923575343
 10
377.5511214645
 20
463.4558935182
 10
378.4784410826
 20
463.2090364336
 10
379.589871649
 20
463.0785370762
 10
380.7649724163
 20
463.0785370762
 10
381.8764029828
 20
463.2090364336
 10
382.8037226009
 20
463.4558935182
 10
383.4464418012
 20
463.7923575343
 10
383.7349119855
 20
464.1819673852
 10
383.6378729332
 20
464.582502798
 10
383.1658403315
 20
464.9505595459
 10
382.369966237
 20
465.2462529691
 10
381.3364959571
 20
465.4375400972
 10
380.1774220327
 20
465.5036920016
  0
LWPOLYLINE
  5
105
330
1F
100
AcDbEntity
  8
0
  6
Continuous
 62
     7
370
    15
100
AcDbPolyline
 90
        7
 70
   128
 43
0.0
 10
380.1774220327
 20
462.2280537109
 10
378.998401335
 20
462.2888336923
 10
377.9241418004
 20
462.4657730682
 10
377.0500961028
 20
462.7431499987
 10
376.4539270381
 20
463.0963183262
 10
376.1886068439
 20
463.493897495
 10
376.2126762874
 20
463.7773698435
  0
LWPOLYLINE
  5
106
330
1F
100
AcDbEntity
  8
0
  6
Continuous
 62
     7
370
    15
100
AcDbPolyline
 90
        7
 70
   128
 43
0.0
 10
384.1421677779
 20
463.7773698435
 10
384.1662372214
 20
463.493897495
 10
383.9009170272
 20
463.0963183262
 10
383.3047479625
 20
462.7431499987
 10
382.4307022649
 20
462.4657730682
 10
381.3564427303
 20
462.2888336923
 10
380.1774220327
 20
462.2280537109
  0
LINE
  5
107
330
1F
100
AcDbEntity
  8
0
  6
Continuous
 62
     7
370
    15
100
AcDbLine
 10
306.6650721327
 20
512.0385423729
 30
0.0
 11
319.1150721327
 21
512.0385423729
 31
0.0
  0
LINE
  5
108
330
1F
100
AcDbEntity
  8
0
  6
Continuous
 62
     7
370
    15
100
AcDbLine
 10
294.2150721327
 20
512.0385423729
 30
0.0
 11
306.6650721327
 21
512.0385423729
 31
0.0
  0
LINE
  5
109
330
1F
100
AcDbEntity
  8
0
  6
Continuous
 62
     7
370
    15
100
AcDbLine
 10
521.6650721327
 20
603.668442945
 30
0.0
 11
510.3397829731
 21
601.6714889018
 31
0.0
  0
LINE
  5
10A
330
1F
100
AcDbEntity
  8
0
  6
Continuous
 62
     7
370
    15
100
AcDbLine
 10
532.9903612924
 20
605.6653969882
 30
0.0
 11
521.6650721327
 21
603.668442945
 31
0.0
  0
SPLINE
  5
10B
330
1F
100
AcDbEntity
  8
0
  6
Continuous
 62
     7
370
    15
100
AcDbSpline
210
0.0
220
0.0
230
1.0
 70
     8
 71
     3
 72
     9
 73
     5
 74
     0
 42
0.00000001
 43
0.00000001
 12
1.0
 22
0.0
 32
0.0
 13
1.0
 23
0.0
 33
0.0
 40
0.0
 40
0.0
 40
0.0
 40
0.0
 40
0.0418451444111634
 40
1.0
 40
1.0
 40
1.0
 40
1.0
 10
385.0029456951544
 20
464.7503181285086
 30
0.0
 10
385.0076549655003
 20
464.7501946819664
 30
0.0
 10
385.1201953907326
 20
464.7472446015238
 30
0.0
 10
385.232655946976
 20
464.7488797207034
 30
0.0
 10
385.3404105750029
 20
464.7504464180849
 30
0.0
  0
ARC
  5
10C
330
1F
100
AcDbEntity
  8
0
  6
Continuous
 62
     8
370
     0
100
AcDbCircle
 10
397.6134676128
 20
518.8892986537
 30
0.0
 40
8.201695871808758
100
AcDbArc
 50
3.1277788962
 51
162.5519555502
  0
LWPOLYLINE
  5
10D
330
1F
100
AcDbEntity
  8
0
  6
Continuous
 62
     8
370
     0
100
AcDbPolyline
 90
        9
 70
   128
 43
0.0
 10
405.8029456952
 20
519.3368072142
 10
405.760673312
 20
519.1900126105
 10
405.6354806667
 20
519.048859241
 10
405.4321788422
 20
518.9187715506
 10
405.1585806138
 20
518.8047487364
 10
404.8252002078
 20
518.7111726311
 10
404.4448492464
 20
518.641639312
 10
404.0321444036
 20
518.5988209054
 10
403.6029456952
 20
518.5843628989
  0
ARC
  5
10E
330
1F
100
AcDbEntity
  8
0
  6
Continuous
 62
     8
370
     0
100
AcDbCircle
 10
397.6529456952
 20
518.2863336052
 30
0.0
 40
5.957459312483098
100
AcDbArc
 50
2.8674893493
 51
177.1325106507
  0
LWPOLYLINE
  5
10F
330
1F
100
AcDbEntity
  8
0
  6
Continuous
 62
     8
370
     0
100
AcDbPolyline
 90
        9
 70
   128
 43
0.0
 10
389.5029456952
 20
519.3368072142
 10
389.5452180783
 20
519.1900126105
 10
389.6704107236
 20
519.048859241
 10
389.8737125481
 20
518.9187715506
 10
390.1473107765
 20
518.8047487364
 10
390.4806911825
 20
518.7111726311
 10
390.861042144
 20
518.641639312
 10
391.2737469867
 20
518.5988209054
 10
391.7029456952
 20
518.5843628989
  0
LINE
  5
110
330
1F
100
AcDbEntity
  8
0
  6
Continuous
 62
     8
370
     0
100
AcDbLine
 10
403.6029456952
 20
464.7312227572
 30
0.0
 11
403.6029456952
 21
518.5843628989
 31
0.0
  0
SPLINE
  5
111
330
1F
100
AcDbEntity
  8
0
  6
Continuous
 62
     8
370
     0
100
AcDbSpline
210
0.0
220
0.0
230
1.0
 70
     8
 71
     3
 72
     8
 73
     4
 74
     0
 42
0.00000001
 43
0.00000001
 12
1.0
 22
0.0
 32
0.0
 13
1.0
 23
0.0
 33
0.0
 40
0.0
 40
0.0
 40
0.0
 40
0.0
 40
1.0
 40
1.0
 40
1.0
 40
1.0
 10
391.7029456951545
 20
465.9343504836835
 30
0.0
 10
391.7029456951545
 20
465.5296198976406
 30
0.0
 10
391.6620131262328
 20
465.1285778614339
 30
0.0
 10
391.5801659418768
 20
464.7312227572239
 30
0.0
  0
LINE
  5
112
330
1F
100
AcDbEntity
  8
0
  6
Continuous
 62
     8
370
     0
100
AcDbLine
 10
391.7029456952
 20
518.5843628989
 30
0.0
 11
391.7029456952
 21
465.9343504837
 31
0.0
  0
LWPOLYLINE
  5
113
330
1F
100
AcDbEntity
  8
0
  6
Continuous
 62
     8
370
     0
100
AcDbPolyline
 90
       16
 70
   128
 43
0.0
 10
405.8029456952
 20
520.8074938305
 10
405.6248486411
 20
522.3997844459
 10
405.0983411749
 20
523.9224843207
 10
404.2464341993
 20
525.3090441636
 10
403.106360137
 20
526.4988646562
 10
401.7279456952
 20
527.4399449335
 10
400.1714341993
 20
528.0911552716
 10
398.5048526708
 20
528.4240346538
 10
396.8010387195
 20
528.4240346538
 10
395.134457191
 20
528.0911552716
 10
393.5779456952
 20
527.4399449335
 10
392.1995312533
 20
526.4988646562
 10
391.059457191
 20
525.3090441636
 10
390.2075502154
 20
523.9224843207
 10
389.6810427492
 20
522.3997844459
 10
389.5029456952
 20
520.8074938305
  0
SPLINE
  5
114
330
1F
100
AcDbEntity
  8
0
  6
Continuous
 62
     8
370
     0
100
AcDbSpline
210
0.0
220
0.0
230
1.0
 70
     8
 71
     3
 72
    26
 73
    22
 74
     0
 42
0.00000001
 43
0.00000001
 12
1.0
 22
0.0
 32
0.0
 13
1.0
 23
0.0
 33
0.0
 40
0.0
 40
0.0
 40
0.0
 40
0.0
 40
0.03533898693118
 40
0.071216366403511
 40
0.1293960329321021
 40
0.1886088591828231
 40
0.250335978347598
 40
0.312428479015454
 40
0.3754340983725427
 40
0.4387239921491422
 40
0.5031210477432287
 40
0.5679112890355893
 40
0.63422698072263
 40
0.7012479401577886
 40
0.7393208763378925
 40
0.777610881031912
 40
0.8167000190118334
 40
0.8561271118473144
 40
0.9140297633308122
 40
0.973550094525441
 40
0.9999999999999999
 40
0.9999999999999999
 40
0.9999999999999999
 40
0.9999999999999999
 10
315.7887892772439
 20
439.3385423728814
 30
0.0
 10
315.8092362477743
 20
439.9186325336354
 30
0.0
 10
315.8504417002101
 20
441.0876505792232
 30
0.0
 10
316.2365765546647
 20
443.1776924289726
 30
0.0
 10
316.9864695575311
 20
445.5683381525409
 30
0.0
 10
318.1585064687071
 20
448.2198372954821
 30
0.0
 10
319.528616625288
 20
450.8050870264689
 30
0.0
 10
321.0273085123262
 20
453.3355684401492
 30
0.0
 10
322.5873040775284
 20
455.7897983793
 30
0.0
 10
324.179337674175
 20
458.1777709731306
 30
0.0
 10
325.7698039599979
 20
460.4848037282046
 30
0.0
 10
327.3402251670404
 20
462.7082568241804
 30
0.0
 10
328.8548994172226
 20
464.8145915856236
 30
0.0
 10
330.0663908884685
 20
466.4767895394209
 30
0.0
 10
330.9872792587931
 20
467.7307096891195
 30
0.0
 10
331.6647104109999
 20
468.6487545255638
 30
0.0
 10
332.2720963639353
 20
469.4686218411589
 30
0.0
 10
332.8747603527973
 20
470.2794800665678
 30
0.0
 10
333.3851601024319
 20
470.9639852542654
 30
0.0
 10
333.6434956774117
 20
471.3096732835472
 30
0.0
 10
333.6535656025023
 20
471.3231464041656
 30
0.0
 10
333.6566637510836
 20
471.3272915918563
 30
0.0
  0
SPLINE
  5
115
330
1F
100
AcDbEntity
  8
0
  6
Continuous
 62
     8
370
     0
100
AcDbSpline
210
0.0
220
0.0
230
1.0
 70
     8
 71
     3
 72
    30
 73
    26
 74
     0
 42
0.00000001
 43
0.00000001
 12
1.0
 22
0.0
 32
0.0
 13
1.0
 23
0.0
 33
0.0
 40
0.0
 40
0.0
 40
0.0
 40
0.0
 40
0.0072560971952198
 40
0.0410045487841267
 40
0.0515711173266883
 40
0.0833600008038298
 40
0.1154215991600086
 40
0.1482789883947121
 40
0.1813802907233287
 40
0.2163752707135744
 40
0.2515901394393613
 40
0.3233387861760554
 40
0.3799057817139606
 40
0.436919184448374
 40
0.4950883996405659
 40
0.5535678934621296
 40
0.6147653274032823
 40
0.6762309769131328
 40
0.7385147255982832
 40
0.8011161439425722
 40
0.8526039417495737
 40
0.9045518914858768
 40
0.9455968949744409
 40
0.9873199857805536
 40
1.0
 40
1.0
 40
1.0
 40
1.0
 10
333.6565654073564
 20
407.3499247228058
 30
0.0
 10
333.6592029837432
 20
407.3463955309891
 30
0.0
 10
333.6741080527789
 20
407.3264519009462
 30
0.0
 10
333.6218395334683
 20
407.3963832650658
 30
0.0
 10
333.5196154379966
 20
407.5332167530131
 30
0.0
 10
333.3708819423898
 20
407.7323792369921
 30
0.0
 10
333.0947840063794
 20
408.1025165479724
 30
0.0
 10
332.7340727478443
 20
408.5868731230283
 30
0.0
 10
332.2866741968272
 20
409.1889276250099
 30
0.0
 10
331.7573853313472
 20
409.9031423483137
 30
0.0
 10
330.9422833580107
 20
411.006867453929
 30
0.0
 10
329.8696639714071
 20
412.468104748316
 30
0.0
 10
328.5267087338282
 20
414.3175173943369
 30
0.0
 10
327.2031417112489
 20
416.1626809310791
 30
0.0
 10
325.8075189045598
 20
418.1399914450728
 30
0.0
 10
324.3405490774745
 20
420.2639961282719
 30
0.0
 10
322.8288771544109
 20
422.519680587721
 30
0.0
 10
321.2930453978834
 20
424.9137081884168
 30
0.0
 10
319.7862498381648
 20
427.4200796793555
 30
0.0
 10
318.4440079687189
 20
429.8926161849362
 30
0.0
 10
317.31717411509
 20
432.3229010911013
 30
0.0
 10
316.5098860088511
 20
434.5338366823824
 30
0.0
 10
315.988856727975
 20
436.6772968107566
 30
0.0
 10
315.8035227068883
 20
438.237939981056
 30
0.0
 10
315.7915741819934
 20
439.1305071154967
 30
0.0
 10
315.7887892772439
 20
439.3385423728814
 30
0.0
  0
SPLINE
  5
116
330
1F
100
AcDbEntity
  8
0
  6
Continuous
 62
     8
370
     0
100
AcDbSpline
210
0.0
220
0.0
230
1.0
 70
     8
 71
     3
 72
    32
 73
    28
 74
     0
 42
0.00000001
 43
0.00000001
 12
1.0
 22
0.0
 32
0.0
 13
1.0
 23
0.0
 33
0.0
 40
0.0
 40
0.0
 40
0.0
 40
0.0
 40
0.0105294902800795
 40
0.0417562600753759
 40
0.0741205235662172
 40
0.0811239077286152
 40
0.1107159082893489
 40
0.1405698126696253
 40
0.1766708808194242
 40
0.2376913554194907
 40
0.2990884494516457
 40
0.3613561171813447
 40
0.4238812155651604
 40
0.4825484494590398
 40
0.5414855204639809
 40
0.6014247234396526
 40
0.6618038934466136
 40
0.6983568933815467
 40
0.7350624848937773
 40
0.7723160494620506
 40
0.8097961320550053
 40
0.843075496531766
 40
0.876573674898818
 40
0.9108375729939153
 40
0.94540183014126
 40
0.9792579348881111
 40
1.0
 40
1.0
 40
1.0
 40
1.0
 10
318.1541974258184
 20
439.3385423728814
 30
0.0
 10
318.1576855253851
 20
439.1759387912082
 30
0.0
 10
318.1715181031072
 20
438.5311100991321
 30
0.0
 10
318.3765574905495
 20
437.3964579225943
 30
0.0
 10
318.7495579879484
 20
436.3733477734282
 30
0.0
 10
319.1920564692778
 20
435.4141355982066
 30
0.0
 10
319.6814256743291
 20
434.5228758273257
 30
0.0
 10
320.4830227266406
 20
433.3120241808358
 30
0.0
 10
321.645799432437
 20
431.7877587495792
 30
0.0
 10
323.2076069541505
 20
430.0067356466305
 30
0.0
 10
325.0967246483467
 20
428.0580742612031
 30
0.0
 10
327.0243869710457
 20
426.1941595979137
 30
0.0
 10
328.9141490598534
 20
424.4448997804772
 30
0.0
 10
330.7357931436825
 20
422.8081124619024
 30
0.0
 10
332.478124818538
 20
421.2757138683397
 30
0.0
 10
334.1599661630658
 20
419.8204498020848
 30
0.0
 10
335.5396761459548
 20
418.641539652137
 30
0.0
 10
336.6309233178641
 20
417.7161811599116
 30
0.0
 10
337.4720546041571
 20
417.0064681652159
 30
0.0
 10
338.2474637052147
 20
416.3549815030746
 30
0.0
 10
338.916376033131
 20
415.7949735172206
 30
0.0
 10
339.4752619227847
 20
415.3283536991014
 30
0.0
 10
339.9277735769473
 20
414.9513413191754
 30
0.0
 10
340.2868148553255
 20
414.6527045261728
 30
0.0
 10
340.5305494838612
 20
414.4502163402742
 30
0.0
 10
340.6573970689822
 20
414.3449128375116
 30
0.0
 10
340.6524922166678
 20
414.3489848331072
 30
0.0
 10
340.6506288434754
 20
414.3505318006704
 30
0.0
  0
SPLINE
  5
117
330
1F
100
AcDbEntity
  8
0
  6
Continuous
 62
     8
370
     0
100
AcDbSpline
210
0.0
220
0.0
230
1.0
 70
     8
 71
     3
 72
    30
 73
    26
 74
     0
 42
0.00000001
 43
0.00000001
 12
1.0
 22
0.0
 32
0.0
 13
1.0
 23
0.0
 33
0.0
 40
0.0
 40
0.0
 40
0.0
 40
0.0
 40
0.0241472789191781
 40
0.0565313638315764
 40
0.0897731388297962
 40
0.1232949879424282
 40
0.1500940980629056
 40
0.189742216003233
 40
0.2297295120028499
 40
0.2706413679593104
 40
0.311813600943286
 40
0.3449635059116123
 40
0.3782113392610543
 40
0.4452946727306035
 40
0.5141865751141942
 40
0.5835500454933233
 40
0.645217407433992
 40
0.7071358602673049
 40
0.7698674516748317
 40
0.8329681512446904
 40
0.8594607480674893
 40
0.9127991981414575
 40
0.9399979308270607
 40
0.9695120338088626
 40
1.0
 40
1.0
 40
1.0
 40
1.0
 10
340.6551505450748
 20
464.3303062852096
 30
0.0
 10
340.6528480780615
 20
464.3283954349419
 30
0.0
 10
340.6474577564077
 20
464.3239219299943
 30
0.0
 10
340.5119734800845
 20
464.2114408567834
 30
0.0
 10
340.2681408715475
 20
464.0088550669132
 30
0.0
 10
339.9367738622505
 20
463.7332188493407
 30
0.0
 10
339.4967696575004
 20
463.3666558074406
 30
0.0
 10
338.9333406924815
 20
462.8963584982646
 30
0.0
 10
338.1828983728647
 20
462.2680149850899
 30
0.0
 10
337.3232340163406
 20
461.545399659989
 30
0.0
 10
336.4306516626846
 20
460.7914644636083
 30
0.0
 10
335.5398983157006
 20
460.0350391268939
 30
0.0
 10
334.3793183115271
 20
459.0440309482896
 30
0.0
 10
332.8162711220039
 20
457.6967720833181
 30
0.0
 10
330.8123367379313
 20
455.938942917002
 30
0.0
 10
328.7896376543698
 20
454.1203684106705
 30
0.0
 10
326.8021839350304
 20
452.2724520294309
 30
0.0
 10
324.8763911472571
 20
450.3994199227267
 30
0.0
 10
322.9638502620991
 20
448.4080132629857
 30
0.0
 10
321.4764894883829
 20
446.6808118479181
 30
0.0
 10
320.1867727918417
 20
444.9536520522044
 30
0.0
 10
319.3136557376271
 20
443.5704827612641
 30
0.0
 10
318.6307333508329
 20
442.028665592934
 30
0.0
 10
318.237070874642
 20
440.7362038853167
 30
0.0
 10
318.1821192063296
 20
439.8094434700722
 30
0.0
 10
318.1541974258185
 20
439.3385423728813
 30
0.0
  0
LINE
  5
118
330
1F
100
AcDbEntity
  8
0
  6
Continuous
 62
     8
370
     0
100
AcDbLine
 10
306.6650721327
 20
511.7145980037
 30
0.0
 11
333.3676900934
 21
511.7145980037
 31
0.0
  0
LINE
  5
119
330
1F
100
AcDbEntity
  8
0
  6
Continuous
 62
     8
370
     0
100
AcDbLine
 10
279.9624541721
 20
511.7145980037
 30
0.0
 11
306.6650721327
 21
511.7145980037
 31
0.0
  0
LINE
  5
11A
330
1F
100
AcDbEntity
  8
0
  6
Continuous
 62
     8
370
     0
100
AcDbLine
 10
385.0029456952
 20
459.6200159786
 30
0.0
 11
385.0029456952
 21
464.7503181285
 31
0.0
  0
LINE
  5
11B
330
1F
100
AcDbEntity
  8
0
  6
Continuous
 62
     8
370
     0
100
AcDbLine
 10
403.9429007553
 20
459.6200159786
 30
0.0
 11
385.0029456952
 21
459.6200159786
 31
0.0
  0
LINE
  5
11C
330
1F
100
AcDbEntity
  8
0
  6
Continuous
 62
     8
370
     0
100
AcDbLine
 10
403.9429007553
 20
414.7749263473
 30
0.0
 11
403.9429007553
 21
459.6200159786
 31
0.0
  0
LINE
  5
11D
330
1F
100
AcDbEntity
  8
0
  6
Continuous
 62
     8
370
     0
100
AcDbLine
 10
406.114598183
 20
458.1528710072
 30
0.0
 11
406.1145981829
 21
416.6231731916
 31
0.0
  0
LINE
  5
11E
330
1F
100
AcDbEntity
  8
0
  6
Continuous
 62
     8
370
     0
100
AcDbLine
 10
406.114598183
 20
462.926679503
 30
0.0
 11
406.114598183
 21
462.9038905667
 31
0.0
  0
LINE
  5
11F
330
1F
100
AcDbEntity
  8
0
  6
Continuous
 62
     8
370
     0
100
AcDbLine
 10
406.114598183
 20
462.9038905667
 30
0.0
 11
406.0426809371
 21
463.2082848911
 31
0.0
  0
SPLINE
  5
120
330
1F
100
AcDbEntity
  8
0
  6
Continuous
 62
     8
370
     0
100
AcDbSpline
210
0.0
220
0.0
230
1.0
 70
     8
 71
     3
 72
    14
 73
    10
 74
     0
 42
0.00000001
 43
0.00000001
 12
1.0
 22
0.0
 32
0.0
 13
1.0
 23
0.0
 33
0.0
 40
0.0
 40
0.0
 40
0.0
 40
0.0
 40
0.2500000000000011
 40
0.2500000000000011
 40
0.3750000000000017
 40
0.3750000000000017
 40
0.5000000000000023
 40
0.5000000000000023
 40
1.0
 40
1.0
 40
1.0
 40
1.0
 10
406.1145981829505
 20
462.9038905666988
 30
0.0
 10
406.1145981829505
 20
462.8863526093176
 30
0.0
 10
406.1074312767723
 20
462.9032255030392
 30
0.0
 10
406.0863260620672
 20
462.9782298680861
 30
0.0
 10
406.0775550760239
 20
463.0115618967302
 30
0.0
 10
406.0564879935703
 20
463.0951335618122
 30
0.0
 10
406.0441208427881
 20
463.1456772228154
 30
0.0
 10
405.9745435513332
 20
463.4362956917337
 30
0.0
 10
405.8941795340089
 20
463.7891464482141
 30
0.0
 10
405.7896322193276
 20
464.2595469569318
 30
0.0
  0
SPLINE
  5
121
330
1F
100
AcDbEntity
  8
0
  6
Continuous
 62
     8
370
     0
100
AcDbSpline
210
0.0
220
0.0
230
1.0
 70
     8
 71
     3
 72
    16
 73
    12
 74
     0
 42
0.00000001
 43
0.00000001
 12
1.0
 22
0.0
 32
0.0
 13
1.0
 23
0.0
 33
0.0
 40
0.0
 40
0.0
 40
0.0
 40
0.0
 40
0.2499999999999983
 40
0.2499999999999983
 40
0.4999999999999967
 40
0.4999999999999967
 40
0.6249999999999961
 40
0.6249999999999961
 40
0.7499999999999957
 40
0.7499999999999957
 40
1.0
 40
1.0
 40
1.0
 40
1.0
 10
405.7896322193276
 20
462.0106604734568
 30
0.0
 10
405.8418398094556
 20
461.6295631684441
 30
0.0
 10
405.8883400676521
 20
461.2574390101724
 30
0.0
 10
405.9685952061824
 20
460.5443123392341
 30
0.0
 10
406.0026408156082
 20
460.2012410304429
 30
0.0
 10
406.044308373382
 20
459.7075360397327
 30
0.0
 10
406.0566403336596
 20
459.5460320933401
 30
0.0
 10
406.0776518875511
 20
459.2361251997165
 30
0.0
 10
406.0863999164058
 20
459.0870047627866
 30
0.0
 10
406.1074499716791
 20
458.6568890651537
 30
0.0
 10
406.1145981829506
 20
458.393007066526
 30
0.0
 10
406.1145981829505
 20
458.1528710071711
 30
0.0
  0
SPLINE
  5
122
330
1F
100
AcDbEntity
  8
0
  6
Continuous
 62
     8
370
     0
100
AcDbSpline
210
0.0
220
0.0
230
1.0
 70
     8
 71
     3
 72
    24
 73
    20
 74
     0
 42
0.00000001
 43
0.00000001
 12
1.0
 22
0.0
 32
0.0
 13
1.0
 23
0.0
 33
0.0
 40
0.0
 40
0.0
 40
0.0
 40
0.0
 40
0.1250000000000005
 40
0.1250000000000005
 40
0.1874999999999988
 40
0.1874999999999988
 40
0.2499999999999971
 40
0.2499999999999971
 40
0.3749999999999968
 40
0.3749999999999968
 40
0.4999999999999966
 40
0.4999999999999966
 40
0.7500000000000022
 40
0.7500000000000022
 40
0.8750000000000032
 40
0.8750000000000032
 40
0.9375000000000017
 40
0.9375000000000017
 40
1.0
 40
1.0
 40
1.0
 40
1.0
 10
391.5801659418768
 20
464.7312227572239
 30
0.0
 10
391.4763357202133
 20
464.3926620567124
 30
0.0
 10
391.3165253240599
 20
464.0692940607622
 30
0.0
 10
391.0167004943793
 20
463.6014097213926
 30
0.0
 10
390.9070180130091
 20
463.4494080213954
 30
0.0
 10
390.6767007087631
 20
463.1587596187035
 30
0.0
 10
390.5555975218268
 20
463.0193007571414
 30
0.0
 10
390.1776675192221
 20
462.6153250481371
 30
0.0
 10
389.9044374151125
 20
462.3635671387264
 30
0.0
 10
389.3410706918476
 20
461.897792487745
 30
0.0
 10
389.050623439642
 20
461.6831409147504
 30
0.0
 10
388.1597724649786
 20
461.0798483944068
 30
0.0
 10
387.5375868819232
 20
460.7301312584518
 30
0.0
 10
386.5936955881668
 20
460.2688549191307
 30
0.0
 10
386.2764328347703
 20
460.1254471218512
 30
0.0
 10
385.7996333483782
 20
459.9251421989362
 30
0.0
 10
385.6404938679538
 20
459.8608232261274
 30
0.0
 10
385.3218909698811
 20
459.7368949188425
 30
0.0
 10
385.161381841307
 20
459.676911295567
 30
0.0
 10
385.0029456951544
 20
459.6200159786235
 30
0.0
  0
SPLINE
  5
123
330
1F
100
AcDbEntity
  8
0
  6
Continuous
 62
     8
370
     0
100
AcDbSpline
210
0.0
220
0.0
230
1.0
 70
     8
 71
     3
 72
    22
 73
    18
 74
     0
 42
0.00000001
 43
0.00000001
 12
1.0
 22
0.0
 32
0.0
 13
1.0
 23
0.0
 33
0.0
 40
0.0
 40
0.0
 40
0.0
 40
0.0
 40
0.1250000000000038
 40
0.1250000000000038
 40
0.1875000000000057
 40
0.1875000000000057
 40
0.2500000000000077
 40
0.2500000000000077
 40
0.3750000000000075
 40
0.3750000000000075
 40
0.5000000000000073
 40
0.5000000000000073
 40
0.7500000000000037
 40
0.7500000000000037
 40
0.8750000000000018
 40
0.8750000000000018
 40
1.0
 40
1.0
 40
1.0
 40
1.0
 10
389.420481681759
 20
465.865557805194
 30
0.0
 10
389.3501925748733
 20
465.5184825594925
 30
0.0
 10
389.2402469707001
 20
465.1726429146245
 30
0.0
 10
389.0317340859257
 20
464.6587039396966
 30
0.0
 10
388.9556566805517
 20
464.4903059186379
 30
0.0
 10
388.7960516797543
 20
464.1647571841373
 30
0.0
 10
388.7122609668421
 20
464.0068853888256
 30
0.0
 10
388.4513557493269
 20
463.5449774630429
 30
0.0
 10
388.2634955318573
 20
463.2507469361033
 30
0.0
 10
387.8796321358292
 20
462.6967959378293
 30
0.0
 10
387.6829194027273
 20
462.4356829028588
 30
0.0
 10
387.0830409594571
 20
461.6853982378222
 30
0.0
 10
386.6688776548118
 20
461.2272011062674
 30
0.0
 10
386.0466146295566
 20
460.5903983182818
 30
0.0
 10
385.8385482905352
 20
460.3863362468142
 30
0.0
 10
385.4214252231404
 20
459.9925383216572
 30
0.0
 10
385.2112495165447
 20
459.8018391028956
 30
0.0
 10
385.0029456951544
 20
459.6200159786235
 30
0.0
  0
LINE
  5
124
330
1F
100
AcDbEntity
  8
0
  6
Continuous
 62
     8
370
     0
100
AcDbLine
 10
403.6029456952
 20
462.2683468989
 30
0.0
 11
403.6029456952
 21
464.7312227572
 31
0.0
  0
SPLINE
  5
125
330
1F
100
AcDbEntity
  8
0
  6
Continuous
 62
     8
370
     0
100
AcDbSpline
210
0.0
220
0.0
230
1.0
 70
     8
 71
     3
 72
    14
 73
    10
 74
     0
 42
0.00000001
 43
0.00000001
 12
1.0
 22
0.0
 32
0.0
 13
1.0
 23
0.0
 33
0.0
 40
0.0
 40
0.0
 40
0.0
 40
0.0
 40
0.25
 40
0.25
 40
0.5
 40
0.5
 40
0.75
 40
0.75
 40
1.0
 40
1.0
 40
1.0
 40
1.0
 10
403.9429007552528
 20
459.6200159786232
 30
0.0
 10
403.9429007552528
 20
459.7846480089218
 30
0.0
 10
403.9353423742118
 20
459.966022884132
 30
0.0
 10
403.9057232044
 20
460.3608818168681
 30
0.0
 10
403.8833218338522
 20
460.5767914292996
 30
0.0
 10
403.8250250794223
 20
461.0291416676602
 30
0.0
 10
403.7893854464913
 20
461.2646603597042
 30
0.0
 10
403.7055621899972
 20
461.75370832812
 30
0.0
 10
403.6570124027414
 20
462.0088914842667
 30
0.0
 10
403.6029456951543
 20
462.2683468989257
 30
0.0
  0
SPLINE
  5
126
330
1F
100
AcDbEntity
  8
0
  6
Continuous
 62
     8
370
     0
100
AcDbSpline
210
0.0
220
0.0
230
1.0
 70
     8
 71
     3
 72
     8
 73
     4
 74
     0
 42
0.00000001
 43
0.00000001
 12
1.0
 22
0.0
 32
0.0
 13
1.0
 23
0.0
 33
0.0
 40
0.0
 40
0.0
 40
0.0
 40
0.0
 40
1.0
 40
1.0
 40
1.0
 40
1.0
 10
389.420481681759
 20
465.865557805194
 30
0.0
 10
389.4754435911937
 20
466.1369500459899
 30
0.0
 10
389.5029456951545
 20
466.4106908137108
 30
0.0
 10
389.5029456951545
 20
466.686794799
 30
0.0
  0
LWPOLYLINE
  5
127
330
1F
100
AcDbEntity
  8
0
  6
Continuous
 62
     8
370
     0
100
AcDbPolyline
 90
       13
 70
   128
 43
0.0
 10
383.9255128918
 20
464.3317960964
 10
383.9588406657
 20
464.1604642162
 10
383.7737648645
 20
463.7608059421
 10
383.2366539697
 20
463.4002690044
 10
382.4000841379
 20
463.1141452706
 10
381.3459446531
 20
462.9304425254
 10
380.1774220327
 20
462.8671428733
 10
379.0088994122
 20
462.9304425254
 10
377.9547599274
 20
463.1141452706
 10
377.1181900957
 20
463.4002690044
 10
376.5810792008
 20
463.7608059421
 10
376.3960033996
 20
464.1604642162
 10
376.4293311736
 20
464.3317960964
  0
LINE
  5
128
330
1F
100
AcDbEntity
  8
0
  6
Continuous
 62
     7
370
    15
100
AcDbLine
 10
165.5709113551
 20
305.4653225459
 30
0.0
 11
165.5709113551
 21
97.0605084796
 31
0.0
  0
LINE
  5
129
330
1F
100
AcDbEntity
  8
0
  6
Continuous
 62
     7
370
    15
100
AcDbLine
 10
188.5709113551
 20
97.0605084796
 30
0.0
 11
188.5709113551
 21
305.4653225459
 31
0.0
  0
LINE
  5
12A
330
1F
100
AcDbEntity
  8
0
  6
Continuous
 62
     7
370
    15
100
AcDbLine
 10
188.5709113551
 20
90.4653225459
 30
0.0
 11
188.5709113551
 21
97.0605084796
 31
0.0
  0
LINE
  5
12B
330
1F
100
AcDbEntity
  8
0
  6
Continuous
 62
     7
370
    15
100
AcDbLine
 10
165.5709113551
 20
97.0605084796
 30
0.0
 11
165.5709113551
 21
90.4653225459
 31
0.0
  0
SPLINE
  5
12C
330
1F
100
AcDbEntity
  8
0
  6
Continuous
 62
     7
370
    15
100
AcDbSpline
210
0.0
220
0.0
230
1.0
 70
     8
 71
     3
 72
    24
 73
    20
 74
     0
 42
0.00000001
 43
0.00000001
 12
1.0
 22
0.0
 32
0.0
 13
1.0
 23
0.0
 33
0.0
 40
0.0
 40
0.0
 40
0.0
 40
0.0
 40
0.0508160446476226
 40
0.0962904038005629
 40
0.1428574037646651
 40
0.1951515144067371
 40
0.2579496333946909
 40
0.3291875473476067
 40
0.397635668854635
 40
0.4637322388796057
 40
0.5288819505547259
 40
0.5940773461261886
 40
0.6599832226938898
 40
0.7278357907026047
 40
0.7999224936729068
 40
0.8593425801598298
 40
0.9092120207560336
 40
0.9562199437654053
 40
1.0
 40
1.0
 40
1.0
 40
1.0
 10
145.6226605669123
 20
222.6274489835092
 30
0.0
 10
145.2884565126734
 20
222.5932303805166
 30
0.0
 10
144.6551792956526
 20
222.5283901686799
 30
0.0
 10
143.8473212155097
 20
222.0790857485697
 30
0.0
 10
143.1998835736078
 20
221.4868859363145
 30
0.0
 10
142.6473877925175
 20
220.7011618550277
 30
0.0
 10
142.1661402711251
 20
219.6681017100471
 30
0.0
 10
141.7800438769048
 20
218.3709426966136
 30
0.0
 10
141.5173852722164
 20
216.8884764778151
 30
0.0
 10
141.3862841561521
 20
215.3457352221003
 30
0.0
 10
141.3793806426212
 20
213.7907929349844
 30
0.0
 10
141.4938137233266
 20
212.2669892554623
 30
0.0
 10
141.7303866499479
 20
210.8160966582055
 30
0.0
 10
142.0996271051722
 20
209.4657944581892
 30
0.0
 10
142.5915072053716
 20
208.3363465960529
 30
0.0
 10
143.2046934069373
 20
207.4509896045645
 30
0.0
 10
143.9204733908074
 20
206.8188198967343
 30
0.0
 10
144.7381145411707
 20
206.4056756484687
 30
0.0
 10
145.3348843902646
 20
206.3528990673927
 30
0.0
 10
145.6226605669127
 20
206.3274489835092
 30
0.0
  0
SPLINE
  5
12D
330
1F
100
AcDbEntity
  8
0
  6
Continuous
 62
     7
370
    15
100
AcDbSpline
210
0.0
220
0.0
230
1.0
 70
     8
 71
     3
 72
    11
 73
     7
 74
     0
 42
0.00000001
 43
0.00000001
 12
1.0
 22
0.0
 32
0.0
 13
1.0
 23
0.0
 33
0.0
 40
0.0
 40
0.0
 40
0.0
 40
0.0
 40
0.3473415466846198
 40
0.6547743324376701
 40
0.8885011915401312
 40
1.0
 40
1.0
 40
1.0
 40
1.0
 10
202.0734024708256
 20
293.9389094500489
 30
0.0
 10
202.0781572139333
 20
294.1797228436783
 30
0.0
 10
202.0871203908812
 20
294.6336807147158
 30
0.0
 10
202.1797457837391
 20
295.2415994773091
 30
0.0
 10
202.2784730705159
 20
295.6864150940281
 30
0.0
 10
202.3442820586921
 20
295.9096903786425
 30
0.0
 10
202.3655366305766
 20
295.9818024216689
 30
0.0
  0
SPLINE
  5
12E
330
1F
100
AcDbEntity
  8
0
  6
Continuous
 62
     7
370
    15
100
AcDbSpline
210
0.0
220
0.0
230
1.0
 70
     8
 71
     3
 72
    10
 73
     6
 74
     0
 42
0.00000001
 43
0.00000001
 12
1.0
 22
0.0
 32
0.0
 13
1.0
 23
0.0
 33
0.0
 40
0.0
 40
0.0
 40
0.0
 40
0.0
 40
0.1828569567646658
 40
0.7103172174659732
 40
1.0
 40
1.0
 40
1.0
 40
1.0
 10
151.7710131338083
 20
296.0018365557796
 30
0.0
 10
151.7998687892066
 20
295.9003739550486
 30
0.0
 10
151.9119600610587
 20
295.5062372839411
 30
0.0
 10
152.0431431051111
 20
294.9125206134303
 30
0.0
 10
152.0335660148633
 20
294.4265455810508
 30
0.0
 10
152.0301708710454
 20
294.2542641172518
 30
0.0
  0
LINE
  5
12F
330
1F
100
AcDbEntity
  8
0
  6
Continuous
 62
     7
370
    15
100
AcDbLine
 10
151.8687991955
 20
238.952972646
 30
0.0
 11
151.8687991955
 21
222.6274489835
 31
0.0
  0
LINE
  5
130
330
1F
100
AcDbEntity
  8
0
  6
Continuous
 62
     7
370
    15
100
AcDbLine
 10
201.8687991955
 20
208.1874939234
 30
0.0
 11
201.8687991955
 21
236.5011551976
 31
0.0
  0
ARC
  5
131
330
1F
100
AcDbEntity
  8
0
  6
Continuous
 62
     7
370
    15
100
AcDbCircle
 10
154.0687991955
 20
208.1874939234
 30
0.0
 40
2.200000000000016
100
AcDbArc
 50
237.7228610335
 51
260.7996163194
  0
ARC
  5
132
330
1F
100
AcDbEntity
  8
0
  6
Continuous
 62
     7
370
    15
100
AcDbCircle
 10
199.6687991955
 20
208.1874939234
 30
0.0
 40
2.200000000000058
100
AcDbArc
 50
279.2003836806
 51
0.0
  0
ARC
  5
133
330
1F
100
AcDbEntity
  8
0
  6
Continuous
 62
     7
370
    15
100
AcDbCircle
 10
176.8687991955
 20
348.952972646
 30
0.0
 40
144.8
100
AcDbArc
 50
260.7996163194
 51
265.5250007891
  0
LWPOLYLINE
  5
134
330
1F
100
AcDbEntity
  8
0
  6
Continuous
 62
     7
370
    15
100
AcDbPolyline
 90
        3
 70
   128
 43
0.0
 10
188.5709113551
 20
204.6266044003
 10
194.2653354302
 20
205.2017969046
 10
200.0205523512
 20
206.0157964957
  0
LINE
  5
135
330
1F
100
AcDbEntity
  8
0
  6
Continuous
 62
     7
370
    15
100
AcDbLine
 10
152.0709113551
 20
293.9761972528
 30
0.0
 11
152.0709113551
 21
245.7653225459
 31
0.0
  0
LINE
  5
136
330
1F
100
AcDbEntity
  8
0
  6
Continuous
 62
     7
370
    15
100
AcDbLine
 10
202.0709113551
 20
245.7653225459
 30
0.0
 11
202.0709113551
 21
293.939763849
 31
0.0
  0
ARC
  5
137
330
1F
100
AcDbEntity
  8
0
  6
Continuous
 62
     7
370
    15
100
AcDbCircle
 10
152.3709113551
 20
245.7653225459
 30
0.0
 40
0.3000000000000114
100
AcDbArc
 50
180.0
 51
270.0
  0
ARC
  5
138
330
1F
100
AcDbEntity
  8
0
  6
Continuous
 62
     7
370
    15
100
AcDbCircle
 10
201.7709113551
 20
245.7653225459
 30
0.0
 40
0.3000000000000114
100
AcDbArc
 50
270.0
 51
0.0
  0
LINE
  5
139
330
1F
100
AcDbEntity
  8
0
  6
Continuous
 62
     7
370
    15
100
AcDbLine
 10
153.0709113551
 20
245.4653225459
 30
0.0
 11
153.0964721011
 21
244.0009483891
 31
0.0
  0
LINE
  5
13A
330
1F
100
AcDbEntity
  8
0
  6
Continuous
 62
     7
370
    15
100
AcDbLine
 10
201.0453506091
 20
244.0009483891
 30
0.0
 11
201.0709113551
 21
245.4653225459
 31
0.0
  0
ARC
  5
13B
330
1F
100
AcDbEntity
  8
0
  6
Continuous
 62
     7
370
    15
100
AcDbCircle
 10
177.0709113551
 20
247.9653225459
 30
0.0
 40
24.30000000000044
100
AcDbArc
 50
338.2301871803
 51
350.6106272566
  0
ARC
  5
13C
330
1F
100
AcDbEntity
  8
0
  6
Continuous
 62
     7
370
    15
100
AcDbCircle
 10
177.0709113551
 20
247.9653225459
 30
0.0
 40
24.30000000000045
100
AcDbArc
 50
189.3893727434
 51
201.7698128197
  0
ARC
  5
13D
330
1F
100
AcDbEntity
  8
0
  6
Continuous
 62
     7
370
    15
100
AcDbCircle
 10
177.0709113551
 20
305.4653225459
 30
0.0
 40
11.5
100
AcDbArc
 50
0.0
 51
180.0
  0
ARC
  5
13E
330
1F
100
AcDbEntity
  8
0
  6
Continuous
 62
     7
370
    15
100
AcDbCircle
 10
177.0709113551
 20
90.5970563385
 30
0.0
 40
11.50075448795057
100
AcDbArc
 50
180.6563008889
 51
359.3436991111
  0
LINE
  5
13F
330
1F
100
AcDbEntity
  8
0
  6
Continuous
 62
     7
370
    15
100
AcDbLine
 10
145.6226605669
 20
222.6274489835
 30
0.0
 11
149.6633388363
 21
222.6274489835
 31
0.0
  0
LINE
  5
140
330
1F
100
AcDbEntity
  8
0
  6
Continuous
 62
     7
370
    15
100
AcDbLine
 10
145.6226605669
 20
206.3274489835
 30
0.0
 11
149.6633388363
 21
206.3274489835
 31
0.0
  0
LINE
  5
141
330
1F
100
AcDbEntity
  8
0
  6
Continuous
 62
     7
370
    15
100
AcDbLine
 10
149.6633388363
 20
222.6274489835
 30
0.0
 11
165.5709113551
 21
222.6274489835
 31
0.0
  0
LINE
  5
142
330
1F
100
AcDbEntity
  8
0
  6
Continuous
 62
     7
370
    15
100
AcDbLine
 10
165.5709113551
 20
206.3274489835
 30
0.0
 11
149.6633388363
 21
206.3274489835
 31
0.0
  0
ARC
  5
143
330
1F
100
AcDbEntity
  8
0
  6
Continuous
 62
     7
370
    15
100
AcDbCircle
 10
177.0709113551
 20
305.4653225459
 30
0.0
 40
12.45000000000002
100
AcDbArc
 50
180.0
 51
202.5276453786
  0
ARC
  5
144
330
1F
100
AcDbEntity
  8
0
  6
Continuous
 62
     7
370
    15
100
AcDbCircle
 10
177.0709113551
 20
305.4653225459
 30
0.0
 40
12.45000000000002
100
AcDbArc
 50
337.4723546214
 51
180.0
  0
ARC
  5
145
330
1F
100
AcDbEntity
  8
0
  6
Continuous
 62
     7
370
    15
100
AcDbCircle
 10
177.0709113551
 20
305.4653225459
 30
0.0
 40
27.00000000000003
100
AcDbArc
 50
295.2092855871
 51
0.0
  0
ARC
  5
146
330
1F
100
AcDbEntity
  8
0
  6
Continuous
 62
     7
370
    15
100
AcDbCircle
 10
177.0709113551
 20
305.4653225459
 30
0.0
 40
27.00000000000003
100
AcDbArc
 50
0.0
 51
244.7907144129
  0
ARC
  5
147
330
1F
100
AcDbEntity
  8
0
  6
Continuous
 62
     7
370
    15
100
AcDbCircle
 10
177.0709113551
 20
305.4653225459
 30
0.0
 40
27.0
100
AcDbArc
 50
180.0
 51
244.7907144129
  0
ARC
  5
148
330
1F
100
AcDbEntity
  8
0
  6
Continuous
 62
     7
370
    15
100
AcDbCircle
 10
177.0709113551
 20
305.4653225459
 30
0.0
 40
27.00000000000003
100
AcDbArc
 50
295.2092855871
 51
0.0
  0
ARC
  5
149
330
1F
100
AcDbEntity
  8
0
  6
Continuous
 62
     7
370
    15
100
AcDbCircle
 10
177.0709113551
 20
305.4653225459
 30
0.0
 40
27.0
100
AcDbArc
 50
90.0
 51
180.0
  0
ARC
  5
14A
330
1F
100
AcDbEntity
  8
0
  6
Continuous
 62
     7
370
    15
100
AcDbCircle
 10
168.3590321506
 20
231.952972646
 30
0.0
 40
3.927853138194818
100
AcDbArc
 50
135.221350475
 51
224.778649525
  0
ARC
  5
14B
330
1F
100
AcDbEntity
  8
0
  6
Continuous
 62
     7
370
    15
100
AcDbCircle
 10
168.3094858049
 20
231.952972646
 30
0.0
 40
3.720178428863752
100
AcDbArc
 50
137.4036849523
 51
222.5963150477
  0
ARC
  5
14C
330
1F
100
AcDbEntity
  8
0
  6
Continuous
 62
     7
370
    15
100
AcDbCircle
 10
168.5603445505
 20
231.9772003442
 30
0.0
 40
4.120597697265545
100
AcDbArc
 50
136.5092368574
 51
180.3368814316
  0
ARC
  5
14D
330
1F
100
AcDbEntity
  8
0
  6
Continuous
 62
     7
370
    15
100
AcDbCircle
 10
168.5603445505
 20
231.9287449478
 30
0.0
 40
4.120597697265747
100
AcDbArc
 50
179.6631185684
 51
223.4907631426
  0
ELLIPSE
  5
14E
330
1F
100
AcDbEntity
  8
0
  6
Continuous
 62
     7
370
    15
100
AcDbEllipse
 10
176.8687991955
 20
238.952972646
 30
0.0
 11
24.99007957229242
 21
-2.64059783811814
 31
0.0
210
0.0
220
0.0
230
1.0
 40
0.2666888441
 41
0.0281724459375174
 42
0.3772382963363856
  0
LINE
  5
14F
330
1F
100
AcDbEntity
  8
0
  6
Continuous
 62
     7
370
    15
100
AcDbLine
 10
151.8687991955
 20
238.952972646
 30
0.0
 11
165.5709113551
 21
238.952972646
 31
0.0
  0
LINE
  5
150
330
1F
100
AcDbEntity
  8
0
  6
Continuous
 62
     7
370
    15
100
AcDbLine
 10
188.5709113551
 20
238.952972646
 30
0.0
 11
200.3611147152
 21
238.952972646
 31
0.0
  0
LINE
  5
151
330
1F
100
AcDbEntity
  8
0
  6
Continuous
 62
     7
370
    15
100
AcDbLine
 10
188.5709113551
 20
245.4653225459
 30
0.0
 11
201.7709113551
 21
245.4653225459
 31
0.0
  0
LINE
  5
152
330
1F
100
AcDbEntity
  8
0
  6
Continuous
 62
     7
370
    15
100
AcDbLine
 10
165.5709113551
 20
245.4653225459
 30
0.0
 11
152.3709113551
 21
245.4653225459
 31
0.0
  0
LWPOLYLINE
  5
153
330
1F
100
AcDbEntity
  8
0
  6
Continuous
 62
     8
370
     0
100
AcDbPolyline
 90
       16
 70
   128
 43
0.0
 10
149.6633388363
 20
206.3274489835
 10
149.083792448
 20
206.5055460375
 10
148.5295750179
 20
207.0320535037
 10
148.024908507
 20
207.8839604794
 10
147.5918492636
 20
209.0240345417
 10
147.2493240546
 20
210.4024489835
 10
147.0123028753
 20
211.9589604794
 10
146.8911446886
 20
213.6255420079
 10
146.8911446886
 20
215.3293559591
 10
147.0123028753
 20
216.9959374877
 10
147.2493240546
 20
218.5524489835
 10
147.5918492636
 20
219.9308634253
 10
148.024908507
 20
221.0709374877
 10
148.5295750179
 20
221.9228444633
 10
149.083792448
 20
222.4493519295
 10
149.6633388363
 20
222.6274489835
  0
LWPOLYLINE
  5
154
330
1F
100
AcDbEntity
  8
0
  6
Continuous
 62
     8
370
     0
100
AcDbPolyline
 90
       13
 70
   128
 43
0.0
 10
151.730662602
 20
220.4274489835
 10
151.203960707
 20
220.2247076499
 10
150.7131526756
 20
219.630300136
 10
150.2916862643
 20
218.6847343316
 10
149.9682837123
 20
217.4524489835
 10
149.7649843692
 20
216.0174223019
 10
149.6956427492
 20
214.4774489835
 10
149.7649843692
 20
212.9374756651
 10
149.9682837123
 20
211.5024489835
 10
150.2916862643
 20
210.2701636354
 10
150.7131526756
 20
209.324597831
 10
151.203960707
 20
208.7301903171
 10
151.730662602
 20
208.5274489835
  0
LWPOLYLINE
  5
155
330
1F
100
AcDbEntity
  8
0
  6
Continuous
 62
     8
370
     0
100
AcDbPolyline
 90
       16
 70
   128
 43
0.0
 10
145.6226605669
 20
222.6274489835
 10
145.0431141786
 20
222.4493519295
 10
144.4888967485
 20
221.9228444633
 10
143.9842302376
 20
221.0709374877
 10
143.5511709942
 20
219.9308634253
 10
143.2086457852
 20
218.5524489835
 10
142.9716246059
 20
216.9959374877
 10
142.8504664192
 20
215.3293559591
 10
142.8504664192
 20
213.6255420079
 10
142.9716246059
 20
211.9589604794
 10
143.2086457852
 20
210.4024489835
 10
143.5511709942
 20
209.0240345417
 10
143.9842302376
 20
207.8839604794
 10
144.4888967485
 20
207.0320535037
 10
145.0431141786
 20
206.5055460375
 10
145.6226605669
 20
206.3274489835
  0
LINE
  5
156
330
1F
100
AcDbEntity
  8
0
  6
Continuous
 62
     8
370
     0
100
AcDbLine
 10
151.730662602
 20
208.5274489835
 30
0.0
 11
165.5709113551
 21
208.5274489835
 31
0.0
  0
LINE
  5
157
330
1F
100
AcDbEntity
  8
0
  6
Continuous
 62
     8
370
     0
100
AcDbLine
 10
165.5709113551
 20
220.4274489835
 30
0.0
 11
151.730662602
 21
220.4274489835
 31
0.0
  0
SPLINE
  5
158
330
1F
100
AcDbEntity
  8
0
  6
Continuous
 62
     8
370
     0
100
AcDbSpline
210
0.0
220
0.0
230
1.0
 70
     8
 71
     3
 72
    22
 73
    18
 74
     0
 42
0.00000001
 43
0.00000001
 12
1.0
 22
0.0
 32
0.0
 13
1.0
 23
0.0
 33
0.0
 40
0.0
 40
0.0
 40
0.0
 40
0.0
 40
0.0322057862304102
 40
0.0998991499920518
 40
0.1350274346191566
 40
0.1806780801543336
 40
0.226670687479836
 40
0.2822161238859506
 40
0.3803401053801098
 40
0.4791085548138087
 40
0.5796219291159644
 40
0.6807546728609702
 40
0.7541750729921555
 40
0.8279459647802854
 40
0.9030355531893615
 40
0.9787080115243936
 40
1.0
 40
1.0
 40
1.0
 40
1.0
 10
202.060573956543
 20
293.9394592596701
 30
0.0
 10
202.0597222152175
 20
293.9363167952175
 30
0.0
 10
202.0570801982265
 20
293.9265691826164
 30
0.0
 10
201.9109730244805
 20
293.4124473612189
 30
0.0
 10
201.6846728582668
 20
292.6763341357508
 30
0.0
 10
201.4406435226369
 20
291.927426942634
 30
0.0
 10
201.1033484900688
 20
290.9685573423697
 30
0.0
 10
200.5694889693279
 20
289.5762395946332
 30
0.0
 10
199.7567402271339
 20
287.7160804394883
 30
0.0
 10
198.5942679646791
 20
285.4757770084719
 30
0.0
 10
197.2025673995151
 20
283.2184255410098
 30
0.0
 10
195.714755367208
 20
281.1959267879174
 30
0.0
 10
194.1921996230114
 20
279.4349257978538
 30
0.0
 10
192.6882243809825
 20
277.9224425912922
 30
0.0
 10
191.0085451806452
 20
276.4886357429668
 30
0.0
 10
189.6163715679295
 20
275.4583140730729
 30
0.0
 10
188.759145735295
 20
274.9429907481829
 30
0.0
 10
188.570911355068
 20
274.8298332079124
 30
0.0
  0
SPLINE
  5
159
330
1F
100
AcDbEntity
  8
0
  6
Continuous
 62
     8
370
     0
100
AcDbSpline
210
0.0
220
0.0
230
1.0
 70
     8
 71
     3
 72
    23
 73
    19
 74
     0
 42
0.00000001
 43
0.00000001
 12
1.0
 22
0.0
 32
0.0
 13
1.0
 23
0.0
 33
0.0
 40
0.0
 40
0.0
 40
0.0
 40
0.0
 40
0.0001620836010283
 40
0.0566015944636672
 40
0.1020439784675537
 40
0.14762060415641
 40
0.2395794379056077
 40
0.3340174848883846
 40
0.4291019643106415
 40
0.5136365035345712
 40
0.5985152418979649
 40
0.6845086427429891
 40
0.7710080225604317
 40
0.8437767740675273
 40
0.8804638406267269
 40
0.9177482689320019
 40
0.9582066413620514
 40
1.0
 40
1.0
 40
1.0
 40
1.0
 10
165.570911355068
 20
274.8171818099865
 30
0.0
 10
165.5694455277359
 20
274.8180119064516
 30
0.0
 10
165.05756052713
 20
275.1078918399144
 30
0.0
 10
164.2122639478411
 20
275.7053648237756
 30
0.0
 10
163.0266438251869
 20
276.5891555235421
 30
0.0
 10
161.646162757111
 20
277.7518585899945
 30
0.0
 10
160.0405561147202
 20
279.313848799719
 30
0.0
 10
158.324840457766
 20
281.3181352432555
 30
0.0
 10
156.8665640120973
 20
283.3407316132208
 30
0.0
 10
155.6415987719796
 20
285.3282405088868
 30
0.0
 10
154.6166304350561
 20
287.2539067838512
 30
0.0
 10
153.7389908900508
 20
289.1669073860005
 30
0.0
 10
153.050996861184
 20
290.9122868516919
 30
0.0
 10
152.6172218250849
 20
292.1750822413766
 30
0.0
 10
152.3620556240642
 20
292.9820910100023
 30
0.0
 10
152.2067268565363
 20
293.499532616693
 30
0.0
 10
152.0939861393948
 20
293.8933583489096
 30
0.0
 10
152.0786857275897
 20
293.9482871112228
 30
0.0
 10
152.070911355068
 20
293.9761972528464
 30
0.0
  0
SPLINE
  5
15A
330
1F
100
AcDbEntity
  8
0
  6
Continuous
 62
     8
370
     0
100
AcDbSpline
210
0.0
220
0.0
230
1.0
 70
     8
 71
     3
 72
     8
 73
     4
 74
     0
 42
0.00000001
 43
0.00000001
 12
1.0
 22
0.0
 32
0.0
 13
1.0
 23
0.0
 33
0.0
 40
0.0
 40
0.0
 40
0.0
 40
0.0
 40
1.0
 40
1.0
 40
1.0
 40
1.0
 10
165.0506168874008
 20
222.7099129969058
 30
0.0
 10
164.9635671369389
 20
222.6549510874712
 30
0.0
 10
164.8752500231863
 20
222.6274489835104
 30
0.0
 10
164.7856979198029
 20
222.6274489835104
 30
0.0
  0
SPLINE
  5
15B
330
1F
100
AcDbEntity
  8
0
  6
Continuous
 62
     8
370
     0
100
AcDbSpline
210
0.0
220
0.0
230
1.0
 70
     8
 71
     3
 72
    22
 73
    18
 74
     0
 42
0.00000001
 43
0.00000001
 12
1.0
 22
0.0
 32
0.0
 13
1.0
 23
0.0
 33
0.0
 40
0.0
 40
0.0
 40
0.0
 40
0.0
 40
0.1250000000000038
 40
0.1250000000000038
 40
0.1875000000000057
 40
0.1875000000000057
 40
0.2500000000000077
 40
0.2500000000000077
 40
0.3750000000000075
 40
0.3750000000000075
 40
0.5000000000000073
 40
0.5000000000000073
 40
0.7500000000000037
 40
0.7500000000000037
 40
0.8750000000000018
 40
0.8750000000000018
 40
1.0
 40
1.0
 40
1.0
 40
1.0
 10
165.0506168874008
 20
222.7099129969058
 30
0.0
 10
165.1619421538904
 20
222.7802021037915
 30
0.0
 10
165.203779222497
 20
222.8901477079648
 30
0.0
 10
165.189470370544
 20
223.0986605927391
 30
0.0
 10
165.1716095108804
 20
223.1747379981132
 30
0.0
 10
165.1158964229325
 20
223.3343429989105
 30
0.0
 10
165.0780714725855
 20
223.4181337118228
 30
0.0
 10
164.9408102968945
 20
223.679038929338
 30
0.0
 10
164.8167938380859
 20
223.8668991468076
 30
0.0
 10
164.5321054961433
 20
224.2507625428356
 30
0.0
 10
164.371139624659
 20
224.4474752759376
 30
0.0
 10
163.8491739447775
 20
225.0473537192077
 30
0.0
 10
163.4482934374917
 20
225.4615170238531
 30
0.0
 10
162.8087257059179
 20
226.0837800491082
 30
0.0
 10
162.5885066958453
 20
226.2918463881296
 30
0.0
 10
162.1356662711979
 20
226.7089694555245
 30
0.0
 10
161.9017638889499
 20
226.9191451621201
 30
0.0
 10
161.6644439798166
 20
227.1274489835105
 30
0.0
  0
LINE
  5
15C
330
1F
100
AcDbEntity
  8
0
  6
Continuous
 62
     8
370
     0
100
AcDbLine
 10
161.6644439798
 20
227.1274489835
 30
0.0
 11
165.5709113551
 21
227.1274489835
 31
0.0
  0
LWPOLYLINE
  5
15D
330
1F
100
AcDbEntity
  8
0
  6
Continuous
 62
     8
370
     0
100
AcDbPolyline
 90
        3
 70
   128
 43
0.0
 10
165.0506168874
 20
222.7099129969
 10
164.6546883763
 20
222.6631150782
 10
164.5195359482
 20
222.6274489835
  0
SPLINE
  5
15E
330
1F
100
AcDbEntity
  8
0
  6
Continuous
 62
     8
370
     0
100
AcDbSpline
210
0.0
220
0.0
230
1.0
 70
     8
 71
     3
 72
    14
 73
    10
 74
     0
 42
0.00000001
 43
0.00000001
 12
1.0
 22
0.0
 32
0.0
 13
1.0
 23
0.0
 33
0.0
 40
0.0
 40
0.0
 40
0.0
 40
0.0
 40
0.1534125436974201
 40
0.4091961748923391
 40
0.55518297041668
 40
0.7015873634659299
 40
0.8491112840245055
 40
0.9969618841187938
 40
1.0
 40
1.0
 40
1.0
 40
1.0
 10
163.2626042365892
 20
222.6274489835099
 30
0.0
 10
163.218689899081
 20
222.8392026193815
 30
0.0
 10
163.1015575023539
 20
223.4040115700048
 30
0.0
 10
162.8322146056544
 20
224.2377495112386
 30
0.0
 10
162.5364707656604
 20
225.0682246665071
 30
0.0
 10
162.2724784443116
 20
225.7437457383789
 30
0.0
 10
161.9852751626565
 20
226.4262232455891
 30
0.0
 10
161.776223188437
 20
226.8888553658032
 30
0.0
 10
161.6666502110812
 20
227.1227397651737
 30
0.0
 10
161.6644439798166
 20
227.1274489835105
 30
0.0
  0
LINE
  5
15F
330
1F
100
AcDbEntity
  8
0
  6
Continuous
 62
     8
370
     0
100
AcDbLine
 10
161.6644439798
 20
222.6274489835
 30
0.0
 11
161.6644439798
 21
227.1274489835
 31
0.0
  0
LINE
  5
160
330
1F
100
AcDbEntity
  8
0
  6
Continuous
 62
     8
370
     0
100
AcDbLine
 10
188.5709113551
 20
208.1874939234
 30
0.0
 11
201.8687991955
 21
208.1874939234
 31
0.0
  0
LINE
  5
161
330
1F
100
AcDbEntity
  8
0
  6
Continuous
 62
     8
370
     0
100
AcDbLine
 10
162.7885000417
 20
206.0157964957
 30
0.0
 11
153.7170460398
 21
206.0157964957
 31
0.0
  0
LINE
  5
162
330
1F
100
AcDbEntity
  8
0
  6
Continuous
 62
     8
370
     0
100
AcDbLine
 10
200.0205523512
 20
206.0157964957
 30
0.0
 11
188.5709113551
 21
206.0157964957
 31
0.0
  0
ARC
  5
163
330
1F
100
AcDbEntity
  8
0
  6
Continuous
 62
     8
370
     0
100
AcDbCircle
 10
163.1140261986
 20
207.0964950105
 30
0.0
 40
1.128661401251079
100
AcDbArc
 50
222.9514867759
 51
253.2367380078
  0
SPLINE
  5
164
330
1F
100
AcDbEntity
  8
0
  6
Continuous
 62
     8
370
     0
100
AcDbSpline
210
0.0
220
0.0
230
1.0
 70
     8
 71
     3
 72
    16
 73
    12
 74
     0
 42
0.00000001
 43
0.00000001
 12
1.0
 22
0.0
 32
0.0
 13
1.0
 23
0.0
 33
0.0
 40
0.0
 40
0.0
 40
0.0
 40
0.0
 40
0.2499999999999983
 40
0.2499999999999983
 40
0.4999999999999967
 40
0.4999999999999967
 40
0.6249999999999961
 40
0.6249999999999961
 40
0.7499999999999957
 40
0.7499999999999957
 40
1.0
 40
1.0
 40
1.0
 40
1.0
 10
165.2770075503081
 20
206.3407624593372
 30
0.0
 10
165.1882776485583
 20
206.2885548692093
 30
0.0
 10
165.0668052298216
 20
206.2420546110128
 30
0.0
 10
164.7648739018715
 20
206.1617994724824
 30
0.0
 10
164.5839914917484
 20
206.1277538630567
 30
0.0
 10
164.2663253820201
 20
206.0860863052829
 30
0.0
 10
164.1522414907579
 20
206.0737543450053
 30
0.0
 10
163.9125446738484
 20
206.0527427911138
 30
0.0
 10
163.7865318284009
 20
206.0439947622591
 30
0.0
 10
163.3902679276297
 20
206.0229447069858
 30
0.0
 10
163.1019313943724
 20
206.0157964957143
 30
0.0
 10
162.7885000417108
 20
206.0157964957143
 30
0.0
  0
ENDSEC
  0
SECTION
  2
OBJECTS
  0
DICTIONARY
  5
C
330
0
100
AcDbDictionary
281
     1
  3
ACAD_GROUP
350
D
  3
ACAD_LAYOUT
350
1A
  3
ACAD_MATERIAL
350
3B
  3
ACAD_MLEADERSTYLE
350
166
  3
ACAD_MLINESTYLE
350
17
  3
ACAD_PLOTSETTINGS
350
19
  3
ACAD_PLOTSTYLENAME
350
E
  3
ACAD_TABLESTYLE
350
165
  3
ACAD_VISUALSTYLE
350
2A
  0
DICTIONARY
  5
D
102
{ACAD_REACTORS
330
C
102
}
330
C
100
AcDbDictionary
281
     1
  0
DICTIONARY
  5
1A
102
{ACAD_REACTORS
330
C
102
}
330
C
100
AcDbDictionary
281
     1
  3
Layout1
350
1E
  3
Layout2
350
26
  3
Model
350
22
  0
DICTIONARY
  5
3B
102
{ACAD_REACTORS
330
C
102
}
330
C
100
AcDbDictionary
281
     1
  3
ByBlock
350
3D
  3
ByLayer
350
3C
  3
Global
350
3E
  0
DICTIONARY
  5
166
102
{ACAD_REACTORS
330
C
102
}
330
C
100
AcDbDictionary
281
     1
  0
DICTIONARY
  5
17
102
{ACAD_REACTORS
330
C
102
}
330
C
100
AcDbDictionary
281
     1
  3
Standard
350
18
  0
DICTIONARY
  5
19
102
{ACAD_REACTORS
330
C
102
}
330
C
100
AcDbDictionary
281
     1
  0
ACDBDICTIONARYWDFLT
  5
E
102
{ACAD_REACTORS
330
C
102
}
330
C
100
AcDbDictionary
281
     1
  3
Normal
350
F
100
AcDbDictionaryWithDefault
340
F
  0
DICTIONARY
  5
165
102
{ACAD_REACTORS
330
C
102
}
330
C
100
AcDbDictionary
281
     1
  0
DICTIONARY
  5
2A
102
{ACAD_REACTORS
330
C
102
}
330
C
100
AcDbDictionary
281
     1
  3
2dWireframe
350
2F
  3
3D Hidden
350
31
  3
3dWireframe
350
30
  3
Basic
350
32
  3
Brighten
350
36
  3
ColorChange
350
3A
  3
Conceptual
350
34
  3
Dim
350
35
  3
Facepattern
350
39
  3
Flat
350
2B
  3
FlatWithEdges
350
2C
  3
Gouraud
350
2D
  3
GouraudWithEdges
350
2E
  3
Linepattern
350
38
  3
Realistic
350
33
  3
Thicken
350
37
  0
LAYOUT
  5
1E
102
{ACAD_REACTORS
330
1A
102
}
330
1A
100
AcDbPlotSettings
  1

  2
none_device
  4

  6

 40
0.0
 41
0.0
 42
0.0
 43
0.0
 44
0.0
 45
0.0
 46
0.0
 47
0.0
 48
0.0
 49
0.0
140
0.0
141
0.0
142
1.0
143
1.0
 70
   688
 72
     0
 73
     0
 74
     5
  7

 75
    16
 76
     0
 77
     2
 78
   300
147
1.0
148
0.0
149
0.0
100
AcDbLayout
  1
Layout1
 70
     1
 71
     1
 10
0.0
 20
0.0
 11
420.0
 21
297.0
 12
0.0
 22
0.0
 32
0.0
 14
1.0000000000E+20
 24
1.0000000000E+20
 34
1.0000000000E+20
 15
-1.0000000000E+20
 25
-1.0000000000E+20
 35
-1.0000000000E+20
146
0.0
 13
0.0
 23
0.0
 33
0.0
 16
1.0
 26
0.0
 36
0.0
 17
0.0
 27
1.0
 37
0.0
 76
     0
330
1B
  0
LAYOUT
  5
26
102
{ACAD_REACTORS
330
1A
102
}
330
1A
100
AcDbPlotSettings
  1

  2
none_device
  4

  6

 40
0.0
 41
0.0
 42
0.0
 43
0.0
 44
0.0
 45
0.0
 46
0.0
 47
0.0
 48
0.0
 49
0.0
140
0.0
141
0.0
142
1.0
143
1.0
 70
   688
 72
     0
 73
     0
 74
     5
  7

 75
    16
 76
     0
 77
     2
 78
   300
147
1.0
148
0.0
149
0.0
100
AcDbLayout
  1
Layout2
 70
     1
 71
     2
 10
0.0
 20
0.0
 11
0.0
 21
0.0
 12
0.0
 22
0.0
 32
0.0
 14
0.0
 24
0.0
 34
0.0
 15
0.0
 25
0.0
 35
0.0
146
0.0
 13
0.0
 23
0.0
 33
0.0
 16
1.0
 26
0.0
 36
0.0
 17
0.0
 27
1.0
 37
0.0
 76
     0
330
23
  0
LAYOUT
  5
22
102
{ACAD_REACTORS
330
1A
102
}
330
1A
100
AcDbPlotSettings
  1

  2
none_device
  4

  6

 40
0.0
 41
0.0
 42
0.0
 43
0.0
 44
0.0
 45
0.0
 46
0.0
 47
0.0
 48
0.0
 49
0.0
140
0.0
141
0.0
142
1.0
143
1.0
 70
  1712
 72
     0
 73
     0
 74
     0
  7

 75
     0
 76
     0
 77
     2
 78
   300
147
1.0
148
0.0
149
0.0
100
AcDbLayout
  1
Model
 70
     1
 71
     0
 10
0.0
 20
0.0
 11
594.0
 21
841.0
 12
0.0
 22
0.0
 32
0.0
 14
0.0
 24
0.0
 34
0.0
 15
594.0
 25
841.0
 35
0.0
146
0.0
 13
0.0
 23
0.0
 33
0.0
 16
1.0
 26
0.0
 36
0.0
 17
0.0
 27
1.0
 37
0.0
 76
     0
330
1F
331
29
  0
MATERIAL
  5
3D
102
{ACAD_REACTORS
330
3B
102
}
330
3B
100
AcDbMaterial
  1
ByBlock
 72
     1
 94
      127
  0
MATERIAL
  5
3C
102
{ACAD_REACTORS
330
3B
102
}
330
3B
100
AcDbMaterial
  1
ByLayer
 72
     1
 94
      127
  0
MATERIAL
  5
3E
102
{ACAD_REACTORS
330
3B
102
}
330
3B
100
AcDbMaterial
  1
Global
 72
     1
 94
      127
  0
MLINESTYLE
  5
18
102
{ACAD_REACTORS
330
17
102
}
330
17
100
AcDbMlineStyle
  2
Standard
 70
     0
  3

 62
   256
 51
90.0
 52
90.0
 71
     2
 49
0.5
 62
   256
  6
BYLAYER
 49
-0.5
 62
   256
  6
BYLAYER
  0
ACDBPLACEHOLDER
  5
F
102
{ACAD_REACTORS
330
E
102
}
330
E
  0
VISUALSTYLE
  5
2F
102
{ACAD_REACTORS
330
2A
102
}
330
2A
100
AcDbVisualStyle
  2
2dWireframe
 70
     4
177
     2
291
     0
 71
     0
176
     1
 72
     2
176
     1
 73
     0
176
     1
 90
        0
176
     1
 40
-0.6
176
     1
 41
-30.0
176
     1
 62
     5
 63
     7
421
 16777215
176
     1
 74
     1
176
     1
 91
        4
176
     1
 64
     7
176
     1
 65
   257
176
     1
 75
     1
176
     1
175
     1
176
     1
 42
1.0
176
     1
 92
        0
176
     1
 66
   257
176
     1
 43
1.0
176
     1
 76
     1
176
     1
 77
     6
176
     1
 78
     2
176
     1
 67
     7
176
     1
 79
     5
176
     1
170
     0
176
     1
171
     0
176
     1
290
     0
176
     1
 93
        1
176
     1
 44
0.0
176
     1
173
     0
176
     1
  0
VISUALSTYLE
  5
31
102
{ACAD_REACTORS
330
2A
102
}
330
2A
100
AcDbVisualStyle
  2
3D Hidden
 70
     6
177
     2
291
     0
 71
     1
176
     1
 72
     2
176
     1
 73
     2
176
     1
 90
        0
176
     1
 40
-0.6
176
     1
 41
-30.0
176
     1
 62
     5
 63
     7
421
 16777215
176
     1
 74
     2
176
     1
 91
        2
176
     1
 64
     7
176
     1
 65
   257
176
     1
 75
     2
176
     1
175
     1
176
     1
 42
40.0
176
     1
 92
        0
176
     1
 66
   257
176
     1
 43
1.0
176
     1
 76
     1
176
     1
 77
     6
176
     1
 78
     2
176
     1
 67
     7
176
     1
 79
     3
176
     1
170
     0
176
     1
171
     0
176
     1
290
     0
176
     1
 93
        1
176
     1
 44
0.0
176
     1
173
     0
176
     1
  0
VISUALSTYLE
  5
30
102
{ACAD_REACTORS
330
2A
102
}
330
2A
100
AcDbVisualStyle
  2
3dWireframe
 70
     5
177
     2
291
     0
 71
     0
176
     1
 72
     2
176
     1
 73
     0
176
     1
 90
        0
176
     1
 40
-0.6
176
     1
 41
-30.0
176
     1
 62
     5
 63
     7
421
 16777215
176
     1
 74
     1
176
     1
 91
        4
176
     1
 64
     7
176
     1
 65
   257
176
     1
 75
     1
176
     1
175
     1
176
     1
 42
1.0
176
     1
 92
        0
176
     1
 66
   257
176
     1
 43
1.0
176
     1
 76
     1
176
     1
 77
     6
176
     1
 78
     2
176
     1
 67
     7
176
     1
 79
     5
176
     1
170
     0
176
     1
171
     0
176
     1
290
     0
176
     1
 93
        1
176
     1
 44
0.0
176
     1
173
     0
176
     1
  0
VISUALSTYLE
  5
32
102
{ACAD_REACTORS
330
2A
102
}
330
2A
100
AcDbVisualStyle
  2
Basic
 70
     7
177
     2
291
     1
 71
     1
176
     1
 72
     0
176
     1
 73
     1
176
     1
 90
        0
176
     1
 40
-0.6
176
     1
 41
-30.0
176
     1
 62
     5
 63
     7
421
 16777215
176
     1
 74
     0
176
     1
 91
        4
176
     1
 64
     7
176
     1
 65
   257
176
     1
 75
     1
176
     1
175
     1
176
     1
 42
1.0
176
     1
 92
        8
176
     1
 66
     7
176
     1
 43
1.0
176
     1
 76
     1
176
     1
 77
     6
176
     1
 78
     2
176
     1
 67
     7
176
     1
 79
     5
176
     1
170
     0
176
     1
171
     0
176
     1
290
     0
176
     1
 93
        1
176
     1
 44
0.0
176
     1
173
     0
176
     1
  0
VISUALSTYLE
  5
36
102
{ACAD_REACTORS
330
2A
102
}
330
2A
100
AcDbVisualStyle
  2
Brighten
 70
    12
177
     2
291
     1
 71
     2
176
     1
 72
     2
176
     1
 73
     0
176
     1
 90
        0
176
     1
 40
-0.6
176
     1
 41
-30.0
176
     1
 62
     5
 63
     7
421
 16777215
176
     1
 74
     1
176
     1
 91
        4
176
     1
 64
     7
176
     1
 65
   257
176
     1
 75
     1
176
     1
175
     1
176
     1
 42
1.0
176
     1
 92
        8
176
     1
 66
     7
176
     1
 43
1.0
176
     1
 76
     1
176
     1
 77
     6
176
     1
 78
     2
176
     1
 67
     7
176
     1
 79
     5
176
     1
170
     0
176
     1
171
     0
176
     1
290
     0
176
     1
 93
        1
176
     1
 44
50.0
176
     1
173
     0
176
     1
  0
VISUALSTYLE
  5
3A
102
{ACAD_REACTORS
330
2A
102
}
330
2A
100
AcDbVisualStyle
  2
ColorChange
 70
    16
177
     2
291
     1
 71
     2
176
     1
 72
     2
176
     1
 73
     3
176
     1
 90
        0
176
     1
 40
-0.6
176
     1
 41
-30.0
176
     1
 62
     5
 63
     8
421
  8421504
176
     1
 74
     1
176
     1
 91
        4
176
     1
 64
     7
176
     1
 65
   257
176
     1
 75
     1
176
     1
175
     1
176
     1
 42
1.0
176
     1
 92
        8
176
     1
 66
     8
424
  8421504
176
     1
 43
1.0
176
     1
 76
     1
176
     1
 77
     6
176
     1
 78
     2
176
     1
 67
     7
176
     1
 79
     5
176
     1
170
     0
176
     1
171
     0
176
     1
290
     0
176
     1
 93
        1
176
     1
 44
0.0
176
     1
173
     0
176
     1
  0
VISUALSTYLE
  5
34
102
{ACAD_REACTORS
330
2A
102
}
330
2A
100
AcDbVisualStyle
  2
Conceptual
 70
     9
177
     2
291
     0
 71
     3
176
     1
 72
     2
176
     1
 73
     0
176
     1
 90
        0
176
     1
 40
-0.6
176
     1
 41
-30.0
176
     1
 62
     5
 63
     7
421
 16777215
176
     1
 74
     2
176
     1
 91
        2
176
     1
 64
     7
176
     1
 65
   257
176
     1
 75
     1
176
     1
175
     1
176
     1
 42
40.0
176
     1
 92
        8
176
     1
 66
     7
176
     1
 43
1.0
176
     1
 76
     1
176
     1
 77
     6
176
     1
 78
     2
176
     1
 67
     7
176
     1
 79
     3
176
     1
170
     0
176
     1
171
     0
176
     1
290
     0
176
     1
 93
        1
176
     1
 44
0.0
176
     1
173
     0
176
     1
  0
VISUALSTYLE
  5
35
102
{ACAD_REACTORS
330
2A
102
}
330
2A
100
AcDbVisualStyle
  2
Dim
 70
    11
177
     2
291
     1
 71
     2
176
     1
 72
     2
176
     1
 73
     0
176
     1
 90
        0
176
     1
 40
-0.6
176
     1
 41
-30.0
176
     1
 62
     5
 63
     7
421
 16777215
176
     1
 74
     1
176
     1
 91
        4
176
     1
 64
     7
176
     1
 65
   257
176
     1
 75
     1
176
     1
175
     1
176
     1
 42
1.0
176
     1
 92
        8
176
     1
 66
     7
176
     1
 43
1.0
176
     1
 76
     1
176
     1
 77
     6
176
     1
 78
     2
176
     1
 67
     7
176
     1
 79
     5
176
     1
170
     0
176
     1
171
     0
176
     1
290
     0
176
     1
 93
        1
176
     1
 44
-50.0
176
     1
173
     0
176
     1
  0
VISUALSTYLE
  5
39
102
{ACAD_REACTORS
330
2A
102
}
330
2A
100
AcDbVisualStyle
  2
Facepattern
 70
    15
177
     2
291
     1
 71
     2
176
     1
 72
     2
176
     1
 73
     0
176
     1
 90
        0
176
     1
 40
-0.6
176
     1
 41
-30.0
176
     1
 62
     5
 63
     7
421
 16777215
176
     1
 74
     1
176
     1
 91
        4
176
     1
 64
     7
176
     1
 65
   257
176
     1
 75
     1
176
     1
175
     1
176
     1
 42
1.0
176
     1
 92
        8
176
     1
 66
     7
176
     1
 43
1.0
176
     1
 76
     1
176
     1
 77
     6
176
     1
 78
     2
176
     1
 67
     7
176
     1
 79
     5
176
     1
170
     0
176
     1
171
     0
176
     1
290
     0
176
     1
 93
        1
176
     1
 44
0.0
176
     1
173
     0
176
     1
  0
VISUALSTYLE
  5
2B
102
{ACAD_REACTORS
330
2A
102
}
330
2A
100
AcDbVisualStyle
  2
Flat
 70
     0
177
     2
291
     1
 71
     2
176
     1
 72
     1
176
     1
 73
     1
176
     1
 90
        2
176
     1
 40
-0.6
176
     1
 41
30.0
176
     1
 62
     5
 63
     7
421
 16777215
176
     1
 74
     0
176
     1
 91
        4
176
     1
 64
     7
176
     1
 65
   257
176
     1
 75
     1
176
     1
175
     1
176
     1
 42
1.0
176
     1
 92
        8
176
     1
 66
     7
176
     1
 43
1.0
176
     1
 76
     1
176
     1
 77
     6
176
     1
 78
     2
176
     1
 67
     7
176
     1
 79
     5
176
     1
170
     0
176
     1
171
     0
176
     1
290
     0
176
     1
 93
       13
176
     1
 44
0.0
176
     1
173
     0
176
     1
  0
VISUALSTYLE
  5
2C
102
{ACAD_REACTORS
330
2A
102
}
330
2A
100
AcDbVisualStyle
  2
FlatWithEdges
 70
     1
177
     2
291
     1
 71
     2
176
     1
 72
     1
176
     1
 73
     1
176
     1
 90
        2
176
     1
 40
-0.6
176
     1
 41
30.0
176
     1
 62
     5
 63
     7
421
 16777215
176
     1
 74
     1
176
     1
 91
        4
176
     1
 64
     7
176
     1
 65
   257
176
     1
 75
     1
176
     1
175
     1
176
     1
 42
1.0
176
     1
 92
        0
176
     1
 66
   257
176
     1
 43
1.0
176
     1
 76
     1
176
     1
 77
     6
176
     1
 78
     2
176
     1
 67
     7
176
     1
 79
     5
176
     1
170
     0
176
     1
171
     0
176
     1
290
     0
176
     1
 93
       13
176
     1
 44
0.0
176
     1
173
     0
176
     1
  0
VISUALSTYLE
  5
2D
102
{ACAD_REACTORS
330
2A
102
}
330
2A
100
AcDbVisualStyle
  2
Gouraud
 70
     2
177
     2
291
     1
 71
     2
176
     1
 72
     2
176
     1
 73
     1
176
     1
 90
        2
176
     1
 40
-0.6
176
     1
 41
30.0
176
     1
 62
     5
 63
     7
421
 16777215
176
     1
 74
     0
176
     1
 91
        4
176
     1
 64
     7
176
     1
 65
   257
176
     1
 75
     1
176
     1
175
     1
176
     1
 42
1.0
176
     1
 92
        0
176
     1
 66
     7
176
     1
 43
1.0
176
     1
 76
     1
176
     1
 77
     6
176
     1
 78
     2
176
     1
 67
     7
176
     1
 79
     5
176
     1
170
     0
176
     1
171
     0
176
     1
290
     0
176
     1
 93
       13
176
     1
 44
0.0
176
     1
173
     0
176
     1
  0
VISUALSTYLE
  5
2E
102
{ACAD_REACTORS
330
2A
102
}
330
2A
100
AcDbVisualStyle
  2
GouraudWithEdges
 70
     3
177
     2
291
     1
 71
     2
176
     1
 72
     2
176
     1
 73
     1
176
     1
 90
        2
176
     1
 40
-0.6
176
     1
 41
30.0
176
     1
 62
     5
 63
     7
421
 16777215
176
     1
 74
     1
176
     1
 91
        4
176
     1
 64
     7
176
     1
 65
   257
176
     1
 75
     1
176
     1
175
     1
176
     1
 42
1.0
176
     1
 92
        0
176
     1
 66
   257
176
     1
 43
1.0
176
     1
 76
     1
176
     1
 77
     6
176
     1
 78
     2
176
     1
 67
     7
176
     1
 79
     5
176
     1
170
     0
176
     1
171
     0
176
     1
290
     0
176
     1
 93
       13
176
     1
 44
0.0
176
     1
173
     0
176
     1
  0
VISUALSTYLE
  5
38
102
{ACAD_REACTORS
330
2A
102
}
330
2A
100
AcDbVisualStyle
  2
Linepattern
 70
    14
177
     2
291
     1
 71
     2
176
     1
 72
     2
176
     1
 73
     0
176
     1
 90
        0
176
     1
 40
-0.6
176
     1
 41
-30.0
176
     1
 62
     5
 63
     7
421
 16777215
176
     1
 74
     1
176
     1
 91
        4
176
     1
 64
     7
176
     1
 65
   257
176
     1
 75
     7
176
     1
175
     7
176
     1
 42
1.0
176
     1
 92
        8
176
     1
 66
     7
176
     1
 43
1.0
176
     1
 76
     1
176
     1
 77
     6
176
     1
 78
     2
176
     1
 67
     7
176
     1
 79
     5
176
     1
170
     0
176
     1
171
     0
176
     1
290
     0
176
     1
 93
        1
176
     1
 44
0.0
176
     1
173
     0
176
     1
  0
VISUALSTYLE
  5
33
102
{ACAD_REACTORS
330
2A
102
}
330
2A
100
AcDbVisualStyle
  2
Realistic
 70
     8
177
     2
291
     0
 71
     2
176
     1
 72
     2
176
     1
 73
     0
176
     1
 90
        0
176
     1
 40
-0.6
176
     1
 41
-30.0
176
     1
 62
     5
 63
     7
421
 16777215
176
     1
 74
     1
176
     1
 91
        0
176
     1
 64
     7
176
     1
 65
   257
176
     1
 75
     1
176
     1
175
     1
176
     1
 42
1.0
176
     1
 92
        8
176
     1
 66
     8
424
  7895160
176
     1
 43
1.0
176
     1
 76
     1
176
     1
 77
     6
176
     1
 78
     2
176
     1
 67
     7
176
     1
 79
     5
176
     1
170
     0
176
     1
171
     0
176
     1
290
     0
176
     1
 93
       13
176
     1
 44
0.0
176
     1
173
     0
176
     1
  0
VISUALSTYLE
  5
37
102
{ACAD_REACTORS
330
2A
102
}
330
2A
100
AcDbVisualStyle
  2
Thicken
 70
    13
177
     2
291
     1
 71
     2
176
     1
 72
     2
176
     1
 73
     0
176
     1
 90
        0
176
     1
 40
-0.6
176
     1
 41
-30.0
176
     1
 62
     5
 63
     7
421
 16777215
176
     1
 74
     1
176
     1
 91
        4
176
     1
 64
     7
176
     1
 65
   257
176
     1
 75
     1
176
     1
175
     1
176
     1
 42
1.0
176
     1
 92
       12
176
     1
 66
     7
176
     1
 43
1.0
176
     1
 76
     1
176
     1
 77
     6
176
     1
 78
     2
176
     1
 67
     7
176
     1
 79
     5
176
     1
170
     0
176
     1
171
     0
176
     1
290
     0
176
     1
 93
        1
176
     1
 44
0.0
176
     1
173
     0
176
     1
  0
ENDSEC
  0
EOF
