  0
SECTION
  2
HEADER
  9
$ACADVER
  1
AC1014
  9
$ACADMAINTVER
 70
     9
  9
$DWGCODEPAGE
  3
ANSI_1252
  9
$INSBASE
 10
0.0
 20
0.0
 30
0.0
  9
$EXTMIN
 10
0.0
 20
0.0
 30
0.0
  9
$EXTMAX
 10
594.0
 20
841.0
 30
0.0
  9
$LIMMIN
 10
0.0
 20
0.0
  9
$LIMMAX
 10
594.0
 20
841.0
  9
$ORTHOMODE
 70
     0
  9
$REGENMODE
 70
     1
  9
$FILLMODE
 70
     1
  9
$QTEXTMODE
 70
     0
  9
$MIRRTEXT
 70
     1
  9
$DRAGMODE
 70
     2
  9
$LTSCALE
 40
1.0
  9
$OSMODE
 70
    37
  9
$ATTMODE
 70
     1
  9
$TEXTSIZE
 40
10.0
  9
$TRACEWID
 40
1.0
  9
$TEXTSTYLE
  7
STANDARD
  9
$CLAYER
  8
0
  9
$CELTYPE
  6
BYLAYER
  9
$CECOLOR
 62
   256
  9
$CELTSCALE
 40
1.0
  9
$DELOBJ
 70
     1
  9
$DISPSILH
 70
     0
  9
$DIMSCALE
 40
1.0
  9
$DIMASZ
 40
2.5
  9
$DIMEXO
 40
0.0
  9
$DIMDLI
 40
3.75
  9
$DIMRND
 40
0.0
  9
$DIMDLE
 40
0.0
  9
$DIMEXE
 40
1.0
  9
$DIMTP
 40
0.0
  9
$DIMTM
 40
0.0
  9
$DIMTXT
 40
3.5
  9
$DIMCEN
 40
2.5
  9
$DIMTSZ
 40
0.0
  9
$DIMTOL
 70
     0
  9
$DIMLIM
 70
     0
  9
$DIMTIH
 70
     1
  9
$DIMTOH
 70
     1
  9
$DIMSE1
 70
     0
  9
$DIMSE2
 70
     0
  9
$DIMTAD
 70
     1
  9
$DIMZIN
 70
     0
  9
$DIMBLK
  1

  9
$DIMASO
 70
     1
  9
$DIMSHO
 70
     1
  9
$DIMPOST
  1

  9
$DIMAPOST
  1

  9
$DIMALT
 70
     0
  9
$DIMALTD
 70
     3
  9
$DIMALTF
 40
0.0393700787
  9
$DIMLFAC
 40
0.5
  9
$DIMTOFL
 70
     1
  9
$DIMTVP
 40
0.0
  9
$DIMTIX
 70
     0
  9
$DIMSOXD
 70
     0
  9
$DIMSAH
 70
     0
  9
$DIMBLK1
  1

  9
$DIMBLK2
  1

  9
$DIMSTYLE
  2
ISO-25
  9
$DIMCLRD
 70
     0
  9
$DIMCLRE
 70
     0
  9
$DIMCLRT
 70
     0
  9
$DIMTFAC
 40
1.0
  9
$DIMGAP
 40
1.5
  9
$DIMJUST
 70
     0
  9
$DIMSD1
 70
     0
  9
$DIMSD2
 70
     0
  9
$DIMTOLJ
 70
     0
  9
$DIMTZIN
 70
     0
  9
$DIMALTZ
 70
     0
  9
$DIMALTTZ
 70
     0
  9
$DIMFIT
 70
     3
  9
$DIMUPT
 70
     0
  9
$DIMUNIT
 70
     2
  9
$DIMDEC
 70
     2
  9
$DIMTDEC
 70
     2
  9
$DIMALTU
 70
     2
  9
$DIMALTTD
 70
     3
  9
$DIMTXSTY
  7
STANDARD
  9
$DIMAUNIT
 70
     0
  9
$LUNITS
 70
     2
  9
$LUPREC
 70
     2
  9
$SKETCHINC
 40
1.0
  9
$FILLETRAD
 40
10.0
  9
$AUNITS
 70
     0
  9
$AUPREC
 70
     2
  9
$MENU
  1
.
  9
$ELEVATION
 40
0.0
  9
$PELEVATION
 40
0.0
  9
$THICKNESS
 40
0.0
  9
$LIMCHECK
 70
     0
  9
$CHAMFERA
 40
10.0
  9
$CHAMFERB
 40
10.0
  9
$CHAMFERC
 40
20.0
  9
$CHAMFERD
 40
0.0
  9
$SKPOLY
 70
     0
  9
$TDCREATE
 40
2456457.450930405
  9
$TDUPDATE
 40
2456457.450930949
  9
$TDINDWG
 40
0.0000000116
  9
$TDUSRTIMER
 40
0.0000000116
  9
$USRTIMER
 70
     1
  9
$ANGBASE
 50
0.0
  9
$ANGDIR
 70
     0
  9
$PDMODE
 70
     0
  9
$PDSIZE
 40
-1.0
  9
$PLINEWID
 40
0.0
  9
$COORDS
 70
     1
  9
$SPLFRAME
 70
     0
  9
$SPLINETYPE
 70
     6
  9
$SPLINESEGS
 70
     8
  9
$ATTDIA
 70
     0
  9
$ATTREQ
 70
     1
  9
$HANDLING
 70
     1
  9
$HANDSEED
  5
F2
  9
$SURFTAB1
 70
     6
  9
$SURFTAB2
 70
     6
  9
$SURFTYPE
 70
     6
  9
$SURFU
 70
     6
  9
$SURFV
 70
     6
  9
$UCSNAME
  2

  9
$UCSORG
 10
0.0
 20
0.0
 30
0.0
  9
$UCSXDIR
 10
1.0
 20
0.0
 30
0.0
  9
$UCSYDIR
 10
0.0
 20
1.0
 30
0.0
  9
$PUCSNAME
  2

  9
$PUCSORG
 10
0.0
 20
0.0
 30
0.0
  9
$PUCSXDIR
 10
1.0
 20
0.0
 30
0.0
  9
$PUCSYDIR
 10
0.0
 20
1.0
 30
0.0
  9
$USERI1
 70
     0
  9
$USERI2
 70
     0
  9
$USERI3
 70
     0
  9
$USERI4
 70
     0
  9
$USERI5
 70
     0
  9
$USERR1
 40
0.0
  9
$USERR2
 40
0.0
  9
$USERR3
 40
0.0
  9
$USERR4
 40
0.0
  9
$USERR5
 40
0.0
  9
$WORLDVIEW
 70
     1
  9
$SHADEDGE
 70
     3
  9
$SHADEDIF
 70
    70
  9
$TILEMODE
 70
     1
  9
$MAXACTVP
 70
    64
  9
$PINSBASE
 10
0.0
 20
0.0
 30
0.0
  9
$PLIMCHECK
 70
     0
  9
$PEXTMIN
 10
1.0000000000E+20
 20
1.0000000000E+20
 30
1.0000000000E+20
  9
$PEXTMAX
 10
-1.0000000000E+20
 20
-1.0000000000E+20
 30
-1.0000000000E+20
  9
$PLIMMIN
 10
0.0
 20
0.0
  9
$PLIMMAX
 10
420.0
 20
297.0
  9
$UNITMODE
 70
     0
  9
$VISRETAIN
 70
     1
  9
$PLINEGEN
 70
     0
  9
$PSLTSCALE
 70
     1
  9
$TREEDEPTH
 70
  3020
  9
$PICKSTYLE
 70
     1
  9
$CMLSTYLE
  2
STANDARD
  9
$CMLJUST
 70
     0
  9
$CMLSCALE
 40
20.0
  9
$PROXYGRAPHICS
 70
     1
  9
$MEASUREMENT
 70
     1
  0
ENDSEC
  0
SECTION
  2
CLASSES
  0
CLASS
  1
ACDBDICTIONARYWDFLT
  2
AcDbDictionaryWithDefault
  3
ObjectDBX Classes
 90
        0
280
     0
281
     0
  0
CLASS
  1
VISUALSTYLE
  2
AcDbVisualStyle
  3
ObjectDBX Classes
 90
     4095
280
     0
281
     0
  0
CLASS
  1
MATERIAL
  2
AcDbMaterial
  3
ObjectDBX Classes
 90
     1153
280
     0
281
     0
  0
CLASS
  1
XRECORD
  2
AcDbXrecord
  3
AutoCAD 2000
 90
        0
280
     0
281
     0
  0
CLASS
  1
LWPOLYLINE
  2
AcDbPolyline
  3
AutoCAD 2000
 90
        0
280
     0
281
     1
  0
CLASS
  1
HATCH
  2
AcDbHatch
  3
AutoCAD 2000
 90
        0
280
     0
281
     1
  0
ENDSEC
  0
SECTION
  2
TABLES
  0
TABLE
  2
VPORT
  5
8
330
0
100
AcDbSymbolTable
 70
     1
  0
VPORT
  5
29
330
8
100
AcDbSymbolTableRecord
100
AcDbViewportTableRecord
  2
*ACTIVE
 70
     0
 10
0.0
 20
0.0
 11
1.0
 21
1.0
 12
297.0
 22
420.5
 13
0.0
 23
0.0
 14
10.0
 24
10.0
 15
10.0
 25
10.0
 16
0.0
 26
0.0
 36
1.0
 17
0.0
 27
0.0
 37
0.0
 40
841.0
 41
0.7063020214
 42
50.0
 43
0.0
 44
0.0
 50
0.0
 51
0.0
 71
     0
 72
  2000
 73
     1
 74
     3
 75
     0
 76
     0
 77
     0
 78
     0
  0
ENDTAB
  0
TABLE
  2
LTYPE
  5
5
330
0
100
AcDbSymbolTable
 70
     6
  0
LTYPE
  5
14
330
5
100
AcDbSymbolTableRecord
100
AcDbLinetypeTableRecord
  2
BYBLOCK
 70
     0
  3

 72
    65
 73
     0
 40
0.0
  0
LTYPE
  5
15
330
5
100
AcDbSymbolTableRecord
100
AcDbLinetypeTableRecord
  2
BYLAYER
 70
     0
  3

 72
    65
 73
     0
 40
0.0
  0
LTYPE
  5
16
330
5
100
AcDbSymbolTableRecord
100
AcDbLinetypeTableRecord
  2
CONTINUOUS
 70
     0
  3
Solid line
 72
    65
 73
     0
 40
0.0
  0
LTYPE
  5
3F
330
5
100
AcDbSymbolTableRecord
100
AcDbLinetypeTableRecord
  2
HIDDEN
 70
     0
  3
Hidden __ __ __ __ __ __ __ __ __ __ __ __ __ __
 72
    65
 73
     2
 40
1.905
 49
1.27
 74
     0
 49
-0.635
 74
     0
  0
LTYPE
  5
40
330
5
100
AcDbSymbolTableRecord
100
AcDbLinetypeTableRecord
  2
PHANTOM
 70
     0
  3
Phantom ______  __  __  ______  __  __  ______
 72
    65
 73
     6
 40
12.7
 49
6.35
 74
     0
 49
-1.27
 74
     0
 49
1.27
 74
     0
 49
-1.27
 74
     0
 49
1.27
 74
     0
 49
-1.27
 74
     0
  0
LTYPE
  5
41
330
5
100
AcDbSymbolTableRecord
100
AcDbLinetypeTableRecord
  2
CENTER
 70
     0
  3
Center ____ _ ____ _ ____ _ ____ _ ____ _ ____
 72
    65
 73
     4
 40
10.16
 49
6.35
 74
     0
 49
-1.27
 74
     0
 49
1.27
 74
     0
 49
-1.27
 74
     0
  0
LTYPE
  5
42
330
5
100
AcDbSymbolTableRecord
100
AcDbLinetypeTableRecord
  2
CENTERX2
 70
     0
  3
Center (2x) ________  __  ________  __  _____
 72
    65
 73
     4
 40
20.32
 49
12.7
 74
     0
 49
-2.54
 74
     0
 49
2.54
 74
     0
 49
-2.54
 74
     0
  0
LTYPE
  5
43
330
5
100
AcDbSymbolTableRecord
100
AcDbLinetypeTableRecord
  2
DOT2
 70
     0
  3
Dot (.5x) ........................................
 72
    65
 73
     2
 40
0.635
 49
0.0
 74
     0
 49
-0.635
 74
     0
  0
ENDTAB
  0
TABLE
  2
LAYER
  5
2
330
0
100
AcDbSymbolTable
 70
     1
  0
LAYER
  5
10
330
2
100
AcDbSymbolTableRecord
100
AcDbLayerTableRecord
  2
0
 70
     0
 62
     7
  6
CONTINUOUS
  0
ENDTAB
  0
TABLE
  2
STYLE
  5
3
330
0
100
AcDbSymbolTable
 70
     4
  0
STYLE
  5
11
330
3
100
AcDbSymbolTableRecord
100
AcDbTextStyleTableRecord
  2
STANDARD
 70
     0
 40
0.0
 41
1.0
 50
0.0
 71
     0
 42
10.0
  3
txt
  4

  0
STYLE
  5
47
330
3
100
AcDbSymbolTableRecord
100
AcDbTextStyleTableRecord
  2
SLDTEXTSTYLE0
 70
     0
 40
0.0
 41
0.96
 50
0.0
 71
     0
 42
0.2
  3
ISOCP3
  4

  0
STYLE
  5
5E
330
3
100
AcDbSymbolTableRecord
100
AcDbTextStyleTableRecord
  2
SLDTEXTSTYLE1
 70
     0
 40
0.0
 41
0.575
 50
0.0
 71
     0
 42
0.2
  3
TXT
  4

  0
STYLE
  5
60
330
3
100
AcDbSymbolTableRecord
100
AcDbTextStyleTableRecord
  2
SLDTEXTSTYLE2
 70
     0
 40
0.0
 41
0.605
 50
0.0
 71
     0
 42
0.2
  3
TXT
  4

  0
ENDTAB
  0
TABLE
  2
VIEW
  5
6
330
0
100
AcDbSymbolTable
 70
     0
  0
ENDTAB
  0
TABLE
  2
UCS
  5
7
330
0
100
AcDbSymbolTable
 70
     0
  0
ENDTAB
  0
TABLE
  2
APPID
  5
9
330
0
100
AcDbSymbolTable
 70
     1
  0
APPID
  5
12
330
9
100
AcDbSymbolTableRecord
100
AcDbRegAppTableRecord
  2
ACAD
 70
     0
  0
ENDTAB
  0
TABLE
  2
DIMSTYLE
  5
A
330
0
100
AcDbSymbolTable
 70
     2
  0
DIMSTYLE
105
27
330
A
100
AcDbSymbolTableRecord
100
AcDbDimStyleTableRecord
  2
ISO-25
 70
     0
  3

  4

  5

  6

  7

 40
1.0
 41
2.5
 42
0.625
 43
3.75
 44
1.25
 45
0.0
 46
0.0
 47
0.0
 48
0.0
140
2.5
141
2.5
142
0.0
143
0.0393700787
144
1.0
145
0.0
146
1.0
147
0.625
 71
     0
 72
     0
 73
     0
 74
     0
 75
     0
 76
     0
 77
     1
 78
     8
170
     0
171
     3
172
     1
173
     0
174
     0
175
     0
176
     0
177
     0
178
     0
270
     2
271
     2
272
     2
273
     2
274
     3
340
11
275
     0
280
     0
281
     0
282
     0
283
     0
284
     8
285
     0
286
     0
287
     3
288
     0
  0
DIMSTYLE
105
48
102
{ACAD_REACTORS
330
46
330
53
102
}
330
A
100
AcDbSymbolTableRecord
100
AcDbDimStyleTableRecord
  2
SLDDIMSTYLE0
 70
     0
  3

  4

  5

  6

  7

 40
1.0
 41
2.5
 42
0.0625
 43
0.38
 44
0.0
 45
0.000000001
 46
0.0
 47
0.0
 48
0.0
140
6.0
141
0.09
142
0.0
143
25.4
144
0.5
145
0.0
146
1.0
147
1.5
 71
     0
 72
     0
 73
     0
 74
     0
 75
     0
 76
     0
 77
     1
 78
    12
170
     0
171
     2
172
     0
173
     1
174
     0
175
     0
176
     0
177
     0
178
     0
270
     2
271
     2
272
     2
273
     2
274
     2
340
47
275
     0
280
     0
281
     0
282
     0
283
     1
284
    12
285
     0
286
     0
287
     3
288
     0
  0
ENDTAB
  0
TABLE
  2
BLOCK_RECORD
  5
1
330
0
100
AcDbSymbolTable
 70
     3
  0
BLOCK_RECORD
  5
1F
330
1
100
AcDbSymbolTableRecord
100
AcDbBlockTableRecord
  2
*MODEL_SPACE
  0
BLOCK_RECORD
  5
1B
330
1
100
AcDbSymbolTableRecord
100
AcDbBlockTableRecord
  2
*PAPER_SPACE
  0
BLOCK_RECORD
  5
23
330
1
100
AcDbSymbolTableRecord
100
AcDbBlockTableRecord
  2
*PAPER_SPACE0
  0
BLOCK_RECORD
  5
49
330
1
100
AcDbSymbolTableRecord
100
AcDbBlockTableRecord
  2
_D
  0
BLOCK_RECORD
  5
54
330
1
100
AcDbSymbolTableRecord
100
AcDbBlockTableRecord
  2
_D_1
  0
ENDTAB
  0
ENDSEC
  0
SECTION
  2
BLOCKS
  0
BLOCK
  5
20
330
1F
100
AcDbEntity
  8
0
100
AcDbBlockBegin
  2
*MODEL_SPACE
 70
     0
 10
0.0
 20
0.0
 30
0.0
  3
*MODEL_SPACE
  1

  0
ENDBLK
  5
21
330
1F
100
AcDbEntity
  8
0
100
AcDbBlockEnd
  0
BLOCK
  5
1C
330
1B
100
AcDbEntity
 67
     1
  8
0
100
AcDbBlockBegin
  2
*PAPER_SPACE
 70
     0
 10
0.0
 20
0.0
 30
0.0
  3
*PAPER_SPACE
  1

  0
ENDBLK
  5
1D
330
1B
100
AcDbEntity
 67
     1
  8
0
100
AcDbBlockEnd
  0
BLOCK
  5
24
330
23
100
AcDbEntity
  8
0
100
AcDbBlockBegin
  2
*PAPER_SPACE0
 70
     0
 10
0.0
 20
0.0
 30
0.0
  3
*PAPER_SPACE0
  1

  0
ENDBLK
  5
25
330
23
100
AcDbEntity
  8
0
100
AcDbBlockEnd
  0
BLOCK
  5
4A
330
49
100
AcDbEntity
  8
0
100
AcDbBlockBegin
  2
_D
 70
     0
 10
0.0
 20
0.0
 30
0.0
  3
_D
  1

  0
SOLID
  5
4C
330
49
100
AcDbEntity
  8
0
  6
CONTINUOUS
 62
     7
100
AcDbTrace
 10
42.7614395004
 20
152.0299240879
 30
0.0
 11
42.4614395004
 21
149.5299240879
 31
0.0
 12
43.0614395004
 22
149.5299240879
 32
0.0
 13
43.0614395004
 23
149.5299240879
 33
0.0
  0
SOLID
  5
4D
330
49
100
AcDbEntity
  8
0
  6
CONTINUOUS
 62
     7
100
AcDbTrace
 10
42.7614395004
 20
52.0299240879
 30
0.0
 11
43.0614395004
 21
54.5299240879
 31
0.0
 12
42.4614395004
 22
54.5299240879
 32
0.0
 13
42.4614395004
 23
54.5299240879
 33
0.0
  0
LINE
  5
4E
330
49
100
AcDbEntity
  8
0
  6
CONTINUOUS
 62
     7
100
AcDbLine
 10
56.6850079902
 20
152.0299240879
 30
0.0
 11
41.7614395004
 21
152.0299240879
 31
0.0
  0
LINE
  5
4F
330
49
100
AcDbEntity
  8
0
  6
CONTINUOUS
 62
     7
100
AcDbLine
 10
56.6850079902
 20
52.0299240879
 30
0.0
 11
41.7614395004
 21
52.0299240879
 31
0.0
  0
LINE
  5
50
330
49
100
AcDbEntity
  8
0
  6
CONTINUOUS
 62
     7
100
AcDbLine
 10
42.7614395004
 20
152.0299240879
 30
0.0
 11
42.7614395004
 21
52.0299240879
 31
0.0
  0
MTEXT
  5
51
330
49
100
AcDbEntity
  8
0
  6
CONTINUOUS
 62
     7
100
AcDbMText
 10
35.0270329453
 20
91.6722208134
 30
0.1
 40
6.0
 41
0.0
 71
     1
 72
     1
  1
100
  7
SLDTEXTSTYLE0
 11
-7.044195017643634E-15
 21
1.0
 31
0.0
  0
MTEXT
  5
52
330
49
100
AcDbEntity
  8
0
  6
CONTINUOUS
 62
     7
100
AcDbMText
 10
35.0270329453
 20
108.4388881795
 30
0.1
 40
6.0
 41
0.0
 71
     1
 72
     1
  1
mm
  7
SLDTEXTSTYLE0
 11
-7.044195017643634E-15
 21
1.0
 31
0.0
  0
ENDBLK
  5
4B
330
49
100
AcDbEntity
  8
0
100
AcDbBlockEnd
  0
BLOCK
  5
55
330
54
100
AcDbEntity
  8
0
100
AcDbBlockBegin
  2
_D_1
 70
     0
 10
0.0
 20
0.0
 30
0.0
  3
_D_1
  1

  0
SOLID
  5
57
330
54
100
AcDbEntity
  8
0
  6
CONTINUOUS
 62
     7
100
AcDbTrace
 10
56.6850079902
 20
38.4602342313
 30
0.0
 11
59.1850079902
 21
38.1602342313
 31
0.0
 12
59.1850079902
 22
38.7602342313
 32
0.0
 13
59.1850079902
 23
38.7602342313
 33
0.0
  0
SOLID
  5
58
330
54
100
AcDbEntity
  8
0
  6
CONTINUOUS
 62
     7
100
AcDbTrace
 10
156.6850079902
 20
38.4602342313
 30
0.0
 11
154.1850079902
 21
38.7602342313
 31
0.0
 12
154.1850079902
 22
38.1602342313
 32
0.0
 13
154.1850079902
 23
38.1602342313
 33
0.0
  0
LINE
  5
59
330
54
100
AcDbEntity
  8
0
  6
CONTINUOUS
 62
     7
100
AcDbLine
 10
56.6850079902
 20
52.0299240879
 30
0.0
 11
56.6850079902
 21
37.4602342313
 31
0.0
  0
LINE
  5
5A
330
54
100
AcDbEntity
  8
0
  6
CONTINUOUS
 62
     7
100
AcDbLine
 10
156.6850079902
 20
52.0299240879
 30
0.0
 11
156.6850079902
 21
37.4602342313
 31
0.0
  0
LINE
  5
5B
330
54
100
AcDbEntity
  8
0
  6
CONTINUOUS
 62
     7
100
AcDbLine
 10
56.6850079902
 20
38.4602342313
 30
0.0
 11
156.6850079902
 21
38.4602342313
 31
0.0
  0
MTEXT
  5
5C
330
54
100
AcDbEntity
  8
0
  6
CONTINUOUS
 62
     7
100
AcDbMText
 10
91.2668151533
 20
46.1946407863
 30
0.1
 40
6.0
 41
0.0
 71
     1
 72
     1
  1
100
  7
SLDTEXTSTYLE0
  0
MTEXT
  5
5D
330
54
100
AcDbEntity
  8
0
  6
CONTINUOUS
 62
     7
100
AcDbMText
 10
108.0334825193
 20
46.1946407863
 30
0.1
 40
6.0
 41
0.0
 71
     1
 72
     1
  1
mm
  7
SLDTEXTSTYLE0
  0
ENDBLK
  5
56
330
54
100
AcDbEntity
  8
0
100
AcDbBlockEnd
  0
ENDSEC
  0
SECTION
  2
ENTITIES
  0
LINE
  5
44
330
1F
100
AcDbEntity
  8
0
  6
CONTINUOUS
 62
     7
100
AcDbLine
 10
56.6850079902
 20
152.0299240879
 30
0.0
 11
56.6850079902
 21
52.0299240879
 31
0.0
  0
LINE
  5
45
330
1F
100
AcDbEntity
  8
0
  6
CONTINUOUS
 62
     7
100
AcDbLine
 10
56.6850079902
 20
52.0299240879
 30
0.0
 11
156.6850079902
 21
52.0299240879
 31
0.0
  0
DIMENSION
  5
46
330
1F
100
AcDbEntity
  8
0
  6
CONTINUOUS
 62
     7
100
AcDbDimension
  2
_D
 10
42.7614395004
 20
52.0299240879
 30
0.0
 11
42.7614395004
 21
105.4472211621
 31
0.0
 70
   160
  1
<>mm
  3
SLDDIMSTYLE0
100
AcDbAlignedDimension
 13
56.6850079902
 23
152.0299240879
 33
0.0
 14
56.6850079902
 24
52.0299240879
 34
0.0
 50
90.0
100
AcDbRotatedDimension
  0
DIMENSION
  5
53
330
1F
100
AcDbEntity
  8
0
  6
CONTINUOUS
 62
     7
100
AcDbDimension
  2
_D_1
 10
156.6850079902
 20
38.4602342313
 30
0.0
 11
105.0418155019
 21
38.4602342313
 31
0.0
 70
   160
  1
<>mm
  3
SLDDIMSTYLE0
100
AcDbAlignedDimension
 13
56.6850079902
 23
52.0299240879
 33
0.0
 14
156.6850079902
 24
52.0299240879
 34
0.0
100
AcDbRotatedDimension
  0
MTEXT
  5
5F
330
1F
100
AcDbEntity
  8
0
  6
CONTINUOUS
 62
     7
100
AcDbMText
 10
222.8856995391
 20
49.3034557666
 30
0.0
 40
10.0
 41
0.0
 71
     1
 72
     1
  1
63 050 05 - 00
  7
SLDTEXTSTYLE1
  0
MTEXT
  5
61
330
1F
100
AcDbEntity
  8
0
  6
CONTINUOUS
 62
     7
100
AcDbMText
 10
412.8252631579
 20
48.4342449499
 30
0.0
 40
10.0
 41
0.0
 71
     1
 72
     1
  1
KLUDI GmbH & Co KG
  7
SLDTEXTSTYLE2
  0
SPLINE
  5
62
330
1F
100
AcDbEntity
  8
0
  6
CONTINUOUS
 62
     7
100
AcDbSpline
210
0.0
220
0.0
230
1.0
 70
     8
 71
     3
 72
     9
 73
     5
 74
     0
 42
0.00000001
 43
0.00000001
 12
1.0
 22
0.0
 32
0.0
 13
1.0
 23
0.0
 33
0.0
 40
0.0
 40
0.0
 40
0.0
 40
0.0
 40
0.2125687628653515
 40
0.9999999999999999
 40
0.9999999999999999
 40
0.9999999999999999
 40
0.9999999999999999
 10
225.9490901167987
 20
376.9800025604966
 30
0.0
 10
225.9501233862179
 20
376.9795812987064
 30
0.0
 10
225.9549842576144
 20
376.9775995315617
 30
0.0
 10
225.9428946860042
 20
376.9831403886
 30
0.0
 10
225.9333749796747
 20
376.9875034325125
 30
0.0
  0
SPLINE
  5
63
330
1F
100
AcDbEntity
  8
0
  6
CONTINUOUS
 62
     7
100
AcDbSpline
210
0.0
220
0.0
230
1.0
 70
     8
 71
     3
 72
     9
 73
     5
 74
     0
 42
0.00000001
 43
0.00000001
 12
1.0
 22
0.0
 32
0.0
 13
1.0
 23
0.0
 33
0.0
 40
0.0
 40
0.0
 40
0.0
 40
0.0
 40
0.5722263033486138
 40
1.0
 40
1.0
 40
1.0
 40
1.0
 10
201.0011963109969
 20
377.0022313677075
 30
0.0
 10
200.9853576460629
 20
376.9945020877844
 30
0.0
 10
200.9576786231985
 20
376.9809947046427
 30
0.0
 10
200.9592152629652
 20
376.9817987782386
 30
0.0
 10
200.9598725970386
 20
376.9821427397731
 30
0.0
  0
LWPOLYLINE
  5
64
330
1F
100
AcDbEntity
  8
0
  6
CONTINUOUS
 62
     7
100
AcDbPolyline
 90
       16
 70
   128
 43
0.0
 10
222.4024377327
 20
338.4384434305
 10
222.4018193345
 20
340.852798485
 10
222.4002435367
 20
343.2976739116
 10
222.3977149959
 20
345.7684708394
 10
222.3942383687
 20
348.2605429001
 10
222.3898192431
 20
350.7692032129
 10
222.384466001
 20
353.2897336975
 10
222.3781898181
 20
355.8173948534
 10
222.3710018705
 20
358.3474322789
 10
222.3629151966
 20
360.8750880797
 10
222.3539446976
 20
363.3956085526
 10
222.3441089998
 20
365.9042534985
 10
222.3334248673
 20
368.3963050701
 10
222.3219137202
 20
370.8670768522
 10
222.3095960479
 20
373.3119215451
 10
222.2964960645
 20
375.7262412094
  0
LWPOLYLINE
  5
65
330
1F
100
AcDbEntity
  8
0
  6
CONTINUOUS
 62
     7
100
AcDbPolyline
 90
       16
 70
   128
 43
0.0
 10
204.6073164355
 20
375.7262412094
 10
204.5942164521
 20
373.3119215451
 10
204.5818987797
 20
370.8670768522
 10
204.5703876327
 20
368.3963050701
 10
204.5597035002
 20
365.9042534985
 10
204.5498678024
 20
363.3956085526
 10
204.5408973034
 20
360.8750880797
 10
204.5328106295
 20
358.3474322789
 10
204.5256226819
 20
355.8173948534
 10
204.519346499
 20
353.2897336975
 10
204.5139932569
 20
350.7692032129
 10
204.5095741313
 20
348.2605429001
 10
204.5060975041
 20
345.7684708394
 10
204.5035689633
 20
343.2976739116
 10
204.5019931655
 20
340.852798485
 10
204.5013747673
 20
338.4384434305
  0
SPLINE
  5
66
330
1F
100
AcDbEntity
  8
0
  6
CONTINUOUS
 62
     7
100
AcDbSpline
210
0.0
220
0.0
230
1.0
 70
     8
 71
     3
 72
    20
 73
    16
 74
     0
 42
0.00000001
 43
0.00000001
 12
1.0
 22
0.0
 32
0.0
 13
1.0
 23
0.0
 33
0.0
 40
0.0
 40
0.0
 40
0.0
 40
0.0
 40
0.2499999999999999
 40
0.2499999999999999
 40
0.4999999999999998
 40
0.4999999999999998
 40
0.6249999999999998
 40
0.6249999999999998
 40
0.7499999999999999
 40
0.7499999999999999
 40
0.8749999999999999
 40
0.8749999999999999
 40
0.9375
 40
0.9375
 40
1.0
 40
1.0
 40
1.0
 40
1.0
 10
222.2646162727613
 20
377.2127749255078
 30
0.0
 10
222.2618263778592
 20
373.6329733920694
 30
0.0
 10
222.2589313322619
 20
370.0581481382895
 30
0.0
 10
222.2528114657846
 20
362.9241043181594
 30
0.0
 10
222.2495919106616
 20
359.364636548705
 30
0.0
 10
222.244324239516
 20
354.0461793581287
 30
0.0
 10
222.2424941052876
 20
352.2768739008887
 30
0.0
 10
222.2386131769596
 20
348.7487057631017
 30
0.0
 10
222.2365648697183
 20
346.989725391448
 30
0.0
 10
222.2321046828816
 20
343.4889707893601
 30
0.0
 10
222.2297060808672
 20
341.7482277628498
 30
0.0
 10
222.2255603395138
 20
339.1684699336853
 30
0.0
 10
222.2240860747934
 20
338.3138354663673
 30
0.0
 10
222.2208098476503
 20
336.6233191277009
 30
0.0
 10
222.2190245524324
 20
335.7864834707311
 30
0.0
 10
222.2168626992618
 20
334.9711964517241
 30
0.0
  0
SPLINE
  5
67
330
1F
100
AcDbEntity
  8
0
  6
CONTINUOUS
 62
     7
100
AcDbSpline
210
0.0
220
0.0
230
1.0
 70
     8
 71
     3
 72
    20
 73
    16
 74
     0
 42
0.00000001
 43
0.00000001
 12
1.0
 22
0.0
 32
0.0
 13
1.0
 23
0.0
 33
0.0
 40
0.0
 40
0.0
 40
0.0
 40
0.0
 40
0.0625000000000001
 40
0.0625000000000001
 40
0.1250000000000002
 40
0.1250000000000002
 40
0.2500000000000001
 40
0.2500000000000001
 40
0.375
 40
0.375
 40
0.5
 40
0.5
 40
0.7499999999999999
 40
0.7499999999999999
 40
1.0
 40
1.0
 40
1.0
 40
1.0
 10
204.6869498007379
 20
334.9711964517207
 30
0.0
 10
204.6847876161879
 20
335.7866084418958
 30
0.0
 10
204.6830018656393
 20
336.6236762698182
 30
0.0
 10
204.6797247519127
 20
338.3147477101861
 30
0.0
 10
204.6782500379592
 20
339.1697091343653
 30
0.0
 10
204.6741029762664
 20
341.750533526903
 30
0.0
 10
204.6717028998889
 20
343.4926487889933
 30
0.0
 10
204.667244754831
 20
346.9921641031466
 30
0.0
 10
204.6651970932878
 20
348.7506688587808
 30
0.0
 10
204.6613171564438
 20
352.278063654522
 30
0.0
 10
204.6594873556434
 20
354.0470730076792
 30
0.0
 10
204.6542204385341
 20
359.3648286466728
 30
0.0
 10
204.6510010642006
 20
362.924073803425
 30
0.0
 10
204.6448813370021
 20
370.0579463839725
 30
0.0
 10
204.6419862361942
 20
373.6328270463541
 30
0.0
 10
204.6391962272384
 20
377.2127749255078
 30
0.0
  0
ARC
  5
68
330
1F
100
AcDbEntity
  8
0
  6
CONTINUOUS
 62
     7
100
AcDbCircle
 10
213.45190625
 20
357.0570625
 30
0.0
 40
23.39424998748213
100
AcDbArc
 50
116.0228198419
 51
243.6510665236
  0
SPLINE
  5
69
330
1F
100
AcDbEntity
  8
0
  6
CONTINUOUS
 62
     7
100
AcDbSpline
210
0.0
220
0.0
230
1.0
 70
     8
 71
     3
 72
    20
 73
    16
 74
     0
 42
0.00000001
 43
0.00000001
 12
1.0
 22
0.0
 32
0.0
 13
1.0
 23
0.0
 33
0.0
 40
0.0
 40
0.0
 40
0.0
 40
0.0
 40
0.1249999999999999
 40
0.1249999999999999
 40
0.2499999999999997
 40
0.2499999999999997
 40
0.3749999999999996
 40
0.3749999999999996
 40
0.4999999999999994
 40
0.4999999999999994
 40
0.6249999999999993
 40
0.6249999999999993
 40
0.7499999999999991
 40
0.7499999999999991
 40
1.0
 40
1.0
 40
1.0
 40
1.0
 10
203.0688768860652
 20
336.0931975486414
 30
0.0
 10
203.1453087047442
 20
336.0553422188652
 30
0.0
 10
203.2248707687534
 20
336.0279166646141
 30
0.0
 10
203.390053813791
 20
335.9932718801459
 30
0.0
 10
203.4757392448605
 20
335.9864518094923
 30
0.0
 10
203.6437292355423
 20
335.9943534035913
 30
0.0
 10
203.7284163101066
 20
336.0091917858804
 30
0.0
 10
203.8895913096645
 20
336.0591811066494
 30
0.0
 10
203.9662815401697
 20
336.0939808070272
 30
0.0
 10
204.1113216433252
 20
336.1836861173675
 30
0.0
 10
204.1766606518024
 20
336.2367138912423
 30
0.0
 10
204.2934121333109
 20
336.3586233782476
 30
0.0
 10
204.3444879000152
 20
336.4277313502947
 30
0.0
 10
204.4676496795876
 20
336.6478718113607
 30
0.0
 10
204.512363937373
 20
336.8183371765256
 30
0.0
 10
204.5128592210765
 20
336.9865239447233
 30
0.0
  0
ARC
  5
6A
330
1F
100
AcDbEntity
  8
0
  6
CONTINUOUS
 62
     7
100
AcDbCircle
 10
213.45190625
 20
357.0570625
 30
0.0
 40
23.39424998748213
100
AcDbArc
 50
296.3489334764
 51
63.9771801581
  0
SPLINE
  5
6B
330
1F
100
AcDbEntity
  8
0
  6
CONTINUOUS
 62
     7
100
AcDbSpline
210
0.0
220
0.0
230
1.0
 70
     8
 71
     3
 72
    20
 73
    16
 74
     0
 42
0.00000001
 43
0.00000001
 12
1.0
 22
0.0
 32
0.0
 13
1.0
 23
0.0
 33
0.0
 40
0.0
 40
0.0
 40
0.0
 40
0.0
 40
0.1249999999999998
 40
0.1249999999999998
 40
0.2499999999999997
 40
0.2499999999999997
 40
0.3749999999999995
 40
0.3749999999999995
 40
0.4999999999999993
 40
0.4999999999999993
 40
0.6249999999999991
 40
0.6249999999999991
 40
0.749999999999999
 40
0.749999999999999
 40
1.0
 40
1.0
 40
1.0
 40
1.0
 10
223.7154232016417
 20
378.0796967523152
 30
0.0
 10
223.6387896299032
 20
378.117087901644
 30
0.0
 10
223.5590911647524
 20
378.1440322953216
 30
0.0
 10
223.3937584281453
 20
378.1776890476264
 30
0.0
 10
223.3080575824804
 20
378.18400229896
 30
0.0
 10
223.1401644987087
 20
378.1751173712474
 30
0.0
 10
223.0555908018372
 20
378.1597895486801
 30
0.0
 10
222.8947455002635
 20
378.1088760300347
 30
0.0
 10
222.8182856008632
 20
378.0736470405469
 30
0.0
 10
222.673789374985
 20
377.9831257899886
 30
0.0
 10
222.6087694614866
 20
377.9297361256531
 30
0.0
 10
222.4927443453564
 20
377.8071953847772
 30
0.0
 10
222.442070149964
 20
377.7378114880328
 30
0.0
 10
222.3201830164787
 20
377.5170288957884
 30
0.0
 10
222.2764267734865
 20
377.3462989897524
 30
0.0
 10
222.2768883542405
 20
377.1781429620788
 30
0.0
  0
SPLINE
  5
6C
330
1F
100
AcDbEntity
  8
0
  6
CONTINUOUS
 62
     7
100
AcDbSpline
210
0.0
220
0.0
230
1.0
 70
     8
 71
     3
 72
     8
 73
     4
 74
     0
 42
0.00000001
 43
0.00000001
 12
1.0
 22
0.0
 32
0.0
 13
1.0
 23
0.0
 33
0.0
 40
0.0
 40
0.0
 40
0.0
 40
0.0
 40
0.0000002458549155
 40
0.0000002458549155
 40
0.0000002458549155
 40
0.0000002458549155
 10
223.7154232016417
 20
378.0796967523152
 30
0.0
 10
223.7154968471155
 20
378.0796608191224
 30
0.0
 10
223.71557049654
 20
378.0796248727899
 30
0.0
 10
223.7156441398706
 20
378.0795889182224
 30
0.0
  0
SPLINE
  5
6D
330
1F
100
AcDbEntity
  8
0
  6
CONTINUOUS
 62
     7
100
AcDbSpline
210
0.0
220
0.0
230
1.0
 70
     8
 71
     3
 72
    20
 73
    16
 74
     0
 42
0.00000001
 43
0.00000001
 12
1.0
 22
0.0
 32
0.0
 13
1.0
 23
0.0
 33
0.0
 40
0.0
 40
0.0
 40
0.0
 40
0.0
 40
0.125
 40
0.125
 40
0.25
 40
0.25
 40
0.375
 40
0.375
 40
0.5
 40
0.5
 40
0.625
 40
0.625
 40
0.75
 40
0.75
 40
1.0
 40
1.0
 40
1.0
 40
1.0
 10
203.1883892983581
 20
378.0796967523152
 30
0.0
 10
203.2650228701228
 20
378.1170879016568
 30
0.0
 10
203.3447213350821
 20
378.1440322952336
 30
0.0
 10
203.5100540707832
 20
378.1776890474626
 30
0.0
 10
203.595754917023
 20
378.1840022989201
 30
0.0
 10
203.763648000218
 20
378.1751173713703
 30
0.0
 10
203.8482216962392
 20
378.1597895491717
 30
0.0
 10
204.0090669991358
 20
378.1088760303418
 30
0.0
 10
204.0855268960491
 20
378.0736470422605
 30
0.0
 10
204.230023124386
 20
377.9831257906031
 30
0.0
 10
204.2950430380627
 20
377.9297361259848
 30
0.0
 10
204.41106815348
 20
377.8071953861499
 30
0.0
 10
204.4617423496088
 20
377.7378114886746
 30
0.0
 10
204.5836294832781
 20
377.5170288964916
 30
0.0
 10
204.6273857265111
 20
377.3462989891805
 30
0.0
 10
204.6269241457592
 20
377.1781429620829
 30
0.0
  0
SPLINE
  5
6E
330
1F
100
AcDbEntity
  8
0
  6
CONTINUOUS
 62
     7
100
AcDbSpline
210
0.0
220
0.0
230
1.0
 70
     8
 71
     3
 72
     8
 73
     4
 74
     0
 42
0.00000001
 43
0.00000001
 12
1.0
 22
0.0
 32
0.0
 13
1.0
 23
0.0
 33
0.0
 40
0.0
 40
0.0
 40
0.0
 40
0.0
 40
0.0000002458549159
 40
0.0000002458549159
 40
0.0000002458549159
 40
0.0000002458549159
 10
203.1881683601291
 20
378.0795889182222
 30
0.0
 10
203.1882420034597
 20
378.0796248727895
 30
0.0
 10
203.1883156528844
 20
378.0796608191217
 30
0.0
 10
203.1883892983584
 20
378.0796967523146
 30
0.0
  0
SPLINE
  5
6F
330
1F
100
AcDbEntity
  8
0
  6
CONTINUOUS
 62
     7
100
AcDbSpline
210
0.0
220
0.0
230
1.0
 70
     8
 71
     3
 72
    20
 73
    16
 74
     0
 42
0.00000001
 43
0.00000001
 12
1.0
 22
0.0
 32
0.0
 13
1.0
 23
0.0
 33
0.0
 40
0.0
 40
0.0
 40
0.0
 40
0.0
 40
0.1250000000000006
 40
0.1250000000000006
 40
0.2500000000000012
 40
0.2500000000000012
 40
0.3750000000000018
 40
0.3750000000000018
 40
0.5000000000000023
 40
0.5000000000000023
 40
0.6250000000000029
 40
0.6250000000000029
 40
0.7500000000000036
 40
0.7500000000000036
 40
1.0
 40
1.0
 40
1.0
 40
1.0
 10
223.8349356139453
 20
336.0931975486467
 30
0.0
 10
223.7585037952663
 20
336.0553422188694
 30
0.0
 10
223.6789417312569
 20
336.0279166646172
 30
0.0
 10
223.5137586862187
 20
335.9932718801471
 30
0.0
 10
223.4280732551488
 20
335.9864518094926
 30
0.0
 10
223.2600832644659
 20
335.9943534035901
 30
0.0
 10
223.175396189901
 20
336.0091917858787
 30
0.0
 10
223.0142211903418
 20
336.0591811066467
 30
0.0
 10
222.9375309598358
 20
336.0939808070243
 30
0.0
 10
222.7924908566791
 20
336.1836861173641
 30
0.0
 10
222.7271518482011
 20
336.2367138912389
 30
0.0
 10
222.6104003666913
 20
336.3586233782445
 30
0.0
 10
222.5593245999866
 20
336.4277313502917
 30
0.0
 10
222.4361628204127
 20
336.6478718113587
 30
0.0
 10
222.3914485626273
 20
336.8183371765254
 30
0.0
 10
222.3909532789232
 20
336.9865239447234
 30
0.0
  0
SPLINE
  5
70
330
1F
100
AcDbEntity
  8
0
  6
CONTINUOUS
 62
     7
100
AcDbSpline
210
0.0
220
0.0
230
1.0
 70
     8
 71
     3
 72
    12
 73
     8
 74
     0
 42
0.00000001
 43
0.00000001
 12
1.0
 22
0.0
 32
0.0
 13
1.0
 23
0.0
 33
0.0
 40
0.0
 40
0.0
 40
0.0
 40
0.0
 40
0.089919601097092
 40
0.2546979779219799
 40
0.5004591976833698
 40
0.7542534192725164
 40
0.9999999999999999
 40
0.9999999999999999
 40
0.9999999999999999
 40
0.9999999999999999
 10
204.6869498007379
 20
334.9711964517353
 30
0.0
 10
204.6867591095603
 20
334.9696975869548
 30
0.0
 10
204.6862189752987
 20
334.9654520406654
 30
0.0
 10
204.6840144627214
 20
334.9634204004988
 30
0.0
 10
204.6812131865225
 20
334.9609182374772
 30
0.0
 10
204.6778668127346
 20
334.9596800434323
 30
0.0
 10
204.6755417190089
 20
334.9600312759919
 30
0.0
 10
204.6743979008658
 20
334.96020406308
 30
0.0
  0
SPLINE
  5
71
330
1F
100
AcDbEntity
  8
0
  6
CONTINUOUS
 62
     7
100
AcDbSpline
210
0.0
220
0.0
230
1.0
 70
     8
 71
     3
 72
    12
 73
     8
 74
     0
 42
0.00000001
 43
0.00000001
 12
1.0
 22
0.0
 32
0.0
 13
1.0
 23
0.0
 33
0.0
 40
0.0
 40
0.0
 40
0.0
 40
0.0
 40
0.245905722957888
 40
0.4999508482972097
 40
0.7454922955063308
 40
0.9101345749037221
 40
1.0
 40
1.0
 40
1.0
 40
1.0
 10
222.2294145992494
 20
334.9602040631126
 30
0.0
 10
222.2282700576687
 20
334.9600313789372
 30
0.0
 10
222.2259430905397
 20
334.9596802947942
 30
0.0
 10
222.2225959410891
 20
334.9609201263527
 30
0.0
 10
222.2197951549755
 20
334.9634226847003
 30
0.0
 10
222.217592687729
 20
334.9654546608466
 30
0.0
 10
222.2170531924167
 20
334.9696981104456
 30
0.0
 10
222.2168626992618
 20
334.971196451735
 30
0.0
  0
SPLINE
  5
72
330
1F
100
AcDbEntity
  8
0
  6
CONTINUOUS
 62
     7
100
AcDbSpline
210
0.0
220
0.0
230
1.0
 70
     8
 71
     3
 72
     8
 73
     4
 74
     0
 42
0.00000001
 43
0.00000001
 12
1.0
 22
0.0
 32
0.0
 13
1.0
 23
0.0
 33
0.0
 40
0.0
 40
0.0
 40
0.0
 40
0.0
 40
1.0
 40
1.0
 40
1.0
 40
1.0
 10
204.5848820332499
 20
377.5374453995586
 30
0.0
 10
204.6218753756146
 20
377.4290739878345
 30
0.0
 10
204.6391146180704
 20
377.3174902051105
 30
0.0
 10
204.6391962272384
 20
377.2127749255078
 30
0.0
  0
SPLINE
  5
73
330
1F
100
AcDbEntity
  8
0
  6
CONTINUOUS
 62
     7
100
AcDbSpline
210
0.0
220
0.0
230
1.0
 70
     8
 71
     3
 72
    18
 73
    14
 74
     0
 42
0.00000001
 43
0.00000001
 12
1.0
 22
0.0
 32
0.0
 13
1.0
 23
0.0
 33
0.0
 40
0.0
 40
0.0
 40
0.0
 40
0.0
 40
0.1249999999999998
 40
0.1249999999999998
 40
0.2499999999999995
 40
0.2499999999999995
 40
0.4999999999999997
 40
0.4999999999999997
 40
0.7499999999999998
 40
0.7499999999999998
 40
0.8749999999999999
 40
0.8749999999999999
 40
1.0
 40
1.0
 40
1.0
 40
1.0
 10
204.5848820332499
 20
377.5374453995586
 30
0.0
 10
204.5613216298627
 20
377.6064652288753
 30
0.0
 10
204.5307150991002
 20
377.6716313269611
 30
0.0
 10
204.4559294361013
 20
377.7945407200333
 30
0.0
 10
204.4111580579623
 20
377.8526820607954
 30
0.0
 10
204.2624697117085
 20
378.007595355082
 30
0.0
 10
204.1407010523066
 20
378.0885877351074
 30
0.0
 10
203.8787174724417
 20
378.191861383681
 30
0.0
 10
203.738159443534
 20
378.2149667057312
 30
0.0
 10
203.52844362569
 20
378.2054538898524
 30
0.0
 10
203.4597608860566
 20
378.195034132862
 30
0.0
 10
203.3262235652498
 20
378.1606141057765
 30
0.0
 10
203.2599924543561
 20
378.1360183508886
 30
0.0
 10
203.1981727632267
 20
378.1055066598786
 30
0.0
  0
SPLINE
  5
74
330
1F
100
AcDbEntity
  8
0
  6
CONTINUOUS
 62
     7
100
AcDbSpline
210
0.0
220
0.0
230
1.0
 70
     8
 71
     3
 72
     8
 73
     4
 74
     0
 42
0.00000001
 43
0.00000001
 12
1.0
 22
0.0
 32
0.0
 13
1.0
 23
0.0
 33
0.0
 40
0.0
 40
0.0
 40
0.0
 40
0.0
 40
1.0
 40
1.0
 40
1.0
 40
1.0
 10
222.2646162727613
 20
377.2127749255078
 30
0.0
 10
222.2646977715702
 20
377.3173485998366
 30
0.0
 10
222.2819706665351
 20
377.4291722490326
 30
0.0
 10
222.3189304667498
 20
377.5374453995586
 30
0.0
  0
SPLINE
  5
75
330
1F
100
AcDbEntity
  8
0
  6
CONTINUOUS
 62
     7
100
AcDbSpline
210
0.0
220
0.0
230
1.0
 70
     8
 71
     3
 72
    18
 73
    14
 74
     0
 42
0.00000001
 43
0.00000001
 12
1.0
 22
0.0
 32
0.0
 13
1.0
 23
0.0
 33
0.0
 40
0.0
 40
0.0
 40
0.0
 40
0.0
 40
0.1249999999999996
 40
0.1249999999999996
 40
0.2499999999999992
 40
0.2499999999999992
 40
0.4999999999999984
 40
0.4999999999999984
 40
0.7499999999999977
 40
0.7499999999999977
 40
0.8749999999999988
 40
0.8749999999999988
 40
1.0
 40
1.0
 40
1.0
 40
1.0
 10
222.3189304667498
 20
377.5374453995586
 30
0.0
 10
222.342490870137
 20
377.6064652288753
 30
0.0
 10
222.3730974008995
 20
377.671631326961
 30
0.0
 10
222.4478830638983
 20
377.7945407200332
 30
0.0
 10
222.4926544420372
 20
377.8526820607952
 30
0.0
 10
222.641342788291
 20
378.0075953550817
 30
0.0
 10
222.7631114476927
 20
378.0885877351071
 30
0.0
 10
223.0250950275574
 20
378.1918613836808
 30
0.0
 10
223.1656530564649
 20
378.2149667057311
 30
0.0
 10
223.3753688743088
 20
378.2054538898525
 30
0.0
 10
223.4440516139422
 20
378.1950341328621
 30
0.0
 10
223.5775889347489
 20
378.1606141057768
 30
0.0
 10
223.6438200456437
 20
378.1360183508885
 30
0.0
 10
223.7056397367719
 20
378.1055066598792
 30
0.0
  0
SPLINE
  5
76
330
1F
100
AcDbEntity
  8
0
  6
CONTINUOUS
 62
     7
100
AcDbSpline
210
0.0
220
0.0
230
1.0
 70
     8
 71
     3
 72
     9
 73
     5
 74
     0
 42
0.00000001
 43
0.00000001
 12
1.0
 22
0.0
 32
0.0
 13
1.0
 23
0.0
 33
0.0
 40
0.0
 40
0.0
 40
0.0
 40
0.0
 40
0.2016465281557909
 40
1.0
 40
1.0
 40
1.0
 40
1.0
 10
204.6743977378605
 20
334.9602050714495
 30
0.0
 10
204.658206303841
 20
334.9647046178638
 30
0.0
 10
204.5779101828634
 20
334.9870186465532
 30
0.0
 10
204.5677990451298
 20
334.9813422910657
 30
0.0
 10
204.5597267832159
 20
334.9768105529549
 30
0.0
  0
SPLINE
  5
77
330
1F
100
AcDbEntity
  8
0
  6
CONTINUOUS
 62
     7
100
AcDbSpline
210
0.0
220
0.0
230
1.0
 70
     8
 71
     3
 72
    50
 73
    46
 74
     0
 42
0.00000001
 43
0.00000001
 12
1.0
 22
0.0
 32
0.0
 13
1.0
 23
0.0
 33
0.0
 40
0.0
 40
0.0
 40
0.0
 40
0.0
 40
0.0312500000000004
 40
0.0312500000000004
 40
0.0625000000000007
 40
0.0625000000000007
 40
0.1250000000000011
 40
0.1250000000000011
 40
0.1875000000000014
 40
0.1875000000000014
 40
0.2500000000000018
 40
0.2500000000000018
 40
0.2812500000000018
 40
0.2812500000000018
 40
0.3125000000000019
 40
0.3125000000000019
 40
0.3750000000000018
 40
0.3750000000000018
 40
0.4062500000000018
 40
0.4062500000000018
 40
0.4375000000000017
 40
0.4375000000000017
 40
0.5000000000000016
 40
0.5000000000000016
 40
0.5625000000000014
 40
0.5625000000000014
 40
0.5937500000000014
 40
0.5937500000000014
 40
0.6250000000000013
 40
0.6250000000000013
 40
0.6562500000000012
 40
0.6562500000000012
 40
0.6875000000000011
 40
0.6875000000000011
 40
0.7500000000000007
 40
0.7500000000000007
 40
0.7812500000000006
 40
0.7812500000000006
 40
0.8125000000000003
 40
0.8125000000000003
 40
0.8750000000000002
 40
0.8750000000000002
 40
0.9375000000000002
 40
0.9375000000000002
 40
1.0
 40
1.0
 40
1.0
 40
1.0
 10
204.551284822203
 20
334.9773297468253
 30
0.0
 10
204.5564147350915
 20
334.9694765084786
 30
0.0
 10
204.5757764481871
 20
334.9558823700873
 30
0.0
 10
204.6422247437499
 20
334.917790001205
 30
0.0
 10
204.6896379066475
 20
334.8931422320246
 30
0.0
 10
204.8701419843009
 20
334.8053765972574
 30
0.0
 10
205.0409855169941
 20
334.7284559300355
 30
0.0
 10
205.4783286990678
 20
334.5474851881376
 30
0.0
 10
205.7462994243099
 20
334.4429379392852
 30
0.0
 10
206.3709814261017
 20
334.2204077056869
 30
0.0
 10
206.7215037397781
 20
334.1045199740277
 30
0.0
 10
207.3091735381111
 20
333.9306638524445
 30
0.0
 10
207.5153001555895
 20
333.8727559290788
 30
0.0
 10
207.9494225520135
 20
333.758361786538
 30
0.0
 10
208.1786596234274
 20
333.7015938797733
 30
0.0
 10
208.8928468707153
 20
333.5378147795049
 30
0.0
 10
209.400909212555
 20
333.4378110938085
 30
0.0
 10
210.2166790563083
 20
333.3098744227871
 30
0.0
 10
210.4990913209608
 20
333.2707491890993
 30
0.0
 10
211.0772122326743
 20
333.2023501465886
 30
0.0
 10
211.3698920051181
 20
333.1733865139786
 30
0.0
 10
212.2588720890679
 20
333.103224657207
 30
0.0
 10
212.8662938745698
 20
333.0786817171002
 30
0.0
 10
214.1118811624283
 20
333.080720642072
 30
0.0
 10
214.7203277648202
 20
333.1072423876228
 30
0.0
 10
215.613125681649
 20
333.1808067661966
 30
0.0
 10
215.9092113162075
 20
333.2112184035446
 30
0.0
 10
216.4841645171277
 20
333.2813510726108
 30
0.0
 10
216.7629237475231
 20
333.3209556795281
 30
0.0
 10
217.3043704070061
 20
333.4077372835738
 30
0.0
 10
217.5670532872442
 20
333.4549180907346
 30
0.0
 10
218.0771177592499
 20
333.5555234918471
 30
0.0
 10
218.3244867325245
 20
333.6089997115982
 30
0.0
 10
219.0310037441681
 20
333.7735483606638
 30
0.0
 10
219.4601660136251
 20
333.8896950979681
 30
0.0
 10
220.047406922647
 20
334.0653543257578
 30
0.0
 10
220.2337584991846
 20
334.1242197919845
 30
0.0
 10
220.5819766142032
 20
334.2391558513934
 30
0.0
 10
220.7447059131144
 20
334.2954771352336
 30
0.0
 10
221.2000713212057
 20
334.4591593883891
 30
0.0
 10
221.4602714896353
 20
334.5613067652405
 30
0.0
 10
221.8914832141455
 20
334.7409777629588
 30
0.0
 10
222.0562781146676
 20
334.8158353455851
 30
0.0
 10
222.284396282647
 20
334.9279001794493
 30
0.0
 10
222.3478262318918
 20
334.9651412103391
 30
0.0
 10
222.3534964285099
 20
334.9791332018405
 30
0.0
  0
SPLINE
  5
78
330
1F
100
AcDbEntity
  8
0
  6
CONTINUOUS
 62
     7
100
AcDbSpline
210
0.0
220
0.0
230
1.0
 70
     8
 71
     3
 72
     9
 73
     5
 74
     0
 42
0.00000001
 43
0.00000001
 12
1.0
 22
0.0
 32
0.0
 13
1.0
 23
0.0
 33
0.0
 40
0.0
 40
0.0
 40
0.0
 40
0.0
 40
0.4724781269324088
 40
1.0
 40
1.0
 40
1.0
 40
1.0
 10
222.3509178991912
 20
334.9795803062918
 30
0.0
 10
222.3478643082159
 20
334.9829658313397
 30
0.0
 10
222.3414013826299
 20
334.9901312954213
 30
0.0
 10
222.2680887692624
 20
334.9705399399721
 30
0.0
 10
222.2294147621392
 20
334.9602050714495
 30
0.0
  0
SPLINE
  5
79
330
1F
100
AcDbEntity
  8
0
  6
CONTINUOUS
 62
     7
100
AcDbSpline
210
0.0
220
0.0
230
1.0
 70
     8
 71
     3
 72
    12
 73
     8
 74
     0
 42
0.00000001
 43
0.00000001
 12
1.0
 22
0.0
 32
0.0
 13
1.0
 23
0.0
 33
0.0
 40
0.0
 40
0.0
 40
0.0
 40
0.0
 40
0.2632514174118015
 40
0.4640154975764472
 40
0.6662962051893565
 40
0.8739698477009258
 40
1.0
 40
1.0
 40
1.0
 40
1.0
 10
203.1981732259987
 20
378.1055058919194
 30
0.0
 10
202.9080292429107
 20
377.969030512513
 30
0.0
 10
202.3966120357213
 20
377.7284745766522
 30
0.0
 10
201.811797437528
 20
377.426852448281
 30
0.0
 10
201.3718565031879
 20
377.1942937483784
 30
0.0
 10
201.0631521890804
 20
377.0278805691707
 30
0.0
 10
200.9552209739948
 20
376.9745765671873
 30
0.0
 10
200.9144585143326
 20
376.954445206404
 30
0.0
  0
SPLINE
  5
7A
330
1F
100
AcDbEntity
  8
0
  6
CONTINUOUS
 62
     7
100
AcDbSpline
210
0.0
220
0.0
230
1.0
 70
     8
 71
     3
 72
    27
 73
    23
 74
     0
 42
0.00000001
 43
0.00000001
 12
1.0
 22
0.0
 32
0.0
 13
1.0
 23
0.0
 33
0.0
 40
0.0
 40
0.0
 40
0.0
 40
0.0
 40
0.0055750244278623
 40
0.0602336394475558
 40
0.1167662843164736
 40
0.1697797070896575
 40
0.2241638768048196
 40
0.281658328669168
 40
0.3406428763922724
 40
0.3988085388510282
 40
0.4585189455748466
 40
0.5169357583717445
 40
0.5769625266883259
 40
0.6351432560847917
 40
0.6948700958371893
 40
0.7535212001946319
 40
0.8137585257144837
 40
0.8725841314427268
 40
0.9028606067979268
 40
0.9334112213184442
 40
0.9881985515665894
 40
1.0
 40
1.0
 40
1.0
 40
1.0
 10
200.9113963257073
 20
377.039158307791
 30
0.0
 10
200.9174638812612
 20
377.0443480634303
 30
0.0
 10
200.9830189220124
 20
377.1004191845613
 30
0.0
 10
201.3935643758286
 20
377.3807970677432
 30
0.0
 10
202.1490269378678
 20
377.8478906911392
 30
0.0
 10
203.1972960102205
 20
378.4180870371289
 30
0.0
 10
204.4727600237308
 20
379.0148677982801
 30
0.0
 10
206.0092694861715
 20
379.6089109495582
 30
0.0
 10
207.7657006889852
 20
380.134635721672
 30
0.0
 10
209.6906985343065
 20
380.5397983893286
 30
0.0
 10
211.7091839457974
 20
380.7834436641347
 30
0.0
 10
213.7954134377537
 20
380.8471224592876
 30
0.0
 10
215.8553124642796
 20
380.7236817105265
 30
0.0
 10
217.8648323858179
 20
380.4220996679923
 30
0.0
 10
219.7439572376242
 20
379.9713234567103
 30
0.0
 10
221.479748777853
 20
379.3996862491807
 30
0.0
 10
222.999525511065
 20
378.7642221564175
 30
0.0
 10
224.0642877297678
 20
378.2275859904337
 30
0.0
 10
224.7725033780656
 20
377.8298741844815
 30
0.0
 10
225.3404232399253
 20
377.4879895790995
 30
0.0
 10
225.747220482317
 20
377.2217588810153
 30
0.0
 10
225.8607737670421
 20
377.1344547677099
 30
0.0
 10
225.8808986778854
 20
377.1189819656613
 30
0.0
  0
SPLINE
  5
7B
330
1F
100
AcDbEntity
  8
0
  6
CONTINUOUS
 62
     7
100
AcDbSpline
210
0.0
220
0.0
230
1.0
 70
     8
 71
     3
 72
    13
 73
     9
 74
     0
 42
0.00000001
 43
0.00000001
 12
1.0
 22
0.0
 32
0.0
 13
1.0
 23
0.0
 33
0.0
 40
0.0
 40
0.0
 40
0.0
 40
0.0
 40
0.1191005386380939
 40
0.2978970755286907
 40
0.478162175479821
 40
0.6625837801878023
 40
0.8482707140544948
 40
1.0
 40
1.0
 40
1.0
 40
1.0
 10
226.021542356491
 20
376.9408180944922
 30
0.0
 10
225.9929773002255
 20
376.9533861151701
 30
0.0
 10
225.9215297079552
 20
376.9848215448328
 30
0.0
 10
225.6520915819851
 20
377.1298635742508
 30
0.0
 10
225.2819069142042
 20
377.3271261416189
 30
0.0
 10
224.807198302976
 20
377.5743405483151
 30
0.0
 10
224.2819309527815
 20
377.8373736378377
 30
0.0
 10
223.8844006525447
 20
378.0223332674715
 30
0.0
 10
223.705639274001
 20
378.1055058919194
 30
0.0
  0
CIRCLE
  5
7C
330
1F
100
AcDbEntity
  8
0
  6
CONTINUOUS
 62
     7
100
AcDbCircle
 10
213.45190625
 20
357.0570625
 30
0.0
 40
28.0
  0
LWPOLYLINE
  5
7D
330
1F
100
AcDbEntity
  8
0
  6
CONTINUOUS
 62
     8
100
AcDbPolyline
 90
        9
 70
   128
 43
0.0
 10
222.2964960645
 20
375.7262412094
 10
222.321303704
 20
375.7949299746
 10
222.3916008632
 20
375.8605472379
 10
222.5041083555
 20
375.9200308107
 10
222.6535781782
 20
375.9706072145
 10
222.833037519
 20
376.0099183403
 10
223.0341147195
 20
376.0361276202
 10
223.2474304299
 20
376.0480131589
 10
223.4630325373
 20
376.0450217508
  0
LWPOLYLINE
  5
7E
330
1F
100
AcDbEntity
  8
0
  6
CONTINUOUS
 62
     8
100
AcDbPolyline
 90
       16
 70
   128
 43
0.0
 10
223.4630325373
 20
376.0450217508
 10
223.4763541754
 20
373.5898505532
 10
223.488880464
 20
371.1036374428
 10
223.5005862575
 20
368.5910595216
 10
223.5114510666
 20
366.0568413891
 10
223.5214534711
 20
363.5057490886
 10
223.5305748444
 20
360.9425800953
 10
223.5387984227
 20
358.3721551679
 10
223.5461083736
 20
355.7993082198
 10
223.5524916585
 20
353.2288780537
 10
223.5579343076
 20
350.6656983503
 10
223.5624288704
 20
348.1145906829
 10
223.5659641709
 20
345.5803511299
 10
223.5685355525
 20
343.0677471318
 10
223.5701374273
 20
340.5815042191
 10
223.5707670014
 20
338.1262976311
  0
LWPOLYLINE
  5
7F
330
1F
100
AcDbEntity
  8
0
  6
CONTINUOUS
 62
     8
100
AcDbPolyline
 90
        9
 70
   128
 43
0.0
 10
222.4024377327
 20
338.4384434305
 10
222.427634665
 20
338.3698962264
 10
222.4983034219
 20
338.3046812944
 10
222.611148053
 20
338.2458366089
 10
222.7609028603
 20
338.1961095713
 10
222.9405819933
 20
338.157819175
 10
223.1418054115
 20
338.1327535592
 10
223.3551844518
 20
338.1220806025
 10
223.5707670014
 20
338.1262976311
  0
LWPOLYLINE
  5
80
330
1F
100
AcDbEntity
  8
0
  6
CONTINUOUS
 62
     8
100
AcDbPolyline
 90
        9
 70
   128
 43
0.0
 10
204.5013747673
 20
338.4384434305
 10
204.476177835
 20
338.3698962264
 10
204.4055090781
 20
338.3046812944
 10
204.292664447
 20
338.2458366089
 10
204.1429096397
 20
338.1961095713
 10
203.9632305067
 20
338.157819175
 10
203.7620070885
 20
338.1327535592
 10
203.5486280482
 20
338.1220806025
 10
203.3330454986
 20
338.1262976311
  0
LWPOLYLINE
  5
81
330
1F
100
AcDbEntity
  8
0
  6
CONTINUOUS
 62
     8
100
AcDbPolyline
 90
       16
 70
   128
 43
0.0
 10
203.3330454986
 20
338.1262976311
 10
203.3336750727
 20
340.5815042191
 10
203.3352769475
 20
343.0677471318
 10
203.3378483291
 20
345.5803511299
 10
203.3413836296
 20
348.1145906829
 10
203.3458781924
 20
350.6656983503
 10
203.3513208415
 20
353.2288780537
 10
203.3577041264
 20
355.7993082198
 10
203.3650140773
 20
358.3721551679
 10
203.3732376556
 20
360.9425800953
 10
203.3823590289
 20
363.5057490886
 10
203.3923614334
 20
366.0568413891
 10
203.4032262425
 20
368.5910595216
 10
203.414932036
 20
371.1036374428
 10
203.4274583246
 20
373.5898505532
 10
203.4407799627
 20
376.0450217508
  0
LWPOLYLINE
  5
82
330
1F
100
AcDbEntity
  8
0
  6
CONTINUOUS
 62
     8
100
AcDbPolyline
 90
        9
 70
   128
 43
0.0
 10
204.6073164355
 20
375.7262412094
 10
204.582508796
 20
375.7949299746
 10
204.5122116368
 20
375.8605472379
 10
204.3997041445
 20
375.9200308107
 10
204.2502343218
 20
375.9706072145
 10
204.070774981
 20
376.0099183403
 10
203.8696977805
 20
376.0361276202
 10
203.6563820701
 20
376.0480131589
 10
203.4407799627
 20
376.0450217508
  0
ARC
  5
83
330
1F
100
AcDbEntity
  8
0
  6
CONTINUOUS
 62
     8
100
AcDbCircle
 10
213.45190625
 20
357.0570625
 30
0.0
 40
21.46544253709247
100
AcDbArc
 50
117.7997906237
 51
241.8746338332
  0
ARC
  5
84
330
1F
100
AcDbEntity
  8
0
  6
CONTINUOUS
 62
     8
100
AcDbCircle
 10
213.45190625
 20
357.0570625
 30
0.0
 40
21.46544253709248
100
AcDbArc
 50
298.1253661668
 51
62.2002093763
  0
SPLINE
  5
85
330
1F
100
AcDbEntity
  8
0
  6
CONTINUOUS
 62
     8
100
AcDbSpline
210
0.0
220
0.0
230
1.0
 70
     8
 71
     3
 72
    14
 73
    10
 74
     0
 42
0.00000001
 43
0.00000001
 12
1.0
 22
0.0
 32
0.0
 13
1.0
 23
0.0
 33
0.0
 40
0.0
 40
0.0
 40
0.0
 40
0.0
 40
0.25
 40
0.25
 40
0.5
 40
0.5
 40
0.75
 40
0.75
 40
1.0
 40
1.0
 40
1.0
 40
1.0
 10
222.3909532789235
 20
336.9865239447229
 30
0.0
 10
222.3927319099438
 20
336.9846174704028
 30
0.0
 10
222.3943923682857
 20
337.0221217766635
 30
0.0
 10
222.3972682904084
 20
337.1643481576647
 30
0.0
 10
222.3985265642136
 20
337.2716484650042
 30
0.0
 10
222.4005012945472
 20
337.5351989582843
 30
0.0
 10
222.4012469340398
 20
337.6938108182787
 30
0.0
 10
222.4022207951545
 20
338.0455731834467
 30
0.0
 10
222.402449681025
 20
338.2354701083214
 30
0.0
 10
222.4024378126373
 20
338.4384436428357
 30
0.0
  0
SPLINE
  5
86
330
1F
100
AcDbEntity
  8
0
  6
CONTINUOUS
 62
     8
100
AcDbSpline
210
0.0
220
0.0
230
1.0
 70
     8
 71
     3
 72
    11
 73
     7
 74
     0
 42
0.00000001
 43
0.00000001
 12
1.0
 22
0.0
 32
0.0
 13
1.0
 23
0.0
 33
0.0
 40
0.0
 40
0.0
 40
0.0
 40
0.0
 40
0.2488509265447857
 40
0.4984502691839833
 40
0.7488245385741917
 40
1.0
 40
1.0
 40
1.0
 40
1.0
 10
222.3708543920968
 20
336.872128086897
 30
0.0
 10
222.3725097577478
 20
336.8852501865973
 30
0.0
 10
222.3758254675416
 20
336.9115338505511
 30
0.0
 10
222.3808339733488
 20
336.9428026516528
 30
0.0
 10
222.3858756136233
 20
336.968709265269
 30
0.0
 10
222.3892589222873
 20
336.9805793976583
 30
0.0
 10
222.3909532789235
 20
336.9865239447229
 30
0.0
  0
SPLINE
  5
87
330
1F
100
AcDbEntity
  8
0
  6
CONTINUOUS
 62
     8
100
AcDbSpline
210
0.0
220
0.0
230
1.0
 70
     8
 71
     3
 72
    24
 73
    20
 74
     0
 42
0.00000001
 43
0.00000001
 12
1.0
 22
0.0
 32
0.0
 13
1.0
 23
0.0
 33
0.0
 40
0.0
 40
0.0
 40
0.0
 40
0.0
 40
0.0417979709178759
 40
0.0833385413785666
 40
0.1246281560607393
 40
0.18540740440019
 40
0.2494190091527794
 40
0.3744252512940573
 40
0.4996124416773535
 40
0.5333038388493168
 40
0.6248832950654749
 40
0.6939019461154659
 40
0.7501097620627565
 40
0.7969849170469804
 40
0.8417659331961646
 40
0.884455091704731
 40
0.9250550263751615
 40
0.9635687996332366
 40
1.0
 40
1.0
 40
1.0
 40
1.0
 10
222.2168626992633
 20
334.9711964516368
 30
0.0
 10
222.2190727034069
 20
334.9787507864679
 30
0.0
 10
222.2234791020365
 20
334.9938129349904
 30
0.0
 10
222.2300293659274
 20
335.0289146522503
 30
0.0
 10
222.2375413952183
 20
335.0803532044363
 30
0.0
 10
222.2461743600316
 20
335.1561300180248
 30
0.0
 10
222.25907581236
 20
335.2938978922913
 30
0.0
 10
222.2751591718157
 20
335.5072797168162
 30
0.0
 10
222.2895833015858
 20
335.7281982325914
 30
0.0
 10
222.3022716769209
 20
335.9327046400358
 30
0.0
 10
222.3121148300461
 20
336.0912668331595
 30
0.0
 10
222.3231047247271
 20
336.2666618936885
 30
0.0
 10
222.3318472414723
 20
336.4010642078389
 30
0.0
 10
222.339381925175
 20
336.5104105874638
 30
0.0
 10
222.346250053055
 20
336.6038285925635
 30
0.0
 10
222.3528199050266
 20
336.6868036965745
 30
0.0
 10
222.359092367462
 20
336.759079233117
 30
0.0
 10
222.3650645706379
 20
336.8215023894014
 30
0.0
 10
222.368960538698
 20
336.8555683967679
 30
0.0
 10
222.3708543920968
 20
336.8721280868984
 30
0.0
  0
LWPOLYLINE
  5
88
330
1F
100
AcDbEntity
  8
0
  6
CONTINUOUS
 62
     8
100
AcDbPolyline
 90
        3
 70
   128
 43
0.0
 10
222.2768879991
 20
377.1781433009
 10
222.2732502531
 20
377.1884139262
 10
222.2646159615
 20
377.2127754622
  0
SPLINE
  5
89
330
1F
100
AcDbEntity
  8
0
  6
CONTINUOUS
 62
     8
100
AcDbSpline
210
0.0
220
0.0
230
1.0
 70
     8
 71
     3
 72
    14
 73
    10
 74
     0
 42
0.00000001
 43
0.00000001
 12
1.0
 22
0.0
 32
0.0
 13
1.0
 23
0.0
 33
0.0
 40
0.0
 40
0.0
 40
0.0
 40
0.0
 40
0.25
 40
0.25
 40
0.5
 40
0.5
 40
0.75
 40
0.75
 40
1.0
 40
1.0
 40
1.0
 40
1.0
 10
222.2964960875865
 20
375.7262406824215
 30
0.0
 10
222.2953614617131
 20
375.9279895405719
 30
0.0
 10
222.2940623443452
 20
376.1168140979181
 30
0.0
 10
222.2911119119703
 20
376.4667906071385
 30
0.0
 10
222.2894765535044
 20
376.6248936424778
 30
0.0
 10
222.2860305685339
 20
376.8880238208577
 30
0.0
 10
222.284175206055
 20
376.9956199728541
 30
0.0
 10
222.2805138832975
 20
377.139392062964
 30
0.0
 10
222.2786507588654
 20
377.1782147949298
 30
0.0
 10
222.2768883542405
 20
377.1781429620829
 30
0.0
  0
SPLINE
  5
8A
330
1F
100
AcDbEntity
  8
0
  6
CONTINUOUS
 62
     8
100
AcDbSpline
210
0.0
220
0.0
230
1.0
 70
     8
 71
     3
 72
    14
 73
    10
 74
     0
 42
0.00000001
 43
0.00000001
 12
1.0
 22
0.0
 32
0.0
 13
1.0
 23
0.0
 33
0.0
 40
0.0
 40
0.0
 40
0.0
 40
0.0
 40
0.25
 40
0.25
 40
0.5
 40
0.5
 40
0.75
 40
0.75
 40
1.0
 40
1.0
 40
1.0
 40
1.0
 10
204.6269241457592
 20
377.1781429620829
 30
0.0
 10
204.6251617411343
 20
377.1782147949298
 30
0.0
 10
204.6232986167022
 20
377.139392062964
 30
0.0
 10
204.6196372939447
 20
376.9956199728541
 30
0.0
 10
204.6177819314659
 20
376.8880238208577
 30
0.0
 10
204.6143359464954
 20
376.6248936424778
 30
0.0
 10
204.6127005880294
 20
376.4667906071385
 30
0.0
 10
204.6097501556545
 20
376.1168140979181
 30
0.0
 10
204.6084510382867
 20
375.9279895405719
 30
0.0
 10
204.6073164124133
 20
375.7262406824215
 30
0.0
  0
LWPOLYLINE
  5
8B
330
1F
100
AcDbEntity
  8
0
  6
CONTINUOUS
 62
     8
100
AcDbPolyline
 90
        3
 70
   128
 43
0.0
 10
204.6391965385
 20
377.2127754622
 10
204.6305622469
 20
377.1884139262
 10
204.6269245009
 20
377.1781433009
  0
SPLINE
  5
8C
330
1F
100
AcDbEntity
  8
0
  6
CONTINUOUS
 62
     8
100
AcDbSpline
210
0.0
220
0.0
230
1.0
 70
     8
 71
     3
 72
    23
 73
    19
 74
     0
 42
0.00000001
 43
0.00000001
 12
1.0
 22
0.0
 32
0.0
 13
1.0
 23
0.0
 33
0.0
 40
0.0
 40
0.0
 40
0.0
 40
0.0
 40
0.0364261839075296
 40
0.0749369644522382
 40
0.1155359297985557
 40
0.1582261415707132
 40
0.2030102324964327
 40
0.249890482536997
 40
0.3060736008951565
 40
0.3751170762458242
 40
0.4667436320345436
 40
0.5003880562318304
 40
0.6255753731428879
 40
0.7505817416296351
 40
0.8145654202212209
 40
0.8753727204398537
 40
0.9373873794365774
 40
1.0
 40
1.0
 40
1.0
 40
1.0
 10
204.532958107903
 20
336.8721280868985
 30
0.0
 10
204.5348516980661
 20
336.8555705339032
 30
0.0
 10
204.5387472447174
 20
336.8215078727313
 30
0.0
 10
204.5447189734741
 20
336.7590884057783
 30
0.0
 10
204.5509912774639
 20
336.6868140356603
 30
0.0
 10
204.55756128721
 20
336.6038376189966
 30
0.0
 10
204.5644298862355
 20
336.5104150795351
 30
0.0
 10
204.5719637464584
 20
336.4010879749977
 30
0.0
 10
204.580706521871
 20
336.2666822751914
 30
0.0
 10
204.5916987948153
 20
336.0912480555168
 30
0.0
 10
204.6015432167733
 20
335.9326693287142
 30
0.0
 10
204.6142315775051
 20
335.7281594801495
 30
0.0
 10
204.628653287716
 20
335.5072654791281
 30
0.0
 10
204.6447353829935
 20
335.2939607583724
 30
0.0
 10
204.657636466293
 20
335.1560677696795
 30
0.0
 10
204.6673477575673
 20
335.0711871149573
 30
0.0
 10
204.6770559726212
 20
335.0071014150215
 30
0.0
 10
204.6836413258585
 20
334.9832029942984
 30
0.0
 10
204.6869498007364
 20
334.9711964516371
 30
0.0
  0
SPLINE
  5
8D
330
1F
100
AcDbEntity
  8
0
  6
CONTINUOUS
 62
     8
100
AcDbSpline
210
0.0
220
0.0
230
1.0
 70
     8
 71
     3
 72
    11
 73
     7
 74
     0
 42
0.00000001
 43
0.00000001
 12
1.0
 22
0.0
 32
0.0
 13
1.0
 23
0.0
 33
0.0
 40
0.0
 40
0.0
 40
0.0
 40
0.0
 40
0.2511754614239876
 40
0.5015497308135847
 40
0.7511490734533924
 40
1.0
 40
1.0
 40
1.0
 40
1.0
 10
204.5128592210768
 20
336.9865239447236
 30
0.0
 10
204.514553577713
 20
336.9805793976589
 30
0.0
 10
204.5179368863769
 20
336.9687092652694
 30
0.0
 10
204.5229785266512
 20
336.9428026516533
 30
0.0
 10
204.5279870324583
 20
336.9115338505519
 30
0.0
 10
204.531302742252
 20
336.8852501865987
 30
0.0
 10
204.532958107903
 20
336.8721280868986
 30
0.0
  0
SPLINE
  5
8E
330
1F
100
AcDbEntity
  8
0
  6
CONTINUOUS
 62
     8
100
AcDbSpline
210
0.0
220
0.0
230
1.0
 70
     8
 71
     3
 72
    14
 73
    10
 74
     0
 42
0.00000001
 43
0.00000001
 12
1.0
 22
0.0
 32
0.0
 13
1.0
 23
0.0
 33
0.0
 40
0.0
 40
0.0
 40
0.0
 40
0.0
 40
0.25
 40
0.25
 40
0.5
 40
0.5
 40
0.75
 40
0.75
 40
1.0
 40
1.0
 40
1.0
 40
1.0
 10
204.5013746873624
 20
338.438443642836
 30
0.0
 10
204.5013628189747
 20
338.2354701083162
 30
0.0
 10
204.5015917048453
 20
338.0455731834369
 30
0.0
 10
204.50256556596
 20
337.6938108182611
 30
0.0
 10
204.5033112054527
 20
337.5351989582645
 30
0.0
 10
204.5052859357863
 20
337.2716484649826
 30
0.0
 10
204.5065442095916
 20
337.1643481576444
 30
0.0
 10
204.5094201317145
 20
337.0221217766502
 30
0.0
 10
204.5110805900564
 20
336.9846174703953
 30
0.0
 10
204.5128592210768
 20
336.9865239447236
 30
0.0
  0
SPLINE
  5
8F
330
1F
100
AcDbEntity
  8
0
  6
CONTINUOUS
 62
     8
100
AcDbSpline
210
0.0
220
0.0
230
1.0
 70
     8
 71
     3
 72
    18
 73
    14
 74
     0
 42
0.00000001
 43
0.00000001
 12
1.0
 22
0.0
 32
0.0
 13
1.0
 23
0.0
 33
0.0
 40
0.0
 40
0.0
 40
0.0
 40
0.0
 40
0.2500000000000018
 40
0.2500000000000018
 40
0.3750000000000015
 40
0.3750000000000015
 40
0.5000000000000012
 40
0.5000000000000012
 40
0.6250000000000009
 40
0.6250000000000009
 40
0.7500000000000006
 40
0.7500000000000006
 40
1.0
 40
1.0
 40
1.0
 40
1.0
 10
203.4407800094735
 20
376.045021176737
 30
0.0
 10
203.4006434704181
 20
376.3349503667121
 30
0.0
 10
203.3647360321011
 20
376.6038991261613
 30
0.0
 10
203.3166309021245
 20
376.9750097494096
 30
0.0
 10
203.3015653835919
 20
377.0933177602682
 30
0.0
 10
203.2743636469132
 20
377.3103578984154
 30
0.0
 10
203.2620777343384
 20
377.4102345776405
 30
0.0
 10
203.240058969933
 20
377.5923569094089
 30
0.0
 10
203.2302610839444
 20
377.6751704325485
 30
0.0
 10
203.2136426253034
 20
377.8188459299973
 30
0.0
 10
203.2068792190721
 20
377.8791726121371
 30
0.0
 10
203.1910266755837
 20
378.0261030473931
 30
0.0
 10
203.1863754781322
 20
378.078713587136
 30
0.0
 10
203.1881683601291
 20
378.0795889182222
 30
0.0
  0
SPLINE
  5
90
330
1F
100
AcDbEntity
  8
0
  6
CONTINUOUS
 62
     8
100
AcDbSpline
210
0.0
220
0.0
230
1.0
 70
     8
 71
     3
 72
    18
 73
    14
 74
     0
 42
0.00000001
 43
0.00000001
 12
1.0
 22
0.0
 32
0.0
 13
1.0
 23
0.0
 33
0.0
 40
0.0
 40
0.0
 40
0.0
 40
0.0
 40
0.2499999999999953
 40
0.2499999999999953
 40
0.3749999999999951
 40
0.3749999999999951
 40
0.499999999999995
 40
0.499999999999995
 40
0.6249999999999949
 40
0.6249999999999949
 40
0.7499999999999947
 40
0.7499999999999947
 40
1.0
 40
1.0
 40
1.0
 40
1.0
 10
203.0688768819836
 20
336.0931975506592
 30
0.0
 10
203.0670913112628
 20
336.0940849885535
 30
0.0
 10
203.0720292322736
 20
336.1465591960485
 30
0.0
 10
203.0886788184343
 20
336.2930948194261
 30
0.0
 10
203.0957690570808
 20
336.3532574724522
 30
0.0
 10
203.1131642064292
 20
336.4965340323887
 30
0.0
 10
203.1234119011694
 20
336.5791372516352
 30
0.0
 10
203.1464175622183
 20
336.7607840867456
 30
0.0
 10
203.1592441905253
 20
336.8603986982626
 30
0.0
 10
203.1876187903983
 20
337.076861146598
 30
0.0
 10
203.2033121840084
 20
337.1947747641341
 30
0.0
 10
203.2535006114589
 20
337.5654963126665
 30
0.0
 10
203.2912995281609
 20
337.8368583799694
 30
0.0
 10
203.3330457002424
 20
338.1262969452802
 30
0.0
  0
SPLINE
  5
91
330
1F
100
AcDbEntity
  8
0
  6
CONTINUOUS
 62
     8
100
AcDbSpline
210
0.0
220
0.0
230
1.0
 70
     8
 71
     3
 72
    18
 73
    14
 74
     0
 42
0.00000001
 43
0.00000001
 12
1.0
 22
0.0
 32
0.0
 13
1.0
 23
0.0
 33
0.0
 40
0.0
 40
0.0
 40
0.0
 40
0.0
 40
0.2499999999999997
 40
0.2499999999999997
 40
0.3749999999999996
 40
0.3749999999999996
 40
0.4999999999999996
 40
0.4999999999999996
 40
0.6249999999999994
 40
0.6249999999999994
 40
0.7499999999999994
 40
0.7499999999999994
 40
1.0
 40
1.0
 40
1.0
 40
1.0
 10
223.5707667997573
 20
338.12629694528
 30
0.0
 10
223.6125498666065
 20
337.8366025776267
 30
0.0
 10
223.6499847442385
 20
337.5678639774747
 30
0.0
 10
223.7001975998077
 20
337.1970348759619
 30
0.0
 10
223.7159350775465
 20
337.078814928583
 30
0.0
 10
223.744369584115
 20
336.8619336698218
 30
0.0
 10
223.7572228058174
 20
336.7621286984458
 30
0.0
 10
223.7802760825943
 20
336.58013471307
 30
0.0
 10
223.7905443910519
 20
336.4973782636101
 30
0.0
 10
223.8079791009697
 20
336.3537988892845
 30
0.0
 10
223.8150852662727
 20
336.2935111554845
 30
0.0
 10
223.8317727425771
 20
336.1466712845429
 30
0.0
 10
223.8367231064583
 20
336.0940859417458
 30
0.0
 10
223.8349356180199
 20
336.0931975506611
 30
0.0
  0
SPLINE
  5
92
330
1F
100
AcDbEntity
  8
0
  6
CONTINUOUS
 62
     8
100
AcDbSpline
210
0.0
220
0.0
230
1.0
 70
     8
 71
     3
 72
    18
 73
    14
 74
     0
 42
0.00000001
 43
0.00000001
 12
1.0
 22
0.0
 32
0.0
 13
1.0
 23
0.0
 33
0.0
 40
0.0
 40
0.0
 40
0.0
 40
0.0
 40
0.2499999999999954
 40
0.2499999999999954
 40
0.3749999999999958
 40
0.3749999999999958
 40
0.4999999999999962
 40
0.4999999999999962
 40
0.6249999999999966
 40
0.6249999999999966
 40
0.749999999999997
 40
0.749999999999997
 40
1.0
 40
1.0
 40
1.0
 40
1.0
 10
223.7156441398707
 20
378.0795889182222
 30
0.0
 10
223.7174350977816
 20
378.0787145265242
 30
0.0
 10
223.7127957148318
 20
378.0262152229242
 30
0.0
 10
223.6969793427672
 20
377.8795893363347
 30
0.0
 10
223.690231156735
 20
377.8193878610161
 30
0.0
 10
223.6736505486975
 20
377.6760154891651
 30
0.0
 10
223.6638724116087
 20
377.5933553594721
 30
0.0
 10
223.6418993034438
 20
377.4115805489936
 30
0.0
 10
223.6296389099264
 20
377.3118944358721
 30
0.0
 10
223.6024947167183
 20
377.0952735699593
 30
0.0
 10
223.587471554932
 20
376.9772722365232
 30
0.0
 10
223.5393902476806
 20
376.6062693271425
 30
0.0
 10
223.503133578253
 20
376.334694281478
 30
0.0
 10
223.4630324905263
 20
376.045021176737
 30
0.0
  0
SPLINE
  5
93
330
1F
100
AcDbEntity
  8
0
  6
CONTINUOUS
 62
     8
100
AcDbSpline
210
0.0
220
0.0
230
1.0
 70
     8
 71
     3
 72
    20
 73
    16
 74
     0
 42
0.00000001
 43
0.00000001
 12
1.0
 22
0.0
 32
0.0
 13
1.0
 23
0.0
 33
0.0
 40
0.0
 40
0.0
 40
0.0
 40
0.0
 40
0.0368486413567223
 40
0.0712154209822853
 40
0.1246536339506894
 40
0.24949847191158
 40
0.3745985450361853
 40
0.4998849812274753
 40
0.5848562813978071
 40
0.6252130339096187
 40
0.7504018628779621
 40
0.8154280633746736
 40
0.8753268746627166
 40
0.937799485333239
 40
0.9999999999999999
 40
0.9999999999999999
 40
0.9999999999999999
 40
0.9999999999999999
 10
204.6743980183266
 20
334.9602043587807
 30
0.0
 10
204.671067682747
 20
334.9665993305633
 30
0.0
 10
204.6646313192455
 20
334.9789585544289
 30
0.0
 10
204.6408225537632
 20
335.0056036933219
 30
0.0
 10
204.5774685080989
 20
335.0602342570898
 30
0.0
 10
204.4306246277681
 20
335.1615002422971
 30
0.0
 10
204.1809741301604
 20
335.3176407064869
 30
0.0
 10
203.9240942071446
 20
335.4756766307565
 30
0.0
 10
203.7310394909745
 20
335.5972805877407
 30
0.0
 10
203.5403362283581
 20
335.7195717192952
 30
0.0
 10
203.3794693742991
 20
335.8275351128673
 30
0.0
 10
203.2370029377533
 20
335.931343047876
 30
0.0
 10
203.1515410782279
 20
335.9995273487348
 30
0.0
 10
203.0919851856393
 20
336.0550904308819
 30
0.0
 10
203.0764371864871
 20
336.0805786778773
 30
0.0
 10
203.0686801534722
 20
336.0932949876415
 30
0.0
  0
SPLINE
  5
94
330
1F
100
AcDbEntity
  8
0
  6
CONTINUOUS
 62
     8
100
AcDbSpline
210
0.0
220
0.0
230
1.0
 70
     8
 71
     3
 72
    21
 73
    17
 74
     0
 42
0.00000001
 43
0.00000001
 12
1.0
 22
0.0
 32
0.0
 13
1.0
 23
0.0
 33
0.0
 40
0.0
 40
0.0
 40
0.0
 40
0.0
 40
0.0217595132697385
 40
0.0415412680331192
 40
0.0823080701886969
 40
0.1246761210553233
 40
0.2495969164238097
 40
0.37478594306158
 40
0.4151451055574665
 40
0.5001141936491373
 40
0.6254008276637104
 40
0.7505010983174769
 40
0.8753461334042356
 40
0.925222919764012
 40
0.9613914004770298
 40
1.0
 40
1.0
 40
1.0
 40
1.0
 10
223.8351323465277
 20
336.0932949876415
 30
0.0
 10
223.8331456173587
 20
336.0892057642027
 30
0.0
 10
223.8293527361533
 20
336.0813989936737
 30
0.0
 10
223.8167442057713
 20
336.0634249629352
 30
0.0
 10
223.7921111286448
 20
336.0366080469825
 30
0.0
 10
223.7209735761746
 20
335.9721038722493
 30
0.0
 10
223.5661147967755
 20
335.8555677368379
 30
0.0
 10
223.3634754511149
 20
335.7195713761435
 30
0.0
 10
223.172771296297
 20
335.5972793582952
 30
0.0
 10
222.9797165619099
 20
335.4756756181442
 30
0.0
 10
222.7228377004656
 20
335.3176404077283
 30
0.0
 10
222.4731903884724
 20
335.1615012945012
 30
0.0
 10
222.3280608384486
 20
335.0614201375603
 30
0.0
 10
222.2644625823274
 20
335.0069242177897
 30
0.0
 10
222.2398063196424
 20
334.9799393911295
 30
0.0
 10
222.2329529735781
 20
334.9669242722736
 30
0.0
 10
222.2294144816665
 20
334.9602043587644
 30
0.0
  0
LINE
  5
95
330
1F
100
AcDbEntity
  8
0
  6
CONTINUOUS
 62
     8
100
AcDbLine
 10
203.1883896824
 20
378.0796970807
 30
0.0
 11
203.198173226
 21
378.1055058919
 31
0.0
  0
LINE
  5
96
330
1F
100
AcDbEntity
  8
0
  6
CONTINUOUS
 62
     8
100
AcDbLine
 10
223.705639274
 20
378.1055058919
 30
0.0
 11
223.7154228176
 21
378.0796970807
 31
0.0
  0
SPLINE
  5
97
330
1F
100
AcDbEntity
  8
0
  6
CONTINUOUS
 62
     8
100
AcDbSpline
210
0.0
220
0.0
230
1.0
 70
     8
 71
     3
 72
    10
 73
     6
 74
     0
 42
0.00000001
 43
0.00000001
 12
1.0
 22
0.0
 32
0.0
 13
1.0
 23
0.0
 33
0.0
 40
0.0
 40
0.0
 40
0.0
 40
0.0
 40
0.131190524296544
 40
0.5819937201834895
 40
1.0
 40
1.0
 40
1.0
 40
1.0
 10
200.9144585143326
 20
376.954445206404
 30
0.0
 10
200.8829009319199
 20
376.9383531737819
 30
0.0
 10
200.7429036654492
 20
376.8669649238971
 30
0.0
 10
200.6817741173781
 20
376.8564833626897
 30
0.0
 10
200.836806373995
 20
376.9798185974324
 30
0.0
 10
200.9113963257073
 20
377.039158307791
 30
0.0
  0
SPLINE
  5
98
330
1F
100
AcDbEntity
  8
0
  6
CONTINUOUS
 62
     8
100
AcDbSpline
210
0.0
220
0.0
230
1.0
 70
     8
 71
     3
 72
    10
 73
     6
 74
     0
 42
0.00000001
 43
0.00000001
 12
1.0
 22
0.0
 32
0.0
 13
1.0
 23
0.0
 33
0.0
 40
0.0
 40
0.0
 40
0.0
 40
0.0
 40
0.3548962314468413
 40
0.7651364491700272
 40
1.0
 40
1.0
 40
1.0
 40
1.0
 10
225.8808986778854
 20
377.1189819656613
 30
0.0
 10
225.9781226697276
 20
377.0476477684882
 30
0.0
 10
226.1877321648439
 20
376.8938552243778
 30
0.0
 10
226.2050266499545
 20
376.8510856446831
 30
0.0
 10
226.0705143714001
 20
376.9168684757705
 30
0.0
 10
226.021542356491
 20
376.9408180944922
 30
0.0
  0
CIRCLE
  5
99
330
1F
100
AcDbEntity
  8
0
  6
CONTINUOUS
 62
     8
100
AcDbCircle
 10
213.45190625
 20
357.0570625
 30
0.0
 40
23.99123667180567
  0
SPLINE
  5
9A
330
1F
100
AcDbEntity
  8
0
  6
CONTINUOUS
 62
     8
100
AcDbSpline
210
0.0
220
0.0
230
1.0
 70
     8
 71
     3
 72
    26
 73
    22
 74
     0
 42
0.00000001
 43
0.00000001
 12
1.0
 22
0.0
 32
0.0
 13
1.0
 23
0.0
 33
0.0
 40
0.0
 40
0.0
 40
0.0
 40
0.0
 40
0.0371959852845297
 40
0.0816039149963201
 40
0.1263148327765984
 40
0.1719621529500852
 40
0.2179306335335586
 40
0.3053988458928726
 40
0.3502281221211265
 40
0.3953814066681604
 40
0.4610091560778802
 40
0.5277064215550888
 40
0.5729225714491337
 40
0.6605476930770772
 40
0.7050162089377562
 40
0.750114965889989
 40
0.837529831780385
 40
0.8818453656031643
 40
0.9267523938584554
 40
0.9674557030264345
 40
1.0
 40
1.0
 40
1.0
 40
1.0
 10
222.2937924351095
 20
377.4455278747084
 30
0.0
 10
222.1378228184655
 20
377.5227795289236
 30
0.0
 10
221.7956425739776
 20
377.6922611914116
 30
0.0
 10
221.1962570816442
 20
377.9588416572258
 30
0.0
 10
220.5121354936196
 20
378.2367248118205
 30
0.0
 10
219.7695820151915
 20
378.5052002163874
 30
0.0
 10
218.7366754192909
 20
378.8317778710943
 30
0.0
 10
217.63070359573
 20
379.1078097497324
 30
0.0
 10
216.4774698714936
 20
379.3149598305802
 30
0.0
 10
215.4404647013598
 20
379.4526635615468
 30
0.0
 10
214.2317171896581
 20
379.5431770744423
 30
0.0
 10
213.0108779933058
 20
379.5493230362187
 30
0.0
 10
211.6481757819413
 20
379.4760647364004
 30
0.0
 10
210.4567490858655
 20
379.3280663262488
 30
0.0
 10
209.3146085029496
 20
379.1081578926882
 30
0.0
 10
208.212183530736
 20
378.8450355166075
 30
0.0
 10
207.1773283027332
 20
378.5259470261354
 30
0.0
 10
206.2289185169093
 20
378.1733962966118
 30
0.0
 10
205.5827123629344
 20
377.9041027435021
 30
0.0
 10
205.0224464513255
 20
377.6532576517259
 30
0.0
 10
204.7352319103497
 20
377.5043470788866
 30
0.0
 10
204.607620977938
 20
377.4381853275302
 30
0.0
  0
CIRCLE
  5
9B
330
1F
100
AcDbEntity
  8
0
  6
CONTINUOUS
 62
     8
100
AcDbCircle
 10
213.45190625
 20
357.0570625
 30
0.0
 40
24.16795594248805
  0
ARC
  5
9C
330
1F
100
AcDbEntity
  8
0
  6
CONTINUOUS
 62
     7
100
AcDbCircle
 10
176.4586795388
 20
221.9487406635
 30
0.0
 40
65.0
100
AcDbArc
 50
340.2102362509
 51
359.1728495332
  0
ARC
  5
9D
330
1F
100
AcDbEntity
  8
0
  6
CONTINUOUS
 62
     7
100
AcDbCircle
 10
250.4451329612
 20
221.9487406635
 30
0.0
 40
65.00000000000001
100
AcDbArc
 50
180.8271504668
 51
199.7897637491
  0
LINE
  5
9E
330
1F
100
AcDbEntity
  8
0
  6
CONTINUOUS
 62
     7
100
AcDbLine
 10
189.4606695782
 20
198.9783500833
 30
0.0
 11
190.0576562625
 21
164.7770058444
 31
0.0
  0
LINE
  5
9F
330
1F
100
AcDbEntity
  8
0
  6
CONTINUOUS
 62
     7
100
AcDbLine
 10
236.8461562375
 20
164.7770058444
 30
0.0
 11
237.4431429218
 21
198.9783500833
 31
0.0
  0
SPLINE
  5
A0
330
1F
100
AcDbEntity
  8
0
  6
CONTINUOUS
 62
     7
100
AcDbSpline
210
0.0
220
0.0
230
1.0
 70
     8
 71
     3
 72
    33
 73
    29
 74
     0
 42
0.00000001
 43
0.00000001
 12
1.0
 22
0.0
 32
0.0
 13
1.0
 23
0.0
 33
0.0
 40
0.0
 40
0.0
 40
0.0
 40
0.0
 40
0.0026819463857883
 40
0.0419900739056902
 40
0.0818987443470808
 40
0.1221243124986884
 40
0.1622711021293523
 40
0.202083534341806
 40
0.2418218026140958
 40
0.282104615227701
 40
0.3227870548118424
 40
0.3636439262231408
 40
0.4043633696272282
 40
0.4446774913896733
 40
0.4843890483110097
 40
0.5233742912675144
 40
0.5617636117595857
 40
0.6005529066412592
 40
0.640141571054229
 40
0.6803759403035763
 40
0.7210439216867203
 40
0.7618903459438531
 40
0.8025784867422521
 40
0.8428464468742578
 40
0.8825249409784435
 40
0.9220197192381305
 40
0.961919624466286
 40
0.9999999999999999
 40
0.9999999999999999
 40
0.9999999999999999
 40
0.9999999999999999
 10
203.4594507766182
 20
179.1200677201631
 30
0.0
 10
203.4684628932038
 20
179.1394940395635
 30
0.0
 10
203.6095617024434
 20
179.4436435153555
 30
0.0
 10
203.9517132554669
 20
179.9951069898065
 30
0.0
 10
204.4907621502925
 20
180.7655556592271
 30
0.0
 10
205.1096857960523
 20
181.4788050468754
 30
0.0
 10
205.7912726112598
 20
182.130020919763
 30
0.0
 10
206.5334748045149
 20
182.7097134553796
 30
0.0
 10
207.3334427254076
 20
183.223817989348
 30
0.0
 10
208.1886827712834
 20
183.6726883371275
 30
0.0
 10
209.0950476445275
 20
184.0541547381181
 30
0.0
 10
210.0410233760921
 20
184.3631928519753
 30
0.0
 10
211.0132350872353
 20
184.5960063958104
 30
0.0
 10
211.9976261533449
 20
184.7505571945399
 30
0.0
 10
212.9809814371914
 20
184.8267729043361
 30
0.0
 10
213.9529560277653
 20
184.8259394132921
 30
0.0
 10
214.9126600361111
 20
184.7502106608372
 30
0.0
 10
215.8646767854619
 20
184.6014071937966
 30
0.0
 10
216.8113950540586
 20
184.377466727191
 30
0.0
 10
217.7451189246562
 20
184.076924414474
 30
0.0
 10
218.6531361241198
 20
183.7003923949329
 30
0.0
 10
219.5218070393518
 20
183.2504760118111
 30
0.0
 10
220.3378980984457
 20
182.731546704965
 30
0.0
 10
221.0897592252956
 20
182.150022344906
 30
0.0
 10
221.7712592665341
 20
181.5080350193787
 30
0.0
 10
222.384329971719
 20
180.8029119188627
 30
0.0
 10
222.9284003851504
 20
180.0542119972564
 30
0.0
 10
223.2302627518977
 20
179.5140908448653
 30
0.0
 10
223.3776722273821
 20
179.2503316468244
 30
0.0
  0
ARC
  5
A1
330
1F
100
AcDbEntity
  8
0
  6
CONTINUOUS
 62
     7
100
AcDbCircle
 10
186.4611264927
 20
198.925992864
 30
0.0
 40
3.000000000000011
100
AcDbArc
 50
1.0
 51
19.7897637491
  0
ARC
  5
A2
330
1F
100
AcDbEntity
  8
0
  6
CONTINUOUS
 62
     7
100
AcDbCircle
 10
240.4426860073
 20
198.925992864
 30
0.0
 40
3.000000000000011
100
AcDbArc
 50
160.2102362509
 51
179.0
  0
ARC
  5
A3
330
1F
100
AcDbEntity
  8
0
  6
CONTINUOUS
 62
     7
100
AcDbCircle
 10
233.8456992534
 20
164.7770058444
 30
0.0
 40
3.000456984131716
100
AcDbArc
 50
290.926013147
 51
0.0
  0
ARC
  5
A4
330
1F
100
AcDbEntity
  8
0
  6
CONTINUOUS
 62
     7
100
AcDbCircle
 10
193.0581132466
 20
164.7770058444
 30
0.0
 40
3.000456984131716
100
AcDbArc
 50
180.0
 51
249.073986853
  0
SPLINE
  5
A5
330
1F
100
AcDbEntity
  8
0
  6
CONTINUOUS
 62
     7
100
AcDbSpline
210
0.0
220
0.0
230
1.0
 70
     8
 71
     3
 72
    18
 73
    14
 74
     0
 42
0.00000001
 43
0.00000001
 12
1.0
 22
0.0
 32
0.0
 13
1.0
 23
0.0
 33
0.0
 40
0.0
 40
0.0
 40
0.0
 40
0.0
 40
0.2432362272835471
 40
0.4607565063471424
 40
0.5587123675862168
 40
0.6198391331564141
 40
0.6681527446426967
 40
0.7157138208811561
 40
0.769901237414256
 40
0.8307775221646736
 40
0.8965628399440926
 40
0.9648888461181464
 40
1.0
 40
1.0
 40
1.0
 40
1.0
 10
222.3673061003809
 20
159.8745749708042
 30
0.0
 10
222.3687388846602
 20
159.8502703622942
 30
0.0
 10
222.3714529732902
 20
159.8042307298338
 30
0.0
 10
222.3768596925301
 20
159.7466042896633
 30
0.0
 10
222.3899705311231
 20
159.6626555945229
 30
0.0
 10
222.4116083330931
 20
159.5708315796267
 30
0.0
 10
222.453447595351
 20
159.4504039735033
 30
0.0
 10
222.5338427079819
 20
159.2962513247556
 30
0.0
 10
222.6685850558779
 20
159.1282971232464
 30
0.0
 10
222.8660920075054
 20
158.97429070034
 30
0.0
 10
223.1178319403042
 20
158.8717402199026
 30
0.0
 10
223.3569251163373
 20
158.8333339639296
 30
0.0
 10
223.4978937835212
 20
158.8647122823383
 30
0.0
 10
223.545744793384
 20
158.8753634735119
 30
0.0
  0
SPLINE
  5
A6
330
1F
100
AcDbEntity
  8
0
  6
CONTINUOUS
 62
     7
100
AcDbSpline
210
0.0
220
0.0
230
1.0
 70
     8
 71
     3
 72
    19
 73
    15
 74
     0
 42
0.00000001
 43
0.00000001
 12
1.0
 22
0.0
 32
0.0
 13
1.0
 23
0.0
 33
0.0
 40
0.0
 40
0.0
 40
0.0
 40
0.0
 40
0.0451137670881275
 40
0.1208669586480159
 40
0.185695729420601
 40
0.2431625958637541
 40
0.2947939442419036
 40
0.341355921924032
 40
0.3863318778245458
 40
0.4370556509053433
 40
0.5019311665525953
 40
0.5956511791377715
 40
0.7432103321534385
 40
1.0
 40
1.0
 40
1.0
 40
1.0
 10
203.3610820291593
 20
158.8733096820617
 30
0.0
 10
203.4194900670554
 20
158.8625610147668
 30
0.0
 10
203.5759744920273
 20
158.8337636252046
 30
0.0
 10
203.8215693294403
 20
158.881420048573
 30
0.0
 10
204.0579460122614
 20
158.9889582964439
 30
0.0
 10
204.2343519967858
 20
159.1300464520066
 30
0.0
 10
204.3577633342523
 20
159.2798536462822
 30
0.0
 10
204.4362214338533
 20
159.4199955636993
 30
0.0
 10
204.4804436519219
 20
159.5336271531209
 30
0.0
 10
204.5039672900191
 20
159.6182663612836
 30
0.0
 10
204.5174160916444
 20
159.6843459822994
 30
0.0
 10
204.5257311079744
 20
159.740760556283
 30
0.0
 10
204.5317185752255
 20
159.7970722951708
 30
0.0
 10
204.5342320671448
 20
159.8331714382156
 30
0.0
 10
204.5358283096014
 20
159.856096908685
 30
0.0
  0
ARC
  5
A7
330
1F
100
AcDbEntity
  8
0
  6
CONTINUOUS
 62
     7
100
AcDbCircle
 10
213.45190625
 20
218.1104008193
 30
0.0
 40
60.10000000000002
100
AcDbArc
 50
249.073986853
 51
260.3343016568
  0
ARC
  5
A8
330
1F
100
AcDbEntity
  8
0
  6
CONTINUOUS
 62
     7
100
AcDbCircle
 10
213.45190625
 20
218.1104008193
 30
0.0
 40
60.09999999999999
100
AcDbArc
 50
279.6656983432
 51
290.926013147
  0
LINE
  5
A9
330
1F
100
AcDbEntity
  8
0
  6
CONTINUOUS
 62
     7
100
AcDbLine
 10
213.45190625
 20
221.0104008193
 30
0.0
 11
241.45190625
 21
221.0104008193
 31
0.0
  0
LINE
  5
AA
330
1F
100
AcDbEntity
  8
0
  6
CONTINUOUS
 62
     7
100
AcDbLine
 10
185.45190625
 20
221.0104008193
 30
0.0
 11
213.45190625
 21
221.0104008193
 31
0.0
  0
LINE
  5
AB
330
1F
100
AcDbEntity
  8
0
  6
CONTINUOUS
 62
     7
100
AcDbLine
 10
223.7156441399
 20
164.7770058444
 30
0.0
 11
236.8461562375
 21
164.7770058444
 31
0.0
  0
SPLINE
  5
AC
330
1F
100
AcDbEntity
  8
0
  6
CONTINUOUS
 62
     7
100
AcDbSpline
210
0.0
220
0.0
230
1.0
 70
     8
 71
     3
 72
     8
 73
     4
 74
     0
 42
0.00000001
 43
0.00000001
 12
1.0
 22
0.0
 32
0.0
 13
1.0
 23
0.0
 33
0.0
 40
0.0
 40
0.0
 40
0.0
 40
0.0
 40
0.0000002458549155
 40
0.0000002458549155
 40
0.0000002458549155
 40
0.0000002458549155
 10
223.7154232016417
 20
164.7770041869955
 30
0.0
 10
223.7154968471155
 20
164.7770052919326
 30
0.0
 10
223.71557049654
 20
164.7770058443748
 30
0.0
 10
223.7156441398706
 20
164.7770058443748
 30
0.0
  0
SPLINE
  5
AD
330
1F
100
AcDbEntity
  8
0
  6
CONTINUOUS
 62
     7
100
AcDbSpline
210
0.0
220
0.0
230
1.0
 70
     8
 71
     3
 72
     8
 73
     4
 74
     0
 42
0.00000001
 43
0.00000001
 12
1.0
 22
0.0
 32
0.0
 13
1.0
 23
0.0
 33
0.0
 40
0.0
 40
0.0
 40
0.0
 40
0.0
 40
0.0000002458549159
 40
0.0000002458549159
 40
0.0000002458549159
 40
0.0000002458549159
 10
203.1881683601291
 20
164.7770058443577
 30
0.0
 10
203.1882420034597
 20
164.7770058443577
 30
0.0
 10
203.1883156528844
 20
164.7770052918912
 30
0.0
 10
203.1883892983584
 20
164.7770041869541
 30
0.0
  0
LINE
  5
AE
330
1F
100
AcDbEntity
  8
0
  6
CONTINUOUS
 62
     7
100
AcDbLine
 10
190.0576562625
 20
164.7770058444
 30
0.0
 11
203.1881683601
 21
164.7770058444
 31
0.0
  0
SPLINE
  5
AF
330
1F
100
AcDbEntity
  8
0
  6
CONTINUOUS
 62
     7
100
AcDbSpline
210
0.0
220
0.0
230
1.0
 70
     8
 71
     3
 72
    12
 73
     8
 74
     0
 42
0.00000001
 43
0.00000001
 12
1.0
 22
0.0
 32
0.0
 13
1.0
 23
0.0
 33
0.0
 40
0.0
 40
0.0
 40
0.0
 40
0.0
 40
0.071169030011144
 40
0.3243642421255283
 40
0.5898392874584312
 40
0.8552736504026192
 40
1.0
 40
1.0
 40
1.0
 40
1.0
 10
224.5570844246351
 20
172.8111743404091
 30
0.0
 10
224.5773732228557
 20
172.9692734324989
 30
0.0
 10
224.6698426671831
 20
173.689835342341
 30
0.0
 10
224.6281733314153
 20
175.0288123232593
 30
0.0
 10
224.3634693040428
 20
176.7633443392852
 30
0.0
 10
223.9398734630223
 20
178.215331366856
 30
0.0
 10
223.5027687081918
 20
178.9903828639838
 30
0.0
 10
223.3485350782415
 20
179.2638619430361
 30
0.0
  0
SPLINE
  5
B0
330
1F
100
AcDbEntity
  8
0
  6
CONTINUOUS
 62
     7
100
AcDbSpline
210
0.0
220
0.0
230
1.0
 70
     8
 71
     3
 72
    12
 73
     8
 74
     0
 42
0.00000001
 43
0.00000001
 12
1.0
 22
0.0
 32
0.0
 13
1.0
 23
0.0
 33
0.0
 40
0.0
 40
0.0
 40
0.0
 40
0.0
 40
0.2077019084499816
 40
0.4550018719674844
 40
0.7031898374646129
 40
0.9515829183784466
 40
1.0
 40
1.0
 40
1.0
 40
1.0
 10
203.466725753447
 20
179.1425012366363
 30
0.0
 10
203.2583002776294
 20
178.706555784496
 30
0.0
 10
202.8017133239012
 20
177.7515525383543
 30
0.0
 10
202.4024595478681
 20
176.1183725625615
 30
0.0
 10
202.2445356122012
 20
174.3440810271714
 30
0.0
 10
202.264798823318
 20
173.025505268814
 30
0.0
 10
202.3876208100465
 20
172.3302923905769
 30
0.0
 10
202.4076561151235
 20
172.2168859681605
 30
0.0
  0
SPLINE
  5
B1
330
1F
100
AcDbEntity
  8
0
  6
CONTINUOUS
 62
     7
100
AcDbSpline
210
0.0
220
0.0
230
1.0
 70
     8
 71
     3
 72
    18
 73
    14
 74
     0
 42
0.00000001
 43
0.00000001
 12
1.0
 22
0.0
 32
0.0
 13
1.0
 23
0.0
 33
0.0
 40
0.0
 40
0.0
 40
0.0
 40
0.0
 40
0.1249999999999998
 40
0.1249999999999998
 40
0.2499999999999995
 40
0.2499999999999995
 40
0.4999999999999997
 40
0.4999999999999997
 40
0.7499999999999998
 40
0.7499999999999998
 40
0.8749999999999999
 40
0.8749999999999999
 40
1.0
 40
1.0
 40
1.0
 40
1.0
 10
204.5848820332499
 20
166.1819885685414
 30
0.0
 10
204.5613216298627
 20
166.1834177698969
 30
0.0
 10
204.5307150991002
 20
166.1823787291967
 30
0.0
 10
204.4559294361013
 20
166.1755591293134
 30
0.0
 10
204.4111580579623
 20
166.1696570571252
 30
0.0
 10
204.2624697117085
 20
166.1456094568971
 30
0.0
 10
204.1407010523066
 20
166.1205751071418
 30
0.0
 10
203.8787174724417
 20
166.0588423147734
 30
0.0
 10
203.738159443534
 20
166.0221502092697
 30
0.0
 10
203.52844362569
 20
165.9627734462853
 30
0.0
 10
203.4597608860566
 20
165.9425567361458
 30
0.0
 10
203.3262235652498
 20
165.9017705055316
 30
0.0
 10
203.2599924543561
 20
165.8807581293932
 30
0.0
 10
203.1981727632267
 20
165.8603484601932
 30
0.0
  0
SPLINE
  5
B2
330
1F
100
AcDbEntity
  8
0
  6
CONTINUOUS
 62
     7
100
AcDbSpline
210
0.0
220
0.0
230
1.0
 70
     8
 71
     3
 72
    18
 73
    14
 74
     0
 42
0.00000001
 43
0.00000001
 12
1.0
 22
0.0
 32
0.0
 13
1.0
 23
0.0
 33
0.0
 40
0.0
 40
0.0
 40
0.0
 40
0.0
 40
0.1249999999999996
 40
0.1249999999999996
 40
0.2499999999999992
 40
0.2499999999999992
 40
0.4999999999999984
 40
0.4999999999999984
 40
0.7499999999999977
 40
0.7499999999999977
 40
0.8749999999999988
 40
0.8749999999999988
 40
1.0
 40
1.0
 40
1.0
 40
1.0
 10
222.3189304667498
 20
166.1819885685414
 30
0.0
 10
222.342490870137
 20
166.1834177698969
 30
0.0
 10
222.3730974008995
 20
166.1823787291967
 30
0.0
 10
222.4478830638983
 20
166.1755591293134
 30
0.0
 10
222.4926544420372
 20
166.1696570571252
 30
0.0
 10
222.641342788291
 20
166.1456094568972
 30
0.0
 10
222.7631114476927
 20
166.1205751071419
 30
0.0
 10
223.0250950275574
 20
166.0588423147736
 30
0.0
 10
223.1656530564649
 20
166.0221502092699
 30
0.0
 10
223.3753688743088
 20
165.9627734462856
 30
0.0
 10
223.4440516139422
 20
165.9425567361461
 30
0.0
 10
223.5775889347489
 20
165.9017705055319
 30
0.0
 10
223.6438200456437
 20
165.8807581293977
 30
0.0
 10
223.7056397367719
 20
165.8603484601932
 30
0.0
  0
SPLINE
  5
B3
330
1F
100
AcDbEntity
  8
0
  6
CONTINUOUS
 62
     7
100
AcDbSpline
210
0.0
220
0.0
230
1.0
 70
     8
 71
     3
 72
     8
 73
     4
 74
     0
 42
0.00000001
 43
0.00000001
 12
1.0
 22
0.0
 32
0.0
 13
1.0
 23
0.0
 33
0.0
 40
0.0
 40
0.0
 40
0.0
 40
0.0
 40
1.0
 40
1.0
 40
1.0
 40
1.0
 10
222.2646162727613
 20
166.2519453230078
 30
0.0
 10
222.2646977715702
 20
166.206060770584
 30
0.0
 10
222.2819706665351
 20
166.1797465442559
 30
0.0
 10
222.3189304667498
 20
166.1819885685414
 30
0.0
  0
SPLINE
  5
B4
330
1F
100
AcDbEntity
  8
0
  6
CONTINUOUS
 62
     7
100
AcDbSpline
210
0.0
220
0.0
230
1.0
 70
     8
 71
     3
 72
    11
 73
     7
 74
     0
 42
0.00000001
 43
0.00000001
 12
1.0
 22
0.0
 32
0.0
 13
1.0
 23
0.0
 33
0.0
 40
0.0
 40
0.0
 40
0.0
 40
0.0
 40
0.4992759879551417
 40
0.7490240097422172
 40
0.9987561990506345
 40
1.0
 40
1.0
 40
1.0
 40
1.0
 10
222.2646162727613
 20
166.2519453230078
 30
0.0
 10
222.2603317925903
 20
168.6187162015761
 30
0.0
 10
222.2539041281425
 20
172.1693940959147
 30
0.0
 10
222.2434705763053
 20
177.0987817513079
 30
0.0
 10
222.2380076838285
 20
179.5951951307097
 30
0.0
 10
222.2342901272864
 20
180.9475991052146
 30
0.0
 10
222.2342717036103
 20
180.9543014250089
 30
0.0
  0
SPLINE
  5
B5
330
1F
100
AcDbEntity
  8
0
  6
CONTINUOUS
 62
     7
100
AcDbSpline
210
0.0
220
0.0
230
1.0
 70
     8
 71
     3
 72
    10
 73
     6
 74
     0
 42
0.00000001
 43
0.00000001
 12
1.0
 22
0.0
 32
0.0
 13
1.0
 23
0.0
 33
0.0
 40
0.0
 40
0.0
 40
0.0
 40
0.0
 40
0.1989652172010324
 40
0.4658163871977635
 40
1.0
 40
1.0
 40
1.0
 40
1.0
 10
204.6696845229441
 20
180.9472590902988
 30
0.0
 10
204.6670585010252
 20
179.9096783436897
 30
0.0
 10
204.6609104714339
 20
177.4804994067346
 30
0.0
 10
204.6508730623551
 20
172.5943420609179
 30
0.0
 10
204.6438678030565
 20
168.7893612352238
 30
0.0
 10
204.6391962272384
 20
166.2519453230078
 30
0.0
  0
SPLINE
  5
B6
330
1F
100
AcDbEntity
  8
0
  6
CONTINUOUS
 62
     7
100
AcDbSpline
210
0.0
220
0.0
230
1.0
 70
     8
 71
     3
 72
     8
 73
     4
 74
     0
 42
0.00000001
 43
0.00000001
 12
1.0
 22
0.0
 32
0.0
 13
1.0
 23
0.0
 33
0.0
 40
0.0
 40
0.0
 40
0.0
 40
0.0
 40
1.0
 40
1.0
 40
1.0
 40
1.0
 10
204.5848820332499
 20
166.1819885685414
 30
0.0
 10
204.6218753756146
 20
166.1797445095503
 30
0.0
 10
204.6391146180704
 20
166.205998637407
 30
0.0
 10
204.6391962272384
 20
166.2519453230078
 30
0.0
  0
SPLINE
  5
B7
330
1F
100
AcDbEntity
  8
0
  6
CONTINUOUS
 62
     7
100
AcDbSpline
210
0.0
220
0.0
230
1.0
 70
     8
 71
     3
 72
    14
 73
    10
 74
     0
 42
0.00000001
 43
0.00000001
 12
1.0
 22
0.0
 32
0.0
 13
1.0
 23
0.0
 33
0.0
 40
0.0
 40
0.0
 40
0.0
 40
0.0
 40
0.25
 40
0.25
 40
0.5
 40
0.5
 40
0.75
 40
0.75
 40
1.0
 40
1.0
 40
1.0
 40
1.0
 10
222.2964960875865
 20
162.9002430731476
 30
0.0
 10
222.2953614617131
 20
162.9682821846768
 30
0.0
 10
222.2940623443452
 20
163.0607064322235
 30
0.0
 10
222.2911119119703
 20
163.297766668487
 30
0.0
 10
222.2894765535044
 20
163.4415186889871
 30
0.0
 10
222.2860305685339
 20
163.7685391913421
 30
0.0
 10
222.284175206055
 20
163.9563447045352
 30
0.0
 10
222.2805138832975
 20
164.3505605645407
 30
0.0
 10
222.2786507588654
 20
164.5629873467097
 30
0.0
 10
222.2768883542405
 20
164.7766002345473
 30
0.0
  0
SPLINE
  5
B8
330
1F
100
AcDbEntity
  8
0
  6
CONTINUOUS
 62
     7
100
AcDbSpline
210
0.0
220
0.0
230
1.0
 70
     8
 71
     3
 72
    20
 73
    16
 74
     0
 42
0.00000001
 43
0.00000001
 12
1.0
 22
0.0
 32
0.0
 13
1.0
 23
0.0
 33
0.0
 40
0.0
 40
0.0
 40
0.0
 40
0.0
 40
0.1249999999999998
 40
0.1249999999999998
 40
0.2499999999999997
 40
0.2499999999999997
 40
0.3749999999999995
 40
0.3749999999999995
 40
0.4999999999999993
 40
0.4999999999999993
 40
0.6249999999999991
 40
0.6249999999999991
 40
0.749999999999999
 40
0.749999999999999
 40
1.0
 40
1.0
 40
1.0
 40
1.0
 10
223.7154232016417
 20
164.7770041869955
 30
0.0
 10
223.6387896299032
 20
164.7758544181331
 30
0.0
 10
223.5590911647524
 20
164.774819476996
 30
0.0
 10
223.3937584281453
 20
164.7729807944005
 30
0.0
 10
223.3080575824804
 20
164.7721820195736
 30
0.0
 10
223.1401644987087
 20
164.770913837777
 30
0.0
 10
223.0555908018372
 20
164.7704264824003
 30
0.0
 10
222.8947455002635
 20
164.7697985655511
 30
0.0
 10
222.8182856008632
 20
164.7696515530649
 30
0.0
 10
222.673789374985
 20
164.7696910128462
 30
0.0
 10
222.6087694614866
 20
164.7698764131173
 30
0.0
 10
222.4927443453564
 20
164.7705517270555
 30
0.0
 10
222.442070149964
 20
164.7710469862162
 30
0.0
 10
222.3201830164787
 20
164.7728885965075
 30
0.0
 10
222.2764267734865
 20
164.7746390545305
 30
0.0
 10
222.2768883542405
 20
164.7766002345467
 30
0.0
  0
SPLINE
  5
B9
330
1F
100
AcDbEntity
  8
0
  6
CONTINUOUS
 62
     7
100
AcDbSpline
210
0.0
220
0.0
230
1.0
 70
     8
 71
     3
 72
    20
 73
    16
 74
     0
 42
0.00000001
 43
0.00000001
 12
1.0
 22
0.0
 32
0.0
 13
1.0
 23
0.0
 33
0.0
 40
0.0
 40
0.0
 40
0.0
 40
0.0
 40
0.125
 40
0.125
 40
0.25
 40
0.25
 40
0.375
 40
0.375
 40
0.5
 40
0.5
 40
0.625
 40
0.625
 40
0.75
 40
0.75
 40
1.0
 40
1.0
 40
1.0
 40
1.0
 10
203.1883892983581
 20
164.7770041869956
 30
0.0
 10
203.2650228701228
 20
164.7758544181328
 30
0.0
 10
203.3447213350821
 20
164.7748194769987
 30
0.0
 10
203.5100540707832
 20
164.7729807944117
 30
0.0
 10
203.595754917023
 20
164.7721820195782
 30
0.0
 10
203.763648000218
 20
164.7709138377841
 30
0.0
 10
203.8482216962392
 20
164.7704264824094
 30
0.0
 10
204.0090669991358
 20
164.7697985655519
 30
0.0
 10
204.0855268960491
 20
164.769651553067
 30
0.0
 10
204.230023124386
 20
164.7696910128431
 30
0.0
 10
204.2950430380627
 20
164.7698764131164
 30
0.0
 10
204.41106815348
 20
164.7705517270468
 30
0.0
 10
204.4617423496088
 20
164.7710469862112
 30
0.0
 10
204.5836294832781
 20
164.7728885965005
 30
0.0
 10
204.6273857265111
 20
164.7746390545433
 30
0.0
 10
204.6269241457592
 20
164.7766002345464
 30
0.0
  0
SPLINE
  5
BA
330
1F
100
AcDbEntity
  8
0
  6
CONTINUOUS
 62
     7
100
AcDbSpline
210
0.0
220
0.0
230
1.0
 70
     8
 71
     3
 72
    14
 73
    10
 74
     0
 42
0.00000001
 43
0.00000001
 12
1.0
 22
0.0
 32
0.0
 13
1.0
 23
0.0
 33
0.0
 40
0.0
 40
0.0
 40
0.0
 40
0.0
 40
0.25
 40
0.25
 40
0.5
 40
0.5
 40
0.75
 40
0.75
 40
1.0
 40
1.0
 40
1.0
 40
1.0
 10
204.6269241457592
 20
164.7766002345473
 30
0.0
 10
204.6251617411343
 20
164.5629873467097
 30
0.0
 10
204.6232986167022
 20
164.3505605645407
 30
0.0
 10
204.6196372939447
 20
163.9563447045352
 30
0.0
 10
204.6177819314659
 20
163.7685391913421
 30
0.0
 10
204.6143359464954
 20
163.4415186889871
 30
0.0
 10
204.6127005880294
 20
163.2977666684869
 30
0.0
 10
204.6097501556545
 20
163.0607064322236
 30
0.0
 10
204.6084510382867
 20
162.9682821846768
 30
0.0
 10
204.6073164124133
 20
162.9002430731476
 30
0.0
  0
LWPOLYLINE
  5
BB
330
1F
100
AcDbEntity
  8
0
  6
CONTINUOUS
 62
     7
100
AcDbPolyline
 90
        3
 70
   128
 43
0.0
 10
222.2768883542
 20
164.7766002345
 10
222.2732499096
 20
165.2140114853
 10
222.2646162728
 20
166.251945323
  0
LWPOLYLINE
  5
BC
330
1F
100
AcDbEntity
  8
0
  6
CONTINUOUS
 62
     7
100
AcDbPolyline
 90
        3
 70
   128
 43
0.0
 10
204.6391962272
 20
166.251945323
 10
204.6305625904
 20
165.2140114853
 10
204.6269241458
 20
164.7766002345
  0
ARC
  5
BD
330
1F
100
AcDbEntity
  8
0
  6
CONTINUOUS
 62
     7
100
AcDbCircle
 10
350.5042958508
 20
164.3687050047
 30
0.0
 40
128.2162091959096
100
AcDbArc
 50
180.6562236637
 51
181.9858693113
  0
ARC
  5
BE
330
1F
100
AcDbEntity
  8
0
  6
CONTINUOUS
 62
     7
100
AcDbCircle
 10
109.0326674086
 20
163.6258757131
 30
0.0
 40
95.5774035791185
100
AcDbArc
 50
357.7737811424
 51
359.5650008726
  0
LINE
  5
BF
330
1F
100
AcDbEntity
  8
0
  6
CONTINUOUS
 62
     8
100
AcDbLine
 10
213.45190625
 20
199.9417023258
 30
0.0
 11
237.6198621925
 21
199.9417023258
 31
0.0
  0
LINE
  5
C0
330
1F
100
AcDbEntity
  8
0
  6
CONTINUOUS
 62
     8
100
AcDbLine
 10
189.2839503075
 20
199.9417023258
 30
0.0
 11
213.45190625
 21
199.9417023258
 31
0.0
  0
LINE
  5
C1
330
1F
100
AcDbEntity
  8
0
  6
CONTINUOUS
 62
     8
100
AcDbLine
 10
223.7056397368
 20
165.8603484602
 30
0.0
 11
223.7154231867
 21
164.7770058444
 31
0.0
  0
SPLINE
  5
C2
330
1F
100
AcDbEntity
  8
0
  6
CONTINUOUS
 62
     8
100
AcDbSpline
210
0.0
220
0.0
230
1.0
 70
     8
 71
     3
 72
    74
 73
    70
 74
     0
 42
0.00000001
 43
0.00000001
 12
1.0
 22
0.0
 32
0.0
 13
1.0
 23
0.0
 33
0.0
 40
0.0
 40
0.0
 40
0.0
 40
0.0
 40
0.0312500000000003
 40
0.0312500000000003
 40
0.0625000000000006
 40
0.0625000000000006
 40
0.1250000000000016
 40
0.1250000000000016
 40
0.1875000000000026
 40
0.1875000000000026
 40
0.2031250000000027
 40
0.2031250000000027
 40
0.2187500000000029
 40
0.2187500000000029
 40
0.2500000000000028
 40
0.2500000000000028
 40
0.2656250000000029
 40
0.2656250000000029
 40
0.281250000000003
 40
0.281250000000003
 40
0.3125000000000031
 40
0.3125000000000031
 40
0.3437500000000031
 40
0.3437500000000031
 40
0.3750000000000032
 40
0.3750000000000032
 40
0.3906250000000033
 40
0.3906250000000033
 40
0.4062500000000033
 40
0.4062500000000033
 40
0.4375000000000034
 40
0.4375000000000034
 40
0.4687500000000034
 40
0.4687500000000034
 40
0.5000000000000036
 40
0.5000000000000036
 40
0.5312500000000037
 40
0.5312500000000037
 40
0.5468750000000037
 40
0.5468750000000037
 40
0.5625000000000037
 40
0.5625000000000037
 40
0.5937500000000037
 40
0.5937500000000037
 40
0.6093750000000037
 40
0.6093750000000037
 40
0.6250000000000036
 40
0.6250000000000036
 40
0.6875000000000032
 40
0.6875000000000032
 40
0.750000000000003
 40
0.750000000000003
 40
0.7656250000000028
 40
0.7656250000000028
 40
0.7812500000000027
 40
0.7812500000000027
 40
0.8125000000000022
 40
0.8125000000000022
 40
0.8437500000000019
 40
0.8437500000000019
 40
0.8750000000000016
 40
0.8750000000000016
 40
0.9062500000000012
 40
0.9062500000000012
 40
0.9375000000000008
 40
0.9375000000000008
 40
0.9687500000000004
 40
0.9687500000000004
 40
1.0
 40
1.0
 40
1.0
 40
1.0
 10
203.1981727632267
 20
165.8603484601932
 30
0.0
 10
202.882729478487
 20
166.3500020126792
 30
0.0
 10
202.5948541893313
 20
166.857409014892
 30
0.0
 10
202.0745615377755
 20
167.9063054851864
 30
0.0
 10
201.845121290915
 20
168.4416784400862
 30
0.0
 10
201.2470759153708
 20
170.0815988693536
 30
0.0
 10
200.9659339298187
 20
171.2189434621443
 30
0.0
 10
200.6870891280625
 20
173.6074335692498
 30
0.0
 10
200.6978390876014
 20
174.7947777706688
 30
0.0
 10
200.9274488927975
 20
176.2673299753256
 30
0.0
 10
200.9845356599855
 20
176.5612335936941
 30
0.0
 10
201.1189035823151
 20
177.1358492658563
 30
0.0
 10
201.1963890638218
 20
177.4181139101674
 30
0.0
 10
201.4595365642926
 20
178.2502181605536
 30
0.0
 10
201.6757475239153
 20
178.7854151462528
 30
0.0
 10
202.0629174316718
 20
179.5598148799413
 30
0.0
 10
202.2031922783928
 20
179.8143157623034
 30
0.0
 10
202.5015041084488
 20
180.3074549760713
 30
0.0
 10
202.659320771291
 20
180.545998601873
 30
0.0
 10
203.1580765091067
 20
181.2390246758121
 30
0.0
 10
203.5241904928826
 20
181.6710226633247
 30
0.0
 10
204.3233929329054
 20
182.4795959395822
 30
0.0
 10
204.7588628453516
 20
182.8572269895107
 30
0.0
 10
205.6721551433566
 20
183.5392426800966
 30
0.0
 10
206.152486515728
 20
183.8466649685363
 30
0.0
 10
206.9084756541997
 20
184.2605941437022
 30
0.0
 10
207.1664099907599
 20
184.3906642400578
 30
0.0
 10
207.6944253737202
 20
184.6350728316182
 30
0.0
 10
207.965174658697
 20
184.7496015995167
 30
0.0
 10
208.7841831446298
 20
185.0649887084435
 30
0.0
 10
209.3424949654781
 20
185.2395499879944
 30
0.0
 10
210.483457061261
 20
185.5206014846599
 30
0.0
 10
211.0661050473743
 20
185.6270865268062
 30
0.0
 10
212.2568526300513
 20
185.7704031895873
 30
0.0
 10
212.8531594739404
 20
185.8056873952253
 30
0.0
 10
214.0413690033315
 20
185.8060539320956
 30
0.0
 10
214.6343102396741
 20
185.7712547948776
 30
0.0
 10
215.5219506229828
 20
185.665412364415
 30
0.0
 10
215.8186489258867
 20
185.6209350050151
 30
0.0
 10
216.4053691802096
 20
185.5145151458401
 30
0.0
 10
216.6950097730761
 20
185.4527286626861
 30
0.0
 10
217.5530723609502
 20
185.2420052611868
 30
0.0
 10
218.1106848353976
 20
185.0678542618064
 30
0.0
 10
218.9257142712815
 20
184.7548585091847
 30
0.0
 10
219.193813411999
 20
184.6418615696386
 30
0.0
 10
219.7227440397637
 20
184.3978460720273
 30
0.0
 10
219.9835714312086
 20
184.2667189922373
 30
0.0
 10
221.2500471250659
 20
183.5748348926578
 30
0.0
 10
222.1611060621245
 20
182.9013271379812
 30
0.0
 10
223.7751013074533
 20
181.2733684697965
 30
0.0
 10
224.4379649785795
 20
180.3587446641493
 30
0.0
 10
225.0867142718378
 20
179.0697783267362
 30
0.0
 10
225.2078405439774
 20
178.8031384227467
 30
0.0
 10
225.4278696620798
 20
178.2620354077156
 30
0.0
 10
225.5268072919276
 20
177.9878894773394
 30
0.0
 10
225.7915355553998
 20
177.154745601617
 30
0.0
 10
225.9253778303473
 20
176.5850682837714
 30
0.0
 10
226.1103384129803
 20
175.4169242505476
 30
0.0
 10
226.1610119422438
 20
174.8134994666298
 30
0.0
 10
226.179147612659
 20
173.6195711914721
 30
0.0
 10
226.147890041153
 20
173.025320551174
 30
0.0
 10
226.0114361826151
 20
171.8417763978361
 30
0.0
 10
225.9049615551473
 20
171.2484235381614
 30
0.0
 10
225.6278337623948
 20
170.0961832573271
 30
0.0
 10
225.4574573507196
 20
169.5350096640392
 30
0.0
 10
225.0577426383013
 20
168.4392165233576
 30
0.0
 10
224.8283755779927
 20
167.9046123971649
 30
0.0
 10
224.3106000764166
 20
166.8606472141318
 30
0.0
 10
224.0214654352193
 20
166.3505956224943
 30
0.0
 10
223.7056397367731
 20
165.8603484601931
 30
0.0
  0
LINE
  5
C3
330
1F
100
AcDbEntity
  8
0
  6
CONTINUOUS
 62
     8
100
AcDbLine
 10
203.1883893133
 20
164.7770058444
 30
0.0
 11
203.1981727632
 21
165.8603484602
 31
0.0
  0
LINE
  5
C4
330
1F
100
AcDbEntity
  8
0
  6
CONTINUOUS
 62
     8
100
AcDbLine
 10
213.45190625
 20
198.9783500833
 30
0.0
 11
189.4606695782
 21
198.9783500833
 31
0.0
  0
LINE
  5
C5
330
1F
100
AcDbEntity
  8
0
  6
CONTINUOUS
 62
     8
100
AcDbLine
 10
237.4431429218
 20
198.9783500833
 30
0.0
 11
213.45190625
 21
198.9783500833
 31
0.0
  0
SPLINE
  5
C6
330
1F
100
AcDbEntity
  8
0
  6
CONTINUOUS
 62
     8
100
AcDbSpline
210
0.0
220
0.0
230
1.0
 70
     8
 71
     3
 72
    12
 73
     8
 74
     0
 42
0.00000001
 43
0.00000001
 12
1.0
 22
0.0
 32
0.0
 13
1.0
 23
0.0
 33
0.0
 40
0.0
 40
0.0
 40
0.0
 40
0.0
 40
0.1780682908107607
 40
0.3951238665096742
 40
0.6127240475218728
 40
0.8295542710411447
 40
1.0
 40
1.0
 40
1.0
 40
1.0
 10
222.3189304667498
 20
166.1819885685414
 30
0.0
 10
222.5306079523551
 20
166.5362460940403
 30
0.0
 10
223.0003087968152
 20
167.3223243035741
 30
0.0
 10
223.5916265059197
 20
168.6273425922887
 30
0.0
 10
224.086394863242
 20
170.0789011463918
 30
0.0
 10
224.4306194501423
 20
171.4781478395849
 30
0.0
 10
224.5184353717426
 20
172.4037871413512
 30
0.0
 10
224.5570844246351
 20
172.8111743404091
 30
0.0
  0
SPLINE
  5
C7
330
1F
100
AcDbEntity
  8
0
  6
CONTINUOUS
 62
     8
100
AcDbSpline
210
0.0
220
0.0
230
1.0
 70
     8
 71
     3
 72
    11
 73
     7
 74
     0
 42
0.00000001
 43
0.00000001
 12
1.0
 22
0.0
 32
0.0
 13
1.0
 23
0.0
 33
0.0
 40
0.0
 40
0.0
 40
0.0
 40
0.0
 40
0.2008304803551504
 40
0.4554864723260338
 40
0.7093837908913451
 40
1.0
 40
1.0
 40
1.0
 40
1.0
 10
202.4076561151235
 20
172.2168859681605
 30
0.0
 10
202.4712500107417
 20
171.7808207697469
 30
0.0
 10
202.6154818978806
 20
170.7918185098393
 30
0.0
 10
203.057701592168
 20
169.3157423445889
 30
0.0
 10
203.689767252073
 20
167.7167876968109
 30
0.0
 10
204.2733916707765
 20
166.7160822365735
 30
0.0
 10
204.5848820332499
 20
166.1819885685414
 30
0.0
  0
LINE
  5
C8
330
1F
100
AcDbEntity
  8
0
  6
CONTINUOUS
 62
     8
100
AcDbLine
 10
223.4630324905
 20
161.9744517609
 30
0.0
 11
234.9173487871
 21
161.9744517609
 31
0.0
  0
SPLINE
  5
C9
330
1F
100
AcDbEntity
  8
0
  6
CONTINUOUS
 62
     8
100
AcDbSpline
210
0.0
220
0.0
230
1.0
 70
     8
 71
     3
 72
    18
 73
    14
 74
     0
 42
0.00000001
 43
0.00000001
 12
1.0
 22
0.0
 32
0.0
 13
1.0
 23
0.0
 33
0.0
 40
0.0
 40
0.0
 40
0.0
 40
0.0
 40
0.2499999999999954
 40
0.2499999999999954
 40
0.3749999999999958
 40
0.3749999999999958
 40
0.4999999999999962
 40
0.4999999999999962
 40
0.6249999999999966
 40
0.6249999999999966
 40
0.749999999999997
 40
0.749999999999997
 40
1.0
 40
1.0
 40
1.0
 40
1.0
 10
223.7156441398707
 20
164.7770058443577
 30
0.0
 10
223.7174350977816
 20
164.4658057968853
 30
0.0
 10
223.7127957148318
 20
164.1560436993295
 30
0.0
 10
223.6969793427672
 20
163.7211126418537
 30
0.0
 10
223.690231156735
 20
163.5801457324766
 30
0.0
 10
223.6736505486975
 20
163.306347842321
 30
0.0
 10
223.6638724116087
 20
163.1749508905419
 30
0.0
 10
223.6418993034438
 20
162.9294588574828
 30
0.0
 10
223.6296389099264
 20
162.8142447960812
 30
0.0
 10
223.6024947167183
 20
162.598595084688
 30
0.0
 10
223.587471554932
 20
162.4974635318524
 30
0.0
 10
223.5393902476806
 20
162.2241874144366
 30
0.0
 10
223.503133578253
 20
162.0795850684454
 30
0.0
 10
223.4630324905263
 20
161.9744517609446
 30
0.0
  0
ARC
  5
CA
330
1F
100
AcDbEntity
  8
0
  6
CONTINUOUS
 62
     8
100
AcDbCircle
 10
223.2787129433
 20
162.9400396782
 30
0.0
 40
0.9830227471915232
100
AcDbArc
 50
182.3201912928
 51
280.8070879578
  0
SPLINE
  5
CB
330
1F
100
AcDbEntity
  8
0
  6
CONTINUOUS
 62
     8
100
AcDbSpline
210
0.0
220
0.0
230
1.0
 70
     8
 71
     3
 72
    18
 73
    14
 74
     0
 42
0.00000001
 43
0.00000001
 12
1.0
 22
0.0
 32
0.0
 13
1.0
 23
0.0
 33
0.0
 40
0.0
 40
0.0
 40
0.0
 40
0.0
 40
0.2500000000000018
 40
0.2500000000000018
 40
0.3750000000000015
 40
0.3750000000000015
 40
0.5000000000000012
 40
0.5000000000000012
 40
0.6250000000000009
 40
0.6250000000000009
 40
0.7500000000000006
 40
0.7500000000000006
 40
1.0
 40
1.0
 40
1.0
 40
1.0
 10
203.4407800094735
 20
161.9744517609446
 30
0.0
 10
203.4006434704181
 20
162.0796780114464
 30
0.0
 10
203.3647360321011
 20
162.222789109173
 30
0.0
 10
203.3166309021245
 20
162.4956256456667
 30
0.0
 10
203.3015653835919
 20
162.5968222072324
 30
0.0
 10
203.2743636469132
 20
162.8125437644982
 30
0.0
 10
203.2620777343384
 20
162.9278101242349
 30
0.0
 10
203.240058969933
 20
163.1734355792951
 30
0.0
 10
203.2302610839444
 20
163.3049036243975
 30
0.0
 10
203.2136426253034
 20
163.57894285333
 30
0.0
 10
203.2068792190721
 20
163.7200397738811
 30
0.0
 10
203.1910266755837
 20
164.1553860369492
 30
0.0
 10
203.1863754781322
 20
164.4654714642622
 30
0.0
 10
203.1881683601291
 20
164.7770058443577
 30
0.0
  0
LINE
  5
CC
330
1F
100
AcDbEntity
  8
0
  6
CONTINUOUS
 62
     8
100
AcDbLine
 10
191.9864637129
 20
161.9744517609
 30
0.0
 11
203.4407800095
 21
161.9744517609
 31
0.0
  0
ARC
  5
CD
330
1F
100
AcDbEntity
  8
0
  6
CONTINUOUS
 62
     8
100
AcDbCircle
 10
203.6250995567
 20
162.9400396782
 30
0.0
 40
0.9830227471914725
100
AcDbArc
 50
259.1929120422
 51
357.6798087072
  0
ARC
  5
CE
330
1F
100
AcDbEntity
  8
0
  6
CONTINUOUS
 62
     8
100
AcDbCircle
 10
287.8664867787
 20
162.0663210645
 30
0.0
 40
64.4035198123481
100
AcDbArc
 50
180.0817303955
 51
182.8504620053
  0
ARC
  5
CF
330
1F
100
AcDbEntity
  8
0
  6
CONTINUOUS
 62
     8
100
AcDbCircle
 10
139.0408735926
 20
162.0662512485
 30
0.0
 40
64.3999718451106
100
AcDbArc
 50
357.1494431734
 51
359.9183272162
  0
ARC
  5
D0
330
1F
100
AcDbEntity
  8
0
  6
CONTINUOUS
 62
     7
100
AcDbCircle
 10
368.6137333249
 20
320.0638357888
 30
0.0
 40
65.00000000000006
100
AcDbArc
 50
70.2102362509
 51
89.1728495332
  0
ARC
  5
D1
330
1F
100
AcDbEntity
  8
0
  6
CONTINUOUS
 62
     7
100
AcDbCircle
 10
368.6137333249
 20
394.0502892112
 30
0.0
 40
65.00000000000006
100
AcDbArc
 50
270.8271504668
 51
289.7897637491
  0
ARC
  5
D2
330
1F
100
AcDbEntity
  8
0
  6
CONTINUOUS
 62
     7
100
AcDbCircle
 10
391.6364811244
 20
330.0662827427
 30
0.0
 40
3.000000000000023
100
AcDbArc
 50
91.0
 51
109.7897637491
  0
ARC
  5
D3
330
1F
100
AcDbEntity
  8
0
  6
CONTINUOUS
 62
     7
100
AcDbCircle
 10
391.6364811244
 20
384.0478422573
 30
0.0
 40
3.000000000000039
100
AcDbArc
 50
250.2102362509
 51
269.0
  0
LINE
  5
D4
330
1F
100
AcDbEntity
  8
0
  6
CONTINUOUS
 62
     7
100
AcDbLine
 10
391.5841239051
 20
333.0658258282
 30
0.0
 11
392.380000722
 21
333.0797179097
 31
0.0
  0
LINE
  5
D5
330
1F
100
AcDbEntity
  8
0
  6
CONTINUOUS
 62
     7
100
AcDbLine
 10
404.7753499796
 20
380.8180454642
 30
0.0
 11
391.5841239051
 21
381.0482991718
 31
0.0
  0
SPLINE
  5
D6
330
1F
100
AcDbEntity
  8
0
  6
CONTINUOUS
 62
     7
100
AcDbSpline
210
0.0
220
0.0
230
1.0
 70
     8
 71
     3
 72
    34
 73
    30
 74
     0
 42
0.00000001
 43
0.00000001
 12
1.0
 22
0.0
 32
0.0
 13
1.0
 23
0.0
 33
0.0
 40
0.0
 40
0.0
 40
0.0
 40
0.0
 40
0.0427485718126815
 40
0.0876588565570725
 40
0.1322225543568813
 40
0.1751016263737334
 40
0.2166584920165713
 40
0.2568313257636395
 40
0.295667686335436
 40
0.3333108881721641
 40
0.3699814432493104
 40
0.4058259016374154
 40
0.4402288319676916
 40
0.4751948809384481
 40
0.5110852970499199
 40
0.5478231924826085
 40
0.5852509463724176
 40
0.6231363987499343
 40
0.661197341448702
 40
0.6990388028724343
 40
0.7366673893005792
 40
0.7751179244419855
 40
0.8137261283789933
 40
0.8527284883030771
 40
0.8919067675977241
 40
0.9309451080471056
 40
0.9695174417548917
 40
0.9929888859863293
 40
1.0
 40
1.0
 40
1.0
 40
1.0
 10
424.5453483158985
 20
378.2059909374415
 30
0.0
 10
424.2260436672346
 20
378.1176091898539
 30
0.0
 10
423.5712877488876
 20
377.9363763999495
 30
0.0
 10
422.5273503044826
 20
377.6863310010121
 30
0.0
 10
421.4443207288435
 20
377.4666999447461
 30
0.0
 10
420.3521488057817
 20
377.2885719967866
 30
0.0
 10
419.2691346592362
 20
377.1561530966933
 30
0.0
 10
418.2003989913988
 20
377.0712360141287
 30
0.0
 10
417.1535999269978
 20
377.035082593872
 30
0.0
 10
416.133954268168
 20
377.0482236114211
 30
0.0
 10
415.1458121205626
 20
377.1102487898419
 30
0.0
 10
414.2003110364256
 20
377.2207841909518
 30
0.0
 10
413.2932917868942
 20
377.3752544631694
 30
0.0
 10
412.4153264715206
 20
377.5669568385767
 30
0.0
 10
411.5545155543398
 20
377.7946532471129
 30
0.0
 10
410.7175400668585
 20
378.0531045446727
 30
0.0
 10
409.9153478773734
 20
378.3350351836301
 30
0.0
 10
409.1600120448602
 20
378.6316688884968
 30
0.0
 10
408.46274121408
 20
378.9331937868268
 30
0.0
 10
407.8371035141948
 20
379.2290749863134
 30
0.0
 10
407.2697706004557
 20
379.5158162267558
 30
0.0
 10
406.7695951037627
 20
379.7793871490107
 30
0.0
 10
406.3353456471962
 20
380.018866967256
 30
0.0
 10
405.9724337774341
 20
380.2275512044519
 30
0.0
 10
405.6848092807366
 20
380.3997491153084
 30
0.0
 10
405.4734031512154
 20
380.5315970171955
 30
0.0
 10
405.3658580979321
 20
380.6010831554383
 30
0.0
 10
405.317964767363
 20
380.6336163691704
 30
0.0
 10
405.3237105983455
 20
380.6295358574217
 30
0.0
 10
405.3250321631498
 20
380.6285973229038
 30
0.0
  0
LINE
  5
D7
330
1F
100
AcDbEntity
  8
0
  6
CONTINUOUS
 62
     7
100
AcDbLine
 10
424.5414582134
 20
378.2079064846
 30
0.0
 11
424.3665554626
 21
378.1576366305
 31
0.0
  0
SPLINE
  5
D8
330
1F
100
AcDbEntity
  8
0
  6
CONTINUOUS
 62
     7
100
AcDbSpline
210
0.0
220
0.0
230
1.0
 70
     8
 71
     3
 72
    18
 73
    14
 74
     0
 42
0.00000001
 43
0.00000001
 12
1.0
 22
0.0
 32
0.0
 13
1.0
 23
0.0
 33
0.0
 40
0.0
 40
0.0
 40
0.0
 40
0.0
 40
0.2329161157476945
 40
0.4651794900653128
 40
0.6964042015502766
 40
0.8137375807898478
 40
0.8582224147552264
 40
0.8783496926277455
 40
0.8914814289401849
 40
0.9041109052922569
 40
0.9276183298284819
 40
0.9602694476904187
 40
1.0
 40
1.0
 40
1.0
 40
1.0
 10
405.8880515897762
 20
380.27932540793
 30
0.0
 10
405.7941291730557
 20
380.3360885735516
 30
0.0
 10
405.6065475547743
 20
380.4494558274815
 30
0.0
 10
405.423820785673
 20
380.5658362979216
 30
0.0
 10
405.3311737441343
 20
380.6263191776157
 30
0.0
 10
405.2992907498428
 20
380.6472654515849
 30
0.0
 10
405.2788680036784
 20
380.6605243407739
 30
0.0
 10
405.2556225490276
 20
380.6749067211441
 30
0.0
 10
405.228340581681
 20
380.6908369723977
 30
0.0
 10
405.1775635142483
 20
380.7181889692977
 30
0.0
 10
405.0830466735056
 20
380.7599828262221
 30
0.0
 10
404.9446505811623
 20
380.8037573687549
 30
0.0
 10
404.8346044893163
 20
380.8098984144615
 30
0.0
 10
404.7741998040115
 20
380.8132692559618
 30
0.0
  0
SPLINE
  5
D9
330
1F
100
AcDbEntity
  8
0
  6
CONTINUOUS
 62
     7
100
AcDbSpline
210
0.0
220
0.0
230
1.0
 70
     8
 71
     3
 72
    15
 73
    11
 74
     0
 42
0.00000001
 43
0.00000001
 12
1.0
 22
0.0
 32
0.0
 13
1.0
 23
0.0
 33
0.0
 40
0.0
 40
0.0
 40
0.0
 40
0.0
 40
0.0820370151279571
 40
0.2160509438096663
 40
0.3472941237261974
 40
0.4820000547500747
 40
0.6151932575977996
 40
0.7530743665784071
 40
0.8918979128069301
 40
0.9999999999999999
 40
0.9999999999999999
 40
0.9999999999999999
 40
0.9999999999999999
 10
425.7828044417236
 20
336.0000142778117
 30
0.0
 10
425.8860985466758
 20
335.9993173253995
 30
0.0
 10
426.1581317115843
 20
335.9974818463026
 30
0.0
 10
426.5877562638946
 20
336.0960772302776
 30
0.0
 10
427.0571313138234
 20
336.2797562200543
 30
0.0
 10
427.4861950934022
 20
336.5450753454392
 30
0.0
 10
427.8713452778025
 20
336.8828986554228
 30
0.0
 10
428.1971196878951
 20
337.2840952717542
 30
0.0
 10
428.4463678336065
 20
337.7024533772695
 30
0.0
 10
428.5491305152584
 20
337.9958180680078
 30
0.0
 10
428.5941192036265
 20
338.124250806797
 30
0.0
  0
SPLINE
  5
DA
330
1F
100
AcDbEntity
  8
0
  6
CONTINUOUS
 62
     7
100
AcDbSpline
210
0.0
220
0.0
230
1.0
 70
     8
 71
     3
 72
    15
 73
    11
 74
     0
 42
0.00000001
 43
0.00000001
 12
1.0
 22
0.0
 32
0.0
 13
1.0
 23
0.0
 33
0.0
 40
0.0
 40
0.0
 40
0.0
 40
0.0
 40
0.1375938141868502
 40
0.2873994371752632
 40
0.4339785276157298
 40
0.5779866060960069
 40
0.7190829406184555
 40
0.8567172249052203
 40
0.993115113763806
 40
0.9999999999999999
 40
0.9999999999999999
 40
0.9999999999999999
 40
0.9999999999999999
 10
428.5978709357111
 20
376.047639519968
 30
0.0
 10
428.5368683028976
 20
376.2094758159685
 30
0.0
 10
428.40944889498
 20
376.5475118000713
 30
0.0
 10
428.1119355116544
 20
377.0083064118292
 30
0.0
 10
427.7393371272317
 20
377.419203581859
 30
0.0
 10
427.3073960045069
 20
377.750318670383
 30
0.0
 10
426.832105403511
 20
377.9941718301829
 30
0.0
 10
426.3308088338439
 20
378.1361438578051
 30
0.0
 10
425.9774210085679
 20
378.1928246440604
 30
0.0
 10
425.7981862611406
 20
378.1792929370825
 30
0.0
 10
425.7895738452742
 20
378.1786427245007
 30
0.0
  0
SPLINE
  5
DB
330
1F
100
AcDbEntity
  8
0
  6
CONTINUOUS
 62
     7
100
AcDbSpline
210
0.0
220
0.0
230
1.0
 70
     8
 71
     3
 72
    22
 73
    18
 74
     0
 42
0.00000001
 43
0.00000001
 12
1.0
 22
0.0
 32
0.0
 13
1.0
 23
0.0
 33
0.0
 40
0.0
 40
0.0
 40
0.0
 40
0.0
 40
0.0373266624007174
 40
0.0945370379470471
 40
0.1353292083417077
 40
0.162003376216337
 40
0.1882266259842672
 40
0.2162463251955606
 40
0.2460593172880883
 40
0.2881022923529194
 40
0.344621687469347
 40
0.4166484517028081
 40
0.5041775528277423
 40
0.6071903662952214
 40
0.7256289771329134
 40
0.8594319343862171
 40
1.0
 40
1.0
 40
1.0
 40
1.0
 10
409.5471821318753
 20
335.1668490292671
 30
0.0
 10
409.749386115576
 20
335.1765094360818
 30
0.0
 10
410.2615070621248
 20
335.200976296682
 30
0.0
 10
410.9938992756918
 20
335.2386730403388
 30
0.0
 10
411.6683450707746
 20
335.2738002146235
 30
0.0
 10
412.1740204841547
 20
335.2999056765147
 30
0.0
 10
412.6108520057685
 20
335.3236641694414
 30
0.0
 10
413.0648162444032
 20
335.3491042983159
 30
0.0
 10
413.6044654818218
 20
335.3799950590245
 30
0.0
 10
414.2985248296108
 20
335.4204189287211
 30
0.0
 10
415.220577400772
 20
335.4749178138064
 30
0.0
 10
416.3884821219995
 20
335.5447214648563
 30
0.0
 10
417.8078877502352
 20
335.6291044701927
 30
0.0
 10
419.4789682461859
 20
335.7253546022955
 30
0.0
 10
421.4019893640771
 20
335.8270733990913
 30
0.0
 10
423.5308615606962
 20
335.9253533148396
 30
0.0
 10
425.020175019617
 20
335.967003515355
 30
0.0
 10
425.7831925927755
 20
335.9883420957112
 30
0.0
  0
LINE
  5
DC
330
1F
100
AcDbEntity
  8
0
  6
CONTINUOUS
 62
     7
100
AcDbLine
 10
425.7904580067
 20
378.1736013233
 30
0.0
 11
424.5697421215
 21
378.2020664133
 31
0.0
  0
SPLINE
  5
DD
330
1F
100
AcDbEntity
  8
0
  6
CONTINUOUS
 62
     7
100
AcDbSpline
210
0.0
220
0.0
230
1.0
 70
     8
 71
     3
 72
    25
 73
    21
 74
     0
 42
0.00000001
 43
0.00000001
 12
1.0
 22
0.0
 32
0.0
 13
1.0
 23
0.0
 33
0.0
 40
0.0
 40
0.0
 40
0.0
 40
0.0
 40
0.0319223140022876
 40
0.0920728471586423
 40
0.152226136957102
 40
0.2123794269028677
 40
0.2725327164710134
 40
0.3326860054906329
 40
0.3928392937941966
 40
0.4529925812186019
 40
0.5131458676060769
 40
0.573299152805214
 40
0.6334524366718809
 40
0.6936057190700875
 40
0.7537589998728325
 40
0.8139122789628787
 40
0.8740655562334662
 40
0.9342188315889579
 40
0.9912072243489102
 40
1.0
 40
1.0
 40
1.0
 40
1.0
 10
428.6015463567499
 20
338.1217262062635
 30
0.0
 10
428.7303692629808
 20
338.5117682429564
 30
0.0
 10
429.1019304146905
 20
339.636758142727
 30
0.0
 10
429.6497566475033
 20
341.5180208117107
 30
0.0
 10
430.2158452887976
 20
343.7704693115276
 30
0.0
 10
430.6922077994279
 20
346.0437489311828
 30
0.0
 10
431.0795880353798
 20
348.3338227505992
 30
0.0
 10
431.3769957708046
 20
350.6373240378436
 30
0.0
 10
431.5840820204961
 20
352.9506882591413
 30
0.0
 10
431.7005011745853
 20
355.2703832649608
 30
0.0
 10
431.7260826700967
 20
357.5928545138942
 30
0.0
 10
431.6607850813634
 20
359.9145465209207
 30
0.0
 10
431.5047097240387
 20
362.2319044637663
 30
0.0
 10
431.2580925083026
 20
364.5413789715458
 30
0.0
 10
430.9213220035927
 20
366.8394380151996
 30
0.0
 10
430.4948731313486
 20
369.122547147504
 30
0.0
 10
429.9795508608329
 20
371.3872691321092
 30
0.0
 10
429.3861694105302
 20
373.590586235278
 30
0.0
 10
428.9065129681306
 20
375.1388478865728
 30
0.0
 10
428.6375026465486
 20
375.9413735684221
 30
0.0
 10
428.6015448266643
 20
376.0486448201373
 30
0.0
  0
LINE
  5
DE
330
1F
100
AcDbEntity
  8
0
  6
CONTINUOUS
 62
     7
100
AcDbLine
 10
369.5520731691
 20
329.0570625
 30
0.0
 11
369.5520731691
 21
385.0570625
 31
0.0
  0
SPLINE
  5
DF
330
1F
100
AcDbEntity
  8
0
  6
CONTINUOUS
 62
     7
100
AcDbSpline
210
0.0
220
0.0
230
1.0
 70
     8
 71
     3
 72
    10
 73
     6
 74
     0
 42
0.00000001
 43
0.00000001
 12
1.0
 22
0.0
 32
0.0
 13
1.0
 23
0.0
 33
0.0
 40
0.0
 40
0.0
 40
0.0
 40
0.0
 40
0.4846461895775879
 40
0.9700688980570357
 40
1.0
 40
1.0
 40
1.0
 40
1.0
 10
403.8938030807595
 20
334.9602043587807
 30
0.0
 10
404.8069512166676
 20
334.9854014116891
 30
0.0
 10
406.6347105698056
 20
335.0358358892001
 30
0.0
 10
408.5155117451953
 20
335.1180814692187
 30
0.0
 10
409.4816257033887
 20
335.1728713749833
 30
0.0
 10
409.5377363884877
 20
335.1760535038853
 30
0.0
  0
SPLINE
  5
E0
330
1F
100
AcDbEntity
  8
0
  6
CONTINUOUS
 62
     7
100
AcDbSpline
210
0.0
220
0.0
230
1.0
 70
     8
 71
     3
 72
    19
 73
    15
 74
     0
 42
0.00000001
 43
0.00000001
 12
1.0
 22
0.0
 32
0.0
 13
1.0
 23
0.0
 33
0.0
 40
0.0
 40
0.0
 40
0.0
 40
0.0
 40
0.0191527556017882
 40
0.1042651795641747
 40
0.1914634765107111
 40
0.2846162946481738
 40
0.3798658982365959
 40
0.442688645869789
 40
0.5457673859255354
 40
0.6516215287905434
 40
0.7376720363462157
 40
0.8260308992282728
 40
0.9121994187577992
 40
1.0
 40
1.0
 40
1.0
 40
1.0
 10
403.8938031292259
 20
334.9602044193691
 30
0.0
 10
403.7900731974863
 20
334.9645808197249
 30
0.0
 10
403.2253805661029
 20
334.9884053898509
 30
0.0
 10
402.1714385308912
 20
334.99034826663
 30
0.0
 10
400.7186428805309
 20
334.9109719658897
 30
0.0
 10
399.2500876903907
 20
334.7483938346697
 30
0.0
 10
397.9762438364508
 20
334.5418306429835
 30
0.0
 10
396.7299554565539
 20
334.2938386833228
 30
0.0
 10
395.5290633356038
 20
334.0119613270237
 30
0.0
 10
394.3951921187395
 20
333.7046875188585
 30
0.0
 10
393.5052627772864
 20
333.4409158837677
 30
0.0
 10
392.8769362382461
 20
333.2434467857756
 30
0.0
 10
392.4569916812782
 20
333.1062028108958
 30
0.0
 10
392.4058146468581
 20
333.0891589128603
 30
0.0
 10
392.3799860752991
 20
333.0805570166183
 30
0.0
  0
SPLINE
  5
E1
330
1F
100
AcDbEntity
  8
0
  6
CONTINUOUS
 62
     7
100
AcDbSpline
210
0.0
220
0.0
230
1.0
 70
     8
 71
     3
 72
     8
 73
     4
 74
     0
 42
0.00000001
 43
0.00000001
 12
1.0
 22
0.0
 32
0.0
 13
1.0
 23
0.0
 33
0.0
 40
0.0
 40
0.0
 40
0.0
 40
0.0
 40
0.0000002458549159
 40
0.0000002458549159
 40
0.0000002458549159
 40
0.0000002458549159
 10
425.7854681440815
 20
378.0795889182222
 30
0.0
 10
425.7854681440815
 20
378.0796248727895
 30
0.0
 10
425.7854686965481
 20
378.0796608191217
 30
0.0
 10
425.7854698014852
 20
378.0796967523146
 30
0.0
  0
LINE
  5
E2
330
1F
100
AcDbEntity
  8
0
  6
CONTINUOUS
 62
     7
100
AcDbLine
 10
425.7854681441
 20
336.0932949878
 30
0.0
 11
425.7854681441
 21
378.0795889182
 31
0.0
  0
SPLINE
  5
E3
330
1F
100
AcDbEntity
  8
0
  6
CONTINUOUS
 62
     7
100
AcDbSpline
210
0.0
220
0.0
230
1.0
 70
     8
 71
     3
 72
    11
 73
     7
 74
     0
 42
0.00000001
 43
0.00000001
 12
1.0
 22
0.0
 32
0.0
 13
1.0
 23
0.0
 33
0.0
 40
0.0
 40
0.0
 40
0.0
 40
0.0
 40
0.2444057281031133
 40
0.8858044892364356
 40
0.984817686852255
 40
1.0
 40
1.0
 40
1.0
 40
1.0
 10
424.5487996284882
 20
378.194020464015
 30
0.0
 10
424.5601924909128
 20
378.20049508799
 30
0.0
 10
424.6014838663617
 20
378.2239611950558
 30
0.0
 10
424.6556956235681
 20
378.1699722868079
 30
0.0
 10
424.6953377971638
 20
378.1156043904384
 30
0.0
 10
424.701328997158
 20
378.1066916149413
 30
0.0
 10
424.7021255282461
 20
378.1055066598786
 30
0.0
  0
SPLINE
  5
E4
330
1F
100
AcDbEntity
  8
0
  6
CONTINUOUS
 62
     7
100
AcDbSpline
210
0.0
220
0.0
230
1.0
 70
     8
 71
     3
 72
    12
 73
     8
 74
     0
 42
0.00000001
 43
0.00000001
 12
1.0
 22
0.0
 32
0.0
 13
1.0
 23
0.0
 33
0.0
 40
0.0
 40
0.0
 40
0.0
 40
0.0
 40
0.089919601097092
 40
0.2546979779219799
 40
0.5004591976833698
 40
0.7542534192725164
 40
0.9999999999999999
 40
0.9999999999999999
 40
0.9999999999999999
 40
0.9999999999999999
 10
403.9782678644858
 20
334.9711964517353
 30
0.0
 10
403.9761068594242
 20
334.9696975869548
 30
0.0
 10
403.9699857955767
 20
334.9654520406654
 30
0.0
 10
403.955348496815
 20
334.9634204004988
 30
0.0
 10
403.9365998170339
 20
334.9609182374772
 30
0.0
 10
403.9151604213789
 20
334.9596800434323
 30
0.0
 10
403.9008453255693
 20
334.9600312759919
 30
0.0
 10
403.8938030863133
 20
334.96020406308
 30
0.0
  0
SPLINE
  5
E5
330
1F
100
AcDbEntity
  8
0
  6
CONTINUOUS
 62
     7
100
AcDbSpline
210
0.0
220
0.0
230
1.0
 70
     8
 71
     3
 72
     9
 73
     5
 74
     0
 42
0.00000001
 43
0.00000001
 12
1.0
 22
0.0
 32
0.0
 13
1.0
 23
0.0
 33
0.0
 40
0.0
 40
0.0
 40
0.0
 40
0.0
 40
0.2671318191406015
 40
1.0
 40
1.0
 40
1.0
 40
1.0
 10
425.782748878975
 20
336.0024364884882
 30
0.0
 10
425.7828694421599
 20
335.9987453622812
 30
0.0
 10
425.7833207668475
 20
335.9849277413821
 30
0.0
 10
425.7845755273738
 20
336.0474078587131
 30
0.0
 10
425.785495101438
 20
336.0931975486414
 30
0.0
  0
SPLINE
  5
E6
330
1F
100
AcDbEntity
  8
0
  6
CONTINUOUS
 62
     7
100
AcDbSpline
210
0.0
220
0.0
230
1.0
 70
     8
 71
     3
 72
     9
 73
     5
 74
     0
 42
0.00000001
 43
0.00000001
 12
1.0
 22
0.0
 32
0.0
 13
1.0
 23
0.0
 33
0.0
 40
0.0
 40
0.0
 40
0.0
 40
0.0
 40
0.2566760116587223
 40
1.0
 40
1.0
 40
1.0
 40
1.0
 10
425.7903245312959
 20
378.1681325560381
 30
0.0
 10
425.7900538655514
 20
378.1717993928435
 30
0.0
 10
425.788999362083
 20
378.1860852498727
 30
0.0
 10
425.786974746657
 20
378.125059015926
 30
0.0
 10
425.7854698014436
 20
378.0796967523152
 30
0.0
  0
LINE
  5
E7
330
1F
100
AcDbEntity
  8
0
  6
CONTINUOUS
 62
     8
100
AcDbLine
 10
390.6207716627
 20
332.8891065575
 30
0.0
 11
390.6207716627
 21
381.2250184425
 31
0.0
  0
LINE
  5
E8
330
1F
100
AcDbEntity
  8
0
  6
CONTINUOUS
 62
     8
100
AcDbLine
 10
391.5841239051
 20
381.0482991718
 30
0.0
 11
391.5841239051
 21
333.0658258282
 31
0.0
  0
SPLINE
  5
E9
330
1F
100
AcDbEntity
  8
0
  6
CONTINUOUS
 62
     8
100
AcDbSpline
210
0.0
220
0.0
230
1.0
 70
     8
 71
     3
 72
    13
 73
     9
 74
     0
 42
0.00000001
 43
0.00000001
 12
1.0
 22
0.0
 32
0.0
 13
1.0
 23
0.0
 33
0.0
 40
0.0
 40
0.0
 40
0.0
 40
0.0
 40
0.1580555275228767
 40
0.326725459711573
 40
0.4954513783238046
 40
0.6639899043988301
 40
0.8321673181307015
 40
1.0
 40
1.0
 40
1.0
 40
1.0
 10
409.5377363884877
 20
335.1760535038853
 30
0.0
 10
410.393894647636
 20
335.2229362881018
 30
0.0
 10
412.1637074798103
 20
335.3198503249963
 30
0.0
 10
414.8406551691977
 20
335.4947208034546
 30
0.0
 10
417.5735722230211
 20
335.6793958020359
 30
0.0
 10
420.3074405397421
 20
335.8549113842341
 30
0.0
 10
423.0437130462212
 20
336.0079024097651
 30
0.0
 10
424.8721750801075
 20
336.0648502703654
 30
0.0
 10
425.7854681354671
 20
336.0932949876415
 30
0.0
  0
SPLINE
  5
EA
330
1F
100
AcDbEntity
  8
0
  6
CONTINUOUS
 62
     8
100
AcDbSpline
210
0.0
220
0.0
230
1.0
 70
     8
 71
     3
 72
    23
 73
    19
 74
     0
 42
0.00000001
 43
0.00000001
 12
1.0
 22
0.0
 32
0.0
 13
1.0
 23
0.0
 33
0.0
 40
0.0
 40
0.0
 40
0.0
 40
0.0
 40
0.0607212672511077
 40
0.1070293278602689
 40
0.1536870741641261
 40
0.2015887967165206
 40
0.2500017852294166
 40
0.316469174364236
 40
0.3849299266180651
 40
0.4518827525611517
 40
0.5211309845210985
 40
0.5860685601099334
 40
0.6526851378574172
 40
0.7231116056601563
 40
0.7953633430423265
 40
0.8666119704936435
 40
0.9397528031947882
 40
0.9999999999999999
 40
0.9999999999999999
 40
0.9999999999999999
 40
0.9999999999999999
 10
424.7021255282461
 20
378.1055066598786
 30
0.0
 10
424.2195514611483
 20
377.9689655250401
 30
0.0
 10
423.368950339293
 20
377.7282935735375
 30
0.0
 10
422.0560635620259
 20
377.4273821513834
 30
0.0
 10
420.8092388006035
 20
377.1922461328283
 30
0.0
 10
419.4996381950758
 20
377.0097524880261
 30
0.0
 10
417.9711345871913
 20
376.8813026009075
 30
0.0
 10
416.2173387585957
 20
376.8618697336219
 30
0.0
 10
414.2979492200622
 20
377.0236858275725
 30
0.0
 10
412.4312199777819
 20
377.3686221038744
 30
0.0
 10
410.7350257538246
 20
377.8509739691546
 30
0.0
 10
409.2219944063896
 20
378.4172474325592
 30
0.0
 10
407.8993852427832
 20
379.0151599110872
 30
0.0
 10
406.7585041855565
 20
379.6086237508327
 30
0.0
 10
405.8440894634104
 20
380.1354957697209
 30
0.0
 10
405.1933351693241
 20
380.5366612887215
 30
0.0
 10
404.8125347783428
 20
380.7818298114369
 30
0.0
 10
404.7867788742254
 20
380.7987170672932
 30
0.0
 10
404.7751457387034
 20
380.8063445120561
 30
0.0
  0
LINE
  5
EB
330
1F
100
AcDbEntity
  8
0
  6
CONTINUOUS
 62
     8
100
AcDbLine
 10
425.7854681441
 20
378.0796967918
 30
0.0
 11
424.7021255282
 21
378.1055066599
 31
0.0
  0
SPLINE
  5
EC
330
1F
100
AcDbEntity
  8
0
  6
CONTINUOUS
 62
     8
100
AcDbSpline
210
0.0
220
0.0
230
1.0
 70
     8
 71
     3
 72
    18
 73
    14
 74
     0
 42
0.00000001
 43
0.00000001
 12
1.0
 22
0.0
 32
0.0
 13
1.0
 23
0.0
 33
0.0
 40
0.0
 40
0.0
 40
0.0
 40
0.0
 40
0.2500000000000018
 40
0.2500000000000018
 40
0.3750000000000015
 40
0.3750000000000015
 40
0.5000000000000012
 40
0.5000000000000012
 40
0.6250000000000009
 40
0.6250000000000009
 40
0.7500000000000006
 40
0.7500000000000006
 40
1.0
 40
1.0
 40
1.0
 40
1.0
 10
428.5880222274946
 20
376.045021176737
 30
0.0
 10
428.4827959769929
 20
376.3349503667121
 30
0.0
 10
428.3396848792662
 20
376.6038991261613
 30
0.0
 10
428.0668483427725
 20
376.9750097494096
 30
0.0
 10
427.9656517812069
 20
377.0933177602682
 30
0.0
 10
427.7499302239411
 20
377.3103578984154
 30
0.0
 10
427.6346638642044
 20
377.4102345776405
 30
0.0
 10
427.3890384091442
 20
377.5923569094089
 30
0.0
 10
427.2575703640417
 20
377.6751704325485
 30
0.0
 10
426.9835311351093
 20
377.8188459299973
 30
0.0
 10
426.8424342145581
 20
377.8791726121371
 30
0.0
 10
426.40708795149
 20
378.0261030473931
 30
0.0
 10
426.097002524177
 20
378.078713587136
 30
0.0
 10
425.7854681440815
 20
378.0795889182222
 30
0.0
  0
LINE
  5
ED
330
1F
100
AcDbEntity
  8
0
  6
CONTINUOUS
 62
     8
100
AcDbLine
 10
428.5880222275
 20
338.1262969453
 30
0.0
 11
428.5880222275
 21
376.0450211767
 31
0.0
  0
SPLINE
  5
EE
330
1F
100
AcDbEntity
  8
0
  6
CONTINUOUS
 62
     8
100
AcDbSpline
210
0.0
220
0.0
230
1.0
 70
     8
 71
     3
 72
    18
 73
    14
 74
     0
 42
0.00000001
 43
0.00000001
 12
1.0
 22
0.0
 32
0.0
 13
1.0
 23
0.0
 33
0.0
 40
0.0
 40
0.0
 40
0.0
 40
0.0
 40
0.2499999999999953
 40
0.2499999999999953
 40
0.3749999999999951
 40
0.3749999999999951
 40
0.499999999999995
 40
0.499999999999995
 40
0.6249999999999949
 40
0.6249999999999949
 40
0.7499999999999947
 40
0.7499999999999947
 40
1.0
 40
1.0
 40
1.0
 40
1.0
 10
425.7854947248296
 20
336.0931975506592
 30
0.0
 10
426.0966926392761
 20
336.0940849885535
 30
0.0
 10
426.4064519457197
 20
336.1465591960485
 30
0.0
 10
426.8413789754321
 20
336.2930948194261
 30
0.0
 10
426.9823446003438
 20
336.3532574724522
 30
0.0
 10
427.2561400174209
 20
336.4965340323887
 30
0.0
 10
427.3875354199886
 20
336.5791372516352
 30
0.0
 10
427.633024868029
 20
336.7607840867456
 30
0.0
 10
427.7482377510897
 20
336.8603986982626
 30
0.0
 10
427.9638853016998
 20
337.076861146598
 30
0.0
 10
428.0650158652301
 20
337.1947747641341
 30
0.0
 10
428.3382890349658
 20
337.5654963126665
 30
0.0
 10
428.4828896446282
 20
337.8368583799694
 30
0.0
 10
428.5880222274947
 20
338.1262969452802
 30
0.0
  0
ARC
  5
EF
330
1F
100
AcDbEntity
  8
0
  6
CONTINUOUS
 62
     8
100
AcDbCircle
 10
372.369431281
 20
357.085659061
 30
0.0
 40
59.32948154031474
100
AcDbArc
 50
341.3636487292
 51
18.6363512708
  0
LINE
  5
F0
330
1F
100
AcDbEntity
  8
0
  6
CONTINUOUS
 62
     8
100
AcDbLine
 10
428.6015459452
 20
338.1217262916
 30
0.0
 11
428.5880222275
 21
338.1262969453
 31
0.0
  0
LINE
  5
F1
330
1F
100
AcDbEntity
  8
0
  6
CONTINUOUS
 62
     8
100
AcDbLine
 10
428.6015452285
 20
376.0486435276
 30
0.0
 11
428.5880222275
 21
376.0450211767
 31
0.0
  0
ENDSEC
  0
SECTION
  2
OBJECTS
  0
DICTIONARY
  5
C
330
0
100
AcDbDictionary
  3
ACAD_GROUP
350
D
  3
ACAD_MLINESTYLE
350
17
  0
DICTIONARY
  5
D
102
{ACAD_REACTORS
330
C
102
}
330
C
100
AcDbDictionary
  0
DICTIONARY
  5
17
102
{ACAD_REACTORS
330
C
102
}
330
C
100
AcDbDictionary
  3
STANDARD
350
18
  0
MLINESTYLE
  5
18
102
{ACAD_REACTORS
330
17
102
}
330
17
100
AcDbMlineStyle
  2
Standard
 70
     0
  3

 62
   256
 51
90.0
 52
90.0
 71
     2
 49
0.5
 62
   256
  6
BYLAYER
 49
-0.5
 62
   256
  6
BYLAYER
  0
ENDSEC
  0
EOF
