  0
SECTION
  2
HEADER
  9
$ACADVER
  1
AC1015
  9
$ACADMAINTVER
 70
     6
  9
$DWGCODEPAGE
  3
ANSI_1252
  9
$INSBASE
 10
0.0
 20
0.0
 30
0.0
  9
$EXTMIN
 10
0.0
 20
0.0
 30
0.0
  9
$EXTMAX
 10
594.0
 20
841.0
 30
0.0
  9
$LIMMIN
 10
0.0
 20
0.0
  9
$LIMMAX
 10
594.0
 20
841.0
  9
$ORTHOMODE
 70
     0
  9
$REGENMODE
 70
     1
  9
$FILLMODE
 70
     1
  9
$QTEXTMODE
 70
     0
  9
$MIRRTEXT
 70
     1
  9
$LTSCALE
 40
1.0
  9
$ATTMODE
 70
     1
  9
$TEXTSIZE
 40
10.0
  9
$TRACEWID
 40
1.0
  9
$TEXTSTYLE
  7
Standard
  9
$CLAYER
  8
0
  9
$CELTYPE
  6
ByLayer
  9
$CECOLOR
 62
   256
  9
$CELTSCALE
 40
1.0
  9
$DISPSILH
 70
     0
  9
$DIMSCALE
 40
1.0
  9
$DIMASZ
 40
2.5
  9
$DIMEXO
 40
0.0
  9
$DIMDLI
 40
3.75
  9
$DIMRND
 40
0.0
  9
$DIMDLE
 40
0.0
  9
$DIMEXE
 40
1.0
  9
$DIMTP
 40
0.0
  9
$DIMTM
 40
0.0
  9
$DIMTXT
 40
3.5
  9
$DIMCEN
 40
2.5
  9
$DIMTSZ
 40
0.0
  9
$DIMTOL
 70
     0
  9
$DIMLIM
 70
     0
  9
$DIMTIH
 70
     1
  9
$DIMTOH
 70
     1
  9
$DIMSE1
 70
     0
  9
$DIMSE2
 70
     0
  9
$DIMTAD
 70
     1
  9
$DIMZIN
 70
     0
  9
$DIMBLK
  1

  9
$DIMASO
 70
     1
  9
$DIMSHO
 70
     1
  9
$DIMPOST
  1

  9
$DIMAPOST
  1

  9
$DIMALT
 70
     0
  9
$DIMALTD
 70
     3
  9
$DIMALTF
 40
0.0393700787
  9
$DIMLFAC
 40
1.0
  9
$DIMTOFL
 70
     1
  9
$DIMTVP
 40
0.0
  9
$DIMTIX
 70
     0
  9
$DIMSOXD
 70
     0
  9
$DIMSAH
 70
     0
  9
$DIMBLK1
  1

  9
$DIMBLK2
  1

  9
$DIMSTYLE
  2
ISO-25
  9
$DIMCLRD
 70
     0
  9
$DIMCLRE
 70
     0
  9
$DIMCLRT
 70
     0
  9
$DIMTFAC
 40
1.0
  9
$DIMGAP
 40
1.5
  9
$DIMJUST
 70
     0
  9
$DIMSD1
 70
     0
  9
$DIMSD2
 70
     0
  9
$DIMTOLJ
 70
     0
  9
$DIMTZIN
 70
     0
  9
$DIMALTZ
 70
     0
  9
$DIMALTTZ
 70
     0
  9
$DIMUPT
 70
     0
  9
$DIMDEC
 70
     2
  9
$DIMTDEC
 70
     2
  9
$DIMALTU
 70
     2
  9
$DIMALTTD
 70
     3
  9
$DIMTXSTY
  7
Standard
  9
$DIMAUNIT
 70
     0
  9
$DIMADEC
 70
     2
  9
$DIMALTRND
 40
0.0
  9
$DIMAZIN
 70
     0
  9
$DIMDSEP
 70
    44
  9
$DIMATFIT
 70
     3
  9
$DIMFRAC
 70
     0
  9
$DIMLDRBLK
  1

  9
$DIMLUNIT
 70
     2
  9
$DIMLWD
 70
    -2
  9
$DIMLWE
 70
    -2
  9
$DIMTMOVE
 70
     0
  9
$LUNITS
 70
     2
  9
$LUPREC
 70
     2
  9
$SKETCHINC
 40
1.0
  9
$FILLETRAD
 40
0.0
  9
$AUNITS
 70
     0
  9
$AUPREC
 70
     2
  9
$MENU
  1
.
  9
$ELEVATION
 40
0.0
  9
$PELEVATION
 40
0.0
  9
$THICKNESS
 40
0.0
  9
$LIMCHECK
 70
     0
  9
$CHAMFERA
 40
0.0
  9
$CHAMFERB
 40
0.0
  9
$CHAMFERC
 40
0.0
  9
$CHAMFERD
 40
0.0
  9
$SKPOLY
 70
     0
  9
$TDCREATE
 40
2460075.501744711
  9
$TDUCREATE
 40
2460075.418411377
  9
$TDUPDATE
 40
2460075.501746516
  9
$TDUUPDATE
 40
2460075.418413183
  9
$TDINDWG
 40
0.0000000116
  9
$TDUSRTIMER
 40
0.0000000116
  9
$USRTIMER
 70
     1
  9
$ANGBASE
 50
0.0
  9
$ANGDIR
 70
     0
  9
$PDMODE
 70
     0
  9
$PDSIZE
 40
-1.0
  9
$PLINEWID
 40
0.0
  9
$SPLFRAME
 70
     0
  9
$SPLINETYPE
 70
     6
  9
$SPLINESEGS
 70
     8
  9
$HANDSEED
  5
161
  9
$SURFTAB1
 70
     6
  9
$SURFTAB2
 70
     6
  9
$SURFTYPE
 70
     6
  9
$SURFU
 70
     6
  9
$SURFV
 70
     6
  9
$UCSBASE
  2

  9
$UCSNAME
  2

  9
$UCSORG
 10
0.0
 20
0.0
 30
0.0
  9
$UCSXDIR
 10
1.0
 20
0.0
 30
0.0
  9
$UCSYDIR
 10
0.0
 20
1.0
 30
0.0
  9
$UCSORTHOREF
  2

  9
$UCSORTHOVIEW
 70
     0
  9
$UCSORGTOP
 10
0.0
 20
0.0
 30
0.0
  9
$UCSORGBOTTOM
 10
0.0
 20
0.0
 30
0.0
  9
$UCSORGLEFT
 10
0.0
 20
0.0
 30
0.0
  9
$UCSORGRIGHT
 10
0.0
 20
0.0
 30
0.0
  9
$UCSORGFRONT
 10
0.0
 20
0.0
 30
0.0
  9
$UCSORGBACK
 10
0.0
 20
0.0
 30
0.0
  9
$PUCSBASE
  2

  9
$PUCSNAME
  2

  9
$PUCSORG
 10
0.0
 20
0.0
 30
0.0
  9
$PUCSXDIR
 10
1.0
 20
0.0
 30
0.0
  9
$PUCSYDIR
 10
0.0
 20
1.0
 30
0.0
  9
$PUCSORTHOREF
  2

  9
$PUCSORTHOVIEW
 70
     0
  9
$PUCSORGTOP
 10
0.0
 20
0.0
 30
0.0
  9
$PUCSORGBOTTOM
 10
0.0
 20
0.0
 30
0.0
  9
$PUCSORGLEFT
 10
0.0
 20
0.0
 30
0.0
  9
$PUCSORGRIGHT
 10
0.0
 20
0.0
 30
0.0
  9
$PUCSORGFRONT
 10
0.0
 20
0.0
 30
0.0
  9
$PUCSORGBACK
 10
0.0
 20
0.0
 30
0.0
  9
$USERI1
 70
     0
  9
$USERI2
 70
     0
  9
$USERI3
 70
     0
  9
$USERI4
 70
     0
  9
$USERI5
 70
     0
  9
$USERR1
 40
0.0
  9
$USERR2
 40
0.0
  9
$USERR3
 40
0.0
  9
$USERR4
 40
0.0
  9
$USERR5
 40
0.0
  9
$WORLDVIEW
 70
     1
  9
$SHADEDGE
 70
     3
  9
$SHADEDIF
 70
    70
  9
$TILEMODE
 70
     1
  9
$MAXACTVP
 70
    64
  9
$PINSBASE
 10
0.0
 20
0.0
 30
0.0
  9
$PLIMCHECK
 70
     0
  9
$PEXTMIN
 10
1.0000000000E+20
 20
1.0000000000E+20
 30
1.0000000000E+20
  9
$PEXTMAX
 10
-1.0000000000E+20
 20
-1.0000000000E+20
 30
-1.0000000000E+20
  9
$PLIMMIN
 10
0.0
 20
0.0
  9
$PLIMMAX
 10
420.0
 20
297.0
  9
$UNITMODE
 70
     0
  9
$VISRETAIN
 70
     1
  9
$PLINEGEN
 70
     0
  9
$PSLTSCALE
 70
     1
  9
$TREEDEPTH
 70
  3020
  9
$CMLSTYLE
  2
Standard
  9
$CMLJUST
 70
     0
  9
$CMLSCALE
 40
20.0
  9
$PROXYGRAPHICS
 70
     1
  9
$MEASUREMENT
 70
     1
  9
$CELWEIGHT
370
    -1
  9
$ENDCAPS
280
     0
  9
$JOINSTYLE
280
     0
  9
$LWDISPLAY
290
     1
  9
$INSUNITS
 70
     4
  9
$HYPERLINKBASE
  1

  9
$STYLESHEET
  1

  9
$XEDIT
290
     1
  9
$CEPSNTYPE
380
     0
  9
$PSTYLEMODE
290
     1
  9
$FINGERPRINTGUID
  2
{02ca1355-3648-40cd-8ec9-371901d343bc}
  9
$VERSIONGUID
  2
{FAEB1C32-E019-11D5-929B-00C0DF256EC4}
  9
$EXTNAMES
290
     1
  9
$PSVPSCALE
 40
0.0
  9
$OLESTARTUP
290
     0
  0
ENDSEC
  0
SECTION
  2
CLASSES
  0
CLASS
  1
ACDBDICTIONARYWDFLT
  2
AcDbDictionaryWithDefault
  3
ObjectDBX Classes
 90
        0
280
     0
281
     0
  0
CLASS
  1
VISUALSTYLE
  2
AcDbVisualStyle
  3
ObjectDBX Classes
 90
     4095
280
     0
281
     0
  0
CLASS
  1
MATERIAL
  2
AcDbMaterial
  3
ObjectDBX Classes
 90
     1153
280
     0
281
     0
  0
CLASS
  1
SCALE
  2
AcDbScale
  3
ObjectDBX Classes
 90
     1153
280
     0
281
     0
  0
CLASS
  1
TABLESTYLE
  2
AcDbTableStyle
  3
ObjectDBX Classes
 90
     4095
280
     0
281
     0
  0
CLASS
  1
MLEADERSTYLE
  2
AcDbMLeaderStyle
  3
ACDB_MLEADERSTYLE_CLASS
 90
     4095
280
     0
281
     0
  0
CLASS
  1
SUN
  2
AcDbSun
  3
SCENEOE
 90
     1153
280
     0
281
     0
  0
CLASS
  1
ACDBPLACEHOLDER
  2
AcDbPlaceHolder
  3
ObjectDBX Classes
 90
        0
280
     0
281
     0
  0
CLASS
  1
LAYOUT
  2
AcDbLayout
  3
ObjectDBX Classes
 90
        0
280
     0
281
     0
  0
ENDSEC
  0
SECTION
  2
TABLES
  0
TABLE
  2
VPORT
  5
8
330
0
100
AcDbSymbolTable
 70
     1
  0
VPORT
  5
29
330
8
100
AcDbSymbolTableRecord
100
AcDbViewportTableRecord
  2
*Active
 70
     0
 10
0.0
 20
0.0
 11
1.0
 21
1.0
 12
297.0
 22
420.5
 13
0.0
 23
0.0
 14
10.0
 24
10.0
 15
10.0
 25
10.0
 16
0.0
 26
0.0
 36
1.0
 17
0.0
 27
0.0
 37
0.0
 40
841.0
 41
0.7063020214
 42
50.0
 43
0.0
 44
0.0
 50
0.0
 51
0.0
 71
     0
 72
  2000
 73
     1
 74
     3
 75
     0
 76
     0
 77
     0
 78
     0
281
     0
 65
     1
110
0.0
120
0.0
130
0.0
111
1.0
121
0.0
131
0.0
112
0.0
122
1.0
132
0.0
 79
     0
146
0.0
  0
ENDTAB
  0
TABLE
  2
LTYPE
  5
5
330
0
100
AcDbSymbolTable
 70
     6
  0
LTYPE
  5
14
330
5
100
AcDbSymbolTableRecord
100
AcDbLinetypeTableRecord
  2
ByBlock
 70
     0
  3

 72
    65
 73
     0
 40
0.0
  0
LTYPE
  5
15
330
5
100
AcDbSymbolTableRecord
100
AcDbLinetypeTableRecord
  2
ByLayer
 70
     0
  3

 72
    65
 73
     0
 40
0.0
  0
LTYPE
  5
16
330
5
100
AcDbSymbolTableRecord
100
AcDbLinetypeTableRecord
  2
Continuous
 70
     0
  3
Solid line
 72
    65
 73
     0
 40
0.0
  0
LTYPE
  5
5E
330
5
100
AcDbSymbolTableRecord
100
AcDbLinetypeTableRecord
  2
HIDDEN
 70
     0
  3
Hidden __ __ __ __ __ __ __ __ __ __ __ __ __ __
 72
    65
 73
     2
 40
1.905
 49
1.27
 74
     0
 49
-0.635
 74
     0
  0
LTYPE
  5
5F
330
5
100
AcDbSymbolTableRecord
100
AcDbLinetypeTableRecord
  2
PHANTOM
 70
     0
  3
Phantom ______  __  __  ______  __  __  ______
 72
    65
 73
     6
 40
12.7
 49
6.35
 74
     0
 49
-1.27
 74
     0
 49
1.27
 74
     0
 49
-1.27
 74
     0
 49
1.27
 74
     0
 49
-1.27
 74
     0
  0
LTYPE
  5
60
330
5
100
AcDbSymbolTableRecord
100
AcDbLinetypeTableRecord
  2
CENTER
 70
     0
  3
Center ____ _ ____ _ ____ _ ____ _ ____ _ ____
 72
    65
 73
     4
 40
10.16
 49
6.35
 74
     0
 49
-1.27
 74
     0
 49
1.27
 74
     0
 49
-1.27
 74
     0
  0
LTYPE
  5
61
330
5
100
AcDbSymbolTableRecord
100
AcDbLinetypeTableRecord
  2
CENTERX2
 70
     0
  3
Center (2x) ________  __  ________  __  _____
 72
    65
 73
     4
 40
20.32
 49
12.7
 74
     0
 49
-2.54
 74
     0
 49
2.54
 74
     0
 49
-2.54
 74
     0
  0
LTYPE
  5
62
330
5
100
AcDbSymbolTableRecord
100
AcDbLinetypeTableRecord
  2
DOT2
 70
     0
  3
Dot (.5x) ........................................
 72
    65
 73
     2
 40
0.635
 49
0.0
 74
     0
 49
-0.635
 74
     0
  0
ENDTAB
  0
TABLE
  2
LAYER
  5
2
330
0
100
AcDbSymbolTable
 70
     1
  0
LAYER
  5
10
330
2
100
AcDbSymbolTableRecord
100
AcDbLayerTableRecord
  2
0
 70
     0
 62
     7
  6
Continuous
370
    -3
390
F
  0
ENDTAB
  0
TABLE
  2
STYLE
  5
3
330
0
100
AcDbSymbolTable
 70
     3
  0
STYLE
  5
11
330
3
100
AcDbSymbolTableRecord
100
AcDbTextStyleTableRecord
  2
Standard
 70
     0
 40
0.0
 41
1.0
 50
0.0
 71
     0
 42
10.0
  3
txt
  4

  0
STYLE
  5
66
330
3
100
AcDbSymbolTableRecord
100
AcDbTextStyleTableRecord
  2
SLDTEXTSTYLE0
 70
     0
 40
0.0
 41
0.96
 50
0.0
 71
     0
 42
10.0
  3
ISOCP3
  4

  0
STYLE
  5
7D
330
3
100
AcDbSymbolTableRecord
100
AcDbTextStyleTableRecord
  2
SLDTEXTSTYLE1
 70
     0
 40
0.0
 41
0.605
 50
0.0
 71
     0
 42
10.0
  3
TXT
  4

  0
ENDTAB
  0
TABLE
  2
VIEW
  5
6
330
0
100
AcDbSymbolTable
 70
     0
  0
ENDTAB
  0
TABLE
  2
UCS
  5
7
330
0
100
AcDbSymbolTable
 70
     0
  0
ENDTAB
  0
TABLE
  2
APPID
  5
9
330
0
100
AcDbSymbolTable
 70
     1
  0
APPID
  5
12
330
9
100
AcDbSymbolTableRecord
100
AcDbRegAppTableRecord
  2
ACAD
 70
     0
  0
ENDTAB
  0
TABLE
  2
DIMSTYLE
  5
A
330
0
100
AcDbSymbolTable
 70
     2
100
AcDbDimStyleTable
  0
DIMSTYLE
105
27
330
A
100
AcDbSymbolTableRecord
100
AcDbDimStyleTableRecord
  2
ISO-25
 70
     0
 41
2.5
 42
0.625
 43
3.75
 44
1.25
 73
     0
 74
     0
 77
     1
 78
     8
140
2.5
141
2.5
143
0.0393700787
147
0.625
171
     3
172
     1
178
     0
271
     2
272
     2
274
     3
278
    44
283
     0
284
     8
340
11
  0
DIMSTYLE
105
67
102
{ACAD_REACTORS
330
65
330
72
102
}
330
A
100
AcDbSymbolTableRecord
100
AcDbDimStyleTableRecord
  2
SLDDIMSTYLE0
 70
     0
 41
2.5
 44
0.0
 45
0.000000001
 73
     0
 74
     0
 77
     1
 78
    12
 79
     3
140
6.0
147
1.5
173
     1
178
     0
271
     2
272
     2
276
     2
284
    12
340
66
  0
ENDTAB
  0
TABLE
  2
BLOCK_RECORD
  5
1
330
0
100
AcDbSymbolTable
 70
     3
  0
BLOCK_RECORD
  5
1F
330
1
100
AcDbSymbolTableRecord
100
AcDbBlockTableRecord
  2
*Model_Space
340
22
  0
BLOCK_RECORD
  5
1B
330
1
100
AcDbSymbolTableRecord
100
AcDbBlockTableRecord
  2
*Paper_Space
340
1E
  0
BLOCK_RECORD
  5
23
330
1
100
AcDbSymbolTableRecord
100
AcDbBlockTableRecord
  2
*Paper_Space0
340
26
  0
BLOCK_RECORD
  5
68
330
1
100
AcDbSymbolTableRecord
100
AcDbBlockTableRecord
  2
_D
340
0
  0
BLOCK_RECORD
  5
73
330
1
100
AcDbSymbolTableRecord
100
AcDbBlockTableRecord
  2
_D_1
340
0
  0
ENDTAB
  0
ENDSEC
  0
SECTION
  2
BLOCKS
  0
BLOCK
  5
20
330
1F
100
AcDbEntity
  8
0
100
AcDbBlockBegin
  2
*Model_Space
 70
     0
 10
0.0
 20
0.0
 30
0.0
  3
*Model_Space
  1

  0
ENDBLK
  5
21
330
1F
100
AcDbEntity
  8
0
100
AcDbBlockEnd
  0
BLOCK
  5
1C
330
1B
100
AcDbEntity
 67
     1
  8
0
100
AcDbBlockBegin
  2
*Paper_Space
 70
     0
 10
0.0
 20
0.0
 30
0.0
  3
*Paper_Space
  1

  0
ENDBLK
  5
1D
330
1B
100
AcDbEntity
 67
     1
  8
0
100
AcDbBlockEnd
  0
BLOCK
  5
24
330
23
100
AcDbEntity
  8
0
100
AcDbBlockBegin
  2
*Paper_Space0
 70
     0
 10
0.0
 20
0.0
 30
0.0
  3
*Paper_Space0
  1

  0
ENDBLK
  5
25
330
23
100
AcDbEntity
  8
0
100
AcDbBlockEnd
  0
BLOCK
  5
69
330
68
100
AcDbEntity
  8
0
100
AcDbBlockBegin
  2
_D
 70
     0
 10
0.0
 20
0.0
 30
0.0
  3
_D
  1

  0
SOLID
  5
6B
330
68
100
AcDbEntity
  8
0
  6
Continuous
 62
     7
370
    18
100
AcDbTrace
 10
42.7614395004
 20
152.0299240879
 30
0.0
 11
42.4614395004
 21
149.5299240879
 31
0.0
 12
43.0614395004
 22
149.5299240879
 32
0.0
 13
43.0614395004
 23
149.5299240879
 33
0.0
  0
SOLID
  5
6C
330
68
100
AcDbEntity
  8
0
  6
Continuous
 62
     7
370
    18
100
AcDbTrace
 10
42.7614395004
 20
52.0299240879
 30
0.0
 11
43.0614395004
 21
54.5299240879
 31
0.0
 12
42.4614395004
 22
54.5299240879
 32
0.0
 13
42.4614395004
 23
54.5299240879
 33
0.0
  0
LINE
  5
6D
330
68
100
AcDbEntity
  8
0
  6
Continuous
 62
     7
370
     0
100
AcDbLine
 10
56.6850079902
 20
152.0299240879
 30
0.0
 11
41.7614395004
 21
152.0299240879
 31
0.0
  0
LINE
  5
6E
330
68
100
AcDbEntity
  8
0
  6
Continuous
 62
     7
370
     0
100
AcDbLine
 10
56.6850079902
 20
52.0299240879
 30
0.0
 11
41.7614395004
 21
52.0299240879
 31
0.0
  0
LINE
  5
6F
330
68
100
AcDbEntity
  8
0
  6
Continuous
 62
     7
370
     0
100
AcDbLine
 10
42.7614395004
 20
152.0299240879
 30
0.0
 11
42.7614395004
 21
52.0299240879
 31
0.0
  0
MTEXT
  5
70
330
68
100
AcDbEntity
  8
0
  6
Continuous
 62
     7
370
    18
100
AcDbMText
 10
35.0270332946
 20
94.3680541463
 30
0.0
 40
6.0
 41
0.0
 71
     1
 72
     1
  1
100
  7
SLDTEXTSTYLE0
 11
-7.044195017643634E-15
 21
1.0
 31
0.0
 73
     1
 44
1.0
  0
MTEXT
  5
71
330
68
100
AcDbEntity
  8
0
  6
Continuous
 62
     7
370
    18
100
AcDbMText
 10
35.0270332946
 20
105.7430548466
 30
0.0
 40
6.0
 41
0.0
 71
     1
 72
     1
  1
mm
  7
SLDTEXTSTYLE0
 11
-7.044195017643634E-15
 21
1.0
 31
0.0
 73
     1
 44
1.0
  0
ENDBLK
  5
6A
330
68
100
AcDbEntity
  8
0
100
AcDbBlockEnd
  0
BLOCK
  5
74
330
73
100
AcDbEntity
  8
0
100
AcDbBlockBegin
  2
_D_1
 70
     0
 10
0.0
 20
0.0
 30
0.0
  3
_D_1
  1

  0
SOLID
  5
76
330
73
100
AcDbEntity
  8
0
  6
Continuous
 62
     7
370
    18
100
AcDbTrace
 10
56.6850079902
 20
38.4602342313
 30
0.0
 11
59.1850079902
 21
38.1602342313
 31
0.0
 12
59.1850079902
 22
38.7602342313
 32
0.0
 13
59.1850079902
 23
38.7602342313
 33
0.0
  0
SOLID
  5
77
330
73
100
AcDbEntity
  8
0
  6
Continuous
 62
     7
370
    18
100
AcDbTrace
 10
156.6850079902
 20
38.4602342313
 30
0.0
 11
154.1850079902
 21
38.7602342313
 31
0.0
 12
154.1850079902
 22
38.1602342313
 32
0.0
 13
154.1850079902
 23
38.1602342313
 33
0.0
  0
LINE
  5
78
330
73
100
AcDbEntity
  8
0
  6
Continuous
 62
     7
370
     0
100
AcDbLine
 10
56.6850079902
 20
52.0299240879
 30
0.0
 11
56.6850079902
 21
37.4602342313
 31
0.0
  0
LINE
  5
79
330
73
100
AcDbEntity
  8
0
  6
Continuous
 62
     7
370
     0
100
AcDbLine
 10
156.6850079902
 20
52.0299240879
 30
0.0
 11
156.6850079902
 21
37.4602342313
 31
0.0
  0
LINE
  5
7A
330
73
100
AcDbEntity
  8
0
  6
Continuous
 62
     7
370
     0
100
AcDbLine
 10
56.6850079902
 20
38.4602342313
 30
0.0
 11
156.6850079902
 21
38.4602342313
 31
0.0
  0
MTEXT
  5
7B
330
73
100
AcDbEntity
  8
0
  6
Continuous
 62
     7
370
    18
100
AcDbMText
 10
93.9626484861
 20
46.1946404371
 30
0.0
 40
6.0
 41
0.0
 71
     1
 72
     1
  1
100
  7
SLDTEXTSTYLE0
 73
     1
 44
1.0
  0
MTEXT
  5
7C
330
73
100
AcDbEntity
  8
0
  6
Continuous
 62
     7
370
    18
100
AcDbMText
 10
105.3376491864
 20
46.1946404371
 30
0.0
 40
6.0
 41
0.0
 71
     1
 72
     1
  1
mm
  7
SLDTEXTSTYLE0
 73
     1
 44
1.0
  0
ENDBLK
  5
75
330
73
100
AcDbEntity
  8
0
100
AcDbBlockEnd
  0
ENDSEC
  0
SECTION
  2
ENTITIES
  0
LINE
  5
63
330
1F
100
AcDbEntity
  8
0
  6
Continuous
 62
     7
370
    18
100
AcDbLine
 10
56.6850079902
 20
152.0299240879
 30
0.0
 11
56.6850079902
 21
52.0299240879
 31
0.0
  0
LINE
  5
64
330
1F
100
AcDbEntity
  8
0
  6
Continuous
 62
     7
370
    18
100
AcDbLine
 10
56.6850079902
 20
52.0299240879
 30
0.0
 11
156.6850079902
 21
52.0299240879
 31
0.0
  0
DIMENSION
  5
65
330
1F
100
AcDbEntity
  8
0
  6
Continuous
 62
     7
370
    18
100
AcDbDimension
  2
_D
 10
42.7614395004
 20
52.0299240879
 30
0.0
 11
42.7614395004
 21
105.4472211621
 31
0.0
 70
   160
  1
<>mm
 71
     2
 42
-1.0
  3
SLDDIMSTYLE0
100
AcDbAlignedDimension
 13
56.6850079902
 23
152.0299240879
 33
0.0
 14
56.6850079902
 24
52.0299240879
 34
0.0
 50
90.0
100
AcDbRotatedDimension
  0
DIMENSION
  5
72
330
1F
100
AcDbEntity
  8
0
  6
Continuous
 62
     7
370
    18
100
AcDbDimension
  2
_D_1
 10
156.6850079902
 20
38.4602342313
 30
0.0
 11
105.0418155019
 21
38.4602342313
 31
0.0
 70
   160
  1
<>mm
 71
     2
 42
-1.0
  3
SLDDIMSTYLE0
100
AcDbAlignedDimension
 13
56.6850079902
 23
52.0299240879
 33
0.0
 14
156.6850079902
 24
52.0299240879
 34
0.0
100
AcDbRotatedDimension
  0
MTEXT
  5
7E
330
1F
100
AcDbEntity
  8
0
  6
Continuous
 62
     7
370
     0
100
AcDbMText
 10
412.8252631579
 20
48.4342449499
 30
0.0
 40
10.0
 41
0.0
 71
     1
 72
     1
  1
KLUDI GmbH & Co KG
  7
SLDTEXTSTYLE1
 73
     1
 44
1.0
  0
MTEXT
  5
7F
330
1F
100
AcDbEntity
  8
0
  6
Continuous
 62
     7
370
     0
100
AcDbMText
 10
210.0873490389
 20
48.4342449499
 30
0.0
 40
10.0
 41
0.0
 71
     1
 72
     1
  1
53 759 .. 75
  7
SLDTEXTSTYLE1
 73
     1
 44
1.0
  0
SPLINE
  5
80
330
1F
100
AcDbEntity
  8
0
  6
Continuous
 62
     7
370
    25
100
AcDbSpline
210
0.0
220
0.0
230
1.0
 70
     8
 71
     3
 72
    29
 73
    25
 74
     0
 42
0.00000001
 43
0.00000001
 40
0.0
 40
0.0
 40
0.0
 40
0.0
 40
0.0247410097212275
 40
0.0834341624157295
 40
0.1334108610682738
 40
0.1693243219115657
 40
0.2006485896545831
 40
0.2288424920237685
 40
0.2533230145331464
 40
0.2768833605029867
 40
0.3016436249636026
 40
0.3267245885750815
 40
0.352002523985604
 40
0.376586383226877
 40
0.4007617660271964
 40
0.4318429135578077
 40
0.4649181928236245
 40
0.5015009183333787
 40
0.543699650310583
 40
0.5972234080947696
 40
0.6995313085963046
 40
0.8041353607592889
 40
0.9307196660334653
 40
1.0
 40
1.0
 40
1.0
 40
1.0
 10
207.339203380774
 20
278.5613622249936
 30
0.0
 10
207.8760644485988
 20
278.5529183614044
 30
0.0
 10
209.6865222283046
 20
278.524443101338
 30
0.0
 10
212.582407379485
 20
278.5819815375905
 30
0.0
 10
215.7150458003696
 20
278.7691375624559
 30
0.0
 10
218.244419293081
 20
279.0430945020168
 30
0.0
 10
220.2823531491103
 20
279.4148646976586
 30
0.0
 10
222.0364758678605
 20
279.9068218197046
 30
0.0
 10
223.5752301701971
 20
280.5073674855561
 30
0.0
 10
224.9581414551008
 20
281.2618412478697
 30
0.0
 10
226.2365237122824
 20
282.1964410890597
 30
0.0
 10
227.4011200370001
 20
283.3150875130121
 30
0.0
 10
228.4008413066433
 20
284.5735930228032
 30
0.0
 10
229.1941324001291
 20
285.939671657788
 30
0.0
 10
229.9119992039876
 20
287.4726384696188
 30
0.0
 10
230.550357533613
 20
289.2310115653995
 30
0.0
 10
231.0974010271615
 20
291.2859574437157
 30
0.0
 10
231.5349289711421
 20
293.6004622909471
 30
0.0
 10
231.8923123643901
 20
296.3564580831566
 30
0.0
 10
232.3382219512399
 20
300.4824954931112
 30
0.0
 10
232.8015055444944
 20
305.9244440914988
 30
0.0
 10
233.1965749757067
 20
312.9020661186581
 30
0.0
 10
233.4550650126214
 20
319.1911673294871
 30
0.0
 10
233.5968426632965
 20
323.2919121831071
 30
0.0
 10
233.6469915979171
 20
324.7424086794205
 30
0.0
  0
SPLINE
  5
81
330
1F
100
AcDbEntity
  8
0
  6
Continuous
 62
     7
370
    25
100
AcDbSpline
210
0.0
220
0.0
230
1.0
 70
     8
 71
     3
 72
    28
 73
    24
 74
     0
 42
0.00000001
 43
0.00000001
 40
0.0
 40
0.0
 40
0.0
 40
0.0
 40
0.1056608899267678
 40
0.2360740942389468
 40
0.3400683478266925
 40
0.4391850599706331
 40
0.4933440136838532
 40
0.5317803068220005
 40
0.5663431271982807
 40
0.5978836355948458
 40
0.627500597159459
 40
0.6512392736108638
 40
0.6766108411191646
 40
0.7016591643565306
 40
0.7268565650773502
 40
0.751966971335156
 40
0.7757657083189509
 40
0.8034751418754181
 40
0.8337320366593184
 40
0.8680705716280794
 40
0.9108370026808112
 40
0.9674647116125086
 40
1.0
 40
1.0
 40
1.0
 40
1.0
 10
181.0227235523877
 20
324.7416414816632
 30
0.0
 10
181.1043304940263
 20
322.5299085534538
 30
0.0
 10
181.2866617695274
 20
317.5883180738791
 30
0.0
 10
181.599300894821
 20
310.4704994607679
 30
0.0
 10
182.0566642435767
 20
303.4937551305821
 30
0.0
 10
182.5854181137819
 20
298.1274184146356
 30
0.0
 10
183.0558708510916
 20
294.1314595361925
 30
0.0
 10
183.5322927886989
 20
291.4969971039032
 30
0.0
 10
184.0861457099397
 20
289.3611162034109
 30
0.0
 10
184.7694266327524
 20
287.4531150025023
 30
0.0
 10
185.5371117102187
 20
285.8238639597977
 30
0.0
 10
186.4097814120782
 20
284.3866441150204
 30
0.0
 10
187.4218109878181
 20
283.1591411953344
 30
0.0
 10
188.6146071812117
 20
282.0538164927895
 30
0.0
 10
189.9453383607691
 20
281.1180108693006
 30
0.0
 10
191.3743514016978
 20
280.3874032703141
 30
0.0
 10
192.9321933878602
 20
279.8146918891751
 30
0.0
 10
194.6469814921606
 20
279.3616374785539
 30
0.0
 10
196.6210232481831
 20
279.0197993254573
 30
0.0
 10
198.9384226703396
 20
278.7761730653904
 30
0.0
 10
201.8351245929103
 20
278.594606920771
 30
0.0
 10
204.6986004485938
 20
278.5262699411267
 30
0.0
 10
206.6334382553802
 20
278.552668665587
 30
0.0
 10
207.3394542925202
 20
278.5623014744787
 30
0.0
  0
SPLINE
  5
82
330
1F
100
AcDbEntity
  8
0
  6
Continuous
 62
     7
370
    25
100
AcDbSpline
210
0.0
220
0.0
230
1.0
 70
     8
 71
     3
 72
    32
 73
    28
 74
     0
 42
0.00000001
 43
0.00000001
 40
0.0
 40
0.0
 40
0.0
 40
0.0
 40
0.0221385739967784
 40
0.0847249679182648
 40
0.1591066513722413
 40
0.2240459510565415
 40
0.2844307816493957
 40
0.3409461339630209
 40
0.3942943852451173
 40
0.4450379370192508
 40
0.4884228554324262
 40
0.5245448771575696
 40
0.5568079994717456
 40
0.5864185191704766
 40
0.6143153426664186
 40
0.6378864595506122
 40
0.6625538411345764
 40
0.6871617823854305
 40
0.7128386315717256
 40
0.7399033821610671
 40
0.7685788604771131
 40
0.7988994889938281
 40
0.8300398179172975
 40
0.8668032160614888
 40
0.9130160956872295
 40
0.9671257397355146
 40
1.0
 40
1.0
 40
1.0
 40
1.0
 10
233.9633225141122
 20
335.064743088045
 30
0.0
 10
233.9812961666413
 20
335.5281881301327
 30
0.0
 10
234.0500818587155
 20
337.3018058133891
 30
0.0
 10
234.0353535686068
 20
340.6552347948223
 30
0.0
 10
234.0455215323271
 20
344.9293856509216
 30
0.0
 10
234.0112522638655
 20
349.1777079868866
 30
0.0
 10
233.9086943548676
 20
353.0539174992483
 30
0.0
 10
233.7176486167359
 20
356.6812386989457
 30
0.0
 10
233.4290721221628
 20
360.0905261628185
 30
0.0
 10
233.0442824497782
 20
363.1974520338923
 30
0.0
 10
232.6101229141899
 20
365.9123154111317
 30
0.0
 10
232.0925908007939
 20
368.2032781397515
 30
0.0
 10
231.4767314718998
 20
370.1608162129838
 30
0.0
 10
230.7422702144534
 20
371.8868518675205
 30
0.0
 10
229.9199703813397
 20
373.3632555707993
 30
0.0
 10
228.991325173571
 20
374.6569488454028
 30
0.0
 10
227.9273790359194
 20
375.7549174512308
 30
0.0
 10
226.6934203287105
 20
376.7338338909968
 30
0.0
 10
225.3019026505575
 20
377.5832506435176
 30
0.0
 10
223.7410883594837
 20
378.3084448181352
 30
0.0
 10
222.0149541382468
 20
378.9009221927875
 30
0.0
 10
220.1493230181623
 20
379.3443780181827
 30
0.0
 10
218.0787271274254
 20
379.6490559256791
 30
0.0
 10
215.6573285113444
 20
379.8835736064402
 30
0.0
 10
212.7356162415678
 20
380.0123792593446
 30
0.0
 10
209.8947867205798
 20
380.0309314466012
 30
0.0
 10
208.039700163412
 20
380.0319411272783
 30
0.0
 10
207.3385980598068
 20
380.0323227209263
 30
0.0
  0
SPLINE
  5
83
330
1F
100
AcDbEntity
  8
0
  6
Continuous
 62
     7
370
    25
100
AcDbSpline
210
0.0
220
0.0
230
1.0
 70
     8
 71
     3
 72
    31
 73
    27
 74
     0
 42
0.00000001
 43
0.00000001
 40
0.0
 40
0.0
 40
0.0
 40
0.0
 40
0.0617070373629178
 40
0.1197054857855857
 40
0.1634539523418324
 40
0.1969445482262051
 40
0.227383575770112
 40
0.256551793367587
 40
0.2840294320750577
 40
0.309957723992595
 40
0.3346185956341792
 40
0.3583695883266713
 40
0.3838412884910634
 40
0.4073689173452268
 40
0.4362649117609059
 40
0.4668176265256642
 40
0.5001461030605561
 40
0.5374898116249551
 40
0.5810975479310566
 40
0.6334147098500329
 40
0.6883960643550655
 40
0.746518930466393
 40
0.8084331701891062
 40
0.8747653537082981
 40
0.946241615640635
 40
1.0
 40
1.0
 40
1.0
 40
1.0
 10
207.3384907754298
 20
380.0324593215917
 30
0.0
 10
206.0225845834426
 20
380.0334095706153
 30
0.0
 10
203.4698580761939
 20
380.0352529587577
 30
0.0
 10
199.983702034171
 20
379.9500260561256
 30
0.0
 10
197.1095785833606
 20
379.7124906397911
 30
0.0
 10
194.8362840850033
 20
379.4008002731128
 30
0.0
 10
192.9027214234472
 20
378.9690839021854
 30
0.0
 10
191.1477620481095
 20
378.3917208445145
 30
0.0
 10
189.5545369360128
 20
377.6771688028347
 30
0.0
 10
188.138169711943
 20
376.8388407414745
 30
0.0
 10
186.8999808405159
 20
375.8854568424097
 30
0.0
 10
185.8011430982852
 20
374.7920098256737
 30
0.0
 10
184.8925331765342
 20
373.5688233568965
 30
0.0
 10
184.0809152246428
 20
372.1642526963017
 30
0.0
 10
183.3648740979376
 20
370.5859373787243
 30
0.0
 10
182.7409481429199
 20
368.7477502276242
 30
0.0
 10
182.2268676475854
 20
366.6862637579287
 30
0.0
 10
181.8020687609416
 20
364.316361149685
 30
0.0
 10
181.4131422447733
 20
361.5211981929788
 30
0.0
 10
181.0852369616118
 20
358.327861744676
 30
0.0
 10
180.8490592466226
 20
354.8082529576012
 30
0.0
 10
180.7072629789585
 20
351.0771887870098
 30
0.0
 10
180.6421204763742
 20
347.1076997149121
 30
0.0
 10
180.6417201866805
 20
342.8683221879145
 30
0.0
 10
180.6193405924111
 20
338.8207823331528
 30
0.0
 10
180.6831421655123
 20
336.1939265856494
 30
0.0
 10
180.7105297103417
 20
335.0663191294669
 30
0.0
  0
SPLINE
  5
84
330
1F
100
AcDbEntity
  8
0
  6
Continuous
 62
     7
370
    25
100
AcDbSpline
210
0.0
220
0.0
230
1.0
 70
     8
 71
     3
 72
    10
 73
     6
 74
     0
 42
0.00000001
 43
0.00000001
 40
0.0
 40
0.0
 40
0.0
 40
0.0
 40
0.2262839262371449
 40
0.7098969164795745
 40
1.0
 40
1.0
 40
1.0
 40
1.0
 10
233.6638073204445
 20
324.7493088636049
 30
0.0
 10
233.6952145979353
 20
325.5216753226617
 30
0.0
 10
233.7937453677366
 20
327.9447399070285
 30
0.0
 10
233.9071969450851
 20
331.3811747270364
 30
0.0
 10
233.9497700756911
 20
334.0641650031012
 30
0.0
 10
233.9657327742606
 20
335.0701461097834
 30
0.0
  0
SPLINE
  5
85
330
1F
100
AcDbEntity
  8
0
  6
Continuous
 62
     7
370
    25
100
AcDbSpline
210
0.0
220
0.0
230
1.0
 70
     8
 71
     3
 72
    10
 73
     6
 74
     0
 42
0.00000001
 43
0.00000001
 40
0.0
 40
0.0
 40
0.0
 40
0.0
 40
0.2929647194067464
 40
0.7582233986419576
 40
1.0
 40
1.0
 40
1.0
 40
1.0
 10
180.7130920917802
 20
335.0715899425322
 30
0.0
 10
180.7291355537242
 20
334.0555040484418
 30
0.0
 10
180.770657714706
 20
331.4257672613996
 30
0.0
 10
180.8838325817913
 20
327.9889978792196
 30
0.0
 10
180.9811955217154
 20
325.5745631847644
 30
0.0
 10
181.0144895897192
 20
324.7489271371028
 30
0.0
  0
SPLINE
  5
86
330
1F
100
AcDbEntity
  8
0
  6
Continuous
 62
     7
370
    25
100
AcDbSpline
210
0.0
220
0.0
230
1.0
 70
    11
 71
     3
 72
    95
 73
    91
 74
     0
 42
0.00000001
 43
0.00000001
 40
0.0
 40
0.0
 40
0.0
 40
0.0
 40
0.0312500000000006
 40
0.0312500000000006
 40
0.0468750000000008
 40
0.0468750000000008
 40
0.0625000000000011
 40
0.0625000000000011
 40
0.0937500000000017
 40
0.0937500000000017
 40
0.109375000000002
 40
0.109375000000002
 40
0.1250000000000023
 40
0.1250000000000023
 40
0.1562500000000029
 40
0.1562500000000029
 40
0.1718750000000032
 40
0.1718750000000032
 40
0.1875000000000035
 40
0.2031250000000038
 40
0.2031250000000038
 40
0.2187500000000041
 40
0.2187500000000041
 40
0.2500000000000034
 40
0.2500000000000034
 40
0.2656250000000031
 40
0.2656250000000031
 40
0.2812500000000028
 40
0.2812500000000028
 40
0.312500000000004
 40
0.312500000000004
 40
0.3281250000000046
 40
0.3281250000000046
 40
0.3437500000000051
 40
0.3437500000000051
 40
0.3750000000000063
 40
0.3750000000000063
 40
0.4062500000000075
 40
0.4062500000000075
 40
0.4218750000000069
 40
0.4218750000000069
 40
0.4375000000000064
 40
0.4375000000000064
 40
0.4687500000000053
 40
0.4687500000000053
 40
0.5000000000000042
 40
0.5000000000000042
 40
0.5312500000000031
 40
0.5312500000000031
 40
0.5468750000000032
 40
0.5468750000000032
 40
0.5625000000000032
 40
0.5781250000000033
 40
0.5781250000000033
 40
0.5937500000000034
 40
0.5937500000000034
 40
0.6250000000000031
 40
0.6250000000000031
 40
0.6406250000000029
 40
0.6406250000000029
 40
0.6562500000000028
 40
0.6562500000000028
 40
0.687500000000002
 40
0.687500000000002
 40
0.7031250000000012
 40
0.7031250000000012
 40
0.7187500000000003
 40
0.7187500000000003
 40
0.7499999999999987
 40
0.7499999999999987
 40
0.7656249999999987
 40
0.7656249999999987
 40
0.7812499999999987
 40
0.7968749999999986
 40
0.7968749999999986
 40
0.8124999999999986
 40
0.8124999999999986
 40
0.8437500000000007
 40
0.8437500000000007
 40
0.8750000000000028
 40
0.8750000000000028
 40
0.9062500000000049
 40
0.9062500000000049
 40
0.9218750000000048
 40
0.9218750000000048
 40
0.9375000000000047
 40
0.9375000000000047
 40
0.9687500000000023
 40
0.9687500000000023
 40
1.0
 40
1.0
 40
1.0
 40
1.0
 10
199.2914012578377
 20
416.7953173570829
 30
0.0
 10
199.8251960231713
 20
417.3270009383292
 30
0.0
 10
200.4022421027171
 20
417.7974228010594
 30
0.0
 10
201.3300354946408
 20
418.4149203340122
 30
0.0
 10
201.6497477856008
 20
418.6059544082907
 30
0.0
 10
202.3105448874423
 20
418.9577502443615
 30
0.0
 10
202.65275057862
 20
419.1187637274799
 30
0.0
 10
203.689588839656
 20
419.5455639601344
 30
0.0
 10
204.4008751180751
 20
419.7596379629565
 30
0.0
 10
205.4976263294969
 20
419.9760058222625
 30
0.0
 10
205.8695089265196
 20
420.0306642291213
 30
0.0
 10
206.6179076171223
 20
420.1028973605648
 30
0.0
 10
206.9909813741458
 20
420.1202772019877
 30
0.0
 10
208.1069313217818
 20
420.1179617479231
 30
0.0
 10
208.8465671575248
 20
420.0443269818386
 30
0.0
 10
209.9493696441907
 20
419.8231567686499
 30
0.0
 10
210.3155171998132
 20
419.7306439056743
 30
0.0
 10
211.0294252602786
 20
419.5124559487837
 30
0.0
 10
211.7291124331645
 20
419.2603847173139
 30
0.0
 10
212.4007875391238
 20
418.9415707772812
 30
0.0
 10
213.0582658888407
 20
418.588931058989
 30
0.0
 10
213.3815431168787
 20
418.3945581547455
 30
0.0
 10
214.3163258825045
 20
417.7673742290201
 30
0.0
 10
214.8898201526783
 20
417.2942493870113
 30
0.0
 10
215.6775091806724
 20
416.5042602188024
 30
0.0
 10
215.9278930806244
 20
416.2274505010114
 30
0.0
 10
216.4035618220078
 20
415.6460511043328
 30
0.0
 10
216.6272497856643
 20
415.3431174330912
 30
0.0
 10
217.2468064599539
 20
414.4119625042999
 30
0.0
 10
217.5959881515279
 20
413.7564163122709
 30
0.0
 10
218.0234424161083
 20
412.7206417728088
 30
0.0
 10
218.1502802817316
 20
412.3645548573898
 30
0.0
 10
218.3664385248046
 20
411.6472522259054
 30
0.0
 10
218.4561891203455
 20
411.2856180558879
 30
0.0
 10
218.6717752024876
 20
410.19198178426
 30
0.0
 10
218.744468818154
 20
409.4513311717449
 30
0.0
 10
218.7422525864972
 20
407.9460083957806
 30
0.0
 10
218.6670951192351
 20
407.2035676365328
 30
0.0
 10
218.4481884226602
 20
406.1109541917978
 30
0.0
 10
218.3573923101395
 20
405.7499207091846
 30
0.0
 10
218.1393952363813
 20
405.0343292223931
 30
0.0
 10
218.0114444836719
 20
404.6783707176057
 30
0.0
 10
217.5802813402161
 20
403.6425235129504
 30
0.0
 10
217.2288957187304
 20
402.9880120259847
 30
0.0
 10
216.3998176131767
 20
401.7502047253709
 30
0.0
 10
215.9171633879547
 20
401.1638371676088
 30
0.0
 10
214.86295556902
 20
400.1130562731544
 30
0.0
 10
214.2881776117769
 20
399.6420192899586
 30
0.0
 10
213.3530448784883
 20
399.0186525526694
 30
0.0
 10
213.0285528907201
 20
398.8248205217282
 30
0.0
 10
212.3692253026382
 20
398.4737713835201
 30
0.0
 10
211.696152746001
 20
398.1568723295519
 30
0.0
 10
210.9960510841024
 20
397.9071284835373
 30
0.0
 10
210.2822743421811
 20
397.6913610800956
 30
0.0
 10
209.9168385123438
 20
397.6001469343702
 30
0.0
 10
208.8115026253135
 20
397.3818976155594
 30
0.0
 10
208.0712486529435
 20
397.3106407020065
 30
0.0
 10
206.9559742523562
 20
397.3117722396058
 30
0.0
 10
206.5833946323599
 20
397.3302827547089
 30
0.0
 10
205.8365454268312
 20
397.4046077624652
 30
0.0
 10
205.4635598671193
 20
397.4605250682842
 30
0.0
 10
204.3663409697361
 20
397.6804750821386
 30
0.0
 10
203.6558344590901
 20
397.8968538577866
 30
0.0
 10
202.6216003080347
 20
398.3262612634563
 30
0.0
 10
202.2803083403305
 20
398.4880486304178
 30
0.0
 10
201.6195483881837
 20
398.8423765189586
 30
0.0
 10
201.3001268864783
 20
399.034586968417
 30
0.0
 10
200.3738924822692
 20
399.6551971648746
 30
0.0
 10
199.7987994769929
 20
400.1271498355885
 30
0.0
 10
199.0020056469349
 20
400.9254880811272
 30
0.0
 10
198.7500894339001
 20
401.2043298034071
 30
0.0
 10
198.278108328446
 20
401.781022943553
 30
0.0
 10
197.8362180872988
 20
402.378477738113
 30
0.0
 10
197.4539253208588
 20
403.0170527265334
 30
0.0
 10
197.1020053048239
 20
403.6765838610119
 30
0.0
 10
196.9406181477052
 20
404.0186249842565
 30
0.0
 10
196.5122465336756
 20
405.0565007536933
 30
0.0
 10
196.2976309112897
 20
405.7677985429868
 30
0.0
 10
196.0080933875238
 20
407.2285443670948
 30
0.0
 10
195.9343572081642
 20
407.9844785190876
 30
0.0
 10
195.9361237068917
 20
409.473499011105
 30
0.0
 10
196.009209480235
 20
410.2128914166851
 30
0.0
 10
196.2289640277642
 20
411.3141741106893
 30
0.0
 10
196.3212043208253
 20
411.6809258903561
 30
0.0
 10
196.5389941598293
 20
412.3959239268308
 30
0.0
 10
196.6648161957617
 20
412.7461035243236
 30
0.0
 10
197.0921232048703
 20
413.7750907118088
 30
0.0
 10
197.4443347799713
 20
414.4346007184649
 30
0.0
 10
198.2815243617221
 20
415.6850806071203
 30
0.0
 10
198.7576064925042
 20
416.2636337758366
 30
0.0
 10
199.2914012578377
 20
416.7953173570829
 30
0.0
  0
ARC
  5
87
330
1F
100
AcDbEntity
  8
0
  6
Continuous
 62
     7
370
    25
100
AcDbCircle
 10
207.3393034821
 20
-9554.6856182478
 30
0.0
 40
10000.0
100
AcDbArc
 50
89.5831904644
 51
90.4168095441
  0
ARC
  5
88
330
1F
100
AcDbEntity
  8
0
  6
Continuous
 62
     7
370
    25
100
AcDbCircle
 10
207.3393020177
 20
10296.3143817522
 30
0.0
 40
10000.0
100
AcDbArc
 50
269.5831904644
 51
269.8593736631
  0
ARC
  5
89
330
1F
100
AcDbEntity
  8
0
  6
Continuous
 62
     7
370
    25
100
AcDbCircle
 10
207.3393020177
 20
10296.3143817522
 30
0.0
 40
10000.0
100
AcDbArc
 50
270.1406019663
 51
270.4168095441
  0
ARC
  5
8A
330
1F
100
AcDbEntity
  8
0
  6
Continuous
 62
     7
370
    25
100
AcDbCircle
 10
-9718.1606972501
 20
370.81438102
 30
0.0
 40
9999.999999999995
100
AcDbArc
 50
359.5831904644
 51
0.4168095441
  0
ARC
  5
8B
330
1F
100
AcDbEntity
  8
0
  6
Continuous
 62
     7
370
    25
100
AcDbCircle
 10
10132.8393027499
 20
370.8143824845
 30
0.0
 40
10000.0
100
AcDbArc
 50
179.5831904644
 51
180.4168095441
  0
ARC
  5
8C
330
1F
100
AcDbEntity
  8
0
  6
Continuous
 62
     7
370
    25
100
AcDbCircle
 10
280.0747373873
 20
443.5498164004
 30
0.0
 40
1.500000000000143
100
AcDbArc
 50
0.416809544
 51
89.5831904644
  0
ARC
  5
8D
330
1F
100
AcDbEntity
  8
0
  6
Continuous
 62
     7
370
    25
100
AcDbCircle
 10
280.0747373981
 20
298.0789471148
 30
0.0
 40
1.500000000000105
100
AcDbArc
 50
270.416809544
 51
359.5831904645
  0
ARC
  5
8E
330
1F
100
AcDbEntity
  8
0
  6
Continuous
 62
     7
370
    25
100
AcDbCircle
 10
134.6038681124
 20
298.0789471041
 30
0.0
 40
1.500000000000143
100
AcDbArc
 50
180.416809544
 51
269.5831904644
  0
ARC
  5
8F
330
1F
100
AcDbEntity
  8
0
  6
Continuous
 62
     7
370
    25
100
AcDbCircle
 10
134.6038681017
 20
443.5498163897
 30
0.0
 40
1.500000000000161
100
AcDbArc
 50
90.416809544
 51
179.5831904645
  0
SPLINE
  5
90
330
1F
100
AcDbEntity
  8
0
  6
Continuous
 62
     8
370
    18
100
AcDbSpline
210
0.0
220
0.0
230
1.0
 70
     8
 71
     3
 72
   185
 73
   181
 74
     0
 42
0.00000001
 43
0.00000001
 40
0.0
 40
0.0
 40
0.0
 40
0.0
 40
0.0084908692307353
 40
0.016981732121761
 40
0.0212271622122581
 40
0.0297180680493903
 40
0.0382084834810191
 40
0.0424541001869003
 40
0.0509454348738817
 40
0.0594364026634259
 40
0.0636816675314471
 40
0.0741590592447468
 40
0.0803911675780866
 40
0.0835071788509553
 40
0.0897392058339875
 40
0.0959709667115805
 40
0.0990868923881158
 40
0.1084354881049781
 40
0.1146681312140815
 40
0.117784412160205
 40
0.1252990088281527
 40
0.1303091611857525
 40
0.1328143495729419
 40
0.1378246537289082
 40
0.1428350926475648
 40
0.1478455976597802
 40
0.1553613889530838
 40
0.1599508288752674
 40
0.1620350421299363
 40
0.1703721403688764
 40
0.174540868269358
 40
0.1766252827306604
 40
0.1807941489615552
 40
0.184963094333837
 40
0.1870476873960874
 40
0.1912169075748704
 40
0.1948397697722789
 40
0.1966512454998821
 40
0.2020858705998971
 40
0.205708361603397
 40
0.2093317361384117
 40
0.2165794670391671
 40
0.2234656164845872
 40
0.2250966225587256
 40
0.2283584671877313
 40
0.2332519659467988
 40
0.2397774837755481
 40
0.2430406989020149
 40
0.2463041135702429
 40
0.2493430940299211
 40
0.2523823358070915
 40
0.2584613850531378
 40
0.261501540491469
 40
0.266062294799472
 40
0.2706239071417911
 40
0.2721093502269878
 40
0.2750802879291091
 40
0.2795375876997306
 40
0.2810236650592741
 40
0.2839960815751773
 40
0.2869688250822204
 40
0.2884553159345843
 40
0.2914285746860462
 40
0.2964120125262978
 40
0.2984219927703343
 40
0.3004321029600173
 40
0.3064635850396331
 40
0.3104858195879523
 40
0.3126038180364796
 40
0.3147219334849635
 40
0.3157810447582907
 40
0.3189586682395126
 40
0.3253149467284638
 40
0.3274342329154307
 40
0.3297385727242981
 40
0.3320429926936017
 40
0.3366525742972478
 40
0.3412630686064418
 40
0.3447215661161356
 40
0.3458742258841324
 40
0.3497829136833415
 40
0.3523891630791798
 40
0.3536923260643577
 40
0.3562987519791789
 40
0.3602085581338921
 40
0.3615119418790729
 40
0.3667258489299721
 40
0.3758026710295886
 40
0.3788288432250574
 40
0.3818551479657465
 40
0.384881451684558
 40
0.3863946714572545
 40
0.3894214719221639
 40
0.3926967155664404
 40
0.3944584263373408
 40
0.3979823113033317
 40
0.408555281864503
 40
0.4120800166850451
 40
0.4191294942205985
 40
0.4224100086073694
 40
0.4240504708995215
 40
0.4273316559203652
 40
0.4322535515192745
 40
0.4338942142746426
 40
0.4371756094483963
 40
0.4404566798672721
 40
0.4420974814369495
 40
0.4453792660140866
 40
0.4486598734027956
 40
0.4519403862153429
 40
0.4552207219531481
 40
0.458501314936154
 40
0.4650625373194099
 40
0.4683432067725571
 40
0.4716238124591813
 40
0.4738103433569206
 40
0.4803701721040799
 40
0.484743559594089
 40
0.4858369007604097
 40
0.4891168892178135
 40
0.4949475839893254
 40
0.4964052726665057
 40
0.4993206629932539
 40
0.5007783625421947
 40
0.5015067473991066
 40
0.5029639225887238
 40
0.5066074265268745
 40
0.5095224126255804
 40
0.5146239576150611
 40
0.5189969009141625
 40
0.5211833489237416
 40
0.5299287800001745
 40
0.5332081350217985
 40
0.5364877274789
 40
0.5463271623597585
 40
0.5528870277047786
 40
0.5561669031053622
 40
0.563546174139124
 40
0.5758451357346275
 40
0.5856851364080752
 40
0.5955254408644959
 40
0.6102863640875564
 40
0.6176664910269164
 40
0.625045635891989
 40
0.6324248622958345
 40
0.6398049083778826
 40
0.6508754708166059
 40
0.6601008862548795
 40
0.6656359047950519
 40
0.6767059600243631
 40
0.6877761928968785
 40
0.6933092292350267
 40
0.7043796824927104
 40
0.7154505785155059
 40
0.7209860423140779
 40
0.7320564523504544
 40
0.7488093487575335
 40
0.7544919816245359
 40
0.7715407537532046
 40
0.7829070503938048
 40
0.7885903775716692
 40
0.7999567332339103
 40
0.8113218396728991
 40
0.8170046660731368
 40
0.8283711354467052
 40
0.8418516535274915
 40
0.849648919799188
 40
0.865242815129409
 40
0.8808364206060307
 40
0.8886343186948433
 40
0.9042295524023105
 40
0.9198239327388814
 40
0.9276206480641108
 40
0.9432140530203331
 40
0.9639579400176647
 40
0.9665322615557598
 40
0.9716808261722036
 40
0.9794045266496885
 40
0.984553795827035
 40
1.0
 40
1.0
 40
1.0
 40
1.0
 10
207.3393317282944
 20
280.6114639621301
 30
0.0
 10
207.5170565706808
 20
280.6115016152863
 30
0.0
 10
207.8725061227553
 20
280.6115769215704
 30
0.0
 10
208.3168173409883
 20
280.6124381545438
 30
0.0
 10
208.7611274188516
 20
280.6138786263463
 30
0.0
 10
209.2054254411159
 20
280.6160272679488
 30
0.0
 10
209.6497204597281
 20
280.6192669844081
 30
0.0
 10
210.0940156227045
 20
280.6234399411143
 30
0.0
 10
210.5383115754245
 20
280.6286317638309
 30
0.0
 10
210.9825785527452
 20
280.6353513262113
 30
0.0
 10
211.4683851895143
 20
280.6440929307417
 30
0.0
 10
211.9068875427799
 20
280.6536145528844
 30
0.0
 10
212.3216999483901
 20
280.6648118953858
 30
0.0
 10
212.6476523806651
 20
280.674677439657
 30
0.0
 10
212.9735602651823
 20
280.6856623300873
 30
0.0
 10
213.2994045621399
 20
280.6982528327083
 30
0.0
 10
213.6903584024612
 20
280.7149778641949
 30
0.0
 10
214.081229373183
 20
280.7339074856455
 30
0.0
 10
214.4719313162478
 20
280.7559163181085
 30
0.0
 10
214.8241956366598
 20
280.7775443803635
 30
0.0
 10
215.1507918751686
 20
280.7995722186851
 30
0.0
 10
215.4644508428163
 20
280.823016816551
 30
0.0
 10
215.7257450242207
 20
280.8437788451462
 30
0.0
 10
215.9869329418544
 20
280.8658373162116
 30
0.0
 10
216.3001539332891
 20
280.8945022281825
 30
0.0
 10
216.6652947048615
 20
280.9307718383934
 30
0.0
 10
217.0212667823087
 20
280.9698389774102
 30
0.0
 10
217.3159738987625
 20
281.0054471346893
 30
0.0
 10
217.6274704544381
 20
281.0451037643389
 30
0.0
 10
217.92981913298
 20
281.086726564699
 30
0.0
 10
218.2315309870676
 20
281.1323803387909
 30
0.0
 10
218.4467985329314
 20
281.166478537334
 30
0.0
 10
218.6618042345883
 20
281.2021265320428
 30
0.0
 10
218.876431609674
 20
281.2398573004483
 30
0.0
 10
219.0907452967913
 20
281.279231338619
 30
0.0
 10
219.2935095472063
 20
281.3181524476973
 30
0.0
 10
219.4902249143962
 20
281.3580778289738
 30
0.0
 10
219.712477318702
 20
281.4049682813748
 30
0.0
 10
219.9341872315362
 20
281.4542144485506
 30
0.0
 10
220.1919524625301
 20
281.5153075465427
 30
0.0
 10
220.4856750451127
 20
281.5885772900257
 30
0.0
 10
220.8437532550161
 20
281.6848932981936
 30
0.0
 10
221.1592027585213
 20
281.7784991681008
 30
0.0
 10
221.3935853910422
 20
281.8523280061161
 30
0.0
 10
221.5876780699537
 20
281.9155455036943
 30
0.0
 10
221.8771104986793
 20
282.0152322724453
 30
0.0
 10
222.1638848089094
 20
282.1219990306123
 30
0.0
 10
222.4164294002983
 20
282.2225969863326
 30
0.0
 10
222.600287077927
 20
282.299131750702
 30
0.0
 10
222.7786038596191
 20
282.3765792928922
 30
0.0
 10
223.009011149036
 20
282.4808395413704
 30
0.0
 10
223.2368311022103
 20
282.5904214464658
 30
0.0
 10
223.4898263419359
 20
282.7198625975149
 30
0.0
 10
223.7121668926429
 20
282.8395856204413
 30
0.0
 10
223.9031403189336
 20
282.9489489490399
 30
0.0
 10
224.0636991156099
 20
283.0447328369814
 30
0.0
 10
224.221075466454
 20
283.1414595626522
 30
0.0
 10
224.3761540088436
 20
283.2416373710575
 30
0.0
 10
224.5292497796391
 20
283.3446227582934
 30
0.0
 10
224.655582523275
 20
283.432209292979
 30
0.0
 10
224.7801585212948
 20
283.5221225063951
 30
0.0
 10
224.9033778335673
 20
283.6137749824811
 30
0.0
 10
225.0581694095968
 20
283.732408154886
 30
0.0
 10
225.2181281503715
 20
283.8617055386517
 30
0.0
 10
225.3597689235587
 20
283.9816738888562
 30
0.0
 10
225.5160467491671
 20
284.1176128510611
 30
0.0
 10
225.6990912792445
 20
284.2855837881319
 30
0.0
 10
225.8777668410182
 20
284.4608838110625
 30
0.0
 10
225.996466072691
 20
284.5821599973479
 30
0.0
 10
226.0714479518219
 20
284.6609376736752
 30
0.0
 10
226.1604162602111
 20
284.7563685416596
 30
0.0
 10
226.3064503744374
 20
284.9174038085831
 30
0.0
 10
226.4614644723406
 20
285.0992598652163
 30
0.0
 10
226.6001793568888
 20
285.2710223088936
 30
0.0
 10
226.6852410556401
 20
285.3793529451671
 30
0.0
 10
226.7996477355096
 20
285.5293203730782
 30
0.0
 10
226.9386775574655
 20
285.7196176971923
 30
0.0
 10
227.0858261894161
 20
285.9328065775861
 30
0.0
 10
227.1892224400512
 20
286.0901360033047
 30
0.0
 10
227.2828747695133
 20
286.2366113677431
 30
0.0
 10
227.3653154959983
 20
286.3695311048104
 30
0.0
 10
227.4470022944209
 20
286.5063936060531
 30
0.0
 10
227.5139168164089
 20
286.6210965614811
 30
0.0
 10
227.5928286603354
 20
286.7594971149758
 30
0.0
 10
227.6694721222507
 20
286.8990926436077
 30
0.0
 10
227.7693109207794
 20
287.0864113763986
 30
0.0
 10
227.9142888526741
 20
287.3686948186013
 30
0.0
 10
228.065155364969
 20
287.6868942761236
 30
0.0
 10
228.1900816212097
 20
287.9677464165965
 30
0.0
 10
228.2630910877444
 20
288.1370772354801
 30
0.0
 10
228.3223554269362
 20
288.2788103531014
 30
0.0
 10
228.3804084260186
 20
288.4210192726373
 30
0.0
 10
228.4391655313215
 20
288.5683627942984
 30
0.0
 10
228.4981324658528
 20
288.7209969744737
 30
0.0
 10
228.5593511471899
 20
288.88352956502
 30
0.0
 10
228.67015541911
 20
289.1855165163479
 30
0.0
 10
228.7858750669957
 20
289.5235864244291
 30
0.0
 10
228.9168410641342
 20
289.9316493168795
 30
0.0
 10
228.9989103685672
 20
290.20010192083
 30
0.0
 10
229.0668890467781
 20
290.4328455485139
 30
0.0
 10
229.1125216475281
 20
290.5925770112013
 30
0.0
 10
229.1661939086755
 20
290.7845621927978
 30
0.0
 10
229.2181086254977
 20
290.9770042341886
 30
0.0
 10
229.2686857963028
 20
291.1697781818116
 30
0.0
 10
229.3100030497189
 20
291.3306222032029
 30
0.0
 10
229.3502867920462
 20
291.4917115465537
 30
0.0
 10
229.3898493162095
 20
291.6529720573964
 30
0.0
 10
229.4286674669079
 20
291.8143916185594
 30
0.0
 10
229.4740965628986
 20
292.0083294868259
 30
0.0
 10
229.5184002030772
 20
292.2024792733394
 30
0.0
 10
229.5616168570366
 20
292.3968567220587
 30
0.0
 10
229.617822259188
 20
292.6563214184109
 30
0.0
 10
229.6719773615413
 20
292.9162041858335
 30
0.0
 10
229.7241931299603
 20
293.1764542635138
 30
0.0
 10
229.7581665148728
 20
293.3500993896972
 30
0.0
 10
229.8039483945562
 20
293.5890038900557
 30
0.0
 10
229.8523150850461
 20
293.8498976702388
 30
0.0
 10
229.8949650985614
 20
294.0893379983331
 30
0.0
 10
229.9254012152236
 20
294.2635745726449
 30
0.0
 10
229.9603746409721
 20
294.466927920973
 30
0.0
 10
229.9954892649191
 20
294.6777185856681
 30
0.0
 10
230.0285865266146
 20
294.8813592996173
 30
0.0
 10
230.0472284594673
 20
294.9977673977331
 30
0.0
 10
230.0633044338278
 20
295.0996501260602
 30
0.0
 10
230.0747103508194
 20
295.1724211338051
 30
0.0
 10
230.0928461169459
 20
295.2888673924471
 30
0.0
 10
230.1173957109167
 20
295.449050466915
 30
0.0
 10
230.1523911710091
 20
295.6821616734121
 30
0.0
 10
230.1886653727192
 20
295.9299817740143
 30
0.0
 10
230.2218382853287
 20
296.1633586609132
 30
0.0
 10
230.2645254009666
 20
296.4697737356868
 30
0.0
 10
230.3028775445483
 20
296.7544608233378
 30
0.0
 10
230.342767349369
 20
297.061218079404
 30
0.0
 10
230.3846990017496
 20
297.3900011862197
 30
0.0
 10
230.4331763812314
 20
297.7847749424777
 30
0.0
 10
230.4795548311058
 20
298.1797860401313
 30
0.0
 10
230.5191187752653
 20
298.5255230084409
 30
0.0
 10
230.5704464004444
 20
298.9866424198597
 30
0.0
 10
230.6334089231229
 20
299.57982190066
 30
0.0
 10
230.6981499237764
 20
300.2227879341329
 30
0.0
 10
230.7648124224066
 20
300.9155387358777
 30
0.0
 10
230.8234419174807
 20
301.5591088713463
 30
0.0
 10
230.8751513606589
 20
302.1533568246163
 30
0.0
 10
230.912791479687
 20
302.599104559439
 30
0.0
 10
230.9494774766364
 20
303.0449217636266
 30
0.0
 10
230.9911909635121
 20
303.5651568436995
 30
0.0
 10
231.034451707591
 20
304.1226825009111
 30
0.0
 10
231.0734879068654
 20
304.6431347546005
 30
0.0
 10
231.1115895336569
 20
305.1636410131501
 30
0.0
 10
231.1513127367181
 20
305.7213969825845
 30
0.0
 10
231.1896655607623
 20
306.279202387366
 30
0.0
 10
231.2270413962563
 20
306.8370781392806
 30
0.0
 10
231.2635148827035
 20
307.3950218725303
 30
0.0
 10
231.2988624698222
 20
307.953080428167
 30
0.0
 10
231.3334142890997
 20
308.5111832976974
 30
0.0
 10
231.3741619824547
 20
309.1839127678185
 30
0.0
 10
231.4137028824991
 20
309.8596827684241
 30
0.0
 10
231.4591814301543
 20
310.6560817657768
 30
0.0
 10
231.4974385785652
 20
311.343886490627
 30
0.0
 10
231.5345184550901
 20
312.0317689108834
 30
0.0
 10
231.5648606232846
 20
312.6050482738886
 30
0.0
 10
231.594658861132
 20
313.1783339375339
 30
0.0
 10
231.6237857199703
 20
313.7516466411578
 30
0.0
 10
231.6524251511598
 20
314.3249888104818
 30
0.0
 10
231.6827066841934
 20
314.9410415095986
 30
0.0
 10
231.7143389324641
 20
315.5997992791865
 30
0.0
 10
231.7494322321602
 20
316.3438904394157
 30
0.0
 10
231.7858711957713
 20
317.1306446990702
 30
0.0
 10
231.8214761094174
 20
317.9174041211867
 30
0.0
 10
231.8564944798634
 20
318.7042080896838
 30
0.0
 10
231.8909051166821
 20
319.4910714514779
 30
0.0
 10
231.9244395632765
 20
320.2779838564427
 30
0.0
 10
231.9572895523099
 20
321.0648980147243
 30
0.0
 10
231.9937391209871
 20
321.9557817320068
 30
0.0
 10
232.0247759894166
 20
322.7412439619479
 30
0.0
 10
232.0470059181109
 20
323.3158642939414
 30
0.0
 10
232.0589476418842
 20
323.6276675521067
 30
0.0
 10
232.0726936884085
 20
323.9914574958152
 30
0.0
 10
232.0940469503163
 20
324.5631372079135
 30
0.0
 10
232.1090685654696
 20
324.9790045148551
 30
0.0
 10
232.1203344844761
 20
325.2908969012364
 30
0.0
  0
SPLINE
  5
91
330
1F
100
AcDbEntity
  8
0
  6
Continuous
 62
     8
370
    18
100
AcDbSpline
210
0.0
220
0.0
230
1.0
 70
     8
 71
     3
 72
    29
 73
    25
 74
     0
 42
0.00000001
 43
0.00000001
 40
0.0
 40
0.0
 40
0.0
 40
0.0
 40
0.0280715672640963
 40
0.0789581712487189
 40
0.1526666301809549
 40
0.2492135983247387
 40
0.314351067832811
 40
0.3778005767956076
 40
0.4395962552110505
 40
0.4998263906370153
 40
0.5274409853567603
 40
0.55757557412937
 40
0.5903434605636725
 40
0.6255623387644155
 40
0.6566079664623996
 40
0.6846685722749136
 40
0.7097079889455101
 40
0.7317320712598477
 40
0.7503825553316384
 40
0.7837689870746314
 40
0.8253945354686131
 40
0.8753605595681156
 40
0.9335284455067623
 40
1.0
 40
1.0
 40
1.0
 40
1.0
 10
182.5582932699711
 20
325.2908690797211
 30
0.0
 10
182.5792599036915
 20
324.7242840510334
 30
0.0
 10
182.6382337059101
 20
323.1306246268479
 30
0.0
 10
182.7616563819022
 20
320.049623585293
 30
0.0
 10
182.960039855611
 20
315.5874388504956
 30
0.0
 10
183.2003202174483
 20
310.8388958905202
 30
0.0
 10
183.4799324189922
 20
306.2999341004144
 30
0.0
 10
183.7642533647323
 20
302.4645073795396
 30
0.0
 10
184.1163077100008
 20
298.7338061770688
 30
0.0
 10
184.4983764221582
 20
295.7330276145974
 30
0.0
 10
184.9027460784264
 20
293.3820503074752
 30
0.0
 10
185.2851002142456
 20
291.5909143387524
 30
0.0
 10
185.8121165971423
 20
289.6741142327525
 30
0.0
 10
186.5190592132116
 20
287.7894610427197
 30
0.0
 10
187.4287557510337
 20
286.0911429236443
 30
0.0
 10
188.4842504314856
 20
284.7200822247965
 30
0.0
 10
189.6331078662591
 20
283.6736651643361
 30
0.0
 10
190.7719585615689
 20
282.9221201775398
 30
0.0
 10
192.1491014550931
 20
282.2307139643333
 30
0.0
 10
194.0004162049178
 20
281.5862017258198
 30
0.0
 10
196.5666268719066
 20
281.0680843453479
 30
0.0
 10
199.687169514781
 20
280.7540077944208
 30
0.0
 10
203.3398572594737
 20
280.6192295286271
 30
0.0
 10
205.9482107811386
 20
280.6141612133594
 30
0.0
 10
207.3392737757429
 20
280.6114582263006
 30
0.0
  0
SPLINE
  5
92
330
1F
100
AcDbEntity
  8
0
  6
Continuous
 62
     8
370
    18
100
AcDbSpline
210
0.0
220
0.0
230
1.0
 70
     8
 71
     3
 72
    19
 73
    15
 74
     0
 42
0.00000001
 43
0.00000001
 40
0.0
 40
0.0
 40
0.0
 40
0.0
 40
0.25
 40
0.25
 40
0.5
 40
0.5
 40
0.75
 40
0.75
 40
0.8749999999999959
 40
0.8749999999999959
 40
0.9374999999999939
 40
0.968749999999997
 40
0.968749999999997
 40
1.0
 40
1.0
 40
1.0
 40
1.0
 10
182.2602999207236
 20
335.4600256862891
 30
0.0
 10
182.2785808365254
 20
334.6059800899052
 30
0.0
 10
182.2969143753274
 20
333.754604196425
 30
0.0
 10
182.3395305838119
 20
332.0518060953972
 30
0.0
 10
182.363736168184
 20
331.2032439192415
 30
0.0
 10
182.4146346395288
 20
329.5085657674662
 30
0.0
 10
182.441770528574
 20
328.6628945724186
 30
0.0
 10
182.484293077007
 20
327.3966773153967
 30
0.0
 10
182.4987779681192
 20
326.9749859723915
 30
0.0
 10
182.5208734539323
 20
326.3430262751025
 30
0.0
 10
182.532012386263
 20
326.0271913804651
 30
0.0
 10
182.5432516486895
 20
325.7115815026124
 30
0.0
 10
182.5507605638512
 20
325.501226269902
 30
0.0
 10
182.5545154733196
 20
325.397431436993
 30
0.0
 10
182.5582901612358
 20
325.2909485890875
 30
0.0
  0
SPLINE
  5
93
330
1F
100
AcDbEntity
  8
0
  6
Continuous
 62
     8
370
    18
100
AcDbSpline
210
0.0
220
0.0
230
1.0
 70
     8
 71
     3
 72
     8
 73
     4
 74
     0
 42
0.00000001
 43
0.00000001
 40
0.0
 40
0.0
 40
0.0
 40
0.0
 40
1.0
 40
1.0
 40
1.0
 40
1.0
 10
182.2602551490211
 20
335.4624591027487
 30
0.0
 10
182.2248650201341
 20
336.7927083857184
 30
0.0
 10
182.1999829426469
 20
338.1261473723526
 30
0.0
 10
182.1879000749302
 20
339.4667824584056
 30
0.0
  0
SPLINE
  5
94
330
1F
100
AcDbEntity
  8
0
  6
Continuous
 62
     8
370
    18
100
AcDbSpline
210
0.0
220
0.0
230
1.0
 70
     8
 71
     3
 72
    39
 73
    35
 74
     0
 42
0.00000001
 43
0.00000001
 40
0.0
 40
0.0
 40
0.0
 40
0.0
 40
0.0517389012720191
 40
0.0979544801958953
 40
0.1386160752689694
 40
0.1736880951628204
 40
0.2030700856825704
 40
0.2267896684445755
 40
0.2448610519493492
 40
0.2806026572933046
 40
0.3065539897271318
 40
0.3415335111365458
 40
0.3705050480596432
 40
0.3902381038156043
 40
0.4189429311742072
 40
0.4559773088110781
 40
0.5014966105951777
 40
0.5251522717531457
 40
0.5494357825140405
 40
0.5744046238760662
 40
0.6001050180927125
 40
0.6265372038718554
 40
0.6536888702943073
 40
0.6815535625039718
 40
0.7101288915061179
 40
0.7394335741659182
 40
0.769478317218808
 40
0.8002171492500422
 40
0.8316597780286317
 40
0.8638250260133971
 40
0.8967251802416629
 40
0.9303748213999176
 40
0.9647916227359821
 40
0.9999999999999999
 40
0.9999999999999999
 40
0.9999999999999999
 40
0.9999999999999999
 10
207.3388630001627
 20
377.7568186724124
 30
0.0
 10
206.3636363472424
 20
377.757469939525
 30
0.0
 10
204.5172921553209
 20
377.7587029485358
 30
0.0
 10
201.9044692169136
 20
377.7260809017018
 30
0.0
 10
199.6078891720448
 20
377.6280234631278
 30
0.0
 10
197.632791989529
 20
377.479248281217
 30
0.0
 10
195.9832567238472
 20
377.2895980583348
 30
0.0
 10
194.6614058921219
 20
377.0764371855568
 30
0.0
 10
193.2363850915274
 20
376.7781251092238
 30
0.0
 10
191.7959999219811
 20
376.3682169869619
 30
0.0
 10
190.1292544957914
 20
375.6789195224055
 30
0.0
 10
188.690671233562
 20
374.8260187056421
 30
0.0
 10
187.5272562154134
 20
373.8145558768991
 30
0.0
 10
186.5924763543769
 20
372.7507254042189
 30
0.0
 10
185.71402239634
 20
371.4567439641828
 30
0.0
 10
184.8226166154845
 20
369.621635593104
 30
0.0
 10
184.2088460825678
 20
367.7616171192371
 30
0.0
 10
183.7860121054132
 20
366.0843778333859
 30
0.0
 10
183.5087558779452
 20
364.7582901890883
 30
0.0
 10
183.2688718337634
 20
363.3815597130198
 30
0.0
 10
183.0612360439665
 20
361.954636798007
 30
0.0
 10
182.8822472584412
 20
360.4788485112049
 30
0.0
 10
182.7297023369842
 20
358.9561027968101
 30
0.0
 10
182.6014804059256
 20
357.388240390537
 30
0.0
 10
182.4959417067593
 20
355.7763827600327
 30
0.0
 10
182.4088313578868
 20
354.1213859192318
 30
0.0
 10
182.3373504286449
 20
352.4246908735888
 30
0.0
 10
182.2805354865699
 20
350.6877763433869
 30
0.0
 10
182.2365786031835
 20
348.9119507474703
 30
0.0
 10
182.2050932110549
 20
347.0973573879216
 30
0.0
 10
182.1853163978645
 20
345.2439997017244
 30
0.0
 10
182.1760646478739
 20
343.3520359197989
 30
0.0
 10
182.1751664660139
 20
341.420749178659
 30
0.0
 10
182.1836234058233
 20
340.1230226911633
 30
0.0
 10
182.187899949644
 20
339.4667824534226
 30
0.0
  0
SPLINE
  5
95
330
1F
100
AcDbEntity
  8
0
  6
Continuous
 62
     8
370
    18
100
AcDbSpline
210
0.0
220
0.0
230
1.0
 70
     8
 71
     3
 72
   156
 73
   152
 74
     0
 42
0.00000001
 43
0.00000001
 40
0.0
 40
0.0
 40
0.0
 40
0.0
 40
0.012144015056575
 40
0.0161919455374139
 40
0.018215890022463
 40
0.0222634331003747
 40
0.0323834973381865
 40
0.0386061771352099
 40
0.0510552654816444
 40
0.0635071891766696
 40
0.0697340165353616
 40
0.0821884339953481
 40
0.0946455566621037
 40
0.107106377156689
 40
0.1320419482773416
 40
0.1444426026633702
 40
0.1506454313234043
 40
0.1630564934982224
 40
0.1754757843523392
 40
0.1816887727832492
 40
0.194121880785758
 40
0.2065658468157754
 40
0.2127922775066676
 40
0.2252536082766988
 40
0.2363344063966288
 40
0.2411810987474489
 40
0.250880156276815
 40
0.2605893808708128
 40
0.2654477878094186
 40
0.2751725159879612
 40
0.2849087876252179
 40
0.2897810850475152
 40
0.2995351957571531
 40
0.3174253669582511
 40
0.3255583327349889
 40
0.3377778869997308
 40
0.3500215012056555
 40
0.358199704703946
 40
0.3663905755508171
 40
0.3745938821474212
 40
0.3775549175133112
 40
0.3834823305887275
 40
0.3894168479588133
 40
0.392386763974194
 40
0.3983326055418929
 40
0.4132327035440169
 40
0.4162190588876811
 40
0.4221983355149886
 40
0.4301827133450834
 40
0.4381826466548875
 40
0.4441928739639095
 40
0.4482049398801869
 40
0.4502127768262921
 40
0.4542315643601329
 40
0.4649668272386919
 40
0.4703459987156223
 40
0.4730384554035881
 40
0.4757327443215041
 40
0.4829268250877353
 40
0.4865293102304918
 40
0.4925408541083621
 40
0.4949477961408913
 40
0.4985607205750722
 40
0.4997651626922839
 40
0.5003680181810376
 40
0.502177285683999
 40
0.5094226498547451
 40
0.5130513581736805
 40
0.5157750406932639
 40
0.5203183344686081
 40
0.5239567109869557
 40
0.5280567665392618
 40
0.5307923113552516
 40
0.5321603348810503
 40
0.5348978118371971
 40
0.5431198557703096
 40
0.5458634282558227
 40
0.5513581892046316
 40
0.5596070958183398
 40
0.5609825459753677
 40
0.5651099495038874
 40
0.5735532013989711
 40
0.5763990460831675
 40
0.5820903427473929
 40
0.5906234488078416
 40
0.5932440770685576
 40
0.5984821478767121
 40
0.6037154467658292
 40
0.6063299108893613
 40
0.616469349963869
 40
0.6238287211931588
 40
0.6262774833661519
 40
0.6311674175955354
 40
0.6382074256231971
 40
0.6393785213506782
 40
0.6417185616019043
 40
0.6452234581973675
 40
0.6498868631277094
 40
0.6550857919739833
 40
0.6585429924339814
 40
0.6602691216020777
 40
0.6705908311325588
 40
0.6844810650268591
 40
0.686237909011978
 40
0.6914990814669186
 40
0.7054643127920045
 40
0.7130550679913834
 40
0.7168425065216524
 40
0.7225146631342592
 40
0.7244031277209055
 40
0.7357113513395288
 40
0.7485743476979978
 40
0.7528544126044927
 40
0.7635395779279918
 40
0.7678086226654002
 40
0.7699421616892946
 40
0.7774715188156466
 40
0.7824873597337697
 40
0.7849942461643455
 40
0.7925111973033993
 40
0.7975194796045614
 40
0.8000225671459815
 40
0.8075306510123218
 40
0.8130474502739461
 40
0.816061342435584
 40
0.8220880496603407
 40
0.8281133484158926
 40
0.8311255271508099
 40
0.8401596780183331
 40
0.8461806730954236
 40
0.8491909372361671
 40
0.8552108429364874
 40
0.8620549883653846
 40
0.8658891883430939
 40
0.8773903405824539
 40
0.885056428045023
 40
0.8888896512780856
 40
0.896555681851382
 40
0.9042206883905549
 40
0.9080526655726447
 40
0.9157171557783192
 40
0.9244144640026596
 40
0.9292793312586061
 40
0.9390078290259992
 40
0.9487367420534903
 40
0.9584655765630778
 40
0.9681943744808534
 40
0.9779225659333032
 40
0.9827872942854338
 40
0.9925166707388022
 40
1.0
 40
1.0
 40
1.0
 40
1.0
 10
232.4906885528966
 20
339.4667705814477
 30
0.0
 10
232.4924796776725
 20
339.6930352621619
 30
0.0
 10
232.4948678330466
 20
339.9947201143377
 30
0.0
 10
232.4968461002169
 20
340.3344187731532
 30
0.0
 10
232.4978746146836
 20
340.523168378357
 30
0.0
 10
232.4993152532332
 20
340.8252509752381
 30
0.0
 10
232.5006216167479
 20
341.2058765526035
 30
0.0
 10
232.5017670985028
 20
341.7436581317331
 30
0.0
 10
232.5021895176337
 20
342.3253897712701
 30
0.0
 10
232.5016020981799
 20
342.9077025663822
 30
0.0
 10
232.5002772298946
 20
343.490475468288
 30
0.0
 10
232.4981763362905
 20
344.0737024097719
 30
0.0
 10
232.4943106307571
 20
344.7742357476011
 30
0.0
 10
232.4872406362072
 20
345.7094075564162
 30
0.0
 10
232.47719522689
 20
346.6445032839503
 30
0.0
 10
232.4654199293744
 20
347.4627926009073
 30
0.0
 10
232.4559132615532
 20
348.0459219343131
 30
0.0
 10
232.4452927916766
 20
348.6296220559792
 30
0.0
 10
232.4329618457505
 20
349.2137679770979
 30
0.0
 10
232.4193159835323
 20
349.7984878054831
 30
0.0
 10
232.4042749481962
 20
350.3838201409538
 30
0.0
 10
232.3873601940839
 20
350.9695576070353
 30
0.0
 10
232.3689056605893
 20
351.5559017670786
 30
0.0
 10
232.3497648422548
 20
352.1166314305804
 30
0.0
 10
232.3296560474665
 20
352.6513959724354
 30
0.0
 10
232.3103261400078
 20
353.1341149538195
 30
0.0
 10
232.2910191046096
 20
353.5909813835624
 30
0.0
 10
232.2703135973211
 20
354.0480175164056
 30
0.0
 10
232.2484415393498
 20
354.5054723938323
 30
0.0
 10
232.2253237285258
 20
354.9633607506798
 30
0.0
 10
232.20031496728
 20
355.4213633739599
 30
0.0
 10
232.1738132784572
 20
355.8797787437645
 30
0.0
 10
232.1363771432379
 20
356.4914111162158
 30
0.0
 10
232.0905529765353
 20
357.1638574504862
 30
0.0
 10
232.0362401402986
 20
357.881885558855
 30
0.0
 10
231.9862752079115
 20
358.493347038149
 30
0.0
 10
231.931499913159
 20
359.1048631058354
 30
0.0
 10
231.8798217089988
 20
359.6402244724339
 30
0.0
 10
231.832803422065
 20
360.0994738495885
 30
0.0
 10
231.7936350684199
 20
360.4607739216897
 30
0.0
 10
231.7576955790305
 20
360.7795267491936
 30
0.0
 10
231.7255715535375
 20
361.0557579427577
 30
0.0
 10
231.6920842382812
 20
361.3318504663609
 30
0.0
 10
231.6575030044852
 20
361.6080403147994
 30
0.0
 10
231.6002867565333
 20
362.0505610678164
 30
0.0
 10
231.5388270686119
 20
362.4923823907163
 30
0.0
 10
231.4733098866586
 20
362.9337734083063
 30
0.0
 10
231.4253270078614
 20
363.246879290973
 30
0.0
 10
231.360179031525
 20
363.6517880374973
 30
0.0
 10
231.2913500359061
 20
364.0562567355501
 30
0.0
 10
231.2321865809288
 20
364.3868750686497
 30
0.0
 10
231.1913066594101
 20
364.6071575548012
 30
0.0
 10
231.1564563307126
 20
364.790755029068
 30
0.0
 10
231.0970059591951
 20
365.0969347040844
 30
0.0
 10
231.021794666963
 20
365.4635485075124
 30
0.0
 10
230.947293422931
 20
365.8046544174726
 30
0.0
 10
230.9033521939862
 20
365.9995007690223
 30
0.0
 10
230.8509755675785
 20
366.2268571285413
 30
0.0
 10
230.7927745327207
 20
366.4699878401434
 30
0.0
 10
230.7173436752248
 20
366.7718957934748
 30
0.0
 10
230.6614900260039
 20
366.987156103796
 30
0.0
 10
230.6038498619095
 20
367.2019773520923
 30
0.0
 10
230.5684740396426
 20
367.3306913636841
 30
0.0
 10
230.5414617794097
 20
367.4270883859487
 30
0.0
 10
230.5233237574923
 20
367.4913652951173
 30
0.0
 10
230.4744569669132
 20
367.6628465513601
 30
0.0
 10
230.4081313764599
 20
367.8872588942166
 30
0.0
 10
230.3340535706219
 20
368.126696087589
 30
0.0
 10
230.2732654535287
 20
368.3179903561301
 30
0.0
 10
230.210685949515
 20
368.5087651615277
 30
0.0
 10
230.1379184484043
 20
368.7226827490808
 30
0.0
 10
230.0739700940042
 20
368.9043275159412
 30
0.0
 10
230.022529748894
 20
369.0460211984112
 30
0.0
 10
229.9789380485057
 20
369.1638792351937
 30
0.0
 10
229.8991124539577
 20
369.375702414568
 30
0.0
 10
229.8065521223125
 20
369.609481485145
 30
0.0
 10
229.6904871692224
 20
369.8880038620056
 30
0.0
 10
229.570485314532
 20
370.1652046815515
 30
0.0
 10
229.4545199661609
 20
370.416506143158
 30
0.0
 10
229.3451068557131
 20
370.6430134236076
 30
0.0
 10
229.2318616901004
 20
370.871521239974
 30
0.0
 10
229.1006702946456
 20
371.120903834727
 30
0.0
 10
228.9499443934543
 20
371.3919758856893
 30
0.0
 10
228.7935831762805
 20
371.6616492569572
 30
0.0
 10
228.6310947872894
 20
371.9227760498906
 30
0.0
 10
228.4665544889922
 20
372.1726246643312
 30
0.0
 10
228.3314789609105
 20
372.3697354081582
 30
0.0
 10
228.1915247913995
 20
372.5632970895988
 30
0.0
 10
227.9940019528245
 20
372.8255716462136
 30
0.0
 10
227.763647724891
 20
373.1118471959408
 30
0.0
 10
227.5221729364503
 20
373.3850575598428
 30
0.0
 10
227.3388695267455
 20
373.5816365895482
 30
0.0
 10
227.1555896259362
 20
373.7703996778378
 30
0.0
 10
226.9827688284004
 20
373.9369413417276
 30
0.0
 10
226.8404646995086
 20
374.067892260807
 30
0.0
 10
226.7449525246349
 20
374.154068017213
 30
0.0
 10
226.5997185185301
 20
374.2808668608555
 30
0.0
 10
226.4111256654852
 20
374.4380091468351
 30
0.0
 10
226.2186792912045
 20
374.5894599022054
 30
0.0
 10
226.0656981194227
 20
374.7039411074674
 30
0.0
 10
225.8346759247704
 20
374.8717232777695
 30
0.0
 10
225.4382580338099
 20
375.1399313076425
 30
0.0
 10
225.0233154750803
 20
375.3830832596086
 30
0.0
 10
224.6815761209169
 20
375.5659169894781
 30
0.0
 10
224.3351841454848
 20
375.7436720926017
 30
0.0
 10
223.8812775037856
 20
375.9511518818309
 30
0.0
 10
223.4431416816638
 20
376.1277504767945
 30
0.0
 10
223.1454835436434
 20
376.2400103441552
 30
0.0
 10
222.9458723643893
 20
376.3111960493571
 30
0.0
 10
222.6121948038587
 20
376.4250433070891
 30
0.0
 10
222.1471595999462
 20
376.5716126632456
 30
0.0
 10
221.6327711615025
 20
376.7120713831974
 30
0.0
 10
221.1261181677067
 20
376.8372986818051
 30
0.0
 10
220.7739301201749
 20
376.9168669508498
 30
0.0
 10
220.4596712264573
 20
376.981936857782
 30
0.0
 10
220.202991307186
 20
377.0330593095713
 30
0.0
 10
219.931852448933
 20
377.0839211178996
 30
0.0
 10
219.6530391307651
 20
377.1323615533262
 30
0.0
 10
219.3740343535691
 20
377.178636987204
 30
0.0
 10
219.0946324274042
 20
377.2221250266678
 30
0.0
 10
218.8147464486284
 20
377.2624189892492
 30
0.0
 10
218.5347256067801
 20
377.3008687227628
 30
0.0
 10
218.2448362283942
 20
377.3382240231967
 30
0.0
 10
217.9449806670358
 20
377.3738464160567
 30
0.0
 10
217.6725995722503
 20
377.4045654210913
 30
0.0
 10
217.3904759992007
 20
377.4346430890847
 30
0.0
 10
217.108118923573
 20
377.4625539762587
 30
0.0
 10
216.7691822666214
 20
377.4941864987838
 30
0.0
 10
216.4300580370438
 20
377.5233887839112
 30
0.0
 10
216.0907013872007
 20
377.5497904413543
 30
0.0
 10
215.807847568618
 20
377.5704467465887
 30
0.0
 10
215.5094067370645
 20
377.5908651138055
 30
0.0
 10
215.1953234189898
 20
377.6104048303145
 30
0.0
 10
214.7780030840238
 20
377.6343980719705
 30
0.0
 10
214.3450190126623
 20
377.6563530276349
 30
0.0
 10
213.9118860819052
 20
377.6752774507701
 30
0.0
 10
213.5508912234688
 20
377.6893288774833
 30
0.0
 10
213.1898475370944
 20
377.7018579042461
 30
0.0
 10
212.8287522181931
 20
377.7124227966088
 30
0.0
 10
212.4676441094179
 20
377.7216736190833
 30
0.0
 10
212.0870417221359
 20
377.7300855517427
 30
0.0
 10
211.6869282140953
 20
377.7371142857608
 30
0.0
 10
211.2478823994143
 20
377.7433731470121
 30
0.0
 10
210.7893656810603
 20
377.7484019607011
 30
0.0
 10
210.2391345693537
 20
377.7525262191795
 30
0.0
 10
209.688887209716
 20
377.755155396826
 30
0.0
 10
209.1386488495997
 20
377.7567097139908
 30
0.0
 10
208.6801114302794
 20
377.757210352526
 30
0.0
 10
208.2215629810991
 20
377.7573232049322
 30
0.0
 10
207.8053369055562
 20
377.7571617859035
 30
0.0
 10
207.4808257112659
 20
377.7569108384238
 30
0.0
 10
207.3397424814652
 20
377.7568017374696
 30
0.0
  0
SPLINE
  5
96
330
1F
100
AcDbEntity
  8
0
  6
Continuous
 62
     8
370
    18
100
AcDbSpline
210
0.0
220
0.0
230
1.0
 70
     8
 71
     3
 72
    33
 73
    29
 74
     0
 42
0.00000001
 43
0.00000001
 40
0.0
 40
0.0
 40
0.0
 40
0.0
 40
0.1916756149456245
 40
0.3822977217425659
 40
0.5547112734540783
 40
0.611884227566568
 40
0.7131060328638482
 40
0.749005702449989
 40
0.7610632920024271
 40
0.8091983010514792
 40
0.8337612062684479
 40
0.839884334722693
 40
0.8521479081421955
 40
0.8708169513507193
 40
0.8832160872806928
 40
0.9224935219698173
 40
0.9371316154508723
 40
0.9520550391595707
 40
0.9670797384008999
 40
0.9823324406202405
 40
0.9838327291355836
 40
0.9914067262426695
 40
0.9959901731694011
 40
0.996453333162706
 40
0.997861761373356
 40
0.9992628762220331
 40
0.9997183944450625
 40
1.0
 40
1.0
 40
1.0
 40
1.0
 10
232.4183836773573
 20
335.4624888987835
 30
0.0
 10
232.4250894107671
 20
335.7175703757041
 30
0.0
 10
232.4384640208129
 20
336.2263313232725
 30
0.0
 10
232.4547574710494
 20
336.9658454569494
 30
0.0
 10
232.4653050357294
 20
337.5266560410859
 30
0.0
 10
232.4725989799748
 20
337.9684744464024
 30
0.0
 10
232.4765060031799
 20
338.2280909956058
 30
0.0
 10
232.4792499906949
 20
338.4275043554233
 30
0.0
 10
232.4809586199216
 20
338.555972605105
 30
0.0
 10
232.4823923426983
 20
338.6693048127866
 30
0.0
 10
232.4836435071543
 20
338.7747244171713
 30
0.0
 10
232.4843059626039
 20
338.8321728522689
 30
0.0
 10
232.4848665051997
 20
338.8817405572642
 30
0.0
 10
232.4855086520391
 20
338.9397084641523
 30
0.0
 10
232.4865387769111
 20
339.033822604519
 30
0.0
 10
232.4874805020282
 20
339.1225566929618
 30
0.0
 10
232.4885047796463
 20
339.2146791837112
 30
0.0
 10
232.4891757122257
 20
339.2743501268561
 30
0.0
 10
232.4898612641627
 20
339.3348480648887
 30
0.0
 10
232.4902994191352
 20
339.3773854835528
 30
0.0
 10
232.4905494485438
 20
339.4099542873417
 30
0.0
 10
232.4906570233243
 20
339.4282409161559
 30
0.0
 10
232.4906900725385
 20
339.4451418109811
 30
0.0
 10
232.490683999608
 20
339.4537869052113
 30
0.0
 10
232.4906810386524
 20
339.4581699873356
 30
0.0
 10
232.4906811219222
 20
339.4625427683776
 30
0.0
 10
232.4906823781334
 20
339.4654064183798
 30
0.0
 10
232.4906867553331
 20
339.466393483578
 30
0.0
 10
232.4906884275675
 20
339.4667705749856
 30
0.0
  0
SPLINE
  5
97
330
1F
100
AcDbEntity
  8
0
  6
Continuous
 62
     8
370
    18
100
AcDbSpline
210
0.0
220
0.0
230
1.0
 70
     8
 71
     3
 72
    34
 73
    30
 74
     0
 42
0.00000001
 43
0.00000001
 40
0.0
 40
0.0
 40
0.0
 40
0.0
 40
0.0459358548049106
 40
0.1658694663639788
 40
0.20588742383426
 40
0.2331615481685573
 40
0.2740188244045545
 40
0.2876203169849755
 40
0.3390086975300177
 40
0.4115021669146686
 40
0.4558446419170656
 40
0.5001436120962209
 40
0.5888000806314045
 40
0.6148487842102871
 40
0.6539095889663605
 40
0.6734283622575086
 40
0.6799342553074754
 40
0.6929594292160224
 40
0.7125558069874134
 40
0.7321239840550589
 40
0.7515279518113133
 40
0.7710432320621812
 40
0.8101309983395993
 40
0.8296856598515765
 40
0.8616160509986549
 40
0.8739855739805131
 40
0.8863029991025971
 40
0.9482432574623302
 40
1.0
 40
1.0
 40
1.0
 40
1.0
 10
232.1203376108332
 20
325.2909764326191
 30
0.0
 10
232.1259067028944
 20
325.4453267246791
 30
0.0
 10
232.1460160996224
 20
326.0026691467555
 30
0.0
 10
232.1705392953735
 20
326.6954319648833
 30
0.0
 10
232.192330787918
 20
327.3265063742925
 30
0.0
 10
232.2047858086401
 20
327.6912828890669
 30
0.0
 10
232.2140936258804
 20
327.9671373520347
 30
0.0
 10
232.2260279464254
 20
328.3245471994158
 30
0.0
 10
232.2413408566858
 20
328.7890374810764
 30
0.0
 10
232.2596031618319
 20
329.3579410231887
 30
0.0
 10
232.2766158889856
 20
329.9034862310359
 30
0.0
 10
232.2949311179962
 20
330.5042747476726
 30
0.0
 10
232.3106579281438
 20
331.0437495688979
 30
0.0
 10
232.325244684152
 20
331.5659833933255
 30
0.0
 10
232.3330841502984
 20
331.8535702662347
 30
0.0
 10
232.3389848880146
 20
332.074857835774
 30
0.0
 10
232.3424921382639
 20
332.2076550977688
 30
0.0
 10
232.34597988557
 20
332.3407386309875
 30
0.0
 10
232.3505960375809
 20
332.5182988154796
 30
0.0
 10
232.3557125142945
 20
332.7176267399195
 30
0.0
 10
232.360656575739
 20
332.9167507668257
 30
0.0
 10
232.3672686869658
 20
333.1824105443646
 30
0.0
 10
232.3736882171904
 20
333.4487203859667
 30
0.0
 10
232.3810005011765
 20
333.7574847664618
 30
0.0
 10
232.3860438064108
 20
333.9752635250262
 30
0.0
 10
232.3904558306028
 20
334.1684323071683
 30
0.0
 10
232.3970957287105
 20
334.4640581701809
 30
0.0
 10
232.40658216525
 20
334.8943420596057
 30
0.0
 10
232.4146442410941
 20
335.2830755983072
 30
0.0
 10
232.4183142304561
 20
335.4600334909475
 30
0.0
  0
CIRCLE
  5
98
330
1F
100
AcDbEntity
  8
0
  6
Continuous
 62
     8
370
    18
100
AcDbCircle
 10
207.3393027471
 20
408.7143817522
 30
0.0
 40
10.77434613606391
  0
CIRCLE
  5
99
330
1F
100
AcDbEntity
  8
0
  6
Continuous
 62
     8
370
    18
100
AcDbCircle
 10
207.3393027471
 20
408.7143817522
 30
0.0
 40
11.25844862367722
  0
SPLINE
  5
9A
330
1F
100
AcDbEntity
  8
0
  6
Continuous
 62
     8
370
    18
100
AcDbSpline
210
0.0
220
0.0
230
1.0
 70
     8
 71
     3
 72
     8
 73
     4
 74
     0
 42
0.00000001
 43
0.00000001
 40
0.0
 40
0.0
 40
0.0
 40
0.0
 40
1.0
 40
1.0
 40
1.0
 40
1.0
 10
133.2422895894868
 20
298.06904185555
 30
0.0
 10
132.9025888560622
 20
346.5659351163459
 30
0.0
 10
132.9025888524855
 20
395.062828377167
 30
0.0
 10
133.2422895787546
 20
443.559721638013
 30
0.0
  0
SPLINE
  5
9B
330
1F
100
AcDbEntity
  8
0
  6
Continuous
 62
     8
370
    18
100
AcDbSpline
210
0.0
220
0.0
230
1.0
 70
     8
 71
     3
 72
    21
 73
    17
 74
     0
 42
0.00000001
 43
0.00000001
 40
0.0
 40
0.0
 40
0.0
 40
0.0
 40
0.0527050579354681
 40
0.1061279058761819
 40
0.1602714789031549
 40
0.2151385958221045
 40
0.2707319647140958
 40
0.3270541881745356
 40
0.3841077682620475
 40
0.4418951111701173
 40
0.5004185316406372
 40
0.6190410088380138
 40
0.7500271579308149
 40
0.8150588915855166
 40
0.8983884735131795
 40
1.0
 40
1.0
 40
1.0
 40
1.0
 10
133.2422895787529
 20
443.559721638013
 30
0.0
 10
133.2442989686123
 20
443.5598984675671
 30
0.0
 10
133.2483451142048
 20
443.5602545349163
 30
0.0
 10
133.2671074622243
 20
443.5595076564622
 30
0.0
 10
133.2955164542512
 20
443.557820618076
 30
0.0
 10
133.334694293989
 20
443.5550870988262
 30
0.0
 10
133.3845067879654
 20
443.5513221260724
 30
0.0
 10
133.4450483295194
 20
443.5465078742886
 30
0.0
 10
133.5162223864634
 20
443.5406357101224
 30
0.0
 10
133.5978610866286
 20
443.5336959490865
 30
0.0
 10
133.7206574897746
 20
443.5229655496599
 30
0.0
 10
133.9043813902056
 20
443.5063471558
 30
0.0
 10
134.1179765411901
 20
443.4866405672839
 30
0.0
 10
134.3194174201499
 20
443.4675191578056
 30
0.0
 10
134.5060314880343
 20
443.4497079631338
 30
0.0
 10
134.6474987547461
 20
443.4359944515384
 30
0.0
 10
134.7252246051086
 20
443.4284598862994
 30
0.0
  0
SPLINE
  5
9C
330
1F
100
AcDbEntity
  8
0
  6
Continuous
 62
     8
370
    18
100
AcDbSpline
210
0.0
220
0.0
230
1.0
 70
     8
 71
     3
 72
     8
 73
     4
 74
     0
 42
0.00000001
 43
0.00000001
 40
0.0
 40
0.0
 40
0.0
 40
0.0
 40
1.0
 40
1.0
 40
1.0
 40
1.0
 10
134.7252246051102
 20
443.4284598862995
 30
0.0
 10
134.3867724511392
 20
395.019074460002
 30
0.0
 10
134.3867724547104
 20
346.6096890337294
 30
0.0
 10
134.7252246158239
 20
298.2003036074818
 30
0.0
  0
SPLINE
  5
9D
330
1F
100
AcDbEntity
  8
0
  6
Continuous
 62
     8
370
    18
100
AcDbSpline
210
0.0
220
0.0
230
1.0
 70
     8
 71
     3
 72
    21
 73
    17
 74
     0
 42
0.00000001
 43
0.00000001
 40
0.0
 40
0.0
 40
0.0
 40
0.0
 40
0.0527015852610267
 40
0.1061218296404913
 40
0.1602636681737315
 40
0.2151299194777611
 40
0.2707232913178364
 40
0.3270463858585765
 40
0.3841017046255338
 40
0.4418916531887827
 40
0.5004185455847746
 40
0.6190205634992413
 40
0.7500271669109987
 40
0.8150462982097687
 40
0.8983758845579183
 40
0.9999999999999999
 40
0.9999999999999999
 40
0.9999999999999999
 40
0.9999999999999999
 10
133.2422895894873
 20
298.06904185555
 30
0.0
 10
133.2442987853516
 20
298.0688650448919
 30
0.0
 10
133.2483445752493
 20
298.0685090125177
 30
0.0
 10
133.2671050759269
 20
298.0692559278602
 30
0.0
 10
133.2955118618806
 20
298.0709429807442
 30
0.0
 10
133.3346875499625
 20
298.0736765001524
 30
0.0
 10
133.3844984664181
 20
298.0774414605427
 30
0.0
 10
133.4450394868184
 20
298.0822556979917
 30
0.0
 10
133.5162145408248
 20
298.0881278349765
 30
0.0
 10
133.5978561588379
 20
298.0950676268691
 30
0.0
 10
133.7206447763585
 20
298.1057965355992
 30
0.0
 10
133.9043678706996
 20
298.1224151036552
 30
0.0
 10
134.1179532872349
 20
298.1421208175492
 30
0.0
 10
134.3193989902314
 20
298.1612424265035
 30
0.0
 10
134.5060121947864
 20
298.1790536690955
 30
0.0
 10
134.64748912116
 20
298.1927681107966
 30
0.0
 10
134.7252246158219
 20
298.2003036074812
 30
0.0
  0
SPLINE
  5
9E
330
1F
100
AcDbEntity
  8
0
  6
Continuous
 62
     8
370
    18
100
AcDbSpline
210
0.0
220
0.0
230
1.0
 70
     8
 71
     3
 72
     8
 73
     4
 74
     0
 42
0.00000001
 43
0.00000001
 40
0.0
 40
0.0
 40
0.0
 40
0.0
 40
1.0
 40
1.0
 40
1.0
 40
1.0
 10
279.9533808946371
 20
298.2003036181947
 30
0.0
 10
280.2918330486081
 20
346.6096890444928
 30
0.0
 10
280.2918330450386
 20
395.019074470766
 30
0.0
 10
279.9533808839251
 20
443.4284598970142
 30
0.0
  0
LINE
  5
9F
330
1F
100
AcDbEntity
  8
0
  6
Continuous
 62
     8
370
    18
100
AcDbLine
 10
134.7252246158
 20
298.2003036075
 30
0.0
 11
182.6214332384
 21
298.0328603528
 31
0.0
  0
LINE
  5
A0
330
1F
100
AcDbEntity
  8
0
  6
Continuous
 62
     8
370
    18
100
AcDbLine
 10
232.0626821267
 20
298.0329055687
 30
0.0
 11
279.9533808946
 21
298.2003036182
 31
0.0
  0
SPLINE
  5
A1
330
1F
100
AcDbEntity
  8
0
  6
Continuous
 62
     8
370
    18
100
AcDbSpline
210
0.0
220
0.0
230
1.0
 70
     8
 71
     3
 72
     8
 73
     4
 74
     0
 42
0.00000001
 43
0.00000001
 40
0.0
 40
0.0
 40
0.0
 40
0.0
 40
1.0
 40
1.0
 40
1.0
 40
1.0
 10
279.9533808839236
 20
443.4284598970139
 30
0.0
 10
231.5439954576272
 20
443.7669120509849
 30
0.0
 10
183.1346100313559
 20
443.7669120474143
 30
0.0
 10
134.7252246051096
 20
443.4284598863008
 30
0.0
  0
SPLINE
  5
A2
330
1F
100
AcDbEntity
  8
0
  6
Continuous
 62
     8
370
    18
100
AcDbSpline
210
0.0
220
0.0
230
1.0
 70
     8
 71
     3
 72
    26
 73
    22
 74
     0
 42
0.00000001
 43
0.00000001
 40
0.0
 40
0.0
 40
0.0
 40
0.0
 40
0.03125
 40
0.03125
 40
0.0625
 40
0.0625
 40
0.125
 40
0.125
 40
0.25
 40
0.25
 40
0.375
 40
0.375
 40
0.5
 40
0.5
 40
0.625
 40
0.625
 40
0.75
 40
0.75
 40
0.875
 40
0.875
 40
1.0
 40
1.0
 40
1.0
 40
1.0
 10
281.4363159102604
 20
443.5597216489458
 30
0.0
 10
281.4356797023193
 20
443.5598864506932
 30
0.0
 10
281.434450416119
 20
443.5599928703523
 30
0.0
 10
281.4308238847036
 20
443.5600902444496
 30
0.0
 10
281.4284266394886
 20
443.5600811988878
 30
0.0
 10
281.419510261577
 20
443.5598828128042
 30
0.0
 10
281.4112664866139
 20
443.5595222228843
 30
0.0
 10
281.3798549627032
 20
443.5577710429978
 30
0.0
 10
281.3500070147341
 20
443.5557110429049
 30
0.0
 10
281.2736618949758
 20
443.5498890822004
 30
0.0
 10
281.226437399229
 20
443.5460700754442
 30
0.0
 10
281.117529081085
 20
443.5369057459574
 30
0.0
 10
281.0561559888617
 20
443.5315907618896
 30
0.0
 10
280.9197213028992
 20
443.5195109750877
 30
0.0
 10
280.843994922104
 20
443.5126834407998
 30
0.0
 10
280.6847921976902
 20
443.4981095862129
 30
0.0
 10
280.6007356928235
 20
443.4903134649012
 30
0.0
 10
280.4235777068942
 20
443.4736874399445
 30
0.0
 10
280.3310805220396
 20
443.4649121307191
 30
0.0
 10
280.1446516733815
 20
443.4470484842101
 30
0.0
 10
280.0498404229122
 20
443.4378778643938
 30
0.0
 10
279.9533808839243
 20
443.4284598970135
 30
0.0
  0
SPLINE
  5
A3
330
1F
100
AcDbEntity
  8
0
  6
Continuous
 62
     8
370
    18
100
AcDbSpline
210
0.0
220
0.0
230
1.0
 70
     8
 71
     3
 72
     8
 73
     4
 74
     0
 42
0.00000001
 43
0.00000001
 40
0.0
 40
0.0
 40
0.0
 40
0.0
 40
1.0
 40
1.0
 40
1.0
 40
1.0
 10
281.4363159102601
 20
443.5597216489458
 30
0.0
 10
281.7760166436847
 20
395.0628283881497
 30
0.0
 10
281.7760166472614
 20
346.5659351273285
 30
0.0
 10
281.4363159209923
 20
298.0690418664823
 30
0.0
  0
SPLINE
  5
A4
330
1F
100
AcDbEntity
  8
0
  6
Continuous
 62
     8
370
    18
100
AcDbSpline
210
0.0
220
0.0
230
1.0
 70
     8
 71
     3
 72
    26
 73
    22
 74
     0
 42
0.00000001
 43
0.00000001
 40
0.0
 40
0.0
 40
0.0
 40
0.0
 40
0.03125
 40
0.03125
 40
0.0625
 40
0.0625
 40
0.125
 40
0.125
 40
0.25
 40
0.25
 40
0.375
 40
0.375
 40
0.5
 40
0.5
 40
0.625
 40
0.625
 40
0.75
 40
0.75
 40
0.875
 40
0.875
 40
1.0
 40
1.0
 40
1.0
 40
1.0
 10
281.4363159209938
 20
298.0690418664823
 30
0.0
 10
281.4356797130527
 20
298.0688770647349
 30
0.0
 10
281.4344504268524
 20
298.0687706450755
 30
0.0
 10
281.4308238954371
 20
298.0686732709777
 30
0.0
 10
281.428426650222
 20
298.0686823165391
 30
0.0
 10
281.4195102723104
 20
298.0688807026214
 30
0.0
 10
281.4112664973473
 20
298.0692412925401
 30
0.0
 10
281.3798549734364
 20
298.0709924724218
 30
0.0
 10
281.3500070254671
 20
298.0730524725104
 30
0.0
 10
281.273661905708
 20
298.0788744332036
 30
0.0
 10
281.2264374099605
 20
298.0826934399528
 30
0.0
 10
281.1175290918151
 20
298.0918577694235
 30
0.0
 10
281.0561559995908
 20
298.0971727534821
 30
0.0
 10
280.9197213136266
 20
298.1092525402638
 30
0.0
 10
280.84399493283
 20
298.1160800745406
 30
0.0
 10
280.6847922084141
 20
298.1306539291039
 30
0.0
 10
280.6007357035461
 20
298.1384500504032
 30
0.0
 10
280.4235777176145
 20
298.1550760753336
 30
0.0
 10
280.3310805327586
 20
298.1638513845454
 30
0.0
 10
280.1446516840979
 20
298.1817150310267
 30
0.0
 10
280.0498404336273
 20
298.190885650829
 30
0.0
 10
279.9533808946381
 20
298.200303618195
 30
0.0
  0
SPLINE
  5
A5
330
1F
100
AcDbEntity
  8
0
  6
Continuous
 62
     8
370
    18
100
AcDbSpline
210
0.0
220
0.0
230
1.0
 70
     8
 71
     3
 72
     9
 73
     5
 74
     0
 42
0.00000001
 43
0.00000001
 40
0.0
 40
0.0
 40
0.0
 40
0.0
 40
0.7547088468187563
 40
1.0
 40
1.0
 40
1.0
 40
1.0
 10
280.0846426465685
 20
296.7173685918592
 30
0.0
 10
267.9620116382603
 20
296.6376602188589
 30
0.0
 10
251.8993524294708
 20
296.5320454863216
 30
0.0
 10
235.8357562255003
 20
296.5108077770292
 30
0.0
 10
231.8954981883905
 20
296.505598354826
 30
0.0
  0
SPLINE
  5
A6
330
1F
100
AcDbEntity
  8
0
  6
Continuous
 62
     8
370
    18
100
AcDbSpline
210
0.0
220
0.0
230
1.0
 70
     8
 71
     3
 72
     9
 73
     5
 74
     0
 42
0.00000001
 43
0.00000001
 40
0.0
 40
0.0
 40
0.0
 40
0.0
 40
0.245265810628993
 40
0.9999999999999999
 40
0.9999999999999999
 40
0.9999999999999999
 40
0.9999999999999999
 10
182.7908598981126
 20
296.5055828555427
 30
0.0
 10
178.8503751186466
 20
296.5107890000847
 30
0.0
 10
162.784194637313
 20
296.5320155400927
 30
0.0
 10
146.7189512836698
 20
296.6376458071477
 30
0.0
 10
134.5939628641099
 20
296.7173685811266
 30
0.0
  0
SPLINE
  5
A7
330
1F
100
AcDbEntity
  8
0
  6
Continuous
 62
     8
370
    18
100
AcDbSpline
210
0.0
220
0.0
230
1.0
 70
     8
 71
     3
 72
    26
 73
    22
 74
     0
 42
0.00000001
 43
0.00000001
 40
0.0
 40
0.0
 40
0.0
 40
0.0
 40
0.03125
 40
0.03125
 40
0.0625
 40
0.0625
 40
0.125
 40
0.125
 40
0.25
 40
0.25
 40
0.375
 40
0.375
 40
0.5
 40
0.5
 40
0.625
 40
0.625
 40
0.75
 40
0.75
 40
0.875
 40
0.875
 40
1.0
 40
1.0
 40
1.0
 40
1.0
 10
134.5939628641097
 20
296.717368581125
 30
0.0
 10
134.5937980623623
 20
296.7180047890661
 30
0.0
 10
134.593691642703
 20
296.7192340752664
 30
0.0
 10
134.5935942686052
 20
296.7228606066818
 30
0.0
 10
134.5936033141667
 20
296.7252578518967
 30
0.0
 10
134.5938017002489
 20
296.7341742298083
 30
0.0
 10
134.5941622901676
 20
296.7424180047714
 30
0.0
 10
134.5959134700493
 20
296.7738295286821
 30
0.0
 10
134.5979734701379
 20
296.8036774766515
 30
0.0
 10
134.6037954308311
 20
296.8800225964106
 30
0.0
 10
134.6076144375803
 20
296.9272470921586
 30
0.0
 10
134.616778767051
 20
297.0361554103039
 30
0.0
 10
134.6220937511098
 20
297.0975285025281
 30
0.0
 10
134.6341735378914
 20
297.2339631884924
 30
0.0
 10
134.6410010721684
 20
297.3096895692902
 30
0.0
 10
134.6555749267317
 20
297.4688922937062
 30
0.0
 10
134.6633710480307
 20
297.5529487985726
 30
0.0
 10
134.6799970729613
 20
297.7301067845044
 30
0.0
 10
134.6887723821731
 20
297.822603969361
 30
0.0
 10
134.7066360286545
 20
298.0090328180216
 30
0.0
 10
134.7158066484567
 20
298.1038440684923
 30
0.0
 10
134.7252246158228
 20
298.2003036074813
 30
0.0
  0
SPLINE
  5
A8
330
1F
100
AcDbEntity
  8
0
  6
Continuous
 62
     8
370
    18
100
AcDbSpline
210
0.0
220
0.0
230
1.0
 70
     8
 71
     3
 72
    21
 73
    17
 74
     0
 42
0.00000001
 43
0.00000001
 40
0.0
 40
0.0
 40
0.0
 40
0.0
 40
0.0527015849058928
 40
0.106121829018711
 40
0.1602636673748167
 40
0.2151299185911916
 40
0.2707232904325548
 40
0.3270463850640979
 40
0.3841017040109335
 40
0.4418916528424956
 40
0.5004185455961094
 40
0.6190205570882109
 40
0.7500271669239522
 40
0.8150462880624368
 40
0.8983758744116579
 40
1.0
 40
1.0
 40
1.0
 40
1.0
 10
280.0846426465685
 20
296.7173685918606
 30
0.0
 10
280.0848194572245
 20
296.719377787705
 30
0.0
 10
280.0851754895951
 20
296.7234235775659
 30
0.0
 10
280.0844285742489
 20
296.7421840780547
 30
0.0
 10
280.0827415213633
 20
296.7705908637793
 30
0.0
 10
280.0800080019552
 20
296.8097665516434
 30
0.0
 10
280.0762430415663
 20
296.8595774679325
 30
0.0
 10
280.0714288041184
 20
296.9201184882833
 30
0.0
 10
280.065556667138
 20
296.9912935423933
 30
0.0
 10
280.0586168752371
 20
297.0729351607025
 30
0.0
 10
280.0478879668822
 20
297.1957237751721
 30
0.0
 10
280.0312693986761
 20
297.3794468688096
 30
0.0
 10
280.0115636856274
 20
297.5930322781051
 30
0.0
 10
279.9924420771048
 20
297.79447797774
 30
0.0
 10
279.9746308344918
 20
297.9810911815954
 30
0.0
 10
279.9609163920621
 20
298.1225681157576
 30
0.0
 10
279.9533808946381
 20
298.2003036181952
 30
0.0
  0
SPLINE
  5
A9
330
1F
100
AcDbEntity
  8
0
  6
Continuous
 62
     8
370
    18
100
AcDbSpline
210
0.0
220
0.0
230
1.0
 70
     8
 71
     3
 72
    26
 73
    22
 74
     0
 42
0.00000001
 43
0.00000001
 40
0.0
 40
0.0
 40
0.0
 40
0.0
 40
0.03125
 40
0.03125
 40
0.0625
 40
0.0625
 40
0.125
 40
0.125
 40
0.25
 40
0.25
 40
0.375
 40
0.375
 40
0.5
 40
0.5
 40
0.625
 40
0.625
 40
0.75
 40
0.75
 40
0.875
 40
0.875
 40
1.0
 40
1.0
 40
1.0
 40
1.0
 10
134.5939628531726
 20
444.9113949126371
 30
0.0
 10
134.5937980514253
 20
444.910758704696
 30
0.0
 10
134.5936916317661
 20
444.9095294184957
 30
0.0
 10
134.5935942576689
 20
444.9059028870803
 30
0.0
 10
134.5936033032307
 20
444.9035056418654
 30
0.0
 10
134.5938016893143
 20
444.8945892639538
 30
0.0
 10
134.5941622792343
 20
444.8863454889907
 30
0.0
 10
134.5959134591208
 20
444.85493396508
 30
0.0
 10
134.5979734592138
 20
444.8250860171108
 30
0.0
 10
134.6037954199185
 20
444.7487408973525
 30
0.0
 10
134.6076144266748
 20
444.7015164016053
 30
0.0
 10
134.6167787561619
 20
444.5926080834611
 30
0.0
 10
134.6220937402299
 20
444.5312349912377
 30
0.0
 10
134.6341735270322
 20
444.3948003052751
 30
0.0
 10
134.6410010613204
 20
444.3190739244784
 30
0.0
 10
134.6555749159078
 20
444.1598712000645
 30
0.0
 10
134.6633710372195
 20
444.0758146951993
 30
0.0
 10
134.6799970621768
 20
443.8986567092698
 30
0.0
 10
134.6887723714025
 20
443.8061595244148
 30
0.0
 10
134.706636017912
 20
443.6197306757567
 30
0.0
 10
134.7158066377285
 20
443.5249194252871
 30
0.0
 10
134.7252246051091
 20
443.4284598862995
 30
0.0
  0
SPLINE
  5
AA
330
1F
100
AcDbEntity
  8
0
  6
Continuous
 62
     8
370
    18
100
AcDbSpline
210
0.0
220
0.0
230
1.0
 70
     8
 71
     3
 72
     8
 73
     4
 74
     0
 42
0.00000001
 43
0.00000001
 40
0.0
 40
0.0
 40
0.0
 40
0.0
 40
1.0
 40
1.0
 40
1.0
 40
1.0
 10
134.5939628531727
 20
444.9113949126361
 30
0.0
 10
183.0908561139691
 20
445.2510956460607
 30
0.0
 10
231.5877493747905
 20
445.2510956496395
 30
0.0
 10
280.084642635637
 20
444.9113949233704
 30
0.0
  0
SPLINE
  5
AB
330
1F
100
AcDbEntity
  8
0
  6
Continuous
 62
     8
370
    18
100
AcDbSpline
210
0.0
220
0.0
230
1.0
 70
     8
 71
     3
 72
    21
 73
    17
 74
     0
 42
0.00000001
 43
0.00000001
 40
0.0
 40
0.0
 40
0.0
 40
0.0
 40
0.0527050586766643
 40
0.1061279071729873
 40
0.1602714805700348
 40
0.2151385976733277
 40
0.2707319665642507
 40
0.3270541898385085
 40
0.3841077695539212
 40
0.4418951119053822
 40
0.5004185316335789
 40
0.6190410166254308
 40
0.7500271579264729
 40
0.8150588969032506
 40
0.8983884788292071
 40
1.0
 40
1.0
 40
1.0
 40
1.0
 10
280.084642635637
 20
444.9113949233712
 30
0.0
 10
280.084819465195
 20
444.9093855334704
 30
0.0
 10
280.0851755325516
 20
444.9053393878018
 30
0.0
 10
280.0844286541053
 20
444.8865770393879
 30
0.0
 10
280.0827416157221
 20
444.8581680468885
 30
0.0
 10
280.0800080964724
 20
444.8189902066926
 30
0.0
 10
280.0762431237156
 20
444.7691777123794
 30
0.0
 10
280.0714288719293
 20
444.7086361707115
 30
0.0
 10
280.0655567077566
 20
444.6374621139834
 30
0.0
 10
280.0586169467311
 20
444.5558234144382
 30
0.0
 10
280.0478865468119
 20
444.433027007847
 30
0.0
 10
280.031268153087
 20
444.2493031067545
 30
0.0
 10
280.0115615640875
 20
444.0357079517163
 30
0.0
 10
279.9924401545717
 20
443.8342670741915
 30
0.0
 10
279.9746289599277
 20
443.6476530059419
 30
0.0
 10
279.9609154487539
 20
443.5061857433067
 30
0.0
 10
279.9533808839242
 20
443.4284598970154
 30
0.0
  0
LINE
  5
AC
330
1F
100
AcDbEntity
  8
0
  6
Continuous
 62
     8
370
    18
100
AcDbLine
 10
280.0856493392
 20
445.0497767097
 30
0.0
 11
280.0846426356
 21
444.9113949234
 31
0.0
  0
LINE
  5
AD
330
1F
100
AcDbEntity
  8
0
  6
Continuous
 62
     8
370
    18
100
AcDbLine
 10
134.5929561496
 20
445.0497766989
 30
0.0
 11
134.5939628532
 21
444.9113949126
 31
0.0
  0
LINE
  5
AE
330
1F
100
AcDbEntity
  8
0
  6
Continuous
 62
     8
370
    18
100
AcDbLine
 10
134.5929561605
 20
296.5789867948
 30
0.0
 11
134.5939628641
 21
296.7173685811
 31
0.0
  0
LINE
  5
AF
330
1F
100
AcDbEntity
  8
0
  6
Continuous
 62
     8
370
    18
100
AcDbLine
 10
280.0856493502
 20
296.5789868056
 30
0.0
 11
280.0846426466
 21
296.7173685919
 31
0.0
  0
LINE
  5
B0
330
1F
100
AcDbEntity
  8
0
  6
Continuous
 62
     8
370
    18
100
AcDbLine
 10
281.5746977073
 20
298.0680351629
 30
0.0
 11
281.436315921
 21
298.0690418665
 31
0.0
  0
LINE
  5
B1
330
1F
100
AcDbEntity
  8
0
  6
Continuous
 62
     8
370
    18
100
AcDbLine
 10
281.5746976966
 20
443.5607283525
 30
0.0
 11
281.4363159103
 21
443.5597216489
 31
0.0
  0
LINE
  5
B2
330
1F
100
AcDbEntity
  8
0
  6
Continuous
 62
     8
370
    18
100
AcDbLine
 10
133.1039077924
 20
443.5607283416
 30
0.0
 11
133.2422895788
 21
443.559721638
 31
0.0
  0
LINE
  5
B3
330
1F
100
AcDbEntity
  8
0
  6
Continuous
 62
     8
370
    18
100
AcDbLine
 10
133.1039078032
 20
298.068035152
 30
0.0
 11
133.2422895895
 21
298.0690418555
 31
0.0
  0
SPLINE
  5
B4
330
1F
100
AcDbEntity
  8
0
  6
Continuous
 62
     8
370
    18
100
AcDbSpline
210
0.0
220
0.0
230
1.0
 70
     8
 71
     3
 72
    25
 73
    21
 74
     0
 42
0.00000001
 43
0.00000001
 40
0.0
 40
0.0
 40
0.0
 40
0.0
 40
0.0555740769952394
 40
0.1111416178227227
 40
0.1667034389955654
 40
0.2222603572299364
 40
0.277813189416204
 40
0.3333627525898629
 40
0.3889098639026283
 40
0.4444553405933728
 40
0.4999999999590783
 40
0.5555446593257967
 40
0.6110901360195542
 40
0.6666372473373906
 40
0.7221868105181255
 40
0.7777396427134581
 40
0.833296560958959
 40
0.8888583821449424
 40
0.9444259229875951
 40
1.0
 40
1.0
 40
1.0
 40
1.0
 10
280.0846426356371
 20
444.9113949233691
 30
0.0
 10
280.1238728479483
 20
444.9101039893121
 30
0.0
 10
280.2023286586341
 20
444.9075222730269
 30
0.0
 10
280.3190360614511
 20
444.8907940288351
 30
0.0
 10
280.4339146796427
 20
444.864788096002
 30
0.0
 10
280.5461021823985
 20
444.8287742495343
 30
0.0
 10
280.6547646372408
 20
444.7832692935572
 30
0.0
 10
280.7590921565527
 20
444.7285464530694
 30
0.0
 10
280.8583077366969
 20
444.6650316638824
 30
0.0
 10
280.9516722583077
 20
444.593193688999
 30
0.0
 10
281.0384902151496
 20
444.5135692285218
 30
0.0
 10
281.118114675652
 20
444.4267512717
 30
0.0
 10
281.1899526505648
 20
444.3333867501036
 30
0.0
 10
281.2534674397835
 20
444.2341711699671
 30
0.0
 10
281.308190280305
 20
444.1298436506557
 30
0.0
 10
281.3536952363158
 20
444.0211811958067
 30
0.0
 10
281.3897090828162
 20
443.9089936930366
 30
0.0
 10
281.4157150156792
 20
443.794115074823
 30
0.0
 10
281.4324432598974
 20
443.6774076719772
 30
0.0
 10
281.4350249761953
 20
443.5989518612687
 30
0.0
 10
281.4363159102588
 20
443.5597216489458
 30
0.0
  0
SPLINE
  5
B5
330
1F
100
AcDbEntity
  8
0
  6
Continuous
 62
     8
370
    18
100
AcDbSpline
210
0.0
220
0.0
230
1.0
 70
     8
 71
     3
 72
    25
 73
    21
 74
     0
 42
0.00000001
 43
0.00000001
 40
0.0
 40
0.0
 40
0.0
 40
0.0
 40
0.0555740769933564
 40
0.1111416178191781
 40
0.1667034389905866
 40
0.2222603572237552
 40
0.2778131894090199
 40
0.3333627525819141
 40
0.388909863894131
 40
0.4444553405845526
 40
0.4999999999501444
 40
0.55554465931698
 40
0.6110901360110841
 40
0.6666372473294653
 40
0.7221868105109635
 40
0.7777396427073096
 40
0.8332965609540238
 40
0.8888583821414248
 40
0.9444259229857128
 40
1.0
 40
1.0
 40
1.0
 40
1.0
 10
134.5939628641098
 20
296.7173685811262
 30
0.0
 10
134.5547326518
 20
296.7186595151832
 30
0.0
 10
134.4762768411166
 20
296.7212412314681
 30
0.0
 10
134.359569438303
 20
296.7379694756589
 30
0.0
 10
134.2446908201142
 20
296.7639754084905
 30
0.0
 10
134.1325033173604
 20
296.7999892549566
 30
0.0
 10
134.0238408625196
 20
296.8454942109316
 30
0.0
 10
133.9195133432085
 20
296.9002170514177
 30
0.0
 10
133.8202977630643
 20
296.9637318406025
 30
0.0
 10
133.7269332414533
 20
297.0355698154845
 30
0.0
 10
133.6401152846103
 20
297.1151942759603
 30
0.0
 10
133.5604908241066
 20
297.2020122327813
 30
0.0
 10
133.4886528491921
 20
297.2953767543772
 30
0.0
 10
133.4251380599715
 20
297.394592334514
 30
0.0
 10
133.3704152194481
 20
297.4989198538261
 30
0.0
 10
133.3249102634353
 20
297.6075823086768
 30
0.0
 10
133.2888964169332
 20
297.7197698114491
 30
0.0
 10
133.2628904840688
 20
297.8346484296654
 30
0.0
 10
133.2461622398497
 20
297.9513558325147
 30
0.0
 10
133.2435805235517
 20
298.0298116432256
 30
0.0
 10
133.2422895894881
 20
298.0690418555499
 30
0.0
  0
SPLINE
  5
B6
330
1F
100
AcDbEntity
  8
0
  6
Continuous
 62
     8
370
    18
100
AcDbSpline
210
0.0
220
0.0
230
1.0
 70
     8
 71
     3
 72
    25
 73
    21
 74
     0
 42
0.00000001
 43
0.00000001
 40
0.0
 40
0.0
 40
0.0
 40
0.0
 40
0.0555740770111383
 40
0.1111416178526295
 40
0.1667034390376195
 40
0.2222603572822919
 40
0.277813189476977
 40
0.3333627526571919
 40
0.3889098639746389
 40
0.4444553406681896
 40
0.5000000000348371
 40
0.555544659400614
 40
0.611090136091581
 40
0.6666372474047412
 40
0.7221868105789224
 40
0.7777396427658614
 40
0.8332965610010764
 40
0.8888583821748872
 40
0.9444259230034938
 40
1.0
 40
1.0
 40
1.0
 40
1.0
 10
133.242289578755
 20
443.559721638013
 30
0.0
 10
133.2435805128127
 20
443.5989518503353
 30
0.0
 10
133.2461622290988
 20
443.6774076610423
 30
0.0
 10
133.262890473299
 20
443.7941150638879
 30
0.0
 10
133.2888964061439
 20
443.908993682103
 30
0.0
 10
133.3249102526264
 20
444.0211811848769
 30
0.0
 10
133.3704152086196
 20
444.1298436397316
 30
0.0
 10
133.4251380491241
 20
444.2341711590502
 30
0.0
 10
133.4886528383267
 20
444.3333867391959
 30
0.0
 10
133.5604908132242
 20
444.4267512608033
 30
0.0
 10
133.6401152737126
 20
444.5135692176372
 30
0.0
 10
133.7269332305418
 20
444.593193678128
 30
0.0
 10
133.8202977521413
 20
444.6650316530269
 30
0.0
 10
133.9195133322759
 20
444.7285464422295
 30
0.0
 10
134.0238408515801
 20
444.7832692827342
 30
0.0
 10
134.1325033064163
 20
444.8287742387288
 30
0.0
 10
134.244690809168
 20
444.8647880852147
 30
0.0
 10
134.3595694273573
 20
444.8907940180659
 30
0.0
 10
134.4762768301738
 20
444.9075222622759
 30
0.0
 10
134.5547326408609
 20
444.9101039785729
 30
0.0
 10
134.5939628531726
 20
444.9113949126359
 30
0.0
  0
SPLINE
  5
B7
330
1F
100
AcDbEntity
  8
0
  6
Continuous
 62
     8
370
    18
100
AcDbSpline
210
0.0
220
0.0
230
1.0
 70
     8
 71
     3
 72
    25
 73
    21
 74
     0
 42
0.00000001
 43
0.00000001
 40
0.0
 40
0.0
 40
0.0
 40
0.0
 40
0.0555740770039927
 40
0.1111416178392052
 40
0.1667034390187442
 40
0.2222603572587944
 40
0.2778131894496855
 40
0.3333627526269606
 40
0.3889098639422947
 40
0.4444553406345951
 40
0.5000000000008121
 40
0.5555446593670055
 40
0.6110901360592391
 40
0.6666372473744834
 40
0.7221868105516166
 40
0.777739642742332
 40
0.8332965609821584
 40
0.8888583821614353
 40
0.944425922996349
 40
1.0
 40
1.0
 40
1.0
 40
1.0
 10
281.4363159209919
 20
298.0690418664823
 30
0.0
 10
281.4350249869346
 20
298.029811654165
 30
0.0
 10
281.4324432706489
 20
297.9513558434673
 30
0.0
 10
281.4157150264525
 20
297.8346484406343
 30
0.0
 10
281.3897090936129
 20
297.7197698224296
 30
0.0
 10
281.3536952471369
 20
297.6075823196635
 30
0.0
 10
281.3081902911507
 20
297.4989198648144
 30
0.0
 10
281.2534674506536
 20
297.3945923454985
 30
0.0
 10
281.1899526614579
 20
297.2953767653534
 30
0.0
 10
281.1181146865665
 20
297.2020122437445
 30
0.0
 10
281.038490226083
 20
297.1151942869068
 30
0.0
 10
280.9516722692568
 20
297.0355698264106
 30
0.0
 10
280.8583077476585
 20
296.9637318515056
 30
0.0
 10
280.7590921675227
 20
296.9002170622957
 30
0.0
 10
280.6547646482152
 20
296.8454942217836
 30
0.0
 10
280.5461021933729
 20
296.7999892657818
 30
0.0
 10
280.4339146906127
 20
296.7639754192895
 30
0.0
 10
280.3190360724122
 20
296.7379694864332
 30
0.0
 10
280.2023286695823
 20
296.7212412422197
 30
0.0
 10
280.1238728588855
 20
296.7186595259225
 30
0.0
 10
280.0846426465686
 20
296.7173685918593
 30
0.0
  0
ARC
  5
B8
330
1F
100
AcDbEntity
  8
0
  6
Continuous
 62
     7
370
    25
100
AcDbCircle
 10
-6606.9800905023
 20
370.8143817523
 30
0.0
 40
7000.0
100
AcDbArc
 50
359.9535474106
 51
0.0
  0
ARC
  5
B9
330
1F
100
AcDbEntity
  8
0
  6
Continuous
 62
     7
370
    25
100
AcDbCircle
 10
-6606.9800905023
 20
370.8143817523
 30
0.0
 40
7000.000000000001
100
AcDbArc
 50
359.4035567294
 51
359.5536942624
  0
ARC
  5
BA
330
1F
100
AcDbEntity
  8
0
  6
Continuous
 62
     7
370
    25
100
AcDbCircle
 10
-6606.9800905023
 20
370.8143817523
 30
0.0
 40
6999.999999999999
100
AcDbArc
 50
0.4032798209
 51
0.5964432497
  0
ARC
  5
BB
330
1F
100
AcDbEntity
  8
0
  6
Continuous
 62
     7
370
    25
100
AcDbCircle
 10
-6606.9800905023
 20
370.8143817523
 30
0.0
 40
7000.000000000001
100
AcDbArc
 50
0.0
 51
0.2171555194
  0
ARC
  5
BC
330
1F
100
AcDbEntity
  8
0
  6
Continuous
 62
     7
370
    25
100
AcDbCircle
 10
391.1407138568
 20
443.6666816214
 30
0.0
 40
1.499999999999973
100
AcDbArc
 50
0.6099342096
 51
88.4893102131
  0
ARC
  5
BD
330
1F
100
AcDbEntity
  8
0
  6
Continuous
 62
     7
370
    25
100
AcDbCircle
 10
391.1407138568
 20
297.9620818831
 30
0.0
 40
1.499999999999986
100
AcDbArc
 50
271.5241076745
 51
359.4065979698
  0
LINE
  5
BE
330
1F
100
AcDbEntity
  8
0
  6
Continuous
 62
     7
370
    25
100
AcDbLine
 10
391.1799649515
 20
445.1661679841
 30
0.0
 11
385.5199094977
 21
445.3143817522
 31
0.0
  0
LINE
  5
BF
330
1F
100
AcDbEntity
  8
0
  6
Continuous
 62
     7
370
    25
100
AcDbLine
 10
385.5199094977
 20
296.3143817522
 30
0.0
 11
391.1799649515
 21
296.4625955204
 31
0.0
  0
SPLINE
  5
C0
330
1F
100
AcDbEntity
  8
0
  6
Continuous
 62
     7
370
    25
100
AcDbSpline
210
0.0
220
0.0
230
1.0
 70
     8
 71
     3
 72
    13
 73
     9
 74
     0
 42
0.00000001
 43
0.00000001
 40
0.0
 40
0.0
 40
0.0
 40
0.0
 40
0.1875803907168856
 40
0.3863281344626237
 40
0.5435289626477625
 40
0.6589637474258295
 40
0.830686334624112
 40
1.0
 40
1.0
 40
1.0
 40
1.0
 10
455.2987842943824
 20
379.7430060422774
 30
0.0
 10
454.5692356838323
 20
379.3071497085202
 30
0.0
 10
453.0667057411424
 20
378.4094889046879
 30
0.0
 10
451.0885128669733
 20
376.9095736749987
 30
0.0
 10
449.4407009226009
 20
375.5335438485571
 30
0.0
 10
447.9283483423901
 20
374.1894707412959
 30
0.0
 10
446.4036686547287
 20
372.778368645699
 30
0.0
 10
445.2394767463713
 20
371.7532702447832
 30
0.0
 10
444.6614924478777
 20
371.2443414540169
 30
0.0
  0
SPLINE
  5
C1
330
1F
100
AcDbEntity
  8
0
  6
Continuous
 62
     7
370
    25
100
AcDbSpline
210
0.0
220
0.0
230
1.0
 70
     8
 71
     3
 72
    15
 73
    11
 74
     0
 42
0.00000001
 43
0.00000001
 40
0.0
 40
0.0
 40
0.0
 40
0.0
 40
0.2920215312751243
 40
0.4450395211037648
 40
0.5863734397833497
 40
0.7054184431180561
 40
0.8079196046326642
 40
0.8955959593686811
 40
0.9679108618947361
 40
1.0
 40
1.0
 40
1.0
 40
1.0
 10
466.9944464896116
 20
278.7664469840821
 30
0.0
 10
467.3853314199966
 20
278.6421488273216
 30
0.0
 10
467.9810383237499
 20
278.4527189865933
 30
0.0
 10
468.7588999988073
 20
278.7205283792487
 30
0.0
 10
469.2197889162179
 20
279.0489311568836
 30
0.0
 10
469.5291967733754
 20
279.4390984580612
 30
0.0
 10
469.7084396784517
 20
279.8219630215042
 30
0.0
 10
469.7900715356943
 20
280.170016542943
 30
0.0
 10
469.8116162914343
 20
280.4312768743201
 30
0.0
 10
469.7993363939142
 20
280.5724230550086
 30
0.0
 10
469.7955621019897
 20
280.6158050856058
 30
0.0
  0
SPLINE
  5
C2
330
1F
100
AcDbEntity
  8
0
  6
Continuous
 62
     7
370
    25
100
AcDbSpline
210
0.0
220
0.0
230
1.0
 70
     8
 71
     3
 72
    15
 73
    11
 74
     0
 42
0.00000001
 43
0.00000001
 40
0.0
 40
0.0
 40
0.0
 40
0.0
 40
0.1675916705972164
 40
0.3304330482198761
 40
0.4270377933341139
 40
0.5148922724399304
 40
0.6030637788825283
 40
0.7184041408387205
 40
0.8625484560643859
 40
0.9999999999999999
 40
0.9999999999999999
 40
0.9999999999999999
 40
0.9999999999999999
 10
454.4529666178066
 20
295.2255476699796
 30
0.0
 10
454.8933593665455
 20
294.1546310204956
 30
0.0
 10
455.7616621757555
 20
292.0431522601407
 30
0.0
 10
457.1355686758358
 20
289.4229787603543
 30
0.0
 10
458.399977915878
 20
287.3789389696876
 30
0.0
 10
459.4865993314182
 20
285.8361344008691
 30
0.0
 10
460.7402191834436
 20
284.2608122100766
 30
0.0
 10
462.3653300524821
 20
282.4948878458902
 30
0.0
 10
464.3933656822535
 20
280.631014966101
 30
0.0
 10
465.9795636052075
 20
279.4929166489938
 30
0.0
 10
466.7538127512953
 20
278.9373922485185
 30
0.0
  0
LINE
  5
C3
330
1F
100
AcDbEntity
  8
0
  6
Continuous
 62
     7
370
    25
100
AcDbLine
 10
426.0744467054
 20
315.629204173
 30
0.0
 11
427.0744417706
 21
315.6323457605
 31
0.0
  0
SPLINE
  5
C4
330
1F
100
AcDbEntity
  8
0
  6
Continuous
 62
     7
370
    25
100
AcDbSpline
210
0.0
220
0.0
230
1.0
 70
     8
 71
     3
 72
     9
 73
     5
 74
     0
 42
0.00000001
 43
0.00000001
 40
0.0
 40
0.0
 40
0.0
 40
0.0
 40
0.4940267846860307
 40
0.9999999999999999
 40
0.9999999999999999
 40
0.9999999999999999
 40
0.9999999999999999
 10
457.7192381083277
 20
375.2781169502274
 30
0.0
 10
457.7863134044349
 20
375.6868649238195
 30
0.0
 10
457.9220859944775
 20
376.5142451110128
 30
0.0
 10
458.0749986099424
 20
377.3389556846853
 30
0.0
 10
458.1523682976512
 20
377.7562371453497
 30
0.0
  0
LINE
  5
C5
330
1F
100
AcDbEntity
  8
0
  6
Continuous
 62
     7
370
    25
100
AcDbLine
 10
417.5199094977
 20
365.2143817507
 30
0.0
 11
393.017346154
 21
365.2143817507
 31
0.0
  0
LINE
  5
C6
330
1F
100
AcDbEntity
  8
0
  6
Continuous
 62
     7
370
    25
100
AcDbLine
 10
392.8072841155
 20
316.2143817507
 30
0.0
 11
417.5199094977
 21
316.2143817507
 31
0.0
  0
ARC
  5
C7
330
1F
100
AcDbEntity
  8
0
  6
Continuous
 62
     7
370
    25
100
AcDbCircle
 10
417.5199094977
 20
340.7143817507
 30
0.0
 40
24.5
100
AcDbArc
 50
270.0
 51
290.4195805179
  0
ARC
  5
C8
330
1F
100
AcDbEntity
  8
0
  6
Continuous
 62
     7
370
    25
100
AcDbCircle
 10
417.5199094977
 20
340.7143817507
 30
0.0
 40
24.50000000000006
100
AcDbArc
 50
54.7235673299
 51
90.0
  0
LINE
  5
C9
330
1F
100
AcDbEntity
  8
0
  6
Continuous
 62
     7
370
    25
100
AcDbLine
 10
466.1962287461
 20
279.354299293
 30
0.0
 11
466.7538127513
 21
278.9373922485
 31
0.0
  0
LINE
  5
CA
330
1F
100
AcDbEntity
  8
0
  6
Continuous
 62
     7
370
    25
100
AcDbLine
 10
455.2987842947
 20
379.7430060417
 30
0.0
 11
454.6623394885
 21
379.347110839
 31
0.0
  0
LINE
  5
CB
330
1F
100
AcDbEntity
  8
0
  6
Continuous
 62
     7
370
    25
100
AcDbLine
 10
444.9337356436
 20
371.4860481008
 30
0.0
 11
444.6625430865
 21
371.2452742463
 31
0.0
  0
LINE
  5
CC
330
1F
100
AcDbEntity
  8
0
  6
Continuous
 62
     7
370
    25
100
AcDbLine
 10
392.9701632781
 20
397.3113962313
 30
0.0
 11
401.2506765772
 21
397.4559331286
 31
0.0
  0
LINE
  5
CD
330
1F
100
AcDbEntity
  8
0
  6
Continuous
 62
     7
370
    25
100
AcDbLine
 10
401.2506765772
 20
419.9728303759
 30
0.0
 11
392.8470797327
 21
420.1195157045
 31
0.0
  0
ARC
  5
CE
330
1F
100
AcDbEntity
  8
0
  6
Continuous
 62
     7
370
    25
100
AcDbCircle
 10
401.241950374
 20
397.9558569761
 30
0.0
 40
0.5000000000000058
100
AcDbArc
 50
271.0
 51
358.1867030123
  0
ARC
  5
CF
330
1F
100
AcDbEntity
  8
0
  6
Continuous
 62
     7
370
    25
100
AcDbCircle
 10
401.241950374
 20
419.4729065283
 30
0.0
 40
0.5000000000000268
100
AcDbArc
 50
1.8132969877
 51
89.0
  0
ARC
  5
D0
330
1F
100
AcDbEntity
  8
0
  6
Continuous
 62
     7
370
    25
100
AcDbCircle
 10
61.4122074958
 20
408.7143817522
 30
0.0
 40
340.5
100
AcDbArc
 50
358.1867030123
 51
0.0
  0
ARC
  5
D1
330
1F
100
AcDbEntity
  8
0
  6
Continuous
 62
     7
370
    25
100
AcDbCircle
 10
61.4122074958
 20
408.7143817522
 30
0.0
 40
340.5000000000001
100
AcDbArc
 50
0.0
 51
1.8132969877
  0
LINE
  5
D2
330
1F
100
AcDbEntity
  8
0
  6
Continuous
 62
     7
370
    25
100
AcDbLine
 10
466.6771276153
 20
278.9732357021
 30
0.0
 11
467.1446236748
 21
278.7010677867
 31
0.0
  0
LWPOLYLINE
  5
D3
330
1F
100
AcDbEntity
  8
0
  6
Continuous
 62
     7
370
    25
100
AcDbPolyline
 90
        5
 70
   128
 43
0.0
 10
469.8044932824
 20
280.4873813304
 10
469.8045815559
 20
280.4887603939
 10
469.7887276763
 20
280.7123281501
 10
469.7955721273
 20
280.6158092793
 10
469.7955721273
 20
280.6158092793
  0
LINE
  5
D4
330
1F
100
AcDbEntity
  8
0
  6
Continuous
 62
     7
370
    25
100
AcDbLine
 10
385.5199094977
 20
298.068035152
 30
0.0
 11
385.5199094977
 21
443.5607283416
 31
0.0
  0
SPLINE
  5
D5
330
1F
100
AcDbEntity
  8
0
  6
Continuous
 62
     7
370
    25
100
AcDbSpline
210
0.0
220
0.0
230
1.0
 70
     8
 71
     3
 72
    12
 73
     8
 74
     0
 42
0.00000001
 43
0.00000001
 40
0.0
 40
0.0
 40
0.0
 40
0.0
 40
0.211677846195051
 40
0.4294943288978433
 40
0.6411721873016083
 40
0.8589887788517735
 40
1.0
 40
1.0
 40
1.0
 40
1.0
 10
392.986801585454
 20
358.0358157097844
 30
0.0
 10
392.9907302464088
 20
358.9494539616157
 30
0.0
 10
392.9987014990955
 20
360.803225883804
 30
0.0
 10
393.0076370727811
 20
362.8812619344596
 30
0.0
 10
393.0139740767479
 20
364.3549819484602
 30
0.0
 10
393.0173535647936
 20
365.1409090829548
 30
0.0
 10
393.0173480666478
 20
365.1396304472117
 30
0.0
 10
393.0173459060008
 20
365.139127972261
 30
0.0
  0
SPLINE
  5
D6
330
1F
100
AcDbEntity
  8
0
  6
Continuous
 62
     7
370
    25
100
AcDbSpline
210
0.0
220
0.0
230
1.0
 70
     8
 71
     3
 72
    22
 73
    18
 74
     0
 42
0.00000001
 43
0.00000001
 40
0.0
 40
0.0
 40
0.0
 40
0.0
 40
0.0514412176181881
 40
0.1220112410960427
 40
0.1946277928160133
 40
0.2651979651507869
 40
0.3378146495570023
 40
0.4083853244700734
 40
0.4810025176849101
 40
0.5515738286358745
 40
0.6241916837890477
 40
0.6947634854872985
 40
0.7673818656074488
 40
0.8379537976861069
 40
0.9105723357285942
 40
0.9550379403270874
 40
1.0
 40
1.0
 40
1.0
 40
1.0
 10
392.8072845240869
 20
316.2883946866327
 30
0.0
 10
392.8073070340254
 20
316.2936293939305
 30
0.0
 10
392.8073604243932
 20
316.3060453740285
 30
0.0
 10
392.8109279481383
 20
317.13567694536
 30
0.0
 10
392.8173125145839
 20
318.6204159962325
 30
0.0
 10
392.8265739494458
 20
320.7741768784965
 30
0.0
 10
392.8381460515851
 20
323.4652910212666
 30
0.0
 10
392.8519464297488
 20
326.6746008316011
 30
0.0
 10
392.8673262605569
 20
330.2512235144494
 30
0.0
 10
392.8841296947655
 20
334.1589182320432
 30
0.0
 10
392.901577856374
 20
338.2165564723468
 30
0.0
 10
392.9194916860078
 20
342.3824982605809
 30
0.0
 10
392.9370393386374
 20
346.463294374716
 30
0.0
 10
392.9540486989266
 20
350.4189176999006
 30
0.0
 10
392.9677881139207
 20
353.6141042612341
 30
0.0
 10
392.9787023114921
 20
356.1522731311942
 30
0.0
 10
392.9840918541703
 20
357.4056488240326
 30
0.0
 10
392.986801585454
 20
358.0358157097844
 30
0.0
  0
SPLINE
  5
D7
330
1F
100
AcDbEntity
  8
0
  6
Continuous
 62
     7
370
    25
100
AcDbSpline
210
0.0
220
0.0
230
1.0
 70
     8
 71
     3
 72
    12
 73
     8
 74
     0
 42
0.00000001
 43
0.00000001
 40
0.0
 40
0.0
 40
0.0
 40
0.0
 40
0.2122538026658771
 40
0.4306629258311516
 40
0.642916747874125
 40
0.861326043649904
 40
1.0
 40
1.0
 40
1.0
 40
1.0
 10
392.864263827501
 20
416.7953173570828
 30
0.0
 10
392.8619666113591
 20
417.2195836652584
 30
0.0
 10
392.8573055602377
 20
418.080419925036
 30
0.0
 10
392.852087187995
 20
419.0441850500894
 30
0.0
 10
392.8483951032019
 20
419.726064504454
 30
0.0
 10
392.846438808326
 20
420.0873662356572
 30
0.0
 10
392.8464524997182
 20
420.0848376165941
 30
0.0
 10
392.8464578167962
 20
420.0838556225983
 30
0.0
  0
SPLINE
  5
D8
330
1F
100
AcDbEntity
  8
0
  6
Continuous
 62
     7
370
    25
100
AcDbSpline
210
0.0
220
0.0
230
1.0
 70
     8
 71
     3
 72
    21
 73
    17
 74
     0
 42
0.00000001
 43
0.00000001
 40
0.0
 40
0.0
 40
0.0
 40
0.0
 40
0.0523051964909712
 40
0.1228194644032253
 40
0.1953786391825444
 40
0.2658931471651495
 40
0.3384525365938372
 40
0.4089678436372802
 40
0.4815280422260835
 40
0.5520443571503086
 40
0.6246056048137135
 40
0.695122694745165
 40
0.7676847716534808
 40
0.8382020640520003
 40
0.9107643869400419
 40
0.9999999999999999
 40
0.9999999999999999
 40
0.9999999999999999
 40
0.9999999999999999
 10
392.9695782381168
 20
397.3449462579945
 30
0.0
 10
392.9695601225601
 20
397.3482920208576
 30
0.0
 10
392.9695175848559
 20
397.3561483110628
 30
0.0
 10
392.9674010757388
 20
397.7470463327984
 30
0.0
 10
392.9636372738109
 20
398.4421825239217
 30
0.0
 10
392.9581903498447
 20
399.4481736845348
 30
0.0
 10
392.9513911045165
 20
400.703923665105
 30
0.0
 10
392.9432885117909
 20
402.2003867586584
 30
0.0
 10
392.9342632838294
 20
403.8672487568039
 30
0.0
 10
392.9244071070947
 20
405.6875755240304
 30
0.0
 10
392.9141760710147
 20
407.5771319286862
 30
0.0
 10
392.9036779095334
 20
409.5160204662937
 30
0.0
 10
392.8933899533927
 20
411.4160836714734
 30
0.0
 10
392.8834511070353
 20
413.2516677579011
 30
0.0
 10
392.8733884903721
 20
415.1101082256367
 30
0.0
 10
392.8675073974879
 20
416.1962712512012
 30
0.0
 10
392.864263827501
 20
416.7953173570828
 30
0.0
  0
LINE
  5
D9
330
1F
100
AcDbEntity
  8
0
  6
Continuous
 62
     7
370
    25
100
AcDbLine
 10
385.5199094977
 20
445.0497766989
 30
0.0
 11
390.8046365482
 21
444.9113949126
 31
0.0
  0
LINE
  5
DA
330
1F
100
AcDbEntity
  8
0
  6
Continuous
 62
     7
370
    25
100
AcDbLine
 10
385.5199094977
 20
445.0497766989
 30
0.0
 11
385.5199094977
 21
443.5607283416
 31
0.0
  0
LINE
  5
DB
330
1F
100
AcDbEntity
  8
0
  6
Continuous
 62
     7
370
    25
100
AcDbLine
 10
385.5199094977
 20
296.5789867948
 30
0.0
 11
390.8046365482
 21
296.7173685811
 31
0.0
  0
LINE
  5
DC
330
1F
100
AcDbEntity
  8
0
  6
Continuous
 62
     7
370
    25
100
AcDbLine
 10
385.5199094977
 20
296.5789867948
 30
0.0
 11
385.5199094977
 21
298.068035152
 31
0.0
  0
LINE
  5
DD
330
1F
100
AcDbEntity
  8
0
  6
Continuous
 62
     7
370
    25
100
AcDbLine
 10
385.5199094977
 20
445.0497766989
 30
0.0
 11
385.5199094977
 21
445.3143817522
 31
0.0
  0
LINE
  5
DE
330
1F
100
AcDbEntity
  8
0
  6
Continuous
 62
     7
370
    25
100
AcDbLine
 10
385.5199094977
 20
296.5789867948
 30
0.0
 11
385.5199094977
 21
296.3143817522
 31
0.0
  0
SPLINE
  5
DF
330
1F
100
AcDbEntity
  8
0
  6
Continuous
 62
     7
370
    25
100
AcDbSpline
210
0.0
220
0.0
230
1.0
 70
    24
 71
     3
 72
    18
 73
    14
 74
     0
 42
0.00000001
 43
0.00000001
 40
0.0
 40
0.0
 40
0.0
 40
0.0
 40
0.2500000000000007
 40
0.2500000000000007
 40
0.5000000000000014
 40
0.5000000000000014
 40
0.625000000000001
 40
0.625000000000001
 40
0.7500000000000006
 40
0.7500000000000006
 40
0.8750000000000003
 40
0.8750000000000003
 40
1.0
 40
1.0
 40
1.0
 40
1.0
 10
431.5551385176326
 20
360.4689586869657
 30
0.0
 10
431.9347915515715
 20
361.2898504681351
 30
0.0
 10
432.2729733106141
 20
362.0210724042821
 30
0.0
 10
432.8655450243018
 20
363.3023403148222
 30
0.0
 10
433.1198957993457
 20
363.8523015744635
 30
0.0
 10
433.4326104259264
 20
364.5284580749312
 30
0.0
 10
433.5233327190185
 20
364.7246192487235
 30
0.0
 10
433.6816208217224
 20
365.0668722823038
 30
0.0
 10
433.7520700618153
 20
365.219198740981
 30
0.0
 10
433.8715864663812
 20
365.4776189970055
 30
0.0
 10
433.9198979803362
 20
365.5820789148784
 30
0.0
 10
433.9864502339842
 20
365.7259792479808
 30
0.0
 10
434.0049814942235
 20
365.7660478313194
 30
0.0
 10
434.0064485368964
 20
365.7692198941521
 30
0.0
  0
SPLINE
  5
E0
330
1F
100
AcDbEntity
  8
0
  6
Continuous
 62
     7
370
    25
100
AcDbSpline
210
0.0
220
0.0
230
1.0
 70
     8
 71
     3
 72
    11
 73
     7
 74
     0
 42
0.00000001
 43
0.00000001
 40
0.0
 40
0.0
 40
0.0
 40
0.0
 40
0.2464479458141224
 40
0.4877015353544227
 40
0.7499989601654272
 40
1.0
 40
1.0
 40
1.0
 40
1.0
 10
434.0064489075624
 20
365.7692199713796
 30
0.0
 10
435.0041674737532
 20
366.0124474121009
 30
0.0
 10
436.978575801546
 20
366.4937758155016
 30
0.0
 10
439.846088145943
 20
367.7620664845899
 30
0.0
 10
442.5119337376482
 20
369.4342479989482
 30
0.0
 10
444.139490086294
 20
370.8131470219007
 30
0.0
 10
444.9337356435831
 20
371.4860481007737
 30
0.0
  0
LINE
  5
E1
330
1F
100
AcDbEntity
  8
0
  6
Continuous
 62
     7
370
    25
100
AcDbLine
 10
454.6623394885
 20
379.347110839
 30
0.0
 11
455.2854322784
 21
379.7660897176
 31
0.0
  0
SPLINE
  5
E2
330
1F
100
AcDbEntity
  8
0
  6
Continuous
 62
     7
370
    25
100
AcDbSpline
210
0.0
220
0.0
230
1.0
 70
     8
 71
     3
 72
     8
 73
     4
 74
     0
 42
0.00000001
 43
0.00000001
 40
0.0
 40
0.0
 40
0.0
 40
0.0
 40
1.0
 40
1.0
 40
1.0
 40
1.0
 10
431.4234098426572
 20
360.1821554189588
 30
0.0
 10
431.4674592903021
 20
360.2787299451039
 30
0.0
 10
431.5113750386239
 20
360.3743326020352
 30
0.0
 10
431.5551385176326
 20
360.4689586869656
 30
0.0
  0
SPLINE
  5
E3
330
1F
100
AcDbEntity
  8
0
  6
Continuous
 62
     7
370
    25
100
AcDbSpline
210
0.0
220
0.0
230
1.0
 70
     8
 71
     3
 72
    14
 73
    10
 74
     0
 42
0.00000001
 43
0.00000001
 40
0.0
 40
0.0
 40
0.0
 40
0.0
 40
0.25
 40
0.25
 40
0.5
 40
0.5
 40
0.75
 40
0.75
 40
1.0
 40
1.0
 40
1.0
 40
1.0
 10
458.1495288023294
 20
377.7567880834654
 30
0.0
 10
458.2162885581774
 20
378.1168014088839
 30
0.0
 10
458.1774074661107
 20
378.4957539840415
 30
0.0
 10
457.9004573892443
 20
379.1736660005204
 30
0.0
 10
457.6628721707995
 20
379.4714412897057
 30
0.0
 10
457.0633812747851
 20
379.8920086561688
 30
0.0
 10
456.7025227661813
 20
380.0140661016165
 30
0.0
 10
455.9708231764267
 20
380.0437630526714
 30
0.0
 10
455.6012602015954
 20
379.9513506847211
 30
0.0
 10
455.2854595652672
 20
379.7660497159731
 30
0.0
  0
SPLINE
  5
E4
330
1F
100
AcDbEntity
  8
0
  6
Continuous
 62
     7
370
    25
100
AcDbSpline
210
0.0
220
0.0
230
1.0
 70
     8
 71
     3
 72
    12
 73
     8
 74
     0
 42
0.00000001
 43
0.00000001
 40
0.0
 40
0.0
 40
0.0
 40
0.0
 40
0.2089882875338545
 40
0.4179254882791555
 40
0.6268116025416387
 40
0.835646630628022
 40
1.0
 40
1.0
 40
1.0
 40
1.0
 10
469.6363673835258
 20
279.7173583008222
 30
0.0
 10
469.5706553889003
 20
279.590401863846
 30
0.0
 10
469.439247462821
 20
279.3365200241526
 30
0.0
 10
469.1417942819018
 20
279.0220917851375
 30
0.0
 10
468.7878712296252
 20
278.7802324782022
 30
0.0
 10
468.4169016018588
 20
278.6244628246045
 30
0.0
 10
468.1634343133715
 20
278.5951961378498
 30
0.0
 10
468.051806505079
 20
278.5823069949631
 30
0.0
  0
LINE
  5
E5
330
1F
100
AcDbEntity
  8
0
  6
Continuous
 62
     7
370
    25
100
AcDbLine
 10
467.0603795831
 20
278.7549646896
 30
0.0
 11
466.7552515508
 21
278.925805079
 31
0.0
  0
LINE
  5
E6
330
1F
100
AcDbEntity
  8
0
  6
Continuous
 62
     7
370
    25
100
AcDbLine
 10
466.7520749661
 20
278.9393694588
 30
0.0
 11
466.7527831102
 21
278.9360151329
 31
0.0
  0
LINE
  5
E7
330
1F
100
AcDbEntity
  8
0
  6
Continuous
 62
     7
370
    25
100
AcDbLine
 10
469.7942849098
 20
280.6114639621
 30
0.0
 11
469.7930096859
 21
280.6156276456
 31
0.0
  0
ARC
  5
E8
330
1F
100
AcDbEntity
  8
0
  6
Continuous
 62
     7
370
    25
100
AcDbCircle
 10
467.8750045264
 20
280.4892557877
 30
0.0
 40
1.923076923711082
100
AcDbArc
 50
336.3351282962
 51
3.6430407664
  0
LINE
  5
E9
330
1F
100
AcDbEntity
  8
0
  6
Continuous
 62
     7
370
    25
100
AcDbLine
 10
466.754995669
 20
278.9255078718
 30
0.0
 11
466.1962287461
 21
279.354299293
 31
0.0
  0
SPLINE
  5
EA
330
1F
100
AcDbEntity
  8
0
  6
Continuous
 62
     7
370
    25
100
AcDbSpline
210
0.0
220
0.0
230
1.0
 70
     8
 71
     3
 72
    14
 73
    10
 74
     0
 42
0.00000001
 43
0.00000001
 40
0.0
 40
0.0
 40
0.0
 40
0.0
 40
0.1755110799738669
 40
0.3838969376519307
 40
0.5546781179900232
 40
0.7197967794362865
 40
0.8005216616408115
 40
0.8808936502679633
 40
1.0
 40
1.0
 40
1.0
 40
1.0
 10
454.4576075023166
 20
295.2273160949663
 30
0.0
 10
453.997208390037
 20
296.4170402744638
 30
0.0
 10
452.99017333944
 20
299.0193344955895
 30
0.0
 10
451.662594769649
 20
302.8273212747463
 30
0.0
 10
450.1096346749527
 20
306.4693256358117
 30
0.0
 10
448.5357528288948
 20
309.0832261337345
 30
0.0
 10
446.9535786511418
 20
310.8563039383611
 30
0.0
 10
445.3958392255553
 20
312.186815476654
 30
0.0
 10
444.1035812529067
 20
312.8561637043404
 30
0.0
 10
443.3319880498536
 20
313.2558242627504
 30
0.0
  0
SPLINE
  5
EB
330
1F
100
AcDbEntity
  8
0
  6
Continuous
 62
     7
370
    25
100
AcDbSpline
210
0.0
220
0.0
230
1.0
 70
     8
 71
     3
 72
    12
 73
     8
 74
     0
 42
0.00000001
 43
0.00000001
 40
0.0
 40
0.0
 40
0.0
 40
0.0
 40
0.500000000000001
 40
0.500000000000001
 40
0.7500000000000004
 40
0.7500000000000004
 40
1.0
 40
1.0
 40
1.0
 40
1.0
 10
434.8254955115474
 20
315.3091026117626
 30
0.0
 10
436.2846041727919
 20
315.159415576552
 30
0.0
 10
437.731992254966
 20
314.9465020295976
 30
0.0
 10
439.872756182404
 20
314.4635805951106
 30
0.0
 10
440.5832075206808
 20
314.2743880058729
 30
0.0
 10
441.9800335570944
 20
313.8240257482881
 30
0.0
 10
442.6649797998219
 20
313.5634788945744
 30
0.0
 10
443.331988048551
 20
313.2558242411972
 30
0.0
  0
SPLINE
  5
EC
330
1F
100
AcDbEntity
  8
0
  6
Continuous
 62
     7
370
    25
100
AcDbSpline
210
0.0
220
0.0
230
1.0
 70
     8
 71
     3
 72
    18
 73
    14
 74
     0
 42
0.00000001
 43
0.00000001
 40
0.0
 40
0.0
 40
0.0
 40
0.0
 40
0.0891442144272547
 40
0.1787051628365085
 40
0.2686647444602651
 40
0.3590023462871171
 40
0.4496919546947623
 40
0.540705053967894
 40
0.6320173719638643
 40
0.7236140397181755
 40
0.8154871867425292
 40
0.9076245925397444
 40
1.0
 40
1.0
 40
1.0
 40
1.0
 10
434.8254955172956
 20
315.3091026681504
 30
0.0
 10
434.5959746488986
 20
315.3317025860671
 30
0.0
 10
434.1358599412332
 20
315.377008072658
 30
0.0
 10
433.4430522780897
 20
315.4334078209812
 30
0.0
 10
432.7465913082968
 20
315.4822088706299
 30
0.0
 10
432.0466872297762
 20
315.5230201446535
 30
0.0
 10
431.3436764639734
 20
315.5566338973446
 30
0.0
 10
430.6378550985513
 20
315.5835540632839
 30
0.0
 10
429.9294795093493
 20
315.6043006551287
 30
0.0
 10
429.2187336258992
 20
315.6192924041441
 30
0.0
 10
428.5057599279367
 20
315.6287415027261
 30
0.0
 10
427.7907216519035
 20
315.6333581047697
 30
0.0
 10
427.3133627801949
 20
315.6326321840766
 30
0.0
 10
427.0743754735664
 20
315.6322687555503
 30
0.0
  0
LINE
  5
ED
330
1F
100
AcDbEntity
  8
0
  6
Continuous
 62
     7
370
    25
100
AcDbLine
 10
426.0288318615
 20
330.1488121825
 30
0.0
 11
426.0744467054
 21
315.629204173
 31
0.0
  0
SPLINE
  5
EE
330
1F
100
AcDbEntity
  8
0
  6
Continuous
 62
     7
370
    25
100
AcDbSpline
210
0.0
220
0.0
230
1.0
 70
     8
 71
     3
 72
    18
 73
    14
 74
     0
 42
0.00000001
 43
0.00000001
 40
0.0
 40
0.0
 40
0.0
 40
0.0
 40
0.2499999999999977
 40
0.2499999999999977
 40
0.3749999999999966
 40
0.3749999999999966
 40
0.4999999999999954
 40
0.4999999999999954
 40
0.7499999999999978
 40
0.7499999999999978
 40
0.8749999999999989
 40
0.8749999999999989
 40
1.0
 40
1.0
 40
1.0
 40
1.0
 10
427.2756454524312
 20
347.5271401506342
 30
0.0
 10
427.0211886702214
 20
346.1198213409016
 30
0.0
 10
426.8101914294232
 20
344.6833194436195
 30
0.0
 10
426.5563155343789
 20
342.4844306599767
 30
0.0
 10
426.4820506587474
 20
341.7440901035292
 30
0.0
 10
426.3528922243278
 20
340.2483041089076
 30
0.0
 10
426.2988042380634
 20
339.5019561455281
 30
0.0
 10
426.1637161965676
 20
337.2817262627067
 30
0.0
 10
426.1092585272884
 20
335.8203858976222
 30
0.0
 10
426.059663635524
 20
333.6578140737471
 30
0.0
 10
426.0484812123648
 20
332.939610129509
 30
0.0
 10
426.0337540212529
 20
331.5256312261857
 30
0.0
 10
426.0301773701383
 20
330.8310115048826
 30
0.0
 10
426.0288318614517
 20
330.1488121824719
 30
0.0
  0
SPLINE
  5
EF
330
1F
100
AcDbEntity
  8
0
  6
Continuous
 62
     7
370
    25
100
AcDbSpline
210
0.0
220
0.0
230
1.0
 70
     8
 71
     3
 72
    16
 73
    12
 74
     0
 42
0.00000001
 43
0.00000001
 40
0.0
 40
0.0
 40
0.0
 40
0.0
 40
0.2499999999999999
 40
0.2499999999999999
 40
0.4999999999999998
 40
0.4999999999999998
 40
0.6249999999999999
 40
0.6249999999999999
 40
0.7500000000000001
 40
0.7500000000000001
 40
1.0
 40
1.0
 40
1.0
 40
1.0
 10
431.4231645634437
 20
360.1816176589162
 30
0.0
 10
431.0550171033431
 20
359.3744657865263
 30
0.0
 10
430.6782078802139
 20
358.5009967458473
 30
0.0
 10
429.9271864297543
 20
356.6230275317259
 30
0.0
 10
429.5528658190067
 20
355.6185386308073
 30
0.0
 10
429.0063924924313
 20
354.0063058018289
 30
0.0
 10
428.8270608892706
 20
353.4518961996862
 30
0.0
 10
428.4814853458291
 20
352.3260526129444
 30
0.0
 10
428.31445645066
 20
351.7523607656409
 30
0.0
 10
427.8329796073674
 20
349.9986404203365
 30
0.0
 10
427.5381024552797
 20
348.7861756150452
 30
0.0
 10
427.2756454524312
 20
347.5271401506342
 30
0.0
  0
SPLINE
  5
F0
330
1F
100
AcDbEntity
  8
0
  6
Continuous
 62
     7
370
    25
100
AcDbSpline
210
0.0
220
0.0
230
1.0
 70
     8
 71
     3
 72
    20
 73
    16
 74
     0
 42
0.00000001
 43
0.00000001
 40
0.0
 40
0.0
 40
0.0
 40
0.0
 40
0.0769062542004765
 40
0.1805452827265482
 40
0.2335736777313369
 40
0.2866001713594677
 40
0.3401535483624445
 40
0.3937108740428211
 40
0.4693671429488072
 40
0.5451697499739693
 40
0.6970300661469305
 40
0.7724628129843194
 40
0.8479332263995379
 40
0.9237821880755606
 40
0.9999999999999999
 40
0.9999999999999999
 40
0.9999999999999999
 40
0.9999999999999999
 10
457.785746989106
 20
375.2683913947081
 30
0.0
 10
457.3957116683066
 20
372.8318123734113
 30
0.0
 10
456.4800639358933
 20
367.1116943822416
 30
0.0
 10
456.0037306153057
 20
359.6201989950495
 30
0.0
 10
455.9770523571931
 20
352.893152654101
 30
0.0
 10
456.2220402229104
 20
347.7767987040349
 30
0.0
 10
456.7328227230061
 20
342.6636964914592
 30
0.0
 10
457.59400257772
 20
336.8629129890655
 30
0.0
 10
458.8944187406911
 20
330.4135062190437
 30
0.0
 10
461.2135762529852
 20
320.9635923983968
 30
0.0
 10
463.7765931831219
 20
311.5853266080311
 30
0.0
 10
466.2112821753753
 20
302.183494531567
 30
0.0
 10
467.8623233967535
 20
295.1000297380498
 30
0.0
 10
469.176011245509
 20
287.9114837193159
 30
0.0
 10
469.5878606969242
 20
283.0487355440805
 30
0.0
 10
469.7942849096954
 20
280.6114639621255
 30
0.0
  0
LINE
  5
F1
330
1F
100
AcDbEntity
  8
0
  6
Continuous
 62
     7
370
    25
100
AcDbLine
 10
458.1495145675
 20
377.7567560971
 30
0.0
 11
458.1496258071
 21
377.7568017375
 31
0.0
  0
SPLINE
  5
F2
330
1F
100
AcDbEntity
  8
0
  6
Continuous
 62
     8
370
    18
100
AcDbSpline
210
0.0
220
0.0
230
1.0
 70
     8
 71
     3
 72
     8
 73
     4
 74
     0
 42
0.00000001
 43
0.00000001
 40
0.0
 40
0.0
 40
0.0
 40
0.0
 40
1.0
 40
1.0
 40
1.0
 40
1.0
 10
392.2666112015517
 20
443.4284598862995
 30
0.0
 10
392.7653257994753
 20
395.0190744600019
 30
0.0
 10
392.7653257994749
 20
346.6096890337294
 30
0.0
 10
392.2666112015509
 20
298.2003036074817
 30
0.0
  0
SPLINE
  5
F3
330
1F
100
AcDbEntity
  8
0
  6
Continuous
 62
     8
370
    18
100
AcDbSpline
210
0.0
220
0.0
230
1.0
 70
     8
 71
     3
 72
     9
 73
     5
 74
     0
 42
0.00000001
 43
0.00000001
 40
0.0
 40
0.0
 40
0.0
 40
0.0
 40
0.9999151590201231
 40
1.0
 40
1.0
 40
1.0
 40
1.0
 10
392.2666112015519
 20
298.2003036074817
 30
0.0
 10
392.5159385496242
 20
298.0310931567581
 30
0.0
 10
392.7652870526677
 20
297.8618683488359
 30
0.0
 10
392.640611428447
 20
297.9464816870504
 30
0.0
 10
392.6406008508449
 20
297.946488865729
 30
0.0
  0
LINE
  5
F4
330
1F
100
AcDbEntity
  8
0
  6
Continuous
 62
     8
370
    18
100
AcDbLine
 10
392.6406021757
 20
443.6822755379
 30
0.0
 11
392.2666112016
 21
443.4284598863
 31
0.0
  0
SPLINE
  5
F5
330
1F
100
AcDbEntity
  8
0
  6
Continuous
 62
     8
370
    18
100
AcDbSpline
210
0.0
220
0.0
230
1.0
 70
     8
 71
     3
 72
    26
 73
    22
 74
     0
 42
0.00000001
 43
0.00000001
 40
0.0
 40
0.0
 40
0.0
 40
0.0
 40
0.03125
 40
0.03125
 40
0.0625
 40
0.0625
 40
0.125
 40
0.125
 40
0.25
 40
0.25
 40
0.375
 40
0.375
 40
0.5
 40
0.5
 40
0.625
 40
0.625
 40
0.75
 40
0.75
 40
0.875
 40
0.875
 40
1.0
 40
1.0
 40
1.0
 40
1.0
 10
390.8046365481705
 20
444.9113949126371
 30
0.0
 10
390.8288859232609
 20
444.910758704696
 30
0.0
 10
390.8530911969399
 20
444.9095294184956
 30
0.0
 10
390.9013622917375
 20
444.9059028870803
 30
0.0
 10
390.9254281128561
 20
444.9035056418653
 30
0.0
 10
390.9973395227651
 20
444.8945892639537
 30
0.0
 10
391.0448990581086
 20
444.8863454889906
 30
0.0
 10
391.1858184535021
 20
444.8549339650799
 30
0.0
 10
391.2774191029152
 20
444.8250860171108
 30
0.0
 10
391.4526491901772
 20
444.7487408973524
 30
0.0
 10
391.5377790491651
 20
444.7015164016052
 30
0.0
 10
391.6959649312604
 20
444.5926080834611
 30
0.0
 10
391.7690174234451
 20
444.5312349912376
 30
0.0
 10
391.9031719103014
 20
444.3948003052751
 30
0.0
 10
391.9645139300733
 20
444.3190739244783
 30
0.0
 10
392.0699680392938
 20
444.1598712000645
 30
0.0
 10
392.1148178782316
 20
444.0758146951992
 30
0.0
 10
392.1885249754574
 20
443.8986567092697
 30
0.0
 10
392.2169045535194
 20
443.8061595244147
 30
0.0
 10
392.255201295315
 20
443.6197306757566
 30
0.0
 10
392.2655127694138
 20
443.5249194252871
 30
0.0
 10
392.2666112015519
 20
443.4284598862994
 30
0.0
  0
SPLINE
  5
F6
330
1F
100
AcDbEntity
  8
0
  6
Continuous
 62
     8
370
    18
100
AcDbSpline
210
0.0
220
0.0
230
1.0
 70
     8
 71
     3
 72
    26
 73
    22
 74
     0
 42
0.00000001
 43
0.00000001
 40
0.0
 40
0.0
 40
0.0
 40
0.0
 40
0.03125
 40
0.03125
 40
0.0625
 40
0.0625
 40
0.125
 40
0.125
 40
0.25
 40
0.25
 40
0.375
 40
0.375
 40
0.5
 40
0.5
 40
0.625
 40
0.625
 40
0.75
 40
0.75
 40
0.875
 40
0.875
 40
1.0
 40
1.0
 40
1.0
 40
1.0
 10
390.8046365481699
 20
296.7173685811249
 30
0.0
 10
390.8288859232604
 20
296.718004789066
 30
0.0
 10
390.8530911969393
 20
296.7192340752663
 30
0.0
 10
390.9013622917369
 20
296.7228606066816
 30
0.0
 10
390.9254281128555
 20
296.7252578518966
 30
0.0
 10
390.9973395227644
 20
296.7341742298082
 30
0.0
 10
391.0448990581079
 20
296.7424180047713
 30
0.0
 10
391.1858184535016
 20
296.7738295286821
 30
0.0
 10
391.2774191029146
 20
296.8036774766514
 30
0.0
 10
391.4526491901767
 20
296.8800225964106
 30
0.0
 10
391.5377790491645
 20
296.9272470921584
 30
0.0
 10
391.6959649312598
 20
297.0361554103039
 30
0.0
 10
391.7690174234444
 20
297.097528502528
 30
0.0
 10
391.9031719103007
 20
297.2339631884923
 30
0.0
 10
391.9645139300727
 20
297.3096895692902
 30
0.0
 10
392.0699680392931
 20
297.4688922937061
 30
0.0
 10
392.114817878231
 20
297.5529487985725
 30
0.0
 10
392.1885249754567
 20
297.7301067845044
 30
0.0
 10
392.2169045535177
 20
297.8226039693609
 30
0.0
 10
392.2552012953135
 20
298.0090328180215
 30
0.0
 10
392.2655127694139
 20
298.1038440684922
 30
0.0
 10
392.2666112015519
 20
298.2003036074813
 30
0.0
  0
SPLINE
  5
F7
330
1F
100
AcDbEntity
  8
0
  6
Continuous
 62
     8
370
    18
100
AcDbSpline
210
0.0
220
0.0
230
1.0
 70
     8
 71
     3
 72
    10
 73
     6
 74
     0
 42
0.00000001
 43
0.00000001
 40
0.0
 40
0.0
 40
0.0
 40
0.0
 40
0.4999510413235915
 40
0.9999215213057217
 40
1.0
 40
1.0
 40
1.0
 40
1.0
 10
390.8046365481704
 20
444.911394912636
 30
0.0
 10
390.907401119392
 20
444.9811479544065
 30
0.0
 10
391.1129342574372
 20
445.1206567500241
 30
0.0
 10
391.211247706986
 20
445.1873922312701
 30
0.0
 10
391.1799694612613
 20
445.1661609445129
 30
0.0
 10
391.1799645523902
 20
445.1661576124317
 30
0.0
  0
SPLINE
  5
F8
330
1F
100
AcDbEntity
  8
0
  6
Continuous
 62
     8
370
    18
100
AcDbSpline
210
0.0
220
0.0
230
1.0
 70
     8
 71
     3
 72
     9
 73
     5
 74
     0
 42
0.00000001
 43
0.00000001
 40
0.0
 40
0.0
 40
0.0
 40
0.0
 40
0.4999510989262027
 40
1.0
 40
1.0
 40
1.0
 40
1.0
 10
391.1799645757945
 20
296.4626058761754
 30
0.0
 10
391.1643339775849
 20
296.4732161764726
 30
0.0
 10
391.1330697234546
 20
296.4944388526905
 30
0.0
 10
390.9141214111365
 20
296.6430538266933
 30
0.0
 10
390.8046365481699
 20
296.7173685811265
 30
0.0
  0
SPLINE
  5
F9
330
1F
100
AcDbEntity
  8
0
  6
Continuous
 62
     8
370
    18
100
AcDbSpline
210
0.0
220
0.0
230
1.0
 70
     8
 71
     3
 72
    37
 73
    33
 74
     0
 42
0.00000001
 43
0.00000001
 40
0.0
 40
0.0
 40
0.0
 40
0.0
 40
0.0182940547797789
 40
0.0364713349902716
 40
0.0545095863788356
 40
0.0723995086331331
 40
0.0901647266931427
 40
0.1078346389418679
 40
0.1254165415631628
 40
0.175812517143265
 40
0.2251238268557819
 40
0.2510880326472483
 40
0.276701612996156
 40
0.3497217481721961
 40
0.4200682734932997
 40
0.4565728567413656
 40
0.4916675932185531
 40
0.5375558752160761
 40
0.5682792410837217
 40
0.6138341336658004
 40
0.6299824029060863
 40
0.6463624711521727
 40
0.6814693269959411
 40
0.7183582308819797
 40
0.729717290480473
 40
0.8017707230354781
 40
0.8291634028489497
 40
0.8569928816355556
 40
0.8902675107011436
 40
0.926479730177954
 40
0.9631861635624885
 40
1.0
 40
1.0
 40
1.0
 40
1.0
 10
451.7683871855996
 20
343.3805670899739
 30
0.0
 10
451.7281500135424
 20
343.7143642328887
 30
0.0
 10
451.6479325112541
 20
344.3798278255474
 30
0.0
 10
451.5400462908898
 20
345.3757832420595
 30
0.0
 10
451.4418907906887
 20
346.3652383622421
 30
0.0
 10
451.3543465560394
 20
347.3480468004739
 30
0.0
 10
451.2770851861629
 20
348.3248668154922
 30
0.0
 10
451.2100143595536
 20
349.296693095942
 30
0.0
 10
451.117376348688
 20
350.8674884605707
 30
0.0
 10
451.033468222895
 20
353.0205255729027
 30
0.0
 10
451.0140305303422
 20
355.3276431504195
 30
0.0
 10
451.0427246558164
 20
357.177672372467
 30
0.0
 10
451.1174013426315
 20
359.459245691754
 30
0.0
 10
451.3213222176499
 20
362.5423862190978
 30
0.0
 10
451.7014622788298
 20
365.7834672670243
 30
0.0
 10
452.0885226604311
 20
368.2858597902804
 30
0.0
 10
452.4489341616817
 20
370.3083066916233
 30
0.0
 10
452.8295462468562
 20
372.1518347973631
 30
0.0
 10
453.2714175714427
 20
374.0174988439575
 30
0.0
 10
453.6150857559929
 20
375.2780841254938
 30
0.0
 10
453.8951613189599
 20
376.1920668576449
 30
0.0
 10
454.1299673793383
 20
376.912793752044
 30
0.0
 10
454.4131694770693
 20
377.7019731505537
 30
0.0
 10
454.6310158807632
 20
378.2530732684081
 30
0.0
 10
454.8941731132121
 20
378.8932079026982
 30
0.0
 10
455.0575434516817
 20
379.2580006234437
 30
0.0
 10
455.1687831962017
 20
379.5056716893891
 30
0.0
 10
455.2238065820842
 20
379.627460933438
 30
0.0
 10
455.2614248772458
 20
379.7123887085523
 30
0.0
 10
455.2781420693041
 20
379.7542297571352
 30
0.0
 10
455.285603520554
 20
379.7671854214319
 30
0.0
 10
455.2854894146673
 20
379.7664553077115
 30
0.0
 10
455.2854322783774
 20
379.7660897175533
 30
0.0
  0
SPLINE
  5
FA
330
1F
100
AcDbEntity
  8
0
  6
Continuous
 62
     8
370
    18
100
AcDbSpline
210
0.0
220
0.0
230
1.0
 70
     8
 71
     3
 72
    22
 73
    18
 74
     0
 42
0.00000001
 43
0.00000001
 40
0.0
 40
0.0
 40
0.0
 40
0.0
 40
0.0203312863056456
 40
0.0410129167419659
 40
0.0620450714810561
 40
0.1430911208960492
 40
0.248953398213326
 40
0.3427500128088249
 40
0.4369367389638193
 40
0.5361696691480506
 40
0.623739800148154
 40
0.7186121904242975
 40
0.8119158980685354
 40
0.8570180759399368
 40
0.9057928350778754
 40
0.9447511269603454
 40
1.0
 40
1.0
 40
1.0
 40
1.0
 10
431.4232407507881
 20
360.1818484824558
 30
0.0
 10
431.3913563190418
 20
360.0850396538541
 30
0.0
 10
431.3270380302271
 20
359.8897538087954
 30
0.0
 10
431.2279488946028
 20
359.5860109608401
 30
0.0
 10
431.0295073184611
 20
358.9730024599231
 30
0.0
 10
430.6817531776342
 20
357.8813599645473
 30
0.0
 10
430.2001952681233
 20
356.2852294715286
 30
0.0
 10
429.6917663985452
 20
354.4909346251038
 30
0.0
 10
429.2065661129265
 20
352.6329494334609
 30
0.0
 10
428.7605115158375
 20
350.720099975546
 30
0.0
 10
428.3550110561573
 20
348.7226325149705
 30
0.0
 10
428.0171997798046
 20
346.7001715725566
 30
0.0
 10
427.7867403083899
 20
344.9438378719165
 30
0.0
 10
427.6358410825019
 20
343.5169555586889
 30
0.0
 10
427.5409432865014
 20
342.4978976562506
 30
0.0
 10
427.4497126648316
 20
341.3969211575051
 30
0.0
 10
427.3925180381343
 20
340.6702369344985
 30
0.0
 10
427.3589755929119
 20
340.2440646321051
 30
0.0
  0
SPLINE
  5
FB
330
1F
100
AcDbEntity
  8
0
  6
Continuous
 62
     8
370
    18
100
AcDbSpline
210
0.0
220
0.0
230
1.0
 70
     8
 71
     3
 72
    39
 73
    35
 74
     0
 42
0.00000001
 43
0.00000001
 40
0.0
 40
0.0
 40
0.0
 40
0.0
 40
0.0517389012720191
 40
0.0979544801958953
 40
0.1386160752689694
 40
0.1736880951628204
 40
0.2030700856825704
 40
0.2267896684445755
 40
0.2448610519493492
 40
0.2806026572933046
 40
0.3065539897271318
 40
0.3415335111365458
 40
0.3705050480596432
 40
0.3902381038156043
 40
0.4189429311742072
 40
0.4559773088110781
 40
0.5014966105951777
 40
0.5251522717531457
 40
0.5494357825140405
 40
0.5744046238760662
 40
0.6001050180927125
 40
0.6265372038718554
 40
0.6536888702943073
 40
0.6815535625039718
 40
0.7101288915061179
 40
0.7394335741659182
 40
0.769478317218808
 40
0.8002171492500422
 40
0.8316597780286317
 40
0.8638250260133971
 40
0.8967251802416629
 40
0.9303748213999176
 40
0.9647916227359821
 40
0.9999999999999999
 40
0.9999999999999999
 40
0.9999999999999999
 40
0.9999999999999999
 10
458.1495344744047
 20
377.7568186724123
 30
0.0
 10
458.1498357564738
 20
377.7574699395249
 30
0.0
 10
458.1504061576179
 20
377.7587029485357
 30
0.0
 10
458.1355563201326
 20
377.7260809017017
 30
0.0
 10
458.0910232638229
 20
377.6280234631277
 30
0.0
 10
458.0237818049682
 20
377.4792482812169
 30
0.0
 10
457.939035554984
 20
377.2895980583348
 30
0.0
 10
457.8450712535109
 20
377.0764371855568
 30
0.0
 10
457.7157248127201
 20
376.7781251092238
 30
0.0
 10
457.5415462398034
 20
376.3682169869618
 30
0.0
 10
457.2603969793656
 20
375.6789195224054
 30
0.0
 10
456.9286685928481
 20
374.826018705642
 30
0.0
 10
456.5625818833255
 20
373.814555876899
 30
0.0
 10
456.2021034932519
 20
372.7507254042189
 30
0.0
 10
455.7946584855829
 20
371.4567439641827
 30
0.0
 10
455.2807196181697
 20
369.621635593104
 30
0.0
 10
454.8418241273775
 20
367.761617119237
 30
0.0
 10
454.506365609816
 20
366.0843778333859
 30
0.0
 10
454.2728983343326
 20
364.7582901890883
 30
0.0
 10
454.0633309458166
 20
363.3815597130197
 30
0.0
 10
453.8798568137788
 20
361.9546367980069
 30
0.0
 10
453.7246510893617
 20
360.4788485112049
 30
0.0
 10
453.5997276486525
 20
358.9561027968101
 30
0.0
 10
453.5068319852746
 20
357.388240390537
 30
0.0
 10
453.4474834982435
 20
355.7763827600326
 30
0.0
 10
453.42302452856
 20
354.1213859192317
 30
0.0
 10
453.4346778295388
 20
352.4246908735886
 30
0.0
 10
453.4835168332459
 20
350.6877763433868
 30
0.0
 10
453.5704007094132
 20
348.9119507474703
 30
0.0
 10
453.6962351700544
 20
347.0973573879216
 30
0.0
 10
453.8616509522318
 20
345.2439997017244
 30
0.0
 10
454.0682035172654
 20
343.3520359197988
 30
0.0
 10
454.3136206428622
 20
341.4207491786589
 30
0.0
 10
454.5092191395804
 20
340.1230226911632
 30
0.0
 10
454.6081302778093
 20
339.4667824534226
 30
0.0
  0
SPLINE
  5
FC
330
1F
100
AcDbEntity
  8
0
  6
Continuous
 62
     8
370
    18
100
AcDbSpline
210
0.0
220
0.0
230
1.0
 70
     8
 71
     3
 72
     8
 73
     4
 74
     0
 42
0.00000001
 43
0.00000001
 40
0.0
 40
0.0
 40
0.0
 40
0.0
 40
1.0
 40
1.0
 40
1.0
 40
1.0
 10
455.3048187085651
 20
335.4624591027485
 30
0.0
 10
455.0501681815825
 20
336.7927083857183
 30
0.0
 10
454.817291925775
 20
338.1261473723526
 30
0.0
 10
454.60813030292
 20
339.4667824584055
 30
0.0
  0
SPLINE
  5
FD
330
1F
100
AcDbEntity
  8
0
  6
Continuous
 62
     8
370
    18
100
AcDbSpline
210
0.0
220
0.0
230
1.0
 70
     8
 71
     3
 72
    11
 73
     7
 74
     0
 42
0.00000001
 43
0.00000001
 40
0.0
 40
0.0
 40
0.0
 40
0.0
 40
0.1875000000000001
 40
0.5000000000000001
 40
0.8125
 40
1.0
 40
1.0
 40
1.0
 40
1.0
 10
453.0876860202437
 20
334.9950025824525
 30
0.0
 10
452.9915454994788
 20
335.5169895331855
 30
0.0
 10
452.7399809314156
 20
336.910125855914
 30
0.0
 10
452.3569784025863
 20
339.1787756376216
 30
0.0
 10
452.0165171868267
 20
341.4528636588122
 30
0.0
 10
451.8330187196747
 20
342.8547011647133
 30
0.0
 10
451.7682933224074
 20
343.3807040461414
 30
0.0
  0
SPLINE
  5
FE
330
1F
100
AcDbEntity
  8
0
  6
Continuous
 62
     8
370
    18
100
AcDbSpline
210
0.0
220
0.0
230
1.0
 70
     8
 71
     3
 72
    23
 73
    19
 74
     0
 42
0.00000001
 43
0.00000001
 40
0.0
 40
0.0
 40
0.0
 40
0.0
 40
0.1309345190693362
 40
0.2590029641641283
 40
0.3856828057274665
 40
0.5098969688027867
 40
0.5705258461945294
 40
0.629957675577076
 40
0.6590095804028453
 40
0.6878868279659489
 40
0.7169734608427737
 40
0.7468241841529157
 40
0.7778026968993407
 40
0.81002432740544
 40
0.8437861366271163
 40
0.8786651724939284
 40
0.9506938968910301
 40
1.0
 40
1.0
 40
1.0
 40
1.0
 10
455.3510925463099
 20
324.607578684734
 30
0.0
 10
456.0157459280406
 20
321.9568904302351
 30
0.0
 10
457.3305038485151
 20
316.7135358139734
 30
0.0
 10
459.2417915458374
 20
308.8999626365764
 30
0.0
 10
461.1307790042397
 20
301.2383968183976
 30
0.0
 10
462.7342278707195
 20
294.9633401667976
 30
0.0
 10
463.9563606711765
 20
290.1121233573073
 30
0.0
 10
464.6599841067722
 20
287.2259364264949
 30
0.0
 10
465.1617982562507
 20
285.109639849174
 30
0.0
 10
465.5046233374127
 20
283.6672097827485
 30
0.0
 10
465.8163879757862
 20
282.3973510372666
 30
0.0
 10
466.0923343975834
 20
281.3357646465876
 30
0.0
 10
466.3224615163357
 20
280.5005202603947
 30
0.0
 10
466.4992248025656
 20
279.8825673416626
 30
0.0
 10
466.6201640592735
 20
279.4597859550243
 30
0.0
 10
466.7183643332197
 20
279.0989226350726
 30
0.0
 10
466.7494665235001
 20
278.951751274127
 30
0.0
 10
466.7513212656709
 20
278.9429471412827
 30
0.0
 10
466.7520749660765
 20
278.939369458842
 30
0.0
  0
SPLINE
  5
FF
330
1F
100
AcDbEntity
  8
0
  6
Continuous
 62
     8
370
    18
100
AcDbSpline
210
0.0
220
0.0
230
1.0
 70
     8
 71
     3
 72
    47
 73
    43
 74
     0
 42
0.00000001
 43
0.00000001
 40
0.0
 40
0.0
 40
0.0
 40
0.0
 40
0.0071088482298512
 40
0.0391593931329058
 40
0.0714283868589348
 40
0.1032312365123006
 40
0.1192079868840022
 40
0.1349381976202675
 40
0.1509160946200189
 40
0.1668949483293814
 40
0.1828751153920211
 40
0.1988584877391038
 40
0.2150553422211073
 40
0.2310070147307008
 40
0.2470027142843826
 40
0.2630540776293909
 40
0.2790674147926668
 40
0.2948370847834197
 40
0.3106136976329579
 40
0.3268916802345662
 40
0.3429033565823983
 40
0.3589700070896051
 40
0.3750428896829009
 40
0.3911164560787287
 40
0.406964795199972
 40
0.4230833106518851
 40
0.439066857886548
 40
0.4554938140302402
 40
0.4717451106863199
 40
0.4878337625090319
 40
0.5039227203033692
 40
0.5198162103516627
 40
0.5519332652577434
 40
0.6154077769982218
 40
0.6474288093630917
 40
0.6796114261592197
 40
0.7116210797700067
 40
0.7446361732968064
 40
0.8074508849707843
 40
0.8717336258326359
 40
0.9361750110237944
 40
1.0
 40
1.0
 40
1.0
 40
1.0
 10
469.7930096858802
 20
280.615627645597
 30
0.0
 10
469.7929122792908
 20
280.6159307871264
 30
0.0
 10
469.7923757109461
 20
280.6176006551476
 30
0.0
 10
469.787374677984
 20
280.6362532279258
 30
0.0
 10
469.7735101258104
 20
280.6865956750093
 30
0.0
 10
469.7502838717174
 20
280.7734063536994
 30
0.0
 10
469.7220479022898
 20
280.8774260683464
 30
0.0
 10
469.694821193353
 20
280.9775747624571
 30
0.0
 10
469.660326127826
 20
281.1050445629569
 30
0.0
 10
469.6168637484524
 20
281.2655835750037
 30
0.0
 10
469.562945412569
 20
281.4639684139464
 30
0.0
 10
469.4961420530553
 20
281.7101223362497
 30
0.0
 10
469.4146518917451
 20
282.0104370308954
 30
0.0
 10
469.3162152912465
 20
282.3736155829671
 30
0.0
 10
469.1993057142583
 20
282.8044877922039
 30
0.0
 10
469.0617900455787
 20
283.3107317680464
 30
0.0
 10
468.9039017440497
 20
283.8918854603165
 30
0.0
 10
468.7270776255046
 20
284.5425883895206
 30
0.0
 10
468.5317453605226
 20
285.2626306202044
 30
0.0
 10
468.3205671767732
 20
286.0417363950567
 30
0.0
 10
468.0962974547655
 20
286.8690924386775
 30
0.0
 10
467.8641635560346
 20
287.7254597501453
 30
0.0
 10
467.6251530314589
 20
288.606402891395
 30
0.0
 10
467.3825474808581
 20
289.5005627685142
 30
0.0
 10
467.1363341251616
 20
290.4077958479481
 30
0.0
 10
466.8882000518115
 20
291.3225003547074
 30
0.0
 10
466.6351317089645
 20
292.2548811587733
 30
0.0
 10
466.3799552965125
 20
293.1950099951544
 30
0.0
 10
466.12325545871
 20
294.141222404277
 30
0.0
 10
465.8676143528918
 20
295.0838585316981
 30
0.0
 10
465.6131934656073
 20
296.0216250000436
 30
0.0
 10
465.2733148060709
 20
297.2743049582761
 30
0.0
 10
464.6809435119753
 20
299.4576876625097
 30
0.0
 10
464.0008997425775
 20
301.9630640312744
 30
0.0
 10
463.3201959987229
 20
304.4724048413355
 30
0.0
 10
462.8069040497512
 20
306.3643679947532
 30
0.0
 10
462.2881326615845
 20
308.2766642455932
 30
0.0
 10
461.6055106360823
 20
310.7922626457594
 30
0.0
 10
460.7502543389293
 20
313.9439238129413
 30
0.0
 10
459.7273473950643
 20
317.7153820985887
 30
0.0
 10
458.6983613003068
 20
321.5071725312484
 30
0.0
 10
458.0129701988387
 20
324.0337026037809
 30
0.0
 10
457.6719215040458
 20
325.2908969002145
 30
0.0
  0
SPLINE
  5
100
330
1F
100
AcDbEntity
  8
0
  6
Continuous
 62
     8
370
    18
100
AcDbSpline
210
0.0
220
0.0
230
1.0
 70
    24
 71
     3
 72
    14
 73
    10
 74
     0
 42
0.00000001
 43
0.00000001
 40
0.0
 40
0.0
 40
0.0
 40
0.0
 40
0.25
 40
0.25
 40
0.5
 40
0.5
 40
0.75
 40
0.75
 40
1.0
 40
1.0
 40
1.0
 40
1.0
 10
427.050835588341
 20
323.1464022207113
 30
0.0
 10
427.054559884764
 20
321.9609257502726
 30
0.0
 10
427.0579201495318
 20
320.8913237734104
 30
0.0
 10
427.0637802695758
 20
319.0259957659133
 30
0.0
 10
427.0662799718287
 20
318.2303184440162
 30
0.0
 10
427.0703202084215
 20
316.9442754249806
 30
0.0
 10
427.0718606372601
 20
316.4539433098885
 30
0.0
 10
427.0739214452446
 20
315.7979699130289
 30
0.0
 10
427.0744417705773
 20
315.6323457604934
 30
0.0
 10
427.0744417705773
 20
315.6323457605276
 30
0.0
  0
SPLINE
  5
101
330
1F
100
AcDbEntity
  8
0
  6
Continuous
 62
     8
370
    18
100
AcDbSpline
210
0.0
220
0.0
230
1.0
 70
    24
 71
     3
 72
     8
 73
     4
 74
     0
 42
0.00000001
 43
0.00000001
 40
0.0
 40
0.0
 40
0.0
 40
0.0
 40
1.0
 40
1.0
 40
1.0
 40
1.0
 10
427.0288269266536
 20
330.1519537699556
 30
0.0
 10
427.0369564443953
 20
327.5642564160974
 30
0.0
 10
427.044435982259
 20
325.1834534025983
 30
0.0
 10
427.050835588341
 20
323.1464022207113
 30
0.0
  0
SPLINE
  5
102
330
1F
100
AcDbEntity
  8
0
  6
Continuous
 62
     8
370
    18
100
AcDbSpline
210
0.0
220
0.0
230
1.0
 70
     8
 71
     3
 72
     8
 73
     4
 74
     0
 42
0.00000001
 43
0.00000001
 40
0.0
 40
0.0
 40
0.0
 40
0.0
 40
1.0
 40
1.0
 40
1.0
 40
1.0
 10
427.0295658834438
 20
330.4495415937323
 30
0.0
 10
427.0293204844564
 20
330.3500528265869
 30
0.0
 10
427.0290741744014
 20
330.2508540603298
 30
0.0
 10
427.0288269266536
 20
330.1519537699556
 30
0.0
  0
SPLINE
  5
103
330
1F
100
AcDbEntity
  8
0
  6
Continuous
 62
     8
370
    18
100
AcDbSpline
210
0.0
220
0.0
230
1.0
 70
     8
 71
     3
 72
    13
 73
     9
 74
     0
 42
0.00000001
 43
0.00000001
 40
0.0
 40
0.0
 40
0.0
 40
0.0
 40
0.1527545744785844
 40
0.3110729802589686
 40
0.4749560302884997
 40
0.6444044551068748
 40
0.8194189132408553
 40
1.0
 40
1.0
 40
1.0
 40
1.0
 10
427.0541830298994
 20
333.2268945259574
 30
0.0
 10
427.0520107299347
 20
333.0827249420979
 30
0.0
 10
427.0475870075922
 20
332.789134637081
 30
0.0
 10
427.0422625518027
 20
332.344257752975
 30
0.0
 10
427.0377196916954
 20
331.8866079545664
 30
0.0
 10
427.034090554595
 20
331.4170261582632
 30
0.0
 10
427.0312657300203
 20
330.9355945810951
 30
0.0
 10
427.030138381617
 20
330.6132413365018
 30
0.0
 10
427.0295658834438
 20
330.4495415937323
 30
0.0
  0
SPLINE
  5
104
330
1F
100
AcDbEntity
  8
0
  6
Continuous
 62
     8
370
    18
100
AcDbSpline
210
0.0
220
0.0
230
1.0
 70
     8
 71
     3
 72
    17
 73
    13
 74
     0
 42
0.00000001
 43
0.00000001
 40
0.0
 40
0.0
 40
0.0
 40
0.0
 40
0.1204608559938726
 40
0.2442321646806861
 40
0.3627070747531608
 40
0.4810842831520662
 40
0.5998874653418573
 40
0.7501436812437782
 40
0.8003087223015853
 40
0.876604936056552
 40
0.950311268075909
 40
1.0
 40
1.0
 40
1.0
 40
1.0
 10
455.3507441050727
 20
324.6089580221432
 30
0.0
 10
455.2469757959275
 20
325.0229521581866
 30
0.0
 10
455.0365874622345
 20
325.8623176365134
 30
0.0
 10
454.7354239258944
 20
327.1117371229532
 30
0.0
 10
454.4452515739077
 20
328.3562607981119
 30
0.0
 10
454.1692669110247
 20
329.5860565890043
 30
0.0
 10
453.8797662517678
 20
330.9282893803438
 30
0.0
 10
453.651180013637
 20
332.0364124896908
 30
0.0
 10
453.4569790831754
 20
332.9978751374106
 30
0.0
 10
453.3256692370587
 20
333.6951586743974
 30
0.0
 10
453.1970646238319
 20
334.3912433286058
 30
0.0
 10
453.1161748592765
 20
334.8211252992056
 30
0.0
 10
453.0836021639195
 20
334.9942301975176
 30
0.0
  0
SPLINE
  5
105
330
1F
100
AcDbEntity
  8
0
  6
Continuous
 62
     8
370
    18
100
AcDbSpline
210
0.0
220
0.0
230
1.0
 70
     8
 71
     3
 72
    19
 73
    15
 74
     0
 42
0.00000001
 43
0.00000001
 40
0.0
 40
0.0
 40
0.0
 40
0.0
 40
0.25
 40
0.25
 40
0.5
 40
0.5
 40
0.75
 40
0.75
 40
0.8749999999999959
 40
0.8749999999999959
 40
0.9374999999999939
 40
0.968749999999997
 40
0.968749999999997
 40
1.0
 40
1.0
 40
1.0
 40
1.0
 10
455.3054105233364
 20
335.460025686289
 30
0.0
 10
455.4692472258633
 20
334.6059800899051
 30
0.0
 10
455.6416464493357
 20
333.7546041964249
 30
0.0
 10
456.004621222273
 20
332.0518060953972
 30
0.0
 10
456.1942911140197
 20
331.2032439192415
 30
0.0
 10
456.5898848206184
 20
329.5085657674662
 30
0.0
 10
456.795707302264
 20
328.6628945724186
 30
0.0
 10
457.1158501722314
 20
327.3966773153966
 30
0.0
 10
457.2244661439902
 20
326.9749859723915
 30
0.0
 10
457.3901596433014
 20
326.3430262751025
 30
0.0
 10
457.4736986871943
 20
326.0271913804651
 30
0.0
 10
457.5582595512152
 20
325.7115815026123
 30
0.0
 10
457.6148585930759
 20
325.501226269902
 30
0.0
 10
457.6429111057404
 20
325.3974314369929
 30
0.0
 10
457.6717944034795
 20
325.2909485890873
 30
0.0
  0
SPLINE
  5
106
330
1F
100
AcDbEntity
  8
0
  6
Continuous
 62
     8
370
    18
100
AcDbSpline
210
0.0
220
0.0
230
1.0
 70
     8
 71
     3
 72
    18
 73
    14
 74
     0
 42
0.00000001
 43
0.00000001
 40
0.0
 40
0.0
 40
0.0
 40
0.0
 40
0.0687955242050894
 40
0.1385497863293373
 40
0.209265003573346
 40
0.2809433038867528
 40
0.3535867305078224
 40
0.4271972462301947
 40
0.5017767374150911
 40
0.618991205629927
 40
0.7410964649672441
 40
0.8680978263142858
 40
1.0
 40
1.0
 40
1.0
 40
1.0
 10
427.3589755929119
 20
340.2440646321051
 30
0.0
 10
427.3464900651933
 20
340.0808988332463
 30
0.0
 10
427.3213450108077
 20
339.7522933486693
 30
0.0
 10
427.2869905213234
 20
339.2560866788986
 30
0.0
 10
427.2547463780864
 20
338.7534174057829
 30
0.0
 10
427.2248830626479
 20
338.2445096029899
 30
0.0
 10
427.1973256960735
 20
337.7296152600745
 30
0.0
 10
427.1720934773326
 20
337.2089970889422
 30
0.0
 10
427.1449142311929
 20
336.5849967215726
 30
0.0
 10
427.117395193594
 20
335.8499396831469
 30
0.0
 10
427.0913521948504
 20
334.9977967559872
 30
0.0
 10
427.0696608184804
 20
334.1178673856551
 30
0.0
 10
427.0594069913517
 20
333.5276098283886
 30
0.0
 10
427.0541830298994
 20
333.2268945259574
 30
0.0
  0
LINE
  5
107
330
1F
100
AcDbEntity
  8
0
  6
Continuous
 62
     8
370
    18
100
AcDbLine
 10
458.1496258143
 20
377.756801785
 30
0.0
 11
457.7857469891
 21
375.2683913947
 31
0.0
  0
LINE
  5
108
330
1F
100
AcDbEntity
  8
0
  6
Continuous
 62
     8
370
    18
100
AcDbLine
 10
417.5199094977
 20
365.2143817507
 30
0.0
 11
417.5199094977
 21
316.2143817507
 31
0.0
  0
LINE
  5
109
330
1F
100
AcDbEntity
  8
0
  6
Continuous
 62
     8
370
    18
100
AcDbLine
 10
401.2506765772
 20
397.4559331286
 30
0.0
 11
401.2506765772
 21
419.9728303759
 31
0.0
  0
LINE
  5
10A
330
1F
100
AcDbEntity
  8
0
  6
Continuous
 62
     8
370
    18
100
AcDbLine
 10
401.7416999958
 20
419.4887278883
 30
0.0
 11
401.7416999958
 21
397.9400356162
 31
0.0
  0
ARC
  5
10B
330
1F
100
AcDbEntity
  8
0
  6
Continuous
 62
     7
370
    25
100
AcDbCircle
 10
207.3393027499
 20
7185.9325648354
 30
0.0
 40
7000.000000000001
100
AcDbArc
 50
269.4035567294
 51
269.9066710329
  0
ARC
  5
10C
330
1F
100
AcDbEntity
  8
0
  6
Continuous
 62
     7
370
    25
100
AcDbCircle
 10
207.3393027499
 20
7185.9325648354
 30
0.0
 40
7000.000000000001
100
AcDbArc
 50
270.093328967
 51
270.5964432497
  0
ARC
  5
10D
330
1F
100
AcDbEntity
  8
0
  6
Continuous
 62
     7
370
    25
100
AcDbCircle
 10
280.191602619
 20
187.8117604762
 30
0.0
 40
1.500000000000018
100
AcDbArc
 50
270.6099342096
 51
358.4893102131
  0
ARC
  5
10E
330
1F
100
AcDbEntity
  8
0
  6
Continuous
 62
     7
370
    25
100
AcDbCircle
 10
134.4870028807
 20
187.8117604762
 30
0.0
 40
1.500000000000038
100
AcDbArc
 50
181.5241076744
 51
269.4065979697
  0
LINE
  5
10F
330
1F
100
AcDbEntity
  8
0
  6
Continuous
 62
     7
370
    25
100
AcDbLine
 10
281.6910889817
 20
187.7725093816
 30
0.0
 11
281.8393027499
 21
193.4325648354
 31
0.0
  0
LINE
  5
110
330
1F
100
AcDbEntity
  8
0
  6
Continuous
 62
     7
370
    25
100
AcDbLine
 10
132.8393027499
 20
193.4325648354
 30
0.0
 11
132.9875165181
 21
187.7725093816
 31
0.0
  0
LINE
  5
111
330
1F
100
AcDbEntity
  8
0
  6
Continuous
 62
     7
370
    25
100
AcDbLine
 10
195.9352446674
 20
186.0437579006
 30
0.0
 11
196.0808541234
 21
177.7017977559
 31
0.0
  0
LINE
  5
112
330
1F
100
AcDbEntity
  8
0
  6
Continuous
 62
     7
370
    25
100
AcDbLine
 10
218.5977513708
 20
177.7017977559
 30
0.0
 11
218.7433709205
 21
186.0443361748
 31
0.0
  0
ARC
  5
113
330
1F
100
AcDbEntity
  8
0
  6
Continuous
 62
     7
370
    25
100
AcDbCircle
 10
196.580777971
 20
177.7105239591
 30
0.0
 40
0.5000000000000285
100
AcDbArc
 50
181.0
 51
268.1867030123
  0
ARC
  5
114
330
1F
100
AcDbEntity
  8
0
  6
Continuous
 62
     7
370
    25
100
AcDbCircle
 10
218.0978275232
 20
177.7105239591
 30
0.0
 40
0.5000000000000276
100
AcDbArc
 50
271.8132969877
 51
359.0
  0
ARC
  5
115
330
1F
100
AcDbEntity
  8
0
  6
Continuous
 62
     7
370
    25
100
AcDbCircle
 10
207.3393027471
 20
517.5402668373
 30
0.0
 40
340.5000000000001
100
AcDbArc
 50
268.1867030123
 51
270.0
  0
ARC
  5
116
330
1F
100
AcDbEntity
  8
0
  6
Continuous
 62
     7
370
    25
100
AcDbCircle
 10
207.3393027471
 20
517.5402668373
 30
0.0
 40
340.5000000000001
100
AcDbArc
 50
270.0
 51
271.8132969877
  0
SPLINE
  5
117
330
1F
100
AcDbEntity
  8
0
  6
Continuous
 62
     7
370
    25
100
AcDbSpline
210
0.0
220
0.0
230
1.0
 70
     8
 71
     3
 72
    17
 73
    13
 74
     0
 42
0.00000001
 43
0.00000001
 40
0.0
 40
0.0
 40
0.0
 40
0.0
 40
0.0534640477840781
 40
0.223916331491116
 40
0.3689401067922083
 40
0.4895280256732178
 40
0.5580417432301189
 40
0.6327274367315142
 40
0.7223768797098802
 40
0.8294480527569963
 40
0.955194392643545
 40
0.9999999999999999
 40
0.9999999999999999
 40
0.9999999999999999
 40
0.9999999999999999
 10
233.8990278810502
 20
127.7427851712403
 30
0.0
 10
233.7985287043805
 20
128.1618356251952
 30
0.0
 10
233.3776214238724
 20
129.9168886795059
 30
0.0
 10
232.7204035101632
 20
132.7538121082585
 30
0.0
 10
232.242058790725
 20
136.1281927954639
 30
0.0
 10
232.1040400662692
 20
138.7123383545782
 30
0.0
 10
232.1510220963075
 20
140.5147034006969
 30
0.0
 10
232.1635517005022
 20
142.314397344513
 30
0.0
 10
232.1590832584092
 20
144.5285068484183
 30
0.0
 10
232.1446076295076
 20
147.1876402197846
 30
0.0
 10
232.1171037033056
 20
149.4799426213218
 30
0.0
 10
232.0979612301517
 20
150.8763468265474
 30
0.0
 10
232.0929323216589
 20
151.2431953999096
 30
0.0
  0
SPLINE
  5
118
330
1F
100
AcDbEntity
  8
0
  6
Continuous
 62
     7
370
    25
100
AcDbSpline
210
0.0
220
0.0
230
1.0
 70
     8
 71
     3
 72
    17
 73
    13
 74
     0
 42
0.00000001
 43
0.00000001
 40
0.0
 40
0.0
 40
0.0
 40
0.0
 40
0.0448056073518848
 40
0.1705519472357675
 40
0.277623120280003
 40
0.3672725632550826
 40
0.4419582567524891
 40
0.5104719743055943
 40
0.631059893185885
 40
0.776083668490323
 40
0.9465359522035945
 40
1.0
 40
1.0
 40
1.0
 40
1.0
 10
182.5856731813837
 20
151.2431953998621
 30
0.0
 10
182.5806442728929
 20
150.8763468265323
 30
0.0
 10
182.5615017997457
 20
149.4799426213468
 30
0.0
 10
182.5339978735427
 20
147.1876402198641
 30
0.0
 10
182.5195222446331
 20
144.5285068485362
 30
0.0
 10
182.5150538025231
 20
142.3143973446821
 30
0.0
 10
182.5275834066895
 20
140.5147034009121
 30
0.0
 10
182.5745654366835
 20
138.7123383548155
 30
0.0
 10
182.4365467122267
 20
136.1281927957635
 30
0.0
 10
181.9582019927961
 20
132.7538121086012
 30
0.0
 10
181.3009840790222
 20
129.9168886798411
 30
0.0
 10
180.8800767984746
 20
128.1618356254616
 30
0.0
 10
180.7795776217806
 20
127.7427851714285
 30
0.0
  0
SPLINE
  5
119
330
1F
100
AcDbEntity
  8
0
  6
Continuous
 62
     7
370
    25
100
AcDbSpline
210
0.0
220
0.0
230
1.0
 70
     8
 71
     3
 72
    26
 73
    22
 74
     0
 42
0.00000001
 43
0.00000001
 40
0.0
 40
0.0
 40
0.0
 40
0.0
 40
0.1029227615047111
 40
0.1968934800287284
 40
0.2690012817140915
 40
0.3240726250612384
 40
0.3735709928532474
 40
0.4208165757791214
 40
0.4653766272640383
 40
0.5077652512387857
 40
0.5529071451945745
 40
0.5973950173414718
 40
0.6308411831853834
 40
0.6637541541241633
 40
0.713850295498624
 40
0.766583560259253
 40
0.8220464067839798
 40
0.8663752530710176
 40
0.9136366875257338
 40
0.9705434507212642
 40
1.0
 40
1.0
 40
1.0
 40
1.0
 10
207.3394889912807
 20
120.7698518666785
 30
0.0
 10
208.6644253987501
 20
120.7695105478096
 30
0.0
 10
211.1990575468729
 20
120.768857597394
 30
0.0
 10
214.6623762384542
 20
120.808236003473
 30
0.0
 10
217.4995804492943
 20
120.912182404121
 30
0.0
 10
219.7512652427383
 20
121.0464887816993
 30
0.0
 10
221.6539677309626
 20
121.2391357852622
 30
0.0
 10
223.3705822548748
 20
121.4870736681357
 30
0.0
 10
224.9278916492248
 20
121.7799947804641
 30
0.0
 10
226.3660582132539
 20
122.1226227433868
 30
0.0
 10
227.667482851655
 20
122.5122966568564
 30
0.0
 10
228.7521312593187
 20
122.9434575384485
 30
0.0
 10
229.5273572391684
 20
123.3289856621786
 30
0.0
 10
230.2591509276666
 20
123.7308226617901
 30
0.0
 10
230.971713842483
 20
124.1909474719982
 30
0.0
 10
231.624693684778
 20
124.6943691847754
 30
0.0
 10
232.0945117574956
 20
125.1198182569587
 30
0.0
 10
232.3826001676868
 20
125.3953215592521
 30
0.0
 10
232.5762286775095
 20
125.5668490096019
 30
0.0
 10
232.7266424639628
 20
125.6878647143144
 30
0.0
 10
232.7236906464144
 20
125.6855676682017
 30
0.0
 10
232.7226838490072
 20
125.6847841983453
 30
0.0
  0
SPLINE
  5
11A
330
1F
100
AcDbEntity
  8
0
  6
Continuous
 62
     7
370
    25
100
AcDbSpline
210
0.0
220
0.0
230
1.0
 70
     8
 71
     3
 72
    13
 73
     9
 74
     0
 42
0.00000001
 43
0.00000001
 40
0.0
 40
0.0
 40
0.0
 40
0.0
 40
0.1754104122914391
 40
0.3776100229428443
 40
0.5926595698647135
 40
0.8272879962446211
 40
0.9885159574193494
 40
1.0
 40
1.0
 40
1.0
 40
1.0
 10
233.9374198572081
 20
125.1637538316019
 30
0.0
 10
233.9708568458015
 20
125.3768198787929
 30
0.0
 10
234.0428374190465
 20
125.8354920517677
 30
0.0
 10
234.0387400239048
 20
126.3824676463205
 30
0.0
 10
234.0446465743044
 20
126.7228355807503
 30
0.0
 10
234.0268979881198
 20
127.1187082523858
 30
0.0
 10
234.0283209842118
 20
127.4014219136979
 30
0.0
 10
233.9718735745141
 20
127.6082571921259
 30
0.0
 10
233.9681202485006
 20
127.622010174507
 30
0.0
  0
SPLINE
  5
11B
330
1F
100
AcDbEntity
  8
0
  6
Continuous
 62
     7
370
    25
100
AcDbSpline
210
0.0
220
0.0
230
1.0
 70
     8
 71
     3
 72
    14
 73
    10
 74
     0
 42
0.00000001
 43
0.00000001
 40
0.0
 40
0.0
 40
0.0
 40
0.0
 40
0.0181075745477919
 40
0.1392668122862712
 40
0.3070048927140184
 40
0.5709704129624235
 40
0.775300352096931
 40
0.985901875876798
 40
1.0
 40
1.0
 40
1.0
 40
1.0
 10
180.7106623580426
 20
127.6187486303759
 30
0.0
 10
180.705155784606
 20
127.5975684519332
 30
0.0
 10
180.6628042853966
 20
127.4346699959532
 30
0.0
 10
180.6531457723373
 20
127.2056637393912
 30
0.0
 10
180.6334290109061
 20
126.8248007298035
 30
0.0
 10
180.6354971092435
 20
126.5247015230294
 30
0.0
 10
180.6486773083822
 20
125.945084214362
 30
0.0
 10
180.654849020975
 20
125.4869769312494
 30
0.0
 10
180.7290763703066
 20
125.1928972162569
 30
0.0
 10
180.7337335488735
 20
125.1744460421551
 30
0.0
  0
SPLINE
  5
11C
330
1F
100
AcDbEntity
  8
0
  6
Continuous
 62
     7
370
    25
100
AcDbSpline
210
0.0
220
0.0
230
1.0
 70
     8
 71
     3
 72
    27
 73
    23
 74
     0
 42
0.00000001
 43
0.00000001
 40
0.0
 40
0.0
 40
0.0
 40
0.0
 40
0.0128273127516086
 40
0.0627093307319596
 40
0.1234182832015338
 40
0.1681474939273636
 40
0.2149760982791728
 40
0.2684687363499871
 40
0.3194412840590837
 40
0.3672571360958702
 40
0.3994752941196512
 40
0.43269264088929
 40
0.4640209902722863
 40
0.5068629209841459
 40
0.5505931603933129
 40
0.596361064677693
 40
0.6447110683197381
 40
0.6954996655762551
 40
0.748665258942986
 40
0.8211562779321857
 40
0.9035275531999475
 40
1.0
 40
1.0
 40
1.0
 40
1.0
 10
181.951931991178
 20
125.6882148109496
 30
0.0
 10
181.9486080061822
 20
125.6903360474967
 30
0.0
 10
181.9323579249308
 20
125.700706210505
 30
0.0
 10
182.0406399503374
 20
125.6204391435884
 30
0.0
 10
182.2401883120736
 20
125.4467450477052
 30
0.0
 10
182.4918954382919
 20
125.2080521275377
 30
0.0
 10
182.9014457298642
 20
124.8280957898333
 30
0.0
 10
183.4691510732217
 20
124.3644053735457
 30
0.0
 10
184.2082605919159
 20
123.8563807302528
 30
0.0
 10
185.0042900511181
 20
123.4031468295463
 30
0.0
 10
185.7830613547694
 20
123.014251948561
 30
0.0
 10
186.6075305599679
 20
122.6665573127103
 30
0.0
 10
187.6044097321382
 20
122.3286366368908
 30
0.0
 10
188.8177769176871
 20
121.9927835292006
 30
0.0
 10
190.2945838390539
 20
121.669267370834
 30
0.0
 10
191.9252628051062
 20
121.3896358175081
 30
0.0
 10
193.7083462549847
 20
121.159210890627
 30
0.0
 10
195.6339478459354
 20
120.9996970205573
 30
0.0
 10
197.8868882123578
 20
120.8805645845266
 30
0.0
 10
200.5594930346701
 20
120.7998926997861
 30
0.0
 10
203.7950215053915
 20
120.7691070301434
 30
0.0
 10
206.0974334343599
 20
120.7695955911908
 30
0.0
 10
207.3394077668164
 20
120.7698591323378
 30
0.0
  0
LINE
  5
11D
330
1F
100
AcDbEntity
  8
0
  6
Continuous
 62
     7
370
    25
100
AcDbLine
 10
231.8393027521
 20
161.4325648354
 30
0.0
 11
231.8393027521
 21
185.9754399667
 31
0.0
  0
LINE
  5
11E
330
1F
100
AcDbEntity
  8
0
  6
Continuous
 62
     7
370
    25
100
AcDbLine
 10
182.8393027521
 20
185.9754399667
 30
0.0
 11
182.8393027521
 21
161.4325648354
 31
0.0
  0
ARC
  5
11F
330
1F
100
AcDbEntity
  8
0
  6
Continuous
 62
     7
370
    25
100
AcDbCircle
 10
207.3393027521
 20
161.4325648354
 30
0.0
 40
24.5
100
AcDbArc
 50
180.0
 51
201.2745881375
  0
ARC
  5
120
330
1F
100
AcDbEntity
  8
0
  6
Continuous
 62
     7
370
    25
100
AcDbCircle
 10
207.3393027521
 20
161.4325648354
 30
0.0
 40
24.50000000000003
100
AcDbArc
 50
338.7390702284
 51
0.0
  0
LINE
  5
121
330
1F
100
AcDbEntity
  8
0
  6
Continuous
 62
     7
370
    25
100
AcDbLine
 10
182.3393027396
 20
152.5612837162
 30
0.0
 11
182.3393027396
 21
151.562168905
 31
0.0
  0
LINE
  5
122
330
1F
100
AcDbEntity
  8
0
  6
Continuous
 62
     7
370
    25
100
AcDbLine
 10
232.3393027636
 20
151.5621689051
 30
0.0
 11
232.3393027636
 21
152.5612837162
 31
0.0
  0
SPLINE
  5
123
330
1F
100
AcDbEntity
  8
0
  6
Continuous
 62
     7
370
    25
100
AcDbSpline
210
0.0
220
0.0
230
1.0
 70
     8
 71
     3
 72
    12
 73
     8
 74
     0
 42
0.00000001
 43
0.00000001
 40
0.0
 40
0.0
 40
0.0
 40
0.0
 40
0.1395688253422397
 40
0.2832476045424738
 40
0.4404712908871508
 40
0.7041075497575431
 40
1.0
 40
1.0
 40
1.0
 40
1.0
 10
233.1015549086769
 20
132.0056978713478
 30
0.0
 10
233.0165048900622
 20
132.6196678925663
 30
0.0
 10
232.8439003418773
 20
133.8656878210468
 30
0.0
 10
232.6437447160976
 20
135.9552975980183
 30
0.0
 10
232.4660260799435
 20
138.7210213500697
 30
0.0
 10
232.3655167115591
 20
142.2408176788613
 30
0.0
 10
232.3511832441747
 20
144.9891725806577
 30
0.0
 10
232.343603356466
 20
146.4425697929612
 30
0.0
  0
SPLINE
  5
124
330
1F
100
AcDbEntity
  8
0
  6
Continuous
 62
     7
370
    25
100
AcDbSpline
210
0.0
220
0.0
230
1.0
 70
     8
 71
     3
 72
    12
 73
     8
 74
     0
 42
0.00000001
 43
0.00000001
 40
0.0
 40
0.0
 40
0.0
 40
0.0
 40
0.2958924501556732
 40
0.5595287090346813
 40
0.7167523954139694
 40
0.8604311746519925
 40
0.9999999999999999
 40
0.9999999999999999
 40
0.9999999999999999
 40
0.9999999999999999
 10
182.3350021466144
 20
146.4425697784156
 30
0.0
 10
182.327422258874
 20
144.9891725691511
 30
0.0
 10
182.3130887914274
 20
142.2408176726794
 30
0.0
 10
182.2125794231209
 20
138.7210213504056
 30
0.0
 10
182.0348607873741
 20
135.9552976030193
 30
0.0
 10
181.8347051621049
 20
133.8656878292142
 30
0.0
 10
181.6621006143739
 20
132.6196679025174
 30
0.0
 10
181.5770505959924
 20
132.0056978822469
 30
0.0
  0
SPLINE
  5
125
330
1F
100
AcDbEntity
  8
0
  6
Continuous
 62
     7
370
    25
100
AcDbSpline
210
0.0
220
0.0
230
1.0
 70
     8
 71
     3
 72
    10
 73
     6
 74
     0
 42
0.00000001
 43
0.00000001
 40
0.0
 40
0.0
 40
0.0
 40
0.0
 40
0.2910276325185311
 40
0.8807381806312722
 40
1.0
 40
1.0
 40
1.0
 40
1.0
 10
233.6424028025435
 20
122.7863300495036
 30
0.0
 10
233.6829304590584
 20
123.0524991979919
 30
0.0
 10
233.8055794809237
 20
123.8580080410907
 30
0.0
 10
233.9268491567076
 20
124.7058886815811
 30
0.0
 10
233.9535533494912
 20
125.2375840430751
 30
0.0
 10
233.9580454718392
 20
125.3270247026413
 30
0.0
  0
SPLINE
  5
126
330
1F
100
AcDbEntity
  8
0
  6
Continuous
 62
     7
370
    25
100
AcDbSpline
210
0.0
220
0.0
230
1.0
 70
     8
 71
     3
 72
     9
 73
     5
 74
     0
 42
0.00000001
 43
0.00000001
 40
0.0
 40
0.0
 40
0.0
 40
0.0
 40
0.4707570017713756
 40
1.0
 40
1.0
 40
1.0
 40
1.0
 10
180.722498996189
 20
125.321139424033
 30
0.0
 10
180.7540773003832
 20
124.9547700843237
 30
0.0
 10
180.8211571400358
 20
124.1765143423363
 30
0.0
 10
180.9599312680257
 20
123.2727034348514
 30
0.0
 10
181.0333765035996
 20
122.7943678403423
 30
0.0
  0
SPLINE
  5
127
330
1F
100
AcDbEntity
  8
0
  6
Continuous
 62
     7
370
    25
100
AcDbSpline
210
0.0
220
0.0
230
1.0
 70
     8
 71
     3
 72
    21
 73
    17
 74
     0
 42
0.00000001
 43
0.00000001
 40
0.0
 40
0.0
 40
0.0
 40
0.0
 40
0.0618219174486016
 40
0.2422281542864542
 40
0.3986210508170889
 40
0.5351949146223469
 40
0.6137760576786707
 40
0.6717112954309243
 40
0.72600368243353
 40
0.7766459518846719
 40
0.8251360826628522
 40
0.8765033291807811
 40
0.9108541901337548
 40
0.9442044995440387
 40
0.977690175903283
 40
1.0
 40
1.0
 40
1.0
 40
1.0
 10
181.0486419119306
 20
122.8068400325164
 30
0.0
 10
181.0806157884107
 20
122.5586170525527
 30
0.0
 10
181.2058945472194
 20
121.5860397406621
 30
0.0
 10
181.4299814458463
 20
120.0409960860936
 30
0.0
 10
181.8063434103502
 20
118.0756882699229
 30
0.0
 10
182.2311727590302
 20
116.517945751486
 30
0.0
 10
182.6786587147936
 20
115.3176858992388
 30
0.0
 10
182.9823708689583
 20
114.5630021194533
 30
0.0
 10
183.3864189540911
 20
113.7349016998774
 30
0.0
 10
183.9425020919607
 20
112.9266515140743
 30
0.0
 10
184.6797111936655
 20
112.1589528150875
 30
0.0
 10
185.5204344810198
 20
111.5369627175338
 30
0.0
 10
186.3792664054225
 20
111.0484904880584
 30
0.0
 10
187.269579793317
 20
110.650511242508
 30
0.0
 10
188.1474321704505
 20
110.3500798674492
 30
0.0
 10
188.7874873324103
 20
110.1992681927606
 30
0.0
 10
189.0434133113661
 20
110.1389661629099
 30
0.0
  0
SPLINE
  5
128
330
1F
100
AcDbEntity
  8
0
  6
Continuous
 62
     7
370
    25
100
AcDbSpline
210
0.0
220
0.0
230
1.0
 70
     8
 71
     3
 72
    22
 73
    18
 74
     0
 42
0.00000001
 43
0.00000001
 40
0.0
 40
0.0
 40
0.0
 40
0.0
 40
0.0088067593695578
 40
0.0459532461751461
 40
0.0766982416533814
 40
0.1092615252272825
 40
0.1418663742975394
 40
0.1906944804592502
 40
0.2407084450967675
 40
0.2920510021008652
 40
0.3458882453459791
 40
0.4035393150824141
 40
0.4839686062547975
 40
0.6206472028429498
 40
0.7712094261079951
 40
0.9513156884117215
 40
1.0
 40
1.0
 40
1.0
 40
1.0
 10
225.5974577454246
 20
110.125759564805
 30
0.0
 10
225.7017530127333
 20
110.1483036980839
 30
0.0
 10
226.2459606937228
 20
110.2659378995987
 30
0.0
 10
227.0232961747665
 20
110.5129983204273
 30
0.0
 10
227.9748958552388
 20
110.8881537935375
 30
0.0
 10
228.7084858619497
 20
111.2741608649949
 30
0.0
 10
229.4957538227931
 20
111.7693592883306
 30
0.0
 10
230.2580235891338
 20
112.4009723059976
 30
0.0
 10
230.9348335488771
 20
113.1838593853035
 30
0.0
 10
231.4354969466173
 20
114.0001114378703
 30
0.0
 10
231.7871469641508
 20
114.7870559289702
 30
0.0
 10
232.0899746774858
 20
115.5415173240483
 30
0.0
 10
232.5177283243161
 20
116.7525609339043
 30
0.0
 10
232.9198862791416
 20
118.2902317835502
 30
0.0
 10
233.2762304361148
 20
120.230936326776
 30
0.0
 10
233.4901793465068
 20
121.6871944190207
 30
0.0
 10
233.6052316678057
 20
122.6164409706311
 30
0.0
 10
233.6297136338403
 20
122.8141752036957
 30
0.0
  0
LINE
  5
129
330
1F
100
AcDbEntity
  8
0
  6
Continuous
 62
     7
370
    25
100
AcDbLine
 10
134.5929561496
 20
193.4325648354
 30
0.0
 11
280.0856493392
 21
193.4325648354
 31
0.0
  0
SPLINE
  5
12A
330
1F
100
AcDbEntity
  8
0
  6
Continuous
 62
     7
370
    25
100
AcDbSpline
210
0.0
220
0.0
230
1.0
 70
     8
 71
     3
 72
    21
 73
    17
 74
     0
 42
0.00000001
 43
0.00000001
 40
0.0
 40
0.0
 40
0.0
 40
0.0
 40
0.0716482234534367
 40
0.143296442255043
 40
0.2149446963988692
 40
0.2865929479423884
 40
0.358240609631252
 40
0.4298882719111015
 40
0.5015356861500905
 40
0.5731831039121588
 40
0.6448309502590023
 40
0.716478801516948
 40
0.7881275701510901
 40
0.8597763429321376
 40
0.9314261198435005
 40
1.0
 40
1.0
 40
1.0
 40
1.0
 10
199.2914012578377
 20
186.0882105055746
 30
0.0
 10
199.7681645962837
 20
186.0905376228866
 30
0.0
 10
200.7216912422215
 20
186.0951918573595
 30
0.0
 10
202.3984540997569
 20
186.1004231626992
 30
0.0
 10
204.2016237482038
 20
186.1041241925415
 30
0.0
 10
206.0965110407981
 20
186.1061420901301
 30
0.0
 10
208.0261980383826
 20
186.1063795509367
 30
0.0
 10
209.9370996514184
 20
186.1048938377591
 30
0.0
 10
211.7726597817357
 20
186.1016578194265
 30
0.0
 10
213.4849515799667
 20
186.0968315436928
 30
0.0
 10
215.0193279306694
 20
186.0904881123483
 30
0.0
 10
216.3396900531935
 20
186.0828650324142
 30
0.0
 10
217.4011884898183
 20
186.0741294189035
 30
0.0
 10
218.1759177558521
 20
186.064568727491
 30
0.0
 10
218.6559792505676
 20
186.0545713972148
 30
0.0
 10
218.7101705439639
 20
186.0477761852079
 30
0.0
 10
218.7366718300991
 20
186.0444531078931
 30
0.0
  0
SPLINE
  5
12B
330
1F
100
AcDbEntity
  8
0
  6
Continuous
 62
     7
370
    25
100
AcDbSpline
210
0.0
220
0.0
230
1.0
 70
     8
 71
     3
 72
    12
 73
     8
 74
     0
 42
0.00000001
 43
0.00000001
 40
0.0
 40
0.0
 40
0.0
 40
0.0
 40
0.0899778999047686
 40
0.3042304102582395
 40
0.5184835980796125
 40
0.7327367751451733
 40
1.0
 40
1.0
 40
1.0
 40
1.0
 10
195.9753954299425
 20
186.0444587347604
 30
0.0
 10
195.9661450023722
 20
186.0459158919004
 30
0.0
 10
195.9348677512054
 20
186.0508427852263
 30
0.0
 10
196.2181701544037
 20
186.0591824201965
 30
0.0
 10
196.8240316211358
 20
186.0690654081408
 30
0.0
 10
197.797938036556
 20
186.0791249752377
 30
0.0
 10
198.7583368121064
 20
186.0849675913038
 30
0.0
 10
199.2914012578377
 20
186.0882105055746
 30
0.0
  0
LINE
  5
12C
330
1F
100
AcDbEntity
  8
0
  6
Continuous
 62
     7
370
    25
100
AcDbLine
 10
281.5746976966
 20
193.4325648354
 30
0.0
 11
281.4363159103
 21
188.1478377849
 31
0.0
  0
LINE
  5
12D
330
1F
100
AcDbEntity
  8
0
  6
Continuous
 62
     7
370
    25
100
AcDbLine
 10
280.0856493392
 20
193.4325648354
 30
0.0
 11
281.5746976966
 21
193.4325648354
 31
0.0
  0
LINE
  5
12E
330
1F
100
AcDbEntity
  8
0
  6
Continuous
 62
     7
370
    25
100
AcDbLine
 10
133.1039077924
 20
193.4325648354
 30
0.0
 11
133.2422895788
 21
188.1478377849
 31
0.0
  0
LINE
  5
12F
330
1F
100
AcDbEntity
  8
0
  6
Continuous
 62
     7
370
    25
100
AcDbLine
 10
134.5929561496
 20
193.4325648354
 30
0.0
 11
133.1039077924
 21
193.4325648354
 31
0.0
  0
LINE
  5
130
330
1F
100
AcDbEntity
  8
0
  6
Continuous
 62
     7
370
    25
100
AcDbLine
 10
281.8393027499
 20
193.4325648354
 30
0.0
 11
281.5746976966
 21
193.4325648354
 31
0.0
  0
LINE
  5
131
330
1F
100
AcDbEntity
  8
0
  6
Continuous
 62
     7
370
    25
100
AcDbLine
 10
132.8393027499
 20
193.4325648354
 30
0.0
 11
133.1039077924
 21
193.4325648354
 31
0.0
  0
SPLINE
  5
132
330
1F
100
AcDbEntity
  8
0
  6
Continuous
 62
     7
370
    25
100
AcDbSpline
210
0.0
220
0.0
230
1.0
 70
     8
 71
     3
 72
    10
 73
     6
 74
     0
 42
0.00000001
 43
0.00000001
 40
0.0
 40
0.0
 40
0.0
 40
0.0
 40
0.4154174914170184
 40
0.8827627414981196
 40
1.0
 40
1.0
 40
1.0
 40
1.0
 10
232.3278274552359
 20
151.5621681226366
 30
0.0
 10
232.3228378337098
 20
151.5231093397522
 30
0.0
 10
232.3122348810937
 20
151.4401093723193
 30
0.0
 10
232.2131686070618
 20
151.3383717377858
 30
0.0
 10
232.1004578596418
 20
151.2591469307297
 30
0.0
 10
232.077853866472
 20
151.2432584991597
 30
0.0
  0
SPLINE
  5
133
330
1F
100
AcDbEntity
  8
0
  6
Continuous
 62
     7
370
    25
100
AcDbSpline
210
0.0
220
0.0
230
1.0
 70
     8
 71
     3
 72
    12
 73
     8
 74
     0
 42
0.00000001
 43
0.00000001
 40
0.0
 40
0.0
 40
0.0
 40
0.0
 40
0.0590164770207191
 40
0.2640843305744908
 40
0.4795694104902692
 40
0.7200700084249266
 40
1.0
 40
1.0
 40
1.0
 40
1.0
 10
233.0472951382626
 20
132.4863170169508
 30
0.0
 10
233.00415138311
 20
132.7629399647654
 30
0.0
 10
232.8110936088557
 20
134.0007601411464
 30
0.0
 10
232.6098842062847
 20
136.2755383257805
 30
0.0
 10
232.4332972590641
 20
139.4245262329402
 30
0.0
 10
232.3591486836711
 20
142.9465560758665
 30
0.0
 10
232.348349309943
 20
145.4434830452595
 30
0.0
 10
232.3425405264902
 20
146.7865338950649
 30
0.0
  0
LINE
  5
134
330
1F
100
AcDbEntity
  8
0
  6
Continuous
 62
     7
370
    25
100
AcDbLine
 10
233.9102239268
 20
127.604684045
 30
0.0
 11
233.8830251617
 21
127.7389687883
 31
0.0
  0
SPLINE
  5
135
330
1F
100
AcDbEntity
  8
0
  6
Continuous
 62
     7
370
    25
100
AcDbSpline
210
0.0
220
0.0
230
1.0
 70
     8
 71
     3
 72
    18
 73
    14
 74
     0
 42
0.00000001
 43
0.00000001
 40
0.0
 40
0.0
 40
0.0
 40
0.0
 40
0.2500000000000007
 40
0.2500000000000007
 40
0.3750000000000006
 40
0.3750000000000006
 40
0.5000000000000004
 40
0.5000000000000004
 40
0.7500000000000002
 40
0.7500000000000002
 40
0.8750000000000001
 40
0.8750000000000001
 40
1.0
 40
1.0
 40
1.0
 40
1.0
 10
207.3389665093528
 20
144.9460257961792
 30
0.0
 10
208.72656946523
 20
144.9489233950287
 30
0.0
 10
210.0955192563159
 20
145.0194844046727
 30
0.0
 10
212.1287229529282
 20
145.1986765365521
 30
0.0
 10
212.8039957995232
 20
145.2694969435587
 30
0.0
 10
214.1471846354799
 20
145.4289212330438
 30
0.0
 10
214.8066593476231
 20
145.5196320162158
 30
0.0
 10
216.7450706201772
 20
145.8280760574749
 30
0.0
 10
217.9858954960489
 20
146.0803956862125
 30
0.0
 10
219.7726632445026
 20
146.5264562929609
 30
0.0
 10
220.3575067365943
 20
146.6869803088301
 30
0.0
 10
221.4917420220598
 20
147.0276667611115
 30
0.0
 10
222.0412802188584
 20
147.207744311225
 30
0.0
 10
222.5736369408813
 20
147.397335815443
 30
0.0
  0
SPLINE
  5
136
330
1F
100
AcDbEntity
  8
0
  6
Continuous
 62
     7
370
    25
100
AcDbSpline
210
0.0
220
0.0
230
1.0
 70
     8
 71
     3
 72
     8
 73
     4
 74
     0
 42
0.00000001
 43
0.00000001
 40
0.0
 40
0.0
 40
0.0
 40
0.0
 40
1.0
 40
1.0
 40
1.0
 40
1.0
 10
222.5736369408813
 20
147.397335815443
 30
0.0
 10
222.6965531209598
 20
147.4411107177027
 30
0.0
 10
222.8183639641645
 20
147.4850265033811
 30
0.0
 10
222.9390841016105
 20
147.5290644905327
 30
0.0
  0
SPLINE
  5
137
330
1F
100
AcDbEntity
  8
0
  6
Continuous
 62
     7
370
    25
100
AcDbSpline
210
0.0
220
0.0
230
1.0
 70
     8
 71
     3
 72
    18
 73
    14
 74
     0
 42
0.00000001
 43
0.00000001
 40
0.0
 40
0.0
 40
0.0
 40
0.0
 40
0.2500000000000007
 40
0.2500000000000007
 40
0.5000000000000014
 40
0.5000000000000014
 40
0.625000000000001
 40
0.625000000000001
 40
0.7500000000000006
 40
0.7500000000000006
 40
0.8750000000000003
 40
0.8750000000000003
 40
1.0
 40
1.0
 40
1.0
 40
1.0
 10
192.1049685614301
 20
147.397335815443
 30
0.0
 10
193.171001796838
 20
147.0176827815041
 30
0.0
 10
194.2957264614762
 20
146.6795010224615
 30
0.0
 10
196.6637605405626
 20
146.0869293087738
 30
0.0
 10
197.9071254031927
 20
145.8325785337299
 30
0.0
 10
199.8695569083681
 20
145.5198639071492
 30
0.0
 10
200.530197748837
 20
145.4291416140572
 30
0.0
 10
201.8625529195982
 20
145.2708535113532
 30
0.0
 10
202.5328963647128
 20
145.2004042712603
 30
0.0
 10
203.8838278393519
 20
145.0808878666945
 30
0.0
 10
204.5647779163061
 20
145.0325763527395
 30
0.0
 10
205.9410855856784
 20
144.9660240990915
 30
0.0
 10
206.6371011829464
 20
144.9474928388522
 30
0.0
 10
207.3396389927401
 20
144.9460257961792
 30
0.0
  0
LINE
  5
138
330
1F
100
AcDbEntity
  8
0
  6
Continuous
 62
     7
370
    25
100
AcDbLine
 10
180.7680021255
 20
127.6028106363
 30
0.0
 11
180.7955803411
 21
127.7389687885
 31
0.0
  0
SPLINE
  5
139
330
1F
100
AcDbEntity
  8
0
  6
Continuous
 62
     7
370
    25
100
AcDbSpline
210
0.0
220
0.0
230
1.0
 70
     8
 71
     3
 72
    12
 73
     8
 74
     0
 42
0.00000001
 43
0.00000001
 40
0.0
 40
0.0
 40
0.0
 40
0.0
 40
0.0590164762406824
 40
0.2640843299644468
 40
0.4795694100588529
 40
0.7200700081928757
 40
1.0
 40
1.0
 40
1.0
 40
1.0
 10
181.6313103665532
 20
132.4863170286177
 30
0.0
 10
181.6744541210874
 20
132.7629399725495
 30
0.0
 10
181.86751189468
 20
134.0007601450566
 30
0.0
 10
182.068721296748
 20
136.2755383257893
 30
0.0
 10
182.2453082440504
 20
139.4245262329376
 30
0.0
 10
182.3194568194405
 20
142.9465560758673
 30
0.0
 10
182.3302561931806
 20
145.4434830452598
 30
0.0
 10
182.33606497664
 20
146.7865338950649
 30
0.0
  0
SPLINE
  5
13A
330
1F
100
AcDbEntity
  8
0
  6
Continuous
 62
     7
370
    25
100
AcDbSpline
210
0.0
220
0.0
230
1.0
 70
     8
 71
     3
 72
    10
 73
     6
 74
     0
 42
0.00000001
 43
0.00000001
 40
0.0
 40
0.0
 40
0.0
 40
0.0
 40
0.4154174911978708
 40
0.8827627413591242
 40
1.0
 40
1.0
 40
1.0
 40
1.0
 10
182.3507780479157
 20
151.5621681225537
 30
0.0
 10
182.3557676694193
 20
151.5231093396965
 30
0.0
 10
182.3663706219917
 20
151.4401093722911
 30
0.0
 10
182.465436895973
 20
151.3383717377718
 30
0.0
 10
182.5781476433904
 20
151.2591469306985
 30
0.0
 10
182.6007516365781
 20
151.2432584991122
 30
0.0
  0
SPLINE
  5
13B
330
1F
100
AcDbEntity
  8
0
  6
Continuous
 62
     7
370
    25
100
AcDbSpline
210
0.0
220
0.0
230
1.0
 70
     8
 71
     3
 72
     8
 73
     4
 74
     0
 42
0.00000001
 43
0.00000001
 40
0.0
 40
0.0
 40
0.0
 40
0.0
 40
1.0
 40
1.0
 40
1.0
 40
1.0
 10
191.7395214010261
 20
147.5290644904184
 30
0.0
 10
191.8602729548092
 20
147.4850150427735
 30
0.0
 10
191.9820844568669
 20
147.4410992944517
 30
0.0
 10
192.1049685614301
 20
147.397335815443
 30
0.0
  0
SPLINE
  5
13C
330
1F
100
AcDbEntity
  8
0
  6
Continuous
 62
     7
370
    25
100
AcDbSpline
210
0.0
220
0.0
230
1.0
 70
     8
 71
     3
 72
    23
 73
    19
 74
     0
 42
0.00000001
 43
0.00000001
 40
0.0
 40
0.0
 40
0.0
 40
0.0
 40
0.1035767904088359
 40
0.2074702547311358
 40
0.3120718319752157
 40
0.4151623796025209
 40
0.4669518249847889
 40
0.5179420996541808
 40
0.569735261889337
 40
0.6215315253471442
 40
0.6733320461061073
 40
0.7251429569569057
 40
0.7776458809586482
 40
0.8293540351809661
 40
0.8812049052961971
 40
0.933236212409792
 40
0.9851442557296798
 40
0.9999999999999999
 40
0.9999999999999999
 40
0.9999999999999999
 40
0.9999999999999999
 10
207.3392737773094
 20
109.1581894233077
 30
0.0
 10
206.6867102676091
 20
109.1584503412383
 30
0.0
 10
205.3795881116573
 20
109.1589729748256
 30
0.0
 10
203.4135363958136
 20
109.1649333849343
 30
0.0
 10
201.451052413874
 20
109.1790091487155
 30
0.0
 10
199.8183742856953
 20
109.2021848911358
 30
0.0
 10
198.5257370065445
 20
109.2304274583679
 30
0.0
 10
197.5573206365809
 20
109.2576528828063
 30
0.0
 10
196.592252797493
 20
109.2921481929814
 30
0.0
 10
195.6272608587988
 20
109.3356108919318
 30
0.0
 10
194.6696250779318
 20
109.3895277033296
 30
0.0
 10
193.7192237487819
 20
109.4563368681066
 30
0.0
 10
192.7859777286811
 20
109.537805169845
 30
0.0
 10
191.876897943193
 20
109.6363224620058
 30
0.0
 10
191.0017859370097
 20
109.7529307409569
 30
0.0
 10
190.1745162948845
 20
109.8915745557119
 30
0.0
 10
189.5719256318651
 20
110.0093341686983
 30
0.0
 10
189.2715023637917
 20
110.0865658604228
 30
0.0
 10
189.204654579919
 20
110.1037508390352
 30
0.0
  0
SPLINE
  5
13D
330
1F
100
AcDbEntity
  8
0
  6
Continuous
 62
     7
370
    25
100
AcDbSpline
210
0.0
220
0.0
230
1.0
 70
     8
 71
     3
 72
    23
 73
    19
 74
     0
 42
0.00000001
 43
0.00000001
 40
0.0
 40
0.0
 40
0.0
 40
0.0
 40
0.104098419494855
 40
0.20851510772305
 40
0.3136434750416109
 40
0.4172532029594404
 40
0.4693034681735799
 40
0.5205505379248297
 40
0.5726045387105156
 40
0.6246616563370998
 40
0.6767230527052818
 40
0.7287948914914429
 40
0.7815622285161453
 40
0.8335307931752051
 40
0.8856427924669699
 40
0.9379361374663377
 40
0.9901055978960542
 40
0.9999999999999999
 40
0.9999999999999999
 40
0.9999999999999999
 40
0.9999999999999999
 10
207.3393317282944
 20
109.1581894233077
 30
0.0
 10
207.9918952380117
 20
109.1584503412334
 30
0.0
 10
209.2990173939977
 20
109.1589729748108
 30
0.0
 10
211.2650691095825
 20
109.1649333849941
 30
0.0
 10
213.2275530925028
 20
109.1790091484912
 30
0.0
 10
214.8602312176501
 20
109.2021848917865
 30
0.0
 10
216.1528685029459
 20
109.2304274572416
 30
0.0
 10
217.1212848542946
 20
109.2576528870581
 30
0.0
 10
218.0863527640846
 20
109.2921481768002
 30
0.0
 10
219.0513444378609
 20
109.3356109523046
 30
0.0
 10
220.0089812074413
 20
109.389527477982
 30
0.0
 10
220.959378829438
 20
109.4563377140479
 30
0.0
 10
221.892638793305
 20
109.5378019863177
 30
0.0
 10
222.8016671112773
 20
109.6363341515403
 30
0.0
 10
223.6769712930436
 20
109.7528868956485
 30
0.0
 10
224.5035213749962
 20
109.8917386486629
 30
0.0
 10
225.0826515611429
 20
110.0039653298639
 30
0.0
 10
225.3612526003633
 20
110.0751906694232
 30
0.0
 10
225.4056679911574
 20
110.0865456209331
 30
0.0
  0
ARC
  5
13E
330
1F
100
AcDbEntity
  8
0
  6
Continuous
 62
     7
370
    25
100
AcDbCircle
 10
207.3393027517
 20
204.3683418263
 30
0.0
 40
57.08515185494038
100
AcDbArc
 50
266.3760808879
 51
273.6239191121
  0
SPLINE
  5
13F
330
1F
100
AcDbEntity
  8
0
  6
Continuous
 62
     7
370
    25
100
AcDbSpline
210
0.0
220
0.0
230
1.0
 70
     8
 71
     3
 72
    24
 73
    20
 74
     0
 42
0.00000001
 43
0.00000001
 40
0.0
 40
0.0
 40
0.0
 40
0.0
 40
0.2500000000000008
 40
0.2500000000000008
 40
0.3125000000000003
 40
0.3125000000000003
 40
0.3749999999999998
 40
0.3749999999999998
 40
0.4999999999999989
 40
0.4999999999999989
 40
0.624999999999998
 40
0.624999999999998
 40
0.6874999999999974
 40
0.6874999999999974
 40
0.7499999999999969
 40
0.7499999999999969
 40
0.8749999999999984
 40
0.8749999999999984
 40
1.0
 40
1.0
 40
1.0
 40
1.0
 10
210.9474929375408
 20
147.397335815443
 30
0.0
 10
212.8999831184645
 20
147.521478442369
 30
0.0
 10
214.7770869952488
 20
147.7416105697045
 30
0.0
 10
217.0307684075189
 20
148.1142244017019
 30
0.0
 10
217.4767995016657
 20
148.1936381305625
 30
0.0
 10
218.3591981176042
 20
148.3617367720659
 30
0.0
 10
218.7960710613144
 20
148.4505733742514
 30
0.0
 10
220.0733878783844
 20
148.7260435109407
 30
0.0
 10
220.8869163720856
 20
148.9227398300698
 30
0.0
 10
222.4387018392003
 20
149.3344325035002
 30
0.0
 10
223.1769729439071
 20
149.5494506264623
 30
0.0
 10
224.2255613655806
 20
149.8800402386572
 30
0.0
 10
224.5663433919285
 20
149.9919548470427
 30
0.0
 10
225.2221884556728
 20
150.2156940333753
 30
0.0
 10
225.5359000207403
 20
150.3270204401565
 30
0.0
 10
226.4350748979486
 20
150.6578012709069
 30
0.0
 10
226.9787732201454
 20
150.8740569898309
 30
0.0
 10
227.9535926541832
 20
151.2899596033024
 30
0.0
 10
228.3847690872226
 20
151.4896365469691
 30
0.0
 10
228.7556969153046
 20
151.6768288806445
 30
0.0
  0
SPLINE
  5
140
330
1F
100
AcDbEntity
  8
0
  6
Continuous
 62
     7
370
    25
100
AcDbSpline
210
0.0
220
0.0
230
1.0
 70
     8
 71
     3
 72
    24
 73
    20
 74
     0
 42
0.00000001
 43
0.00000001
 40
0.0
 40
0.0
 40
0.0
 40
0.0
 40
0.1249999999999999
 40
0.1249999999999999
 40
0.2499999999999998
 40
0.2499999999999998
 40
0.3749999999999997
 40
0.3749999999999997
 40
0.4999999999999996
 40
0.4999999999999996
 40
0.5624999999999996
 40
0.5624999999999996
 40
0.6249999999999997
 40
0.6249999999999997
 40
0.7499999999999998
 40
0.7499999999999998
 40
0.8749999999999999
 40
0.8749999999999999
 40
1.0
 40
1.0
 40
1.0
 40
1.0
 10
185.9229085886021
 20
151.6768288806445
 30
0.0
 10
186.2931330502489
 20
151.4899915076584
 30
0.0
 10
186.7236441165637
 20
151.2905819175605
 30
0.0
 10
187.6976619607362
 20
150.8749447380028
 30
0.0
 10
188.241219649431
 20
150.6586875760504
 30
0.0
 10
189.4407718035229
 20
150.2173342784822
 30
0.0
 10
190.1007874638937
 20
149.9911773689336
 30
0.0
 10
191.4948410898561
 20
149.5515115447578
 30
0.0
 10
192.2324429189537
 20
149.3365167951975
 30
0.0
 10
193.397983882013
 20
149.0271390145493
 30
0.0
 10
193.7963873193373
 20
148.9261984058716
 30
0.0
 10
194.6130717901363
 20
148.7296877711321
 30
0.0
 10
195.0324450855208
 20
148.6338843950539
 30
0.0
 10
196.3132785136369
 20
148.3577217776329
 30
0.0
 10
197.1898639791697
 20
148.1901190644798
 30
0.0
 10
198.9864176961361
 20
147.8927359726263
 30
0.0
 10
199.9063940924861
 20
147.7629430202512
 30
0.0
 10
201.7899151853734
 20
147.5462552139741
 30
0.0
 10
202.7564348711823
 20
147.4593074712305
 30
0.0
 10
203.7311125658324
 20
147.397335815443
 30
0.0
  0
SPLINE
  5
141
330
1F
100
AcDbEntity
  8
0
  6
Continuous
 62
     7
370
    25
100
AcDbSpline
210
0.0
220
0.0
230
1.0
 70
     8
 71
     3
 72
    10
 73
     6
 74
     0
 42
0.00000001
 43
0.00000001
 40
0.0
 40
0.0
 40
0.0
 40
0.0
 40
0.4634034854618042
 40
0.7304733981269642
 40
1.0
 40
1.0
 40
1.0
 40
1.0
 10
184.5311328048984
 20
152.5512110824598
 30
0.0
 10
184.603346534632
 20
152.4521400990382
 30
0.0
 10
184.7171786705673
 20
152.2959722664989
 30
0.0
 10
185.279190771703
 20
151.9787272503139
 30
0.0
 10
185.7076820652314
 20
151.7777683525831
 30
0.0
 10
185.9229085886021
 20
151.6768288806445
 30
0.0
  0
SPLINE
  5
142
330
1F
100
AcDbEntity
  8
0
  6
Continuous
 62
     7
370
    25
100
AcDbSpline
210
0.0
220
0.0
230
1.0
 70
     8
 71
     3
 72
    10
 73
     6
 74
     0
 42
0.00000001
 43
0.00000001
 40
0.0
 40
0.0
 40
0.0
 40
0.0
 40
0.4763761665137187
 40
0.9671947669691615
 40
0.9999999999999999
 40
0.9999999999999999
 40
0.9999999999999999
 40
0.9999999999999999
 10
228.7556969153047
 20
151.6768288806445
 30
0.0
 10
229.1062771180248
 20
151.8485086202572
 30
0.0
 10
229.8180661648098
 20
152.1970729637743
 30
0.0
 10
230.2131660467234
 20
152.4692786438688
 30
0.0
 10
230.1616693908657
 20
152.5497377338846
 30
0.0
 10
230.1584431057204
 20
152.5547785265847
 30
0.0
  0
LINE
  5
143
330
1F
100
AcDbEntity
  8
0
  6
Continuous
 62
     7
370
    25
100
AcDbLine
 10
228.7556969153
 20
151.6768288806
 30
0.0
 11
231.3699643578
 21
151.6768288806
 31
0.0
  0
SPLINE
  5
144
330
1F
100
AcDbEntity
  8
0
  6
Continuous
 62
     7
370
    25
100
AcDbSpline
210
0.0
220
0.0
230
1.0
 70
     8
 71
     3
 72
    18
 73
    14
 74
     0
 42
0.00000001
 43
0.00000001
 40
0.0
 40
0.0
 40
0.0
 40
0.0
 40
0.1250000000000016
 40
0.1250000000000016
 40
0.2500000000000032
 40
0.2500000000000032
 40
0.5000000000000063
 40
0.5000000000000063
 40
0.6250000000000057
 40
0.6250000000000057
 40
0.750000000000005
 40
0.750000000000005
 40
1.0
 40
1.0
 40
1.0
 40
1.0
 10
231.3699643578369
 20
151.6768288806444
 30
0.0
 10
231.1907926273455
 20
151.5465510601447
 30
0.0
 10
230.9875679876743
 20
151.4075019259793
 30
0.0
 10
230.5328963329777
 20
151.1129359307134
 30
0.0
 10
230.2802485278519
 20
150.9567314763262
 30
0.0
 10
229.4601542937989
 20
150.4718788083329
 30
0.0
 10
228.8307119339148
 20
150.1265246203951
 30
0.0
 10
227.7668435495621
 20
149.5869156210797
 30
0.0
 10
227.3921579095618
 20
149.4034447386582
 30
0.0
 10
226.6020573276817
 20
149.0312923568922
 30
0.0
 10
226.1853404826279
 20
148.8420487615665
 30
0.0
 10
224.8822254755735
 20
148.2742068751016
 30
0.0
 10
223.9460020088329
 20
147.8964088723747
 30
0.0
 10
222.9395762170811
 20
147.5293097696319
 30
0.0
  0
SPLINE
  5
145
330
1F
100
AcDbEntity
  8
0
  6
Continuous
 62
     7
370
    25
100
AcDbSpline
210
0.0
220
0.0
230
1.0
 70
     8
 71
     3
 72
    16
 73
    12
 74
     0
 42
0.00000001
 43
0.00000001
 40
0.0
 40
0.0
 40
0.0
 40
0.0
 40
0.2499999999999999
 40
0.2499999999999999
 40
0.4999999999999998
 40
0.4999999999999998
 40
0.6249999999999999
 40
0.6249999999999999
 40
0.7500000000000001
 40
0.7500000000000001
 40
1.0
 40
1.0
 40
1.0
 40
1.0
 10
191.7390292852422
 20
147.5293097696319
 30
0.0
 10
190.729729354426
 20
147.8974572297325
 30
0.0
 10
189.7966107517964
 20
148.2742664528617
 30
0.0
 10
188.0723931573097
 20
149.0252879033214
 30
0.0
 10
187.2813285968367
 20
149.3996085140689
 30
0.0
 10
186.2035076673122
 20
149.9460818406444
 30
0.0
 10
185.8632398792057
 20
150.125413443805
 30
0.0
 10
185.2309097172965
 20
150.4709889872466
 30
0.0
 10
184.9372807110331
 20
150.6380178824156
 30
0.0
 10
184.123375281709
 20
151.1194947257083
 30
0.0
 10
183.6695995582882
 20
151.414371877796
 30
0.0
 10
183.3086411450081
 20
151.6768288806445
 30
0.0
  0
LINE
  5
146
330
1F
100
AcDbEntity
  8
0
  6
Continuous
 62
     7
370
    25
100
AcDbLine
 10
183.308641145
 20
151.6768288806
 30
0.0
 11
185.9229085886
 21
151.6768288806
 31
0.0
  0
SPLINE
  5
147
330
1F
100
AcDbEntity
  8
0
  6
Continuous
 62
     7
370
    25
100
AcDbSpline
210
0.0
220
0.0
230
1.0
 70
     8
 71
     3
 72
    13
 73
     9
 74
     0
 42
0.00000001
 43
0.00000001
 40
0.0
 40
0.0
 40
0.0
 40
0.0
 40
0.1963254187801779
 40
0.3966148102277656
 40
0.6311713740180581
 40
0.8724749123551079
 40
0.9545395444968441
 40
1.0
 40
1.0
 40
1.0
 40
1.0
 10
231.3699643578369
 20
151.6768288806445
 30
0.0
 10
231.6356920504274
 20
151.8562185440149
 30
0.0
 10
232.1725126976154
 20
152.2186198965069
 30
0.0
 10
232.4258944490865
 20
152.5909275588033
 30
0.0
 10
232.1570435853299
 20
152.8256241826074
 30
0.0
 10
231.3924687024825
 20
152.8976404397778
 30
0.0
 10
230.6846140254163
 20
152.9179842601716
 30
0.0
 10
230.3909087177631
 20
152.9203103948323
 30
0.0
 10
230.2862079305204
 20
152.921139621012
 30
0.0
  0
SPLINE
  5
148
330
1F
100
AcDbEntity
  8
0
  6
Continuous
 62
     7
370
    25
100
AcDbSpline
210
0.0
220
0.0
230
1.0
 70
     8
 71
     3
 72
    18
 73
    14
 74
     0
 42
0.00000001
 43
0.00000001
 40
0.0
 40
0.0
 40
0.0
 40
0.0
 40
0.2499999999999977
 40
0.2499999999999977
 40
0.3749999999999966
 40
0.3749999999999966
 40
0.4999999999999954
 40
0.4999999999999954
 40
0.7499999999999978
 40
0.7499999999999978
 40
0.8749999999999989
 40
0.8749999999999989
 40
1.0
 40
1.0
 40
1.0
 40
1.0
 10
183.3086411450081
 20
151.6768288806445
 30
0.0
 10
182.9051356579614
 20
151.9312856628542
 30
0.0
 10
182.6258522311787
 20
152.1422829036524
 30
0.0
 10
182.3972320975496
 20
152.3961587986967
 30
0.0
 10
182.3529199535554
 20
152.4704236743282
 30
0.0
 10
182.3310379078821
 20
152.5995821087478
 30
0.0
 10
182.3537463305537
 20
152.6536700950123
 30
0.0
 10
182.5200745359673
 20
152.788758136508
 30
0.0
 10
182.7610592049229
 20
152.8432158057873
 30
0.0
 10
183.3194499777523
 20
152.8928106975517
 30
0.0
 10
183.5394408137841
 20
152.9039931207109
 30
0.0
 10
184.0436121003458
 20
152.9187203118227
 30
0.0
 10
184.327104120729
 20
152.9222969629373
 30
0.0
 10
184.6421027933563
 20
152.9236424716239
 30
0.0
  0
SPLINE
  5
149
330
1F
100
AcDbEntity
  8
0
  6
Continuous
 62
     8
370
    18
100
AcDbSpline
210
0.0
220
0.0
230
1.0
 70
     8
 71
     3
 72
     8
 73
     4
 74
     0
 42
0.00000001
 43
0.00000001
 40
0.0
 40
0.0
 40
0.0
 40
0.0
 40
1.0
 40
1.0
 40
1.0
 40
1.0
 10
279.9533808839235
 20
186.685863131524
 30
0.0
 10
231.5439954576272
 20
186.1871485336002
 30
0.0
 10
183.1346100313559
 20
186.1871485335995
 30
0.0
 10
134.7252246051095
 20
186.6858631315233
 30
0.0
  0
LINE
  5
14A
330
1F
100
AcDbEntity
  8
0
  6
Continuous
 62
     8
370
    18
100
AcDbLine
 10
280.2071965355
 20
186.3118721574
 30
0.0
 11
279.9533808839
 21
186.6858631315
 31
0.0
  0
SPLINE
  5
14B
330
1F
100
AcDbEntity
  8
0
  6
Continuous
 62
     8
370
    18
100
AcDbSpline
210
0.0
220
0.0
230
1.0
 70
     8
 71
     3
 72
     9
 73
     5
 74
     0
 42
0.00000001
 43
0.00000001
 40
0.0
 40
0.0
 40
0.0
 40
0.0
 40
0.9999151590204864
 40
1.0
 40
1.0
 40
1.0
 40
1.0
 10
134.7252246051087
 20
186.6858631315236
 30
0.0
 10
134.5560141542858
 20
186.4365357834555
 30
0.0
 10
134.3867893462645
 20
186.1871872804162
 30
0.0
 10
134.4714026846774
 20
186.3118629046269
 30
0.0
 10
134.4714098633559
 20
186.311873482229
 30
0.0
  0
SPLINE
  5
14C
330
1F
100
AcDbEntity
  8
0
  6
Continuous
 62
     8
370
    18
100
AcDbSpline
210
0.0
220
0.0
230
1.0
 70
     8
 71
     3
 72
    26
 73
    22
 74
     0
 42
0.00000001
 43
0.00000001
 40
0.0
 40
0.0
 40
0.0
 40
0.0
 40
0.03125
 40
0.03125
 40
0.0625
 40
0.0625
 40
0.125
 40
0.125
 40
0.25
 40
0.25
 40
0.375
 40
0.375
 40
0.5
 40
0.5
 40
0.625
 40
0.625
 40
0.75
 40
0.75
 40
0.875
 40
0.875
 40
1.0
 40
1.0
 40
1.0
 40
1.0
 10
281.4363159102604
 20
188.1478377849052
 30
0.0
 10
281.4356797023192
 20
188.1235884098147
 30
0.0
 10
281.4344504161189
 20
188.0993831361356
 30
0.0
 10
281.4308238847036
 20
188.0511120413379
 30
0.0
 10
281.4284266394886
 20
188.0270462202194
 30
0.0
 10
281.419510261577
 20
187.9551348103105
 30
0.0
 10
281.4112664866139
 20
187.907575274967
 30
0.0
 10
281.3798549627032
 20
187.7666558795737
 30
0.0
 10
281.3500070147341
 20
187.6750552301609
 30
0.0
 10
281.2736618949758
 20
187.4998251428989
 30
0.0
 10
281.226437399229
 20
187.4146952839116
 30
0.0
 10
281.1175290810849
 20
187.2565094018162
 30
0.0
 10
281.0561559888617
 20
187.1834569096314
 30
0.0
 10
280.9197213028991
 20
187.0493024227752
 30
0.0
 10
280.843994922104
 20
186.9879604030012
 30
0.0
 10
280.6847921976902
 20
186.8825062937806
 30
0.0
 10
280.6007356928234
 20
186.8376564548454
 30
0.0
 10
280.4235777068942
 20
186.7639493576197
 30
0.0
 10
280.3310805220396
 20
186.7355697795568
 30
0.0
 10
280.1446516733815
 20
186.697273037761
 30
0.0
 10
280.0498404229121
 20
186.6869615636616
 30
0.0
 10
279.9533808839243
 20
186.6858631315235
 30
0.0
  0
SPLINE
  5
14D
330
1F
100
AcDbEntity
  8
0
  6
Continuous
 62
     8
370
    18
100
AcDbSpline
210
0.0
220
0.0
230
1.0
 70
     8
 71
     3
 72
    21
 73
    17
 74
     0
 42
0.00000001
 43
0.00000001
 40
0.0
 40
0.0
 40
0.0
 40
0.0
 40
0.0527050579354681
 40
0.1061279058761819
 40
0.1602714789031549
 40
0.2151385958221045
 40
0.2707319647140958
 40
0.3270541881745356
 40
0.3841077682620475
 40
0.4418951111701173
 40
0.5004185316406372
 40
0.6190410088380138
 40
0.7500271579308149
 40
0.8150588915855166
 40
0.8983884735131795
 40
1.0
 40
1.0
 40
1.0
 40
1.0
 10
133.2422895787528
 20
188.1478377849053
 30
0.0
 10
133.2442989686122
 20
188.1073808200314
 30
0.0
 10
133.2483451142047
 20
188.0259159070161
 30
0.0
 10
133.2671074622243
 20
187.9040321140448
 30
0.0
 10
133.2955164542511
 20
187.7824328466428
 30
0.0
 10
133.3346942939889
 20
187.6620762455799
 30
0.0
 10
133.3845067879654
 20
187.5439389685957
 30
0.0
 10
133.4450483295194
 20
187.4290466429374
 30
0.0
 10
133.5162223864634
 20
187.3184575451837
 30
0.0
 10
133.5978610866286
 20
187.2132478130752
 30
0.0
 10
133.7206574897745
 20
187.0811561063945
 30
0.0
 10
133.9043813902055
 20
186.9307418880285
 30
0.0
 10
134.11797654119
 20
186.8154223635296
 30
0.0
 10
134.3194174201499
 20
186.7435281920715
 30
0.0
 10
134.5060314880342
 20
186.6980890027379
 30
0.0
 10
134.647498754746
 20
186.6901984238418
 30
0.0
 10
134.7252246051086
 20
186.6858631315243
 30
0.0
  0
SPLINE
  5
14E
330
1F
100
AcDbEntity
  8
0
  6
Continuous
 62
     8
370
    18
100
AcDbSpline
210
0.0
220
0.0
230
1.0
 70
     8
 71
     3
 72
    10
 73
     6
 74
     0
 42
0.00000001
 43
0.00000001
 40
0.0
 40
0.0
 40
0.0
 40
0.0
 40
0.4999510413260579
 40
0.9999215213106543
 40
0.9999999999999999
 40
0.9999999999999999
 40
0.9999999999999999
 40
0.9999999999999999
 10
281.4363159102601
 20
188.1478377849052
 30
0.0
 10
281.5060689520419
 20
188.0450732136871
 30
0.0
 10
281.6455777476822
 20
187.8395400756486
 30
0.0
 10
281.7123132288147
 20
187.741226626067
 30
0.0
 10
281.6910819421372
 20
187.7725048718132
 30
0.0
 10
281.6910786100564
 20
187.772509780684
 30
0.0
  0
SPLINE
  5
14F
330
1F
100
AcDbEntity
  8
0
  6
Continuous
 62
     8
370
    18
100
AcDbSpline
210
0.0
220
0.0
230
1.0
 70
     8
 71
     3
 72
     9
 73
     5
 74
     0
 42
0.00000001
 43
0.00000001
 40
0.0
 40
0.0
 40
0.0
 40
0.0
 40
0.4999510989214014
 40
1.0
 40
1.0
 40
1.0
 40
1.0
 10
132.9875268738059
 20
187.7725097572826
 30
0.0
 10
132.9981371741032
 20
187.788140355492
 30
0.0
 10
133.0193598503215
 20
187.8194046096222
 30
0.0
 10
133.1679748243212
 20
188.0383529219385
 30
0.0
 10
133.2422895787536
 20
188.1478377849052
 30
0.0
  0
LINE
  5
150
330
1F
100
AcDbEntity
  8
0
  6
Continuous
 62
     8
370
    18
100
AcDbLine
 10
207.3393027471
 20
177.7017977559
 30
0.0
 11
218.5977513708
 21
177.7017977559
 31
0.0
  0
LINE
  5
151
330
1F
100
AcDbEntity
  8
0
  6
Continuous
 62
     8
370
    18
100
AcDbLine
 10
196.0808541234
 20
177.7017977559
 30
0.0
 11
207.3393027471
 21
177.7017977559
 31
0.0
  0
LINE
  5
152
330
1F
100
AcDbEntity
  8
0
  6
Continuous
 62
     8
370
    18
100
AcDbLine
 10
218.1136488831
 20
177.2107743372
 30
0.0
 11
196.564956611
 21
177.2107743372
 31
0.0
  0
SPLINE
  5
153
330
1F
100
AcDbEntity
  8
0
  6
Continuous
 62
     8
370
    18
100
AcDbSpline
210
0.0
220
0.0
230
1.0
 70
     8
 71
     3
 72
    21
 73
    17
 74
     0
 42
0.00000001
 43
0.00000001
 40
0.0
 40
0.0
 40
0.0
 40
0.0
 40
0.0662044727179793
 40
0.1566084663048469
 40
0.2482362688672113
 40
0.306829691862667
 40
0.370008561439532
 40
0.4377812777737833
 40
0.502676631541647
 40
0.568807422281721
 40
0.6206816824043614
 40
0.6999667046508392
 40
0.7870277911822913
 40
0.8612195270217251
 40
0.9225415083792207
 40
1.0
 40
1.0
 40
1.0
 40
1.0
 10
232.077853866472
 20
151.2432584991597
 30
0.0
 10
232.0161175282208
 20
151.1974269395042
 30
0.0
 10
231.8700785545403
 20
151.0890111486771
 30
0.0
 10
231.5041209676723
 20
150.8670365745075
 30
0.0
 10
231.0614391662458
 20
150.6191087199964
 30
0.0
 10
230.5947424794734
 20
150.3719780921777
 30
0.0
 10
230.1306120244912
 20
150.1377389852964
 30
0.0
 10
229.5964745585001
 20
149.8824177992868
 30
0.0
 10
229.0000226080822
 20
149.6117383814589
 30
0.0
 10
228.403088427855
 20
149.3557941761091
 30
0.0
 10
227.713851482869
 20
149.0750891328848
 30
0.0
 10
226.8965735140687
 20
148.7624224411551
 30
0.0
 10
225.9221706366332
 20
148.4193116236264
 30
0.0
 10
224.9563368402385
 20
148.1068355812194
 30
0.0
 10
223.9867204987432
 20
147.8130832653749
 30
0.0
 10
223.3144861893535
 20
147.6309107639236
 30
0.0
 10
222.9392874708045
 20
147.5292335835943
 30
0.0
  0
SPLINE
  5
154
330
1F
100
AcDbEntity
  8
0
  6
Continuous
 62
     8
370
    18
100
AcDbSpline
210
0.0
220
0.0
230
1.0
 70
     8
 71
     3
 72
    21
 73
    17
 74
     0
 42
0.00000001
 43
0.00000001
 40
0.0
 40
0.0
 40
0.0
 40
0.0
 40
0.0229741274583578
 40
0.1717850948405711
 40
0.2656954896983141
 40
0.3555687412368989
 40
0.4401203490927746
 40
0.5011586658806213
 40
0.5616014208986061
 40
0.5924037723244457
 40
0.623935705939116
 40
0.6909843589907435
 40
0.7635174173290317
 40
0.840110202070026
 40
0.9192953855231469
 40
1.0
 40
1.0
 40
1.0
 40
1.0
 10
233.8830251617259
 20
127.7389687882959
 30
0.0
 10
233.8772853259939
 20
127.7724050211603
 30
0.0
 10
233.8343666894806
 20
128.0224187134812
 30
0.0
 10
233.5925375548202
 20
127.9528428115689
 30
0.0
 10
233.0302112808472
 20
127.632018482088
 30
0.0
 10
232.2644730352301
 20
127.104356974125
 30
0.0
 10
231.1495747938204
 20
126.4718717509558
 30
0.0
 10
229.6126878574791
 20
125.8291830952359
 30
0.0
 10
228.0402562721721
 20
125.3278848184433
 30
0.0
 10
226.5218139147765
 20
124.9417453821322
 30
0.0
 10
224.766276556519
 20
124.5633971554499
 30
0.0
 10
222.1876416482974
 20
124.1613098406105
 30
0.0
 10
218.7524423146014
 20
123.8632490806064
 30
0.0
 10
215.0673195128207
 20
123.7124507876074
 30
0.0
 10
211.2368590626153
 20
123.6675671612111
 30
0.0
 10
208.6467212342547
 20
123.667218195608
 30
0.0
 10
207.3393452941631
 20
123.6670420546983
 30
0.0
  0
SPLINE
  5
155
330
1F
100
AcDbEntity
  8
0
  6
Continuous
 62
     8
370
    18
100
AcDbSpline
210
0.0
220
0.0
230
1.0
 70
     8
 71
     3
 72
    21
 73
    17
 74
     0
 42
0.00000001
 43
0.00000001
 40
0.0
 40
0.0
 40
0.0
 40
0.0
 40
0.0229741274115343
 40
0.171785094800877
 40
0.2656954896631211
 40
0.3555687412060139
 40
0.4401203490659411
 40
0.5011586658567142
 40
0.5616014208775956
 40
0.592403772304911
 40
0.6239357059210927
 40
0.6909843589759339
 40
0.7635174173176986
 40
0.8401102020623632
 40
0.9192953855192794
 40
1.0
 40
1.0
 40
1.0
 40
1.0
 10
180.7955803410624
 20
127.7389687884942
 30
0.0
 10
180.8013201767684
 20
127.7724050212857
 30
0.0
 10
180.8442388131644
 20
128.0224187135137
 30
0.0
 10
181.0860679476251
 20
127.9528428115574
 30
0.0
 10
181.6483942213721
 20
127.6320184820904
 30
0.0
 10
182.414132466815
 20
127.1043569741245
 30
0.0
 10
183.5290307080754
 20
126.4718717509559
 30
0.0
 10
185.0659176442967
 20
125.8291830952359
 30
0.0
 10
186.6383492295267
 20
125.3278848184433
 30
0.0
 10
188.1567915868715
 20
124.9417453821322
 30
0.0
 10
189.912328945084
 20
124.5633971554499
 30
0.0
 10
192.4909638532642
 20
124.1613098406105
 30
0.0
 10
195.9261631869323
 20
123.8632490806064
 30
0.0
 10
199.6112859886995
 20
123.7124507876074
 30
0.0
 10
203.4417464389003
 20
123.6675671612111
 30
0.0
 10
206.0318842672611
 20
123.667218195608
 30
0.0
 10
207.3392602073527
 20
123.6670420546983
 30
0.0
  0
SPLINE
  5
156
330
1F
100
AcDbEntity
  8
0
  6
Continuous
 62
     8
370
    18
100
AcDbSpline
210
0.0
220
0.0
230
1.0
 70
     8
 71
     3
 72
    21
 73
    17
 74
     0
 42
0.00000001
 43
0.00000001
 40
0.0
 40
0.0
 40
0.0
 40
0.0
 40
0.0662044726752047
 40
0.1566084662336805
 40
0.248236268767269
 40
0.3068296917443232
 40
0.3700085613013464
 40
0.4377812776143148
 40
0.5026766313617987
 40
0.5688074220811038
 40
0.6206816821874537
 40
0.69996670440903
 40
0.7870277910014991
 40
0.8612195268777856
 40
0.9225415082479649
 40
1.0
 40
1.0
 40
1.0
 40
1.0
 10
182.6007516365781
 20
151.2432584991122
 30
0.0
 10
182.6624879747924
 20
151.1974269394715
 30
0.0
 10
182.8085269484138
 20
151.0890111486589
 30
0.0
 10
183.174484535191
 20
150.8670365745071
 30
0.0
 10
183.617166336556
 20
150.6191087199965
 30
0.0
 10
184.0838630232764
 20
150.3719780921777
 30
0.0
 10
184.5479934782132
 20
150.1377389852964
 30
0.0
 10
185.0821309441586
 20
149.8824177992868
 30
0.0
 10
185.6785828945313
 20
149.6117383814589
 30
0.0
 10
186.2755170747182
 20
149.3557941761091
 30
0.0
 10
186.9647540196619
 20
149.0750891328848
 30
0.0
 10
187.7820319887479
 20
148.7624224410283
 30
0.0
 10
188.7564348667772
 20
148.4193116232892
 30
0.0
 10
189.7222686640056
 20
148.1068355806356
 30
0.0
 10
190.6918850067055
 20
147.8130832644705
 30
0.0
 10
191.3641193171098
 20
147.6309107628038
 30
0.0
 10
191.7393180364716
 20
147.5292335822874
 30
0.0
  0
SPLINE
  5
157
330
1F
100
AcDbEntity
  8
0
  6
Continuous
 62
     8
370
    18
100
AcDbSpline
210
0.0
220
0.0
230
1.0
 70
     8
 71
     3
 72
    33
 73
    29
 74
     0
 42
0.00000001
 43
0.00000001
 40
0.0
 40
0.0
 40
0.0
 40
0.0
 40
0.1916756149456245
 40
0.3822977217425659
 40
0.5547112734540783
 40
0.611884227566568
 40
0.7131060328638482
 40
0.749005702449989
 40
0.7610632920024271
 40
0.8091983010514792
 40
0.8337612062684479
 40
0.839884334722693
 40
0.8521479081421955
 40
0.8708169513507193
 40
0.8832160872806928
 40
0.9224935219698173
 40
0.9371316154508723
 40
0.9520550391595707
 40
0.9670797384008999
 40
0.9823324406202405
 40
0.9838327291355836
 40
0.9914067262426695
 40
0.9959901731694011
 40
0.996453333162706
 40
0.997861761373356
 40
0.9992628762220331
 40
0.9997183944450625
 40
1.0
 40
1.0
 40
1.0
 40
1.0
 10
232.4183836773573
 20
123.647495349618
 30
0.0
 10
232.4250894107671
 20
123.6960393452259
 30
0.0
 10
232.4384640208129
 20
123.7928605237073
 30
0.0
 10
232.4547574710494
 20
123.9267614931717
 30
0.0
 10
232.4653050357293
 20
124.0249526574439
 30
0.0
 10
232.4725989799748
 20
124.1004844319881
 30
0.0
 10
232.4765060031799
 20
124.1441642235237
 30
0.0
 10
232.4792499906949
 20
124.1772411114609
 30
0.0
 10
232.4809586199216
 20
124.1984428873144
 30
0.0
 10
232.4823923426983
 20
124.2170258087309
 30
0.0
 10
232.4836435071543
 20
124.2341739643498
 30
0.0
 10
232.4843059626039
 20
124.2434869227065
 30
0.0
 10
232.4848665051997
 20
124.2515055805073
 30
0.0
 10
232.485508652039
 20
124.2608517816154
 30
0.0
 10
232.4865387769111
 20
124.2759762663546
 30
0.0
 10
232.4874805020282
 20
124.2901558688123
 30
0.0
 10
232.4885047796463
 20
124.3048046126546
 30
0.0
 10
232.4891757122257
 20
124.3142652661021
 30
0.0
 10
232.4898612641627
 20
124.3238276525182
 30
0.0
 10
232.4902994191352
 20
124.3305201122895
 30
0.0
 10
232.4905494485438
 20
124.3356169721763
 30
0.0
 10
232.4906570233243
 20
124.3384690322946
 30
0.0
 10
232.4906900725385
 20
124.3410875480837
 30
0.0
 10
232.490683999608
 20
124.342421406165
 30
0.0
 10
232.4906810386523
 20
124.3430975576047
 30
0.0
 10
232.4906811219221
 20
124.3437725387717
 30
0.0
 10
232.4906823781333
 20
124.3442147317554
 30
0.0
 10
232.490686755333
 20
124.3443679587507
 30
0.0
 10
232.4906884275674
 20
124.3444264965083
 30
0.0
  0
SPLINE
  5
158
330
1F
100
AcDbEntity
  8
0
  6
Continuous
 62
     8
370
    18
100
AcDbSpline
210
0.0
220
0.0
230
1.0
 70
     8
 71
     3
 72
    32
 73
    28
 74
     0
 42
0.00000001
 43
0.00000001
 40
0.0
 40
0.0
 40
0.0
 40
0.0
 40
0.0491653746868302
 40
0.0655535311465781
 40
0.0737475253477718
 40
0.0901341133962504
 40
0.1311054682396736
 40
0.1562981563540697
 40
0.2066986285381454
 40
0.2571105797079751
 40
0.2823200593383995
 40
0.3327421065833848
 40
0.3831751059314256
 40
0.4336230760358374
 40
0.534575412760192
 40
0.5847797987405015
 40
0.6098921189878049
 40
0.6601386411836175
 40
0.7104184774109932
 40
0.7355719297665425
 40
0.7859077050943419
 40
0.8362874394413236
 40
0.8614953131513906
 40
0.9119453491197996
 40
0.9568062611705076
 40
0.976428226748593
 40
0.9999999999999999
 40
0.9999999999999999
 40
0.9999999999999999
 40
0.9999999999999999
 10
232.4906885528966
 20
124.3444265236785
 30
0.0
 10
232.4924796776724
 20
124.3793575721309
 30
0.0
 10
232.4948678330466
 20
124.4259320889997
 30
0.0
 10
232.4968461002169
 20
124.4763471778585
 30
0.0
 10
232.4978746146836
 20
124.5040978311487
 30
0.0
 10
232.4993152532332
 20
124.5480012719195
 30
0.0
 10
232.5006216167479
 20
124.6018691106059
 30
0.0
 10
232.5017670985028
 20
124.6755987352827
 30
0.0
 10
232.5021895176337
 20
124.7524049422569
 30
0.0
 10
232.5016020981799
 20
124.8253053295739
 30
0.0
 10
232.5002772298945
 20
124.8952329462952
 30
0.0
 10
232.498176336291
 20
124.9621530752569
 30
0.0
 10
232.4943106307552
 20
125.0375363579441
 30
0.0
 10
232.487240636217
 20
125.131380032607
 30
0.0
 10
232.4771952268284
 20
125.214871295223
 30
0.0
 10
232.4654199294584
 20
125.2785752627843
 30
0.0
 10
232.4559132613479
 20
125.3205978112658
 30
0.0
 10
232.4452927933941
 20
125.3592653175706
 30
0.0
 10
232.4329618407991
 20
125.3933268259981
 30
0.0
 10
232.4193159954919
 20
125.4238948949798
 30
0.0
 10
232.4042748483229
 20
125.4509262857979
 30
0.0
 10
232.3873604820515
 20
125.4731557277634
 30
0.0
 10
232.3689049648505
 20
125.4917168495474
 30
0.0
 10
232.3497703623692
 20
125.5059219047981
 30
0.0
 10
232.3296424965395
 20
125.5150674781168
 30
0.0
 10
232.3132722280173
 20
125.519898049374
 30
0.0
 10
232.3048173081995
 20
125.5212969219844
 30
0.0
 10
232.3002032725034
 20
125.5220603175337
 30
0.0
  0
SPLINE
  5
159
330
1F
100
AcDbEntity
  8
0
  6
Continuous
 62
     8
370
    18
100
AcDbSpline
210
0.0
220
0.0
230
1.0
 70
     8
 71
     3
 72
    13
 73
     9
 74
     0
 42
0.00000001
 43
0.00000001
 40
0.0
 40
0.0
 40
0.0
 40
0.0
 40
0.1249614392912072
 40
0.2511699498689539
 40
0.5009733319528331
 40
0.7502613242886947
 40
0.8748328263259805
 40
1.0
 40
1.0
 40
1.0
 40
1.0
 10
182.1879169502807
 20
124.3444265236785
 30
0.0
 10
182.1840093277276
 20
124.4315288233976
 30
0.0
 10
182.1761550859205
 20
124.606602673203
 30
0.0
 10
182.176019816045
 20
124.9081270089284
 30
0.0
 10
182.1923843293143
 20
125.214776297583
 30
0.0
 10
182.2431228708571
 20
125.410511588317
 30
0.0
 10
182.3089997572303
 20
125.5008997489109
 30
0.0
 10
182.3552313156178
 20
125.514995587623
 30
0.0
 10
182.3784022301004
 20
125.5220603175337
 30
0.0
  0
SPLINE
  5
15A
330
1F
100
AcDbEntity
  8
0
  6
Continuous
 62
     8
370
    18
100
AcDbSpline
210
0.0
220
0.0
230
1.0
 70
     8
 71
     3
 72
     8
 73
     4
 74
     0
 42
0.00000001
 43
0.00000001
 40
0.0
 40
0.0
 40
0.0
 40
0.0
 40
1.0
 40
1.0
 40
1.0
 40
1.0
 10
182.2602551490211
 20
123.6476556245105
 30
0.0
 10
182.224865020134
 20
123.9023061514931
 30
0.0
 10
182.1999829426469
 20
124.1351824073006
 30
0.0
 10
182.1879000749302
 20
124.3443440301556
 30
0.0
  0
SPLINE
  5
15B
330
1F
100
AcDbEntity
  8
0
  6
Continuous
 62
     8
370
    18
100
AcDbSpline
210
0.0
220
0.0
230
1.0
 70
     8
 71
     3
 72
    32
 73
    28
 74
     0
 42
0.00000001
 43
0.00000001
 40
0.0
 40
0.0
 40
0.0
 40
0.0
 40
0.0156163358682832
 40
0.0376399557003699
 40
0.0603634708091047
 40
0.0827152313626631
 40
0.1051437339899608
 40
0.1275809363994038
 40
0.150019093374136
 40
0.172142840664193
 40
0.1946437450063404
 40
0.2169562382659261
 40
0.2398877154186806
 40
0.2625739778468315
 40
0.2850331935690826
 40
0.3074928364174106
 40
0.3296796128799462
 40
0.3745139391148378
 40
0.4631222182766438
 40
0.5078225002801716
 40
0.5527483487039919
 40
0.5974327463503085
 40
0.6435207042338861
 40
0.7312079247395422
 40
0.8209444645157215
 40
0.9109024664289571
 40
1.0
 40
1.0
 40
1.0
 40
1.0
 10
189.204654579919
 20
110.1037508390352
 30
0.0
 10
189.03699192765
 20
110.1445063852306
 30
0.0
 10
188.6328756959526
 20
110.2427392207866
 30
0.0
 10
188.0672097596583
 20
110.4211642545073
 30
0.0
 10
187.5041863589256
 20
110.6317911458621
 30
0.0
 10
187.012255233207
 20
110.8562078639724
 30
0.0
 10
186.5863757085154
 20
111.0883024585982
 30
0.0
 10
186.2158023628989
 20
111.3273235319683
 30
0.0
 10
185.8947243147902
 20
111.5699262642267
 30
0.0
 10
185.6130155265469
 20
111.8161403675356
 30
0.0
 10
185.3658933494598
 20
112.0642742386275
 30
0.0
 10
185.1442680812492
 20
112.3173426358516
 30
0.0
 10
184.9470828270264
 20
112.5725190334178
 30
0.0
 10
184.7714711163131
 20
112.8292188751952
 30
0.0
 10
184.6153136984904
 20
113.0848599799627
 30
0.0
 10
184.4748316989839
 20
113.3392808675254
 30
0.0
 10
184.3043960665204
 20
113.679159526972
 30
0.0
 10
184.0464522309101
 20
114.2715308211241
 30
0.0
 10
183.813093176322
 20
114.9515745904943
 30
0.0
 10
183.615533091979
 20
115.6322783343535
 30
0.0
 10
183.4812439254684
 20
116.1455702833243
 30
0.0
 10
183.358070026139
 20
116.6643416714911
 30
0.0
 10
183.2090645589682
 20
117.3469636969933
 30
0.0
 10
183.0413535594216
 20
118.2022199941464
 30
0.0
 10
182.8640365706267
 20
119.2251269380114
 30
0.0
 10
182.6994114348415
 20
120.2541130327689
 30
0.0
 10
182.6051668573885
 20
120.939504134237
 30
0.0
 10
182.5582710192856
 20
121.2805528290298
 30
0.0
  0
SPLINE
  5
15C
330
1F
100
AcDbEntity
  8
0
  6
Continuous
 62
     8
370
    18
100
AcDbSpline
210
0.0
220
0.0
230
1.0
 70
     8
 71
     3
 72
    19
 73
    15
 74
     0
 42
0.00000001
 43
0.00000001
 40
0.0
 40
0.0
 40
0.0
 40
0.0
 40
0.25
 40
0.25
 40
0.5
 40
0.5
 40
0.75
 40
0.75
 40
0.8749999999999959
 40
0.8749999999999959
 40
0.9374999999999939
 40
0.968749999999997
 40
0.968749999999997
 40
1.0
 40
1.0
 40
1.0
 40
1.0
 10
182.2602999207236
 20
123.6470638097392
 30
0.0
 10
182.2785808365254
 20
123.4832271072123
 30
0.0
 10
182.2969143753274
 20
123.31082788374
 30
0.0
 10
182.3395305838118
 20
122.9478531108026
 30
0.0
 10
182.363736168184
 20
122.758183219056
 30
0.0
 10
182.4146346395288
 20
122.3625895124572
 30
0.0
 10
182.441770528574
 20
122.1567670308117
 30
0.0
 10
182.4842930770069
 20
121.8366241608442
 30
0.0
 10
182.4987779681192
 20
121.7280081890854
 30
0.0
 10
182.5208734539323
 20
121.5623146897742
 30
0.0
 10
182.532012386263
 20
121.4787756458814
 30
0.0
 10
182.5432516486894
 20
121.3942147818604
 30
0.0
 10
182.5507605638512
 20
121.3376157399998
 30
0.0
 10
182.5545154733195
 20
121.3095632273353
 30
0.0
 10
182.5582901612358
 20
121.2806799295962
 30
0.0
  0
SPLINE
  5
15D
330
1F
100
AcDbEntity
  8
0
  6
Continuous
 62
     8
370
    18
100
AcDbSpline
210
0.0
220
0.0
230
1.0
 70
     8
 71
     3
 72
    34
 73
    30
 74
     0
 42
0.00000001
 43
0.00000001
 40
0.0
 40
0.0
 40
0.0
 40
0.0
 40
0.0459358548049106
 40
0.1658694663639788
 40
0.20588742383426
 40
0.2331615481685573
 40
0.2740188244045545
 40
0.2876203169849755
 40
0.3390086975300177
 40
0.4115021669146686
 40
0.4558446419170656
 40
0.5001436120962209
 40
0.5888000806314045
 40
0.6148487842102871
 40
0.6539095889663605
 40
0.6734283622575086
 40
0.6799342553074754
 40
0.6929594292160224
 40
0.7125558069874134
 40
0.7321239840550589
 40
0.7515279518113133
 40
0.7710432320621812
 40
0.8101309983395993
 40
0.8296856598515765
 40
0.8616160509986549
 40
0.8739855739805131
 40
0.8863029991025971
 40
0.9482432574623302
 40
1.0
 40
1.0
 40
1.0
 40
1.0
 10
232.1203376108332
 20
121.2805743735861
 30
0.0
 10
232.1259067028944
 20
121.3222450144764
 30
0.0
 10
232.1460160996224
 20
121.4727132488626
 30
0.0
 10
232.1705392953735
 20
121.6560162381875
 30
0.0
 10
232.192330787918
 20
121.8185050539588
 30
0.0
 10
232.2047858086401
 20
121.91143837906
 30
0.0
 10
232.2140936258804
 20
121.9809851347496
 30
0.0
 10
232.2260279464253
 20
122.070395296283
 30
0.0
 10
232.2413408566857
 20
122.1855300748713
 30
0.0
 10
232.2596031618318
 20
122.3242250557883
 30
0.0
 10
232.2766158889856
 20
122.4545763621328
 30
0.0
 10
232.2949311179962
 20
122.5958550676323
 30
0.0
 10
232.3106579281438
 20
122.7197579709352
 30
0.0
 10
232.3252446841519
 20
122.8372960633401
 30
0.0
 10
232.3330841502984
 20
122.9012751729792
 30
0.0
 10
232.3389848880146
 20
122.9499887062555
 30
0.0
 10
232.3424921382639
 20
122.9790846831968
 30
0.0
 10
232.3459798855699
 20
123.008139512426
 30
0.0
 10
232.3505960375808
 20
123.0466774091228
 30
0.0
 10
232.3557125142944
 20
123.0896291397182
 30
0.0
 10
232.360656575739
 20
123.1322048956761
 30
0.0
 10
232.3672686869658
 20
123.1886115551233
 30
0.0
 10
232.3736882171904
 20
123.2445051203408
 30
0.0
 10
232.3810005011765
 20
123.308560248254
 30
0.0
 10
232.3860438064107
 20
123.353261845058
 30
0.0
 10
232.3904558306028
 20
123.3925456235168
 30
0.0
 10
232.3970957287105
 20
123.4523255000756
 30
0.0
 10
232.40658216525
 20
123.5381082325328
 30
0.0
 10
232.4146442410941
 20
123.6129520369455
 30
0.0
 10
232.4183142304561
 20
123.6470221661921
 30
0.0
  0
SPLINE
  5
15E
330
1F
100
AcDbEntity
  8
0
  6
Continuous
 62
     8
370
    18
100
AcDbSpline
210
0.0
220
0.0
230
1.0
 70
     8
 71
     3
 72
    32
 73
    28
 74
     0
 42
0.00000001
 43
0.00000001
 40
0.0
 40
0.0
 40
0.0
 40
0.0
 40
0.0177360046917885
 40
0.0397122011644278
 40
0.0623867858324295
 40
0.0846904164426305
 40
0.107070623878217
 40
0.1294595123627478
 40
0.1518493533571059
 40
0.1739254616837209
 40
0.1963779149318755
 40
0.2186423628021884
 40
0.2415244617104957
 40
0.2641618739139409
 40
0.2865727283101128
 40
0.3089840089126342
 40
0.3311230106912982
 40
0.3758607953773955
 40
0.4642782747385897
 40
0.5088823038301495
 40
0.5537114136308667
 40
0.5982995925689302
 40
0.6442883094644417
 40
0.7317867134808582
 40
0.8213300239780241
 40
0.911094319738844
 40
1.0
 40
1.0
 40
1.0
 40
1.0
 10
225.4056679911574
 20
110.0865456209331
 30
0.0
 10
225.5967394060621
 20
110.1328720633503
 30
0.0
 10
226.0245621653207
 20
110.236600328677
 30
0.0
 10
226.6116814599531
 20
110.421091842231
 30
0.0
 10
227.1743429985007
 20
110.6318104450313
 30
0.0
 10
227.6663706107803
 20
110.8562027092852
 30
0.0
 10
228.0922243366623
 20
111.0883038424308
 30
0.0
 10
228.462804606353
 20
111.3273231609333
 30
0.0
 10
228.7838808044966
 20
111.5699263620433
 30
0.0
 10
229.0655900834268
 20
111.8161403409814
 30
0.0
 10
229.3127121277162
 20
112.0642742457205
 30
0.0
 10
229.5343374315808
 20
112.3173426338985
 30
0.0
 10
229.731522675994
 20
112.5725190339411
 30
0.0
 10
229.9071343892773
 20
112.8292188750572
 30
0.0
 10
230.0632918063716
 20
113.0848599799995
 30
0.0
 10
230.203773806022
 20
113.3392808675159
 30
0.0
 10
230.3742094383748
 20
113.6791595269774
 30
0.0
 10
230.6321532739322
 20
114.2715308211201
 30
0.0
 10
230.8655123283989
 20
114.9515745904949
 30
0.0
 10
231.0630724126415
 20
115.6322783343533
 30
0.0
 10
231.1973615790735
 20
116.1455702833243
 30
0.0
 10
231.3205354783242
 20
116.6643416714911
 30
0.0
 10
231.4695409453912
 20
117.3469636969933
 30
0.0
 10
231.637251944808
 20
118.2022199941464
 30
0.0
 10
231.8145689334473
 20
119.2251269380113
 30
0.0
 10
231.9791940690762
 20
120.2541130327688
 30
0.0
 10
232.073438646425
 20
120.9395041342369
 30
0.0
 10
232.1203344844761
 20
121.2805528290298
 30
0.0
  0
LINE
  5
15F
330
1F
100
AcDbEntity
  8
0
  6
Continuous
 62
     8
370
    18
100
AcDbLine
 10
231.8393027521
 20
161.4325648354
 30
0.0
 11
182.8393027521
 21
161.4325648354
 31
0.0
  0
ENDSEC
  0
SECTION
  2
OBJECTS
  0
DICTIONARY
  5
C
330
0
100
AcDbDictionary
281
     1
  3
ACAD_GROUP
350
D
  3
ACAD_LAYOUT
350
1A
  3
ACAD_MLINESTYLE
350
17
  3
ACAD_PLOTSETTINGS
350
19
  3
ACAD_PLOTSTYLENAME
350
E
  3
ACAD_SCALELIST
350
47
  3
DWGPROPS
350
160
  0
DICTIONARY
  5
D
102
{ACAD_REACTORS
330
C
102
}
330
C
100
AcDbDictionary
281
     1
  0
DICTIONARY
  5
1A
102
{ACAD_REACTORS
330
C
102
}
330
C
100
AcDbDictionary
281
     1
  3
Layout1
350
1E
  3
Layout2
350
26
  3
Model
350
22
  0
DICTIONARY
  5
17
102
{ACAD_REACTORS
330
C
102
}
330
C
100
AcDbDictionary
281
     1
  3
Standard
350
18
  0
DICTIONARY
  5
19
102
{ACAD_REACTORS
330
C
102
}
330
C
100
AcDbDictionary
281
     1
  0
ACDBDICTIONARYWDFLT
  5
E
102
{ACAD_REACTORS
330
C
102
}
330
C
100
AcDbDictionary
281
     1
  3
Normal
350
F
100
AcDbDictionaryWithDefault
340
F
  0
DICTIONARY
  5
47
102
{ACAD_REACTORS
330
C
102
}
330
C
100
AcDbDictionary
281
     1
  3
A0
350
48
  3
A1
350
49
  3
A2
350
4A
  3
A3
350
4B
  3
A4
350
4C
  3
A5
350
4D
  3
A6
350
4E
  3
A7
350
4F
  3
A8
350
50
  3
A9
350
51
  3
B0
350
52
  3
B1
350
53
  3
B2
350
54
  3
B3
350
55
  3
B4
350
56
  3
B5
350
57
  3
B6
350
58
  0
XRECORD
  5
160
102
{ACAD_REACTORS
330
C
102
}
330
C
100
AcDbXrecord
280
     1
  1
DWGPROPS COOKIE
  2

  3

  4

  6

  7

  8
fue-task
  9

300
=
301
=
302
=
303
=
304
=
305
=
306
=
307
=
308
=
309
=
 40
0.0
 41
2460075.418411377
 42
2460075.418413183
  1

 90
        0
  0
LAYOUT
  5
1E
102
{ACAD_REACTORS
330
1A
102
}
330
1A
100
AcDbPlotSettings
  1

  2
none_device
  4

  6

 40
0.0
 41
0.0
 42
0.0
 43
0.0
 44
0.0
 45
0.0
 46
0.0
 47
0.0
 48
0.0
 49
0.0
140
0.0
141
0.0
142
1.0
143
1.0
 70
   688
 72
     1
 73
     0
 74
     5
  7

 75
    16
147
1.0
148
0.0
149
0.0
100
AcDbLayout
  1
Layout1
 70
     1
 71
     1
 10
0.0
 20
0.0
 11
420.0
 21
297.0
 12
0.0
 22
0.0
 32
0.0
 14
1.0000000000E+20
 24
1.0000000000E+20
 34
1.0000000000E+20
 15
-1.0000000000E+20
 25
-1.0000000000E+20
 35
-1.0000000000E+20
146
0.0
 13
0.0
 23
0.0
 33
0.0
 16
1.0
 26
0.0
 36
0.0
 17
0.0
 27
1.0
 37
0.0
 76
     0
330
1B
  0
LAYOUT
  5
26
102
{ACAD_REACTORS
330
1A
102
}
330
1A
100
AcDbPlotSettings
  1

  2
none_device
  4

  6

 40
0.0
 41
0.0
 42
0.0
 43
0.0
 44
0.0
 45
0.0
 46
0.0
 47
0.0
 48
0.0
 49
0.0
140
0.0
141
0.0
142
1.0
143
1.0
 70
   688
 72
     1
 73
     0
 74
     5
  7

 75
    16
147
1.0
148
0.0
149
0.0
100
AcDbLayout
  1
Layout2
 70
     1
 71
     2
 10
0.0
 20
0.0
 11
0.0
 21
0.0
 12
0.0
 22
0.0
 32
0.0
 14
0.0
 24
0.0
 34
0.0
 15
0.0
 25
0.0
 35
0.0
146
0.0
 13
0.0
 23
0.0
 33
0.0
 16
1.0
 26
0.0
 36
0.0
 17
0.0
 27
1.0
 37
0.0
 76
     0
330
23
  0
LAYOUT
  5
22
102
{ACAD_REACTORS
330
1A
102
}
330
1A
100
AcDbPlotSettings
  1

  2
none_device
  4
Letter_(8.50_x_11.00_Inches)
  6

 40
6.35
 41
6.35
 42
6.35000508
 43
6.35000508
 44
215.9
 45
279.4
 46
0.0
 47
0.0
 48
0.0
 49
0.0
140
0.0
141
0.0
142
1.0
143
1.0
 70
  1712
 72
     1
 73
     0
 74
     0
  7

 75
     0
147
1.0
148
0.0
149
0.0
100
AcDbLayout
  1
Model
 70
     1
 71
     0
 10
0.0
 20
0.0
 11
594.0
 21
841.0
 12
0.0
 22
0.0
 32
0.0
 14
0.0
 24
0.0
 34
0.0
 15
594.0
 25
841.0
 35
0.0
146
0.0
 13
0.0
 23
0.0
 33
0.0
 16
1.0
 26
0.0
 36
0.0
 17
0.0
 27
1.0
 37
0.0
 76
     0
330
1F
331
29
  0
MLINESTYLE
  5
18
102
{ACAD_REACTORS
330
17
102
}
330
17
100
AcDbMlineStyle
  2
Standard
 70
     0
  3

 62
   256
 51
90.0
 52
90.0
 71
     2
 49
0.5
 62
   256
  6
BYLAYER
 49
-0.5
 62
   256
  6
BYLAYER
  0
ACDBPLACEHOLDER
  5
F
102
{ACAD_REACTORS
330
E
102
}
330
E
  0
SCALE
  5
48
102
{ACAD_REACTORS
330
47
102
}
330
47
100
AcDbScale
 70
     0
300
1:1
140
1.0
141
1.0
290
     1
  0
SCALE
  5
49
102
{ACAD_REACTORS
330
47
102
}
330
47
100
AcDbScale
 70
     0
300
1:2
140
1.0
141
2.0
290
     0
  0
SCALE
  5
4A
102
{ACAD_REACTORS
330
47
102
}
330
47
100
AcDbScale
 70
     0
300
1:4
140
1.0
141
4.0
290
     0
  0
SCALE
  5
4B
102
{ACAD_REACTORS
330
47
102
}
330
47
100
AcDbScale
 70
     0
300
1:5
140
1.0
141
5.0
290
     0
  0
SCALE
  5
4C
102
{ACAD_REACTORS
330
47
102
}
330
47
100
AcDbScale
 70
     0
300
1:8
140
1.0
141
8.0
290
     0
  0
SCALE
  5
4D
102
{ACAD_REACTORS
330
47
102
}
330
47
100
AcDbScale
 70
     0
300
1:10
140
1.0
141
10.0
290
     0
  0
SCALE
  5
4E
102
{ACAD_REACTORS
330
47
102
}
330
47
100
AcDbScale
 70
     0
300
1:16
140
1.0
141
16.0
290
     0
  0
SCALE
  5
4F
102
{ACAD_REACTORS
330
47
102
}
330
47
100
AcDbScale
 70
     0
300
1:20
140
1.0
141
20.0
290
     0
  0
SCALE
  5
50
102
{ACAD_REACTORS
330
47
102
}
330
47
100
AcDbScale
 70
     0
300
1:30
140
1.0
141
30.0
290
     0
  0
SCALE
  5
51
102
{ACAD_REACTORS
330
47
102
}
330
47
100
AcDbScale
 70
     0
300
1:40
140
1.0
141
40.0
290
     0
  0
SCALE
  5
52
102
{ACAD_REACTORS
330
47
102
}
330
47
100
AcDbScale
 70
     0
300
1:50
140
1.0
141
50.0
290
     0
  0
SCALE
  5
53
102
{ACAD_REACTORS
330
47
102
}
330
47
100
AcDbScale
 70
     0
300
1:100
140
1.0
141
100.0
290
     0
  0
SCALE
  5
54
102
{ACAD_REACTORS
330
47
102
}
330
47
100
AcDbScale
 70
     0
300
2:1
140
2.0
141
1.0
290
     0
  0
SCALE
  5
55
102
{ACAD_REACTORS
330
47
102
}
330
47
100
AcDbScale
 70
     0
300
4:1
140
4.0
141
1.0
290
     0
  0
SCALE
  5
56
102
{ACAD_REACTORS
330
47
102
}
330
47
100
AcDbScale
 70
     0
300
8:1
140
8.0
141
1.0
290
     0
  0
SCALE
  5
57
102
{ACAD_REACTORS
330
47
102
}
330
47
100
AcDbScale
 70
     0
300
10:1
140
10.0
141
1.0
290
     0
  0
SCALE
  5
58
102
{ACAD_REACTORS
330
47
102
}
330
47
100
AcDbScale
 70
     0
300
100:1
140
100.0
141
1.0
290
     0
  0
ENDSEC
  0
EOF
