  0
SECTION
  2
HEADER
  9
$ACADVER
  1
AC1015
  9
$ACADMAINTVER
 70
     6
  9
$DWGCODEPAGE
  3
ANSI_1252
  9
$INSBASE
 10
0.0
 20
0.0
 30
0.0
  9
$EXTMIN
 10
0.0
 20
0.0
 30
0.0
  9
$EXTMAX
 10
594.0
 20
841.0
 30
0.0
  9
$LIMMIN
 10
0.0
 20
0.0
  9
$LIMMAX
 10
594.0
 20
841.0
  9
$ORTHOMODE
 70
     0
  9
$REGENMODE
 70
     1
  9
$FILLMODE
 70
     1
  9
$QTEXTMODE
 70
     0
  9
$MIRRTEXT
 70
     1
  9
$LTSCALE
 40
1.0
  9
$ATTMODE
 70
     1
  9
$TEXTSIZE
 40
10.0
  9
$TRACEWID
 40
1.0
  9
$TEXTSTYLE
  7
Standard
  9
$CLAYER
  8
0
  9
$CELTYPE
  6
ByLayer
  9
$CECOLOR
 62
   256
  9
$CELTSCALE
 40
1.0
  9
$DISPSILH
 70
     0
  9
$DIMSCALE
 40
1.0
  9
$DIMASZ
 40
2.5
  9
$DIMEXO
 40
0.0
  9
$DIMDLI
 40
3.75
  9
$DIMRND
 40
0.0
  9
$DIMDLE
 40
0.0
  9
$DIMEXE
 40
1.0
  9
$DIMTP
 40
0.0
  9
$DIMTM
 40
0.0
  9
$DIMTXT
 40
3.5
  9
$DIMCEN
 40
2.5
  9
$DIMTSZ
 40
0.0
  9
$DIMTOL
 70
     0
  9
$DIMLIM
 70
     0
  9
$DIMTIH
 70
     1
  9
$DIMTOH
 70
     1
  9
$DIMSE1
 70
     0
  9
$DIMSE2
 70
     0
  9
$DIMTAD
 70
     1
  9
$DIMZIN
 70
     0
  9
$DIMBLK
  1

  9
$DIMASO
 70
     1
  9
$DIMSHO
 70
     1
  9
$DIMPOST
  1

  9
$DIMAPOST
  1

  9
$DIMALT
 70
     0
  9
$DIMALTD
 70
     3
  9
$DIMALTF
 40
0.0393700787
  9
$DIMLFAC
 40
1.0
  9
$DIMTOFL
 70
     1
  9
$DIMTVP
 40
0.0
  9
$DIMTIX
 70
     0
  9
$DIMSOXD
 70
     0
  9
$DIMSAH
 70
     0
  9
$DIMBLK1
  1

  9
$DIMBLK2
  1

  9
$DIMSTYLE
  2
ISO-25
  9
$DIMCLRD
 70
     0
  9
$DIMCLRE
 70
     0
  9
$DIMCLRT
 70
     0
  9
$DIMTFAC
 40
1.0
  9
$DIMGAP
 40
1.5
  9
$DIMJUST
 70
     0
  9
$DIMSD1
 70
     0
  9
$DIMSD2
 70
     0
  9
$DIMTOLJ
 70
     0
  9
$DIMTZIN
 70
     0
  9
$DIMALTZ
 70
     0
  9
$DIMALTTZ
 70
     0
  9
$DIMUPT
 70
     0
  9
$DIMDEC
 70
     2
  9
$DIMTDEC
 70
     2
  9
$DIMALTU
 70
     2
  9
$DIMALTTD
 70
     3
  9
$DIMTXSTY
  7
Standard
  9
$DIMAUNIT
 70
     0
  9
$DIMADEC
 70
     2
  9
$DIMALTRND
 40
0.0
  9
$DIMAZIN
 70
     0
  9
$DIMDSEP
 70
    44
  9
$DIMATFIT
 70
     3
  9
$DIMFRAC
 70
     0
  9
$DIMLDRBLK
  1

  9
$DIMLUNIT
 70
     2
  9
$DIMLWD
 70
    -2
  9
$DIMLWE
 70
    -2
  9
$DIMTMOVE
 70
     0
  9
$LUNITS
 70
     2
  9
$LUPREC
 70
     2
  9
$SKETCHINC
 40
1.0
  9
$FILLETRAD
 40
10.0
  9
$AUNITS
 70
     0
  9
$AUPREC
 70
     2
  9
$MENU
  1
.
  9
$ELEVATION
 40
0.0
  9
$PELEVATION
 40
0.0
  9
$THICKNESS
 40
0.0
  9
$LIMCHECK
 70
     0
  9
$CHAMFERA
 40
0.0
  9
$CHAMFERB
 40
0.0
  9
$CHAMFERC
 40
0.0
  9
$CHAMFERD
 40
0.0
  9
$SKPOLY
 70
     0
  9
$TDCREATE
 40
2459986.53916728
  9
$TDUCREATE
 40
2459986.497500613
  9
$TDUPDATE
 40
2459986.539167824
  9
$TDUUPDATE
 40
2459986.497501157
  9
$TDINDWG
 40
0.0000000116
  9
$TDUSRTIMER
 40
0.0000000116
  9
$USRTIMER
 70
     1
  9
$ANGBASE
 50
0.0
  9
$ANGDIR
 70
     0
  9
$PDMODE
 70
     0
  9
$PDSIZE
 40
-1.0
  9
$PLINEWID
 40
0.0
  9
$SPLFRAME
 70
     0
  9
$SPLINETYPE
 70
     6
  9
$SPLINESEGS
 70
     8
  9
$HANDSEED
  5
106
  9
$SURFTAB1
 70
     6
  9
$SURFTAB2
 70
     6
  9
$SURFTYPE
 70
     6
  9
$SURFU
 70
     6
  9
$SURFV
 70
     6
  9
$UCSBASE
  2

  9
$UCSNAME
  2

  9
$UCSORG
 10
0.0
 20
0.0
 30
0.0
  9
$UCSXDIR
 10
1.0
 20
0.0
 30
0.0
  9
$UCSYDIR
 10
0.0
 20
1.0
 30
0.0
  9
$UCSORTHOREF
  2

  9
$UCSORTHOVIEW
 70
     0
  9
$UCSORGTOP
 10
0.0
 20
0.0
 30
0.0
  9
$UCSORGBOTTOM
 10
0.0
 20
0.0
 30
0.0
  9
$UCSORGLEFT
 10
0.0
 20
0.0
 30
0.0
  9
$UCSORGRIGHT
 10
0.0
 20
0.0
 30
0.0
  9
$UCSORGFRONT
 10
0.0
 20
0.0
 30
0.0
  9
$UCSORGBACK
 10
0.0
 20
0.0
 30
0.0
  9
$PUCSBASE
  2

  9
$PUCSNAME
  2

  9
$PUCSORG
 10
0.0
 20
0.0
 30
0.0
  9
$PUCSXDIR
 10
1.0
 20
0.0
 30
0.0
  9
$PUCSYDIR
 10
0.0
 20
1.0
 30
0.0
  9
$PUCSORTHOREF
  2

  9
$PUCSORTHOVIEW
 70
     0
  9
$PUCSORGTOP
 10
0.0
 20
0.0
 30
0.0
  9
$PUCSORGBOTTOM
 10
0.0
 20
0.0
 30
0.0
  9
$PUCSORGLEFT
 10
0.0
 20
0.0
 30
0.0
  9
$PUCSORGRIGHT
 10
0.0
 20
0.0
 30
0.0
  9
$PUCSORGFRONT
 10
0.0
 20
0.0
 30
0.0
  9
$PUCSORGBACK
 10
0.0
 20
0.0
 30
0.0
  9
$USERI1
 70
     0
  9
$USERI2
 70
     0
  9
$USERI3
 70
     0
  9
$USERI4
 70
     0
  9
$USERI5
 70
     0
  9
$USERR1
 40
0.0
  9
$USERR2
 40
0.0
  9
$USERR3
 40
0.0
  9
$USERR4
 40
0.0
  9
$USERR5
 40
0.0
  9
$WORLDVIEW
 70
     1
  9
$SHADEDGE
 70
     3
  9
$SHADEDIF
 70
    70
  9
$TILEMODE
 70
     1
  9
$MAXACTVP
 70
    64
  9
$PINSBASE
 10
0.0
 20
0.0
 30
0.0
  9
$PLIMCHECK
 70
     0
  9
$PEXTMIN
 10
1.0000000000E+20
 20
1.0000000000E+20
 30
1.0000000000E+20
  9
$PEXTMAX
 10
-1.0000000000E+20
 20
-1.0000000000E+20
 30
-1.0000000000E+20
  9
$PLIMMIN
 10
0.0
 20
0.0
  9
$PLIMMAX
 10
420.0
 20
297.0
  9
$UNITMODE
 70
     0
  9
$VISRETAIN
 70
     1
  9
$PLINEGEN
 70
     0
  9
$PSLTSCALE
 70
     1
  9
$TREEDEPTH
 70
  3020
  9
$CMLSTYLE
  2
Standard
  9
$CMLJUST
 70
     0
  9
$CMLSCALE
 40
20.0
  9
$PROXYGRAPHICS
 70
     1
  9
$MEASUREMENT
 70
     1
  9
$CELWEIGHT
370
    -1
  9
$ENDCAPS
280
     0
  9
$JOINSTYLE
280
     0
  9
$LWDISPLAY
290
     1
  9
$INSUNITS
 70
     4
  9
$HYPERLINKBASE
  1

  9
$STYLESHEET
  1

  9
$XEDIT
290
     1
  9
$CEPSNTYPE
380
     0
  9
$PSTYLEMODE
290
     1
  9
$FINGERPRINTGUID
  2
{7f4c71f1-5fb5-4707-8f81-606177c81d07}
  9
$VERSIONGUID
  2
{FAEB1C32-E019-11D5-929B-00C0DF256EC4}
  9
$EXTNAMES
290
     1
  9
$PSVPSCALE
 40
0.0
  9
$OLESTARTUP
290
     0
  0
ENDSEC
  0
SECTION
  2
CLASSES
  0
CLASS
  1
ACDBDICTIONARYWDFLT
  2
AcDbDictionaryWithDefault
  3
ObjectDBX Classes
 90
        0
280
     0
281
     0
  0
CLASS
  1
VISUALSTYLE
  2
AcDbVisualStyle
  3
ObjectDBX Classes
 90
     4095
280
     0
281
     0
  0
CLASS
  1
MATERIAL
  2
AcDbMaterial
  3
ObjectDBX Classes
 90
     1153
280
     0
281
     0
  0
CLASS
  1
SCALE
  2
AcDbScale
  3
ObjectDBX Classes
 90
     1153
280
     0
281
     0
  0
CLASS
  1
TABLESTYLE
  2
AcDbTableStyle
  3
ObjectDBX Classes
 90
     4095
280
     0
281
     0
  0
CLASS
  1
MLEADERSTYLE
  2
AcDbMLeaderStyle
  3
ACDB_MLEADERSTYLE_CLASS
 90
     4095
280
     0
281
     0
  0
CLASS
  1
SUN
  2
AcDbSun
  3
SCENEOE
 90
     1153
280
     0
281
     0
  0
CLASS
  1
ACDBPLACEHOLDER
  2
AcDbPlaceHolder
  3
ObjectDBX Classes
 90
        0
280
     0
281
     0
  0
CLASS
  1
LAYOUT
  2
AcDbLayout
  3
ObjectDBX Classes
 90
        0
280
     0
281
     0
  0
ENDSEC
  0
SECTION
  2
TABLES
  0
TABLE
  2
VPORT
  5
8
330
0
100
AcDbSymbolTable
 70
     1
  0
VPORT
  5
29
330
8
100
AcDbSymbolTableRecord
100
AcDbViewportTableRecord
  2
*Active
 70
     0
 10
0.0
 20
0.0
 11
1.0
 21
1.0
 12
297.0
 22
420.5
 13
0.0
 23
0.0
 14
10.0
 24
10.0
 15
10.0
 25
10.0
 16
0.0
 26
0.0
 36
1.0
 17
0.0
 27
0.0
 37
0.0
 40
841.0
 41
0.7063020214
 42
50.0
 43
0.0
 44
0.0
 50
0.0
 51
0.0
 71
     0
 72
  2000
 73
     1
 74
     3
 75
     0
 76
     0
 77
     0
 78
     0
281
     0
 65
     1
110
0.0
120
0.0
130
0.0
111
1.0
121
0.0
131
0.0
112
0.0
122
1.0
132
0.0
 79
     0
146
0.0
  0
ENDTAB
  0
TABLE
  2
LTYPE
  5
5
330
0
100
AcDbSymbolTable
 70
     6
  0
LTYPE
  5
14
330
5
100
AcDbSymbolTableRecord
100
AcDbLinetypeTableRecord
  2
ByBlock
 70
     0
  3

 72
    65
 73
     0
 40
0.0
  0
LTYPE
  5
15
330
5
100
AcDbSymbolTableRecord
100
AcDbLinetypeTableRecord
  2
ByLayer
 70
     0
  3

 72
    65
 73
     0
 40
0.0
  0
LTYPE
  5
16
330
5
100
AcDbSymbolTableRecord
100
AcDbLinetypeTableRecord
  2
Continuous
 70
     0
  3
Solid line
 72
    65
 73
     0
 40
0.0
  0
LTYPE
  5
6E
330
5
100
AcDbSymbolTableRecord
100
AcDbLinetypeTableRecord
  2
HIDDEN
 70
     0
  3
Hidden __ __ __ __ __ __ __ __ __ __ __ __ __ __
 72
    65
 73
     2
 40
1.905
 49
1.27
 74
     0
 49
-0.635
 74
     0
  0
LTYPE
  5
6F
330
5
100
AcDbSymbolTableRecord
100
AcDbLinetypeTableRecord
  2
PHANTOM
 70
     0
  3
Phantom ______  __  __  ______  __  __  ______
 72
    65
 73
     6
 40
12.7
 49
6.35
 74
     0
 49
-1.27
 74
     0
 49
1.27
 74
     0
 49
-1.27
 74
     0
 49
1.27
 74
     0
 49
-1.27
 74
     0
  0
LTYPE
  5
70
330
5
100
AcDbSymbolTableRecord
100
AcDbLinetypeTableRecord
  2
CENTER
 70
     0
  3
Center ____ _ ____ _ ____ _ ____ _ ____ _ ____
 72
    65
 73
     4
 40
10.16
 49
6.35
 74
     0
 49
-1.27
 74
     0
 49
1.27
 74
     0
 49
-1.27
 74
     0
  0
LTYPE
  5
71
330
5
100
AcDbSymbolTableRecord
100
AcDbLinetypeTableRecord
  2
CENTERX2
 70
     0
  3
Center (2x) ________  __  ________  __  _____
 72
    65
 73
     4
 40
20.32
 49
12.7
 74
     0
 49
-2.54
 74
     0
 49
2.54
 74
     0
 49
-2.54
 74
     0
  0
LTYPE
  5
72
330
5
100
AcDbSymbolTableRecord
100
AcDbLinetypeTableRecord
  2
DOT2
 70
     0
  3
Dot (.5x) ........................................
 72
    65
 73
     2
 40
0.635
 49
0.0
 74
     0
 49
-0.635
 74
     0
  0
ENDTAB
  0
TABLE
  2
LAYER
  5
2
330
0
100
AcDbSymbolTable
 70
     1
  0
LAYER
  5
10
330
2
100
AcDbSymbolTableRecord
100
AcDbLayerTableRecord
  2
0
 70
     0
 62
     7
  6
Continuous
370
    -3
390
F
  0
ENDTAB
  0
TABLE
  2
STYLE
  5
3
330
0
100
AcDbSymbolTable
 70
     3
  0
STYLE
  5
11
330
3
100
AcDbSymbolTableRecord
100
AcDbTextStyleTableRecord
  2
Standard
 70
     0
 40
0.0
 41
1.0
 50
0.0
 71
     0
 42
10.0
  3
txt
  4

  0
STYLE
  5
76
330
3
100
AcDbSymbolTableRecord
100
AcDbTextStyleTableRecord
  2
SLDTEXTSTYLE0
 70
     0
 40
0.0
 41
0.96
 50
0.0
 71
     0
 42
10.0
  3
ISOCP3
  4

  0
STYLE
  5
8D
330
3
100
AcDbSymbolTableRecord
100
AcDbTextStyleTableRecord
  2
SLDTEXTSTYLE1
 70
     0
 40
0.0
 41
0.605
 50
0.0
 71
     0
 42
10.0
  3
TXT
  4

  0
ENDTAB
  0
TABLE
  2
VIEW
  5
6
330
0
100
AcDbSymbolTable
 70
     0
  0
ENDTAB
  0
TABLE
  2
UCS
  5
7
330
0
100
AcDbSymbolTable
 70
     0
  0
ENDTAB
  0
TABLE
  2
APPID
  5
9
330
0
100
AcDbSymbolTable
 70
     1
  0
APPID
  5
12
330
9
100
AcDbSymbolTableRecord
100
AcDbRegAppTableRecord
  2
ACAD
 70
     0
  0
ENDTAB
  0
TABLE
  2
DIMSTYLE
  5
A
330
0
100
AcDbSymbolTable
 70
     2
100
AcDbDimStyleTable
  0
DIMSTYLE
105
27
330
A
100
AcDbSymbolTableRecord
100
AcDbDimStyleTableRecord
  2
ISO-25
 70
     0
 41
2.5
 42
0.625
 43
3.75
 44
1.25
 73
     0
 74
     0
 77
     1
 78
     8
140
2.5
141
2.5
143
0.0393700787
147
0.625
171
     3
172
     1
178
     0
271
     2
272
     2
274
     3
278
    44
283
     0
284
     8
340
11
  0
DIMSTYLE
105
77
102
{ACAD_REACTORS
330
75
330
82
102
}
330
A
100
AcDbSymbolTableRecord
100
AcDbDimStyleTableRecord
  2
SLDDIMSTYLE0
 70
     0
 41
2.5
 44
0.0
 45
0.000000001
 73
     0
 74
     0
 77
     1
 78
    12
 79
     3
140
6.0
147
1.5
173
     1
178
     0
271
     2
272
     2
276
     2
284
    12
340
76
  0
ENDTAB
  0
TABLE
  2
BLOCK_RECORD
  5
1
330
0
100
AcDbSymbolTable
 70
     3
  0
BLOCK_RECORD
  5
1F
330
1
100
AcDbSymbolTableRecord
100
AcDbBlockTableRecord
  2
*Model_Space
340
22
  0
BLOCK_RECORD
  5
1B
330
1
100
AcDbSymbolTableRecord
100
AcDbBlockTableRecord
  2
*Paper_Space
340
1E
  0
BLOCK_RECORD
  5
23
330
1
100
AcDbSymbolTableRecord
100
AcDbBlockTableRecord
  2
*Paper_Space0
340
26
  0
BLOCK_RECORD
  5
78
330
1
100
AcDbSymbolTableRecord
100
AcDbBlockTableRecord
  2
_D
340
0
  0
BLOCK_RECORD
  5
83
330
1
100
AcDbSymbolTableRecord
100
AcDbBlockTableRecord
  2
_D_1
340
0
  0
ENDTAB
  0
ENDSEC
  0
SECTION
  2
BLOCKS
  0
BLOCK
  5
20
330
1F
100
AcDbEntity
  8
0
100
AcDbBlockBegin
  2
*Model_Space
 70
     0
 10
0.0
 20
0.0
 30
0.0
  3
*Model_Space
  1

  0
ENDBLK
  5
21
330
1F
100
AcDbEntity
  8
0
100
AcDbBlockEnd
  0
BLOCK
  5
1C
330
1B
100
AcDbEntity
 67
     1
  8
0
100
AcDbBlockBegin
  2
*Paper_Space
 70
     0
 10
0.0
 20
0.0
 30
0.0
  3
*Paper_Space
  1

  0
ENDBLK
  5
1D
330
1B
100
AcDbEntity
 67
     1
  8
0
100
AcDbBlockEnd
  0
BLOCK
  5
24
330
23
100
AcDbEntity
  8
0
100
AcDbBlockBegin
  2
*Paper_Space0
 70
     0
 10
0.0
 20
0.0
 30
0.0
  3
*Paper_Space0
  1

  0
ENDBLK
  5
25
330
23
100
AcDbEntity
  8
0
100
AcDbBlockEnd
  0
BLOCK
  5
79
330
78
100
AcDbEntity
  8
0
100
AcDbBlockBegin
  2
_D
 70
     0
 10
0.0
 20
0.0
 30
0.0
  3
_D
  1

  0
SOLID
  5
7B
330
78
100
AcDbEntity
  8
0
  6
Continuous
 62
     7
370
    18
100
AcDbTrace
 10
42.7614395004
 20
152.0299240879
 30
0.0
 11
42.4614395004
 21
149.5299240879
 31
0.0
 12
43.0614395004
 22
149.5299240879
 32
0.0
 13
43.0614395004
 23
149.5299240879
 33
0.0
  0
SOLID
  5
7C
330
78
100
AcDbEntity
  8
0
  6
Continuous
 62
     7
370
    18
100
AcDbTrace
 10
42.7614395004
 20
52.0299240879
 30
0.0
 11
43.0614395004
 21
54.5299240879
 31
0.0
 12
42.4614395004
 22
54.5299240879
 32
0.0
 13
42.4614395004
 23
54.5299240879
 33
0.0
  0
LINE
  5
7D
330
78
100
AcDbEntity
  8
0
  6
Continuous
 62
     7
370
     0
100
AcDbLine
 10
56.6850079902
 20
152.0299240879
 30
0.0
 11
41.7614395004
 21
152.0299240879
 31
0.0
  0
LINE
  5
7E
330
78
100
AcDbEntity
  8
0
  6
Continuous
 62
     7
370
     0
100
AcDbLine
 10
56.6850079902
 20
52.0299240879
 30
0.0
 11
41.7614395004
 21
52.0299240879
 31
0.0
  0
LINE
  5
7F
330
78
100
AcDbEntity
  8
0
  6
Continuous
 62
     7
370
     0
100
AcDbLine
 10
42.7614395004
 20
152.0299240879
 30
0.0
 11
42.7614395004
 21
52.0299240879
 31
0.0
  0
MTEXT
  5
80
330
78
100
AcDbEntity
  8
0
  6
Continuous
 62
     7
370
    18
100
AcDbMText
 10
35.0270332946
 20
94.3680541463
 30
0.0
 40
6.0
 41
0.0
 71
     1
 72
     1
  1
100
  7
SLDTEXTSTYLE0
 11
-7.044195017643634E-15
 21
1.0
 31
0.0
 73
     1
 44
1.0
  0
MTEXT
  5
81
330
78
100
AcDbEntity
  8
0
  6
Continuous
 62
     7
370
    18
100
AcDbMText
 10
35.0270332946
 20
105.7430548466
 30
0.0
 40
6.0
 41
0.0
 71
     1
 72
     1
  1
mm
  7
SLDTEXTSTYLE0
 11
-7.044195017643634E-15
 21
1.0
 31
0.0
 73
     1
 44
1.0
  0
ENDBLK
  5
7A
330
78
100
AcDbEntity
  8
0
100
AcDbBlockEnd
  0
BLOCK
  5
84
330
83
100
AcDbEntity
  8
0
100
AcDbBlockBegin
  2
_D_1
 70
     0
 10
0.0
 20
0.0
 30
0.0
  3
_D_1
  1

  0
SOLID
  5
86
330
83
100
AcDbEntity
  8
0
  6
Continuous
 62
     7
370
    18
100
AcDbTrace
 10
56.6850079902
 20
38.4602342313
 30
0.0
 11
59.1850079902
 21
38.1602342313
 31
0.0
 12
59.1850079902
 22
38.7602342313
 32
0.0
 13
59.1850079902
 23
38.7602342313
 33
0.0
  0
SOLID
  5
87
330
83
100
AcDbEntity
  8
0
  6
Continuous
 62
     7
370
    18
100
AcDbTrace
 10
156.6850079902
 20
38.4602342313
 30
0.0
 11
154.1850079902
 21
38.7602342313
 31
0.0
 12
154.1850079902
 22
38.1602342313
 32
0.0
 13
154.1850079902
 23
38.1602342313
 33
0.0
  0
LINE
  5
88
330
83
100
AcDbEntity
  8
0
  6
Continuous
 62
     7
370
     0
100
AcDbLine
 10
56.6850079902
 20
52.0299240879
 30
0.0
 11
56.6850079902
 21
37.4602342313
 31
0.0
  0
LINE
  5
89
330
83
100
AcDbEntity
  8
0
  6
Continuous
 62
     7
370
     0
100
AcDbLine
 10
156.6850079902
 20
52.0299240879
 30
0.0
 11
156.6850079902
 21
37.4602342313
 31
0.0
  0
LINE
  5
8A
330
83
100
AcDbEntity
  8
0
  6
Continuous
 62
     7
370
     0
100
AcDbLine
 10
56.6850079902
 20
38.4602342313
 30
0.0
 11
156.6850079902
 21
38.4602342313
 31
0.0
  0
MTEXT
  5
8B
330
83
100
AcDbEntity
  8
0
  6
Continuous
 62
     7
370
    18
100
AcDbMText
 10
93.9626484861
 20
46.1946404371
 30
0.0
 40
6.0
 41
0.0
 71
     1
 72
     1
  1
100
  7
SLDTEXTSTYLE0
 73
     1
 44
1.0
  0
MTEXT
  5
8C
330
83
100
AcDbEntity
  8
0
  6
Continuous
 62
     7
370
    18
100
AcDbMText
 10
105.3376491864
 20
46.1946404371
 30
0.0
 40
6.0
 41
0.0
 71
     1
 72
     1
  1
mm
  7
SLDTEXTSTYLE0
 73
     1
 44
1.0
  0
ENDBLK
  5
85
330
83
100
AcDbEntity
  8
0
100
AcDbBlockEnd
  0
ENDSEC
  0
SECTION
  2
ENTITIES
  0
LINE
  5
73
330
1F
100
AcDbEntity
  8
0
  6
Continuous
 62
     7
370
    18
100
AcDbLine
 10
56.6850079902
 20
152.0299240879
 30
0.0
 11
56.6850079902
 21
52.0299240879
 31
0.0
  0
LINE
  5
74
330
1F
100
AcDbEntity
  8
0
  6
Continuous
 62
     7
370
    18
100
AcDbLine
 10
56.6850079902
 20
52.0299240879
 30
0.0
 11
156.6850079902
 21
52.0299240879
 31
0.0
  0
DIMENSION
  5
75
330
1F
100
AcDbEntity
  8
0
  6
Continuous
 62
     7
370
    18
100
AcDbDimension
  2
_D
 10
42.7614395004
 20
52.0299240879
 30
0.0
 11
42.7614395004
 21
105.4472211621
 31
0.0
 70
   160
  1
<>mm
 71
     2
 42
-1.0
  3
SLDDIMSTYLE0
100
AcDbAlignedDimension
 13
56.6850079902
 23
152.0299240879
 33
0.0
 14
56.6850079902
 24
52.0299240879
 34
0.0
 50
90.0
100
AcDbRotatedDimension
  0
DIMENSION
  5
82
330
1F
100
AcDbEntity
  8
0
  6
Continuous
 62
     7
370
    18
100
AcDbDimension
  2
_D_1
 10
156.6850079902
 20
38.4602342313
 30
0.0
 11
105.0418155019
 21
38.4602342313
 31
0.0
 70
   160
  1
<>mm
 71
     2
 42
-1.0
  3
SLDDIMSTYLE0
100
AcDbAlignedDimension
 13
56.6850079902
 23
52.0299240879
 33
0.0
 14
156.6850079902
 24
52.0299240879
 34
0.0
100
AcDbRotatedDimension
  0
MTEXT
  5
8E
330
1F
100
AcDbEntity
  8
0
  6
Continuous
 62
     7
370
     0
100
AcDbMText
 10
412.8252631579
 20
48.4342449499
 30
0.0
 40
10.0
 41
0.0
 71
     1
 72
     1
  1
KLUDI GmbH & Co KG
  7
SLDTEXTSTYLE1
 73
     1
 44
1.0
  0
MTEXT
  5
8F
330
1F
100
AcDbEntity
  8
0
  6
Continuous
 62
     7
370
     0
100
AcDbMText
 10
210.0873490389
 20
48.4342449499
 30
0.0
 40
10.0
 41
0.0
 71
     1
 72
     1
  1
38 755 .. 76
  7
SLDTEXTSTYLE1
 73
     1
 44
1.0
  0
SPLINE
  5
90
330
1F
100
AcDbEntity
  8
0
  6
Continuous
 62
     7
370
    25
100
AcDbSpline
210
0.0
220
0.0
230
1.0
 70
     8
 71
     3
 72
    13
 73
     9
 74
     0
 42
0.00000001
 43
0.00000001
 40
0.0
 40
0.0
 40
0.0
 40
0.0
 40
0.0764217714656708
 40
0.1864830047303016
 40
0.3384926524795808
 40
0.5715053972453901
 40
0.8161707818116709
 40
1.0
 40
1.0
 40
1.0
 40
1.0
 10
207.1006075702608
 20
368.2374512002552
 30
0.0
 10
207.1130336883469
 20
368.2317075348406
 30
0.0
 10
207.1433556737364
 20
368.2176919478665
 30
0.0
 10
207.2718901869693
 20
368.1427673577334
 30
0.0
 10
207.4907871622942
 20
367.9712857091243
 30
0.0
 10
207.7276537459142
 20
367.6683817010515
 30
0.0
 10
207.8938301163487
 20
367.2884594697474
 30
0.0
 10
207.8915920793715
 20
367.0240740353175
 30
0.0
 10
207.8906319352176
 20
366.9106495781617
 30
0.0
  0
SPLINE
  5
91
330
1F
100
AcDbEntity
  8
0
  6
Continuous
 62
     7
370
    25
100
AcDbSpline
210
0.0
220
0.0
230
1.0
 70
     8
 71
     3
 72
    14
 73
    10
 74
     0
 42
0.00000001
 43
0.00000001
 40
0.0
 40
0.0
 40
0.0
 40
0.0
 40
0.2349994744431569
 40
0.4542063325126494
 40
0.6395520133637832
 40
0.7914718148675618
 40
0.9035699442926459
 40
0.997663392009749
 40
1.0
 40
1.0
 40
1.0
 40
1.0
 10
217.9203873052055
 20
366.8818879749938
 30
0.0
 10
217.9257065787434
 20
367.0271274897968
 30
0.0
 10
217.935987655886
 20
367.3078460212355
 30
0.0
 10
218.1016591478905
 20
367.6709555849781
 30
0.0
 10
218.3047518800718
 20
367.9391617083175
 30
0.0
 10
218.5048591405444
 20
368.1104620600601
 30
0.0
 10
218.6438632787751
 20
368.1984441683362
 30
0.0
 10
218.7086301636418
 20
368.232207244575
 30
0.0
 10
218.7225354433522
 20
368.2386250704241
 30
0.0
 10
218.7228723838159
 20
368.238780581515
 30
0.0
  0
LINE
  5
92
330
1F
100
AcDbEntity
  8
0
  6
Continuous
 62
     7
370
    25
100
AcDbLine
 10
207.9113774639
 20
366.9113212761
 30
0.0
 11
207.9113774639
 21
288.1058856528
 31
0.0
  0
LINE
  5
93
330
1F
100
AcDbEntity
  8
0
  6
Continuous
 62
     7
370
    25
100
AcDbLine
 10
217.9113774639
 20
288.1058856528
 30
0.0
 11
217.9113774639
 21
366.8897857459
 31
0.0
  0
SPLINE
  5
94
330
1F
100
AcDbEntity
  8
0
  6
Continuous
 62
     7
370
    25
100
AcDbSpline
210
0.0
220
0.0
230
1.0
 70
     8
 71
     3
 72
    13
 73
     9
 74
     0
 42
0.00000001
 43
0.00000001
 40
0.0
 40
0.0
 40
0.0
 40
0.0
 40
0.0465407392269218
 40
0.2161054512878818
 40
0.3995266565040104
 40
0.6686187252795003
 40
0.9176008596765352
 40
1.0
 40
1.0
 40
1.0
 40
1.0
 10
217.0553870734093
 20
287.1167478046516
 30
0.0
 10
217.0749480601126
 20
287.1197307712304
 30
0.0
 10
217.1657767819889
 20
287.1335817617687
 30
0.0
 10
217.3548541529372
 20
287.1975170992632
 30
0.0
 10
217.6047463579293
 20
287.3599686414039
 30
0.0
 10
217.8117256404501
 20
287.6300609514211
 30
0.0
 10
217.9177278936086
 20
287.9109088080329
 30
0.0
 10
217.9010740745156
 20
288.0690411582386
 30
0.0
 10
217.8969330427765
 20
288.1083613332402
 30
0.0
  0
SPLINE
  5
95
330
1F
100
AcDbEntity
  8
0
  6
Continuous
 62
     7
370
    25
100
AcDbSpline
210
0.0
220
0.0
230
1.0
 70
     8
 71
     3
 72
    16
 73
    12
 74
     0
 42
0.00000001
 43
0.00000001
 40
0.0
 40
0.0
 40
0.0
 40
0.0
 40
0.2344462537784941
 40
0.4182005200592876
 40
0.5714045192807742
 40
0.7006583874483556
 40
0.8062433071339603
 40
0.8846211628193232
 40
0.928267782636907
 40
0.9594687089734771
 40
1.0
 40
1.0
 40
1.0
 40
1.0
 10
207.911377463877
 20
288.10588565285
 30
0.0
 10
207.9249524263658
 20
287.98043979965
 30
0.0
 10
207.9491671718827
 20
287.7566720055307
 30
0.0
 10
208.1092151837864
 20
287.4898467018156
 30
0.0
 10
208.2863098710587
 20
287.3141730263663
 30
0.0
 10
208.4635776102258
 20
287.2052311614388
 30
0.0
 10
208.6187572558457
 20
287.1457449634499
 30
0.0
 10
208.7367014537742
 20
287.1197561443619
 30
0.0
 10
208.8051728217296
 20
287.1110888463156
 30
0.0
 10
208.8400669326464
 20
287.1080546425595
 30
0.0
 10
208.8527844519188
 20
287.1072828570919
 30
0.0
 10
208.8599703091768
 20
287.1068467704555
 30
0.0
  0
CIRCLE
  5
96
330
1F
100
AcDbEntity
  8
0
  6
Continuous
 62
     7
370
    25
100
AcDbCircle
 10
212.9113695779
 20
392.131734671
 30
0.0
 40
24.37127468816245
  0
SPLINE
  5
97
330
1F
100
AcDbEntity
  8
0
  6
Continuous
 62
     7
370
    25
100
AcDbSpline
210
0.0
220
0.0
230
1.0
 70
     8
 71
     3
 72
     8
 73
     4
 74
     0
 42
0.00000001
 43
0.00000001
 40
0.0
 40
0.0
 40
0.0
 40
0.0
 40
1.0
 40
1.0
 40
1.0
 40
1.0
 10
188.0530419954308
 20
394.564123958665
 30
0.0
 10
187.8716025961625
 20
392.8672393783714
 30
0.0
 10
187.8645004340846
 20
391.1410801357208
 30
0.0
 10
188.0504231790632
 20
389.3856276610551
 30
0.0
  0
ELLIPSE
  5
98
330
1F
100
AcDbEntity
  8
0
  6
Continuous
 62
     7
370
    25
100
AcDbEllipse
 10
212.9113774639
 20
391.9016374452
 30
0.0
 11
0.0
 21
25.02146862014069
 31
0.0
210
0.0
220
0.0
230
1.0
 40
0.9991529203
 41
4.818998897737579
 42
7.747371716621607
  0
SPLINE
  5
99
330
1F
100
AcDbEntity
  8
0
  6
Continuous
 62
     7
370
    25
100
AcDbSpline
210
0.0
220
0.0
230
1.0
 70
     8
 71
     3
 72
     8
 73
     4
 74
     0
 42
0.00000001
 43
0.00000001
 40
0.0
 40
0.0
 40
0.0
 40
0.0
 40
1.0
 40
1.0
 40
1.0
 40
1.0
 10
237.7723317486908
 20
389.3856276610551
 30
0.0
 10
237.9582544936694
 20
391.1410801357208
 30
0.0
 10
237.9511523315916
 20
392.8672393783714
 30
0.0
 10
237.7697129323231
 20
394.564123958665
 30
0.0
  0
ARC
  5
9A
330
1F
100
AcDbEntity
  8
0
  6
Continuous
 62
     7
370
    25
100
AcDbCircle
 10
212.9114588605
 20
392.0187250248
 30
0.0
 40
24.99992404968496
100
AcDbArc
 50
282.103490557
 51
353.9541537385
  0
ARC
  5
9B
330
1F
100
AcDbEntity
  8
0
  6
Continuous
 62
     7
370
    25
100
AcDbCircle
 10
212.9112931013
 20
392.0187223545
 30
0.0
 40
24.99992081894085
100
AcDbArc
 50
186.0458408915
 51
257.8992705283
  0
SPLINE
  5
9C
330
1F
100
AcDbEntity
  8
0
  6
Continuous
 62
     7
370
    25
100
AcDbSpline
210
0.0
220
0.0
230
1.0
 70
     8
 71
     3
 72
    14
 73
    10
 74
     0
 42
0.00000001
 43
0.00000001
 40
0.0
 40
0.0
 40
0.0
 40
0.0
 40
0.0254967382923273
 40
0.216034582130603
 40
0.4034337987446458
 40
0.5950933904777604
 40
0.7951291107608012
 40
0.9987733809013752
 40
1.0
 40
1.0
 40
1.0
 40
1.0
 10
211.1768604611674
 20
367.7768124391069
 30
0.0
 10
211.2642810958271
 20
367.771414184897
 30
0.0
 10
212.0049985970919
 20
367.7256746248368
 30
0.0
 10
213.4865677809078
 20
367.7003682667739
 30
0.0
 10
215.4820263169961
 20
367.8218100381151
 30
0.0
 10
217.2120598723939
 20
368.0521430220606
 30
0.0
 10
218.4006657522947
 20
368.2656549301993
 30
0.0
 10
218.992356295297
 20
368.3874574653719
 30
0.0
 10
218.9751281217801
 20
368.3675544261584
 30
0.0
 10
218.9750249719048
 20
368.367435261117
 30
0.0
  0
SPLINE
  5
9D
330
1F
100
AcDbEntity
  8
0
  6
Continuous
 62
     7
370
    25
100
AcDbSpline
210
0.0
220
0.0
230
1.0
 70
     8
 71
     3
 72
     9
 73
     5
 74
     0
 42
0.00000001
 43
0.00000001
 40
0.0
 40
0.0
 40
0.0
 40
0.0
 40
0.510823212200249
 40
1.0
 40
1.0
 40
1.0
 40
1.0
 10
218.9419135745346
 20
368.3280512116066
 30
0.0
 10
218.9541120218686
 20
368.3260729782136
 30
0.0
 10
218.977992000387
 20
368.3222003401937
 30
0.0
 10
218.8039136238207
 20
368.272423506215
 30
0.0
 10
218.7187585227466
 20
368.2480738344626
 30
0.0
  0
LINE
  5
9E
330
1F
100
AcDbEntity
  8
0
  6
Continuous
 62
     7
370
    25
100
AcDbLine
 10
207.1063990685
 20
368.2424621355
 30
0.0
 11
206.8851016616
 21
368.326278088
 31
0.0
  0
LWPOLYLINE
  5
9F
330
1F
100
AcDbEntity
  8
0
  6
Continuous
 62
     7
370
    25
100
AcDbPolyline
 90
       27
 70
   128
 43
0.0
 10
208.9167954785
 20
287.1052367542
 10
209.0370448194
 20
287.1027654635
 10
209.4061507437
 20
287.0998367024
 10
209.9955029542
 20
287.0972883292
 10
210.768070284
 20
287.0952804675
 10
211.6753094864
 20
287.0939392786
 10
212.6602153858
 20
287.0933490345
 10
213.6609027222
 20
287.0935468223
 10
214.6144946301
 20
287.0945202143
 10
215.4610734229
 20
287.0962080486
 10
216.1474454414
 20
287.0985042725
 10
216.6304834074
 20
287.1012646057
 10
216.8798362691
 20
287.1043156064
 10
216.8798362691
 20
287.1074655689
 10
216.6304834074
 20
287.1105165696
 10
216.1474454414
 20
287.1132769028
 10
215.4610734229
 20
287.1155731267
 10
214.6144946301
 20
287.117260961
 10
213.6609027222
 20
287.118234353
 10
212.6602153858
 20
287.1184321408
 10
211.6753094864
 20
287.1178418966
 10
210.768070284
 20
287.1165007078
 10
209.9955029542
 20
287.1144928461
 10
209.4061507437
 20
287.1119444729
 10
209.0370448194
 20
287.1090157118
 10
208.9113774639
 20
287.1058905876
 10
208.9113774639
 20
287.1058905876
  0
ARC
  5
A0
330
1F
100
AcDbEntity
  8
0
  6
Continuous
 62
     7
370
    25
100
AcDbCircle
 10
212.9113774644
 20
377.1064788258
 30
0.0
 40
74.50000000000003
100
AcDbArc
 50
273.848246969
 51
266.1517530302
  0
CIRCLE
  5
A1
330
1F
100
AcDbEntity
  8
0
  6
Continuous
 62
     8
370
    18
100
AcDbCircle
 10
212.9113698822
 20
392.1349839325
 30
0.0
 40
23.37143057737863
  0
LINE
  5
A2
330
1F
100
AcDbEntity
  8
0
  6
Continuous
 62
     8
370
    18
100
AcDbLine
 10
218.9750249719
 20
368.3674352611
 30
0.0
 11
218.9419135745
 21
368.3280512116
 31
0.0
  0
SPLINE
  5
A3
330
1F
100
AcDbEntity
  8
0
  6
Continuous
 62
     8
370
    18
100
AcDbSpline
210
0.0
220
0.0
230
1.0
 70
     8
 71
     3
 72
    12
 73
     8
 74
     0
 42
0.00000001
 43
0.00000001
 40
0.0
 40
0.0
 40
0.0
 40
0.0
 40
0.0698344478851859
 40
0.31264527069259
 40
0.5512094920996137
 40
0.7912962681423001
 40
1.0
 40
1.0
 40
1.0
 40
1.0
 10
206.8851016615669
 20
368.32627808798
 30
0.0
 10
206.84573043135
 20
368.3404009305067
 30
0.0
 10
206.6694674364894
 20
368.4036281780675
 30
0.0
 10
207.0330688535526
 20
368.3433231787159
 30
0.0
 10
207.9542885205589
 20
368.1689797454636
 30
0.0
 10
209.3952427751683
 20
367.927716332634
 30
0.0
 10
210.6113341989928
 20
367.8247127914241
 30
0.0
 10
211.1768604611674
 20
367.7768124391069
 30
0.0
  0
SPLINE
  5
A4
330
1F
100
AcDbEntity
  8
0
  6
Continuous
 62
     8
370
    18
100
AcDbSpline
210
0.0
220
0.0
230
1.0
 70
     8
 71
     3
 72
    11
 73
     7
 74
     0
 42
0.00000001
 43
0.00000001
 40
0.0
 40
0.0
 40
0.0
 40
0.0
 40
0.2305542623059624
 40
0.4950036254761517
 40
0.7460255809016717
 40
0.9999999999999999
 40
0.9999999999999999
 40
0.9999999999999999
 40
0.9999999999999999
 10
211.4951561337061
 20
366.2764022638455
 30
0.0
 10
211.0335954198471
 20
366.3277914447871
 30
0.0
 10
210.0426173114728
 20
366.438124824105
 30
0.0
 10
208.8834922141865
 20
366.6910941127217
 30
0.0
 10
208.0661374297319
 20
366.9014257174777
 30
0.0
 10
207.9640675821821
 20
366.9080956347285
 30
0.0
 10
207.9127342824859
 20
366.911450091205
 30
0.0
  0
SPLINE
  5
A5
330
1F
100
AcDbEntity
  8
0
  6
Continuous
 62
     8
370
    18
100
AcDbSpline
210
0.0
220
0.0
230
1.0
 70
     8
 71
     3
 72
    14
 73
    10
 74
     0
 42
0.00000001
 43
0.00000001
 40
0.0
 40
0.0
 40
0.0
 40
0.0
 40
0.0753135111245841
 40
0.257913883808956
 40
0.4406753068161886
 40
0.6191819637792437
 40
0.7958489354651784
 40
0.9759666966950811
 40
1.0
 40
1.0
 40
1.0
 40
1.0
 10
217.8445108571023
 20
366.8899428576202
 30
0.0
 10
217.8601187127663
 20
366.9013266447448
 30
0.0
 10
217.9135683874941
 20
366.9403108416827
 30
0.0
 10
217.4063212966377
 20
366.8066014727623
 30
0.0
 10
216.405122080889
 20
366.5671201256669
 30
0.0
 10
215.0020150899587
 20
366.3238982343856
 30
0.0
 10
213.3781681612077
 20
366.1945473817722
 30
0.0
 10
212.173003827997
 20
366.2215088137334
 30
0.0
 10
211.5665498027189
 20
366.2706206629913
 30
0.0
 10
211.4951561337061
 20
366.2764022638455
 30
0.0
  0
LWPOLYLINE
  5
A6
330
1F
100
AcDbEntity
  8
0
  6
Continuous
 62
     8
370
    18
100
AcDbPolyline
 90
       16
 70
   128
 43
0.0
 10
207.9113774639
 20
288.1058856528
 10
208.036737903
 20
288.1093809978
 10
208.4065331244
 20
288.1127010715
 10
209.0022200515
 20
288.1156793916
 10
209.7939284546
 20
288.1181666129
 10
210.7419587683
 20
288.1200380155
 10
211.7987727941
 20
288.1211997595
 10
212.9113774639
 20
288.1215935903
 10
214.0239821337
 20
288.1211997595
 10
215.0807961595
 20
288.1200380155
 10
216.0288264732
 20
288.1181666129
 10
216.8205348762
 20
288.1156793916
 10
217.4162218034
 20
288.1127010715
 10
217.7860170248
 20
288.1093809978
 10
217.9113774639
 20
288.1058856528
 10
217.9113774639
 20
288.1058856528
  0
LINE
  5
A7
330
1F
100
AcDbEntity
  8
0
  6
Continuous
 62
     8
370
    18
100
AcDbLine
 10
208.9113774639
 20
287.1058905876
 30
0.0
 11
208.9167954785
 21
287.1052367542
 31
0.0
  0
ARC
  5
A8
330
1F
100
AcDbEntity
  8
0
  6
Continuous
 62
     8
370
    18
100
AcDbCircle
 10
212.9113774644
 20
377.1064788258
 30
0.0
 40
73.35275294427508
100
AcDbArc
 50
273.9085268868
 51
266.0914731123
  0
ARC
  5
A9
330
1F
100
AcDbEntity
  8
0
  6
Continuous
 62
     8
370
    18
100
AcDbCircle
 10
212.9113774644
 20
377.1064788258
 30
0.0
 40
74.34193130454271
100
AcDbArc
 50
273.8564416261
 51
266.143558373
  0
LINE
  5
AA
330
1F
100
AcDbEntity
  8
0
  6
Continuous
 62
     7
370
    25
100
AcDbLine
 10
138.4113774644
 20
212.74609509
 30
0.0
 11
138.5694461599
 21
206.7096951474
 31
0.0
  0
LINE
  5
AB
330
1F
100
AcDbEntity
  8
0
  6
Continuous
 62
     7
370
    25
100
AcDbLine
 10
287.253308769
 20
206.7096951474
 30
0.0
 11
287.4113774644
 21
212.74609509
 31
0.0
  0
ARC
  5
AC
330
1F
100
AcDbEntity
  8
0
  6
Continuous
 62
     7
370
    25
100
AcDbCircle
 10
286.253651444
 20
206.7358720957
 30
0.0
 40
0.9999999999995789
100
AcDbArc
 50
270.6004114401
 51
358.5
  0
ARC
  5
AD
330
1F
100
AcDbEntity
  8
0
  6
Continuous
 62
     7
370
    25
100
AcDbCircle
 10
139.5691034849
 20
206.7358720957
 30
0.0
 40
0.999999999999589
100
AcDbArc
 50
181.5
 51
269.3995885599
  0
ARC
  5
AE
330
1F
100
AcDbEntity
  8
0
  6
Continuous
 62
     7
370
    25
100
AcDbCircle
 10
212.9113774644
 20
7205.3515859956
 30
0.0
 40
7000.0
100
AcDbArc
 50
269.3995885599
 51
269.8422938759
  0
ARC
  5
AF
330
1F
100
AcDbEntity
  8
0
  6
Continuous
 62
     7
370
    25
100
AcDbCircle
 10
212.9113774644
 20
7205.3515859956
 30
0.0
 40
7000.0
100
AcDbArc
 50
270.1576917837
 51
270.6004114401
  0
LINE
  5
B0
330
1F
100
AcDbEntity
  8
0
  6
Continuous
 62
     7
370
    25
100
AcDbLine
 10
187.9144310952
 20
167.5951499098
 30
0.0
 11
188.5400644708
 21
131.7528147556
 31
0.0
  0
LINE
  5
B1
330
1F
100
AcDbEntity
  8
0
  6
Continuous
 62
     7
370
    25
100
AcDbLine
 10
237.2826904569
 20
131.7528147556
 30
0.0
 11
237.9082740406
 21
167.5922973475
 31
0.0
  0
LINE
  5
B2
330
1F
100
AcDbEntity
  8
0
  6
Continuous
 62
     7
370
    25
100
AcDbLine
 10
237.4113774639
 20
175.74609509
 30
0.0
 11
237.4113774639
 21
205.4105269978
 31
0.0
  0
LINE
  5
B3
330
1F
100
AcDbEntity
  8
0
  6
Continuous
 62
     7
370
    25
100
AcDbLine
 10
188.4113774639
 20
205.41052823
 30
0.0
 11
188.4113774639
 21
175.74609509
 31
0.0
  0
ARC
  5
B4
330
1F
100
AcDbEntity
  8
0
  6
Continuous
 62
     7
370
    25
100
AcDbCircle
 10
212.9113774639
 20
175.74609509
 30
0.0
 40
24.50000000000004
100
AcDbArc
 50
180.0
 51
199.5162686353
  0
ARC
  5
B5
330
1F
100
AcDbEntity
  8
0
  6
Continuous
 62
     7
370
    25
100
AcDbCircle
 10
212.9113774639
 20
175.74609509
 30
0.0
 40
24.49999999999999
100
AcDbArc
 50
340.4632017369
 51
0.0
  0
SPLINE
  5
B6
330
1F
100
AcDbEntity
  8
0
  6
Continuous
 62
     7
370
    25
100
AcDbSpline
210
0.0
220
0.0
230
1.0
 70
     8
 71
     3
 72
    16
 73
    12
 74
     0
 42
0.00000001
 43
0.00000001
 40
0.0
 40
0.0
 40
0.0
 40
0.0
 40
0.112894666341687
 40
0.3012541806709442
 40
0.4548201186231724
 40
0.5851239881891606
 40
0.6929835664831535
 40
0.7740996991325095
 40
0.8427650987377496
 40
0.9303836959752885
 40
0.9999999999999999
 40
0.9999999999999999
 40
0.9999999999999999
 40
0.9999999999999999
 10
188.5565254676745
 20
131.7521328687214
 30
0.0
 10
188.5549878210739
 20
131.6865082444898
 30
0.0
 10
188.5508846824416
 20
131.5113919786348
 30
0.0
 10
188.6634032366808
 20
131.2636791446865
 30
0.0
 10
188.8319205048994
 20
131.0492500966922
 30
0.0
 10
189.0115400948251
 20
130.9130666220985
 30
0.0
 10
189.1710377474586
 20
130.836639768106
 30
0.0
 10
189.2867244369939
 20
130.8011316866477
 30
0.0
 10
189.3608000026294
 20
130.785230816262
 30
0.0
 10
189.4069294423435
 20
130.7780288614108
 30
0.0
 10
189.422647052427
 20
130.7764196821556
 30
0.0
 10
189.4296060794199
 20
130.7757072123962
 30
0.0
  0
SPLINE
  5
B7
330
1F
100
AcDbEntity
  8
0
  6
Continuous
 62
     7
370
    25
100
AcDbSpline
210
0.0
220
0.0
230
1.0
 70
     8
 71
     3
 72
    14
 73
    10
 74
     0
 42
0.00000001
 43
0.00000001
 40
0.0
 40
0.0
 40
0.0
 40
0.0
 40
0.1575357468909143
 40
0.2397267947840441
 40
0.3362177670536085
 40
0.4912635778685758
 40
0.6638491754404434
 40
0.8650771886575276
 40
0.9999999999999999
 40
0.9999999999999999
 40
0.9999999999999999
 40
0.9999999999999999
 10
236.4058845894682
 20
130.7784577385483
 30
0.0
 10
236.4204123402747
 20
130.779359422342
 30
0.0
 10
236.4425196473778
 20
130.7807315411788
 30
0.0
 10
236.5583437213351
 20
130.806287491831
 30
0.0
 10
236.7167948720194
 20
130.8613895755848
 30
0.0
 10
236.9253825406609
 20
130.9860165770415
 30
0.0
 10
237.1295465327561
 20
131.2103643620755
 30
0.0
 10
237.2653231635641
 20
131.4806457866107
 30
0.0
 10
237.2668230150378
 20
131.6748815500256
 30
0.0
 10
237.2674250191462
 20
131.7528430879678
 30
0.0
  0
LINE
  5
B8
330
1F
100
AcDbEntity
  8
0
  6
Continuous
 62
     7
370
    25
100
AcDbLine
 10
287.4113774644
 20
212.74609509
 30
0.0
 11
138.4113774644
 21
212.74609509
 31
0.0
  0
SPLINE
  5
B9
330
1F
100
AcDbEntity
  8
0
  6
Continuous
 62
     7
370
    25
100
AcDbSpline
210
0.0
220
0.0
230
1.0
 70
     8
 71
     3
 72
    12
 73
     8
 74
     0
 42
0.00000001
 43
0.00000001
 40
0.0
 40
0.0
 40
0.0
 40
0.0
 40
0.2116959991175816
 40
0.4295312053345718
 40
0.6412272014203082
 40
0.8590623806085779
 40
1.0
 40
1.0
 40
1.0
 40
1.0
 10
195.5873641621617
 20
205.4476564098412
 30
0.0
 10
194.6738694823635
 20
205.4454998276728
 30
0.0
 10
192.8203886772657
 20
205.4411241222174
 30
0.0
 10
190.7428776362268
 20
205.4334471772666
 30
0.0
 10
189.2697562960546
 20
205.4251222333694
 30
0.0
 10
188.4844390273939
 20
205.417400246932
 30
0.0
 10
188.4860469742679
 20
205.4124664039402
 30
0.0
 10
188.4866786280762
 20
205.4105282300081
 30
0.0
  0
SPLINE
  5
BA
330
1F
100
AcDbEntity
  8
0
  6
Continuous
 62
     7
370
    25
100
AcDbSpline
210
0.0
220
0.0
230
1.0
 70
     8
 71
     3
 72
    22
 73
    18
 74
     0
 42
0.00000001
 43
0.00000001
 40
0.0
 40
0.0
 40
0.0
 40
0.0
 40
0.0515473978973735
 40
0.1221109850162716
 40
0.194720922737166
 40
0.2652844728486817
 40
0.33789437757548
 40
0.4084578028626709
 40
0.4810675812157505
 40
0.5516308485672082
 40
0.6242404625514488
 40
0.6948036080736393
 40
0.76741309173122
 40
0.8379762049241969
 40
0.9105856494150381
 40
0.9550446523261855
 40
1.0
 40
1.0
 40
1.0
 40
1.0
 10
237.3375932245314
 20
205.4105269978321
 30
0.0
 10
237.3322305142753
 20
205.4126543155282
 30
0.0
 10
237.3195267531069
 20
205.4176937330332
 30
0.0
 10
236.489037520817
 20
205.4255806071302
 30
0.0
 10
235.0036198478493
 20
205.4338190533904
 30
0.0
 10
232.8492803010652
 20
205.4414677891376
 30
0.0
 10
230.157629415748
 20
205.4481735184984
 30
0.0
 10
226.9478568098123
 20
205.4538668941665
 30
0.0
 10
223.3708781393746
 20
205.4582843434705
 30
0.0
 10
219.4629349029751
 20
205.461380353794
 30
0.0
 10
215.4051837707837
 20
205.463011458178
 30
0.0
 10
211.2392539055335
 20
205.4631612811952
 30
0.0
 10
207.1585989774225
 20
205.4618212739841
 30
0.0
 10
203.2032319569568
 20
205.4590112898976
 30
0.0
 10
200.0083780693715
 20
205.4553485241152
 30
0.0
 10
197.470564320893
 20
205.4514517965547
 30
0.0
 10
196.2174163165701
 20
205.4489262119728
 30
0.0
 10
195.5873641621617
 20
205.4476564098412
 30
0.0
  0
SPLINE
  5
BB
330
1F
100
AcDbEntity
  8
0
  6
Continuous
 62
     7
370
    25
100
AcDbSpline
210
0.0
220
0.0
230
1.0
 70
     8
 71
     3
 72
     9
 73
     5
 74
     0
 42
0.00000001
 43
0.00000001
 40
0.0
 40
0.0
 40
0.0
 40
0.0
 40
0.9940845507027888
 40
1.0
 40
1.0
 40
1.0
 40
1.0
 10
188.0530419954308
 20
167.0966036071543
 30
0.0
 10
187.961977560352
 20
167.3179017404332
 30
0.0
 10
187.8703712326865
 20
167.5405167414634
 30
0.0
 10
187.914975438132
 20
167.5948427873467
 30
0.0
 10
187.9152392920477
 20
167.5951641503166
 30
0.0
  0
ELLIPSE
  5
BC
330
1F
100
AcDbEntity
  8
0
  6
Continuous
 62
     7
370
    25
100
AcDbEllipse
 10
212.9113774639
 20
167.8010572407
 30
0.0
 11
25.00027344184792
 21
0.0
 31
0.0
210
0.0
220
0.0
230
1.0
 40
0.264809179
 41
3.248202570942715
 42
6.176575389826767
  0
SPLINE
  5
BD
330
1F
100
AcDbEntity
  8
0
  6
Continuous
 62
     7
370
    25
100
AcDbSpline
210
0.0
220
0.0
230
1.0
 70
     8
 71
     3
 72
     8
 73
     4
 74
     0
 42
0.00000001
 43
0.00000001
 40
0.0
 40
0.0
 40
0.0
 40
0.0
 40
1.0
 40
1.0
 40
1.0
 40
1.0
 10
237.7723317486908
 20
167.7618216649255
 30
0.0
 10
237.9582544936694
 20
167.7673365996671
 30
0.0
 10
237.9511523315916
 20
167.5455735839937
 30
0.0
 10
237.7697129323231
 20
167.0966036071543
 30
0.0
  0
LWPOLYLINE
  5
BE
330
1F
100
AcDbEntity
  8
0
  6
Continuous
 62
     7
370
    25
100
AcDbPolyline
 90
       28
 70
   128
 43
0.0
 10
190.1211102981
 20
167.0966036072
 10
190.704271934
 20
166.511189169
 10
191.5166460534
 20
165.9439306083
 10
192.5498476693
 20
165.4006829312
 10
193.7932125055
 20
164.8870533138
 10
195.2339070686
 20
164.4083432268
 10
196.85706111
 20
163.9694937162
 10
198.6459211105
 20
163.5750344036
 10
200.5820232032
 20
163.2290367335
 10
202.6453837495
 20
162.9350719496
 10
204.8147056022
 20
162.6961742339
 10
207.0675979258
 20
162.5148093889
 10
209.3808073051
 20
162.392849387
 10
211.7304577573
 20
162.3315530484
 10
214.0922971704
 20
162.3315530484
 10
216.4419476227
 20
162.392849387
 10
218.7551570019
 20
162.5148093889
 10
221.0080493255
 20
162.6961742339
 10
223.1773711783
 20
162.9350719496
 10
225.2407317246
 20
163.2290367335
 10
227.1768338172
 20
163.5750344036
 10
228.9656938178
 20
163.9694937162
 10
230.5888478592
 20
164.4083432268
 10
232.0295424223
 20
164.8870533138
 10
233.2729072584
 20
165.4006829312
 10
234.3061088744
 20
165.9439306083
 10
235.1184829937
 20
166.511189169
 10
235.7016446297
 20
167.0966036072
  0
SPLINE
  5
BF
330
1F
100
AcDbEntity
  8
0
  6
Continuous
 62
     7
370
    25
100
AcDbSpline
210
0.0
220
0.0
230
1.0
 70
     8
 71
     3
 72
     9
 73
     5
 74
     0
 42
0.00000001
 43
0.00000001
 40
0.0
 40
0.0
 40
0.0
 40
0.0
 40
0.8425958083262388
 40
1.0
 40
1.0
 40
1.0
 40
1.0
 10
190.1211102980754
 20
167.0966036071543
 30
0.0
 10
189.9865522860325
 20
167.2715075042744
 30
0.0
 10
189.8268576724191
 20
167.4790849635874
 30
0.0
 10
189.8316886014464
 20
167.554884139642
 30
0.0
 10
189.8324490099251
 20
167.5668152476784
 30
0.0
  0
SPLINE
  5
C0
330
1F
100
AcDbEntity
  8
0
  6
Continuous
 62
     7
370
    25
100
AcDbSpline
210
0.0
220
0.0
230
1.0
 70
     8
 71
     3
 72
     9
 73
     5
 74
     0
 42
0.00000001
 43
0.00000001
 40
0.0
 40
0.0
 40
0.0
 40
0.0
 40
0.627111113278612
 40
1.0
 40
1.0
 40
1.0
 40
1.0
 10
235.982451261808
 20
167.5600458106567
 30
0.0
 10
235.9574857865005
 20
167.4896681763442
 30
0.0
 10
235.9176754964595
 20
167.3774430334275
 30
0.0
 10
235.7603205430688
 20
167.172882104288
 30
0.0
 10
235.7016446296788
 20
167.0966036071544
 30
0.0
  0
LWPOLYLINE
  5
C1
330
1F
100
AcDbEntity
  8
0
  6
Continuous
 62
     7
370
    25
100
AcDbPolyline
 90
       17
 70
   128
 43
0.0
 10
212.9113774639
 20
130.6968527062
 10
215.2758293942
 20
130.6972294185
 10
217.616018848
 20
130.6983556896
 10
219.9079323149
 20
130.7002199627
 10
222.1280516611
 20
130.7028031076
 10
224.253595458
 20
130.7060786178
 10
226.2627527497
 20
130.7100128822
 10
228.1349068637
 20
130.7145655299
 10
229.8508469653
 20
130.7196898446
 10
231.3929651871
 20
130.7253332438
 10
232.7454373093
 20
130.7314378186
 10
233.8943851376
 20
130.7379409279
 10
234.8280189127
 20
130.744775841
 10
235.5367582886
 20
130.7518724223
 10
236.0133306402
 20
130.7591578514
 10
236.2528456903
 20
130.7665573698
 10
236.2745062552
 20
130.7683152824
  0
LWPOLYLINE
  5
C2
330
1F
100
AcDbEntity
  8
0
  6
Continuous
 62
     7
370
    25
100
AcDbPolyline
 90
       33
 70
   128
 43
0.0
 10
236.2817300961
 20
130.7709926684
 10
236.2528456903
 20
130.7739950486
 10
236.0133306402
 20
130.7813945671
 10
235.5367582886
 20
130.7886799962
 10
234.8280189127
 20
130.7957765775
 10
233.8943851376
 20
130.8026114906
 10
232.7454373093
 20
130.8091145998
 10
231.3929651871
 20
130.8152191747
 10
229.8508469653
 20
130.8208625739
 10
228.1349068637
 20
130.8259868885
 10
226.2627527497
 20
130.8305395362
 10
224.253595458
 20
130.8344738006
 10
222.1280516611
 20
130.8377493109
 10
219.9079323149
 20
130.8403324558
 10
217.616018848
 20
130.8421967288
 10
215.2758293942
 20
130.843323
 10
212.9113774639
 20
130.8436997123
 10
210.5469255336
 20
130.843323
 10
208.2067360797
 20
130.8421967288
 10
205.9148226129
 20
130.8403324558
 10
203.6947032666
 20
130.8377493109
 10
201.5691594698
 20
130.8344738006
 10
199.5600021781
 20
130.8305395362
 10
197.6878480641
 20
130.8259868885
 10
195.9719079624
 20
130.8208625739
 10
194.4297897406
 20
130.8152191747
 10
193.0773176185
 20
130.8091145998
 10
191.9283697901
 20
130.8026114906
 10
190.994736015
 20
130.7957765775
 10
190.2859966391
 20
130.7886799962
 10
189.8094242876
 20
130.7813945671
 10
189.5699092375
 20
130.7739950486
 10
189.5407567463
 20
130.7709004227
  0
LWPOLYLINE
  5
C3
330
1F
100
AcDbEntity
  8
0
  6
Continuous
 62
     7
370
    25
100
AcDbPolyline
 90
       17
 70
   128
 43
0.0
 10
189.5486267321
 20
130.7682713198
 10
189.5699092375
 20
130.7665573698
 10
189.8094242876
 20
130.7591578514
 10
190.2859966391
 20
130.7518724223
 10
190.994736015
 20
130.744775841
 10
191.9283697901
 20
130.7379409279
 10
193.0773176185
 20
130.7314378186
 10
194.4297897406
 20
130.7253332438
 10
195.9719079624
 20
130.7196898446
 10
197.6878480641
 20
130.7145655299
 10
199.5600021781
 20
130.7100128822
 10
201.5691594698
 20
130.7060786178
 10
203.6947032666
 20
130.7028031076
 10
205.9148226129
 20
130.7002199627
 10
208.2067360797
 20
130.6983556896
 10
210.5469255336
 20
130.6972294185
 10
212.9113774639
 20
130.6968527062
  0
LINE
  5
C4
330
1F
100
AcDbEntity
  8
0
  6
Continuous
 62
     7
370
    25
100
AcDbLine
 10
236.0738768513
 20
167.7618216649
 30
0.0
 11
237.7723317487
 21
167.7618216649
 31
0.0
  0
LINE
  5
C5
330
1F
100
AcDbEntity
  8
0
  6
Continuous
 62
     7
370
    25
100
AcDbLine
 10
188.0504231791
 20
167.7618216649
 30
0.0
 11
189.7488780764
 21
167.7618216649
 31
0.0
  0
LINE
  5
C6
330
1F
100
AcDbEntity
  8
0
  6
Continuous
 62
     8
370
    18
100
AcDbLine
 10
287.253308769
 20
206.7096951474
 30
0.0
 11
138.5694461599
 21
206.7096951474
 31
0.0
  0
LINE
  5
C7
330
1F
100
AcDbEntity
  8
0
  6
Continuous
 62
     8
370
    18
100
AcDbLine
 10
286.2641304087
 20
205.7359270015
 30
0.0
 11
139.5586245202
 21
205.7359270015
 31
0.0
  0
LWPOLYLINE
  5
C8
330
1F
100
AcDbEntity
  8
0
  6
Continuous
 62
     8
370
    18
100
AcDbPolyline
 90
       17
 70
   128
 43
0.0
 10
212.9113774639
 20
131.8293835662
 10
215.337976621
 20
131.8290030994
 10
217.7404591454
 20
131.8278654804
 10
220.0949480866
 20
131.8259820153
 10
222.3780434755
 20
131.8233714228
 10
224.5670548846
 20
131.8200596482
 10
226.6402269349
 20
131.8160796053
 10
228.5769555112
 20
131.8114708497
 10
230.3579925348
 20
131.8062791852
 10
231.9656372596
 20
131.8005562089
 10
233.38391219
 20
131.7943587983
 10
234.5987218727
 20
131.7877485461
 10
235.5979929832
 20
131.7807911479
 10
236.3717943163
 20
131.7735557495
 10
236.9124354866
 20
131.7661142595
 10
237.2145433594
 20
131.7585406347
 10
237.2826904569
 20
131.7528147556
  0
LWPOLYLINE
  5
C9
330
1F
100
AcDbEntity
  8
0
  6
Continuous
 62
     8
370
    18
100
AcDbPolyline
 90
       17
 70
   128
 43
0.0
 10
188.5400644708
 20
131.7528147556
 10
188.6082115684
 20
131.7585406347
 10
188.9103194411
 20
131.7661142595
 10
189.4509606115
 20
131.7735557495
 10
190.2247619445
 20
131.7807911479
 10
191.224033055
 20
131.7877485461
 10
192.4388427377
 20
131.7943587983
 10
193.8571176682
 20
131.8005562089
 10
195.464762393
 20
131.8062791852
 10
197.2457994166
 20
131.8114708497
 10
199.1825279929
 20
131.8160796053
 10
201.2557000432
 20
131.8200596482
 10
203.4447114522
 20
131.8233714228
 10
205.7278068412
 20
131.8259820153
 10
208.0822957823
 20
131.8278654804
 10
210.4847783068
 20
131.8290030994
 10
212.9113774639
 20
131.8293835662
  0
LINE
  5
CA
330
1F
100
AcDbEntity
  8
0
  6
Continuous
 62
     8
370
    18
100
AcDbLine
 10
237.7697129323
 20
167.0966036072
 30
0.0
 11
235.7016446297
 21
167.0966036072
 31
0.0
  0
LINE
  5
CB
330
1F
100
AcDbEntity
  8
0
  6
Continuous
 62
     8
370
    18
100
AcDbLine
 10
190.1211102981
 20
167.0966036072
 30
0.0
 11
188.0530419954
 21
167.0966036072
 31
0.0
  0
LINE
  5
CC
330
1F
100
AcDbEntity
  8
0
  6
Continuous
 62
     8
370
    18
100
AcDbLine
 10
231.5341147068
 20
175.74609509
 30
0.0
 11
188.4113774639
 21
175.74609509
 31
0.0
  0
LINE
  5
CD
330
1F
100
AcDbEntity
  8
0
  6
Continuous
 62
     8
370
    18
100
AcDbLine
 10
237.4113774639
 20
175.74609509
 30
0.0
 11
231.5341147068
 21
175.74609509
 31
0.0
  0
LINE
  5
CE
330
1F
100
AcDbEntity
  8
0
  6
Continuous
 62
     8
370
    18
100
AcDbLine
 10
236.2745062552
 20
130.7683152824
 30
0.0
 11
236.2817300961
 21
130.7709926684
 31
0.0
  0
LINE
  5
CF
330
1F
100
AcDbEntity
  8
0
  6
Continuous
 62
     8
370
    18
100
AcDbLine
 10
189.5407567463
 20
130.7709004227
 30
0.0
 11
189.5486267321
 21
130.7682713198
 31
0.0
  0
LINE
  5
D0
330
1F
100
AcDbEntity
  8
0
  6
Continuous
 62
     7
370
    25
100
AcDbLine
 10
360.6326307646
 20
302.6064788258
 30
0.0
 11
366.6690307072
 21
302.7645475212
 31
0.0
  0
LINE
  5
D1
330
1F
100
AcDbEntity
  8
0
  6
Continuous
 62
     7
370
    25
100
AcDbLine
 10
366.6690307072
 20
451.4484101303
 30
0.0
 11
360.6326307646
 21
451.6064788258
 31
0.0
  0
ARC
  5
D2
330
1F
100
AcDbEntity
  8
0
  6
Continuous
 62
     7
370
    25
100
AcDbCircle
 10
366.6428537589
 20
450.4487528053
 30
0.0
 40
0.9999999999996357
100
AcDbArc
 50
0.6004114401
 51
88.5
  0
ARC
  5
D3
330
1F
100
AcDbEntity
  8
0
  6
Continuous
 62
     7
370
    25
100
AcDbCircle
 10
366.6428537589
 20
303.7642048462
 30
0.0
 40
0.999999999999589
100
AcDbArc
 50
271.5
 51
359.3995885599
  0
ARC
  5
D4
330
1F
100
AcDbEntity
  8
0
  6
Continuous
 62
     7
370
    25
100
AcDbCircle
 10
-6631.9728601411
 20
377.1064788258
 30
0.0
 40
7000.000000000001
100
AcDbArc
 50
359.3995885599
 51
359.9223311133
  0
ARC
  5
D5
330
1F
100
AcDbEntity
  8
0
  6
Continuous
 62
     7
370
    25
100
AcDbCircle
 10
-6631.9728601411
 20
377.1064788258
 30
0.0
 40
7000.000000000001
100
AcDbArc
 50
0.3226490273
 51
0.6004114401
  0
LINE
  5
D6
330
1F
100
AcDbEntity
  8
0
  6
Continuous
 62
     7
370
    25
100
AcDbLine
 10
439.6857092279
 20
367.7190829738
 30
0.0
 11
441.7024715125
 21
367.7606238348
 31
0.0
  0
LINE
  5
D7
330
1F
100
AcDbEntity
  8
0
  6
Continuous
 62
     7
370
    25
100
AcDbLine
 10
419.8882945512
 20
367.3112998365
 30
0.0
 11
426.8329750328
 21
367.4543449583
 31
0.0
  0
LINE
  5
D8
330
1F
100
AcDbEntity
  8
0
  6
Continuous
 62
     7
370
    25
100
AcDbLine
 10
405.68717192
 20
367.0187879892
 30
0.0
 11
411.9865771562
 21
367.1485418622
 31
0.0
  0
LINE
  5
D9
330
1F
100
AcDbEntity
  8
0
  6
Continuous
 62
     7
370
    25
100
AcDbLine
 10
441.5493422884
 20
416.5030093592
 30
0.0
 11
412.1979704997
 21
416.9231060653
 31
0.0
  0
LINE
  5
DA
330
1F
100
AcDbEntity
  8
0
  6
Continuous
 62
     7
370
    25
100
AcDbLine
 10
397.6326307646
 20
416.6064788257
 30
0.0
 11
367.9158664707
 21
416.6064788257
 31
0.0
  0
LINE
  5
DB
330
1F
100
AcDbEntity
  8
0
  6
Continuous
 62
     7
370
    25
100
AcDbLine
 10
368.0206701008
 20
367.6064788257
 30
0.0
 11
397.6326307646
 21
367.6064788257
 31
0.0
  0
ARC
  5
DC
330
1F
100
AcDbEntity
  8
0
  6
Continuous
 62
     7
370
    25
100
AcDbCircle
 10
397.6326307646
 20
392.1064788257
 30
0.0
 40
24.50000000000004
100
AcDbArc
 50
270.0
 51
289.1781856756
  0
ARC
  5
DD
330
1F
100
AcDbEntity
  8
0
  6
Continuous
 62
     7
370
    25
100
AcDbCircle
 10
397.6326307646
 20
392.1064788257
 30
0.0
 40
24.50000000000002
100
AcDbArc
 50
56.7806578162
 51
90.0
  0
ARC
  5
DE
330
1F
100
AcDbEntity
  8
0
  6
Continuous
 62
     7
370
    25
100
AcDbCircle
 10
441.6818780832
 20
368.7604117676
 30
0.0
 40
1.000000000000035
100
AcDbArc
 50
271.18
 51
0.18
  0
ARC
  5
DF
330
1F
100
AcDbEntity
  8
0
  6
Continuous
 62
     7
370
    25
100
AcDbCircle
 10
441.5350310771
 20
415.5031117698
 30
0.0
 40
1.00000000000002
100
AcDbArc
 50
0.18
 51
89.18
  0
SPLINE
  5
E0
330
1F
100
AcDbEntity
  8
0
  6
Continuous
 62
     7
370
    25
100
AcDbSpline
210
0.0
220
0.0
230
1.0
 70
     8
 71
     3
 72
    13
 73
     9
 74
     0
 42
0.00000001
 43
0.00000001
 40
0.0
 40
0.0
 40
0.0
 40
0.0
 40
0.0842307799496819
 40
0.2427516082062577
 40
0.4670127027174538
 40
0.6878644997844832
 40
0.9244884720950236
 40
1.0
 40
1.0
 40
1.0
 40
1.0
 10
426.8313633119537
 20
367.4379729711432
 30
0.0
 10
426.8956064165185
 20
367.439614828091
 30
0.0
 10
427.0807539001173
 20
367.4443466305834
 30
0.0
 10
427.4243773243341
 20
367.3317842617052
 30
0.0
 10
427.8216807043389
 20
367.0864443930322
 30
0.0
 10
428.1366305929066
 20
366.6688137348863
 30
0.0
 10
428.2937838434804
 20
366.2749901299753
 30
0.0
 10
428.2754712159722
 20
366.0374858084559
 30
0.0
 10
428.2710410422746
 20
365.9800289854108
 30
0.0
  0
SPLINE
  5
E1
330
1F
100
AcDbEntity
  8
0
  6
Continuous
 62
     7
370
    25
100
AcDbSpline
210
0.0
220
0.0
230
1.0
 70
     8
 71
     3
 72
    14
 73
    10
 74
     0
 42
0.00000001
 43
0.00000001
 40
0.0
 40
0.0
 40
0.0
 40
0.0
 40
0.0513982887343477
 40
0.2939368373464673
 40
0.5110891544816483
 40
0.6881162884430501
 40
0.8377820068255671
 40
0.9623145667187238
 40
1.0
 40
1.0
 40
1.0
 40
1.0
 10
438.3050472636422
 20
366.2388804096023
 30
0.0
 10
438.3007097404865
 20
366.2769413740345
 30
0.0
 10
438.2759042874313
 20
366.4946046423468
 30
0.0
 10
438.4130266205077
 20
366.8706515981756
 30
0.0
 10
438.6792407573656
 20
367.2635952190613
 30
0.0
 10
439.0032568567583
 20
367.516604315617
 30
0.0
 10
439.3114958571224
 20
367.6518787925371
 30
0.0
 10
439.5388105787819
 20
367.7086762378648
 30
0.0
 10
439.6593497097895
 20
367.7128497602062
 30
0.0
 10
439.6873525798194
 20
367.7138193258792
 30
0.0
  0
LINE
  5
E2
330
1F
100
AcDbEntity
  8
0
  6
Continuous
 62
     7
370
    25
100
AcDbLine
 10
428.2905562314
 20
365.9770317972
 30
0.0
 11
428.535245805
 21
288.0901777154
 31
0.0
  0
LINE
  5
E3
330
1F
100
AcDbEntity
  8
0
  6
Continuous
 62
     7
370
    25
100
AcDbLine
 10
438.535196457
 20
288.1215935903
 30
0.0
 11
438.289801162
 21
366.2330850287
 31
0.0
  0
ARC
  5
E4
330
1F
100
AcDbEntity
  8
0
  6
Continuous
 62
     7
370
    25
100
AcDbCircle
 10
429.5352408702
 20
288.0933193029
 30
0.0
 40
1.0
100
AcDbArc
 50
180.18
 51
270.18
  0
ARC
  5
E5
330
1F
100
AcDbEntity
  8
0
  6
Continuous
 62
     7
370
    25
100
AcDbCircle
 10
437.5352013918
 20
288.1184520028
 30
0.0
 40
1.000000000000057
100
AcDbArc
 50
270.18
 51
0.18
  0
LINE
  5
E6
330
1F
100
AcDbEntity
  8
0
  6
Continuous
 62
     7
370
    25
100
AcDbLine
 10
411.9367708721
 20
367.1562625806
 30
0.0
 11
411.9376123156
 21
366.8884236512
 31
0.0
  0
LINE
  5
E7
330
1F
100
AcDbEntity
  8
0
  6
Continuous
 62
     7
370
    25
100
AcDbLine
 10
419.9375728373
 20
366.9135563511
 30
0.0
 11
419.9362987002
 21
367.3191254284
 31
0.0
  0
LINE
  5
E8
330
1F
100
AcDbEntity
  8
0
  6
Continuous
 62
     7
370
    25
100
AcDbLine
 10
411.9376123156
 20
366.8884236512
 30
0.0
 11
412.158079276
 21
366.2885659373
 31
0.0
  0
LINE
  5
E9
330
1F
100
AcDbEntity
  8
0
  6
Continuous
 62
     7
370
    25
100
AcDbLine
 10
419.7208792211
 20
366.3123252523
 30
0.0
 11
419.9375728373
 21
366.9135563511
 31
0.0
  0
ARC
  5
EA
330
1F
100
AcDbEntity
  8
0
  6
Continuous
 62
     7
370
    25
100
AcDbCircle
 10
419.5327267271
 20
366.380138518
 30
0.0
 40
0.2000000000000156
100
AcDbArc
 50
270.18
 51
340.18
  0
ARC
  5
EB
330
1F
100
AcDbEntity
  8
0
  6
Continuous
 62
     7
370
    25
100
AcDbCircle
 10
412.3458019755
 20
366.3575600538
 30
0.0
 40
0.2000000000000392
100
AcDbArc
 50
200.18
 51
270.18
  0
LINE
  5
EC
330
1F
100
AcDbEntity
  8
0
  6
Continuous
 62
     7
370
    25
100
AcDbLine
 10
412.346430293
 20
366.1575610407
 30
0.0
 11
419.5333550446
 21
366.180139505
 31
0.0
  0
LINE
  5
ED
330
1F
100
AcDbEntity
  8
0
  6
Continuous
 62
     7
370
    25
100
AcDbLine
 10
360.6326307646
 20
451.6064788258
 30
0.0
 11
360.6326307646
 21
302.6064788258
 31
0.0
  0
SPLINE
  5
EE
330
1F
100
AcDbEntity
  8
0
  6
Continuous
 62
     7
370
    25
100
AcDbSpline
210
0.0
220
0.0
230
1.0
 70
     8
 71
     3
 72
    21
 73
    17
 74
     0
 42
0.00000001
 43
0.00000001
 40
0.0
 40
0.0
 40
0.0
 40
0.0
 40
0.0705693204642519
 40
0.1431851589307355
 40
0.2137544783843152
 40
0.2863703078407163
 40
0.3569397156513981
 40
0.4295556387473451
 40
0.5001250822130396
 40
0.5727410479093358
 40
0.6433104230836392
 40
0.715926322846312
 40
0.7864955557130846
 40
0.8591113099051529
 40
0.9296803888161264
 40
1.0
 40
1.0
 40
1.0
 40
1.0
 10
367.9310694447263
 20
409.4306978015582
 30
0.0
 10
367.9332260188233
 20
408.4243101228072
 30
0.0
 10
367.9376017079017
 20
406.3823494126869
 30
0.0
 10
367.9452787772222
 20
402.7997609415836
 30
0.0
 10
367.953603254176
 20
398.9150482692091
 30
0.0
 10
367.9622848105062
 20
394.8636954171715
 30
0.0
 10
367.9712084363362
 20
390.6993726338231
 30
0.0
 10
367.9799677554914
 20
386.6117204234753
 30
0.0
 10
367.9884707068987
 20
382.6437006780343
 30
0.0
 10
367.9963238623081
 20
378.9789128867737
 30
0.0
 10
368.0034469114729
 20
375.6548360781532
 30
0.0
 10
368.0095072333207
 20
372.826694081079
 30
0.0
 10
368.0144529627922
 20
370.5186918563246
 30
0.0
 10
368.018015613558
 20
368.8561239818318
 30
0.0
 10
368.0202817753834
 20
367.7985829277459
 30
0.0
 10
368.0205407109989
 20
367.6777464111894
 30
0.0
 10
368.0206699495616
 20
367.6174351338587
 30
0.0
  0
SPLINE
  5
EF
330
1F
100
AcDbEntity
  8
0
  6
Continuous
 62
     7
370
    25
100
AcDbSpline
210
0.0
220
0.0
230
1.0
 70
     8
 71
     3
 72
    13
 73
     9
 74
     0
 42
0.00000001
 43
0.00000001
 40
0.0
 40
0.0
 40
0.0
 40
0.0
 40
0.0845514454161086
 40
0.3023464411035187
 40
0.5140032682754351
 40
0.7317981464806734
 40
0.8651546704433526
 40
1.0
 40
1.0
 40
1.0
 40
1.0
 10
367.9158665197887
 20
416.5252910316502
 30
0.0
 10
367.9158232077561
 20
416.5455029920079
 30
0.0
 10
367.9156683288084
 20
416.6177786846566
 30
0.0
 10
367.9169613282558
 20
416.014388542247
 30
0.0
 10
367.9196988197253
 20
414.7369124700844
 30
0.0
 10
367.9233797887078
 20
413.0191528796591
 30
0.0
 10
367.9272735652868
 20
411.2020835978009
 30
0.0
 10
367.9297994777461
 20
410.0233408257405
 30
0.0
 10
367.9310694447263
 20
409.4306978015582
 30
0.0
  0
LINE
  5
F0
330
1F
100
AcDbEntity
  8
0
  6
Continuous
 62
     7
370
    25
100
AcDbLine
 10
412.1979704997
 20
416.9231060653
 30
0.0
 11
406.2821222474
 21
394.5641239587
 31
0.0
  0
LINE
  5
F1
330
1F
100
AcDbEntity
  8
0
  6
Continuous
 62
     7
370
    25
100
AcDbLine
 10
405.68717192
 20
367.0187879892
 30
0.0
 11
405.6169041896
 21
389.3856276611
 31
0.0
  0
SPLINE
  5
F2
330
1F
100
AcDbEntity
  8
0
  6
Continuous
 62
     7
370
    25
100
AcDbSpline
210
0.0
220
0.0
230
1.0
 70
     8
 71
     3
 72
    10
 73
     6
 74
     0
 42
0.00000001
 43
0.00000001
 40
0.0
 40
0.0
 40
0.0
 40
0.0
 40
0.4288686266243469
 40
0.8579065387410224
 40
1.0
 40
1.0
 40
1.0
 40
1.0
 10
413.108090353545
 20
367.3330429815916
 30
0.0
 10
412.8280063027742
 20
367.2919980203575
 30
0.0
 10
412.2677276448443
 20
367.209891896386
 30
0.0
 10
411.9186254252023
 20
367.1440982697032
 30
0.0
 10
411.9729089991399
 20
367.1539851676887
 30
0.0
 10
411.9864143698302
 20
367.1564449582402
 30
0.0
  0
SPLINE
  5
F3
330
1F
100
AcDbEntity
  8
0
  6
Continuous
 62
     7
370
    25
100
AcDbSpline
210
0.0
220
0.0
230
1.0
 70
     8
 71
     3
 72
    15
 73
    11
 74
     0
 42
0.00000001
 43
0.00000001
 40
0.0
 40
0.0
 40
0.0
 40
0.0
 40
0.0439027464551755
 40
0.1854489539736068
 40
0.3274896742727425
 40
0.4708144157823473
 40
0.6140274991466327
 40
0.7557182039886651
 40
0.8969258183313061
 40
1.0
 40
1.0
 40
1.0
 40
1.0
 10
419.8881358958266
 20
367.3190023754175
 30
0.0
 10
419.9019331245153
 20
367.3170824351981
 30
0.0
 10
419.9602137979281
 20
367.3089724435891
 30
0.0
 10
419.6070686289768
 20
367.358773235811
 30
0.0
 10
418.8599162865393
 20
367.4467164732097
 30
0.0
 10
417.7500474435507
 20
367.5353300258064
 30
0.0
 10
416.4413518185069
 20
367.5721773033187
 30
0.0
 10
415.0861158747679
 20
367.5338189080402
 30
0.0
 10
413.9302932013375
 20
367.438083203137
 30
0.0
 10
413.3520702794639
 20
367.364212547034
 30
0.0
 10
413.108090353545
 20
367.3330429815916
 30
0.0
  0
SPLINE
  5
F4
330
1F
100
AcDbEntity
  8
0
  6
Continuous
 62
     7
370
    25
100
AcDbSpline
210
0.0
220
0.0
230
1.0
 70
     8
 71
     3
 72
     8
 73
     4
 74
     0
 42
0.00000001
 43
0.00000001
 40
0.0
 40
0.0
 40
0.0
 40
0.0
 40
1.0
 40
1.0
 40
1.0
 40
1.0
 10
406.2821222474133
 20
394.564123958665
 30
0.0
 10
405.8331522705739
 20
392.8672393783713
 30
0.0
 10
405.6113892549005
 20
391.1410801357208
 30
0.0
 10
405.6169041896421
 20
389.3856276610551
 30
0.0
  0
LINE
  5
F5
330
1F
100
AcDbEntity
  8
0
  6
Continuous
 62
     7
370
    25
100
AcDbLine
 10
442.5350261424
 20
415.5062533439
 30
0.0
 11
442.6818731484
 21
368.7635533551
 31
0.0
  0
LINE
  5
F6
330
1F
100
AcDbEntity
  8
0
  6
Continuous
 62
     7
370
    25
100
AcDbLine
 10
433.5383627185
 20
287.1058905876
 30
0.0
 11
429.5383824576
 21
287.0933242377
 31
0.0
  0
LINE
  5
F7
330
1F
100
AcDbEntity
  8
0
  6
Continuous
 62
     7
370
    25
100
AcDbLine
 10
437.5383429793
 20
287.1184569376
 30
0.0
 11
433.5383627185
 21
287.1058905876
 31
0.0
  0
LINE
  5
F8
330
1F
100
AcDbEntity
  8
0
  6
Continuous
 62
     7
370
    25
100
AcDbLine
 10
415.9375857799
 20
366.9009899798
 30
0.0
 11
419.9375728373
 21
366.9135563511
 31
0.0
  0
LINE
  5
F9
330
1F
100
AcDbEntity
  8
0
  6
Continuous
 62
     7
370
    25
100
AcDbLine
 10
411.9376123156
 20
366.8884236512
 30
0.0
 11
415.9375857799
 21
366.9009899798
 31
0.0
  0
LINE
  5
FA
330
1F
100
AcDbEntity
  8
0
  6
Continuous
 62
     8
370
    18
100
AcDbLine
 10
366.6690307072
 20
451.4484101303
 30
0.0
 11
366.6690307072
 21
302.7645475212
 31
0.0
  0
LINE
  5
FB
330
1F
100
AcDbEntity
  8
0
  6
Continuous
 62
     8
370
    18
100
AcDbLine
 10
367.642798853
 20
450.45923177
 30
0.0
 11
367.642798853
 21
303.7537258815
 31
0.0
  0
SPLINE
  5
FC
330
1F
100
AcDbEntity
  8
0
  6
Continuous
 62
     8
370
    18
100
AcDbSpline
210
0.0
220
0.0
230
1.0
 70
     8
 71
     3
 72
     9
 73
     5
 74
     0
 42
0.00000001
 43
0.00000001
 40
0.0
 40
0.0
 40
0.0
 40
0.0
 40
0.1565814705645302
 40
1.0
 40
1.0
 40
1.0
 40
1.0
 10
439.4925894435576
 20
367.7768124391068
 30
0.0
 10
439.5192614845504
 20
367.7712727926441
 30
0.0
 10
439.6896011862826
 20
367.7358941080348
 30
0.0
 10
439.6872977667689
 20
367.7361031005956
 30
0.0
 10
439.6853550200699
 20
367.736279368794
 30
0.0
  0
SPLINE
  5
FD
330
1F
100
AcDbEntity
  8
0
  6
Continuous
 62
     8
370
    18
100
AcDbSpline
210
0.0
220
0.0
230
1.0
 70
     8
 71
     3
 72
    16
 73
    12
 74
     0
 42
0.00000001
 43
0.00000001
 40
0.0
 40
0.0
 40
0.0
 40
0.0
 40
0.0782274536040495
 40
0.1895037178006665
 40
0.3052630638247442
 40
0.4263123437797737
 40
0.5479453882915656
 40
0.6659499219718862
 40
0.7818906340639261
 40
0.8985712981387767
 40
1.0
 40
1.0
 40
1.0
 40
1.0
 10
426.8326261861925
 20
367.4712810683969
 30
0.0
 10
426.8378894568602
 20
367.4727738809572
 30
0.0
 10
426.8506395760752
 20
367.4763901757121
 30
0.0
 10
427.6784109651215
 20
367.6807421915744
 30
0.0
 10
429.1059352163963
 20
367.9741287302837
 30
0.0
 10
431.0400431556944
 20
368.2533172636991
 30
0.0
 10
433.2157740500109
 20
368.393882065541
 30
0.0
 10
435.3714123613036
 20
368.3509693475661
 30
0.0
 10
437.2730554767255
 20
368.1669320519592
 30
0.0
 10
438.7469354273091
 20
367.9281521345586
 30
0.0
 10
439.2559017793083
 20
367.8248511249372
 30
0.0
 10
439.4925894435576
 20
367.7768124391068
 30
0.0
  0
LINE
  5
FE
330
1F
100
AcDbEntity
  8
0
  6
Continuous
 62
     8
370
    18
100
AcDbLine
 10
441.7024715125
 20
367.7606238348
 30
0.0
 11
441.5493422884
 21
416.5030093592
 31
0.0
  0
LINE
  5
FF
330
1F
100
AcDbEntity
  8
0
  6
Continuous
 62
     8
370
    18
100
AcDbLine
 10
397.6326307646
 20
416.6064788257
 30
0.0
 11
397.6326307646
 21
367.6064788257
 31
0.0
  0
SPLINE
  5
100
330
1F
100
AcDbEntity
  8
0
  6
Continuous
 62
     8
370
    18
100
AcDbSpline
210
0.0
220
0.0
230
1.0
 70
     8
 71
     3
 72
    16
 73
    12
 74
     0
 42
0.00000001
 43
0.00000001
 40
0.0
 40
0.0
 40
0.0
 40
0.0
 40
0.1035978291913421
 40
0.2224261678282026
 40
0.3352210014667095
 40
0.449921593713972
 40
0.5683195690041871
 40
0.688083703844299
 40
0.8048887650347275
 40
0.9187536968885129
 40
0.9999999999999999
 40
0.9999999999999999
 40
0.9999999999999999
 40
0.9999999999999999
 10
438.0849030739917
 20
366.2764022638455
 30
0.0
 10
437.9037115563098
 20
366.3276269064586
 30
0.0
 10
437.514690519522
 20
366.4376070193987
 30
0.0
 10
436.385155174516
 20
366.6934731855459
 30
0.0
 10
434.9188157064792
 20
366.8933381998205
 30
0.0
 10
433.2547011813081
 20
366.944020402366
 30
0.0
 10
431.5682212543509
 20
366.7968569695674
 30
0.0
 10
430.0818975964646
 20
366.5030594775108
 30
0.0
 10
428.9907969390382
 20
366.1957802308628
 30
0.0
 10
428.3591347475953
 20
365.9821909762885
 30
0.0
 10
428.3498394659942
 20
365.9785600801536
 30
0.0
 10
428.3459688161743
 20
365.9770481380659
 30
0.0
  0
SPLINE
  5
101
330
1F
100
AcDbEntity
  8
0
  6
Continuous
 62
     8
370
    18
100
AcDbSpline
210
0.0
220
0.0
230
1.0
 70
     8
 71
     3
 72
     9
 73
     5
 74
     0
 42
0.00000001
 43
0.00000001
 40
0.0
 40
0.0
 40
0.0
 40
0.0
 40
0.8449923645483886
 40
1.0
 40
1.0
 40
1.0
 40
1.0
 10
438.2340451918772
 20
366.2327529116318
 30
0.0
 10
438.235741051335
 20
366.2325062166864
 30
0.0
 10
438.2377480037395
 20
366.2322142673673
 30
0.0
 10
438.1054156060511
 20
366.2704720200625
 30
0.0
 10
438.0849030739917
 20
366.2764022638455
 30
0.0
  0
LINE
  5
102
330
1F
100
AcDbEntity
  8
0
  6
Continuous
 62
     8
370
    18
100
AcDbLine
 10
433.535221131
 20
288.1058856528
 30
0.0
 11
438.535196457
 21
288.1215935903
 31
0.0
  0
LINE
  5
103
330
1F
100
AcDbEntity
  8
0
  6
Continuous
 62
     8
370
    18
100
AcDbLine
 10
428.535245805
 20
288.0901777154
 30
0.0
 11
433.535221131
 21
288.1058856528
 31
0.0
  0
LINE
  5
104
330
1F
100
AcDbEntity
  8
0
  6
Continuous
 62
     8
370
    18
100
AcDbLine
 10
412.158079276
 20
366.2885659373
 30
0.0
 11
419.7208792211
 21
366.3123252523
 31
0.0
  0
ENDSEC
  0
SECTION
  2
OBJECTS
  0
DICTIONARY
  5
C
330
0
100
AcDbDictionary
281
     1
  3
ACAD_GROUP
350
D
  3
ACAD_LAYOUT
350
1A
  3
ACAD_MLINESTYLE
350
17
  3
ACAD_PLOTSETTINGS
350
19
  3
ACAD_PLOTSTYLENAME
350
E
  3
ACAD_SCALELIST
350
47
  3
DWGPROPS
350
105
  0
DICTIONARY
  5
D
102
{ACAD_REACTORS
330
C
102
}
330
C
100
AcDbDictionary
281
     1
  0
DICTIONARY
  5
1A
102
{ACAD_REACTORS
330
C
102
}
330
C
100
AcDbDictionary
281
     1
  3
Layout1
350
1E
  3
Layout2
350
26
  3
Model
350
22
  0
DICTIONARY
  5
17
102
{ACAD_REACTORS
330
C
102
}
330
C
100
AcDbDictionary
281
     1
  3
Standard
350
18
  0
DICTIONARY
  5
19
102
{ACAD_REACTORS
330
C
102
}
330
C
100
AcDbDictionary
281
     1
  0
ACDBDICTIONARYWDFLT
  5
E
102
{ACAD_REACTORS
330
C
102
}
330
C
100
AcDbDictionary
281
     1
  3
Normal
350
F
100
AcDbDictionaryWithDefault
340
F
  0
DICTIONARY
  5
47
102
{ACAD_REACTORS
330
C
102
}
330
C
100
AcDbDictionary
281
     1
  3
A0
350
48
  3
A1
350
49
  3
A2
350
4A
  3
A3
350
4B
  3
A4
350
4C
  3
A5
350
4D
  3
A6
350
4E
  3
A7
350
4F
  3
A8
350
50
  3
A9
350
51
  3
B0
350
52
  3
B1
350
53
  3
B2
350
54
  3
B3
350
55
  3
B4
350
56
  3
B5
350
57
  3
B6
350
58
  3
B7
350
59
  3
B8
350
5A
  3
B9
350
5B
  3
C0
350
5C
  3
C1
350
5D
  3
C2
350
5E
  3
C3
350
5F
  3
C4
350
60
  3
C5
350
61
  3
C6
350
62
  3
C7
350
63
  3
C8
350
64
  3
C9
350
65
  3
D0
350
66
  3
D1
350
67
  3
D2
350
68
  0
XRECORD
  5
105
102
{ACAD_REACTORS
330
C
102
}
330
C
100
AcDbXrecord
280
     1
  1
DWGPROPS COOKIE
  2

  3

  4

  6

  7

  8
fue-task
  9

300
=
301
=
302
=
303
=
304
=
305
=
306
=
307
=
308
=
309
=
 40
0.0
 41
2459986.497500613
 42
2459986.497501157
  1

 90
        0
  0
LAYOUT
  5
1E
102
{ACAD_REACTORS
330
1A
102
}
330
1A
100
AcDbPlotSettings
  1

  2
none_device
  4

  6

 40
0.0
 41
0.0
 42
0.0
 43
0.0
 44
0.0
 45
0.0
 46
0.0
 47
0.0
 48
0.0
 49
0.0
140
0.0
141
0.0
142
1.0
143
1.0
 70
   688
 72
     1
 73
     0
 74
     5
  7

 75
    16
147
1.0
148
0.0
149
0.0
100
AcDbLayout
  1
Layout1
 70
     1
 71
     1
 10
0.0
 20
0.0
 11
420.0
 21
297.0
 12
0.0
 22
0.0
 32
0.0
 14
1.0000000000E+20
 24
1.0000000000E+20
 34
1.0000000000E+20
 15
-1.0000000000E+20
 25
-1.0000000000E+20
 35
-1.0000000000E+20
146
0.0
 13
0.0
 23
0.0
 33
0.0
 16
1.0
 26
0.0
 36
0.0
 17
0.0
 27
1.0
 37
0.0
 76
     0
330
1B
  0
LAYOUT
  5
26
102
{ACAD_REACTORS
330
1A
102
}
330
1A
100
AcDbPlotSettings
  1

  2
none_device
  4

  6

 40
0.0
 41
0.0
 42
0.0
 43
0.0
 44
0.0
 45
0.0
 46
0.0
 47
0.0
 48
0.0
 49
0.0
140
0.0
141
0.0
142
1.0
143
1.0
 70
   688
 72
     1
 73
     0
 74
     5
  7

 75
    16
147
1.0
148
0.0
149
0.0
100
AcDbLayout
  1
Layout2
 70
     1
 71
     2
 10
0.0
 20
0.0
 11
0.0
 21
0.0
 12
0.0
 22
0.0
 32
0.0
 14
0.0
 24
0.0
 34
0.0
 15
0.0
 25
0.0
 35
0.0
146
0.0
 13
0.0
 23
0.0
 33
0.0
 16
1.0
 26
0.0
 36
0.0
 17
0.0
 27
1.0
 37
0.0
 76
     0
330
23
  0
LAYOUT
  5
22
102
{ACAD_REACTORS
330
1A
102
}
330
1A
100
AcDbPlotSettings
  1

  2
none_device
  4
Letter_(8.50_x_11.00_Inches)
  6

 40
6.35
 41
6.35
 42
6.35000508
 43
6.35000508
 44
215.9
 45
279.4
 46
0.0
 47
0.0
 48
0.0
 49
0.0
140
0.0
141
0.0
142
1.0
143
1.0
 70
  1712
 72
     1
 73
     0
 74
     0
  7

 75
     0
147
1.0
148
0.0
149
0.0
100
AcDbLayout
  1
Model
 70
     1
 71
     0
 10
0.0
 20
0.0
 11
594.0
 21
841.0
 12
0.0
 22
0.0
 32
0.0
 14
0.0
 24
0.0
 34
0.0
 15
594.0
 25
841.0
 35
0.0
146
0.0
 13
0.0
 23
0.0
 33
0.0
 16
1.0
 26
0.0
 36
0.0
 17
0.0
 27
1.0
 37
0.0
 76
     0
330
1F
331
29
  0
MLINESTYLE
  5
18
102
{ACAD_REACTORS
330
17
102
}
330
17
100
AcDbMlineStyle
  2
Standard
 70
     0
  3

 62
   256
 51
90.0
 52
90.0
 71
     2
 49
0.5
 62
   256
  6
BYLAYER
 49
-0.5
 62
   256
  6
BYLAYER
  0
ACDBPLACEHOLDER
  5
F
102
{ACAD_REACTORS
330
E
102
}
330
E
  0
SCALE
  5
48
102
{ACAD_REACTORS
330
47
102
}
330
47
100
AcDbScale
 70
     0
300
1:1
140
1.0
141
1.0
290
     1
  0
SCALE
  5
49
102
{ACAD_REACTORS
330
47
102
}
330
47
100
AcDbScale
 70
     0
300
1:2
140
1.0
141
2.0
290
     0
  0
SCALE
  5
4A
102
{ACAD_REACTORS
330
47
102
}
330
47
100
AcDbScale
 70
     0
300
1:4
140
1.0
141
4.0
290
     0
  0
SCALE
  5
4B
102
{ACAD_REACTORS
330
47
102
}
330
47
100
AcDbScale
 70
     0
300
1:5
140
1.0
141
5.0
290
     0
  0
SCALE
  5
4C
102
{ACAD_REACTORS
330
47
102
}
330
47
100
AcDbScale
 70
     0
300
1:8
140
1.0
141
8.0
290
     0
  0
SCALE
  5
4D
102
{ACAD_REACTORS
330
47
102
}
330
47
100
AcDbScale
 70
     0
300
1:10
140
1.0
141
10.0
290
     0
  0
SCALE
  5
4E
102
{ACAD_REACTORS
330
47
102
}
330
47
100
AcDbScale
 70
     0
300
1:16
140
1.0
141
16.0
290
     0
  0
SCALE
  5
4F
102
{ACAD_REACTORS
330
47
102
}
330
47
100
AcDbScale
 70
     0
300
1:20
140
1.0
141
20.0
290
     0
  0
SCALE
  5
50
102
{ACAD_REACTORS
330
47
102
}
330
47
100
AcDbScale
 70
     0
300
1:30
140
1.0
141
30.0
290
     0
  0
SCALE
  5
51
102
{ACAD_REACTORS
330
47
102
}
330
47
100
AcDbScale
 70
     0
300
1:40
140
1.0
141
40.0
290
     0
  0
SCALE
  5
52
102
{ACAD_REACTORS
330
47
102
}
330
47
100
AcDbScale
 70
     0
300
1:50
140
1.0
141
50.0
290
     0
  0
SCALE
  5
53
102
{ACAD_REACTORS
330
47
102
}
330
47
100
AcDbScale
 70
     0
300
1:100
140
1.0
141
100.0
290
     0
  0
SCALE
  5
54
102
{ACAD_REACTORS
330
47
102
}
330
47
100
AcDbScale
 70
     0
300
2:1
140
2.0
141
1.0
290
     0
  0
SCALE
  5
55
102
{ACAD_REACTORS
330
47
102
}
330
47
100
AcDbScale
 70
     0
300
4:1
140
4.0
141
1.0
290
     0
  0
SCALE
  5
56
102
{ACAD_REACTORS
330
47
102
}
330
47
100
AcDbScale
 70
     0
300
8:1
140
8.0
141
1.0
290
     0
  0
SCALE
  5
57
102
{ACAD_REACTORS
330
47
102
}
330
47
100
AcDbScale
 70
     0
300
10:1
140
10.0
141
1.0
290
     0
  0
SCALE
  5
58
102
{ACAD_REACTORS
330
47
102
}
330
47
100
AcDbScale
 70
     0
300
100:1
140
100.0
141
1.0
290
     0
  0
SCALE
  5
59
102
{ACAD_REACTORS
330
47
102
}
330
47
100
AcDbScale
 70
     0
300
1/128" = 1'-0"
140
0.0078125
141
12.0
290
     0
  0
SCALE
  5
5A
102
{ACAD_REACTORS
330
47
102
}
330
47
100
AcDbScale
 70
     0
300
1/64" = 1'-0"
140
0.015625
141
12.0
290
     0
  0
SCALE
  5
5B
102
{ACAD_REACTORS
330
47
102
}
330
47
100
AcDbScale
 70
     0
300
1/32" = 1'-0"
140
0.03125
141
12.0
290
     0
  0
SCALE
  5
5C
102
{ACAD_REACTORS
330
47
102
}
330
47
100
AcDbScale
 70
     0
300
1/16" = 1'-0"
140
0.0625
141
12.0
290
     0
  0
SCALE
  5
5D
102
{ACAD_REACTORS
330
47
102
}
330
47
100
AcDbScale
 70
     0
300
3/32" = 1'-0"
140
0.09375
141
12.0
290
     0
  0
SCALE
  5
5E
102
{ACAD_REACTORS
330
47
102
}
330
47
100
AcDbScale
 70
     0
300
1/8" = 1'-0"
140
0.125
141
12.0
290
     0
  0
SCALE
  5
5F
102
{ACAD_REACTORS
330
47
102
}
330
47
100
AcDbScale
 70
     0
300
3/16" = 1'-0"
140
0.1875
141
12.0
290
     0
  0
SCALE
  5
60
102
{ACAD_REACTORS
330
47
102
}
330
47
100
AcDbScale
 70
     0
300
1/4" = 1'-0"
140
0.25
141
12.0
290
     0
  0
SCALE
  5
61
102
{ACAD_REACTORS
330
47
102
}
330
47
100
AcDbScale
 70
     0
300
3/8" = 1'-0"
140
0.375
141
12.0
290
     0
  0
SCALE
  5
62
102
{ACAD_REACTORS
330
47
102
}
330
47
100
AcDbScale
 70
     0
300
1/2" = 1'-0"
140
0.5
141
12.0
290
     0
  0
SCALE
  5
63
102
{ACAD_REACTORS
330
47
102
}
330
47
100
AcDbScale
 70
     0
300
3/4" = 1'-0"
140
0.75
141
12.0
290
     0
  0
SCALE
  5
64
102
{ACAD_REACTORS
330
47
102
}
330
47
100
AcDbScale
 70
     0
300
1" = 1'-0"
140
1.0
141
12.0
290
     0
  0
SCALE
  5
65
102
{ACAD_REACTORS
330
47
102
}
330
47
100
AcDbScale
 70
     0
300
1-1/2" = 1'-0"
140
1.5
141
12.0
290
     0
  0
SCALE
  5
66
102
{ACAD_REACTORS
330
47
102
}
330
47
100
AcDbScale
 70
     0
300
3" = 1'-0"
140
3.0
141
12.0
290
     0
  0
SCALE
  5
67
102
{ACAD_REACTORS
330
47
102
}
330
47
100
AcDbScale
 70
     0
300
6" = 1'-0"
140
6.0
141
12.0
290
     0
  0
SCALE
  5
68
102
{ACAD_REACTORS
330
47
102
}
330
47
100
AcDbScale
 70
     0
300
1'-0" = 1'-0"
140
12.0
141
12.0
290
     0
  0
ENDSEC
  0
EOF
