  0
SECTION
  2
HEADER
  9
$ACADVER
  1
AC1014
  9
$ACADMAINTVER
 70
     9
  9
$DWGCODEPAGE
  3
ANSI_1252
  9
$INSBASE
 10
0.0
 20
0.0
 30
0.0
  9
$EXTMIN
 10
0.0
 20
0.0
 30
0.0
  9
$EXTMAX
 10
594.0
 20
841.0
 30
0.0
  9
$LIMMIN
 10
0.0
 20
0.0
  9
$LIMMAX
 10
594.0
 20
841.0
  9
$ORTHOMODE
 70
     0
  9
$REGENMODE
 70
     1
  9
$FILLMODE
 70
     1
  9
$QTEXTMODE
 70
     0
  9
$MIRRTEXT
 70
     1
  9
$DRAGMODE
 70
     2
  9
$LTSCALE
 40
1.0
  9
$OSMODE
 70
    37
  9
$ATTMODE
 70
     1
  9
$TEXTSIZE
 40
10.0
  9
$TRACEWID
 40
1.0
  9
$TEXTSTYLE
  7
STANDARD
  9
$CLAYER
  8
0
  9
$CELTYPE
  6
BYLAYER
  9
$CECOLOR
 62
   256
  9
$CELTSCALE
 40
1.0
  9
$DELOBJ
 70
     1
  9
$DISPSILH
 70
     0
  9
$DIMSCALE
 40
1.0
  9
$DIMASZ
 40
2.5
  9
$DIMEXO
 40
0.0
  9
$DIMDLI
 40
3.75
  9
$DIMRND
 40
0.0
  9
$DIMDLE
 40
0.0
  9
$DIMEXE
 40
1.0
  9
$DIMTP
 40
0.0
  9
$DIMTM
 40
0.0
  9
$DIMTXT
 40
3.5
  9
$DIMCEN
 40
2.5
  9
$DIMTSZ
 40
0.0
  9
$DIMTOL
 70
     0
  9
$DIMLIM
 70
     0
  9
$DIMTIH
 70
     1
  9
$DIMTOH
 70
     1
  9
$DIMSE1
 70
     0
  9
$DIMSE2
 70
     0
  9
$DIMTAD
 70
     1
  9
$DIMZIN
 70
     0
  9
$DIMBLK
  1

  9
$DIMASO
 70
     1
  9
$DIMSHO
 70
     1
  9
$DIMPOST
  1

  9
$DIMAPOST
  1

  9
$DIMALT
 70
     0
  9
$DIMALTD
 70
     3
  9
$DIMALTF
 40
0.0393700787
  9
$DIMLFAC
 40
1.0
  9
$DIMTOFL
 70
     1
  9
$DIMTVP
 40
0.0
  9
$DIMTIX
 70
     0
  9
$DIMSOXD
 70
     0
  9
$DIMSAH
 70
     0
  9
$DIMBLK1
  1

  9
$DIMBLK2
  1

  9
$DIMSTYLE
  2
ISO-25
  9
$DIMCLRD
 70
     0
  9
$DIMCLRE
 70
     0
  9
$DIMCLRT
 70
     0
  9
$DIMTFAC
 40
1.0
  9
$DIMGAP
 40
1.5
  9
$DIMJUST
 70
     0
  9
$DIMSD1
 70
     0
  9
$DIMSD2
 70
     0
  9
$DIMTOLJ
 70
     0
  9
$DIMTZIN
 70
     0
  9
$DIMALTZ
 70
     0
  9
$DIMALTTZ
 70
     0
  9
$DIMFIT
 70
     3
  9
$DIMUPT
 70
     0
  9
$DIMUNIT
 70
     2
  9
$DIMDEC
 70
     2
  9
$DIMTDEC
 70
     2
  9
$DIMALTU
 70
     2
  9
$DIMALTTD
 70
     3
  9
$DIMTXSTY
  7
STANDARD
  9
$DIMAUNIT
 70
     0
  9
$LUNITS
 70
     2
  9
$LUPREC
 70
     2
  9
$SKETCHINC
 40
1.0
  9
$FILLETRAD
 40
10.0
  9
$AUNITS
 70
     0
  9
$AUPREC
 70
     2
  9
$MENU
  1
.
  9
$ELEVATION
 40
0.0
  9
$PELEVATION
 40
0.0
  9
$THICKNESS
 40
0.0
  9
$LIMCHECK
 70
     0
  9
$CHAMFERA
 40
0.0
  9
$CHAMFERB
 40
0.0
  9
$CHAMFERC
 40
0.0
  9
$CHAMFERD
 40
0.0
  9
$SKPOLY
 70
     0
  9
$TDCREATE
 40
2457161.599992048
  9
$TDUPDATE
 40
2457161.599992407
  9
$TDINDWG
 40
0.0000000116
  9
$TDUSRTIMER
 40
0.0000000116
  9
$USRTIMER
 70
     1
  9
$ANGBASE
 50
0.0
  9
$ANGDIR
 70
     0
  9
$PDMODE
 70
     0
  9
$PDSIZE
 40
-1.0
  9
$PLINEWID
 40
0.0
  9
$COORDS
 70
     1
  9
$SPLFRAME
 70
     0
  9
$SPLINETYPE
 70
     6
  9
$SPLINESEGS
 70
     8
  9
$ATTDIA
 70
     0
  9
$ATTREQ
 70
     1
  9
$HANDLING
 70
     1
  9
$HANDSEED
  5
F7
  9
$SURFTAB1
 70
     6
  9
$SURFTAB2
 70
     6
  9
$SURFTYPE
 70
     6
  9
$SURFU
 70
     6
  9
$SURFV
 70
     6
  9
$UCSNAME
  2

  9
$UCSORG
 10
0.0
 20
0.0
 30
0.0
  9
$UCSXDIR
 10
1.0
 20
0.0
 30
0.0
  9
$UCSYDIR
 10
0.0
 20
1.0
 30
0.0
  9
$PUCSNAME
  2

  9
$PUCSORG
 10
0.0
 20
0.0
 30
0.0
  9
$PUCSXDIR
 10
1.0
 20
0.0
 30
0.0
  9
$PUCSYDIR
 10
0.0
 20
1.0
 30
0.0
  9
$USERI1
 70
     0
  9
$USERI2
 70
     0
  9
$USERI3
 70
     0
  9
$USERI4
 70
     0
  9
$USERI5
 70
     0
  9
$USERR1
 40
0.0
  9
$USERR2
 40
0.0
  9
$USERR3
 40
0.0
  9
$USERR4
 40
0.0
  9
$USERR5
 40
0.0
  9
$WORLDVIEW
 70
     1
  9
$SHADEDGE
 70
     3
  9
$SHADEDIF
 70
    70
  9
$TILEMODE
 70
     1
  9
$MAXACTVP
 70
    64
  9
$PINSBASE
 10
0.0
 20
0.0
 30
0.0
  9
$PLIMCHECK
 70
     0
  9
$PEXTMIN
 10
1.0000000000E+20
 20
1.0000000000E+20
 30
1.0000000000E+20
  9
$PEXTMAX
 10
-1.0000000000E+20
 20
-1.0000000000E+20
 30
-1.0000000000E+20
  9
$PLIMMIN
 10
0.0
 20
0.0
  9
$PLIMMAX
 10
420.0
 20
297.0
  9
$UNITMODE
 70
     0
  9
$VISRETAIN
 70
     1
  9
$PLINEGEN
 70
     0
  9
$PSLTSCALE
 70
     1
  9
$TREEDEPTH
 70
  3020
  9
$PICKSTYLE
 70
     1
  9
$CMLSTYLE
  2
STANDARD
  9
$CMLJUST
 70
     0
  9
$CMLSCALE
 40
20.0
  9
$PROXYGRAPHICS
 70
     1
  9
$MEASUREMENT
 70
     1
  0
ENDSEC
  0
SECTION
  2
CLASSES
  0
CLASS
  1
ACDBDICTIONARYWDFLT
  2
AcDbDictionaryWithDefault
  3
ObjectDBX Classes
 90
        0
280
     0
281
     0
  0
CLASS
  1
VISUALSTYLE
  2
AcDbVisualStyle
  3
ObjectDBX Classes
 90
     4095
280
     0
281
     0
  0
CLASS
  1
MATERIAL
  2
AcDbMaterial
  3
ObjectDBX Classes
 90
     1153
280
     0
281
     0
  0
CLASS
  1
SCALE
  2
AcDbScale
  3
ObjectDBX Classes
 90
     1153
280
     0
281
     0
  0
CLASS
  1
SUN
  2
AcDbSun
  3
SCENEOE
 90
     1153
280
     0
281
     0
  0
CLASS
  1
XRECORD
  2
AcDbXrecord
  3
ObjectDBX Classes
 90
        0
280
     0
281
     0
  0
CLASS
  1
LWPOLYLINE
  2
AcDbPolyline
  3
ObjectDBX Classes
 90
        0
280
     0
281
     1
  0
CLASS
  1
HATCH
  2
AcDbHatch
  3
ObjectDBX Classes
 90
        0
280
     0
281
     1
  0
ENDSEC
  0
SECTION
  2
TABLES
  0
TABLE
  2
VPORT
  5
8
330
0
100
AcDbSymbolTable
 70
     1
  0
VPORT
  5
29
330
8
100
AcDbSymbolTableRecord
100
AcDbViewportTableRecord
  2
*ACTIVE
 70
     0
 10
0.0
 20
0.0
 11
1.0
 21
1.0
 12
297.0
 22
420.5
 13
0.0
 23
0.0
 14
10.0
 24
10.0
 15
10.0
 25
10.0
 16
0.0
 26
0.0
 36
1.0
 17
0.0
 27
0.0
 37
0.0
 40
841.0
 41
0.7063020214
 42
50.0
 43
0.0
 44
0.0
 50
0.0
 51
0.0
 71
     0
 72
  2000
 73
     1
 74
     3
 75
     0
 76
     0
 77
     0
 78
     0
  0
ENDTAB
  0
TABLE
  2
LTYPE
  5
5
330
0
100
AcDbSymbolTable
 70
     6
  0
LTYPE
  5
14
330
5
100
AcDbSymbolTableRecord
100
AcDbLinetypeTableRecord
  2
BYBLOCK
 70
     0
  3

 72
    65
 73
     0
 40
0.0
  0
LTYPE
  5
15
330
5
100
AcDbSymbolTableRecord
100
AcDbLinetypeTableRecord
  2
BYLAYER
 70
     0
  3

 72
    65
 73
     0
 40
0.0
  0
LTYPE
  5
16
330
5
100
AcDbSymbolTableRecord
100
AcDbLinetypeTableRecord
  2
CONTINUOUS
 70
     0
  3
Solid line
 72
    65
 73
     0
 40
0.0
  0
LTYPE
  5
6A
330
5
100
AcDbSymbolTableRecord
100
AcDbLinetypeTableRecord
  2
HIDDEN
 70
     0
  3
Hidden __ __ __ __ __ __ __ __ __ __ __ __ __ __
 72
    65
 73
     2
 40
1.905
 49
1.27
 74
     0
 49
-0.635
 74
     0
  0
LTYPE
  5
6B
330
5
100
AcDbSymbolTableRecord
100
AcDbLinetypeTableRecord
  2
PHANTOM
 70
     0
  3
Phantom ______  __  __  ______  __  __  ______
 72
    65
 73
     6
 40
12.7
 49
6.35
 74
     0
 49
-1.27
 74
     0
 49
1.27
 74
     0
 49
-1.27
 74
     0
 49
1.27
 74
     0
 49
-1.27
 74
     0
  0
LTYPE
  5
6C
330
5
100
AcDbSymbolTableRecord
100
AcDbLinetypeTableRecord
  2
CENTER
 70
     0
  3
Center ____ _ ____ _ ____ _ ____ _ ____ _ ____
 72
    65
 73
     4
 40
10.16
 49
6.35
 74
     0
 49
-1.27
 74
     0
 49
1.27
 74
     0
 49
-1.27
 74
     0
  0
LTYPE
  5
6D
330
5
100
AcDbSymbolTableRecord
100
AcDbLinetypeTableRecord
  2
CENTERX2
 70
     0
  3
Center (2x) ________  __  ________  __  _____
 72
    65
 73
     4
 40
20.32
 49
12.7
 74
     0
 49
-2.54
 74
     0
 49
2.54
 74
     0
 49
-2.54
 74
     0
  0
LTYPE
  5
6E
330
5
100
AcDbSymbolTableRecord
100
AcDbLinetypeTableRecord
  2
DOT2
 70
     0
  3
Dot (.5x) ........................................
 72
    65
 73
     2
 40
0.635
 49
0.0
 74
     0
 49
-0.635
 74
     0
  0
ENDTAB
  0
TABLE
  2
LAYER
  5
2
330
0
100
AcDbSymbolTable
 70
     1
  0
LAYER
  5
10
330
2
100
AcDbSymbolTableRecord
100
AcDbLayerTableRecord
  2
0
 70
     0
 62
     7
  6
CONTINUOUS
  0
ENDTAB
  0
TABLE
  2
STYLE
  5
3
330
0
100
AcDbSymbolTable
 70
     3
  0
STYLE
  5
11
330
3
100
AcDbSymbolTableRecord
100
AcDbTextStyleTableRecord
  2
STANDARD
 70
     0
 40
0.0
 41
1.0
 50
0.0
 71
     0
 42
10.0
  3
txt
  4

  0
STYLE
  5
72
330
3
100
AcDbSymbolTableRecord
100
AcDbTextStyleTableRecord
  2
SLDTEXTSTYLE0
 70
     0
 40
0.0
 41
0.96
 50
0.0
 71
     0
 42
10.0
  3
ISOCP3
  4

  0
STYLE
  5
89
330
3
100
AcDbSymbolTableRecord
100
AcDbTextStyleTableRecord
  2
SLDTEXTSTYLE1
 70
     0
 40
0.0
 41
0.605
 50
0.0
 71
     0
 42
10.0
  3
TXT
  4

  0
ENDTAB
  0
TABLE
  2
VIEW
  5
6
330
0
100
AcDbSymbolTable
 70
     0
  0
ENDTAB
  0
TABLE
  2
UCS
  5
7
330
0
100
AcDbSymbolTable
 70
     0
  0
ENDTAB
  0
TABLE
  2
APPID
  5
9
330
0
100
AcDbSymbolTable
 70
     1
  0
APPID
  5
12
330
9
100
AcDbSymbolTableRecord
100
AcDbRegAppTableRecord
  2
ACAD
 70
     0
  0
ENDTAB
  0
TABLE
  2
DIMSTYLE
  5
A
330
0
100
AcDbSymbolTable
 70
     2
  0
DIMSTYLE
105
27
330
A
100
AcDbSymbolTableRecord
100
AcDbDimStyleTableRecord
  2
ISO-25
 70
     0
  3

  4

  5

  6

  7

 40
1.0
 41
2.5
 42
0.625
 43
3.75
 44
1.25
 45
0.0
 46
0.0
 47
0.0
 48
0.0
140
2.5
141
2.5
142
0.0
143
0.0393700787
144
1.0
145
0.0
146
1.0
147
0.625
 71
     0
 72
     0
 73
     0
 74
     0
 75
     0
 76
     0
 77
     1
 78
     8
170
     0
171
     3
172
     1
173
     0
174
     0
175
     0
176
     0
177
     0
178
     0
270
     2
271
     2
272
     2
273
     2
274
     3
340
11
275
     0
280
     0
281
     0
282
     0
283
     0
284
     8
285
     0
286
     0
287
     3
288
     0
  0
DIMSTYLE
105
73
102
{ACAD_REACTORS
330
71
330
7E
102
}
330
A
100
AcDbSymbolTableRecord
100
AcDbDimStyleTableRecord
  2
SLDDIMSTYLE0
 70
     0
  3

  4

  5

  6

  7

 40
1.0
 41
2.5
 42
0.0625
 43
0.38
 44
0.0
 45
0.000000001
 46
0.0
 47
0.0
 48
0.0
140
6.0
141
0.09
142
0.0
143
25.4
144
1.0
145
0.0
146
1.0
147
1.5
 71
     0
 72
     0
 73
     0
 74
     0
 75
     0
 76
     0
 77
     1
 78
    12
170
     0
171
     2
172
     0
173
     1
174
     0
175
     0
176
     0
177
     0
178
     0
270
     2
271
     2
272
     2
273
     2
274
     2
340
72
275
     0
280
     0
281
     0
282
     0
283
     1
284
    12
285
     0
286
     0
287
     3
288
     0
  0
ENDTAB
  0
TABLE
  2
BLOCK_RECORD
  5
1
330
0
100
AcDbSymbolTable
 70
     3
  0
BLOCK_RECORD
  5
1F
330
1
100
AcDbSymbolTableRecord
100
AcDbBlockTableRecord
  2
*MODEL_SPACE
  0
BLOCK_RECORD
  5
1B
330
1
100
AcDbSymbolTableRecord
100
AcDbBlockTableRecord
  2
*PAPER_SPACE
  0
BLOCK_RECORD
  5
23
330
1
100
AcDbSymbolTableRecord
100
AcDbBlockTableRecord
  2
*PAPER_SPACE0
  0
BLOCK_RECORD
  5
74
330
1
100
AcDbSymbolTableRecord
100
AcDbBlockTableRecord
  2
_D
  0
BLOCK_RECORD
  5
7F
330
1
100
AcDbSymbolTableRecord
100
AcDbBlockTableRecord
  2
_D_1
  0
ENDTAB
  0
ENDSEC
  0
SECTION
  2
BLOCKS
  0
BLOCK
  5
20
330
1F
100
AcDbEntity
  8
0
100
AcDbBlockBegin
  2
*MODEL_SPACE
 70
     0
 10
0.0
 20
0.0
 30
0.0
  3
*MODEL_SPACE
  1

  0
ENDBLK
  5
21
330
1F
100
AcDbEntity
  8
0
100
AcDbBlockEnd
  0
BLOCK
  5
1C
330
1B
100
AcDbEntity
 67
     1
  8
0
100
AcDbBlockBegin
  2
*PAPER_SPACE
 70
     0
 10
0.0
 20
0.0
 30
0.0
  3
*PAPER_SPACE
  1

  0
ENDBLK
  5
1D
330
1B
100
AcDbEntity
 67
     1
  8
0
100
AcDbBlockEnd
  0
BLOCK
  5
24
330
23
100
AcDbEntity
  8
0
100
AcDbBlockBegin
  2
*PAPER_SPACE0
 70
     0
 10
0.0
 20
0.0
 30
0.0
  3
*PAPER_SPACE0
  1
*PAPER_SPACE0
  0
ENDBLK
  5
25
330
23
100
AcDbEntity
  8
0
100
AcDbBlockEnd
  0
BLOCK
  5
75
330
74
100
AcDbEntity
  8
0
100
AcDbBlockBegin
  2
_D
 70
     0
 10
0.0
 20
0.0
 30
0.0
  3
_D
  1
_D
  0
SOLID
  5
77
330
74
100
AcDbEntity
  8
0
  6
CONTINUOUS
 62
     7
100
AcDbTrace
 10
42.7614395004
 20
152.0299240879
 30
0.0
 11
42.4614395004
 21
149.5299240879
 31
0.0
 12
43.0614395004
 22
149.5299240879
 32
0.0
 13
43.0614395004
 23
149.5299240879
 33
0.0
  0
SOLID
  5
78
330
74
100
AcDbEntity
  8
0
  6
CONTINUOUS
 62
     7
100
AcDbTrace
 10
42.7614395004
 20
52.0299240879
 30
0.0
 11
43.0614395004
 21
54.5299240879
 31
0.0
 12
42.4614395004
 22
54.5299240879
 32
0.0
 13
42.4614395004
 23
54.5299240879
 33
0.0
  0
LINE
  5
79
330
74
100
AcDbEntity
  8
0
  6
CONTINUOUS
 62
     7
100
AcDbLine
 10
56.6850079902
 20
152.0299240879
 30
0.0
 11
41.7614395004
 21
152.0299240879
 31
0.0
  0
LINE
  5
7A
330
74
100
AcDbEntity
  8
0
  6
CONTINUOUS
 62
     7
100
AcDbLine
 10
56.6850079902
 20
52.0299240879
 30
0.0
 11
41.7614395004
 21
52.0299240879
 31
0.0
  0
LINE
  5
7B
330
74
100
AcDbEntity
  8
0
  6
CONTINUOUS
 62
     7
100
AcDbLine
 10
42.7614395004
 20
152.0299240879
 30
0.0
 11
42.7614395004
 21
52.0299240879
 31
0.0
  0
MTEXT
  5
7C
330
74
100
AcDbEntity
  8
0
  6
CONTINUOUS
 62
     7
100
AcDbMText
 10
35.0270332946
 20
94.3680541463
 30
0.0
 40
6.0
 41
0.0
 71
     1
 72
     1
  1
100
  7
SLDTEXTSTYLE0
 11
-7.044195017643634E-15
 21
1.0
 31
0.0
  0
MTEXT
  5
7D
330
74
100
AcDbEntity
  8
0
  6
CONTINUOUS
 62
     7
100
AcDbMText
 10
35.0270332946
 20
105.7430548466
 30
0.0
 40
6.0
 41
0.0
 71
     1
 72
     1
  1
mm
  7
SLDTEXTSTYLE0
 11
-7.044195017643634E-15
 21
1.0
 31
0.0
  0
ENDBLK
  5
76
330
74
100
AcDbEntity
  8
0
100
AcDbBlockEnd
  0
BLOCK
  5
80
330
7F
100
AcDbEntity
  8
0
100
AcDbBlockBegin
  2
_D_1
 70
     0
 10
0.0
 20
0.0
 30
0.0
  3
_D_1
  1
_D_1
  0
SOLID
  5
82
330
7F
100
AcDbEntity
  8
0
  6
CONTINUOUS
 62
     7
100
AcDbTrace
 10
56.6850079902
 20
38.4602342313
 30
0.0
 11
59.1850079902
 21
38.1602342313
 31
0.0
 12
59.1850079902
 22
38.7602342313
 32
0.0
 13
59.1850079902
 23
38.7602342313
 33
0.0
  0
SOLID
  5
83
330
7F
100
AcDbEntity
  8
0
  6
CONTINUOUS
 62
     7
100
AcDbTrace
 10
156.6850079902
 20
38.4602342313
 30
0.0
 11
154.1850079902
 21
38.7602342313
 31
0.0
 12
154.1850079902
 22
38.1602342313
 32
0.0
 13
154.1850079902
 23
38.1602342313
 33
0.0
  0
LINE
  5
84
330
7F
100
AcDbEntity
  8
0
  6
CONTINUOUS
 62
     7
100
AcDbLine
 10
56.6850079902
 20
52.0299240879
 30
0.0
 11
56.6850079902
 21
37.4602342313
 31
0.0
  0
LINE
  5
85
330
7F
100
AcDbEntity
  8
0
  6
CONTINUOUS
 62
     7
100
AcDbLine
 10
156.6850079902
 20
52.0299240879
 30
0.0
 11
156.6850079902
 21
37.4602342313
 31
0.0
  0
LINE
  5
86
330
7F
100
AcDbEntity
  8
0
  6
CONTINUOUS
 62
     7
100
AcDbLine
 10
56.6850079902
 20
38.4602342313
 30
0.0
 11
156.6850079902
 21
38.4602342313
 31
0.0
  0
MTEXT
  5
87
330
7F
100
AcDbEntity
  8
0
  6
CONTINUOUS
 62
     7
100
AcDbMText
 10
93.9626484861
 20
46.1946404371
 30
0.0
 40
6.0
 41
0.0
 71
     1
 72
     1
  1
100
  7
SLDTEXTSTYLE0
  0
MTEXT
  5
88
330
7F
100
AcDbEntity
  8
0
  6
CONTINUOUS
 62
     7
100
AcDbMText
 10
105.3376491864
 20
46.1946404371
 30
0.0
 40
6.0
 41
0.0
 71
     1
 72
     1
  1
mm
  7
SLDTEXTSTYLE0
  0
ENDBLK
  5
81
330
7F
100
AcDbEntity
  8
0
100
AcDbBlockEnd
  0
ENDSEC
  0
SECTION
  2
ENTITIES
  0
LINE
  5
6F
330
1F
100
AcDbEntity
  8
0
  6
CONTINUOUS
 62
     7
100
AcDbLine
 10
56.6850079902
 20
152.0299240879
 30
0.0
 11
56.6850079902
 21
52.0299240879
 31
0.0
  0
LINE
  5
70
330
1F
100
AcDbEntity
  8
0
  6
CONTINUOUS
 62
     7
100
AcDbLine
 10
56.6850079902
 20
52.0299240879
 30
0.0
 11
156.6850079902
 21
52.0299240879
 31
0.0
  0
DIMENSION
  5
71
330
1F
100
AcDbEntity
  8
0
  6
CONTINUOUS
 62
     7
100
AcDbDimension
  2
_D
 10
42.7614395004
 20
52.0299240879
 30
0.0
 11
42.7614395004
 21
105.4472211621
 31
0.0
 70
   160
  1
<>mm
  3
SLDDIMSTYLE0
100
AcDbAlignedDimension
 13
56.6850079902
 23
152.0299240879
 33
0.0
 14
56.6850079902
 24
52.0299240879
 34
0.0
 50
90.0
100
AcDbRotatedDimension
  0
DIMENSION
  5
7E
330
1F
100
AcDbEntity
  8
0
  6
CONTINUOUS
 62
     7
100
AcDbDimension
  2
_D_1
 10
156.6850079902
 20
38.4602342313
 30
0.0
 11
105.0418155019
 21
38.4602342313
 31
0.0
 70
   160
  1
<>mm
  3
SLDDIMSTYLE0
100
AcDbAlignedDimension
 13
56.6850079902
 23
52.0299240879
 33
0.0
 14
156.6850079902
 24
52.0299240879
 34
0.0
100
AcDbRotatedDimension
  0
MTEXT
  5
8A
330
1F
100
AcDbEntity
  8
0
  6
CONTINUOUS
 62
     7
100
AcDbMText
 10
222.8856995391
 20
49.3034557666
 30
0.0
 40
10.0
 41
0.0
 71
     1
 72
     1
  1
63 060 05-00
  7
SLDTEXTSTYLE1
  0
MTEXT
  5
8B
330
1F
100
AcDbEntity
  8
0
  6
CONTINUOUS
 62
     7
100
AcDbMText
 10
412.8252631579
 20
48.4342449499
 30
0.0
 40
10.0
 41
0.0
 71
     1
 72
     1
  1
KLUDI GmbH & Co KG
  7
SLDTEXTSTYLE1
  0
LINE
  5
8C
330
1F
100
AcDbEntity
  8
0
  6
CONTINUOUS
 62
     7
100
AcDbLine
 10
252.5525523834
 20
249.54849151
 30
0.0
 11
253.5525523834
 21
248.54849151
 31
0.0
  0
LINE
  5
8D
330
1F
100
AcDbEntity
  8
0
  6
CONTINUOUS
 62
     7
100
AcDbLine
 10
272.5075523834
 20
248.54849151
 30
0.0
 11
273.5075523834
 21
249.54849151
 31
0.0
  0
LINE
  5
8E
330
1F
100
AcDbEntity
  8
0
  6
CONTINUOUS
 62
     7
100
AcDbLine
 10
252.5525523834
 20
255.4281017787
 30
0.0
 11
252.5525523834
 21
249.54849151
 31
0.0
  0
LINE
  5
8F
330
1F
100
AcDbEntity
  8
0
  6
CONTINUOUS
 62
     7
100
AcDbLine
 10
273.5075523834
 20
249.54849151
 30
0.0
 11
273.5075523834
 21
255.4280241925
 31
0.0
  0
SPLINE
  5
90
330
1F
100
AcDbEntity
  8
0
  6
CONTINUOUS
 62
     7
100
AcDbSpline
210
0.0
220
0.0
230
1.0
 70
     8
 71
     3
 72
    14
 73
    10
 74
     0
 42
0.000000001
 43
0.00000001
 40
0.0
 40
0.0
 40
0.0
 40
0.0
 40
0.1268732213540299
 40
0.2826711799343266
 40
0.4378169891714548
 40
0.5931678730216441
 40
0.748697364223242
 40
0.9043702901662769
 40
1.0
 40
1.0
 40
1.0
 40
1.0
 10
250.9743845012924
 20
256.2578445038012
 30
0.0
 10
251.1739669127749
 20
256.1457354973315
 30
0.0
 10
251.6186328174141
 20
255.8959587138476
 30
0.0
 10
252.5303691568192
 20
255.4291920645755
 30
0.0
 10
253.6481260022607
 20
254.9183612101474
 30
0.0
 10
254.9233899638415
 20
254.4142277221418
 30
0.0
 10
256.3421014164816
 20
253.95172990262
 30
0.0
 10
257.6814134797288
 20
253.5982082468171
 30
0.0
 10
258.5667240716079
 20
253.4355711786417
 30
0.0
 10
258.9036166583189
 20
253.373681912778
 30
0.0
  0
SPLINE
  5
91
330
1F
100
AcDbEntity
  8
0
  6
CONTINUOUS
 62
     7
100
AcDbSpline
210
0.0
220
0.0
230
1.0
 70
     8
 71
     3
 72
    16
 73
    12
 74
     0
 42
0.000000001
 43
0.00000001
 40
0.0
 40
0.0
 40
0.0
 40
0.0
 40
0.0681727584230929
 40
0.161660913798233
 40
0.2559334100904084
 40
0.3805004724414417
 40
0.5056969665623982
 40
0.6303389078565667
 40
0.7552527649960505
 40
0.8798985075003352
 40
1.0
 40
1.0
 40
1.0
 40
1.0
 10
264.7117261901705
 20
253.0744689403017
 30
0.0
 10
265.0289380949484
 20
253.097842744246
 30
0.0
 10
265.7811559541088
 20
253.153270023294
 30
0.0
 10
266.9377324735479
 20
253.321290694338
 30
0.0
 10
268.3001716670543
 20
253.5836311349993
 30
0.0
 10
269.717520781476
 20
253.9497428960073
 30
0.0
 10
271.1348302688322
 20
254.4140213228133
 30
0.0
 10
272.4129267934608
 20
254.9185944122902
 30
0.0
 10
273.5316417133354
 20
255.4300518926167
 30
0.0
 10
274.486154395768
 20
255.9193869342791
 30
0.0
 10
274.9640305949364
 20
256.1882306218732
 30
0.0
 10
275.1985323034002
 20
256.3201566398674
 30
0.0
  0
LINE
  5
92
330
1F
100
AcDbEntity
  8
0
  6
CONTINUOUS
 62
     7
100
AcDbLine
 10
251.9851204169
 20
255.7164845194
 30
0.0
 11
252.5525523834
 21
255.3328681608
 31
0.0
  0
SPLINE
  5
93
330
1F
100
AcDbEntity
  8
0
  6
CONTINUOUS
 62
     7
100
AcDbSpline
210
0.0
220
0.0
230
1.0
 70
     8
 71
     3
 72
     9
 73
     5
 74
     0
 42
0.000000001
 43
0.00000001
 40
0.0
 40
0.0
 40
0.0
 40
0.0
 40
0.0955912955281647
 40
1.0
 40
1.0
 40
1.0
 40
1.0
 10
273.507552383374
 20
255.3328098474319
 30
0.0
 10
273.5292443951799
 20
255.345411847169
 30
0.0
 10
273.7561689460613
 20
255.4772439315392
 30
0.0
 10
273.9273413836357
 20
255.6047646691607
 30
0.0
 10
274.0821512261435
 20
255.7200955342661
 30
0.0
  0
LINE
  5
94
330
1F
100
AcDbEntity
  8
0
  6
CONTINUOUS
 62
     7
100
AcDbLine
 10
263.0300523834
 20
249.54849151
 30
0.0
 11
273.5075523834
 21
249.54849151
 31
0.0
  0
LINE
  5
95
330
1F
100
AcDbEntity
  8
0
  6
CONTINUOUS
 62
     7
100
AcDbLine
 10
252.5525523834
 20
249.54849151
 30
0.0
 11
263.0300523834
 21
249.54849151
 31
0.0
  0
LINE
  5
96
330
1F
100
AcDbEntity
  8
0
  6
CONTINUOUS
 62
     7
100
AcDbLine
 10
272.5075523834
 20
248.54849151
 30
0.0
 11
253.5525523834
 21
248.54849151
 31
0.0
  0
ARC
  5
97
330
1F
100
AcDbEntity
  8
0
  6
CONTINUOUS
 62
     7
100
AcDbCircle
 10
263.0300523834
 20
276.04849151
 30
0.0
 40
28.00000000000005
100
AcDbArc
 50
90.0
 51
248.0253440732
  0
ARC
  5
98
330
1F
100
AcDbEntity
  8
0
  6
CONTINUOUS
 62
     7
100
AcDbCircle
 10
263.0300523834
 20
276.04849151
 30
0.0
 40
28.00000000000002
100
AcDbArc
 50
259.1559374363
 51
280.8440625637
  0
ARC
  5
99
330
1F
100
AcDbEntity
  8
0
  6
CONTINUOUS
 62
     7
100
AcDbCircle
 10
263.0300523834
 20
276.04849151
 30
0.0
 40
28.00000000000002
100
AcDbArc
 50
291.9746559268
 51
90.0
  0
CIRCLE
  5
9A
330
1F
100
AcDbEntity
  8
0
  6
CONTINUOUS
 62
     8
100
AcDbCircle
 10
263.0300523834
 20
276.04849151
 30
0.0
 40
21.09503101125938
  0
CIRCLE
  5
9B
330
1F
100
AcDbEntity
  8
0
  6
CONTINUOUS
 62
     8
100
AcDbCircle
 10
263.0300523834
 20
276.04849151
 30
0.0
 40
23.04073629553261
  0
ARC
  5
9C
330
1F
100
AcDbEntity
  8
0
  6
CONTINUOUS
 62
     8
100
AcDbCircle
 10
263.0300523834
 20
276.04849151
 30
0.0
 40
23.4204569145308
100
AcDbArc
 50
90.0
 51
239.0777768709
  0
ARC
  5
9D
330
1F
100
AcDbEntity
  8
0
  6
CONTINUOUS
 62
     8
100
AcDbCircle
 10
263.0300523834
 20
276.04849151
 30
0.0
 40
23.42045691453088
100
AcDbArc
 50
300.9222231291
 51
90.0
  0
SPLINE
  5
9E
330
1F
100
AcDbEntity
  8
0
  6
CONTINUOUS
 62
     8
100
AcDbSpline
210
0.0
220
0.0
230
1.0
 70
     8
 71
     3
 72
    18
 73
    14
 74
     0
 42
0.000000001
 43
0.00000001
 40
0.0
 40
0.0
 40
0.0
 40
0.0
 40
0.049657719530496
 40
0.0994271031117226
 40
0.1493431345785912
 40
0.1994405347984698
 40
0.2497536933382046
 40
0.374327801113487
 40
0.4996416906282841
 40
0.6237664358943683
 40
0.7496690763285276
 40
0.8740601783439164
 40
1.0
 40
1.0
 40
1.0
 40
1.0
 10
276.2500496717339
 20
256.8301543018094
 30
0.0
 10
276.2494404485558
 20
256.8277538532661
 30
0.0
 10
276.2482206322549
 20
256.822947558352
 30
0.0
 10
276.2385674679425
 20
256.8103633017104
 30
0.0
 10
276.2231769821394
 20
256.7938505680613
 30
0.0
 10
276.2014684850301
 20
256.7730356307486
 30
0.0
 10
276.1599009160655
 20
256.7357953251814
 30
0.0
 10
276.0834612931494
 20
256.6721810575721
 30
0.0
 10
275.9512800803921
 20
256.569324136095
 30
0.0
 10
275.7825667092403
 20
256.4442084349246
 30
0.0
 10
275.5786796013116
 20
256.2993710043582
 30
0.0
 10
275.3424473451319
 20
256.1373797762662
 30
0.0
 10
275.1580074207958
 20
256.017298151075
 30
0.0
 10
275.065216922377
 20
255.956885884628
 30
0.0
  0
LWPOLYLINE
  5
9F
330
1F
100
AcDbEntity
  8
0
  6
CONTINUOUS
 62
     8
100
AcDbPolyline
 90
        3
 70
   128
 43
0.0
 10
276.2504759975
 20
256.9004036269
 10
276.250236992
 20
256.8610534444
 10
276.2500496717
 20
256.8301543018
  0
SPLINE
  5
A0
330
1F
100
AcDbEntity
  8
0
  6
CONTINUOUS
 62
     8
100
AcDbSpline
210
0.0
220
0.0
230
1.0
 70
     8
 71
     3
 72
    12
 73
     8
 74
     0
 42
0.000000001
 43
0.00000001
 40
0.0
 40
0.0
 40
0.0
 40
0.0
 40
0.2361307386307066
 40
0.4723752346184764
 40
0.7087961261673392
 40
0.9455006578484181
 40
1.0
 40
1.0
 40
1.0
 40
1.0
 10
249.809628769271
 20
256.9004036269162
 30
0.0
 10
249.8226858936173
 20
256.9006599946061
 30
0.0
 10
249.8488064326554
 20
256.9011728534924
 30
0.0
 10
250.0514506093362
 20
256.7891219141645
 30
0.0
 10
250.3854797394011
 20
256.5957223760701
 30
0.0
 10
250.6900216998164
 20
256.4143279017233
 30
0.0
 10
250.9295553388888
 20
256.2825137630099
 30
0.0
 10
250.9743845012924
 20
256.2578445038012
 30
0.0
  0
SPLINE
  5
A1
330
1F
100
AcDbEntity
  8
0
  6
CONTINUOUS
 62
     8
100
AcDbSpline
210
0.0
220
0.0
230
1.0
 70
     8
 71
     3
 72
    12
 73
     8
 74
     0
 42
0.000000001
 43
0.00000001
 40
0.0
 40
0.0
 40
0.0
 40
0.0
 40
0.0082902050307225
 40
0.2565458630221954
 40
0.5045490344264344
 40
0.752338098817783
 40
1.0
 40
1.0
 40
1.0
 40
1.0
 10
275.1985323034002
 20
256.3201566398674
 30
0.0
 10
275.2049353698702
 20
256.323690869216
 30
0.0
 10
275.4030824853473
 20
256.4330599276421
 30
0.0
 10
275.6717447512459
 20
256.5944255559898
 30
0.0
 10
276.0093954333444
 20
256.7894536449282
 30
0.0
 10
276.2111979437166
 20
256.9011498467992
 30
0.0
 10
276.2373855533406
 20
256.9006523243123
 30
0.0
 10
276.2504759974765
 20
256.9004036269163
 30
0.0
  0
LWPOLYLINE
  5
A2
330
1F
100
AcDbEntity
  8
0
  6
CONTINUOUS
 62
     8
100
AcDbPolyline
 90
        3
 70
   128
 43
0.0
 10
249.810055095
 20
256.8301543018
 10
249.8098166157
 20
256.8694833587
 10
249.8096287693
 20
256.9004036269
  0
SPLINE
  5
A3
330
1F
100
AcDbEntity
  8
0
  6
CONTINUOUS
 62
     8
100
AcDbSpline
210
0.0
220
0.0
230
1.0
 70
     8
 71
     3
 72
    18
 73
    14
 74
     0
 42
0.000000001
 43
0.00000001
 40
0.0
 40
0.0
 40
0.0
 40
0.0
 40
0.0631894123559828
 40
0.125945880834044
 40
0.1883173095272622
 40
0.2503524336941762
 40
0.3762448158482834
 40
0.5003769179075619
 40
0.6256760898144835
 40
0.7502619978633686
 40
0.8339824330474279
 40
0.9171748535742614
 40
1.0
 40
1.0
 40
1.0
 40
1.0
 10
250.9948878443705
 20
255.956885884628
 30
0.0
 10
250.9475760636664
 20
255.987500716185
 30
0.0
 10
250.8532766601358
 20
256.0485206209962
 30
0.0
 10
250.7224277459547
 20
256.1354176355264
 30
0.0
 10
250.5999092480877
 20
256.2182597501076
 30
0.0
 10
250.4472001354548
 20
256.3235970501537
 30
0.0
 10
250.2776368189305
 20
256.4441674201331
 30
0.0
 10
250.10880173641
 20
256.5693319798426
 30
0.0
 10
249.9766810378682
 20
256.6721568836679
 30
0.0
 10
249.8916196960662
 20
256.742926775416
 30
0.0
 10
249.8419205570745
 20
256.7884123853382
 30
0.0
 10
249.8150981728927
 20
256.8167552496446
 30
0.0
 10
249.8117336398989
 20
256.8256945431029
 30
0.0
 10
249.8100550950136
 20
256.8301543018093
 30
0.0
  0
LWPOLYLINE
  5
A4
330
1F
100
AcDbEntity
  8
0
  6
CONTINUOUS
 62
     8
100
AcDbPolyline
 90
        3
 70
   128
 43
0.0
 10
276.1441070968
 20
256.8542243927
 10
276.1779174314
 20
256.8637156555
 10
276.2504759975
 20
256.9004036269
  0
ARC
  5
A5
330
1F
100
AcDbEntity
  8
0
  6
CONTINUOUS
 62
     8
100
AcDbCircle
 10
276.0800520023
 20
257.077407923
 30
0.0
 40
0.3000559294661275
100
AcDbArc
 50
257.0938325423
 51
304.5102231376
  0
ARC
  5
A6
330
1F
100
AcDbEntity
  8
0
  6
CONTINUOUS
 62
     8
100
AcDbCircle
 10
249.9800518298
 20
257.0773943925
 30
0.0
 40
0.3000442505158153
100
AcDbArc
 50
235.4884600828
 51
314.6795674403
  0
ARC
  5
A7
330
1F
100
AcDbEntity
  8
0
  6
CONTINUOUS
 62
     8
100
AcDbCircle
 10
274.9369988402
 20
256.2060066385
 30
0.0
 40
0.2801803465351176
100
AcDbArc
 50
214.3645786037
 51
297.2340857028
  0
ARC
  5
A8
330
1F
100
AcDbEntity
  8
0
  6
CONTINUOUS
 62
     8
100
AcDbCircle
 10
251.1231058967
 20
256.2060064565
 30
0.0
 40
0.2801801710445041
100
AcDbArc
 50
242.7659026961
 51
325.6351039533
  0
SPLINE
  5
A9
330
1F
100
AcDbEntity
  8
0
  6
CONTINUOUS
 62
     8
100
AcDbSpline
210
0.0
220
0.0
230
1.0
 70
     8
 71
     3
 72
     8
 73
     4
 74
     0
 42
0.000000001
 43
0.00000001
 40
0.0
 40
0.0
 40
0.0
 40
0.0
 40
1.0
 40
1.0
 40
1.0
 40
1.0
 10
274.2159127991779
 20
255.8117359727388
 30
0.0
 10
274.1422587791117
 20
255.7228630293383
 30
0.0
 10
274.0684024214975
 20
255.6252890407343
 30
0.0
 10
273.9950001106504
 20
255.5213182839265
 30
0.0
  0
LINE
  5
AA
330
1F
100
AcDbEntity
  8
0
  6
CONTINUOUS
 62
     8
100
AcDbLine
 10
273.9950001109
 20
255.5213182843
 30
0.0
 11
273.5075523834
 21
254.919103946
 31
0.0
  0
LINE
  5
AB
330
1F
100
AcDbEntity
  8
0
  6
CONTINUOUS
 62
     8
100
AcDbLine
 10
252.5525523834
 20
254.8921152869
 30
0.0
 11
252.0651046559
 21
255.5213182843
 31
0.0
  0
SPLINE
  5
AC
330
1F
100
AcDbEntity
  8
0
  6
CONTINUOUS
 62
     8
100
AcDbSpline
210
0.0
220
0.0
230
1.0
 70
     8
 71
     3
 72
     8
 73
     4
 74
     0
 42
0.000000001
 43
0.00000001
 40
0.0
 40
0.0
 40
0.0
 40
0.0
 40
1.0
 40
1.0
 40
1.0
 40
1.0
 10
252.065104656097
 20
255.5213182839265
 30
0.0
 10
251.9917023449744
 20
255.6252890411246
 30
0.0
 10
251.9178459870812
 20
255.7228630300709
 30
0.0
 10
251.8441919667401
 20
255.8117359737396
 30
0.0
  0
ARC
  5
AD
330
1F
100
AcDbEntity
  8
0
  6
CONTINUOUS
 62
     8
100
AcDbCircle
 10
251.7104769023
 20
255.6586725505
 30
0.0
 40
0.3802986169385115
100
AcDbArc
 50
264.6740644654
 51
338.8276396683
  0
SPLINE
  5
AE
330
1F
100
AcDbEntity
  8
0
  6
CONTINUOUS
 62
     8
100
AcDbSpline
210
0.0
220
0.0
230
1.0
 70
     8
 71
     3
 72
    14
 73
    10
 74
     0
 42
0.000000001
 43
0.00000001
 40
0.0
 40
0.0
 40
0.0
 40
0.0
 40
0.1365795255299778
 40
0.2659076645558856
 40
0.3880651053480907
 40
0.5031322094218692
 40
0.6780530099594794
 40
0.8435543535817751
 40
1.0
 40
1.0
 40
1.0
 40
1.0
 10
251.6751770894287
 20
255.2800157648191
 30
0.0
 10
251.6437961484604
 20
255.3193877112232
 30
0.0
 10
251.5827003678734
 20
255.3960412379999
 30
0.0
 10
251.4934475361744
 20
255.5005883040652
 30
0.0
 10
251.4092295961125
 20
255.5940000251671
 30
0.0
 10
251.3148388410465
 20
255.6923763668831
 30
0.0
 10
251.2114120660596
 20
255.7909958851091
 30
0.0
 10
251.0998178974279
 20
255.8854510959777
 30
0.0
 10
251.0292024402237
 20
255.9335250282196
 30
0.0
 10
250.9948878443705
 20
255.956885884628
 30
0.0
  0
SPLINE
  5
AF
330
1F
100
AcDbEntity
  8
0
  6
CONTINUOUS
 62
     8
100
AcDbSpline
210
0.0
220
0.0
230
1.0
 70
     8
 71
     3
 72
    13
 73
     9
 74
     0
 42
0.000000001
 43
0.00000001
 40
0.0
 40
0.0
 40
0.0
 40
0.0
 40
0.1165035752303124
 40
0.2380567417803734
 40
0.3648179409911232
 40
0.4969359139960755
 40
0.7341005359886523
 40
1.0
 40
1.0
 40
1.0
 40
1.0
 10
275.0652169223769
 20
255.956885884628
 30
0.0
 10
275.0397124984299
 20
255.9397938089012
 30
0.0
 10
274.9875982173549
 20
255.9048688390046
 30
0.0
 10
274.906205547366
 20
255.8400212244905
 30
0.0
 10
274.8204944504666
 20
255.7645403713953
 30
0.0
 10
274.7076966584243
 20
255.655105990644
 30
0.0
 10
274.5617147645202
 20
255.4987990364412
 30
0.0
 10
274.4460587825969
 20
255.3556687065714
 30
0.0
 10
274.3849276773187
 20
255.280015764819
 30
0.0
  0
ARC
  5
B0
330
1F
100
AcDbEntity
  8
0
  6
CONTINUOUS
 62
     8
100
AcDbCircle
 10
274.3496278643
 20
255.6586725507
 30
0.0
 40
0.380298617220361
100
AcDbArc
 50
201.1723603915
 51
275.3259355335
  0
ARC
  5
B1
330
1F
100
AcDbEntity
  8
0
  6
CONTINUOUS
 62
     8
100
AcDbCircle
 10
263.0300523834
 20
276.04849151
 30
0.0
 40
23.66987067388022
100
AcDbArc
 50
90.0
 51
241.3329803664
  0
ARC
  5
B2
330
1F
100
AcDbEntity
  8
0
  6
CONTINUOUS
 62
     8
100
AcDbCircle
 10
263.0300523834
 20
276.04849151
 30
0.0
 40
23.66987067388022
100
AcDbArc
 50
298.6670196336
 51
90.0
  0
LINE
  5
B3
330
1F
100
AcDbEntity
  8
0
  6
CONTINUOUS
 62
     8
100
AcDbLine
 10
274.3849276777
 20
255.280015765
 30
0.0
 11
273.5075523834
 21
254.2306530769
 31
0.0
  0
SPLINE
  5
B4
330
1F
100
AcDbEntity
  8
0
  6
CONTINUOUS
 62
     8
100
AcDbSpline
210
0.0
220
0.0
230
1.0
 70
     8
 71
     3
 72
     9
 73
     5
 74
     0
 42
0.000000001
 43
0.00000001
 40
0.0
 40
0.0
 40
0.0
 40
0.0
 40
0.3153785905296091
 40
1.0
 40
1.0
 40
1.0
 40
1.0
 10
252.552552383374
 20
254.2366672929102
 30
0.0
 10
252.4499583235894
 20
254.342520960094
 30
0.0
 10
252.1246538708923
 20
254.6781609507667
 30
0.0
 10
251.8578421235941
 20
255.0354250878903
 30
0.0
 10
251.6751770890957
 20
255.2800157650011
 30
0.0
  0
ARC
  5
B5
330
1F
100
AcDbEntity
  8
0
  6
CONTINUOUS
 62
     7
100
AcDbCircle
 10
374.0792
 20
248.34849151
 30
0.0
 40
0.3000000000000114
100
AcDbArc
 50
180.0
 51
270.0
  0
ARC
  5
B6
330
1F
100
AcDbEntity
  8
0
  6
CONTINUOUS
 62
     7
100
AcDbCircle
 10
374.0792
 20
303.74849151
 30
0.0
 40
0.3000000000000114
100
AcDbArc
 50
90.0
 51
180.0
  0
ARC
  5
B7
330
1F
100
AcDbEntity
  8
0
  6
CONTINUOUS
 62
     7
100
AcDbCircle
 10
373.7628446374
 20
300.0475291865
 30
0.0
 40
52.00000000000207
100
AcDbArc
 50
270.3485757485
 51
286.0183641337
  0
ARC
  5
B8
330
1F
100
AcDbEntity
  8
0
  6
CONTINUOUS
 62
     7
100
AcDbCircle
 10
373.7628446374
 20
252.0494538335
 30
0.0
 40
52.00000000000208
100
AcDbArc
 50
66.4497167756
 51
89.6514242515
  0
SPLINE
  5
B9
330
1F
100
AcDbEntity
  8
0
  6
CONTINUOUS
 62
     7
100
AcDbSpline
210
0.0
220
0.0
230
1.0
 70
     8
 71
     3
 72
    11
 73
     7
 74
     0
 42
0.000000001
 43
0.00000001
 40
0.0
 40
0.0
 40
0.0
 40
0.0
 40
0.2742608622846958
 40
0.5614107410233433
 40
0.7857400862371013
 40
1.0
 40
1.0
 40
1.0
 40
1.0
 10
420.2485837124282
 20
297.1435225212353
 30
0.0
 10
420.1015677329178
 20
297.4436784561218
 30
0.0
 10
419.8006266897387
 20
298.0580962932985
 30
0.0
 10
419.0450574712621
 20
298.6744351075535
 30
0.0
 10
418.2307886941159
 20
299.0295085394424
 30
0.0
 10
417.6996128689424
 20
299.069628416658
 30
0.0
 10
417.4401225048596
 20
299.0892278055086
 30
0.0
  0
SPLINE
  5
BA
330
1F
100
AcDbEntity
  8
0
  6
CONTINUOUS
 62
     7
100
AcDbSpline
210
0.0
220
0.0
230
1.0
 70
     8
 71
     3
 72
    11
 73
     7
 74
     0
 42
0.000000001
 43
0.00000001
 40
0.0
 40
0.0
 40
0.0
 40
0.0
 40
0.2742600035677317
 40
0.5614096535841372
 40
0.7857393739115246
 40
1.0
 40
1.0
 40
1.0
 40
1.0
 10
417.4401225048596
 20
253.0077552144434
 30
0.0
 10
417.7727957443771
 20
253.0399285220172
 30
0.0
 10
418.4537771697568
 20
253.1057872153181
 30
0.0
 10
419.2963026184406
 20
253.5966109878042
 30
0.0
 10
419.9148493735138
 20
254.2341940758058
 30
0.0
 10
420.1390546906229
 20
254.7174028368798
 30
0.0
 10
420.2485837124281
 20
254.9534604987166
 30
0.0
  0
ARC
  5
BB
330
1F
100
AcDbEntity
  8
0
  6
CONTINUOUS
 62
     7
100
AcDbCircle
 10
395.7383000314
 20
302.46849151
 30
0.0
 40
3.000000000000707
100
AcDbArc
 50
246.4497166901
 51
269.0
  0
LINE
  5
BC
330
1F
100
AcDbEntity
  8
0
  6
CONTINUOUS
 62
     7
100
AcDbLine
 10
417.4401225049
 20
299.0892278055
 30
0.0
 11
395.685942812
 21
299.4689484245
 31
0.0
  0
ARC
  5
BD
330
1F
100
AcDbEntity
  8
0
  6
CONTINUOUS
 62
     7
100
AcDbCircle
 10
364.0792
 20
276.04849151
 30
0.0
 40
60.0000000000025
100
AcDbArc
 50
339.4157788954
 51
0.0
  0
ARC
  5
BE
330
1F
100
AcDbEntity
  8
0
  6
CONTINUOUS
 62
     7
100
AcDbCircle
 10
364.0792
 20
276.04849151
 30
0.0
 40
60.0000000000025
100
AcDbArc
 50
0.0
 51
20.5842211046
  0
SPLINE
  5
BF
330
1F
100
AcDbEntity
  8
0
  6
CONTINUOUS
 62
     7
100
AcDbSpline
210
0.0
220
0.0
230
1.0
 70
     8
 71
     3
 72
    11
 73
     7
 74
     0
 42
0.000000001
 43
0.00000001
 40
0.0
 40
0.0
 40
0.0
 40
0.0
 40
0.2506094979282011
 40
0.5007821330319083
 40
0.7505236225568058
 40
1.0
 40
1.0
 40
1.0
 40
1.0
 10
395.7622479237226
 20
255.9255707002283
 30
0.0
 10
396.1778186920296
 20
256.040514827653
 30
0.0
 10
397.0082358051037
 20
256.27020271174
 30
0.0
 10
398.3326150927656
 20
256.5317005673049
 30
0.0
 10
399.6957978448714
 20
256.7176123341414
 30
0.0
 10
400.6224652784764
 20
256.757491617697
 30
0.0
 10
401.0855529396501
 20
256.7774206704309
 30
0.0
  0
SPLINE
  5
C0
330
1F
100
AcDbEntity
  8
0
  6
CONTINUOUS
 62
     7
100
AcDbSpline
210
0.0
220
0.0
230
1.0
 70
     8
 71
     3
 72
    23
 73
    19
 74
     0
 42
0.000000001
 43
0.00000001
 40
0.0
 40
0.0
 40
0.0
 40
0.0
 40
0.0678466154906186
 40
0.1312036576892174
 40
0.1900785048934377
 40
0.2700189697170369
 40
0.3399654366825224
 40
0.3997283554597411
 40
0.4492462979213913
 40
0.4946104855432847
 40
0.5411219152195127
 40
0.6048737909182778
 40
0.6705611740294021
 40
0.7394757260312401
 40
0.7979675300562761
 40
0.8629766443605027
 40
0.9344110203626486
 40
1.0
 40
1.0
 40
1.0
 40
1.0
 10
404.3855604736911
 20
256.8473774983923
 30
0.0
 10
404.8505716755358
 20
256.8470065834384
 30
0.0
 10
405.7498231725676
 20
256.8462892978628
 30
0.0
 10
407.0327893291813
 20
256.7277313781873
 30
0.0
 10
408.3587090494797
 20
256.5261690507758
 30
0.0
 10
409.6681970018041
 20
256.2349655082771
 30
0.0
 10
410.9006297580754
 20
255.8799379635883
 30
0.0
 10
411.8864222274311
 20
255.5464241945612
 30
0.0
 10
412.6837526850679
 20
255.2465514203507
 30
0.0
 10
413.3684255155292
 20
254.9687257735154
 30
0.0
 10
414.0729942119161
 20
254.6646931278412
 30
0.0
 10
414.8002806609993
 20
254.3304578889656
 30
0.0
 10
415.520527374267
 20
253.9795330483502
 30
0.0
 10
416.113107852889
 20
253.6766184890402
 30
0.0
 10
416.5845966449809
 20
253.4273465268757
 30
0.0
 10
416.9388408481207
 20
253.2364732071897
 30
0.0
 10
417.1779542282691
 20
253.1072603577932
 30
0.0
 10
417.1979797923929
 20
253.1014115399063
 30
0.0
 10
417.2075654306326
 20
253.0986118858218
 30
0.0
  0
SPLINE
  5
C1
330
1F
100
AcDbEntity
  8
0
  6
CONTINUOUS
 62
     7
100
AcDbSpline
210
0.0
220
0.0
230
1.0
 70
     8
 71
     3
 72
    11
 73
     7
 74
     0
 42
0.000000001
 43
0.00000001
 40
0.0
 40
0.0
 40
0.0
 40
0.0
 40
0.2629456706679618
 40
0.5203511272558349
 40
0.7672906454428718
 40
1.0
 40
1.0
 40
1.0
 40
1.0
 10
417.2189462536336
 20
253.0935774561869
 30
0.0
 10
417.2347335032725
 20
253.0798222141334
 30
0.0
 10
417.2659753682747
 20
253.0526015502982
 30
0.0
 10
417.3212368116856
 20
253.0257833152727
 30
0.0
 10
417.3778970296954
 20
253.0095993434009
 30
0.0
 10
417.4160363681636
 20
253.0082236361535
 30
0.0
 10
417.4345402808016
 20
253.0075561896863
 30
0.0
  0
LINE
  5
C2
330
1F
100
AcDbEntity
  8
0
  6
CONTINUOUS
 62
     7
100
AcDbLine
 10
401.0855529397
 20
256.7774206704
 30
0.0
 11
404.3855604737
 21
256.8473774984
 31
0.0
  0
LINE
  5
C3
330
1F
100
AcDbEntity
  8
0
  6
CONTINUOUS
 62
     7
100
AcDbLine
 10
413.2009267977
 20
254.4456047859
 30
0.0
 11
414.3353584957
 21
254.540112432
 31
0.0
  0
LINE
  5
C4
330
1F
100
AcDbEntity
  8
0
  6
CONTINUOUS
 62
     7
100
AcDbLine
 10
391.3295481176
 20
252.6235360605
 30
0.0
 11
392.2850954056
 21
252.7031411396
 31
0.0
  0
SPLINE
  5
C5
330
1F
100
AcDbEntity
  8
0
  6
CONTINUOUS
 62
     7
100
AcDbSpline
210
0.0
220
0.0
230
1.0
 70
     8
 71
     3
 72
     9
 73
     5
 74
     0
 42
0.000000001
 43
0.00000001
 40
0.0
 40
0.0
 40
0.0
 40
0.0
 40
0.5049024540853652
 40
1.0
 40
1.0
 40
1.0
 40
1.0
 10
394.6082119172515
 20
255.2879480999016
 30
0.0
 10
394.7856574150389
 20
255.4240823737815
 30
0.0
 10
395.1371025235973
 20
255.6937072741528
 30
0.0
 10
395.5552326996741
 20
255.8487897480082
 30
0.0
 10
395.7622479237226
 20
255.9255707002283
 30
0.0
  0
SPLINE
  5
C6
330
1F
100
AcDbEntity
  8
0
  6
CONTINUOUS
 62
     7
100
AcDbSpline
210
0.0
220
0.0
230
1.0
 70
     8
 71
     3
 72
     9
 73
     5
 74
     0
 42
0.000000001
 43
0.00000001
 40
0.0
 40
0.0
 40
0.0
 40
0.0
 40
0.486750834310023
 40
1.0
 40
1.0
 40
1.0
 40
1.0
 10
388.1119968226567
 20
250.0665207062577
 30
0.0
 10
388.1417281898546
 20
250.0777309975311
 30
0.0
 10
388.2028094764232
 20
250.1007618594898
 30
0.0
 10
388.2464420036044
 20
250.1494038703568
 30
0.0
 10
388.2688363617772
 20
250.1743693418518
 30
0.0
  0
SPLINE
  5
C7
330
1F
100
AcDbEntity
  8
0
  6
CONTINUOUS
 62
     7
100
AcDbSpline
210
0.0
220
0.0
230
1.0
 70
     8
 71
     3
 72
    15
 73
    11
 74
     0
 42
0.000000001
 43
0.00000001
 40
0.0
 40
0.0
 40
0.0
 40
0.0
 40
0.1226077607833675
 40
0.247604761850395
 40
0.37266554405962
 40
0.497935146183937
 40
0.6230567759867908
 40
0.748346900794861
 40
0.8741332212783227
 40
1.0
 40
1.0
 40
1.0
 40
1.0
 10
388.2711108145136
 20
250.1761500546728
 30
0.0
 10
388.2945513457743
 20
250.1942306422337
 30
0.0
 10
388.3418891906494
 20
250.230744151236
 30
0.0
 10
388.7312553993818
 20
250.5395638486769
 30
0.0
 10
389.3310766621959
 20
251.0174407680413
 30
0.0
 10
390.1284721719629
 20
251.6554807641532
 30
0.0
 10
391.0838863244991
 20
252.4240396944841
 30
0.0
 10
392.1684910562143
 20
253.3015537992756
 30
0.0
 10
393.3494780148553
 20
254.2615309907513
 30
0.0
 10
394.1981421492101
 20
254.9565583488719
 30
0.0
 10
394.6226098833459
 20
255.3041831346042
 30
0.0
  0
LINE
  5
C8
330
1F
100
AcDbEntity
  8
0
  6
CONTINUOUS
 62
     7
100
AcDbLine
 10
392.2517
 20
252.700359023
 30
0.0
 11
392.2517
 21
249.54849151
 31
0.0
  0
LINE
  5
C9
330
1F
100
AcDbEntity
  8
0
  6
CONTINUOUS
 62
     7
100
AcDbLine
 10
413.2067
 20
249.54849151
 30
0.0
 11
413.2067
 21
254.448479072
 31
0.0
  0
LINE
  5
CA
330
1F
100
AcDbEntity
  8
0
  6
CONTINUOUS
 62
     7
100
AcDbLine
 10
392.2517
 20
249.54849151
 30
0.0
 11
393.2517
 21
248.54849151
 31
0.0
  0
LINE
  5
CB
330
1F
100
AcDbEntity
  8
0
  6
CONTINUOUS
 62
     7
100
AcDbLine
 10
412.2067
 20
248.54849151
 30
0.0
 11
413.2067
 21
249.54849151
 31
0.0
  0
LINE
  5
CC
330
1F
100
AcDbEntity
  8
0
  6
CONTINUOUS
 62
     7
100
AcDbLine
 10
373.7792
 20
248.3485240255
 30
0.0
 11
373.7792
 21
303.74849151
 31
0.0
  0
SPLINE
  5
CD
330
1F
100
AcDbEntity
  8
0
  6
CONTINUOUS
 62
     7
100
AcDbSpline
210
0.0
220
0.0
230
1.0
 70
     8
 71
     3
 72
    23
 73
    19
 74
     0
 42
0.000000001
 43
0.00000001
 40
0.0
 40
0.0
 40
0.0
 40
0.0
 40
0.0746199228533488
 40
0.1512836423807712
 40
0.2259441298642995
 40
0.2644185959646009
 40
0.3032578511816042
 40
0.3714776078001593
 40
0.4420515782979089
 40
0.5049742043252936
 40
0.5695345446057568
 40
0.6362876531289465
 40
0.704679271466633
 40
0.7771020438735238
 40
0.851666030298989
 40
0.923010803815247
 40
0.9967270256422608
 40
1.0
 40
1.0
 40
1.0
 40
1.0
 10
395.5977525523885
 20
254.293589694195
 30
0.0
 10
396.04686394457
 20
254.4743586618533
 30
0.0
 10
396.9573876310851
 20
254.8408477549942
 30
0.0
 10
398.5447288173054
 20
255.3643605422135
 30
0.0
 10
399.9868560904928
 20
255.7357585910679
 30
0.0
 10
401.1932177639839
 20
255.9685095690892
 30
0.0
 10
402.3717240164968
 20
256.1425808764741
 30
0.0
 10
403.8343741900998
 20
256.26300842983
 30
0.0
 10
405.4725874306941
 20
256.2541904514223
 30
0.0
 10
407.0059661720729
 20
256.1215787591216
 30
0.0
 10
408.4039943237341
 20
255.9004385675587
 30
0.0
 10
409.6990040158412
 20
255.6108309241154
 30
0.0
 10
410.8678738673228
 20
255.2826280165481
 30
0.0
 10
411.8616505058582
 20
254.9557277384997
 30
0.0
 10
412.6208014951907
 20
254.676957532456
 30
0.0
 10
413.0688885493855
 20
254.5017247371053
 30
0.0
 10
413.2493854153477
 20
254.4290325560986
 30
0.0
 10
413.2026724440331
 20
254.4476949293432
 30
0.0
 10
413.2006865763418
 20
254.4484883064936
 30
0.0
  0
SPLINE
  5
CE
330
1F
100
AcDbEntity
  8
0
  6
CONTINUOUS
 62
     7
100
AcDbSpline
210
0.0
220
0.0
230
1.0
 70
     8
 71
     3
 72
    13
 73
     9
 74
     0
 42
0.000000001
 43
0.00000001
 40
0.0
 40
0.0
 40
0.0
 40
0.0
 40
0.1303553396087431
 40
0.3064546000784297
 40
0.4873758832273879
 40
0.6695972454325554
 40
0.8561620635898013
 40
1.0
 40
1.0
 40
1.0
 40
1.0
 10
392.2839017937494
 20
252.7174687754622
 30
0.0
 10
392.2830845487007
 20
252.7170554115182
 30
0.0
 10
392.2811632733217
 20
252.7160836271438
 30
0.0
 10
392.5678040596528
 20
252.8677780885842
 30
0.0
 10
393.0697317334436
 20
253.1272305035289
 30
0.0
 10
393.8037975244408
 20
253.4908010956081
 30
0.0
 10
394.654012189164
 20
253.8911364388238
 30
0.0
 10
395.3115146378954
 20
254.1715249982389
 30
0.0
 10
395.5977525523885
 20
254.2935896941949
 30
0.0
  0
LINE
  5
CF
330
1F
100
AcDbEntity
  8
0
  6
CONTINUOUS
 62
     7
100
AcDbLine
 10
392.2517
 20
249.54849151
 30
0.0
 11
413.2067
 21
249.54849151
 31
0.0
  0
LINE
  5
D0
330
1F
100
AcDbEntity
  8
0
  6
CONTINUOUS
 62
     7
100
AcDbLine
 10
412.2067
 20
248.54849151
 30
0.0
 11
393.2517
 21
248.54849151
 31
0.0
  0
LINE
  5
D1
330
1F
100
AcDbEntity
  8
0
  6
CONTINUOUS
 62
     8
100
AcDbLine
 10
374.0792
 20
304.04849151
 30
0.0
 11
374.0792
 21
248.04849151
 31
0.0
  0
LINE
  5
D2
330
1F
100
AcDbEntity
  8
0
  6
CONTINUOUS
 62
     8
100
AcDbLine
 10
394.5396388242
 20
299.7183621839
 30
0.0
 11
394.5396388242
 21
255.280015765
 31
0.0
  0
SPLINE
  5
D3
330
1F
100
AcDbEntity
  8
0
  6
CONTINUOUS
 62
     8
100
AcDbSpline
210
0.0
220
0.0
230
1.0
 70
     8
 71
     3
 72
    18
 73
    14
 74
     0
 42
0.000000001
 43
0.00000001
 40
0.0
 40
0.0
 40
0.0
 40
0.0
 40
0.1239537696520886
 40
0.2499334546282801
 40
0.3312591441299759
 40
0.4144916548691757
 40
0.5000956361308442
 40
0.5807203360083628
 40
0.6638830801300947
 40
0.7498558685124767
 40
0.8306504533870536
 40
0.9139818723373818
 40
1.0
 40
1.0
 40
1.0
 40
1.0
 10
388.1121945244175
 20
250.0666714817824
 30
0.0
 10
388.1368505042845
 20
250.0863321638439
 30
0.0
 10
388.1865654443197
 20
250.1259748645199
 30
0.0
 10
388.5383871587752
 20
250.4069020590379
 30
0.0
 10
388.9783962625104
 20
250.7591625353338
 30
0.0
 10
389.4510699428239
 20
251.1382924524828
 30
0.0
 10
390.0043924118737
 20
251.5834406157152
 30
0.0
 10
390.6287147698703
 20
252.0873129636774
 30
0.0
 10
391.3149804427871
 20
252.6429220538507
 30
0.0
 10
392.0553599387691
 20
253.2445183907697
 30
0.0
 10
392.8410978660594
 20
253.8855948016308
 30
0.0
 10
393.6620145599387
 20
254.5578341796394
 30
0.0
 10
394.2440195911751
 20
255.0367558928131
 30
0.0
 10
394.5396388241666
 20
255.2800157650011
 30
0.0
  0
LINE
  5
D4
330
1F
100
AcDbEntity
  8
0
  6
CONTINUOUS
 62
     8
100
AcDbLine
 10
420.2485837124
 20
254.9534605002
 30
0.0
 11
420.2485837124
 21
297.1435225212
 31
0.0
  0
LINE
  5
D5
330
1F
100
AcDbEntity
  8
0
  6
CONTINUOUS
 62
     8
100
AcDbLine
 10
417.4401225049
 20
253.0077552153
 30
0.0
 11
417.4401225049
 21
299.0892278055
 31
0.0
  0
LINE
  5
D6
330
1F
100
AcDbEntity
  8
0
  6
CONTINUOUS
 62
     8
100
AcDbLine
 10
395.685942812
 20
255.9568858846
 30
0.0
 11
395.685942812
 21
299.4689484245
 31
0.0
  0
SPLINE
  5
D7
330
1F
100
AcDbEntity
  8
0
  6
CONTINUOUS
 62
     8
100
AcDbSpline
210
0.0
220
0.0
230
1.0
 70
     8
 71
     3
 72
    14
 73
    10
 74
     0
 42
0.000000001
 43
0.00000001
 40
0.0
 40
0.0
 40
0.0
 40
0.0
 40
0.1365795255299778
 40
0.2659076645558856
 40
0.3880651053480907
 40
0.5031322094218692
 40
0.6780530099594794
 40
0.8435543535817751
 40
1.0
 40
1.0
 40
1.0
 40
1.0
 10
394.5396388241667
 20
255.2800157648191
 30
0.0
 10
394.5859776575007
 20
255.3193877112232
 30
0.0
 10
394.6761950667522
 20
255.3960412379999
 30
0.0
 10
394.813752863717
 20
255.5005883040652
 30
0.0
 10
394.9475848424356
 20
255.5940000251671
 30
0.0
 10
395.1027095704388
 20
255.6923763668831
 30
0.0
 10
395.2807393155765
 20
255.7909958851091
 30
0.0
 10
395.4825581117217
 20
255.8854510959777
 30
0.0
 10
395.6194312303658
 20
255.9335250282196
 30
0.0
 10
395.6859428120421
 20
255.956885884628
 30
0.0
  0
SPLINE
  5
D8
330
1F
100
AcDbEntity
  8
0
  6
CONTINUOUS
 62
     8
100
AcDbSpline
210
0.0
220
0.0
230
1.0
 70
     8
 71
     3
 72
    22
 73
    18
 74
     0
 42
0.000000001
 43
0.00000001
 40
0.0
 40
0.0
 40
0.0
 40
0.0
 40
0.0620693182603586
 40
0.1241685387758871
 40
0.1863141266228554
 40
0.2485342721057335
 40
0.3309966659905006
 40
0.4146672659039559
 40
0.4979876319165739
 40
0.5814181323369736
 40
0.6649445530401387
 40
0.7485480047325018
 40
0.811642751219437
 40
0.8742035391547068
 40
0.9370865514571396
 40
0.9999836959398962
 40
1.0
 40
1.0
 40
1.0
 40
1.0
 10
404.3844357219311
 20
256.9004036269162
 30
0.0
 10
404.8208413069217
 20
256.9007319606122
 30
0.0
 10
405.6938627178324
 20
256.9013887861809
 30
0.0
 10
406.9866058967846
 20
256.78825742905
 30
0.0
 10
408.2439451811176
 20
256.5989684898215
 30
0.0
 10
409.5828178169172
 20
256.3114086097634
 30
0.0
 10
410.9756975308156
 20
255.9187349631771
 30
0.0
 10
412.3704268247206
 20
255.430739577794
 30
0.0
 10
413.6307555969281
 20
254.9178424801373
 30
0.0
 10
414.7396964972814
 20
254.4147568523528
 30
0.0
 10
415.6833013502126
 20
253.9501304731311
 30
0.0
 10
416.3839339220215
 20
253.584479177816
 30
0.0
 10
416.8730674438433
 20
253.3202640477969
 30
0.0
 10
417.1976983869549
 20
253.1406210559684
 30
0.0
 10
417.3802312747128
 20
253.0381477687924
 30
0.0
 10
417.4564317667738
 20
252.9953667911832
 30
0.0
 10
417.434527158172
 20
253.0076641193864
 30
0.0
 10
417.4345214815787
 20
253.0076673062468
 30
0.0
  0
LWPOLYLINE
  5
D9
330
1F
100
AcDbEntity
  8
0
  6
CONTINUOUS
 62
     8
100
AcDbPolyline
 90
        3
 70
   128
 43
0.0
 10
401.0844357219
 20
256.8301543018
 10
402.9324359392
 20
256.8694833587
 10
404.3844357219
 20
256.9004036269
  0
SPLINE
  5
DA
330
1F
100
AcDbEntity
  8
0
  6
CONTINUOUS
 62
     8
100
AcDbSpline
210
0.0
220
0.0
230
1.0
 70
     8
 71
     3
 72
    18
 73
    14
 74
     0
 42
0.000000001
 43
0.00000001
 40
0.0
 40
0.0
 40
0.0
 40
0.0
 40
0.0631894123559828
 40
0.125945880834044
 40
0.1883173095272622
 40
0.2503524336941762
 40
0.3762448158482834
 40
0.5003769179075619
 40
0.6256760898144835
 40
0.7502619978633686
 40
0.8339824330474279
 40
0.9171748535742614
 40
1.0
 40
1.0
 40
1.0
 40
1.0
 10
395.6859428120421
 20
255.956885884628
 30
0.0
 10
395.7908109366231
 20
255.987500716185
 30
0.0
 10
395.9998286791421
 20
256.0485206209962
 30
0.0
 10
396.3180091255311
 20
256.1354176355264
 30
0.0
 10
396.6381323024918
 20
256.2182597501076
 30
0.0
 10
397.0717039541486
 20
256.3235970501537
 30
0.0
 10
397.6219420726272
 20
256.4441674201331
 30
0.0
 10
398.2975120349636
 20
256.5693319798426
 30
0.0
 10
398.9824151564939
 20
256.6721568836679
 30
0.0
 10
399.6015574933065
 20
256.742926775416
 30
0.0
 10
400.1466850274687
 20
256.7884123853382
 30
0.0
 10
400.6157824878885
 20
256.8167552496446
 30
0.0
 10
400.9284485435021
 20
256.8256945431029
 30
0.0
 10
401.0844357219311
 20
256.8301543018093
 30
0.0
  0
LINE
  5
DB
330
1F
100
AcDbEntity
  8
0
  6
CONTINUOUS
 62
     8
100
AcDbLine
 10
401.085552799
 20
256.777427309
 30
0.0
 11
401.0844357219
 21
256.8301543018
 31
0.0
  0
ARC
  5
DC
330
1F
100
AcDbEntity
  8
0
  6
CONTINUOUS
 62
     8
100
AcDbCircle
 10
395.7522488886
 20
256.0099972339
 30
0.0
 40
0.0849547597524627
100
AcDbArc
 50
218.6948234515
 51
277.1271110597
  0
LINE
  5
DD
330
1F
100
AcDbEntity
  8
0
  6
CONTINUOUS
 62
     8
100
AcDbLine
 10
404.3855603507
 20
256.8473832984
 30
0.0
 11
404.3844357219
 21
256.9004036269
 31
0.0
  0
ARC
  5
DE
330
1F
100
AcDbEntity
  8
0
  6
CONTINUOUS
 62
     8
100
AcDbCircle
 10
394.5660810297
 20
255.3519140562
 30
0.0
 40
0.0766064913518707
100
AcDbArc
 50
249.8078719116
 51
303.2083743399
  0
ARC
  5
DF
330
1F
100
AcDbEntity
  8
0
  6
CONTINUOUS
 62
     7
100
AcDbCircle
 10
235.3300523834
 20
188.9408859572
 30
0.0
 40
0.3000000000000114
100
AcDbArc
 50
90.0
 51
180.0
  0
ARC
  5
E0
330
1F
100
AcDbEntity
  8
0
  6
CONTINUOUS
 62
     7
100
AcDbCircle
 10
290.7300523834
 20
188.9408859572
 30
0.0
 40
0.3000000000000114
100
AcDbArc
 50
0.0
 51
90.0
  0
ARC
  5
E1
330
1F
100
AcDbEntity
  8
0
  6
CONTINUOUS
 62
     7
100
AcDbCircle
 10
287.0290900599
 20
189.2572413199
 30
0.0
 40
52.00000000000211
100
AcDbArc
 50
180.3485757485
 51
203.5502832244
  0
ARC
  5
E2
330
1F
100
AcDbEntity
  8
0
  6
CONTINUOUS
 62
     7
100
AcDbCircle
 10
239.0310147068
 20
189.2572413199
 30
0.0
 40
52.00000000000211
100
AcDbArc
 50
336.4497167756
 51
359.6514242515
  0
ARC
  5
E3
330
1F
100
AcDbEntity
  8
0
  6
CONTINUOUS
 62
     7
100
AcDbCircle
 10
289.4500523834
 20
167.2817859259
 30
0.0
 40
3.000000000000707
100
AcDbArc
 50
156.4497166901
 51
179.0
  0
ARC
  5
E4
330
1F
100
AcDbEntity
  8
0
  6
CONTINUOUS
 62
     7
100
AcDbCircle
 10
236.6100523834
 20
167.2817859259
 30
0.0
 40
3.000000000000748
100
AcDbArc
 50
1.0
 51
23.5502833099
  0
LINE
  5
E5
330
1F
100
AcDbEntity
  8
0
  6
CONTINUOUS
 62
     7
100
AcDbLine
 10
239.6095954688
 20
167.3341431452
 30
0.0
 11
239.9893160878
 21
145.5799634524
 31
0.0
  0
LINE
  5
E6
330
1F
100
AcDbEntity
  8
0
  6
CONTINUOUS
 62
     7
100
AcDbLine
 10
286.0707886789
 20
145.5799634524
 30
0.0
 11
286.4505092979
 21
167.3341431452
 31
0.0
  0
SPLINE
  5
E7
330
1F
100
AcDbEntity
  8
0
  6
CONTINUOUS
 62
     7
100
AcDbSpline
210
0.0
220
0.0
230
1.0
 70
     8
 71
     3
 72
    11
 73
     7
 74
     0
 42
0.000000001
 43
0.00000001
 40
0.0
 40
0.0
 40
0.0
 40
0.0
 40
0.2742608622846972
 40
0.5614107410233448
 40
0.7857400862370999
 40
1.0
 40
1.0
 40
1.0
 40
1.0
 10
284.1250833946331
 20
142.7715022448163
 30
0.0
 10
284.4252393295196
 20
142.9185182243267
 30
0.0
 10
285.0396571666963
 20
143.2194592675058
 30
0.0
 10
285.6559959809513
 20
143.9750284859824
 30
0.0
 10
286.0110694128402
 20
144.7892972631286
 30
0.0
 10
286.0511892900557
 20
145.3204730883022
 30
0.0
 10
286.0707886789064
 20
145.5799634523849
 30
0.0
  0
SPLINE
  5
E8
330
1F
100
AcDbEntity
  8
0
  6
CONTINUOUS
 62
     7
100
AcDbSpline
210
0.0
220
0.0
230
1.0
 70
     8
 71
     3
 72
    11
 73
     7
 74
     0
 42
0.000000001
 43
0.00000001
 40
0.0
 40
0.0
 40
0.0
 40
0.0
 40
0.2742600035677327
 40
0.56140965358414
 40
0.7857393739115243
 40
1.0
 40
1.0
 40
1.0
 40
1.0
 10
239.9893160878411
 20
145.5799634523848
 30
0.0
 10
240.021489395415
 20
145.2472902128674
 30
0.0
 10
240.0873480887159
 20
144.5663087874876
 30
0.0
 10
240.578171861202
 20
143.7237833388039
 30
0.0
 10
241.2157549492036
 20
143.1052365837306
 30
0.0
 10
241.6989637102776
 20
142.8810312666215
 30
0.0
 10
241.9350213721144
 20
142.7715022448163
 30
0.0
  0
ARC
  5
E9
330
1F
100
AcDbEntity
  8
0
  6
CONTINUOUS
 62
     7
100
AcDbCircle
 10
263.0300523834
 20
198.9408859572
 30
0.0
 40
60.00000000000253
100
AcDbArc
 50
249.4157788954
 51
270.0
  0
ARC
  5
EA
330
1F
100
AcDbEntity
  8
0
  6
CONTINUOUS
 62
     7
100
AcDbCircle
 10
263.0300523834
 20
198.9408859572
 30
0.0
 40
60.00000000000253
100
AcDbArc
 50
270.0
 51
290.5842211046
  0
LINE
  5
EB
330
1F
100
AcDbEntity
  8
0
  6
CONTINUOUS
 62
     7
100
AcDbLine
 10
263.0300523834
 20
189.2408859572
 30
0.0
 11
290.7300523834
 21
189.2408859572
 31
0.0
  0
LINE
  5
EC
330
1F
100
AcDbEntity
  8
0
  6
CONTINUOUS
 62
     7
100
AcDbLine
 10
235.3300523834
 20
189.2408859572
 30
0.0
 11
263.0300523834
 21
189.2408859572
 31
0.0
  0
LINE
  5
ED
330
1F
100
AcDbEntity
  8
0
  6
CONTINUOUS
 62
     8
100
AcDbLine
 10
263.0300523834
 20
188.9408859572
 30
0.0
 11
235.0300523834
 21
188.9408859572
 31
0.0
  0
LINE
  5
EE
330
1F
100
AcDbEntity
  8
0
  6
CONTINUOUS
 62
     8
100
AcDbLine
 10
291.0300523834
 20
188.9408859572
 30
0.0
 11
263.0300523834
 21
188.9408859572
 31
0.0
  0
LINE
  5
EF
330
1F
100
AcDbEntity
  8
0
  6
CONTINUOUS
 62
     8
100
AcDbLine
 10
286.6999230573
 20
168.4804471331
 30
0.0
 11
263.0300523834
 21
168.4804471331
 31
0.0
  0
LINE
  5
F0
330
1F
100
AcDbEntity
  8
0
  6
CONTINUOUS
 62
     8
100
AcDbLine
 10
263.0300523834
 20
168.4804471331
 30
0.0
 11
239.3601817095
 21
168.4804471331
 31
0.0
  0
LINE
  5
F1
330
1F
100
AcDbEntity
  8
0
  6
CONTINUOUS
 62
     8
100
AcDbLine
 10
263.0300523834
 20
167.3341431452
 30
0.0
 11
286.4505092979
 21
167.3341431452
 31
0.0
  0
LINE
  5
F2
330
1F
100
AcDbEntity
  8
0
  6
CONTINUOUS
 62
     8
100
AcDbLine
 10
239.6095954688
 20
167.3341431452
 30
0.0
 11
263.0300523834
 21
167.3341431452
 31
0.0
  0
LINE
  5
F3
330
1F
100
AcDbEntity
  8
0
  6
CONTINUOUS
 62
     8
100
AcDbLine
 10
263.0300523834
 20
145.5799634524
 30
0.0
 11
286.0707886789
 21
145.5799634524
 31
0.0
  0
LINE
  5
F4
330
1F
100
AcDbEntity
  8
0
  6
CONTINUOUS
 62
     8
100
AcDbLine
 10
239.9893160878
 20
145.5799634524
 30
0.0
 11
263.0300523834
 21
145.5799634524
 31
0.0
  0
LINE
  5
F5
330
1F
100
AcDbEntity
  8
0
  6
CONTINUOUS
 62
     8
100
AcDbLine
 10
263.0300523834
 20
142.7715022448
 30
0.0
 11
284.125083347
 21
142.7715022448
 31
0.0
  0
LINE
  5
F6
330
1F
100
AcDbEntity
  8
0
  6
CONTINUOUS
 62
     8
100
AcDbLine
 10
241.9350213911
 20
142.7715022448
 30
0.0
 11
263.0300523834
 21
142.7715022448
 31
0.0
  0
ENDSEC
  0
SECTION
  2
OBJECTS
  0
DICTIONARY
  5
C
330
0
100
AcDbDictionary
  3
ACAD_GROUP
350
D
  3
ACAD_MLINESTYLE
350
17
  3
ACAD_SCALELIST
350
47
  0
DICTIONARY
  5
D
102
{ACAD_REACTORS
330
C
102
}
330
C
100
AcDbDictionary
  0
DICTIONARY
  5
17
102
{ACAD_REACTORS
330
C
102
}
330
C
100
AcDbDictionary
  3
STANDARD
350
18
  0
DICTIONARY
  5
47
102
{ACAD_REACTORS
330
C
102
}
330
C
100
AcDbDictionary
  0
MLINESTYLE
  5
18
102
{ACAD_REACTORS
330
17
102
}
330
17
100
AcDbMlineStyle
  2
Standard
 70
     0
  3

 62
   256
 51
90.0
 52
90.0
 71
     2
 49
0.5
 62
   256
  6
BYLAYER
 49
-0.5
 62
   256
  6
BYLAYER
  0
ENDSEC
  0
EOF
