  0
SECTION
  2
HEADER
  9
$ACADVER
  1
AC1009
  9
$DWGCODEPAGE
  3
ansi_1252
  9
$INSBASE
 10
0.0
 20
0.0
 30
0.0
  9
$EXTMIN
 10
0.0
 20
0.0
 30
0.0
  9
$EXTMAX
 10
594.0
 20
841.0
 30
0.0
  9
$LIMMIN
 10
0.0
 20
0.0
  9
$LIMMAX
 10
594.0
 20
841.0
  9
$ORTHOMODE
 70
     0
  9
$REGENMODE
 70
     1
  9
$FILLMODE
 70
     1
  9
$QTEXTMODE
 70
     0
  9
$MIRRTEXT
 70
     1
  9
$DRAGMODE
 70
     2
  9
$LTSCALE
 40
1.0
  9
$OSMODE
 70
    37
  9
$ATTMODE
 70
     1
  9
$TEXTSIZE
 40
10.0
  9
$TRACEWID
 40
1.0
  9
$TEXTSTYLE
  7
STANDARD
  9
$CLAYER
  8
0
  9
$CELTYPE
  6
BYLAYER
  9
$CECOLOR
 62
   256
  9
$DIMSCALE
 40
1.0
  9
$DIMASZ
 40
2.5
  9
$DIMEXO
 40
0.0
  9
$DIMDLI
 40
3.75
  9
$DIMRND
 40
0.0
  9
$DIMDLE
 40
0.0
  9
$DIMEXE
 40
1.0
  9
$DIMTP
 40
0.0
  9
$DIMTM
 40
0.0
  9
$DIMTXT
 40
3.5
  9
$DIMCEN
 40
2.5
  9
$DIMTSZ
 40
0.0
  9
$DIMTOL
 70
     0
  9
$DIMLIM
 70
     0
  9
$DIMTIH
 70
     1
  9
$DIMTOH
 70
     1
  9
$DIMSE1
 70
     0
  9
$DIMSE2
 70
     0
  9
$DIMTAD
 70
     1
  9
$DIMZIN
 70
     0
  9
$DIMBLK
  1

  9
$DIMASO
 70
     1
  9
$DIMSHO
 70
     1
  9
$DIMPOST
  1

  9
$DIMAPOST
  1

  9
$DIMALT
 70
     0
  9
$DIMALTD
 70
     3
  9
$DIMALTF
 40
0.0393700787
  9
$DIMLFAC
 40
1.0
  9
$DIMTOFL
 70
     1
  9
$DIMTVP
 40
0.0
  9
$DIMTIX
 70
     0
  9
$DIMSOXD
 70
     0
  9
$DIMSAH
 70
     0
  9
$DIMBLK1
  1

  9
$DIMBLK2
  1

  9
$DIMSTYLE
  2
ISO-25
  9
$DIMCLRD
 70
     0
  9
$DIMCLRE
 70
     0
  9
$DIMCLRT
 70
     0
  9
$DIMTFAC
 40
1.0
  9
$DIMGAP
 40
1.5
  9
$LUNITS
 70
     2
  9
$LUPREC
 70
     2
  9
$SKETCHINC
 40
1.0
  9
$FILLETRAD
 40
10.0
  9
$AUNITS
 70
     0
  9
$AUPREC
 70
     2
  9
$MENU
  1
.
  9
$ELEVATION
 40
0.0
  9
$PELEVATION
 40
0.0
  9
$THICKNESS
 40
0.0
  9
$LIMCHECK
 70
     0
  9
$CHAMFERA
 40
0.0
  9
$CHAMFERB
 40
0.0
  9
$SKPOLY
 70
     0
  9
$TDCREATE
 40
2458400.475964606
  9
$TDUPDATE
 40
2458400.475965324
  9
$TDINDWG
 40
0.0000000116
  9
$TDUSRTIMER
 40
0.0000000116
  9
$USRTIMER
 70
     1
  9
$ANGBASE
 50
0.0
  9
$ANGDIR
 70
     0
  9
$PDMODE
 70
     0
  9
$PDSIZE
 40
-1.0
  9
$PLINEWID
 40
0.0
  9
$COORDS
 70
     1
  9
$SPLFRAME
 70
     0
  9
$SPLINETYPE
 70
     6
  9
$SPLINESEGS
 70
     8
  9
$ATTDIA
 70
     0
  9
$ATTREQ
 70
     1
  9
$HANDLING
 70
     1
  9
$HANDSEED
  5
4D4
  9
$SURFTAB1
 70
     6
  9
$SURFTAB2
 70
     6
  9
$SURFTYPE
 70
     6
  9
$SURFU
 70
     6
  9
$SURFV
 70
     6
  9
$UCSNAME
  2

  9
$UCSORG
 10
0.0
 20
0.0
 30
0.0
  9
$UCSXDIR
 10
1.0
 20
0.0
 30
0.0
  9
$UCSYDIR
 10
0.0
 20
1.0
 30
0.0
  9
$PUCSNAME
  2

  9
$PUCSORG
 10
0.0
 20
0.0
 30
0.0
  9
$PUCSXDIR
 10
1.0
 20
0.0
 30
0.0
  9
$PUCSYDIR
 10
0.0
 20
1.0
 30
0.0
  9
$USERI1
 70
     0
  9
$USERI2
 70
     0
  9
$USERI3
 70
     0
  9
$USERI4
 70
     0
  9
$USERI5
 70
     0
  9
$USERR1
 40
0.0
  9
$USERR2
 40
0.0
  9
$USERR3
 40
0.0
  9
$USERR4
 40
0.0
  9
$USERR5
 40
0.0
  9
$WORLDVIEW
 70
     1
  9
$SHADEDGE
 70
     3
  9
$SHADEDIF
 70
    70
  9
$TILEMODE
 70
     1
  9
$MAXACTVP
 70
    64
  9
$PLIMCHECK
 70
     0
  9
$PEXTMIN
 10
1.0000000000E+20
 20
1.0000000000E+20
 30
1.0000000000E+20
  9
$PEXTMAX
 10
-1.0000000000E+20
 20
-1.0000000000E+20
 30
-1.0000000000E+20
  9
$PLIMMIN
 10
0.0
 20
0.0
  9
$PLIMMAX
 10
420.0
 20
297.0
  9
$UNITMODE
 70
     0
  9
$VISRETAIN
 70
     1
  9
$PLINEGEN
 70
     0
  9
$PSLTSCALE
 70
     1
  0
ENDSEC
  0
SECTION
  2
TABLES
  0
TABLE
  2
VPORT
 70
     1
  0
VPORT
  2
*ACTIVE
 70
     0
 10
0.0
 20
0.0
 11
1.0
 21
1.0
 12
297.0
 22
420.5
 13
0.0
 23
0.0
 14
10.0
 24
10.0
 15
10.0
 25
10.0
 16
0.0
 26
0.0
 36
1.0
 17
0.0
 27
0.0
 37
0.0
 40
841.0
 41
0.7063020214
 42
50.0
 43
0.0
 44
0.0
 50
0.0
 51
0.0
 71
     0
 72
  2000
 73
     1
 74
     3
 75
     0
 76
     0
 77
     0
 78
     0
  0
ENDTAB
  0
TABLE
  2
LTYPE
 70
     6
  0
LTYPE
  2
CONTINUOUS
 70
     0
  3
Solid line
 72
    65
 73
     0
 40
0.0
  0
LTYPE
  2
HIDDEN
 70
     0
  3
Hidden __ __ __ __ __ __ __ __ __ __ __ __ __ __
 72
    65
 73
     2
 40
1.905
 49
1.27
 49
-0.635
  0
LTYPE
  2
PHANTOM
 70
     0
  3
Phantom ______  __  __  ______  __  __  ______
 72
    65
 73
     6
 40
12.7
 49
6.35
 49
-1.27
 49
1.27
 49
-1.27
 49
1.27
 49
-1.27
  0
LTYPE
  2
CENTER
 70
     0
  3
Center ____ _ ____ _ ____ _ ____ _ ____ _ ____
 72
    65
 73
     4
 40
10.16
 49
6.35
 49
-1.27
 49
1.27
 49
-1.27
  0
LTYPE
  2
CENTERX2
 70
     0
  3
Center (2x) ________  __  ________  __  _____
 72
    65
 73
     4
 40
20.32
 49
12.7
 49
-2.54
 49
2.54
 49
-2.54
  0
LTYPE
  2
DOT2
 70
     0
  3
Dot (.5x) ........................................
 72
    65
 73
     2
 40
0.635
 49
0.0
 49
-0.635
  0
ENDTAB
  0
TABLE
  2
LAYER
 70
     1
  0
LAYER
  2
0
 70
     0
 62
     7
  6
CONTINUOUS
  0
ENDTAB
  0
TABLE
  2
STYLE
 70
     1
  0
STYLE
  2
STANDARD
 70
     0
 40
0.0
 41
1.0
 50
0.0
 71
     0
 42
10.0
  3
txt
  4

  0
ENDTAB
  0
TABLE
  2
VIEW
 70
     0
  0
ENDTAB
  0
TABLE
  2
UCS
 70
     0
  0
ENDTAB
  0
TABLE
  2
APPID
 70
     1
  0
APPID
  2
ACAD
 70
     0
  0
ENDTAB
  0
TABLE
  2
DIMSTYLE
 70
     2
  0
DIMSTYLE
  2
ISO-25
 70
     0
  3

  4

  5

  6

  7

 40
1.0
 41
2.5
 42
0.625
 43
3.75
 44
1.25
 45
0.0
 46
0.0
 47
0.0
 48
0.0
140
2.5
141
2.5
142
0.0
143
0.0393700787
144
1.0
145
0.0
146
1.0
147
0.625
 71
     0
 72
     0
 73
     0
 74
     0
 75
     0
 76
     0
 77
     1
 78
     8
170
     0
171
     3
172
     1
173
     0
174
     0
175
     0
176
     0
177
     0
178
     0
  0
DIMSTYLE
  2
SLDDIMSTYLE0
 70
     0
  3

  4

  5

  6

  7

 40
1.0
 41
2.5
 42
0.0625
 43
0.38
 44
0.0
 45
0.000000001
 46
0.0
 47
0.0
 48
0.0
140
6.0
141
0.09
142
0.0
143
25.4
144
1.0
145
0.0
146
1.0
147
1.5
 71
     0
 72
     0
 73
     0
 74
     0
 75
     0
 76
     0
 77
     1
 78
    12
170
     0
171
     2
172
     0
173
     1
174
     0
175
     0
176
     0
177
     0
178
     0
  0
ENDTAB
  0
ENDSEC
  0
SECTION
  2
BLOCKS
  0
BLOCK
  8
0
  2
$MODEL_SPACE
 70
     0
 10
0.0
 20
0.0
 30
0.0
  3
$MODEL_SPACE
  1

  0
ENDBLK
  5
21
  8
0
  0
BLOCK
 67
     1
  8
0
  2
$PAPER_SPACE
 70
     0
 10
0.0
 20
0.0
 30
0.0
  3
$PAPER_SPACE
  1

  0
ENDBLK
  5
1D
 67
     1
  8
0
  0
BLOCK
  8
0
  2
_D
 70
     0
 10
0.0
 20
0.0
 30
0.0
  3
_D
  1

  0
SOLID
  5
7A
  8
0
  6
CONTINUOUS
 62
     7
 10
42.7614395004
 20
152.0299240879
 30
0.0
 11
42.4614395004
 21
149.5299240879
 31
0.0
 12
43.0614395004
 22
149.5299240879
 32
0.0
 13
43.0614395004
 23
149.5299240879
 33
0.0
  0
SOLID
  5
7B
  8
0
  6
CONTINUOUS
 62
     7
 10
42.7614395004
 20
52.0299240879
 30
0.0
 11
43.0614395004
 21
54.5299240879
 31
0.0
 12
42.4614395004
 22
54.5299240879
 32
0.0
 13
42.4614395004
 23
54.5299240879
 33
0.0
  0
LINE
  5
7C
  8
0
  6
CONTINUOUS
 62
     7
 10
56.6850079902
 20
152.0299240879
 30
0.0
 11
41.7614395004
 21
152.0299240879
 31
0.0
  0
LINE
  5
7D
  8
0
  6
CONTINUOUS
 62
     7
 10
56.6850079902
 20
52.0299240879
 30
0.0
 11
41.7614395004
 21
52.0299240879
 31
0.0
  0
LINE
  5
7E
  8
0
  6
CONTINUOUS
 62
     7
 10
42.7614395004
 20
152.0299240879
 30
0.0
 11
42.7614395004
 21
52.0299240879
 31
0.0
  0
TEXT
  5
7F
  8
0
  6
CONTINUOUS
 62
     7
 10
40.6418793617
 20
94.3680541463
 30
0.0
 40
6.0
  1
100
 50
90.0
 41
0.7
 11
42.7614397332
 21
94.3680541463
 31
0.0
 73
     1
  0
TEXT
  5
80
  8
0
  6
CONTINUOUS
 62
     7
 10
40.6418793617
 20
105.7430548466
 30
0.0
 40
6.0
  1
mm
 50
90.0
 41
0.7
 11
42.7614397332
 21
105.7430548466
 31
0.0
 73
     1
  0
ENDBLK
  5
79
  8
0
  0
BLOCK
  8
0
  2
_D_1
 70
     0
 10
0.0
 20
0.0
 30
0.0
  3
_D_1
  1

  0
SOLID
  5
85
  8
0
  6
CONTINUOUS
 62
     7
 10
56.6850079902
 20
38.4602342313
 30
0.0
 11
59.1850079902
 21
38.1602342313
 31
0.0
 12
59.1850079902
 22
38.7602342313
 32
0.0
 13
59.1850079902
 23
38.7602342313
 33
0.0
  0
SOLID
  5
86
  8
0
  6
CONTINUOUS
 62
     7
 10
156.6850079902
 20
38.4602342313
 30
0.0
 11
154.1850079902
 21
38.7602342313
 31
0.0
 12
154.1850079902
 22
38.1602342313
 32
0.0
 13
154.1850079902
 23
38.1602342313
 33
0.0
  0
LINE
  5
87
  8
0
  6
CONTINUOUS
 62
     7
 10
56.6850079902
 20
52.0299240879
 30
0.0
 11
56.6850079902
 21
37.4602342313
 31
0.0
  0
LINE
  5
88
  8
0
  6
CONTINUOUS
 62
     7
 10
156.6850079902
 20
52.0299240879
 30
0.0
 11
156.6850079902
 21
37.4602342313
 31
0.0
  0
LINE
  5
89
  8
0
  6
CONTINUOUS
 62
     7
 10
56.6850079902
 20
38.4602342313
 30
0.0
 11
156.6850079902
 21
38.4602342313
 31
0.0
  0
TEXT
  5
8A
  8
0
  6
CONTINUOUS
 62
     7
 10
93.9626484861
 20
40.57979437
 30
0.0
 40
6.0
  1
100
 41
0.7
 11
93.9626484861
 21
38.4602339984
 31
0.0
 73
     1
  0
TEXT
  5
8B
  8
0
  6
CONTINUOUS
 62
     7
 10
105.3376491864
 20
40.57979437
 30
0.0
 40
6.0
  1
mm
 41
0.7
 11
105.3376491864
 21
38.4602339984
 31
0.0
 73
     1
  0
ENDBLK
  5
84
  8
0
  0
ENDSEC
  0
SECTION
  2
ENTITIES
  0
LINE
  5
73
  8
0
  6
CONTINUOUS
 62
     7
 10
56.6850079902
 20
152.0299240879
 30
0.0
 11
56.6850079902
 21
52.0299240879
 31
0.0
  0
LINE
  5
74
  8
0
  6
CONTINUOUS
 62
     7
 10
56.6850079902
 20
52.0299240879
 30
0.0
 11
156.6850079902
 21
52.0299240879
 31
0.0
  0
DIMENSION
  5
75
  8
0
  6
CONTINUOUS
 62
     7
  2
_D
 10
42.7614395004
 20
52.0299240879
 30
0.0
 11
42.7614395004
 21
105.4472211621
 31
0.0
 70
   160
  1
<>mm
  3
SLDDIMSTYLE0
 13
56.6850079902
 23
152.0299240879
 33
0.0
 14
56.6850079902
 24
52.0299240879
 34
0.0
 50
90.0
  0
DIMENSION
  5
81
  8
0
  6
CONTINUOUS
 62
     7
  2
_D_1
 10
156.6850079902
 20
38.4602342313
 30
0.0
 11
105.0418155019
 21
38.4602342313
 31
0.0
 70
   160
  1
<>mm
  3
SLDDIMSTYLE0
 13
56.6850079902
 23
52.0299240879
 33
0.0
 14
156.6850079902
 24
52.0299240879
 34
0.0
  0
TEXT
  5
8C
  8
0
  6
CONTINUOUS
 62
     7
 10
412.8252631579
 20
39.0761681714
 30
0.0
 40
10.0
  1
KLUDI GmbH & Co KG
 41
0.6222222222
 11
412.8252631579
 21
35.5435675522
 31
0.0
 73
     1
  0
TEXT
  5
8D
  8
0
  6
CONTINUOUS
 62
     7
 10
210.0873490389
 20
39.0761681714
 30
0.0
 40
10.0
  1
48 260 05 65
 41
0.6125
 11
210.0873490389
 21
35.5435675522
 31
0.0
 73
     1
  0
ARC
  5
8E
  8
0
  6
CONTINUOUS
 62
     7
 10
261.2370241835
 20
422.7688651849
 30
0.0
 40
1.5
 50
90.0
 51
180.0
  0
LINE
  5
8F
  8
0
  6
CONTINUOUS
 62
     7
 10
259.7370241835
 20
422.7688651849
 30
0.0
 11
259.7370241835
 21
401.8963700825
 31
0.0
  0
ARC
  5
90
  8
0
  6
CONTINUOUS
 62
     7
 10
259.9370241835
 20
401.8963700825
 30
0.0
 40
0.2000000000000134
 50
196.0348427898
 51
248.0
  0
LINE
  5
91
  8
0
  6
CONTINUOUS
 62
     7
 10
305.7856513291
 20
328.0779392479
 30
0.0
 11
305.7856513291
 21
335.5890209026
 31
0.0
  0
POLYLINE
  5
92
  8
0
  6
CONTINUOUS
 62
     7
 66
     1
 10
0.0
 20
0.0
 30
0.0
 70
   128
  0
VERTEX
  5
232
  8
0
  6
CONTINUOUS
 62
     7
 10
366.0814497489
 20
424.2684034207
 30
0.0
  0
VERTEX
  5
233
  8
0
  6
CONTINUOUS
 62
     7
 10
355.9785607793
 20
424.3943078673
 30
0.0
  0
VERTEX
  5
234
  8
0
  6
CONTINUOUS
 62
     7
 10
344.301633633
 20
424.4387697121
 30
0.0
  0
VERTEX
  5
235
  8
0
  6
CONTINUOUS
 62
     7
 10
332.8931470764
 20
424.4752637183
 30
0.0
  0
VERTEX
  5
236
  8
0
  6
CONTINUOUS
 62
     7
 10
321.7531132593
 20
424.4911371319
 30
0.0
  0
VERTEX
  5
237
  8
0
  6
CONTINUOUS
 62
     7
 10
310.8815125239
 20
424.5068615042
 30
0.0
  0
VERTEX
  5
238
  8
0
  6
CONTINUOUS
 62
     7
 10
297.6694511431
 20
424.5726317826
 30
0.0
  0
VERTEX
  5
239
  8
0
  6
CONTINUOUS
 62
     7
 10
284.8768096067
 20
424.6452984653
 30
0.0
  0
VERTEX
  5
23A
  8
0
  6
CONTINUOUS
 62
     7
 10
272.5037541715
 20
424.551721539
 30
0.0
  0
VERTEX
  5
23B
  8
0
  6
CONTINUOUS
 62
     7
 10
261.59952343
 20
424.26803162
 30
0.0
  0
SEQEND
  5
472
  8
0
  6
CONTINUOUS
 62
     7
  0
POLYLINE
  5
93
  8
0
  6
CONTINUOUS
 62
     7
 66
     1
 10
0.0
 20
0.0
 30
0.0
 70
   128
  0
VERTEX
  5
23C
  8
0
  6
CONTINUOUS
 62
     7
 10
383.3782810666
 20
387.3859603633
 30
0.0
  0
VERTEX
  5
23D
  8
0
  6
CONTINUOUS
 62
     7
 10
382.8189795227
 20
387.3873085872
 30
0.0
  0
VERTEX
  5
23E
  8
0
  6
CONTINUOUS
 62
     7
 10
377.6865133364
 20
387.4015450156
 30
0.0
  0
SEQEND
  5
473
  8
0
  6
CONTINUOUS
 62
     7
  0
ARC
  5
94
  8
0
  6
CONTINUOUS
 62
     7
 10
282.7856513291
 20
386.7688651849
 30
0.0
 40
21.64486082191336
 50
143.9171424534
 51
170.9531540197
  0
ARC
  5
95
  8
0
  6
CONTINUOUS
 62
     7
 10
282.7856513291
 20
386.7688651849
 30
0.0
 40
21.6448608219134
 50
9.0468459803
 51
15.2684548419
  0
LINE
  5
96
  8
0
  6
CONTINUOUS
 62
     7
 10
261.2856513291
 20
388.5999259599
 30
0.0
 11
261.2856513291
 21
387.2770428879
 31
0.0
  0
LINE
  5
97
  8
0
  6
CONTINUOUS
 62
     7
 10
304.2856513291
 20
387.5762968598
 30
0.0
 11
304.2856513291
 21
388.5999259599
 31
0.0
  0
ARC
  5
98
  8
0
  6
CONTINUOUS
 62
     7
 10
294.2856513291
 20
388.5999259599
 30
0.0
 40
10.0
 50
0.0
 51
9.0468459803
  0
ARC
  5
99
  8
0
  6
CONTINUOUS
 62
     7
 10
271.2856513291
 20
388.5999259599
 30
0.0
 40
10.0
 50
170.9531540197
 51
180.0
  0
POLYLINE
  5
9A
  8
0
  6
CONTINUOUS
 62
     7
 66
     1
 10
0.0
 20
0.0
 30
0.0
 70
   128
  0
VERTEX
  5
23F
  8
0
  6
CONTINUOUS
 62
     7
 10
356.6515973764
 20
366.8746559339
 30
0.0
  0
VERTEX
  5
240
  8
0
  6
CONTINUOUS
 62
     7
 10
362.109973789
 20
366.8292077004
 30
0.0
  0
VERTEX
  5
241
  8
0
  6
CONTINUOUS
 62
     7
 10
364.4046406847
 20
366.8297135207
 30
0.0
  0
SEQEND
  5
474
  8
0
  6
CONTINUOUS
 62
     7
  0
ARC
  5
9B
  8
0
  6
CONTINUOUS
 62
     7
 10
319.0663520141
 20
593.5422130333
 30
0.0
 40
230.0546462242379
 50
286.4479982999
 51
287.8337599276
  0
LINE
  5
9C
  8
0
  6
CONTINUOUS
 62
     7
 10
305.7370241835
 20
392.6688651849
 30
0.0
 11
305.7370241835
 21
396.9329059642
 31
0.0
  0
ARC
  5
9D
  8
0
  6
CONTINUOUS
 62
     7
 10
305.5370241835
 20
392.6688651849
 30
0.0
 40
0.1999999999999886
 50
270.0
 51
0.0
  0
LINE
  5
9E
  8
0
  6
CONTINUOUS
 62
     7
 10
388.9034257921
 20
371.6418585641
 30
0.0
 11
387.801361139
 21
374.0052438397
 31
0.0
  0
LINE
  5
9F
  8
0
  6
CONTINUOUS
 62
     7
 10
364.6342515866
 20
366.8984326072
 30
0.0
 11
367.1520389032
 21
361.4990202824
 31
0.0
  0
LINE
  5
A0
  8
0
  6
CONTINUOUS
 62
     7
 10
367.1520389032
 20
361.4990202824
 30
0.0
 11
368.3023454575
 21
361.3983814993
 31
0.0
  0
LINE
  5
A1
  8
0
  6
CONTINUOUS
 62
     7
 10
388.2411167723
 20
370.6959832576
 30
0.0
 11
388.9034257921
 21
371.6418585641
 31
0.0
  0
POLYLINE
  5
A2
  8
0
  6
CONTINUOUS
 62
     7
 66
     1
 10
0.0
 20
0.0
 30
0.0
 70
   128
  0
VERTEX
  5
242
  8
0
  6
CONTINUOUS
 62
     7
 10
305.8012457106
 20
335.5885163568
 30
0.0
  0
VERTEX
  5
243
  8
0
  6
CONTINUOUS
 62
     7
 10
305.8781512509
 20
338.1814803057
 30
0.0
  0
VERTEX
  5
244
  8
0
  6
CONTINUOUS
 62
     7
 10
306.1067995128
 20
340.7682032091
 30
0.0
  0
VERTEX
  5
245
  8
0
  6
CONTINUOUS
 62
     7
 10
306.3982925098
 20
342.8247619419
 30
0.0
  0
VERTEX
  5
246
  8
0
  6
CONTINUOUS
 62
     7
 10
306.7325553588
 20
344.5845019562
 30
0.0
  0
VERTEX
  5
247
  8
0
  6
CONTINUOUS
 62
     7
 10
307.105672521
 20
346.1651918741
 30
0.0
  0
VERTEX
  5
248
  8
0
  6
CONTINUOUS
 62
     7
 10
307.5009080444
 20
347.5717784398
 30
0.0
  0
VERTEX
  5
249
  8
0
  6
CONTINUOUS
 62
     7
 10
308.2623794856
 20
349.7974478912
 30
0.0
  0
VERTEX
  5
24A
  8
0
  6
CONTINUOUS
 62
     7
 10
309.370464722
 20
352.3419246099
 30
0.0
  0
VERTEX
  5
24B
  8
0
  6
CONTINUOUS
 62
     7
 10
310.9408873368
 20
355.1187589351
 30
0.0
  0
VERTEX
  5
24C
  8
0
  6
CONTINUOUS
 62
     7
 10
312.9844229075
 20
357.8550067978
 30
0.0
  0
VERTEX
  5
24D
  8
0
  6
CONTINUOUS
 62
     7
 10
315.3292577176
 20
360.2034533583
 30
0.0
  0
VERTEX
  5
24E
  8
0
  6
CONTINUOUS
 62
     7
 10
317.8957454459
 20
362.1034581975
 30
0.0
  0
VERTEX
  5
24F
  8
0
  6
CONTINUOUS
 62
     7
 10
320.6466294312
 20
363.5812376641
 30
0.0
  0
VERTEX
  5
250
  8
0
  6
CONTINUOUS
 62
     7
 10
323.3785566677
 20
364.6422861627
 30
0.0
  0
VERTEX
  5
251
  8
0
  6
CONTINUOUS
 62
     7
 10
324.9724306988
 20
365.1193068163
 30
0.0
  0
VERTEX
  5
252
  8
0
  6
CONTINUOUS
 62
     7
 10
326.3534083577
 20
365.4646701075
 30
0.0
  0
VERTEX
  5
253
  8
0
  6
CONTINUOUS
 62
     7
 10
327.5526680919
 20
365.7188934977
 30
0.0
  0
VERTEX
  5
254
  8
0
  6
CONTINUOUS
 62
     7
 10
328.9189105961
 20
365.9607845458
 30
0.0
  0
VERTEX
  5
255
  8
0
  6
CONTINUOUS
 62
     7
 10
330.9445692451
 20
366.2334564021
 30
0.0
  0
VERTEX
  5
256
  8
0
  6
CONTINUOUS
 62
     7
 10
333.6331909939
 20
366.4556512213
 30
0.0
  0
VERTEX
  5
257
  8
0
  6
CONTINUOUS
 62
     7
 10
336.98327768
 20
366.5612814913
 30
0.0
  0
SEQEND
  5
475
  8
0
  6
CONTINUOUS
 62
     7
  0
LINE
  5
A3
  8
0
  6
CONTINUOUS
 62
     7
 10
305.7357051546
 20
399.4688651849
 30
0.0
 11
305.8870241835
 21
399.4688651849
 31
0.0
  0
LINE
  5
A4
  8
0
  6
CONTINUOUS
 62
     7
 10
305.8870241835
 20
399.4688651849
 30
0.0
 11
306.4875715534
 21
399.6874465518
 31
0.0
  0
ARC
  5
A5
  8
0
  6
CONTINUOUS
 62
     7
 10
306.4191675248
 20
399.875385076
 30
0.0
 40
0.2000000000000359
 50
290.0
 51
0.0
  0
LINE
  5
A6
  8
0
  6
CONTINUOUS
 62
     7
 10
306.6191675248
 20
399.875385076
 30
0.0
 11
306.6191675248
 21
406.9044298149
 31
0.0
  0
POLYLINE
  5
A7
  8
0
  6
CONTINUOUS
 62
     7
 66
     1
 10
0.0
 20
0.0
 30
0.0
 70
   128
  0
VERTEX
  5
258
  8
0
  6
CONTINUOUS
 62
     7
 10
306.6658194859
 20
406.7877778505
 30
0.0
  0
VERTEX
  5
259
  8
0
  6
CONTINUOUS
 62
     7
 10
306.9384685102
 20
407.7831596485
 30
0.0
  0
VERTEX
  5
25A
  8
0
  6
CONTINUOUS
 62
     7
 10
307.251416529
 20
408.5017512033
 30
0.0
  0
SEQEND
  5
476
  8
0
  6
CONTINUOUS
 62
     7
  0
ARC
  5
A8
  8
0
  6
CONTINUOUS
 62
     7
 10
323.244839996
 20
402.081578595
 30
0.0
 40
17.21374427853953
 50
91.3282034651
 51
157.6362739788
  0
POLYLINE
  5
A9
  8
0
  6
CONTINUOUS
 62
     7
 66
     1
 10
0.0
 20
0.0
 30
0.0
 70
   128
  0
VERTEX
  5
25B
  8
0
  6
CONTINUOUS
 62
     7
 10
323.605701081
 20
419.3358080841
 30
0.0
  0
VERTEX
  5
25C
  8
0
  6
CONTINUOUS
 62
     7
 10
323.6261844658
 20
419.3399764111
 30
0.0
  0
VERTEX
  5
25D
  8
0
  6
CONTINUOUS
 62
     7
 10
323.6444667758
 20
419.346112085
 30
0.0
  0
SEQEND
  5
477
  8
0
  6
CONTINUOUS
 62
     7
  0
POLYLINE
  5
AA
  8
0
  6
CONTINUOUS
 62
     7
 66
     1
 10
0.0
 20
0.0
 30
0.0
 70
   128
  0
VERTEX
  5
25E
  8
0
  6
CONTINUOUS
 62
     7
 10
321.9435306536
 20
419.2084876675
 30
0.0
  0
VERTEX
  5
25F
  8
0
  6
CONTINUOUS
 62
     7
 10
322.824210766
 20
419.289063819
 30
0.0
  0
VERTEX
  5
260
  8
0
  6
CONTINUOUS
 62
     7
 10
323.7373377977
 20
419.3406385281
 30
0.0
  0
SEQEND
  5
478
  8
0
  6
CONTINUOUS
 62
     7
  0
LINE
  5
AB
  8
0
  6
CONTINUOUS
 62
     7
 10
255.2245040752
 20
327.6105972422
 30
0.0
 11
259.7856513291
 21
315.0789481553
 31
0.0
  0
LINE
  5
AC
  8
0
  6
CONTINUOUS
 62
     7
 10
259.7856513291
 20
326.7741657559
 30
0.0
 11
258.9832745583
 21
328.9786778155
 31
0.0
  0
LINE
  5
AD
  8
0
  6
CONTINUOUS
 62
     7
 10
240.3451188336
 20
328.9265569556
 30
0.0
 11
253.3451188336
 21
328.9265569556
 31
0.0
  0
LINE
  5
AE
  8
0
  6
CONTINUOUS
 62
     7
 10
253.3451188336
 20
332.9265569556
 30
0.0
 11
240.3451188336
 21
332.9265569556
 31
0.0
  0
ARC
  5
AF
  8
0
  6
CONTINUOUS
 62
     7
 10
253.3451188336
 20
326.9265569556
 30
0.0
 40
2.000000000000002
 50
20.0
 51
90.0
  0
ARC
  5
B0
  8
0
  6
CONTINUOUS
 62
     7
 10
253.3451188336
 20
326.9265569556
 30
0.0
 40
6.000000000000018
 50
20.0
 51
90.0
  0
LINE
  5
B1
  8
0
  6
CONTINUOUS
 62
     7
 10
377.9881461867
 20
387.4007083468
 30
0.0
 11
377.686428551
 21
387.4015452559
 31
0.0
  0
POLYLINE
  5
B2
  8
0
  6
CONTINUOUS
 62
     7
 66
     1
 10
0.0
 20
0.0
 30
0.0
 70
   128
  0
VERTEX
  5
261
  8
0
  6
CONTINUOUS
 62
     7
 10
286.1963134484
 20
387.2762380592
 30
0.0
  0
VERTEX
  5
262
  8
0
  6
CONTINUOUS
 62
     7
 10
292.4332973418
 20
387.2759580597
 30
0.0
  0
VERTEX
  5
263
  8
0
  6
CONTINUOUS
 62
     7
 10
298.7167370245
 20
387.275003792
 30
0.0
  0
VERTEX
  5
264
  8
0
  6
CONTINUOUS
 62
     7
 10
305.0631949155
 20
387.2737472028
 30
0.0
  0
VERTEX
  5
265
  8
0
  6
CONTINUOUS
 62
     7
 10
311.4334360792
 20
387.2718495617
 30
0.0
  0
SEQEND
  5
479
  8
0
  6
CONTINUOUS
 62
     7
  0
ARC
  5
B3
  8
0
  6
CONTINUOUS
 62
     7
 10
286.3665719241
 20
411.1412695898
 30
0.0
 40
18.67418754378906
 50
247.2082048978
 51
270.7917951022
  0
LINE
  5
B4
  8
0
  6
CONTINUOUS
 62
     7
 10
261.3573836238
 20
424.26803162
 30
0.0
 11
289.7668057217
 21
424.26803162
 31
0.0
  0
ARC
  5
B5
  8
0
  6
CONTINUOUS
 62
     7
 10
261.2856513291
 20
385.7762480562
 30
0.0
 40
1.5
 50
91.8669251722
 51
180.0
  0
LINE
  5
B6
  8
0
  6
CONTINUOUS
 62
     7
 10
261.2367839906
 20
387.2754518393
 30
0.0
 11
282.7856513291
 21
387.2754518393
 31
0.0
  0
LINE
  5
B7
  8
0
  6
CONTINUOUS
 62
     7
 10
259.7856513291
 20
385.7762480562
 30
0.0
 11
259.7856513291
 21
375.2360900689
 31
0.0
  0
LINE
  5
B8
  8
0
  6
CONTINUOUS
 62
     7
 10
259.7856513291
 20
290.9265569556
 30
0.0
 11
287.1767565591
 21
290.9265569556
 31
0.0
  0
LINE
  5
B9
  8
0
  6
CONTINUOUS
 62
     7
 10
259.7856513291
 20
315.0789481553
 30
0.0
 11
259.7856513291
 21
290.9265569556
 31
0.0
  0
ARC
  5
BA
  8
0
  6
CONTINUOUS
 62
     7
 10
65.8143220595
 20
320.9265569556
 30
0.0
 40
194.0594525068798
 50
358.2732403691
 51
1.7267596309
  0
LINE
  5
BB
  8
0
  6
CONTINUOUS
 62
     7
 10
259.7856513291
 20
375.2360900689
 30
0.0
 11
259.7856513291
 21
326.7741657559
 31
0.0
  0
LINE
  5
BC
  8
0
  6
CONTINUOUS
 62
     7
 10
279.132498498
 20
393.9251880936
 30
0.0
 11
259.8621028648
 21
401.7109333116
 31
0.0
  0
LINE
  5
BD
  8
0
  6
CONTINUOUS
 62
     7
 10
286.6246303663
 20
392.4688651849
 30
0.0
 11
296.6152850531
 21
392.4688651849
 31
0.0
  0
LINE
  5
BE
  8
0
  6
CONTINUOUS
 62
     7
 10
305.7856513291
 20
290.9265569556
 30
0.0
 11
305.7856513291
 21
328.0779392479
 31
0.0
  0
LINE
  5
BF
  8
0
  6
CONTINUOUS
 62
     7
 10
287.1767565591
 20
290.9265569556
 30
0.0
 11
305.7856513291
 21
290.9265569556
 31
0.0
  0
POLYLINE
  5
C0
  8
0
  6
CONTINUOUS
 62
     7
 66
     1
 10
0.0
 20
0.0
 30
0.0
 70
   128
  0
VERTEX
  5
266
  8
0
  6
CONTINUOUS
 62
     7
 10
289.7668058601
 20
424.2678647051
 30
0.0
  0
VERTEX
  5
267
  8
0
  6
CONTINUOUS
 62
     7
 10
294.6811848931
 20
424.267935229
 30
0.0
  0
VERTEX
  5
268
  8
0
  6
CONTINUOUS
 62
     7
 10
299.6644658508
 20
424.2680567788
 30
0.0
  0
VERTEX
  5
269
  8
0
  6
CONTINUOUS
 62
     7
 10
304.7887658814
 20
424.2681116324
 30
0.0
  0
VERTEX
  5
26A
  8
0
  6
CONTINUOUS
 62
     7
 10
309.9168649651
 20
424.267827294
 30
0.0
  0
VERTEX
  5
26B
  8
0
  6
CONTINUOUS
 62
     7
 10
315.095608332
 20
424.2681335296
 30
0.0
  0
VERTEX
  5
26C
  8
0
  6
CONTINUOUS
 62
     7
 10
320.2204080989
 20
424.2681424093
 30
0.0
  0
SEQEND
  5
47A
  8
0
  6
CONTINUOUS
 62
     7
  0
POLYLINE
  5
C1
  8
0
  6
CONTINUOUS
 62
     7
 66
     1
 10
0.0
 20
0.0
 30
0.0
 70
   128
  0
VERTEX
  5
26D
  8
0
  6
CONTINUOUS
 62
     7
 10
377.6865170654
 20
387.4005435426
 30
0.0
  0
VERTEX
  5
26E
  8
0
  6
CONTINUOUS
 62
     7
 10
339.0851153256
 20
387.4938322297
 30
0.0
  0
VERTEX
  5
26F
  8
0
  6
CONTINUOUS
 62
     7
 10
321.7224292458
 20
387.5353816201
 30
0.0
  0
VERTEX
  5
270
  8
0
  6
CONTINUOUS
 62
     7
 10
304.2856513291
 20
387.5762968598
 30
0.0
  0
SEQEND
  5
47B
  8
0
  6
CONTINUOUS
 62
     7
  0
POLYLINE
  5
C2
  8
0
  6
CONTINUOUS
 62
     7
 66
     1
 10
0.0
 20
0.0
 30
0.0
 70
   128
  0
VERTEX
  5
271
  8
0
  6
CONTINUOUS
 62
     7
 10
282.7856513291
 20
387.2770851393
 30
0.0
  0
VERTEX
  5
272
  8
0
  6
CONTINUOUS
 62
     7
 10
286.1920931726
 20
387.2773694872
 30
0.0
  0
VERTEX
  5
273
  8
0
  6
CONTINUOUS
 62
     7
 10
289.5129826269
 20
387.2862975467
 30
0.0
  0
VERTEX
  5
274
  8
0
  6
CONTINUOUS
 62
     7
 10
292.8442239921
 20
387.3157031785
 30
0.0
  0
VERTEX
  5
275
  8
0
  6
CONTINUOUS
 62
     7
 10
295.8919027061
 20
387.3616652047
 30
0.0
  0
VERTEX
  5
276
  8
0
  6
CONTINUOUS
 62
     7
 10
298.5646276623
 20
387.4166585064
 30
0.0
  0
VERTEX
  5
277
  8
0
  6
CONTINUOUS
 62
     7
 10
300.7929134477
 20
387.4726421237
 30
0.0
  0
VERTEX
  5
278
  8
0
  6
CONTINUOUS
 62
     7
 10
302.5076620411
 20
387.5213917093
 30
0.0
  0
VERTEX
  5
279
  8
0
  6
CONTINUOUS
 62
     7
 10
303.6663641977
 20
387.5568658846
 30
0.0
  0
VERTEX
  5
27A
  8
0
  6
CONTINUOUS
 62
     7
 10
304.1297074599
 20
387.5714051705
 30
0.0
  0
VERTEX
  5
27B
  8
0
  6
CONTINUOUS
 62
     7
 10
304.2856513291
 20
387.5762968598
 30
0.0
  0
SEQEND
  5
47C
  8
0
  6
CONTINUOUS
 62
     7
  0
POLYLINE
  5
C3
  8
0
  6
CONTINUOUS
 62
     7
 66
     1
 10
0.0
 20
0.0
 30
0.0
 70
   128
  0
VERTEX
  5
27C
  8
0
  6
CONTINUOUS
 62
     7
 10
261.2856513291
 20
387.2770428879
 30
0.0
  0
VERTEX
  5
27D
  8
0
  6
CONTINUOUS
 62
     7
 10
261.2795429053
 20
387.2768442044
 30
0.0
  0
VERTEX
  5
27E
  8
0
  6
CONTINUOUS
 62
     7
 10
261.2734344834
 20
387.2766454644
 30
0.0
  0
VERTEX
  5
27F
  8
0
  6
CONTINUOUS
 62
     7
 10
261.2673260634
 20
387.276446668
 30
0.0
  0
VERTEX
  5
280
  8
0
  6
CONTINUOUS
 62
     7
 10
261.2612176452
 20
387.2762478151
 30
0.0
  0
VERTEX
  5
281
  8
0
  6
CONTINUOUS
 62
     7
 10
261.2551092288
 20
387.2760489058
 30
0.0
  0
VERTEX
  5
282
  8
0
  6
CONTINUOUS
 62
     7
 10
261.2490008142
 20
387.2758499401
 30
0.0
  0
VERTEX
  5
283
  8
0
  6
CONTINUOUS
 62
     7
 10
261.2428924015
 20
387.2756509179
 30
0.0
  0
VERTEX
  5
284
  8
0
  6
CONTINUOUS
 62
     7
 10
261.2367839906
 20
387.2754518393
 30
0.0
  0
SEQEND
  5
47D
  8
0
  6
CONTINUOUS
 62
     7
  0
LINE
  5
C4
  8
0
  6
CONTINUOUS
 62
     7
 10
282.7856513291
 20
387.2770428879
 30
0.0
 11
261.2856513291
 21
387.2770428879
 31
0.0
  0
LINE
  5
C5
  8
0
  6
CONTINUOUS
 62
     7
 10
391.2856513291
 20
385.7482012259
 30
0.0
 11
391.2856513291
 21
376.1651696171
 31
0.0
  0
POLYLINE
  5
C6
  8
0
  6
CONTINUOUS
 62
     7
 66
     1
 10
0.0
 20
0.0
 30
0.0
 70
   128
  0
VERTEX
  5
285
  8
0
  6
CONTINUOUS
 62
     7
 10
364.4046039204
 20
366.8369851949
 30
0.0
  0
VERTEX
  5
286
  8
0
  6
CONTINUOUS
 62
     7
 10
364.4497599281
 20
366.851145195
 30
0.0
  0
VERTEX
  5
287
  8
0
  6
CONTINUOUS
 62
     7
 10
364.8488168504
 20
366.9753318154
 30
0.0
  0
VERTEX
  5
288
  8
0
  6
CONTINUOUS
 62
     7
 10
365.5873371666
 20
367.2047042781
 30
0.0
  0
VERTEX
  5
289
  8
0
  6
CONTINUOUS
 62
     7
 10
366.6086681967
 20
367.5214173702
 30
0.0
  0
VERTEX
  5
28A
  8
0
  6
CONTINUOUS
 62
     7
 10
367.9419708924
 20
367.9340856869
 30
0.0
  0
VERTEX
  5
28B
  8
0
  6
CONTINUOUS
 62
     7
 10
369.4929959948
 20
368.4130031801
 30
0.0
  0
VERTEX
  5
28C
  8
0
  6
CONTINUOUS
 62
     7
 10
371.296722044
 20
368.9683670037
 30
0.0
  0
VERTEX
  5
28D
  8
0
  6
CONTINUOUS
 62
     7
 10
373.1481802968
 20
369.5365862847
 30
0.0
  0
VERTEX
  5
28E
  8
0
  6
CONTINUOUS
 62
     7
 10
375.145375323
 20
370.1469265315
 30
0.0
  0
VERTEX
  5
28F
  8
0
  6
CONTINUOUS
 62
     7
 10
376.2178126211
 20
370.4732174478
 30
0.0
  0
SEQEND
  5
47E
  8
0
  6
CONTINUOUS
 62
     7
  0
POLYLINE
  5
C7
  8
0
  6
CONTINUOUS
 62
     7
 66
     1
 10
0.0
 20
0.0
 30
0.0
 70
   128
  0
VERTEX
  5
290
  8
0
  6
CONTINUOUS
 62
     7
 10
364.3631857816
 20
366.8239973425
 30
0.0
  0
VERTEX
  5
291
  8
0
  6
CONTINUOUS
 62
     7
 10
360.5929291439
 20
366.7878057368
 30
0.0
  0
VERTEX
  5
292
  8
0
  6
CONTINUOUS
 62
     7
 10
356.7929260561
 20
366.7515549057
 30
0.0
  0
SEQEND
  5
47F
  8
0
  6
CONTINUOUS
 62
     7
  0
LINE
  5
C8
  8
0
  6
CONTINUOUS
 62
     7
 10
389.537432149
 20
374.5480370141
 30
0.0
 11
390.2924866835
 21
374.7952691358
 31
0.0
  0
LINE
  5
C9
  8
0
  6
CONTINUOUS
 62
     7
 10
377.1789613842
 20
370.7466849883
 30
0.0
 11
384.1923424629
 21
372.8981305674
 31
0.0
  0
LINE
  5
CA
  8
0
  6
CONTINUOUS
 62
     7
 10
376.2176828156
 20
370.4736441895
 30
0.0
 11
377.1789046246
 21
370.7466675765
 31
0.0
  0
LINE
  5
CB
  8
0
  6
CONTINUOUS
 62
     7
 10
383.3350814178
 20
387.3873738826
 30
0.0
 11
388.0920781635
 21
387.3768126526
 31
0.0
  0
LINE
  5
CC
  8
0
  6
CONTINUOUS
 62
     7
 10
388.0920781635
 20
387.3768126526
 30
0.0
 11
389.8567951123
 21
387.3367613186
 31
0.0
  0
LINE
  5
CD
  8
0
  6
CONTINUOUS
 62
     7
 10
305.8870241835
 20
405.1009840096
 30
0.0
 11
305.9898715467
 21
405.4309151954
 31
0.0
  0
ARC
  5
CE
  8
0
  6
CONTINUOUS
 62
     7
 10
317.0363304461
 20
402.0652056465
 30
0.0
 40
11.55521442496548
 50
164.7685201714
 51
183.2651187792
  0
LINE
  5
CF
  8
0
  6
CONTINUOUS
 62
     7
 10
305.5370241835
 20
392.4688651849
 30
0.0
 11
296.6152850531
 21
392.4688651849
 31
0.0
  0
ARC
  5
D0
  8
0
  6
CONTINUOUS
 62
     7
 10
389.8307062639
 20
376.1749879429
 30
0.0
 40
1.454945065154941
 50
288.5049655597
 51
359.9999997924
  0
ARC
  5
D1
  8
0
  6
CONTINUOUS
 62
     7
 10
389.7856349191
 20
385.8384337722
 30
0.0
 40
1.500016410014105
 50
359.9996657151
 51
87.2808900125
  0
LINE
  5
D2
  8
0
  6
CONTINUOUS
 62
     7
 10
391.2856513291
 20
385.8384250205
 30
0.0
 11
391.2856513291
 21
385.7482012259
 31
0.0
  0
LINE
  5
D3
  8
0
  6
CONTINUOUS
 62
     7
 10
325.5493447876
 20
419.3673534058
 30
0.0
 11
320.9890902564
 21
419.335516306
 31
0.0
  0
LINE
  5
D4
  8
0
  6
CONTINUOUS
 62
     7
 10
366.0537792306
 20
419.650132297
 30
0.0
 11
325.5493447876
 21
419.3673534058
 31
0.0
  0
LINE
  5
D5
  8
0
  6
CONTINUOUS
 62
     7
 10
368.7370241835
 20
422.7688651849
 30
0.0
 11
368.7370241835
 21
421.1584295941
 31
0.0
  0
ARC
  5
D6
  8
0
  6
CONTINUOUS
 62
     7
 10
367.2370241835
 20
421.1584295941
 30
0.0
 40
1.50000000000004
 50
270.4
 51
0.0
  0
LINE
  5
D7
  8
0
  6
CONTINUOUS
 62
     7
 10
367.247496074
 20
419.658466148
 30
0.0
 11
366.0537792306
 21
419.650132297
 31
0.0
  0
ARC
  5
D8
  8
0
  6
CONTINUOUS
 62
     7
 10
367.2370241835
 20
422.7688651849
 30
0.0
 40
1.500000000000012
 50
0.0
 51
88.0897868283
  0
LINE
  5
D9
  8
0
  6
CONTINUOUS
 62
     7
 10
377.1789046246
 20
370.7466675765
 30
0.0
 11
376.2178063628
 21
370.4518382234
 31
0.0
  0
LINE
  5
DA
  8
0
  6
CONTINUOUS
 62
     7
 10
376.2178063628
 20
370.4518382234
 30
0.0
 11
364.4202516502
 21
366.832785352
 31
0.0
  0
LINE
  5
DB
  8
0
  6
CONTINUOUS
 62
     7
 10
373.6812328928
 20
364.5436334413
 30
0.0
 11
372.234758613
 21
367.6456075446
 31
0.0
  0
LINE
  5
DC
  8
0
  6
CONTINUOUS
 62
     7
 10
373.6812328928
 20
364.5436334413
 30
0.0
 11
367.1520389032
 21
361.4990202824
 31
0.0
  0
LINE
  5
DD
  8
0
  6
CONTINUOUS
 62
     7
 10
388.9034257921
 20
371.6418585641
 30
0.0
 11
382.3742318026
 21
368.5972454052
 31
0.0
  0
LINE
  5
DE
  8
0
  6
CONTINUOUS
 62
     7
 10
380.9277575228
 20
371.6992195086
 30
0.0
 11
382.3742318026
 21
368.5972454052
 31
0.0
  0
LINE
  5
DF
  8
0
  6
CONTINUOUS
 62
     7
 10
372.234758613
 20
367.6456075446
 30
0.0
 11
380.9277575228
 21
371.6992195086
 31
0.0
  0
POLYLINE
  5
E0
  8
0
  6
CONTINUOUS
 62
     7
 66
     1
 10
0.0
 20
0.0
 30
0.0
 70
   128
  0
VERTEX
  5
293
  8
0
  6
CONTINUOUS
 62
     7
 10
378.2717311149
 20
366.0471823784
 30
0.0
  0
VERTEX
  5
294
  8
0
  6
CONTINUOUS
 62
     7
 10
377.1581653937
 20
365.5702409586
 30
0.0
  0
VERTEX
  5
295
  8
0
  6
CONTINUOUS
 62
     7
 10
373.6812328928
 20
364.5436334413
 30
0.0
  0
SEQEND
  5
480
  8
0
  6
CONTINUOUS
 62
     7
  0
LINE
  5
E1
  8
0
  6
CONTINUOUS
 62
     7
 10
378.2717311149
 20
366.0471823784
 30
0.0
 11
368.3023454575
 21
361.3983814993
 31
0.0
  0
POLYLINE
  5
E2
  8
0
  6
CONTINUOUS
 62
     7
 66
     1
 10
0.0
 20
0.0
 30
0.0
 70
   128
  0
VERTEX
  5
296
  8
0
  6
CONTINUOUS
 62
     7
 10
382.3742318026
 20
368.5972454052
 30
0.0
  0
VERTEX
  5
297
  8
0
  6
CONTINUOUS
 62
     7
 10
380.4086800835
 20
367.2124970362
 30
0.0
  0
VERTEX
  5
298
  8
0
  6
CONTINUOUS
 62
     7
 10
378.2717311149
 20
366.0471823784
 30
0.0
  0
SEQEND
  5
481
  8
0
  6
CONTINUOUS
 62
     7
  0
LINE
  5
E3
  8
0
  6
CONTINUOUS
 62
     7
 10
388.2411167723
 20
370.6959832576
 30
0.0
 11
378.2717311149
 21
366.0471823784
 31
0.0
  0
LINE
  5
E4
  8
0
  6
CONTINUOUS
 62
     7
 10
336.98327768
 20
366.5612814913
 30
0.0
 11
356.7929275288
 21
366.7514463198
 31
0.0
  0
LINE
  5
E5
  8
0
  6
CONTINUOUS
 62
     7
 10
305.8870241835
 20
399.4688651849
 30
0.0
 11
305.8870241835
 21
405.1009840096
 31
0.0
  0
ARC
  5
E6
  8
0
  6
CONTINUOUS
 62
     7
 10
323.4276583898
 20
402.6024361831
 30
0.0
 40
17.96731689703082
 50
183.810912735
 51
190.0439734285
  0
POLYLINE
  5
E7
  8
0
  6
CONTINUOUS
 62
     7
 66
     1
 10
0.0
 20
0.0
 30
0.0
 70
   128
  0
VERTEX
  5
299
  8
0
  6
CONTINUOUS
 62
     7
 10
306.4875715534
 20
406.6782761199
 30
0.0
  0
VERTEX
  5
29A
  8
0
  6
CONTINUOUS
 62
     7
 10
306.1351557675
 20
405.8444644339
 30
0.0
  0
VERTEX
  5
29B
  8
0
  6
CONTINUOUS
 62
     7
 10
305.9898277675
 20
405.4312118357
 30
0.0
  0
SEQEND
  5
482
  8
0
  6
CONTINUOUS
 62
     7
  0
POLYLINE
  5
E8
  8
0
  6
CONTINUOUS
 62
     7
 66
     1
 10
0.0
 20
0.0
 30
0.0
 70
   128
  0
VERTEX
  5
29C
  8
0
  6
CONTINUOUS
 62
     7
 10
306.6177466295
 20
406.8827310137
 30
0.0
  0
VERTEX
  5
29D
  8
0
  6
CONTINUOUS
 62
     7
 10
306.618409397
 20
406.8995828487
 30
0.0
  0
VERTEX
  5
29E
  8
0
  6
CONTINUOUS
 62
     7
 10
306.5922578939
 20
406.8748904547
 30
0.0
  0
VERTEX
  5
29F
  8
0
  6
CONTINUOUS
 62
     7
 10
306.4875715534
 20
406.6782761199
 30
0.0
  0
SEQEND
  5
483
  8
0
  6
CONTINUOUS
 62
     7
  0
LINE
  5
E9
  8
0
  6
CONTINUOUS
 62
     7
 10
307.2997305797
 20
408.7188651849
 30
0.0
 11
307.2605222142
 21
408.6559751341
 31
0.0
  0
LINE
  5
EA
  8
0
  6
CONTINUOUS
 62
     7
 10
307.2997305797
 20
408.7188651849
 30
0.0
 11
307.5241845092
 21
409.1527473456
 31
0.0
  0
LINE
  5
EB
  8
0
  6
CONTINUOUS
 62
     7
 10
321.0366095728
 20
419.0489954594
 30
0.0
 11
322.7524642703
 21
419.2570974165
 31
0.0
  0
LINE
  5
EC
  8
0
  6
CONTINUOUS
 62
     7
 10
305.7369292183
 20
396.9326205056
 30
0.0
 11
305.7357051546
 21
399.4688651849
 31
0.0
  0
LINE
  5
ED
  8
0
  6
CONTINUOUS
 62
     7
 10
240.3451188336
 20
328.9265569556
 30
0.0
 11
240.3451188336
 21
332.9265569556
 31
0.0
  0
ARC
  5
EE
  8
0
  6
CONTINUOUS
 62
     8
 10
286.3399162395
 20
392.6203188516
 30
0.0
 40
0.3224908481267473
 50
331.9892575095
 51
8.657963033
  0
ARC
  5
EF
  8
0
  6
CONTINUOUS
 62
     8
 10
279.4778292841
 20
393.9412525157
 30
0.0
 40
0.3457042341253185
 50
150.6637390956
 51
182.6634188055
  0
POLYLINE
  5
F0
  8
0
  6
CONTINUOUS
 62
     8
 66
     1
 10
0.0
 20
0.0
 30
0.0
 70
   128
  0
VERTEX
  5
2A0
  8
0
  6
CONTINUOUS
 62
     8
 10
282.7856513291
 20
387.2754890538
 30
0.0
  0
VERTEX
  5
2A1
  8
0
  6
CONTINUOUS
 62
     8
 10
282.7857113291
 20
387.2754890538
 30
0.0
  0
VERTEX
  5
2A2
  8
0
  6
CONTINUOUS
 62
     8
 10
286.1963134484
 20
387.2762380592
 30
0.0
  0
SEQEND
  5
484
  8
0
  6
CONTINUOUS
 62
     8
  0
LINE
  5
F1
  8
0
  6
CONTINUOUS
 62
     8
 10
286.4268581597
 20
374.4943721465
 30
0.0
 11
286.4268581597
 21
375.4516157343
 31
0.0
  0
POLYLINE
  5
F2
  8
0
  6
CONTINUOUS
 62
     8
 66
     1
 10
0.0
 20
0.0
 30
0.0
 70
   128
  0
VERTEX
  5
2A3
  8
0
  6
CONTINUOUS
 62
     8
 10
296.6152850531
 20
392.4688651849
 30
0.0
  0
VERTEX
  5
2A4
  8
0
  6
CONTINUOUS
 62
     8
 10
296.6390351792
 20
392.4727081288
 30
0.0
  0
VERTEX
  5
2A5
  8
0
  6
CONTINUOUS
 62
     8
 10
296.6618726014
 20
392.4840892784
 30
0.0
  0
VERTEX
  5
2A6
  8
0
  6
CONTINUOUS
 62
     8
 10
296.6829196902
 20
392.5025712625
 30
0.0
  0
VERTEX
  5
2A7
  8
0
  6
CONTINUOUS
 62
     8
 10
296.7013676178
 20
392.5274438287
 30
0.0
  0
VERTEX
  5
2A8
  8
0
  6
CONTINUOUS
 62
     8
 10
296.7165074407
 20
392.5577511383
 30
0.0
  0
VERTEX
  5
2A9
  8
0
  6
CONTINUOUS
 62
     8
 10
296.727757344
 20
392.5923284984
 30
0.0
  0
VERTEX
  5
2AA
  8
0
  6
CONTINUOUS
 62
     8
 10
296.7346850003
 20
392.6298471205
 30
0.0
  0
VERTEX
  5
2AB
  8
0
  6
CONTINUOUS
 62
     8
 10
296.7370241835
 20
392.6688651849
 30
0.0
  0
SEQEND
  5
485
  8
0
  6
CONTINUOUS
 62
     8
  0
POLYLINE
  5
F3
  8
0
  6
CONTINUOUS
 62
     8
 66
     1
 10
0.0
 20
0.0
 30
0.0
 70
   128
  0
VERTEX
  5
2AC
  8
0
  6
CONTINUOUS
 62
     8
 10
366.0435688036
 20
424.268377998
 30
0.0
  0
VERTEX
  5
2AD
  8
0
  6
CONTINUOUS
 62
     8
 10
366.5949283855
 20
424.2687480279
 30
0.0
  0
VERTEX
  5
2AE
  8
0
  6
CONTINUOUS
 62
     8
 10
366.8676959921
 20
424.2683981617
 30
0.0
  0
VERTEX
  5
2AF
  8
0
  6
CONTINUOUS
 62
     8
 10
366.9999448997
 20
424.2677747651
 30
0.0
  0
VERTEX
  5
2B0
  8
0
  6
CONTINUOUS
 62
     8
 10
367.0630631091
 20
424.2673776896
 30
0.0
  0
VERTEX
  5
2B1
  8
0
  6
CONTINUOUS
 62
     8
 10
367.1202435092
 20
424.2671001821
 30
0.0
  0
VERTEX
  5
2B2
  8
0
  6
CONTINUOUS
 62
     8
 10
367.1594288202
 20
424.2673333551
 30
0.0
  0
VERTEX
  5
2B3
  8
0
  6
CONTINUOUS
 62
     8
 10
367.2704846569
 20
424.2687969514
 30
0.0
  0
VERTEX
  5
2B4
  8
0
  6
CONTINUOUS
 62
     8
 10
367.2870238791
 20
424.2682827379
 30
0.0
  0
SEQEND
  5
486
  8
0
  6
CONTINUOUS
 62
     8
  0
LINE
  5
F4
  8
0
  6
CONTINUOUS
 62
     8
 10
325.5391346954
 20
424.26803162
 30
0.0
 11
366.0435691383
 21
424.26803162
 31
0.0
  0
POLYLINE
  5
F5
  8
0
  6
CONTINUOUS
 62
     8
 66
     1
 10
0.0
 20
0.0
 30
0.0
 70
   128
  0
VERTEX
  5
2B5
  8
0
  6
CONTINUOUS
 62
     8
 10
320.2204080989
 20
424.2681424093
 30
0.0
  0
VERTEX
  5
2B6
  8
0
  6
CONTINUOUS
 62
     8
 10
322.8796302643
 20
424.2679093536
 30
0.0
  0
VERTEX
  5
2B7
  8
0
  6
CONTINUOUS
 62
     8
 10
325.5391349262
 20
424.2677890435
 30
0.0
  0
SEQEND
  5
487
  8
0
  6
CONTINUOUS
 62
     8
  0
ARC
  5
F6
  8
0
  6
CONTINUOUS
 62
     8
 10
394.9010297603
 20
661.6156683077
 30
0.0
 40
274.4725900463347
 50
267.5939343886
 51
268.415471208
  0
POLYLINE
  5
F7
  8
0
  6
CONTINUOUS
 62
     8
 66
     1
 10
0.0
 20
0.0
 30
0.0
 70
   128
  0
VERTEX
  5
2B8
  8
0
  6
CONTINUOUS
 62
     8
 10
331.5648149111
 20
387.2654142491
 30
0.0
  0
VERTEX
  5
2B9
  8
0
  6
CONTINUOUS
 62
     8
 10
334.5648066628
 20
387.264503347
 30
0.0
  0
VERTEX
  5
2BA
  8
0
  6
CONTINUOUS
 62
     8
 10
346.5647736374
 20
387.2608009699
 30
0.0
  0
VERTEX
  5
2BB
  8
0
  6
CONTINUOUS
 62
     8
 10
387.3116733216
 20
387.248023462
 30
0.0
  0
SEQEND
  5
488
  8
0
  6
CONTINUOUS
 62
     8
  0
POLYLINE
  5
F8
  8
0
  6
CONTINUOUS
 62
     8
 66
     1
 10
0.0
 20
0.0
 30
0.0
 70
   128
  0
VERTEX
  5
2BC
  8
0
  6
CONTINUOUS
 62
     8
 10
311.4334360792
 20
387.2718495617
 30
0.0
  0
VERTEX
  5
2BD
  8
0
  6
CONTINUOUS
 62
     8
 10
314.4334278251
 20
387.2709501659
 30
0.0
  0
VERTEX
  5
2BE
  8
0
  6
CONTINUOUS
 62
     8
 10
320.4334111883
 20
387.2690599635
 30
0.0
  0
VERTEX
  5
2BF
  8
0
  6
CONTINUOUS
 62
     8
 10
331.5648149111
 20
387.2654142491
 30
0.0
  0
SEQEND
  5
489
  8
0
  6
CONTINUOUS
 62
     8
  0
LINE
  5
F9
  8
0
  6
CONTINUOUS
 62
     8
 10
282.7856513291
 20
387.2770429325
 30
0.0
 11
282.7856513291
 21
387.2754506096
 31
0.0
  0
ARC
  5
FA
  8
0
  6
CONTINUOUS
 62
     8
 10
388.8989453887
 20
427.805522889
 30
0.0
 40
40.56756113537673
 50
268.8635937682
 51
271.2785510854
  0
ARC
  5
FB
  8
0
  6
CONTINUOUS
 62
     8
 10
389.7856645052
 20
385.7481886322
 30
0.0
 40
1.499986823884118
 50
0.0004810485
 51
89.2945547806
  0
POLYLINE
  5
FC
  8
0
  6
CONTINUOUS
 62
     8
 66
     1
 10
0.0
 20
0.0
 30
0.0
 70
   128
  0
VERTEX
  5
2C0
  8
0
  6
CONTINUOUS
 62
     8
 10
387.3102504284
 20
387.2479421067
 30
0.0
  0
VERTEX
  5
2C1
  8
0
  6
CONTINUOUS
 62
     8
 10
387.3116717417
 20
387.2479398304
 30
0.0
  0
VERTEX
  5
2C2
  8
0
  6
CONTINUOUS
 62
     8
 10
388.0943799021
 20
387.2459409033
 30
0.0
  0
SEQEND
  5
48A
  8
0
  6
CONTINUOUS
 62
     8
  0
ARC
  5
FD
  8
0
  6
CONTINUOUS
 62
     8
 10
389.8839729461
 20
376.1657036231
 30
0.0
 40
1.401678484698624
 50
285.3810054172
 51
359.9781716765
  0
POLYLINE
  5
FE
  8
0
  6
CONTINUOUS
 62
     8
 66
     1
 10
0.0
 20
0.0
 30
0.0
 70
   128
  0
VERTEX
  5
2C3
  8
0
  6
CONTINUOUS
 62
     8
 10
390.2924866835
 20
374.7952691358
 30
0.0
  0
VERTEX
  5
2C4
  8
0
  6
CONTINUOUS
 62
     8
 10
390.2919218767
 20
374.7973724189
 30
0.0
  0
VERTEX
  5
2C5
  8
0
  6
CONTINUOUS
 62
     8
 10
390.2917909724
 20
374.7983837917
 30
0.0
  0
VERTEX
  5
2C6
  8
0
  6
CONTINUOUS
 62
     8
 10
390.2916981912
 20
374.7993516963
 30
0.0
  0
VERTEX
  5
2C7
  8
0
  6
CONTINUOUS
 62
     8
 10
390.2557492246
 20
374.814228513
 30
0.0
  0
SEQEND
  5
48B
  8
0
  6
CONTINUOUS
 62
     8
  0
POLYLINE
  5
FF
  8
0
  6
CONTINUOUS
 62
     8
 66
     1
 10
0.0
 20
0.0
 30
0.0
 70
   128
  0
VERTEX
  5
2C8
  8
0
  6
CONTINUOUS
 62
     8
 10
389.8041323891
 20
387.2480617632
 30
0.0
  0
VERTEX
  5
2C9
  8
0
  6
CONTINUOUS
 62
     8
 10
389.835390783
 20
387.2847671337
 30
0.0
  0
VERTEX
  5
2CA
  8
0
  6
CONTINUOUS
 62
     8
 10
389.8567951123
 20
387.3367613186
 30
0.0
  0
SEQEND
  5
48C
  8
0
  6
CONTINUOUS
 62
     8
  0
LINE
  5
100
  8
0
  6
CONTINUOUS
 62
     8
 10
305.4800688846
 20
400.3969046944
 30
0.0
 11
305.4800688846
 21
400.3612192181
 31
0.0
  0
LINE
  5
101
  8
0
  6
CONTINUOUS
 62
     8
 10
306.3877783072
 20
406.9808833467
 30
0.0
 11
305.9897981308
 21
405.4310742119
 31
0.0
  0
LINE
  5
102
  8
0
  6
CONTINUOUS
 62
     8
 10
305.4806088627
 20
400.3952023358
 30
0.0
 11
305.4998967636
 21
401.4076634773
 31
0.0
  0
POLYLINE
  5
103
  8
0
  6
CONTINUOUS
 62
     8
 66
     1
 10
0.0
 20
0.0
 30
0.0
 70
   128
  0
VERTEX
  5
2CB
  8
0
  6
CONTINUOUS
 62
     8
 10
336.98327768
 20
366.5612814913
 30
0.0
  0
VERTEX
  5
2CC
  8
0
  6
CONTINUOUS
 62
     8
 10
336.8345654471
 20
366.7578506386
 30
0.0
  0
VERTEX
  5
2CD
  8
0
  6
CONTINUOUS
 62
     8
 10
336.3993937124
 20
367.3778804388
 30
0.0
  0
SEQEND
  5
48D
  8
0
  6
CONTINUOUS
 62
     8
  0
ARC
  5
104
  8
0
  6
CONTINUOUS
 62
     8
 10
316.939131429
 20
402.5484081738
 30
0.0
 40
11.44455549621282
 50
147.7465309281
 51
157.2150880179
  0
LINE
  5
105
  8
0
  6
CONTINUOUS
 62
     8
 10
322.7524642703
 20
419.2570974165
 30
0.0
 11
323.1832341966
 21
419.3093419712
 31
0.0
  0
LINE
  5
106
  8
0
  6
CONTINUOUS
 62
     8
 10
255.2245040752
 20
327.6105972422
 30
0.0
 11
258.9832745583
 21
328.9786778155
 31
0.0
  0
LINE
  5
107
  8
0
  6
CONTINUOUS
 62
     8
 10
253.3451188336
 20
328.9265569556
 30
0.0
 11
253.3451188336
 21
332.9265569556
 31
0.0
  0
POLYLINE
  5
108
  8
0
  6
CONTINUOUS
 62
     7
 66
     1
 10
0.0
 20
0.0
 30
0.0
 70
   128
  0
VERTEX
  5
2CE
  8
0
  6
CONTINUOUS
 62
     7
 10
143.1879259391
 20
387.3824452213
 30
0.0
  0
VERTEX
  5
2CF
  8
0
  6
CONTINUOUS
 62
     7
 10
141.460304769
 20
387.3776158958
 30
0.0
  0
VERTEX
  5
2D0
  8
0
  6
CONTINUOUS
 62
     7
 10
139.3825323738
 20
387.3680559208
 30
0.0
  0
VERTEX
  5
2D1
  8
0
  6
CONTINUOUS
 62
     7
 10
137.5549868447
 20
387.3567440137
 30
0.0
  0
VERTEX
  5
2D2
  8
0
  6
CONTINUOUS
 62
     7
 10
135.8840834248
 20
387.3440618847
 30
0.0
  0
SEQEND
  5
48E
  8
0
  6
CONTINUOUS
 62
     7
  0
POLYLINE
  5
109
  8
0
  6
CONTINUOUS
 62
     7
 66
     1
 10
0.0
 20
0.0
 30
0.0
 70
   128
  0
VERTEX
  5
2D3
  8
0
  6
CONTINUOUS
 62
     7
 10
158.7228993986
 20
387.3300594748
 30
0.0
  0
VERTEX
  5
2D4
  8
0
  6
CONTINUOUS
 62
     7
 10
157.2474476908
 20
387.3432275353
 30
0.0
  0
VERTEX
  5
2D5
  8
0
  6
CONTINUOUS
 62
     7
 10
155.4666053136
 20
387.3567440838
 30
0.0
  0
VERTEX
  5
2D6
  8
0
  6
CONTINUOUS
 62
     7
 10
153.6390619572
 20
387.3680559641
 30
0.0
  0
VERTEX
  5
2D7
  8
0
  6
CONTINUOUS
 62
     7
 10
151.5612927837
 20
387.3776159133
 30
0.0
  0
VERTEX
  5
2D8
  8
0
  6
CONTINUOUS
 62
     7
 10
149.8427392749
 20
387.3824198881
 30
0.0
  0
SEQEND
  5
48F
  8
0
  6
CONTINUOUS
 62
     7
  0
LINE
  5
10A
  8
0
  6
CONTINUOUS
 62
     7
 10
158.5108011586
 20
369.6724135266
 30
0.0
 11
158.5108011586
 21
370.4518382234
 31
0.0
  0
LINE
  5
10B
  8
0
  6
CONTINUOUS
 62
     7
 10
134.5108011586
 20
370.4518382234
 30
0.0
 11
134.5108011586
 21
369.6724135266
 31
0.0
  0
LINE
  5
10C
  8
0
  6
CONTINUOUS
 62
     7
 10
139.4351600885
 20
362.4744136494
 30
0.0
 11
140.0247968444
 21
362.2924920858
 31
0.0
  0
LINE
  5
10D
  8
0
  6
CONTINUOUS
 62
     7
 10
152.9968054729
 20
362.2924920858
 30
0.0
 11
153.5864422287
 21
362.4744136494
 31
0.0
  0
POLYLINE
  5
10E
  8
0
  6
CONTINUOUS
 62
     7
 66
     1
 10
0.0
 20
0.0
 30
0.0
 70
   128
  0
VERTEX
  5
2D9
  8
0
  6
CONTINUOUS
 62
     7
 10
158.4153897264
 20
369.1428617717
 30
0.0
  0
VERTEX
  5
2DA
  8
0
  6
CONTINUOUS
 62
     7
 10
159.9768800584
 20
369.9860139067
 30
0.0
  0
VERTEX
  5
2DB
  8
0
  6
CONTINUOUS
 62
     7
 10
161.4325839318
 20
370.884827614
 30
0.0
  0
VERTEX
  5
2DC
  8
0
  6
CONTINUOUS
 62
     7
 10
162.3246080943
 20
371.4756395582
 30
0.0
  0
VERTEX
  5
2DD
  8
0
  6
CONTINUOUS
 62
     7
 10
162.699168853
 20
371.7314675631
 30
0.0
  0
VERTEX
  5
2DE
  8
0
  6
CONTINUOUS
 62
     7
 10
163.0143080622
 20
371.9501089563
 30
0.0
  0
VERTEX
  5
2DF
  8
0
  6
CONTINUOUS
 62
     7
 10
163.2705833131
 20
372.1304117934
 30
0.0
  0
VERTEX
  5
2E0
  8
0
  6
CONTINUOUS
 62
     7
 10
163.4683485888
 20
372.2716447706
 30
0.0
  0
VERTEX
  5
2E1
  8
0
  6
CONTINUOUS
 62
     7
 10
163.6891484644
 20
372.4352499509
 30
0.0
  0
VERTEX
  5
2E2
  8
0
  6
CONTINUOUS
 62
     7
 10
163.6859721114
 20
372.4383056474
 30
0.0
  0
SEQEND
  5
490
  8
0
  6
CONTINUOUS
 62
     7
  0
POLYLINE
  5
10F
  8
0
  6
CONTINUOUS
 62
     7
 66
     1
 10
0.0
 20
0.0
 30
0.0
 70
   128
  0
VERTEX
  5
2E3
  8
0
  6
CONTINUOUS
 62
     7
 10
129.3356302058
 20
372.4383056474
 30
0.0
  0
VERTEX
  5
2E4
  8
0
  6
CONTINUOUS
 62
     7
 10
129.3324538529
 20
372.4352499509
 30
0.0
  0
VERTEX
  5
2E5
  8
0
  6
CONTINUOUS
 62
     7
 10
129.5532537285
 20
372.2716447706
 30
0.0
  0
VERTEX
  5
2E6
  8
0
  6
CONTINUOUS
 62
     7
 10
129.7510190042
 20
372.1304117934
 30
0.0
  0
VERTEX
  5
2E7
  8
0
  6
CONTINUOUS
 62
     7
 10
130.0072942551
 20
371.9501089563
 30
0.0
  0
VERTEX
  5
2E8
  8
0
  6
CONTINUOUS
 62
     7
 10
130.3224334643
 20
371.7314675631
 30
0.0
  0
VERTEX
  5
2E9
  8
0
  6
CONTINUOUS
 62
     7
 10
130.904518718
 20
371.3358135129
 30
0.0
  0
VERTEX
  5
2EA
  8
0
  6
CONTINUOUS
 62
     7
 10
131.5890183854
 20
370.884827614
 30
0.0
  0
VERTEX
  5
2EB
  8
0
  6
CONTINUOUS
 62
     7
 10
133.0447222589
 20
369.9860139067
 30
0.0
  0
VERTEX
  5
2EC
  8
0
  6
CONTINUOUS
 62
     7
 10
134.6296767961
 20
369.130191892
 30
0.0
  0
SEQEND
  5
491
  8
0
  6
CONTINUOUS
 62
     7
  0
POLYLINE
  5
110
  8
0
  6
CONTINUOUS
 62
     7
 66
     1
 10
0.0
 20
0.0
 30
0.0
 70
   128
  0
VERTEX
  5
2ED
  8
0
  6
CONTINUOUS
 62
     7
 10
167.9857653866
 20
424.2672327695
 30
0.0
  0
VERTEX
  5
2EE
  8
0
  6
CONTINUOUS
 62
     7
 10
157.2968140266
 20
424.5488936321
 30
0.0
  0
VERTEX
  5
2EF
  8
0
  6
CONTINUOUS
 62
     7
 10
146.3512364892
 20
424.6518806858
 30
0.0
  0
SEQEND
  5
492
  8
0
  6
CONTINUOUS
 62
     7
  0
POLYLINE
  5
111
  8
0
  6
CONTINUOUS
 62
     7
 66
     1
 10
0.0
 20
0.0
 30
0.0
 70
   128
  0
VERTEX
  5
2F0
  8
0
  6
CONTINUOUS
 62
     7
 10
146.6178441896
 20
424.6518806858
 30
0.0
  0
VERTEX
  5
2F1
  8
0
  6
CONTINUOUS
 62
     7
 10
135.6722666522
 20
424.5488936321
 30
0.0
  0
VERTEX
  5
2F2
  8
0
  6
CONTINUOUS
 62
     7
 10
124.9833152922
 20
424.2672327695
 30
0.0
  0
SEQEND
  5
493
  8
0
  6
CONTINUOUS
 62
     7
  0
LINE
  5
112
  8
0
  6
CONTINUOUS
 62
     7
 10
125.0108011586
 20
388.5999259599
 30
0.0
 11
125.0108011586
 21
387.2770428879
 31
0.0
  0
LINE
  5
113
  8
0
  6
CONTINUOUS
 62
     7
 10
168.0108011586
 20
387.2770851393
 30
0.0
 11
168.0108011586
 21
388.5999259599
 31
0.0
  0
ARC
  5
114
  8
0
  6
CONTINUOUS
 62
     7
 10
158.0108011586
 20
388.5999259599
 30
0.0
 40
10.00000000000003
 50
0.0
 51
9.0468459803
  0
ARC
  5
115
  8
0
  6
CONTINUOUS
 62
     7
 10
135.0108011586
 20
388.5999259599
 30
0.0
 40
10.00000000000003
 50
170.9531540197
 51
180.0
  0
ARC
  5
116
  8
0
  6
CONTINUOUS
 62
     7
 10
146.5108011586
 20
386.7688651849
 30
0.0
 40
21.64486082191339
 50
164.6613391882
 51
170.9531540197
  0
ARC
  5
117
  8
0
  6
CONTINUOUS
 62
     7
 10
146.5108011586
 20
386.7688651849
 30
0.0
 40
21.64486082191337
 50
9.0468459803
 51
15.2684548419
  0
LINE
  5
118
  8
0
  6
CONTINUOUS
 62
     7
 10
169.4845403394
 20
392.9674508597
 30
0.0
 11
169.4845403394
 21
422.7688651849
 31
0.0
  0
LINE
  5
119
  8
0
  6
CONTINUOUS
 62
     7
 10
123.4845403394
 20
422.7688651849
 30
0.0
 11
123.4845403394
 21
392.9674508597
 31
0.0
  0
ARC
  5
11A
  8
0
  6
CONTINUOUS
 62
     7
 10
124.9845403394
 20
422.7688651849
 30
0.0
 40
1.5
 50
90.0
 51
180.0
  0
ARC
  5
11B
  8
0
  6
CONTINUOUS
 62
     7
 10
167.9845403394
 20
422.7688651849
 30
0.0
 40
1.5
 50
0.0
 51
90.0
  0
LINE
  5
11C
  8
0
  6
CONTINUOUS
 62
     7
 10
123.5108011586
 20
375.4221586031
 30
0.0
 11
123.5108011586
 21
290.9265569556
 31
0.0
  0
LINE
  5
11D
  8
0
  6
CONTINUOUS
 62
     7
 10
169.5108011586
 20
290.9265569556
 30
0.0
 11
169.5108011586
 21
375.4221586031
 31
0.0
  0
POLYLINE
  5
11E
  8
0
  6
CONTINUOUS
 62
     7
 66
     1
 10
0.0
 20
0.0
 30
0.0
 70
   128
  0
VERTEX
  5
2F3
  8
0
  6
CONTINUOUS
 62
     7
 10
168.9539071946
 20
392.4689097132
 30
0.0
  0
VERTEX
  5
2F4
  8
0
  6
CONTINUOUS
 62
     7
 10
168.9739126113
 20
392.4689144119
 30
0.0
  0
VERTEX
  5
2F5
  8
0
  6
CONTINUOUS
 62
     7
 10
169.1969274595
 20
392.4917959337
 30
0.0
  0
VERTEX
  5
2F6
  8
0
  6
CONTINUOUS
 62
     7
 10
169.4103672022
 20
392.646999667
 30
0.0
  0
VERTEX
  5
2F7
  8
0
  6
CONTINUOUS
 62
     7
 10
169.482284162
 20
392.8916722239
 30
0.0
  0
VERTEX
  5
2F8
  8
0
  6
CONTINUOUS
 62
     7
 10
169.4780335907
 20
392.9615492741
 30
0.0
  0
SEQEND
  5
494
  8
0
  6
CONTINUOUS
 62
     7
  0
ARC
  5
11F
  8
0
  6
CONTINUOUS
 62
     7
 10
123.9216104914
 20
392.8864113488
 30
0.0
 40
0.4280965954983967
 50
172.7069791065
 51
283.0370773615
  0
LINE
  5
120
  8
0
  6
CONTINUOUS
 62
     7
 10
123.5108011586
 20
385.7762480562
 30
0.0
 11
123.5108011586
 21
375.4221586031
 31
0.0
  0
LINE
  5
121
  8
0
  6
CONTINUOUS
 62
     7
 10
169.5108011586
 20
375.4221586031
 30
0.0
 11
169.5108011586
 21
385.776287774
 31
0.0
  0
LINE
  5
122
  8
0
  6
CONTINUOUS
 62
     7
 10
158.9700085784
 20
370.7493268976
 30
0.0
 11
159.0536466351
 21
370.4736441895
 31
0.0
  0
POLYLINE
  5
123
  8
0
  6
CONTINUOUS
 62
     7
 66
     1
 10
0.0
 20
0.0
 30
0.0
 70
   128
  0
VERTEX
  5
2F9
  8
0
  6
CONTINUOUS
 62
     7
 10
158.9701235325
 20
370.7490680946
 30
0.0
  0
VERTEX
  5
2FA
  8
0
  6
CONTINUOUS
 62
     7
 10
158.7649508475
 20
371.1735366721
 30
0.0
  0
VERTEX
  5
2FB
  8
0
  6
CONTINUOUS
 62
     7
 10
158.027839262
 20
371.8632337665
 30
0.0
  0
VERTEX
  5
2FC
  8
0
  6
CONTINUOUS
 62
     7
 10
156.8830363016
 20
372.4770062726
 30
0.0
  0
VERTEX
  5
2FD
  8
0
  6
CONTINUOUS
 62
     7
 10
155.3479027676
 20
373.0163190867
 30
0.0
  0
VERTEX
  5
2FE
  8
0
  6
CONTINUOUS
 62
     7
 10
153.4890169033
 20
373.4618922791
 30
0.0
  0
VERTEX
  5
2FF
  8
0
  6
CONTINUOUS
 62
     7
 10
151.3744154688
 20
373.7940227002
 30
0.0
  0
VERTEX
  5
300
  8
0
  6
CONTINUOUS
 62
     7
 10
148.9974760569
 20
374.0079286502
 30
0.0
  0
VERTEX
  5
301
  8
0
  6
CONTINUOUS
 62
     7
 10
146.5108011586
 20
374.0792731233
 30
0.0
  0
SEQEND
  5
495
  8
0
  6
CONTINUOUS
 62
     7
  0
POLYLINE
  5
124
  8
0
  6
CONTINUOUS
 62
     7
 66
     1
 10
0.0
 20
0.0
 30
0.0
 70
   128
  0
VERTEX
  5
302
  8
0
  6
CONTINUOUS
 62
     7
 10
134.0508240725
 20
370.7466849883
 30
0.0
  0
VERTEX
  5
303
  8
0
  6
CONTINUOUS
 62
     7
 10
134.2566514698
 20
371.1735366721
 30
0.0
  0
VERTEX
  5
304
  8
0
  6
CONTINUOUS
 62
     7
 10
134.9937630552
 20
371.8632337665
 30
0.0
  0
VERTEX
  5
305
  8
0
  6
CONTINUOUS
 62
     7
 10
136.1385660156
 20
372.4770062726
 30
0.0
  0
VERTEX
  5
306
  8
0
  6
CONTINUOUS
 62
     7
 10
137.6736995496
 20
373.0163190867
 30
0.0
  0
VERTEX
  5
307
  8
0
  6
CONTINUOUS
 62
     7
 10
139.532585414
 20
373.4618922791
 30
0.0
  0
VERTEX
  5
308
  8
0
  6
CONTINUOUS
 62
     7
 10
141.6471868485
 20
373.7940227002
 30
0.0
  0
VERTEX
  5
309
  8
0
  6
CONTINUOUS
 62
     7
 10
144.0241262603
 20
374.0079286502
 30
0.0
  0
VERTEX
  5
30A
  8
0
  6
CONTINUOUS
 62
     7
 10
146.5108011586
 20
374.0792731233
 30
0.0
  0
SEQEND
  5
496
  8
0
  6
CONTINUOUS
 62
     7
  0
LINE
  5
125
  8
0
  6
CONTINUOUS
 62
     7
 10
133.9679556822
 20
370.4736441895
 30
0.0
 11
134.0515753079
 21
370.7466675765
 31
0.0
  0
LINE
  5
126
  8
0
  6
CONTINUOUS
 62
     7
 10
134.4719005422
 20
387.330219727
 30
0.0
 11
135.8840834248
 21
387.3440618847
 31
0.0
  0
LINE
  5
127
  8
0
  6
CONTINUOUS
 62
     7
 10
143.1879259391
 20
387.3824452213
 30
0.0
 11
143.3739422698
 21
387.3826941839
 31
0.0
  0
POLYLINE
  5
128
  8
0
  6
CONTINUOUS
 62
     7
 66
     1
 10
0.0
 20
0.0
 30
0.0
 70
   128
  0
VERTEX
  5
30B
  8
0
  6
CONTINUOUS
 62
     7
 10
157.5108011586
 20
366.0471823784
 30
0.0
  0
VERTEX
  5
30C
  8
0
  6
CONTINUOUS
 62
     7
 10
157.3988370193
 20
366.7087757237
 30
0.0
  0
VERTEX
  5
30D
  8
0
  6
CONTINUOUS
 62
     7
 10
157.0652238684
 20
367.3569009364
 30
0.0
  0
VERTEX
  5
30E
  8
0
  6
CONTINUOUS
 62
     7
 10
156.5167531075
 20
367.9783640561
 30
0.0
  0
VERTEX
  5
30F
  8
0
  6
CONTINUOUS
 62
     7
 10
155.7645900198
 20
368.5605138859
 30
0.0
  0
VERTEX
  5
310
  8
0
  6
CONTINUOUS
 62
     7
 10
154.8240464765
 20
369.0914995341
 30
0.0
  0
VERTEX
  5
311
  8
0
  6
CONTINUOUS
 62
     7
 10
153.714269232
 20
369.5605116641
 30
0.0
  0
VERTEX
  5
312
  8
0
  6
CONTINUOUS
 62
     7
 10
152.4578501506
 20
369.9580025414
 30
0.0
  0
VERTEX
  5
313
  8
0
  6
CONTINUOUS
 62
     7
 10
151.0803663016
 20
370.2758803981
 30
0.0
  0
VERTEX
  5
314
  8
0
  6
CONTINUOUS
 62
     7
 10
149.6098592839
 20
370.5076741577
 30
0.0
  0
VERTEX
  5
315
  8
0
  6
CONTINUOUS
 62
     7
 10
148.0762643796
 20
370.6486651676
 30
0.0
  0
VERTEX
  5
316
  8
0
  6
CONTINUOUS
 62
     7
 10
146.5108011586
 20
370.6959832576
 30
0.0
  0
VERTEX
  5
317
  8
0
  6
CONTINUOUS
 62
     7
 10
144.9453379376
 20
370.6486651676
 30
0.0
  0
VERTEX
  5
318
  8
0
  6
CONTINUOUS
 62
     7
 10
143.4117430334
 20
370.5076741577
 30
0.0
  0
VERTEX
  5
319
  8
0
  6
CONTINUOUS
 62
     7
 10
141.9412360156
 20
370.2758803981
 30
0.0
  0
VERTEX
  5
31A
  8
0
  6
CONTINUOUS
 62
     7
 10
140.5637521666
 20
369.9580025414
 30
0.0
  0
VERTEX
  5
31B
  8
0
  6
CONTINUOUS
 62
     7
 10
139.3073330852
 20
369.5605116641
 30
0.0
  0
VERTEX
  5
31C
  8
0
  6
CONTINUOUS
 62
     7
 10
138.1975558407
 20
369.0914995341
 30
0.0
  0
VERTEX
  5
31D
  8
0
  6
CONTINUOUS
 62
     7
 10
137.2570122975
 20
368.5605138859
 30
0.0
  0
VERTEX
  5
31E
  8
0
  6
CONTINUOUS
 62
     7
 10
136.5048492097
 20
367.9783640561
 30
0.0
  0
VERTEX
  5
31F
  8
0
  6
CONTINUOUS
 62
     7
 10
135.9563784489
 20
367.3569009364
 30
0.0
  0
VERTEX
  5
320
  8
0
  6
CONTINUOUS
 62
     7
 10
135.6227652979
 20
366.7087757237
 30
0.0
  0
VERTEX
  5
321
  8
0
  6
CONTINUOUS
 62
     7
 10
135.5108011586
 20
366.0471823784
 30
0.0
  0
SEQEND
  5
497
  8
0
  6
CONTINUOUS
 62
     7
  0
LINE
  5
129
  8
0
  6
CONTINUOUS
 62
     7
 10
135.5108011586
 20
368.5972454052
 30
0.0
 11
135.5108011586
 21
366.0471823784
 31
0.0
  0
POLYLINE
  5
12A
  8
0
  6
CONTINUOUS
 62
     7
 66
     1
 10
0.0
 20
0.0
 30
0.0
 70
   128
  0
VERTEX
  5
322
  8
0
  6
CONTINUOUS
 62
     7
 10
157.5108011586
 20
368.5972454052
 30
0.0
  0
VERTEX
  5
323
  8
0
  6
CONTINUOUS
 62
     7
 10
156.756317572
 20
369.2106840063
 30
0.0
  0
VERTEX
  5
324
  8
0
  6
CONTINUOUS
 62
     7
 10
155.8114271804
 20
369.7750552383
 30
0.0
  0
VERTEX
  5
325
  8
0
  6
CONTINUOUS
 62
     7
 10
154.6936902074
 20
370.2798705988
 30
0.0
  0
VERTEX
  5
326
  8
0
  6
CONTINUOUS
 62
     7
 10
153.4238791273
 20
370.7157483958
 30
0.0
  0
VERTEX
  5
327
  8
0
  6
CONTINUOUS
 62
     7
 10
152.0255926209
 20
371.0745881006
 30
0.0
  0
VERTEX
  5
328
  8
0
  6
CONTINUOUS
 62
     7
 10
150.524817008
 20
371.3497208916
 30
0.0
  0
VERTEX
  5
329
  8
0
  6
CONTINUOUS
 62
     7
 10
148.9494433073
 20
371.5360335902
 30
0.0
  0
VERTEX
  5
32A
  8
0
  6
CONTINUOUS
 62
     7
 10
147.3287488983
 20
371.630063686
 30
0.0
  0
VERTEX
  5
32B
  8
0
  6
CONTINUOUS
 62
     7
 10
145.6928534189
 20
371.630063686
 30
0.0
  0
VERTEX
  5
32C
  8
0
  6
CONTINUOUS
 62
     7
 10
144.07215901
 20
371.5360335902
 30
0.0
  0
VERTEX
  5
32D
  8
0
  6
CONTINUOUS
 62
     7
 10
142.4967853092
 20
371.3497208916
 30
0.0
  0
VERTEX
  5
32E
  8
0
  6
CONTINUOUS
 62
     7
 10
140.9960096963
 20
371.0745881006
 30
0.0
  0
VERTEX
  5
32F
  8
0
  6
CONTINUOUS
 62
     7
 10
139.5977231899
 20
370.7157483958
 30
0.0
  0
VERTEX
  5
330
  8
0
  6
CONTINUOUS
 62
     7
 10
138.3279121099
 20
370.2798705988
 30
0.0
  0
VERTEX
  5
331
  8
0
  6
CONTINUOUS
 62
     7
 10
137.2101751369
 20
369.7750552383
 30
0.0
  0
VERTEX
  5
332
  8
0
  6
CONTINUOUS
 62
     7
 10
136.2652847452
 20
369.2106840063
 30
0.0
  0
VERTEX
  5
333
  8
0
  6
CONTINUOUS
 62
     7
 10
135.5108011586
 20
368.5972454052
 30
0.0
  0
SEQEND
  5
498
  8
0
  6
CONTINUOUS
 62
     7
  0
LINE
  5
12B
  8
0
  6
CONTINUOUS
 62
     7
 10
157.5108011586
 20
368.5972454052
 30
0.0
 11
157.5108011586
 21
366.0471823784
 31
0.0
  0
ARC
  5
12C
  8
0
  6
CONTINUOUS
 62
     7
 10
141.998073941
 20
372.0910458319
 30
0.0
 40
9.952293300946252
 50
229.3197543049
 51
255.0770458253
  0
ARC
  5
12D
  8
0
  6
CONTINUOUS
 62
     7
 10
151.0235283762
 20
372.0910458319
 30
0.0
 40
9.952293300947947
 50
284.9229541747
 51
310.6802456951
  0
ARC
  5
12E
  8
0
  6
CONTINUOUS
 62
     7
 10
155.8876521622
 20
369.6724135266
 30
0.0
 40
2.596643054663986
 50
308.6891720236
 51
51.3108279764
  0
LINE
  5
12F
  8
0
  6
CONTINUOUS
 62
     7
 10
157.5108011586
 20
371.6992195086
 30
0.0
 11
157.5108011586
 21
368.5972454052
 31
0.0
  0
LINE
  5
130
  8
0
  6
CONTINUOUS
 62
     7
 10
135.5108011586
 20
371.6992195086
 30
0.0
 11
135.5108011586
 21
368.5972454052
 31
0.0
  0
ARC
  5
131
  8
0
  6
CONTINUOUS
 62
     7
 10
137.1339501551
 20
369.6724135266
 30
0.0
 40
2.596643054664038
 50
128.6891720236
 51
231.3108279764
  0
POLYLINE
  5
132
  8
0
  6
CONTINUOUS
 62
     7
 66
     1
 10
0.0
 20
0.0
 30
0.0
 70
   128
  0
VERTEX
  5
334
  8
0
  6
CONTINUOUS
 62
     7
 10
134.5108011586
 20
370.4518382234
 30
0.0
  0
VERTEX
  5
335
  8
0
  6
CONTINUOUS
 62
     7
 10
134.632943856
 20
370.957540569
 30
0.0
  0
VERTEX
  5
336
  8
0
  6
CONTINUOUS
 62
     7
 10
134.9968854752
 20
371.4529482732
 30
0.0
  0
VERTEX
  5
337
  8
0
  6
CONTINUOUS
 62
     7
 10
135.5952172144
 20
371.9279762637
 30
0.0
  0
VERTEX
  5
338
  8
0
  6
CONTINUOUS
 62
     7
 10
136.4157587646
 20
372.3729543405
 30
0.0
  0
VERTEX
  5
339
  8
0
  6
CONTINUOUS
 62
     7
 10
137.4418062664
 20
372.7788240333
 30
0.0
  0
VERTEX
  5
33A
  8
0
  6
CONTINUOUS
 62
     7
 10
138.6524723513
 20
373.1373230054
 30
0.0
  0
VERTEX
  5
33B
  8
0
  6
CONTINUOUS
 62
     7
 10
140.0231113492
 20
373.4411532517
 30
0.0
  0
VERTEX
  5
33C
  8
0
  6
CONTINUOUS
 62
     7
 10
141.5258210026
 20
373.6841296644
 30
0.0
  0
VERTEX
  5
33D
  8
0
  6
CONTINUOUS
 62
     7
 10
143.1300104765
 20
373.8613059446
 30
0.0
  0
VERTEX
  5
33E
  8
0
  6
CONTINUOUS
 62
     7
 10
144.8030230993
 20
373.9690752941
 30
0.0
  0
VERTEX
  5
33F
  8
0
  6
CONTINUOUS
 62
     7
 10
146.5108011586
 20
374.0052438397
 30
0.0
  0
SEQEND
  5
499
  8
0
  6
CONTINUOUS
 62
     7
  0
POLYLINE
  5
133
  8
0
  6
CONTINUOUS
 62
     7
 66
     1
 10
0.0
 20
0.0
 30
0.0
 70
   128
  0
VERTEX
  5
340
  8
0
  6
CONTINUOUS
 62
     7
 10
146.5108011586
 20
374.0052438397
 30
0.0
  0
VERTEX
  5
341
  8
0
  6
CONTINUOUS
 62
     7
 10
148.2185792179
 20
373.9690752941
 30
0.0
  0
VERTEX
  5
342
  8
0
  6
CONTINUOUS
 62
     7
 10
149.8915918407
 20
373.8613059446
 30
0.0
  0
VERTEX
  5
343
  8
0
  6
CONTINUOUS
 62
     7
 10
151.4957813146
 20
373.6841296644
 30
0.0
  0
VERTEX
  5
344
  8
0
  6
CONTINUOUS
 62
     7
 10
152.9984909681
 20
373.4411532517
 30
0.0
  0
VERTEX
  5
345
  8
0
  6
CONTINUOUS
 62
     7
 10
154.369129966
 20
373.1373230054
 30
0.0
  0
VERTEX
  5
346
  8
0
  6
CONTINUOUS
 62
     7
 10
155.5797960509
 20
372.7788240333
 30
0.0
  0
VERTEX
  5
347
  8
0
  6
CONTINUOUS
 62
     7
 10
156.6058435526
 20
372.3729543405
 30
0.0
  0
VERTEX
  5
348
  8
0
  6
CONTINUOUS
 62
     7
 10
157.4263851029
 20
371.9279762637
 30
0.0
  0
VERTEX
  5
349
  8
0
  6
CONTINUOUS
 62
     7
 10
158.024716842
 20
371.4529482732
 30
0.0
  0
VERTEX
  5
34A
  8
0
  6
CONTINUOUS
 62
     7
 10
158.3886584612
 20
370.957540569
 30
0.0
  0
VERTEX
  5
34B
  8
0
  6
CONTINUOUS
 62
     7
 10
158.5108011586
 20
370.4518382234
 30
0.0
  0
SEQEND
  5
49A
  8
0
  6
CONTINUOUS
 62
     7
  0
POLYLINE
  5
134
  8
0
  6
CONTINUOUS
 62
     7
 66
     1
 10
0.0
 20
0.0
 30
0.0
 70
   128
  0
VERTEX
  5
34C
  8
0
  6
CONTINUOUS
 62
     7
 10
135.5108011586
 20
366.0471823784
 30
0.0
  0
VERTEX
  5
34D
  8
0
  6
CONTINUOUS
 62
     7
 10
135.6227652979
 20
365.3855890331
 30
0.0
  0
VERTEX
  5
34E
  8
0
  6
CONTINUOUS
 62
     7
 10
135.9563784489
 20
364.7374638205
 30
0.0
  0
VERTEX
  5
34F
  8
0
  6
CONTINUOUS
 62
     7
 10
136.5048492097
 20
364.1160007008
 30
0.0
  0
VERTEX
  5
350
  8
0
  6
CONTINUOUS
 62
     7
 10
137.2570122975
 20
363.5338508709
 30
0.0
  0
VERTEX
  5
351
  8
0
  6
CONTINUOUS
 62
     7
 10
138.1975558407
 20
363.0028652227
 30
0.0
  0
VERTEX
  5
352
  8
0
  6
CONTINUOUS
 62
     7
 10
139.3073330852
 20
362.5338530928
 30
0.0
  0
VERTEX
  5
353
  8
0
  6
CONTINUOUS
 62
     7
 10
140.5637521666
 20
362.1363622154
 30
0.0
  0
VERTEX
  5
354
  8
0
  6
CONTINUOUS
 62
     7
 10
141.9412360156
 20
361.8184843587
 30
0.0
  0
VERTEX
  5
355
  8
0
  6
CONTINUOUS
 62
     7
 10
143.4117430334
 20
361.5866905992
 30
0.0
  0
VERTEX
  5
356
  8
0
  6
CONTINUOUS
 62
     7
 10
144.9453379376
 20
361.4456995892
 30
0.0
  0
VERTEX
  5
357
  8
0
  6
CONTINUOUS
 62
     7
 10
146.5108011586
 20
361.3983814993
 30
0.0
  0
VERTEX
  5
358
  8
0
  6
CONTINUOUS
 62
     7
 10
148.0762643796
 20
361.4456995892
 30
0.0
  0
VERTEX
  5
359
  8
0
  6
CONTINUOUS
 62
     7
 10
149.6098592839
 20
361.5866905992
 30
0.0
  0
VERTEX
  5
35A
  8
0
  6
CONTINUOUS
 62
     7
 10
151.0803663016
 20
361.8184843587
 30
0.0
  0
VERTEX
  5
35B
  8
0
  6
CONTINUOUS
 62
     7
 10
152.4578501506
 20
362.1363622154
 30
0.0
  0
VERTEX
  5
35C
  8
0
  6
CONTINUOUS
 62
     7
 10
153.714269232
 20
362.5338530928
 30
0.0
  0
VERTEX
  5
35D
  8
0
  6
CONTINUOUS
 62
     7
 10
154.8240464765
 20
363.0028652227
 30
0.0
  0
VERTEX
  5
35E
  8
0
  6
CONTINUOUS
 62
     7
 10
155.7645900198
 20
363.5338508709
 30
0.0
  0
VERTEX
  5
35F
  8
0
  6
CONTINUOUS
 62
     7
 10
156.5167531075
 20
364.1160007008
 30
0.0
  0
VERTEX
  5
360
  8
0
  6
CONTINUOUS
 62
     7
 10
157.0652238684
 20
364.7374638205
 30
0.0
  0
VERTEX
  5
361
  8
0
  6
CONTINUOUS
 62
     7
 10
157.3988370193
 20
365.3855890331
 30
0.0
  0
VERTEX
  5
362
  8
0
  6
CONTINUOUS
 62
     7
 10
157.5108011586
 20
366.0471823784
 30
0.0
  0
SEQEND
  5
49B
  8
0
  6
CONTINUOUS
 62
     7
  0
ARC
  5
135
  8
0
  6
CONTINUOUS
 62
     7
 10
125.9067941145
 20
213.9897812895
 30
0.0
 40
173.2877664823181
 50
89.5531939015
 51
90.2227624378
  0
LINE
  5
136
  8
0
  6
CONTINUOUS
 62
     7
 10
125.0108025301
 20
387.2770429325
 30
0.0
 11
124.9618960967
 21
387.2754506096
 31
0.0
  0
POLYLINE
  5
137
  8
0
  6
CONTINUOUS
 62
     7
 66
     1
 10
0.0
 20
0.0
 30
0.0
 70
   128
  0
VERTEX
  5
363
  8
0
  6
CONTINUOUS
 62
     7
 10
125.0108011586
 20
387.2770851393
 30
0.0
  0
VERTEX
  5
364
  8
0
  6
CONTINUOUS
 62
     7
 10
125.275553258
 20
387.2778374271
 30
0.0
  0
VERTEX
  5
365
  8
0
  6
CONTINUOUS
 62
     7
 10
126.0903943652
 20
387.2862975467
 30
0.0
  0
VERTEX
  5
366
  8
0
  6
CONTINUOUS
 62
     7
 10
127.4851035751
 20
387.3152603923
 30
0.0
  0
VERTEX
  5
367
  8
0
  6
CONTINUOUS
 62
     7
 10
129.4674395524
 20
387.3616652047
 30
0.0
  0
VERTEX
  5
368
  8
0
  6
CONTINUOUS
 62
     7
 10
131.8705737465
 20
387.4158574151
 30
0.0
  0
VERTEX
  5
369
  8
0
  6
CONTINUOUS
 62
     7
 10
134.763950049
 20
387.4726421237
 30
0.0
  0
VERTEX
  5
36A
  8
0
  6
CONTINUOUS
 62
     7
 10
137.9066086277
 20
387.5209048694
 30
0.0
  0
VERTEX
  5
36B
  8
0
  6
CONTINUOUS
 62
     7
 10
141.3877327324
 20
387.5568658846
 30
0.0
  0
VERTEX
  5
36C
  8
0
  6
CONTINUOUS
 62
     7
 10
143.9119386557
 20
387.5713712097
 30
0.0
  0
VERTEX
  5
36D
  8
0
  6
CONTINUOUS
 62
     7
 10
146.5108011586
 20
387.5762968598
 30
0.0
  0
SEQEND
  5
49C
  8
0
  6
CONTINUOUS
 62
     7
  0
LINE
  5
138
  8
0
  6
CONTINUOUS
 62
     7
 10
168.010799786
 20
387.2770429326
 30
0.0
 11
168.0597062195
 21
387.2754506097
 31
0.0
  0
ARC
  5
139
  8
0
  6
CONTINUOUS
 62
     7
 10
167.1169077238
 20
208.9617837437
 30
0.0
 40
178.3157191776416
 50
89.7841934209
 51
90.433527748
  0
POLYLINE
  5
13A
  8
0
  6
CONTINUOUS
 62
     7
 66
     1
 10
0.0
 20
0.0
 30
0.0
 70
   128
  0
VERTEX
  5
36E
  8
0
  6
CONTINUOUS
 62
     7
 10
146.5108011586
 20
387.5762968598
 30
0.0
  0
VERTEX
  5
36F
  8
0
  6
CONTINUOUS
 62
     7
 10
149.874467091
 20
387.5679956392
 30
0.0
  0
VERTEX
  5
370
  8
0
  6
CONTINUOUS
 62
     7
 10
153.2381336033
 20
387.5426000342
 30
0.0
  0
VERTEX
  5
371
  8
0
  6
CONTINUOUS
 62
     7
 10
156.52341343
 20
387.5010980712
 30
0.0
  0
VERTEX
  5
372
  8
0
  6
CONTINUOUS
 62
     7
 10
159.6151171712
 20
387.4473673099
 30
0.0
  0
VERTEX
  5
373
  8
0
  6
CONTINUOUS
 62
     7
 10
162.255093707
 20
387.3915572734
 30
0.0
  0
VERTEX
  5
374
  8
0
  6
CONTINUOUS
 62
     7
 10
164.5179175853
 20
387.3390215705
 30
0.0
  0
VERTEX
  5
375
  8
0
  6
CONTINUOUS
 62
     7
 10
166.2139339035
 20
387.3001411593
 30
0.0
  0
VERTEX
  5
376
  8
0
  6
CONTINUOUS
 62
     7
 10
167.3914590292
 20
387.2802490985
 30
0.0
  0
VERTEX
  5
377
  8
0
  6
CONTINUOUS
 62
     7
 10
167.8531411612
 20
387.2775307329
 30
0.0
  0
VERTEX
  5
378
  8
0
  6
CONTINUOUS
 62
     7
 10
168.0108011586
 20
387.2770851393
 30
0.0
  0
SEQEND
  5
49D
  8
0
  6
CONTINUOUS
 62
     7
  0
LINE
  5
13B
  8
0
  6
CONTINUOUS
 62
     7
 10
135.5108011586
 20
366.0471823784
 30
0.0
 11
135.5108011586
 21
364.5436334413
 31
0.0
  0
LINE
  5
13C
  8
0
  6
CONTINUOUS
 62
     7
 10
157.5108011586
 20
366.0471823784
 30
0.0
 11
157.5108011586
 21
364.5436334413
 31
0.0
  0
ARC
  5
13D
  8
0
  6
CONTINUOUS
 62
     7
 10
157.5602479759
 20
370.5592223448
 30
0.0
 40
1.496090456116016
 50
304.6710120569
 51
356.7044534418
  0
POLYLINE
  5
13E
  8
0
  6
CONTINUOUS
 62
     7
 66
     1
 10
0.0
 20
0.0
 30
0.0
 70
   128
  0
VERTEX
  5
379
  8
0
  6
CONTINUOUS
 62
     7
 10
158.4095372838
 20
369.410183516
 30
0.0
  0
VERTEX
  5
37A
  8
0
  6
CONTINUOUS
 62
     7
 10
158.8009262513
 20
369.8843113374
 30
0.0
  0
VERTEX
  5
37B
  8
0
  6
CONTINUOUS
 62
     7
 10
158.8212096943
 20
369.954168659
 30
0.0
  0
SEQEND
  5
49E
  8
0
  6
CONTINUOUS
 62
     7
  0
POLYLINE
  5
13F
  8
0
  6
CONTINUOUS
 62
     7
 66
     1
 10
0.0
 20
0.0
 30
0.0
 70
   128
  0
VERTEX
  5
37C
  8
0
  6
CONTINUOUS
 62
     7
 10
134.3227184976
 20
369.7778332507
 30
0.0
  0
VERTEX
  5
37D
  8
0
  6
CONTINUOUS
 62
     7
 10
134.4682993301
 20
369.5371044943
 30
0.0
  0
VERTEX
  5
37E
  8
0
  6
CONTINUOUS
 62
     7
 10
134.6235441076
 20
369.4103144143
 30
0.0
  0
SEQEND
  5
49F
  8
0
  6
CONTINUOUS
 62
     7
  0
ARC
  5
140
  8
0
  6
CONTINUOUS
 62
     7
 10
135.3796858724
 20
370.5416082198
 30
0.0
 40
1.413603241849083
 50
182.7730785691
 51
237.7297629909
  0
POLYLINE
  5
141
  8
0
  6
CONTINUOUS
 62
     7
 66
     1
 10
0.0
 20
0.0
 30
0.0
 70
   128
  0
VERTEX
  5
37F
  8
0
  6
CONTINUOUS
 62
     7
 10
166.8557128463
 20
424.2678647051
 30
0.0
  0
VERTEX
  5
380
  8
0
  6
CONTINUOUS
 62
     7
 10
165.1358821134
 20
424.267935229
 30
0.0
  0
VERTEX
  5
381
  8
0
  6
CONTINUOUS
 62
     7
 10
163.6667127497
 20
424.2680567788
 30
0.0
  0
VERTEX
  5
382
  8
0
  6
CONTINUOUS
 62
     7
 10
162.4550924848
 20
424.2681116324
 30
0.0
  0
VERTEX
  5
383
  8
0
  6
CONTINUOUS
 62
     7
 10
161.5822757713
 20
424.267827294
 30
0.0
  0
VERTEX
  5
384
  8
0
  6
CONTINUOUS
 62
     7
 10
161.0502905603
 20
424.2681335296
 30
0.0
  0
VERTEX
  5
385
  8
0
  6
CONTINUOUS
 62
     7
 10
160.8199302288
 20
424.2681424093
 30
0.0
  0
SEQEND
  5
4A0
  8
0
  6
CONTINUOUS
 62
     7
  0
LINE
  5
142
  8
0
  6
CONTINUOUS
 62
     7
 10
167.985786493
 20
424.26803162
 30
0.0
 11
166.8557129008
 21
424.26803162
 31
0.0
  0
POLYLINE
  5
143
  8
0
  6
CONTINUOUS
 62
     7
 66
     1
 10
0.0
 20
0.0
 30
0.0
 70
   128
  0
VERTEX
  5
386
  8
0
  6
CONTINUOUS
 62
     7
 10
126.1133678326
 20
424.2678647051
 30
0.0
  0
VERTEX
  5
387
  8
0
  6
CONTINUOUS
 62
     7
 10
127.8331985654
 20
424.267935229
 30
0.0
  0
VERTEX
  5
388
  8
0
  6
CONTINUOUS
 62
     7
 10
129.3023679291
 20
424.2680567788
 30
0.0
  0
VERTEX
  5
389
  8
0
  6
CONTINUOUS
 62
     7
 10
130.513988194
 20
424.2681116324
 30
0.0
  0
VERTEX
  5
38A
  8
0
  6
CONTINUOUS
 62
     7
 10
131.3868049075
 20
424.267827294
 30
0.0
  0
VERTEX
  5
38B
  8
0
  6
CONTINUOUS
 62
     7
 10
131.9187901186
 20
424.2681335296
 30
0.0
  0
VERTEX
  5
38C
  8
0
  6
CONTINUOUS
 62
     7
 10
132.14915045
 20
424.2681424093
 30
0.0
  0
SEQEND
  5
4A1
  8
0
  6
CONTINUOUS
 62
     7
  0
LINE
  5
144
  8
0
  6
CONTINUOUS
 62
     7
 10
132.6354849208
 20
424.26803162
 30
0.0
 11
132.168843475
 21
424.26803162
 31
0.0
  0
LINE
  5
145
  8
0
  6
CONTINUOUS
 62
     7
 10
124.9832941858
 20
424.26803162
 30
0.0
 11
126.113367778
 21
424.26803162
 31
0.0
  0
LINE
  5
146
  8
0
  6
CONTINUOUS
 62
     7
 10
146.4845403414
 20
419.3607483936
 30
0.0
 11
147.6562125707
 21
419.360022274
 31
0.0
  0
ARC
  5
147
  8
0
  6
CONTINUOUS
 62
     7
 10
132.0219444688
 20
420.6619431615
 30
0.0
 40
1.267586562500524
 50
197.9210371521
 51
260.757607819
  0
ARC
  5
148
  8
0
  6
CONTINUOUS
 62
     7
 10
160.9327837878
 20
420.6859804526
 30
0.0
 40
1.293571108314295
 50
281.4924071687
 51
345.4077192999
  0
POLYLINE
  5
149
  8
0
  6
CONTINUOUS
 62
     7
 66
     1
 10
0.0
 20
0.0
 30
0.0
 70
   128
  0
VERTEX
  5
38D
  8
0
  6
CONTINUOUS
 62
     7
 10
149.927053791
 20
405.4312857351
 30
0.0
  0
VERTEX
  5
38E
  8
0
  6
CONTINUOUS
 62
     7
 10
148.9534784616
 20
406.3947241954
 30
0.0
  0
VERTEX
  5
38F
  8
0
  6
CONTINUOUS
 62
     7
 10
148.484235325
 20
406.6782805278
 30
0.0
  0
SEQEND
  5
4A2
  8
0
  6
CONTINUOUS
 62
     7
  0
ARC
  5
14A
  8
0
  6
CONTINUOUS
 62
     7
 10
147.7299336336
 20
405.4891130706
 30
0.0
 40
1.408222384024789
 50
57.6126049082
 51
98.2578411345
  0
POLYLINE
  5
14B
  8
0
  6
CONTINUOUS
 62
     7
 66
     1
 10
0.0
 20
0.0
 30
0.0
 70
   128
  0
VERTEX
  5
390
  8
0
  6
CONTINUOUS
 62
     7
 10
147.5276733873
 20
406.8827346389
 30
0.0
  0
VERTEX
  5
391
  8
0
  6
CONTINUOUS
 62
     7
 10
146.5701197564
 20
406.7943230423
 30
0.0
  0
VERTEX
  5
392
  8
0
  6
CONTINUOUS
 62
     7
 10
145.4413954274
 20
406.8827310137
 30
0.0
  0
SEQEND
  5
4A3
  8
0
  6
CONTINUOUS
 62
     7
  0
ARC
  5
14C
  8
0
  6
CONTINUOUS
 62
     7
 10
145.2282029472
 20
405.540278923
 30
0.0
 40
1.359275045610234
 50
80.9763127429
 51
123.1534481645
  0
POLYLINE
  5
14D
  8
0
  6
CONTINUOUS
 62
     7
 66
     1
 10
0.0
 20
0.0
 30
0.0
 70
   128
  0
VERTEX
  5
393
  8
0
  6
CONTINUOUS
 62
     7
 10
144.4848382793
 20
406.6782761199
 30
0.0
  0
VERTEX
  5
394
  8
0
  6
CONTINUOUS
 62
     7
 10
143.3793536346
 20
405.8444644339
 30
0.0
  0
VERTEX
  5
395
  8
0
  6
CONTINUOUS
 62
     7
 10
143.0419749979
 20
405.4312118357
 30
0.0
  0
SEQEND
  5
4A4
  8
0
  6
CONTINUOUS
 62
     7
  0
LINE
  5
14E
  8
0
  6
CONTINUOUS
 62
     7
 10
142.8326657328
 20
405.1009840096
 30
0.0
 11
143.0418242629
 21
405.4309151954
 31
0.0
  0
LINE
  5
14F
  8
0
  6
CONTINUOUS
 62
     7
 10
149.927207899
 20
405.430983728
 30
0.0
 11
150.136414946
 21
405.1009840096
 31
0.0
  0
ARC
  5
150
  8
0
  6
CONTINUOUS
 62
     7
 10
146.4845403394
 20
403.4688651849
 30
0.0
 40
4.000000000000004
 50
155.918876022
 51
24.081123978
  0
ARC
  5
151
  8
0
  6
CONTINUOUS
 62
     7
 10
146.4845403394
 20
403.4688651849
 30
0.0
 40
3.569682227422111
 50
106.9911186602
 51
73.0090804585
  0
LINE
  5
152
  8
0
  6
CONTINUOUS
 62
     7
 10
169.0877406071
 20
290.9265569556
 30
0.0
 11
146.5108011586
 21
290.9265569556
 31
0.0
  0
LINE
  5
153
  8
0
  6
CONTINUOUS
 62
     7
 10
123.9338617102
 20
290.9265569556
 30
0.0
 11
146.5108011586
 21
290.9265569556
 31
0.0
  0
LINE
  5
154
  8
0
  6
CONTINUOUS
 62
     7
 10
164.5741471686
 20
392.4688651849
 30
0.0
 11
128.3949335102
 21
392.4688651849
 31
0.0
  0
LINE
  5
155
  8
0
  6
CONTINUOUS
 62
     7
 10
123.4893640192
 20
392.9674508597
 30
0.0
 11
123.4848462177
 21
392.9832922743
 31
0.0
  0
LINE
  5
156
  8
0
  6
CONTINUOUS
 62
     7
 10
168.9506596787
 20
392.4688651849
 30
0.0
 11
164.5741471686
 21
392.4688651849
 31
0.0
  0
LINE
  5
157
  8
0
  6
CONTINUOUS
 62
     7
 10
124.0184210001
 20
392.4688651849
 30
0.0
 11
128.3949335102
 21
392.4688651849
 31
0.0
  0
LINE
  5
158
  8
0
  6
CONTINUOUS
 62
     7
 10
123.5108011586
 20
290.9265569556
 30
0.0
 11
123.9338617102
 21
290.9265569556
 31
0.0
  0
LINE
  5
159
  8
0
  6
CONTINUOUS
 62
     7
 10
169.5108011586
 20
290.9265569556
 30
0.0
 11
169.0877406071
 21
290.9265569556
 31
0.0
  0
ARC
  5
15A
  8
0
  6
CONTINUOUS
 62
     7
 10
125.0108011586
 20
385.7762480562
 30
0.0
 40
1.500000000000014
 50
91.8669251722
 51
180.0
  0
ARC
  5
15B
  8
0
  6
CONTINUOUS
 62
     7
 10
168.0108011586
 20
385.7762480562
 30
0.0
 40
1.500000000000006
 50
0.0015171097
 51
88.1301915528
  0
ARC
  5
15C
  8
0
  6
CONTINUOUS
 62
     8
 10
164.7623990603
 20
427.2064027101
 30
0.0
 40
39.96856980078161
 50
268.7037132697
 51
271.1540971701
  0
ARC
  5
15D
  8
0
  6
CONTINUOUS
 62
     8
 10
165.5494311232
 20
385.746042599
 30
0.0
 40
1.500006214510259
 50
0.0005930651
 51
89.3127339846
  0
LINE
  5
15E
  8
0
  6
CONTINUOUS
 62
     8
 10
167.0494373376
 20
376.1665945549
 30
0.0
 11
167.0494373376
 21
385.7460581254
 31
0.0
  0
ARC
  5
15F
  8
0
  6
CONTINUOUS
 62
     8
 10
128.259203257
 20
427.20640271
 30
0.0
 40
39.96856980062055
 50
268.8459028299
 51
271.2962867303
  0
ARC
  5
160
  8
0
  6
CONTINUOUS
 62
     8
 10
127.472171194
 20
385.746042599
 30
0.0
 40
1.500006214510242
 50
90.6872660153
 51
179.9994069349
  0
LINE
  5
161
  8
0
  6
CONTINUOUS
 62
     8
 10
125.9721649796
 20
376.1665945549
 30
0.0
 11
125.9721649796
 21
385.7460581254
 31
0.0
  0
POLYLINE
  5
162
  8
0
  6
CONTINUOUS
 62
     8
 66
     1
 10
0.0
 20
0.0
 30
0.0
 70
   128
  0
VERTEX
  5
396
  8
0
  6
CONTINUOUS
 62
     8
 10
146.5108023721
 20
387.3367613186
 30
0.0
  0
VERTEX
  5
397
  8
0
  6
CONTINUOUS
 62
     8
 10
155.1321744851
 20
387.2847671337
 30
0.0
  0
VERTEX
  5
398
  8
0
  6
CONTINUOUS
 62
     8
 10
163.8582084343
 20
387.2480617632
 30
0.0
  0
SEQEND
  5
4A5
  8
0
  6
CONTINUOUS
 62
     8
  0
POLYLINE
  5
163
  8
0
  6
CONTINUOUS
 62
     8
 66
     1
 10
0.0
 20
0.0
 30
0.0
 70
   128
  0
VERTEX
  5
399
  8
0
  6
CONTINUOUS
 62
     8
 10
129.163393883
 20
387.2480617632
 30
0.0
  0
VERTEX
  5
39A
  8
0
  6
CONTINUOUS
 62
     8
 10
137.8894278322
 20
387.2847671337
 30
0.0
  0
VERTEX
  5
39B
  8
0
  6
CONTINUOUS
 62
     8
 10
146.5107999452
 20
387.3367613186
 30
0.0
  0
SEQEND
  5
4A6
  8
0
  6
CONTINUOUS
 62
     8
  0
ARC
  5
164
  8
0
  6
CONTINUOUS
 62
     8
 10
128.043494344
 20
370.931202648
 30
0.0
 40
4.026003394978924
 50
74.6846056083
 51
104.8513156684
  0
ARC
  5
165
  8
0
  6
CONTINUOUS
 62
     8
 10
127.3614753554
 20
376.1672435871
 30
0.0
 40
1.389310527418435
 50
180.0267663751
 51
255.4132258739
  0
ARC
  5
166
  8
0
  6
CONTINUOUS
 62
     8
 10
165.6601269618
 20
376.1672435871
 30
0.0
 40
1.389310527418719
 50
284.5867741261
 51
359.9732336249
  0
ARC
  5
167
  8
0
  6
CONTINUOUS
 62
     8
 10
164.9781079733
 20
370.931202648
 30
0.0
 40
4.026003394979092
 50
75.1486843316
 51
105.3153943917
  0
POLYLINE
  5
168
  8
0
  6
CONTINUOUS
 62
     8
 66
     1
 10
0.0
 20
0.0
 30
0.0
 70
   128
  0
VERTEX
  5
39C
  8
0
  6
CONTINUOUS
 62
     8
 10
146.5108011586
 20
374.7952691358
 30
0.0
  0
VERTEX
  5
39D
  8
0
  6
CONTINUOUS
 62
     8
 10
137.840446112
 20
374.7973724189
 30
0.0
  0
VERTEX
  5
39E
  8
0
  6
CONTINUOUS
 62
     8
 10
134.950513642
 20
374.7983837917
 30
0.0
  0
VERTEX
  5
39F
  8
0
  6
CONTINUOUS
 62
     8
 10
132.0605862938
 20
374.7993516963
 30
0.0
  0
VERTEX
  5
3A0
  8
0
  6
CONTINUOUS
 62
     8
 10
129.1068914797
 20
374.814228513
 30
0.0
  0
SEQEND
  5
4A7
  8
0
  6
CONTINUOUS
 62
     8
  0
POLYLINE
  5
169
  8
0
  6
CONTINUOUS
 62
     8
 66
     1
 10
0.0
 20
0.0
 30
0.0
 70
   128
  0
VERTEX
  5
3A1
  8
0
  6
CONTINUOUS
 62
     8
 10
146.5108011586
 20
374.7952691358
 30
0.0
  0
VERTEX
  5
3A2
  8
0
  6
CONTINUOUS
 62
     8
 10
155.1811562053
 20
374.7973724189
 30
0.0
  0
VERTEX
  5
3A3
  8
0
  6
CONTINUOUS
 62
     8
 10
158.0710886752
 20
374.7983837917
 30
0.0
  0
VERTEX
  5
3A4
  8
0
  6
CONTINUOUS
 62
     8
 10
160.9610160234
 20
374.7993516963
 30
0.0
  0
VERTEX
  5
3A5
  8
0
  6
CONTINUOUS
 62
     8
 10
163.9147108376
 20
374.814228513
 30
0.0
  0
SEQEND
  5
4A8
  8
0
  6
CONTINUOUS
 62
     8
  0
LINE
  5
16A
  8
0
  6
CONTINUOUS
 62
     8
 10
166.0100192197
 20
374.8227142458
 30
0.0
 11
166.2458924061
 21
374.5250966641
 31
0.0
  0
LINE
  5
16B
  8
0
  6
CONTINUOUS
 62
     8
 10
166.2457985785
 20
374.5250385793
 30
0.0
 11
159.0536321551
 21
370.4736743833
 31
0.0
  0
LINE
  5
16C
  8
0
  6
CONTINUOUS
 62
     8
 10
127.0115830976
 20
374.8227142458
 30
0.0
 11
126.7757099111
 21
374.5250966641
 31
0.0
  0
LINE
  5
16D
  8
0
  6
CONTINUOUS
 62
     8
 10
126.7758037388
 20
374.5250385793
 30
0.0
 11
133.9679705282
 21
370.4736741965
 31
0.0
  0
POLYLINE
  5
16E
  8
0
  6
CONTINUOUS
 62
     8
 66
     1
 10
0.0
 20
0.0
 30
0.0
 70
   128
  0
VERTEX
  5
3A6
  8
0
  6
CONTINUOUS
 62
     8
 10
127.450287876
 20
387.2479421067
 30
0.0
  0
VERTEX
  5
3A7
  8
0
  6
CONTINUOUS
 62
     8
 10
127.4502945324
 20
387.2479398304
 30
0.0
  0
VERTEX
  5
3A8
  8
0
  6
CONTINUOUS
 62
     8
 10
127.4541789688
 20
387.2459409033
 30
0.0
  0
SEQEND
  5
4A9
  8
0
  6
CONTINUOUS
 62
     8
  0
POLYLINE
  5
16F
  8
0
  6
CONTINUOUS
 62
     8
 66
     1
 10
0.0
 20
0.0
 30
0.0
 70
   128
  0
VERTEX
  5
3A9
  8
0
  6
CONTINUOUS
 62
     8
 10
127.4501442289
 20
387.2480316126
 30
0.0
  0
VERTEX
  5
3AA
  8
0
  6
CONTINUOUS
 62
     8
 10
131.6062743048
 20
387.302130978
 30
0.0
  0
VERTEX
  5
3AB
  8
0
  6
CONTINUOUS
 62
     8
 10
134.4719005422
 20
387.330219727
 30
0.0
  0
SEQEND
  5
4AA
  8
0
  6
CONTINUOUS
 62
     8
  0
LINE
  5
170
  8
0
  6
CONTINUOUS
 62
     8
 10
143.3739422698
 20
387.3826941839
 30
0.0
 11
146.5107990109
 21
387.3868925257
 31
0.0
  0
LINE
  5
171
  8
0
  6
CONTINUOUS
 62
     8
 10
146.5107986848
 20
387.3873738826
 30
0.0
 11
146.5108022847
 21
387.3768126526
 31
0.0
  0
LINE
  5
172
  8
0
  6
CONTINUOUS
 62
     8
 10
146.5108022847
 20
387.3768126526
 30
0.0
 11
146.5108023721
 21
387.3367613186
 31
0.0
  0
POLYLINE
  5
173
  8
0
  6
CONTINUOUS
 62
     8
 66
     1
 10
0.0
 20
0.0
 30
0.0
 70
   128
  0
VERTEX
  5
3AC
  8
0
  6
CONTINUOUS
 62
     8
 10
165.5714799613
 20
387.2480313697
 30
0.0
  0
VERTEX
  5
3AD
  8
0
  6
CONTINUOUS
 62
     8
 10
162.828479983
 20
387.2851466483
 30
0.0
  0
VERTEX
  5
3AE
  8
0
  6
CONTINUOUS
 62
     8
 10
160.0157291329
 20
387.3174155348
 30
0.0
  0
VERTEX
  5
3AF
  8
0
  6
CONTINUOUS
 62
     8
 10
157.1507053978
 20
387.3439618069
 30
0.0
  0
SEQEND
  5
4AB
  8
0
  6
CONTINUOUS
 62
     8
  0
LINE
  5
174
  8
0
  6
CONTINUOUS
 62
     8
 10
149.8427349809
 20
387.3801432373
 30
0.0
 11
146.5108033063
 21
387.3868925257
 31
0.0
  0
LINE
  5
175
  8
0
  6
CONTINUOUS
 62
     8
 10
165.5674233485
 20
387.2459409033
 30
0.0
 11
165.5713144413
 21
387.2479421067
 31
0.0
  0
LINE
  5
176
  8
0
  6
CONTINUOUS
 62
     8
 10
125.9482561297
 20
376.0096505435
 30
0.0
 11
125.9721649796
 21
376.1665945549
 31
0.0
  0
LINE
  5
177
  8
0
  6
CONTINUOUS
 62
     8
 10
125.9091838666
 20
375.8739439261
 30
0.0
 11
125.948254334
 21
376.0093304322
 31
0.0
  0
LINE
  5
178
  8
0
  6
CONTINUOUS
 62
     8
 10
125.8587122894
 20
375.7195693857
 30
0.0
 11
125.9091807894
 21
375.8741290031
 31
0.0
  0
LINE
  5
179
  8
0
  6
CONTINUOUS
 62
     8
 10
125.8587122894
 20
385.7659105768
 30
0.0
 11
125.8587122894
 21
375.7195693857
 31
0.0
  0
ARC
  5
17A
  8
0
  6
CONTINUOUS
 62
     8
 10
128.999550785
 20
405.2147922601
 30
0.0
 40
19.70085950373231
 50
260.8263919063
 51
261.1558663481
  0
LINE
  5
17B
  8
0
  6
CONTINUOUS
 62
     8
 10
125.9721649796
 20
385.7460581254
 30
0.0
 11
125.9706027199
 21
385.7480767884
 31
0.0
  0
LINE
  5
17C
  8
0
  6
CONTINUOUS
 62
     8
 10
167.1628900278
 20
375.7195693857
 30
0.0
 11
167.1124215279
 21
375.8741290031
 31
0.0
  0
LINE
  5
17D
  8
0
  6
CONTINUOUS
 62
     8
 10
167.1124184506
 20
375.8739439261
 30
0.0
 11
167.0733479832
 21
376.0093304322
 31
0.0
  0
LINE
  5
17E
  8
0
  6
CONTINUOUS
 62
     8
 10
167.0733461876
 20
376.0096505435
 30
0.0
 11
167.0494373376
 21
376.1665945549
 31
0.0
  0
LINE
  5
17F
  8
0
  6
CONTINUOUS
 62
     8
 10
167.0509998176
 20
385.7480769687
 30
0.0
 11
167.0494373376
 21
385.7460581254
 31
0.0
  0
ARC
  5
180
  8
0
  6
CONTINUOUS
 62
     8
 10
164.0230155981
 20
405.2087478843
 30
0.0
 40
19.69473873905364
 50
278.8440665346
 51
279.1736427078
  0
LINE
  5
181
  8
0
  6
CONTINUOUS
 62
     8
 10
167.1628900278
 20
385.7659105768
 30
0.0
 11
167.1628900278
 21
375.7195693857
 31
0.0
  0
ARC
  5
182
  8
0
  6
CONTINUOUS
 62
     8
 10
165.3277767715
 20
376.0095528284
 30
0.0
 40
1.745571225926472
 50
301.7289760316
 51
359.9927001756
  0
ARC
  5
183
  8
0
  6
CONTINUOUS
 62
     8
 10
127.6941175173
 20
376.0098610136
 30
0.0
 40
1.74586233299712
 50
180.0172623001
 51
238.2681359604
  0
ARC
  5
184
  8
0
  6
CONTINUOUS
 62
     8
 10
165.5509992473
 20
385.748170353
 30
0.0
 40
1.50000056989842
 50
0.0000316844
 51
89.1967773531
  0
ARC
  5
185
  8
0
  6
CONTINUOUS
 62
     8
 10
127.4706032903
 20
385.7481702853
 30
0.0
 40
1.500000570052608
 50
90.8032199703
 51
179.9999683079
  0
LINE
  5
186
  8
0
  6
CONTINUOUS
 62
     8
 10
158.9657106865
 20
370.4518382234
 30
0.0
 11
158.9701234594
 21
370.7490683595
 31
0.0
  0
LINE
  5
187
  8
0
  6
CONTINUOUS
 62
     8
 10
158.5108011586
 20
370.4518382234
 30
0.0
 11
158.9657106865
 21
370.4518382234
 31
0.0
  0
LINE
  5
188
  8
0
  6
CONTINUOUS
 62
     8
 10
146.5108011586
 20
374.0792731233
 30
0.0
 11
146.5108011586
 21
374.0052438397
 31
0.0
  0
LINE
  5
189
  8
0
  6
CONTINUOUS
 62
     8
 10
134.0515753079
 20
370.7466675765
 30
0.0
 11
134.0558916307
 21
370.4518382234
 31
0.0
  0
LINE
  5
18A
  8
0
  6
CONTINUOUS
 62
     8
 10
134.5108011586
 20
370.4518382234
 30
0.0
 11
134.0558916307
 21
370.4518382234
 31
0.0
  0
ARC
  5
18B
  8
0
  6
CONTINUOUS
 62
     8
 10
124.7356526834
 20
367.5376458812
 30
0.0
 40
19.89634043318402
 50
82.1602362863
 51
82.5363555848
  0
ARC
  5
18C
  8
0
  6
CONTINUOUS
 62
     8
 10
126.9174372339
 20
384.5045885764
 30
0.0
 40
2.790039257281699
 50
81.7014049237
 51
82.6736312466
  0
LINE
  5
18D
  8
0
  6
CONTINUOUS
 62
     8
 10
127.2581195833
 20
387.2722787666
 30
0.0
 11
127.2732260709
 21
387.2718495617
 31
0.0
  0
LINE
  5
18E
  8
0
  6
CONTINUOUS
 62
     8
 10
124.9618570811
 20
387.2754890538
 30
0.0
 11
125.2330637214
 21
387.2762380592
 31
0.0
  0
LINE
  5
18F
  8
0
  6
CONTINUOUS
 62
     8
 10
167.7885385958
 20
387.2762380592
 30
0.0
 11
168.0597452361
 21
387.2754890538
 31
0.0
  0
LINE
  5
190
  8
0
  6
CONTINUOUS
 62
     8
 10
165.7483762463
 20
387.2718495617
 30
0.0
 11
165.767697098
 21
387.272398505
 31
0.0
  0
ARC
  5
191
  8
0
  6
CONTINUOUS
 62
     8
 10
165.5146160175
 20
388.8014397949
 30
0.0
 40
1.547349387235572
 50
276.9359433327
 51
278.689020497
  0
POLYLINE
  5
192
  8
0
  6
CONTINUOUS
 62
     8
 66
     1
 10
0.0
 20
0.0
 30
0.0
 70
   128
  0
VERTEX
  5
3B0
  8
0
  6
CONTINUOUS
 62
     8
 10
165.5720268863
 20
387.2480235285
 30
0.0
  0
VERTEX
  5
3B1
  8
0
  6
CONTINUOUS
 62
     8
 10
165.5901078714
 20
387.2502195594
 30
0.0
  0
VERTEX
  5
3B2
  8
0
  6
CONTINUOUS
 62
     8
 10
165.6458115467
 20
387.2579403359
 30
0.0
  0
VERTEX
  5
3B3
  8
0
  6
CONTINUOUS
 62
     8
 10
165.7014733123
 20
387.2654142491
 30
0.0
  0
SEQEND
  5
4AC
  8
0
  6
CONTINUOUS
 62
     8
  0
ARC
  5
193
  8
0
  6
CONTINUOUS
 62
     8
 10
127.3587119466
 20
385.7659108886
 30
0.0
 40
1.499999657122634
 50
91.4739227088
 51
180.00001191
  0
ARC
  5
194
  8
0
  6
CONTINUOUS
 62
     8
 10
165.6628903707
 20
385.7659108886
 30
0.0
 40
1.499999657122749
 50
359.99998809
 51
88.5260772912
  0
LINE
  5
195
  8
0
  6
CONTINUOUS
 62
     8
 10
158.8212096943
 20
369.954168659
 30
0.0
 11
158.9657106865
 21
370.4518382234
 31
0.0
  0
POLYLINE
  5
196
  8
0
  6
CONTINUOUS
 62
     8
 66
     1
 10
0.0
 20
0.0
 30
0.0
 70
   128
  0
VERTEX
  5
3B4
  8
0
  6
CONTINUOUS
 62
     8
 10
134.0558916307
 20
370.4518382234
 30
0.0
  0
VERTEX
  5
3B5
  8
0
  6
CONTINUOUS
 62
     8
 10
134.1113036371
 20
370.127423479
 30
0.0
  0
VERTEX
  5
3B6
  8
0
  6
CONTINUOUS
 62
     8
 10
134.3227184976
 20
369.7778332507
 30
0.0
  0
SEQEND
  5
4AD
  8
0
  6
CONTINUOUS
 62
     8
  0
LINE
  5
197
  8
0
  6
CONTINUOUS
 62
     8
 10
166.2457759297
 20
374.5248655043
 30
0.0
 11
166.3474649506
 21
374.3557859784
 31
0.0
  0
POLYLINE
  5
198
  8
0
  6
CONTINUOUS
 62
     8
 66
     1
 10
0.0
 20
0.0
 30
0.0
 70
   128
  0
VERTEX
  5
3B7
  8
0
  6
CONTINUOUS
 62
     8
 10
163.6885137023
 20
372.4467647876
 30
0.0
  0
VERTEX
  5
3B8
  8
0
  6
CONTINUOUS
 62
     8
 10
163.8169784773
 20
372.5301409074
 30
0.0
  0
VERTEX
  5
3B9
  8
0
  6
CONTINUOUS
 62
     8
 10
166.3405708658
 20
374.3509053083
 30
0.0
  0
SEQEND
  5
4AE
  8
0
  6
CONTINUOUS
 62
     8
  0
POLYLINE
  5
199
  8
0
  6
CONTINUOUS
 62
     8
 66
     1
 10
0.0
 20
0.0
 30
0.0
 70
   128
  0
VERTEX
  5
3BA
  8
0
  6
CONTINUOUS
 62
     8
 10
129.3330886149
 20
372.4467647876
 30
0.0
  0
VERTEX
  5
3BB
  8
0
  6
CONTINUOUS
 62
     8
 10
129.20462384
 20
372.5301409074
 30
0.0
  0
VERTEX
  5
3BC
  8
0
  6
CONTINUOUS
 62
     8
 10
126.6810314514
 20
374.3509053083
 30
0.0
  0
SEQEND
  5
4AF
  8
0
  6
CONTINUOUS
 62
     8
  0
LINE
  5
19A
  8
0
  6
CONTINUOUS
 62
     8
 10
126.7758263875
 20
374.5248655043
 30
0.0
 11
126.6741373667
 21
374.3557859784
 31
0.0
  0
ARC
  5
19B
  8
0
  6
CONTINUOUS
 62
     8
 10
127.7982082883
 20
375.8739613216
 30
0.0
 40
1.889027742114362
 50
179.9949333375
 51
233.4803512643
  0
ARC
  5
19C
  8
0
  6
CONTINUOUS
 62
     8
 10
165.2234613335
 20
375.8741613238
 30
0.0
 40
1.888960194593005
 50
306.5144798685
 51
359.9990196521
  0
ARC
  5
19D
  8
0
  6
CONTINUOUS
 62
     8
 10
133.1731773245
 20
404.862438538
 30
0.0
 40
14.80438121838735
 50
88.0751363139
 51
92.7206859587
  0
ARC
  5
19E
  8
0
  6
CONTINUOUS
 62
     8
 10
132.4705127268
 20
421.1501679588
 30
0.0
 40
1.500035662881489
 50
180.0027583736
 51
269.9978524994
  0
LINE
  5
19F
  8
0
  6
CONTINUOUS
 62
     8
 10
130.9704770656
 20
421.150095743
 30
0.0
 11
130.9704770656
 21
422.7688651849
 31
0.0
  0
LINE
  5
1A0
  8
0
  6
CONTINUOUS
 62
     8
 10
161.9986036132
 20
421.150095743
 30
0.0
 11
161.9986036132
 21
422.7688651849
 31
0.0
  0
ARC
  5
1A1
  8
0
  6
CONTINUOUS
 62
     8
 10
159.7959033543
 20
404.862438538
 30
0.0
 40
14.80438121838655
 50
87.2793140413
 51
91.9248636861
  0
ARC
  5
1A2
  8
0
  6
CONTINUOUS
 62
     8
 10
160.498567952
 20
421.1501679588
 30
0.0
 40
1.500035662881593
 50
270.0021475006
 51
359.9972416264
  0
ARC
  5
1A3
  8
0
  6
CONTINUOUS
 62
     8
 10
133.011719059
 20
-18.3246916291
 30
0.0
 40
442.5934645613933
 50
89.9147254756
 51
90.0765416088
  0
ARC
  5
1A4
  8
0
  6
CONTINUOUS
 62
     8
 10
132.4704675963
 20
422.7688750066
 30
0.0
 40
1.499990530677253
 50
91.9106229726
 51
180.0003751643
  0
ARC
  5
1A5
  8
0
  6
CONTINUOUS
 62
     8
 10
159.9573616198
 20
-18.3246916292
 30
0.0
 40
442.5934645614078
 50
89.9234583912
 51
90.0852745244
  0
ARC
  5
1A6
  8
0
  6
CONTINUOUS
 62
     8
 10
160.4986130825
 20
422.7688750066
 30
0.0
 40
1.49999053067731
 50
359.9996248357
 51
88.0893770274
  0
LINE
  5
1A7
  8
0
  6
CONTINUOUS
 62
     8
 10
133.6704400547
 20
424.26803162
 30
0.0
 11
146.4845403394
 21
424.26803162
 31
0.0
  0
LINE
  5
1A8
  8
0
  6
CONTINUOUS
 62
     8
 10
159.2986406241
 20
424.26803162
 30
0.0
 11
146.4845403394
 21
424.26803162
 31
0.0
  0
LINE
  5
1A9
  8
0
  6
CONTINUOUS
 62
     8
 10
133.6704400547
 20
419.658466148
 30
0.0
 11
159.2986406241
 21
419.658466148
 31
0.0
  0
POLYLINE
  5
1AA
  8
0
  6
CONTINUOUS
 62
     8
 66
     1
 10
0.0
 20
0.0
 30
0.0
 70
   128
  0
VERTEX
  5
3BD
  8
0
  6
CONTINUOUS
 62
     8
 10
160.8199302288
 20
424.2681424093
 30
0.0
  0
VERTEX
  5
3BE
  8
0
  6
CONTINUOUS
 62
     8
 10
160.7785041038
 20
424.2679093536
 30
0.0
  0
VERTEX
  5
3BF
  8
0
  6
CONTINUOUS
 62
     8
 10
160.7607060941
 20
424.2677890435
 30
0.0
  0
SEQEND
  5
4B0
  8
0
  6
CONTINUOUS
 62
     8
  0
LINE
  5
1AB
  8
0
  6
CONTINUOUS
 62
     8
 10
160.7607061503
 20
424.26803162
 30
0.0
 11
160.5486234894
 21
424.26803162
 31
0.0
  0
LINE
  5
1AC
  8
0
  6
CONTINUOUS
 62
     8
 10
146.4845403394
 20
424.642301162
 30
0.0
 11
146.4845403394
 21
424.2679415128
 31
0.0
  0
LINE
  5
1AD
  8
0
  6
CONTINUOUS
 62
     8
 10
132.2083745285
 20
424.26803162
 30
0.0
 11
132.4204571894
 21
424.26803162
 31
0.0
  0
POLYLINE
  5
1AE
  8
0
  6
CONTINUOUS
 62
     8
 66
     1
 10
0.0
 20
0.0
 30
0.0
 70
   128
  0
VERTEX
  5
3C0
  8
0
  6
CONTINUOUS
 62
     8
 10
132.14915045
 20
424.2681424093
 30
0.0
  0
VERTEX
  5
3C1
  8
0
  6
CONTINUOUS
 62
     8
 10
132.190576575
 20
424.2679093536
 30
0.0
  0
VERTEX
  5
3C2
  8
0
  6
CONTINUOUS
 62
     8
 10
132.2083745848
 20
424.2677890435
 30
0.0
  0
SEQEND
  5
4B1
  8
0
  6
CONTINUOUS
 62
     8
  0
LINE
  5
1AF
  8
0
  6
CONTINUOUS
 62
     8
 10
146.4845403415
 20
419.3607483935
 30
0.0
 11
143.0561436056
 21
419.3586237154
 31
0.0
  0
POLYLINE
  5
1B0
  8
0
  6
CONTINUOUS
 62
     8
 66
     1
 10
0.0
 20
0.0
 30
0.0
 70
   128
  0
VERTEX
  5
3C3
  8
0
  6
CONTINUOUS
 62
     8
 10
143.0561525801
 20
419.3586237449
 30
0.0
  0
VERTEX
  5
3C4
  8
0
  6
CONTINUOUS
 62
     8
 10
141.757718889
 20
419.3570302257
 30
0.0
  0
VERTEX
  5
3C5
  8
0
  6
CONTINUOUS
 62
     8
 10
140.4757211358
 20
419.3551274795
 30
0.0
  0
VERTEX
  5
3C6
  8
0
  6
CONTINUOUS
 62
     8
 10
139.1672915952
 20
419.3528683162
 30
0.0
  0
VERTEX
  5
3C7
  8
0
  6
CONTINUOUS
 62
     8
 10
135.6166181474
 20
419.3451876282
 30
0.0
  0
VERTEX
  5
3C8
  8
0
  6
CONTINUOUS
 62
     8
 10
132.2147756128
 20
419.335516306
 30
0.0
  0
SEQEND
  5
4B2
  8
0
  6
CONTINUOUS
 62
     8
  0
LINE
  5
1B1
  8
0
  6
CONTINUOUS
 62
     8
 10
132.2583738431
 20
419.3673534058
 30
0.0
 11
132.2147756128
 21
419.335516306
 31
0.0
  0
LINE
  5
1B2
  8
0
  6
CONTINUOUS
 62
     8
 10
132.470456504
 20
419.650132297
 30
0.0
 11
132.2583738431
 21
419.3673534058
 31
0.0
  0
LINE
  5
1B3
  8
0
  6
CONTINUOUS
 62
     8
 10
160.4986241748
 20
419.650132297
 30
0.0
 11
160.7107068357
 21
419.3673534058
 31
0.0
  0
LINE
  5
1B4
  8
0
  6
CONTINUOUS
 62
     8
 10
160.7107068357
 20
419.3673534058
 30
0.0
 11
160.754305066
 21
419.335516306
 31
0.0
  0
POLYLINE
  5
1B5
  8
0
  6
CONTINUOUS
 62
     8
 66
     1
 10
0.0
 20
0.0
 30
0.0
 70
   128
  0
VERTEX
  5
3C9
  8
0
  6
CONTINUOUS
 62
     8
 10
149.9129280988
 20
419.3586237449
 30
0.0
  0
VERTEX
  5
3CA
  8
0
  6
CONTINUOUS
 62
     8
 10
151.2113617898
 20
419.3570302257
 30
0.0
  0
VERTEX
  5
3CB
  8
0
  6
CONTINUOUS
 62
     8
 10
152.493359543
 20
419.3551274795
 30
0.0
  0
VERTEX
  5
3CC
  8
0
  6
CONTINUOUS
 62
     8
 10
153.8017890836
 20
419.3528683162
 30
0.0
  0
VERTEX
  5
3CD
  8
0
  6
CONTINUOUS
 62
     8
 10
157.3524625314
 20
419.3451876282
 30
0.0
  0
VERTEX
  5
3CE
  8
0
  6
CONTINUOUS
 62
     8
 10
160.754305066
 20
419.335516306
 30
0.0
  0
SEQEND
  5
4B3
  8
0
  6
CONTINUOUS
 62
     8
  0
LINE
  5
1B6
  8
0
  6
CONTINUOUS
 62
     8
 10
147.6562125707
 20
419.360022274
 30
0.0
 11
149.9129371434
 21
419.3586237157
 31
0.0
  0
LINE
  5
1B7
  8
0
  6
CONTINUOUS
 62
     8
 10
130.7583944047
 20
422.7688651849
 30
0.0
 11
130.9704770656
 21
422.7688651849
 31
0.0
  0
ARC
  5
1B8
  8
0
  6
CONTINUOUS
 62
     8
 10
132.2583849354
 20
422.7688750066
 30
0.0
 40
1.499990530677263
 50
91.9106229627
 51
180.0003751643
  0
LINE
  5
1B9
  8
0
  6
CONTINUOUS
 62
     8
 10
162.2106862741
 20
422.7688651849
 30
0.0
 11
161.9986036132
 21
422.7688651849
 31
0.0
  0
ARC
  5
1BA
  8
0
  6
CONTINUOUS
 62
     8
 10
160.7106957435
 20
422.7688750066
 30
0.0
 40
1.499990530677263
 50
359.9996248357
 51
88.0893770373
  0
LINE
  5
1BB
  8
0
  6
CONTINUOUS
 62
     8
 10
130.7583944047
 20
420.8673168518
 30
0.0
 11
130.9704770656
 21
421.150095743
 31
0.0
  0
ARC
  5
1BC
  8
0
  6
CONTINUOUS
 62
     8
 10
132.2584300659
 20
420.8673890676
 30
0.0
 40
1.500035662881432
 50
180.0027583731
 51
269.9978524994
  0
LINE
  5
1BD
  8
0
  6
CONTINUOUS
 62
     8
 10
162.2106862741
 20
420.8673168518
 30
0.0
 11
161.9986036132
 21
421.150095743
 31
0.0
  0
ARC
  5
1BE
  8
0
  6
CONTINUOUS
 62
     8
 10
160.710650613
 20
420.8673890676
 30
0.0
 40
1.50003566288146
 50
270.0021475006
 51
359.9972416269
  0
LINE
  5
1BF
  8
0
  6
CONTINUOUS
 62
     8
 10
130.7583944047
 20
422.7688651849
 30
0.0
 11
130.7583944047
 21
420.8673168518
 31
0.0
  0
LINE
  5
1C0
  8
0
  6
CONTINUOUS
 62
     8
 10
162.2106862741
 20
422.7688651849
 30
0.0
 11
162.2106862741
 21
420.8673168518
 31
0.0
  0
LINE
  5
1C1
  8
0
  6
CONTINUOUS
 62
     8
 10
166.3474416104
 20
374.3559917173
 30
0.0
 11
166.4003993365
 21
374.2020297044
 31
0.0
  0
ARC
  5
1C2
  8
0
  6
CONTINUOUS
 62
     8
 10
142.0244000255
 20
404.2483093919
 30
0.0
 40
38.69054488508709
 50
296.8907051688
 51
309.0521229712
  0
POLYLINE
  5
1C3
  8
0
  6
CONTINUOUS
 62
     8
 66
     1
 10
0.0
 20
0.0
 30
0.0
 70
   128
  0
VERTEX
  5
3CF
  8
0
  6
CONTINUOUS
 62
     8
 10
126.6741607069
 20
374.3559917173
 30
0.0
  0
VERTEX
  5
3D0
  8
0
  6
CONTINUOUS
 62
     8
 10
126.6256092778
 20
374.2153051703
 30
0.0
  0
VERTEX
  5
3D1
  8
0
  6
CONTINUOUS
 62
     8
 10
126.6211100015
 20
374.202271773
 30
0.0
  0
SEQEND
  5
4B4
  8
0
  6
CONTINUOUS
 62
     8
  0
ARC
  5
1C4
  8
0
  6
CONTINUOUS
 62
     8
 10
150.9972022917
 20
404.2483093919
 30
0.0
 40
38.69054488508575
 50
230.9478770288
 51
243.1092948313
  0
ARC
  5
1C5
  8
0
  6
CONTINUOUS
 62
     8
 10
165.2734156806
 20
375.7186121126
 30
0.0
 40
1.889474473592825
 50
306.6163160943
 51
0.0209554053
  0
ARC
  5
1C6
  8
0
  6
CONTINUOUS
 62
     8
 10
127.7481732811
 20
375.7186048722
 30
0.0
 40
1.889461181711273
 50
179.9788305718
 51
233.3787402143
  0
ARC
  5
1C7
  8
0
  6
CONTINUOUS
 62
     8
 10
146.5108879305
 20
382.0115425257
 30
0.0
 40
46.42484880625576
 50
261.3467818952
 51
278.6530014586
  0
POLYLINE
  5
1C8
  8
0
  6
CONTINUOUS
 62
     8
 66
     1
 10
0.0
 20
0.0
 30
0.0
 70
   128
  0
VERTEX
  5
3D2
  8
0
  6
CONTINUOUS
 62
     8
 10
139.5260076147
 20
336.1153768891
 30
0.0
  0
VERTEX
  5
3D3
  8
0
  6
CONTINUOUS
 62
     8
 10
137.2896909865
 20
336.9569429628
 30
0.0
  0
VERTEX
  5
3D4
  8
0
  6
CONTINUOUS
 62
     8
 10
135.1883552977
 20
338.0387445762
 30
0.0
  0
VERTEX
  5
3D5
  8
0
  6
CONTINUOUS
 62
     8
 10
133.3276240008
 20
339.2935913923
 30
0.0
  0
VERTEX
  5
3D6
  8
0
  6
CONTINUOUS
 62
     8
 10
131.6341956887
 20
340.7562097758
 30
0.0
  0
VERTEX
  5
3D7
  8
0
  6
CONTINUOUS
 62
     8
 10
129.765494102
 20
342.8687920111
 30
0.0
  0
VERTEX
  5
3D8
  8
0
  6
CONTINUOUS
 62
     8
 10
128.2045416877
 20
345.2555865864
 30
0.0
  0
VERTEX
  5
3D9
  8
0
  6
CONTINUOUS
 62
     8
 10
126.9298855167
 20
347.9165935016
 30
0.0
  0
VERTEX
  5
3DA
  8
0
  6
CONTINUOUS
 62
     8
 10
125.9726024421
 20
350.6643483702
 30
0.0
  0
VERTEX
  5
3DB
  8
0
  6
CONTINUOUS
 62
     8
 10
125.2480129587
 20
353.5685746787
 30
0.0
  0
VERTEX
  5
3DC
  8
0
  6
CONTINUOUS
 62
     8
 10
124.7148541897
 20
356.629272427
 30
0.0
  0
VERTEX
  5
3DD
  8
0
  6
CONTINUOUS
 62
     8
 10
124.2034045907
 20
361.3962399095
 30
0.0
  0
VERTEX
  5
3DE
  8
0
  6
CONTINUOUS
 62
     8
 10
123.9338617102
 20
366.3356349954
 30
0.0
  0
SEQEND
  5
4B5
  8
0
  6
CONTINUOUS
 62
     8
  0
POLYLINE
  5
1C9
  8
0
  6
CONTINUOUS
 62
     8
 66
     1
 10
0.0
 20
0.0
 30
0.0
 70
   128
  0
VERTEX
  5
3DF
  8
0
  6
CONTINUOUS
 62
     8
 10
153.4955947025
 20
336.1153768891
 30
0.0
  0
VERTEX
  5
3E0
  8
0
  6
CONTINUOUS
 62
     8
 10
155.7319113307
 20
336.9569429628
 30
0.0
  0
VERTEX
  5
3E1
  8
0
  6
CONTINUOUS
 62
     8
 10
157.8332470195
 20
338.0387445762
 30
0.0
  0
VERTEX
  5
3E2
  8
0
  6
CONTINUOUS
 62
     8
 10
159.6939783164
 20
339.2935913923
 30
0.0
  0
VERTEX
  5
3E3
  8
0
  6
CONTINUOUS
 62
     8
 10
161.3874066285
 20
340.7562097758
 30
0.0
  0
VERTEX
  5
3E4
  8
0
  6
CONTINUOUS
 62
     8
 10
163.2561082152
 20
342.8687920111
 30
0.0
  0
VERTEX
  5
3E5
  8
0
  6
CONTINUOUS
 62
     8
 10
164.8170606296
 20
345.2555865864
 30
0.0
  0
VERTEX
  5
3E6
  8
0
  6
CONTINUOUS
 62
     8
 10
166.0917168005
 20
347.9165935016
 30
0.0
  0
VERTEX
  5
3E7
  8
0
  6
CONTINUOUS
 62
     8
 10
167.4377580254
 20
352.0969025945
 30
0.0
  0
VERTEX
  5
3E8
  8
0
  6
CONTINUOUS
 62
     8
 10
168.3067481275
 20
356.629272427
 30
0.0
  0
VERTEX
  5
3E9
  8
0
  6
CONTINUOUS
 62
     8
 10
168.8181977265
 20
361.3962399095
 30
0.0
  0
VERTEX
  5
3EA
  8
0
  6
CONTINUOUS
 62
     8
 10
169.0877406071
 20
366.3356349954
 30
0.0
  0
SEQEND
  5
4B6
  8
0
  6
CONTINUOUS
 62
     8
  0
POLYLINE
  5
1CA
  8
0
  6
CONTINUOUS
 62
     8
 66
     1
 10
0.0
 20
0.0
 30
0.0
 70
   128
  0
VERTEX
  5
3EB
  8
0
  6
CONTINUOUS
 62
     8
 10
123.9338619725
 20
366.3356405274
 30
0.0
  0
VERTEX
  5
3EC
  8
0
  6
CONTINUOUS
 62
     8
 10
123.831777357
 20
370.3840978467
 30
0.0
  0
VERTEX
  5
3ED
  8
0
  6
CONTINUOUS
 62
     8
 10
123.8008646942
 20
374.4938027492
 30
0.0
  0
SEQEND
  5
4B7
  8
0
  6
CONTINUOUS
 62
     8
  0
LINE
  5
1CB
  8
0
  6
CONTINUOUS
 62
     8
 10
123.8008559183
 20
374.4943721465
 30
0.0
 11
123.8008559183
 21
375.4516157343
 31
0.0
  0
LINE
  5
1CC
  8
0
  6
CONTINUOUS
 62
     8
 10
125.8587122894
 20
375.7195693857
 30
0.0
 11
125.8183058747
 21
375.5958248716
 31
0.0
  0
LINE
  5
1CD
  8
0
  6
CONTINUOUS
 62
     8
 10
167.2032964426
 20
375.5958248716
 30
0.0
 11
167.1628900278
 21
375.7195693857
 31
0.0
  0
LINE
  5
1CE
  8
0
  6
CONTINUOUS
 62
     8
 10
169.2207463989
 20
374.4943721465
 30
0.0
 11
169.2207463989
 21
375.4516157343
 31
0.0
  0
POLYLINE
  5
1CF
  8
0
  6
CONTINUOUS
 62
     8
 66
     1
 10
0.0
 20
0.0
 30
0.0
 70
   128
  0
VERTEX
  5
3EE
  8
0
  6
CONTINUOUS
 62
     8
 10
169.0877406071
 20
366.3356349954
 30
0.0
  0
VERTEX
  5
3EF
  8
0
  6
CONTINUOUS
 62
     8
 10
169.1898241894
 20
370.3845233084
 30
0.0
  0
VERTEX
  5
3F0
  8
0
  6
CONTINUOUS
 62
     8
 10
169.2207463989
 20
374.4943721465
 30
0.0
  0
SEQEND
  5
4B8
  8
0
  6
CONTINUOUS
 62
     8
  0
LINE
  5
1D0
  8
0
  6
CONTINUOUS
 62
     8
 10
125.8183058747
 20
385.772527138
 30
0.0
 11
125.8183058747
 21
375.5958248716
 31
0.0
  0
POLYLINE
  5
1D1
  8
0
  6
CONTINUOUS
 62
     8
 66
     1
 10
0.0
 20
0.0
 30
0.0
 70
   128
  0
VERTEX
  5
3F1
  8
0
  6
CONTINUOUS
 62
     8
 10
125.8587122894
 20
385.7659105768
 30
0.0
  0
VERTEX
  5
3F2
  8
0
  6
CONTINUOUS
 62
     8
 10
125.8385090821
 20
385.7692745836
 30
0.0
  0
VERTEX
  5
3F3
  8
0
  6
CONTINUOUS
 62
     8
 10
125.8183058747
 20
385.772527138
 30
0.0
  0
SEQEND
  5
4B9
  8
0
  6
CONTINUOUS
 62
     8
  0
POLYLINE
  5
1D2
  8
0
  6
CONTINUOUS
 62
     8
 66
     1
 10
0.0
 20
0.0
 30
0.0
 70
   128
  0
VERTEX
  5
3F4
  8
0
  6
CONTINUOUS
 62
     8
 10
167.2032964426
 20
385.772527138
 30
0.0
  0
VERTEX
  5
3F5
  8
0
  6
CONTINUOUS
 62
     8
 10
167.1830932351
 20
385.7692745836
 30
0.0
  0
VERTEX
  5
3F6
  8
0
  6
CONTINUOUS
 62
     8
 10
167.1628900278
 20
385.7659105768
 30
0.0
  0
SEQEND
  5
4BA
  8
0
  6
CONTINUOUS
 62
     8
  0
LINE
  5
1D3
  8
0
  6
CONTINUOUS
 62
     8
 10
167.2032964426
 20
385.772527138
 30
0.0
 11
167.2032964426
 21
375.5958248716
 31
0.0
  0
ARC
  5
1D4
  8
0
  6
CONTINUOUS
 62
     8
 10
127.3183056223
 20
385.7725273558
 30
0.0
 40
1.499999747650237
 50
91.7221716207
 51
180.0000083214
  0
ARC
  5
1D5
  8
0
  6
CONTINUOUS
 62
     8
 10
165.7032966949
 20
385.7725273558
 30
0.0
 40
1.499999747649768
 50
359.9999916786
 51
88.2778283793
  0
ARC
  5
1D6
  8
0
  6
CONTINUOUS
 62
     8
 10
160.7697291898
 20
422.7690549308
 30
0.0
 40
1.499817077360913
 50
359.9927513582
 51
88.0818669728
  0
ARC
  5
1D7
  8
0
  6
CONTINUOUS
 62
     8
 10
132.199351489
 20
422.7690549308
 30
0.0
 40
1.499817077360828
 50
91.9181330272
 51
180.0072486418
  0
LINE
  5
1D8
  8
0
  6
CONTINUOUS
 62
     8
 10
130.6995344236
 20
420.8301783271
 30
0.0
 11
130.7583944047
 21
420.8673168518
 31
0.0
  0
LINE
  5
1D9
  8
0
  6
CONTINUOUS
 62
     8
 10
132.2150102044
 20
419.3357310551
 30
0.0
 11
131.8183554778
 21
419.4108127862
 31
0.0
  0
POLYLINE
  5
1DA
  8
0
  6
CONTINUOUS
 62
     8
 66
     1
 10
0.0
 20
0.0
 30
0.0
 70
   128
  0
VERTEX
  5
3F7
  8
0
  6
CONTINUOUS
 62
     8
 10
130.8158593197
 20
420.2718991813
 30
0.0
  0
VERTEX
  5
3F8
  8
0
  6
CONTINUOUS
 62
     8
 10
130.7402437524
 20
420.4842024373
 30
0.0
  0
VERTEX
  5
3F9
  8
0
  6
CONTINUOUS
 62
     8
 10
130.6997234824
 20
420.830349116
 30
0.0
  0
SEQEND
  5
4BB
  8
0
  6
CONTINUOUS
 62
     8
  0
LINE
  5
1DB
  8
0
  6
CONTINUOUS
 62
     8
 10
162.2695462552
 20
420.8301783271
 30
0.0
 11
162.2106862741
 21
420.8673168518
 31
0.0
  0
LINE
  5
1DC
  8
0
  6
CONTINUOUS
 62
     8
 10
160.7540704744
 20
419.3357310551
 30
0.0
 11
161.1905124029
 21
419.4183440011
 31
0.0
  0
POLYLINE
  5
1DD
  8
0
  6
CONTINUOUS
 62
     8
 66
     1
 10
0.0
 20
0.0
 30
0.0
 70
   128
  0
VERTEX
  5
3FA
  8
0
  6
CONTINUOUS
 62
     8
 10
162.1846283311
 20
420.360079468
 30
0.0
  0
VERTEX
  5
3FB
  8
0
  6
CONTINUOUS
 62
     8
 10
162.2288369264
 20
420.4842024373
 30
0.0
  0
VERTEX
  5
3FC
  8
0
  6
CONTINUOUS
 62
     8
 10
162.2693571964
 20
420.830349116
 30
0.0
  0
SEQEND
  5
4BC
  8
0
  6
CONTINUOUS
 62
     8
  0
LINE
  5
1DE
  8
0
  6
CONTINUOUS
 62
     8
 10
130.6995344236
 20
422.7688651849
 30
0.0
 11
130.6995344236
 21
420.8301783271
 31
0.0
  0
LINE
  5
1DF
  8
0
  6
CONTINUOUS
 62
     8
 10
162.2695462552
 20
422.7688651849
 30
0.0
 11
162.2695462552
 21
420.8301783271
 31
0.0
  0
POLYLINE
  5
1E0
  8
0
  6
CONTINUOUS
 62
     8
 66
     1
 10
0.0
 20
0.0
 30
0.0
 70
   128
  0
VERTEX
  5
3FD
  8
0
  6
CONTINUOUS
 62
     8
 10
128.2362527485
 20
406.5060959725
 30
0.0
  0
VERTEX
  5
3FE
  8
0
  6
CONTINUOUS
 62
     8
 10
129.6823348879
 20
404.7885891935
 30
0.0
  0
VERTEX
  5
3FF
  8
0
  6
CONTINUOUS
 62
     8
 10
131.4139904742
 20
403.3474122543
 30
0.0
  0
VERTEX
  5
400
  8
0
  6
CONTINUOUS
 62
     8
 10
133.4301502766
 20
402.1962027214
 30
0.0
  0
VERTEX
  5
401
  8
0
  6
CONTINUOUS
 62
     8
 10
135.7282246465
 20
401.3411514991
 30
0.0
  0
VERTEX
  5
402
  8
0
  6
CONTINUOUS
 62
     8
 10
136.9389440124
 20
401.0334740889
 30
0.0
  0
VERTEX
  5
403
  8
0
  6
CONTINUOUS
 62
     8
 10
138.2292179012
 20
400.7895186242
 30
0.0
  0
VERTEX
  5
404
  8
0
  6
CONTINUOUS
 62
     8
 10
139.5129660946
 20
400.6177299811
 30
0.0
  0
VERTEX
  5
405
  8
0
  6
CONTINUOUS
 62
     8
 10
140.9079601355
 20
400.4941825278
 30
0.0
  0
VERTEX
  5
406
  8
0
  6
CONTINUOUS
 62
     8
 10
143.0562076667
 20
400.3969029317
 30
0.0
  0
SEQEND
  5
4BD
  8
0
  6
CONTINUOUS
 62
     8
  0
POLYLINE
  5
1E1
  8
0
  6
CONTINUOUS
 62
     8
 66
     1
 10
0.0
 20
0.0
 30
0.0
 70
   128
  0
VERTEX
  5
407
  8
0
  6
CONTINUOUS
 62
     8
 10
164.7328279303
 20
406.5060959725
 30
0.0
  0
VERTEX
  5
408
  8
0
  6
CONTINUOUS
 62
     8
 10
163.2867457909
 20
404.7885891935
 30
0.0
  0
VERTEX
  5
409
  8
0
  6
CONTINUOUS
 62
     8
 10
161.5550902046
 20
403.3474122543
 30
0.0
  0
VERTEX
  5
40A
  8
0
  6
CONTINUOUS
 62
     8
 10
159.5389304022
 20
402.1962027214
 30
0.0
  0
VERTEX
  5
40B
  8
0
  6
CONTINUOUS
 62
     8
 10
157.2408560323
 20
401.3411514991
 30
0.0
  0
VERTEX
  5
40C
  8
0
  6
CONTINUOUS
 62
     8
 10
156.0301366664
 20
401.0334740889
 30
0.0
  0
VERTEX
  5
40D
  8
0
  6
CONTINUOUS
 62
     8
 10
154.7398627777
 20
400.7895186242
 30
0.0
  0
VERTEX
  5
40E
  8
0
  6
CONTINUOUS
 62
     8
 10
153.4561145842
 20
400.6177299811
 30
0.0
  0
VERTEX
  5
40F
  8
0
  6
CONTINUOUS
 62
     8
 10
152.0611205433
 20
400.4941825278
 30
0.0
  0
VERTEX
  5
410
  8
0
  6
CONTINUOUS
 62
     8
 10
149.9128730121
 20
400.3969029317
 30
0.0
  0
SEQEND
  5
4BE
  8
0
  6
CONTINUOUS
 62
     8
  0
POLYLINE
  5
1E2
  8
0
  6
CONTINUOUS
 62
     8
 66
     1
 10
0.0
 20
0.0
 30
0.0
 70
   128
  0
VERTEX
  5
411
  8
0
  6
CONTINUOUS
 62
     8
 10
124.7426856335
 20
420.6174627836
 30
0.0
  0
VERTEX
  5
412
  8
0
  6
CONTINUOUS
 62
     8
 10
124.7925065902
 20
418.6203504845
 30
0.0
  0
VERTEX
  5
413
  8
0
  6
CONTINUOUS
 62
     8
 10
124.9475917789
 20
416.5829218594
 30
0.0
  0
VERTEX
  5
414
  8
0
  6
CONTINUOUS
 62
     8
 10
125.196167065
 20
414.6873499574
 30
0.0
  0
VERTEX
  5
415
  8
0
  6
CONTINUOUS
 62
     8
 10
125.5635732454
 20
412.8053592317
 30
0.0
  0
VERTEX
  5
416
  8
0
  6
CONTINUOUS
 62
     8
 10
126.2171894088
 20
410.5219409486
 30
0.0
  0
VERTEX
  5
417
  8
0
  6
CONTINUOUS
 62
     8
 10
127.1052878518
 20
408.4026749147
 30
0.0
  0
VERTEX
  5
418
  8
0
  6
CONTINUOUS
 62
     8
 10
128.2362527485
 20
406.5060959725
 30
0.0
  0
SEQEND
  5
4BF
  8
0
  6
CONTINUOUS
 62
     8
  0
POLYLINE
  5
1E3
  8
0
  6
CONTINUOUS
 62
     8
 66
     1
 10
0.0
 20
0.0
 30
0.0
 70
   128
  0
VERTEX
  5
419
  8
0
  6
CONTINUOUS
 62
     8
 10
168.2263950453
 20
420.6174627836
 30
0.0
  0
VERTEX
  5
41A
  8
0
  6
CONTINUOUS
 62
     8
 10
168.1765740886
 20
418.6203504845
 30
0.0
  0
VERTEX
  5
41B
  8
0
  6
CONTINUOUS
 62
     8
 10
168.0214888999
 20
416.5829218594
 30
0.0
  0
VERTEX
  5
41C
  8
0
  6
CONTINUOUS
 62
     8
 10
167.7729136138
 20
414.6873499574
 30
0.0
  0
VERTEX
  5
41D
  8
0
  6
CONTINUOUS
 62
     8
 10
167.4055074335
 20
412.8053592317
 30
0.0
  0
VERTEX
  5
41E
  8
0
  6
CONTINUOUS
 62
     8
 10
166.75189127
 20
410.5219409486
 30
0.0
  0
VERTEX
  5
41F
  8
0
  6
CONTINUOUS
 62
     8
 10
165.863792827
 20
408.4026749147
 30
0.0
  0
VERTEX
  5
420
  8
0
  6
CONTINUOUS
 62
     8
 10
164.7328279303
 20
406.5060959725
 30
0.0
  0
SEQEND
  5
4C0
  8
0
  6
CONTINUOUS
 62
     8
  0
ARC
  5
1E4
  8
0
  6
CONTINUOUS
 62
     8
 10
166.7629028933
 20
422.8069878429
 30
0.0
 40
1.463988598294352
 50
358.507833775
 51
86.3652790211
  0
ARC
  5
1E5
  8
0
  6
CONTINUOUS
 62
     8
 10
126.2061777855
 20
422.8069878429
 30
0.0
 40
1.463988598294298
 50
93.6347209789
 51
181.492166225
  0
LINE
  5
1E6
  8
0
  6
CONTINUOUS
 62
     8
 10
168.2263950453
 20
420.6174627836
 30
0.0
 11
168.2263950453
 21
422.7688651849
 31
0.0
  0
LINE
  5
1E7
  8
0
  6
CONTINUOUS
 62
     8
 10
124.7426856335
 20
420.6174627836
 30
0.0
 11
124.7426856335
 21
422.7688651849
 31
0.0
  0
LINE
  5
1E8
  8
0
  6
CONTINUOUS
 62
     8
 10
169.2207463989
 20
375.4516157343
 30
0.0
 11
169.2207463989
 21
385.77705054
 31
0.0
  0
LINE
  5
1E9
  8
0
  6
CONTINUOUS
 62
     8
 10
123.8008559183
 20
375.4516157343
 30
0.0
 11
123.8008559183
 21
385.77705054
 31
0.0
  0
ARC
  5
1EA
  8
0
  6
CONTINUOUS
 62
     8
 10
125.2920307277
 20
385.7862015011
 30
0.0
 40
1.491202887698396
 50
92.2662521198
 51
180.3516052341
  0
ARC
  5
1EB
  8
0
  6
CONTINUOUS
 62
     8
 10
167.7295715896
 20
385.7862015011
 30
0.0
 40
1.491202887646392
 50
359.648394764
 51
87.7337478821
  0
ARC
  5
1EC
  8
0
  6
CONTINUOUS
 62
     8
 10
146.4845403394
 20
403.4688651849
 30
0.0
 40
3.781418633081864
 50
121.9259804473
 51
58.0741458494
  0
LINE
  5
1ED
  8
0
  6
CONTINUOUS
 62
     8
 10
169.0877406071
 20
366.3356377614
 30
0.0
 11
169.0877406071
 21
290.9265569556
 31
0.0
  0
LINE
  5
1EE
  8
0
  6
CONTINUOUS
 62
     8
 10
123.9338617102
 20
366.3356382068
 30
0.0
 11
123.9338617102
 21
290.9265569556
 31
0.0
  0
LINE
  5
1EF
  8
0
  6
CONTINUOUS
 62
     8
 10
143.0561416276
 20
400.3969046944
 30
0.0
 11
143.0561416276
 21
400.3612192181
 31
0.0
  0
LINE
  5
1F0
  8
0
  6
CONTINUOUS
 62
     8
 10
149.9129390512
 20
400.3969046944
 30
0.0
 11
149.9129390512
 21
400.3612192181
 31
0.0
  0
ARC
  5
1F1
  8
0
  6
CONTINUOUS
 62
     8
 10
128.4182829316
 20
392.6503396651
 30
0.0
 40
0.1829704413975326
 50
174.1889191336
 51
262.6683170406
  0
POLYLINE
  5
1F2
  8
0
  6
CONTINUOUS
 62
     8
 66
     1
 10
0.0
 20
0.0
 30
0.0
 70
   128
  0
VERTEX
  5
421
  8
0
  6
CONTINUOUS
 62
     8
 10
123.8213497778
 20
392.6688651849
 30
0.0
  0
VERTEX
  5
422
  8
0
  6
CONTINUOUS
 62
     8
 10
123.5607201271
 20
392.7172447172
 30
0.0
  0
VERTEX
  5
423
  8
0
  6
CONTINUOUS
 62
     8
 10
123.4893640192
 20
392.9674508597
 30
0.0
  0
SEQEND
  5
4C1
  8
0
  6
CONTINUOUS
 62
     8
  0
ARC
  5
1F3
  8
0
  6
CONTINUOUS
 62
     8
 10
124.0198962705
 20
392.6674115182
 30
0.0
 40
0.1985518141291129
 50
179.5805139804
 51
269.5742796673
  0
POLYLINE
  5
1F4
  8
0
  6
CONTINUOUS
 62
     8
 66
     1
 10
0.0
 20
0.0
 30
0.0
 70
   128
  0
VERTEX
  5
424
  8
0
  6
CONTINUOUS
 62
     8
 10
123.5108011586
 20
375.4221586031
 30
0.0
  0
VERTEX
  5
425
  8
0
  6
CONTINUOUS
 62
     8
 10
123.5484572245
 20
375.4328015931
 30
0.0
  0
VERTEX
  5
426
  8
0
  6
CONTINUOUS
 62
     8
 10
123.8008559183
 20
375.4516157343
 30
0.0
  0
SEQEND
  5
4C2
  8
0
  6
CONTINUOUS
 62
     8
  0
POLYLINE
  5
1F5
  8
0
  6
CONTINUOUS
 62
     8
 66
     1
 10
0.0
 20
0.0
 30
0.0
 70
   128
  0
VERTEX
  5
427
  8
0
  6
CONTINUOUS
 62
     8
 10
169.5108011586
 20
375.4221586031
 30
0.0
  0
VERTEX
  5
428
  8
0
  6
CONTINUOUS
 62
     8
 10
169.4731450927
 20
375.4328015931
 30
0.0
  0
VERTEX
  5
429
  8
0
  6
CONTINUOUS
 62
     8
 10
169.2207463989
 20
375.4516157343
 30
0.0
  0
SEQEND
  5
4C3
  8
0
  6
CONTINUOUS
 62
     8
  0
LINE
  5
1F6
  8
0
  6
CONTINUOUS
 62
     8
 10
123.8008559183
 20
385.77705054
 30
0.0
 11
123.5108011586
 21
385.776287774
 31
0.0
  0
LINE
  5
1F7
  8
0
  6
CONTINUOUS
 62
     8
 10
169.5108011586
 20
385.776287774
 30
0.0
 11
169.2207463989
 21
385.77705054
 31
0.0
  0
LINE
  5
1F8
  8
0
  6
CONTINUOUS
 62
     7
 10
144.5108011586
 20
242.2772720893
 30
0.0
 11
144.5108011586
 21
229.2772720893
 31
0.0
  0
LINE
  5
1F9
  8
0
  6
CONTINUOUS
 62
     7
 10
148.5108011586
 20
229.2772720893
 30
0.0
 11
148.5108011586
 21
242.2772720893
 31
0.0
  0
LINE
  5
1FA
  8
0
  6
CONTINUOUS
 62
     7
 10
148.5108011586
 20
225.5185016062
 30
0.0
 11
148.5108011586
 21
229.2772720893
 31
0.0
  0
LINE
  5
1FB
  8
0
  6
CONTINUOUS
 62
     7
 10
144.5108011586
 20
229.2772720893
 30
0.0
 11
144.5108011586
 21
225.5185016062
 31
0.0
  0
LINE
  5
1FC
  8
0
  6
CONTINUOUS
 62
     7
 10
144.5108011586
 20
225.5185016062
 30
0.0
 11
144.5108011586
 21
222.8005222842
 31
0.0
  0
LINE
  5
1FD
  8
0
  6
CONTINUOUS
 62
     7
 10
148.5108011586
 20
222.7959378168
 30
0.0
 11
148.5108011586
 21
225.5185016062
 31
0.0
  0
ARC
  5
1FE
  8
0
  6
CONTINUOUS
 62
     7
 10
43.608891258
 20
160.6819134551
 30
0.0
 40
87.10697492831613
 50
1.1095183273
 51
21.3416270192
  0
ARC
  5
1FF
  8
0
  6
CONTINUOUS
 62
     7
 10
249.3601894208
 20
160.6819134551
 30
0.0
 40
87.106974928316
 50
158.6583729808
 51
178.8904816727
  0
ARC
  5
200
  8
0
  6
CONTINUOUS
 62
     7
 10
159.742108734
 20
116.1395705356
 30
0.0
 40
2.297411308281367
 50
258.870365772
 51
10.829634228
  0
ARC
  5
201
  8
0
  6
CONTINUOUS
 62
     7
 10
133.2269719448
 20
116.1395705356
 30
0.0
 40
2.297411308281322
 50
169.170365772
 51
281.129634228
  0
POLYLINE
  5
202
  8
0
  6
CONTINUOUS
 62
     7
 66
     1
 10
0.0
 20
0.0
 30
0.0
 70
   128
  0
VERTEX
  5
42A
  8
0
  6
CONTINUOUS
 62
     7
 10
130.6995344236
 20
162.3686126454
 30
0.0
  0
VERTEX
  5
42B
  8
0
  6
CONTINUOUS
 62
     7
 10
130.743901722
 20
159.3688392068
 30
0.0
  0
VERTEX
  5
42C
  8
0
  6
CONTINUOUS
 62
     7
 10
130.7583944047
 20
157.07566408
 30
0.0
  0
SEQEND
  5
4C4
  8
0
  6
CONTINUOUS
 62
     7
  0
POLYLINE
  5
203
  8
0
  6
CONTINUOUS
 62
     7
 66
     1
 10
0.0
 20
0.0
 30
0.0
 70
   128
  0
VERTEX
  5
42D
  8
0
  6
CONTINUOUS
 62
     7
 10
162.2695462552
 20
162.3686126454
 30
0.0
  0
VERTEX
  5
42E
  8
0
  6
CONTINUOUS
 62
     7
 10
162.2251789569
 20
159.3688392068
 30
0.0
  0
VERTEX
  5
42F
  8
0
  6
CONTINUOUS
 62
     7
 10
162.2106862741
 20
157.07566408
 30
0.0
  0
SEQEND
  5
4C5
  8
0
  6
CONTINUOUS
 62
     7
  0
LINE
  5
204
  8
0
  6
CONTINUOUS
 62
     7
 10
162.2106862741
 20
157.07566408
 30
0.0
 11
161.9986036132
 21
116.571229637
 31
0.0
  0
LINE
  5
205
  8
0
  6
CONTINUOUS
 62
     7
 10
130.7583944047
 20
157.07566408
 30
0.0
 11
130.9704770656
 21
116.571229637
 31
0.0
  0
LINE
  5
206
  8
0
  6
CONTINUOUS
 62
     7
 10
159.2986406241
 20
113.8853667394
 30
0.0
 11
133.6704400547
 21
113.8853667394
 31
0.0
  0
ARC
  5
207
  8
0
  6
CONTINUOUS
 62
     7
 10
146.4845403394
 20
199.8853667394
 30
0.0
 40
23.0
 50
340.9612250536
 51
199.0387749464
  0
LINE
  5
208
  8
0
  6
CONTINUOUS
 62
     7
 10
130.6995344236
 20
162.3686126454
 30
0.0
 11
130.7583944047
 21
157.07566408
 31
0.0
  0
LINE
  5
209
  8
0
  6
CONTINUOUS
 62
     7
 10
162.2695462552
 20
162.3686126454
 30
0.0
 11
162.2106862741
 21
157.07566408
 31
0.0
  0
LINE
  5
20A
  8
0
  6
CONTINUOUS
 62
     7
 10
169.5108011586
 20
199.8367395938
 30
0.0
 11
169.2207463989
 21
196.1955327632
 31
0.0
  0
ARC
  5
20B
  8
0
  6
CONTINUOUS
 62
     7
 10
-15.3526633787
 20
172.3842909288
 30
0.0
 40
141.1760502721305
 50
359.5138908243
 51
9.7101191889
  0
ARC
  5
20C
  8
0
  6
CONTINUOUS
 62
     7
 10
307.7424001459
 20
172.435262876
 30
0.0
 40
140.5446512034672
 50
170.2669164055
 51
180.5090735813
  0
LINE
  5
20D
  8
0
  6
CONTINUOUS
 62
     7
 10
163.8494437833
 20
91.3367395938
 30
0.0
 11
146.5108011586
 21
91.3367395938
 31
0.0
  0
LINE
  5
20E
  8
0
  6
CONTINUOUS
 62
     7
 10
146.5108011586
 20
91.3367395938
 30
0.0
 11
129.1721585339
 21
91.3367395938
 31
0.0
  0
ARC
  5
20F
  8
0
  6
CONTINUOUS
 62
     7
 10
128.6708934479
 20
94.0344673933
 30
0.0
 40
2.743902688956906
 50
169.5889087682
 51
280.5260912318
  0
ARC
  5
210
  8
0
  6
CONTINUOUS
 62
     7
 10
164.3507088693
 20
94.0344673933
 30
0.0
 40
2.743902688956883
 50
259.4739087682
 51
10.4110912318
  0
LINE
  5
211
  8
0
  6
CONTINUOUS
 62
     7
 10
167.1628900278
 20
151.0551132429
 30
0.0
 11
167.0509998172
 21
95.308780857
 31
0.0
  0
LINE
  5
212
  8
0
  6
CONTINUOUS
 62
     7
 10
167.0509998176
 20
95.3087810118
 30
0.0
 11
167.0494373376
 21
94.5303167865
 31
0.0
  0
LINE
  5
213
  8
0
  6
CONTINUOUS
 62
     7
 10
125.9706027202
 20
95.3086711272
 30
0.0
 11
125.8587122894
 21
151.0551132429
 31
0.0
  0
LINE
  5
214
  8
0
  6
CONTINUOUS
 62
     7
 10
125.9721649796
 20
94.5303167865
 30
0.0
 11
125.9706027199
 21
95.3086712822
 31
0.0
  0
ARC
  5
215
  8
0
  6
CONTINUOUS
 62
     7
 10
146.5108011586
 20
199.8367395938
 30
0.0
 40
23.0
 50
0.0
 51
28.4398539787
  0
LINE
  5
216
  8
0
  6
CONTINUOUS
 62
     7
 10
167.2032964426
 20
171.1865386563
 30
0.0
 11
167.1628900278
 21
151.0551132429
 31
0.0
  0
LINE
  5
217
  8
0
  6
CONTINUOUS
 62
     7
 10
125.8587122894
 20
151.0551132429
 30
0.0
 11
125.8183058747
 21
171.1865386563
 31
0.0
  0
LINE
  5
218
  8
0
  6
CONTINUOUS
 62
     7
 10
144.5108011586
 20
242.2772720893
 30
0.0
 11
148.5108011586
 21
242.2772720893
 31
0.0
  0
ARC
  5
219
  8
0
  6
CONTINUOUS
 62
     8
 10
43.6072769085
 20
160.6782714463
 30
0.0
 40
88.55865034620267
 50
1.1152792378
 51
21.3057463407
  0
ARC
  5
21A
  8
0
  6
CONTINUOUS
 62
     8
 10
249.3618037703
 20
160.6782714463
 30
0.0
 40
88.55865034620128
 50
158.6942536593
 51
178.8847207622
  0
POLYLINE
  5
21B
  8
0
  6
CONTINUOUS
 62
     8
 66
     1
 10
0.0
 20
0.0
 30
0.0
 70
   128
  0
VERTEX
  5
430
  8
0
  6
CONTINUOUS
 62
     8
 10
160.8199302288
 20
162.4019828239
 30
0.0
  0
VERTEX
  5
431
  8
0
  6
CONTINUOUS
 62
     8
 10
160.7785041038
 20
159.7427606586
 30
0.0
  0
VERTEX
  5
432
  8
0
  6
CONTINUOUS
 62
     8
 10
160.7607060941
 20
157.0832559967
 30
0.0
  0
SEQEND
  5
4C6
  8
0
  6
CONTINUOUS
 62
     8
  0
LINE
  5
21C
  8
0
  6
CONTINUOUS
 62
     8
 10
160.7607061503
 20
157.0832562275
 30
0.0
 11
160.5486234894
 21
116.5788217846
 31
0.0
  0
POLYLINE
  5
21D
  8
0
  6
CONTINUOUS
 62
     8
 66
     1
 10
0.0
 20
0.0
 30
0.0
 70
   128
  0
VERTEX
  5
433
  8
0
  6
CONTINUOUS
 62
     8
 10
160.5486234203
 20
116.5788221193
 30
0.0
  0
VERTEX
  5
434
  8
0
  6
CONTINUOUS
 62
     8
 10
160.5293613563
 20
116.0274625374
 30
0.0
  0
VERTEX
  5
435
  8
0
  6
CONTINUOUS
 62
     8
 10
160.4845047964
 20
115.7546949308
 30
0.0
  0
VERTEX
  5
436
  8
0
  6
CONTINUOUS
 62
     8
 10
160.4431033743
 20
115.6224460232
 30
0.0
  0
VERTEX
  5
437
  8
0
  6
CONTINUOUS
 62
     8
 10
160.4145078667
 20
115.5593278138
 30
0.0
  0
VERTEX
  5
438
  8
0
  6
CONTINUOUS
 62
     8
 10
160.3751283569
 20
115.5021474137
 30
0.0
  0
VERTEX
  5
439
  8
0
  6
CONTINUOUS
 62
     8
 10
160.3183307968
 20
115.4629621027
 30
0.0
  0
VERTEX
  5
43A
  8
0
  6
CONTINUOUS
 62
     8
 10
159.851885421
 20
115.351906266
 30
0.0
  0
VERTEX
  5
43B
  8
0
  6
CONTINUOUS
 62
     8
 10
159.2986406186
 20
115.3353670438
 30
0.0
  0
SEQEND
  5
4C7
  8
0
  6
CONTINUOUS
 62
     8
  0
LINE
  5
21E
  8
0
  6
CONTINUOUS
 62
     8
 10
159.2986406241
 20
115.3353667394
 30
0.0
 11
146.4845403394
 21
115.3353667394
 31
0.0
  0
ARC
  5
21F
  8
0
  6
CONTINUOUS
 62
     8
 10
146.4845403394
 20
199.8853667394
 30
0.0
 40
21.55000000000011
 50
340.9612250536
 51
90.0
  0
LINE
  5
220
  8
0
  6
CONTINUOUS
 62
     8
 10
133.6704400547
 20
115.3353667394
 30
0.0
 11
146.4845403394
 21
115.3353667394
 31
0.0
  0
POLYLINE
  5
221
  8
0
  6
CONTINUOUS
 62
     8
 66
     1
 10
0.0
 20
0.0
 30
0.0
 70
   128
  0
VERTEX
  5
43C
  8
0
  6
CONTINUOUS
 62
     8
 10
132.4204572585
 20
116.5788221193
 30
0.0
  0
VERTEX
  5
43D
  8
0
  6
CONTINUOUS
 62
     8
 10
132.4397193225
 20
116.0274625374
 30
0.0
  0
VERTEX
  5
43E
  8
0
  6
CONTINUOUS
 62
     8
 10
132.4845758825
 20
115.7546949308
 30
0.0
  0
VERTEX
  5
43F
  8
0
  6
CONTINUOUS
 62
     8
 10
132.5259773045
 20
115.6224460232
 30
0.0
  0
VERTEX
  5
440
  8
0
  6
CONTINUOUS
 62
     8
 10
132.5545728122
 20
115.5593278138
 30
0.0
  0
VERTEX
  5
441
  8
0
  6
CONTINUOUS
 62
     8
 10
132.5939523219
 20
115.5021474137
 30
0.0
  0
VERTEX
  5
442
  8
0
  6
CONTINUOUS
 62
     8
 10
132.650749882
 20
115.4629621027
 30
0.0
  0
VERTEX
  5
443
  8
0
  6
CONTINUOUS
 62
     8
 10
133.1171952579
 20
115.351906266
 30
0.0
  0
VERTEX
  5
444
  8
0
  6
CONTINUOUS
 62
     8
 10
133.6704400602
 20
115.3353670438
 30
0.0
  0
SEQEND
  5
4C8
  8
0
  6
CONTINUOUS
 62
     8
  0
LINE
  5
222
  8
0
  6
CONTINUOUS
 62
     8
 10
132.2083745285
 20
157.0832562275
 30
0.0
 11
132.4204571894
 21
116.5788217846
 31
0.0
  0
POLYLINE
  5
223
  8
0
  6
CONTINUOUS
 62
     8
 66
     1
 10
0.0
 20
0.0
 30
0.0
 70
   128
  0
VERTEX
  5
445
  8
0
  6
CONTINUOUS
 62
     8
 10
132.14915045
 20
162.4019828239
 30
0.0
  0
VERTEX
  5
446
  8
0
  6
CONTINUOUS
 62
     8
 10
132.190576575
 20
159.7427606586
 30
0.0
  0
VERTEX
  5
447
  8
0
  6
CONTINUOUS
 62
     8
 10
132.2083745848
 20
157.0832559967
 30
0.0
  0
SEQEND
  5
4C9
  8
0
  6
CONTINUOUS
 62
     8
  0
ARC
  5
224
  8
0
  6
CONTINUOUS
 62
     8
 10
146.4845403394
 20
199.8853667394
 30
0.0
 40
21.55000000000009
 50
90.0
 51
199.0387749464
  0
POLYLINE
  5
225
  8
0
  6
CONTINUOUS
 62
     8
 66
     1
 10
0.0
 20
0.0
 30
0.0
 70
   128
  0
VERTEX
  5
448
  8
0
  6
CONTINUOUS
 62
     8
 10
169.2207463989
 20
196.1955327632
 30
0.0
  0
VERTEX
  5
449
  8
0
  6
CONTINUOUS
 62
     8
 10
169.193491365
 20
196.200076888
 30
0.0
  0
VERTEX
  5
44A
  8
0
  6
CONTINUOUS
 62
     8
 10
169.1875316117
 20
196.2010503454
 30
0.0
  0
SEQEND
  5
4CA
  8
0
  6
CONTINUOUS
 62
     8
  0
POLYLINE
  5
226
  8
0
  6
CONTINUOUS
 62
     8
 66
     1
 10
0.0
 20
0.0
 30
0.0
 70
   128
  0
VERTEX
  5
44B
  8
0
  6
CONTINUOUS
 62
     8
 10
127.3201290049
 20
151.0575760118
 30
0.0
  0
VERTEX
  5
44C
  8
0
  6
CONTINUOUS
 62
     8
 10
127.3271046821
 20
148.0575842601
 30
0.0
  0
VERTEX
  5
44D
  8
0
  6
CONTINUOUS
 62
     8
 10
127.355013558
 20
136.0576172855
 30
0.0
  0
VERTEX
  5
44E
  8
0
  6
CONTINUOUS
 62
     8
 10
127.4495757214
 20
95.3107176013
 30
0.0
  0
SEQEND
  5
4CB
  8
0
  6
CONTINUOUS
 62
     8
  0
POLYLINE
  5
227
  8
0
  6
CONTINUOUS
 62
     8
 66
     1
 10
0.0
 20
0.0
 30
0.0
 70
   128
  0
VERTEX
  5
44F
  8
0
  6
CONTINUOUS
 62
     8
 10
127.2732260709
 20
171.1889548437
 30
0.0
  0
VERTEX
  5
450
  8
0
  6
CONTINUOUS
 62
     8
 10
127.2802062448
 20
168.1889630978
 30
0.0
  0
VERTEX
  5
451
  8
0
  6
CONTINUOUS
 62
     8
 10
127.294209803
 20
162.1889797346
 30
0.0
  0
VERTEX
  5
452
  8
0
  6
CONTINUOUS
 62
     8
 10
127.3201290049
 20
151.0575760118
 30
0.0
  0
SEQEND
  5
4CC
  8
0
  6
CONTINUOUS
 62
     8
  0
ARC
  5
228
  8
0
  6
CONTINUOUS
 62
     8
 10
7.3571628535
 20
173.5401687463
 30
0.0
 40
119.9391113206123
 50
358.8767361899
 51
6.615490108
  0
ARC
  5
229
  8
0
  6
CONTINUOUS
 62
     8
 10
286.5339413708
 20
173.5146727868
 30
0.0
 40
120.8079538208957
 50
173.316570851
 51
181.1030900749
  0
POLYLINE
  5
22A
  8
0
  6
CONTINUOUS
 62
     8
 66
     1
 10
0.0
 20
0.0
 30
0.0
 70
   128
  0
VERTEX
  5
453
  8
0
  6
CONTINUOUS
 62
     8
 10
165.7014733123
 20
151.0575760118
 30
0.0
  0
VERTEX
  5
454
  8
0
  6
CONTINUOUS
 62
     8
 10
165.7084519191
 20
154.0575677515
 30
0.0
  0
VERTEX
  5
455
  8
0
  6
CONTINUOUS
 62
     8
 10
165.7364183419
 20
166.0575345025
 30
0.0
  0
VERTEX
  5
456
  8
0
  6
CONTINUOUS
 62
     8
 10
165.7483762463
 20
171.1889548437
 30
0.0
  0
SEQEND
  5
4CD
  8
0
  6
CONTINUOUS
 62
     8
  0
POLYLINE
  5
22B
  8
0
  6
CONTINUOUS
 62
     8
 66
     1
 10
0.0
 20
0.0
 30
0.0
 70
   128
  0
VERTEX
  5
457
  8
0
  6
CONTINUOUS
 62
     8
 10
165.5720268863
 20
95.3108274065
 30
0.0
  0
VERTEX
  5
458
  8
0
  6
CONTINUOUS
 62
     8
 10
165.5901078714
 20
103.2389625502
 30
0.0
  0
VERTEX
  5
459
  8
0
  6
CONTINUOUS
 62
     8
 10
165.6458115467
 20
127.1482897316
 30
0.0
  0
VERTEX
  5
45A
  8
0
  6
CONTINUOUS
 62
     8
 10
165.7014733123
 20
151.0575760118
 30
0.0
  0
SEQEND
  5
4CE
  8
0
  6
CONTINUOUS
 62
     8
  0
POLYLINE
  5
22C
  8
0
  6
CONTINUOUS
 62
     8
 66
     1
 10
0.0
 20
0.0
 30
0.0
 70
   128
  0
VERTEX
  5
45B
  8
0
  6
CONTINUOUS
 62
     8
 10
146.5108023721
 20
92.7655958106
 30
0.0
  0
VERTEX
  5
45C
  8
0
  6
CONTINUOUS
 62
     8
 10
155.1321744851
 20
92.7870001399
 30
0.0
  0
VERTEX
  5
45D
  8
0
  6
CONTINUOUS
 62
     8
 10
163.8582084343
 20
92.8182585338
 30
0.0
  0
SEQEND
  5
4CF
  8
0
  6
CONTINUOUS
 62
     8
  0
POLYLINE
  5
22D
  8
0
  6
CONTINUOUS
 62
     8
 66
     1
 10
0.0
 20
0.0
 30
0.0
 70
   128
  0
VERTEX
  5
45E
  8
0
  6
CONTINUOUS
 62
     8
 10
129.163393883
 20
92.8182585338
 30
0.0
  0
VERTEX
  5
45F
  8
0
  6
CONTINUOUS
 62
     8
 10
137.8894278322
 20
92.7870001399
 30
0.0
  0
VERTEX
  5
460
  8
0
  6
CONTINUOUS
 62
     8
 10
146.5107999452
 20
92.7655958106
 30
0.0
  0
SEQEND
  5
4D0
  8
0
  6
CONTINUOUS
 62
     8
  0
POLYLINE
  5
22E
  8
0
  6
CONTINUOUS
 62
     8
 66
     1
 10
0.0
 20
0.0
 30
0.0
 70
   128
  0
VERTEX
  5
461
  8
0
  6
CONTINUOUS
 62
     8
 10
127.450287876
 20
95.3121404945
 30
0.0
  0
VERTEX
  5
462
  8
0
  6
CONTINUOUS
 62
     8
 10
127.4502945324
 20
95.3107191812
 30
0.0
  0
VERTEX
  5
463
  8
0
  6
CONTINUOUS
 62
     8
 10
127.4541789688
 20
94.5280110208
 30
0.0
  0
SEQEND
  5
4D1
  8
0
  6
CONTINUOUS
 62
     8
  0
POLYLINE
  5
22F
  8
0
  6
CONTINUOUS
 62
     8
 66
     1
 10
0.0
 20
0.0
 30
0.0
 70
   128
  0
VERTEX
  5
464
  8
0
  6
CONTINUOUS
 62
     8
 10
127.4541789688
 20
94.5280110208
 30
0.0
  0
VERTEX
  5
465
  8
0
  6
CONTINUOUS
 62
     8
 10
127.505356954
 20
93.6479851726
 30
0.0
  0
VERTEX
  5
466
  8
0
  6
CONTINUOUS
 62
     8
 10
127.6349820318
 20
93.2202488041
 30
0.0
  0
VERTEX
  5
467
  8
0
  6
CONTINUOUS
 62
     8
 10
127.7251864989
 20
93.0895486821
 30
0.0
  0
VERTEX
  5
468
  8
0
  6
CONTINUOUS
 62
     8
 10
127.8544326124
 20
92.9993657662
 30
0.0
  0
VERTEX
  5
469
  8
0
  6
CONTINUOUS
 62
     8
 10
128.0709696
 20
92.9164531307
 30
0.0
  0
VERTEX
  5
46A
  8
0
  6
CONTINUOUS
 62
     8
 10
129.163393883
 20
92.8182585338
 30
0.0
  0
SEQEND
  5
4D2
  8
0
  6
CONTINUOUS
 62
     8
  0
LINE
  5
230
  8
0
  6
CONTINUOUS
 62
     8
 10
165.5674233485
 20
94.5280110208
 30
0.0
 11
165.5713144413
 21
95.3121404945
 31
0.0
  0
POLYLINE
  5
231
  8
0
  6
CONTINUOUS
 62
     8
 66
     1
 10
0.0
 20
0.0
 30
0.0
 70
   128
  0
VERTEX
  5
46B
  8
0
  6
CONTINUOUS
 62
     8
 10
163.8582084343
 20
92.8182585338
 30
0.0
  0
VERTEX
  5
46C
  8
0
  6
CONTINUOUS
 62
     8
 10
164.9506327173
 20
92.9164531307
 30
0.0
  0
VERTEX
  5
46D
  8
0
  6
CONTINUOUS
 62
     8
 10
165.1671697048
 20
92.9993657662
 30
0.0
  0
VERTEX
  5
46E
  8
0
  6
CONTINUOUS
 62
     8
 10
165.2964158183
 20
93.0895486821
 30
0.0
  0
VERTEX
  5
46F
  8
0
  6
CONTINUOUS
 62
     8
 10
165.3866202854
 20
93.2202488041
 30
0.0
  0
VERTEX
  5
470
  8
0
  6
CONTINUOUS
 62
     8
 10
165.5162453633
 20
93.6479851726
 30
0.0
  0
VERTEX
  5
471
  8
0
  6
CONTINUOUS
 62
     8
 10
165.5674233485
 20
94.5280110208
 30
0.0
  0
SEQEND
  5
4D3
  8
0
  6
CONTINUOUS
 62
     8
  0
ENDSEC
  0
EOF
