  0
SECTION
  2
HEADER
  9
$ACADVER
  1
AC1024
  9
$ACADMAINTVER
 70
     6
  9
$DWGCODEPAGE
  3
ANSI_1252
  9
$INSBASE
 10
0.0
 20
0.0
 30
0.0
  9
$EXTMIN
 10
0.0
 20
0.0
 30
0.0
  9
$EXTMAX
 10
594.0
 20
841.0
 30
0.0
  9
$LIMMIN
 10
0.0
 20
0.0
  9
$LIMMAX
 10
594.0
 20
841.0
  9
$ORTHOMODE
 70
     0
  9
$REGENMODE
 70
     1
  9
$FILLMODE
 70
     1
  9
$QTEXTMODE
 70
     0
  9
$MIRRTEXT
 70
     1
  9
$LTSCALE
 40
1.0
  9
$ATTMODE
 70
     1
  9
$TEXTSIZE
 40
10.0
  9
$TRACEWID
 40
1.0
  9
$TEXTSTYLE
  7
Standard
  9
$CLAYER
  8
0
  9
$CELTYPE
  6
ByLayer
  9
$CECOLOR
 62
   256
  9
$CELTSCALE
 40
1.0
  9
$DISPSILH
 70
     0
  9
$DIMSCALE
 40
1.0
  9
$DIMASZ
 40
2.5
  9
$DIMEXO
 40
0.0
  9
$DIMDLI
 40
3.75
  9
$DIMRND
 40
0.0
  9
$DIMDLE
 40
0.0
  9
$DIMEXE
 40
1.0
  9
$DIMTP
 40
0.0
  9
$DIMTM
 40
0.0
  9
$DIMTXT
 40
3.5
  9
$DIMCEN
 40
2.5
  9
$DIMTSZ
 40
0.0
  9
$DIMTOL
 70
     0
  9
$DIMLIM
 70
     0
  9
$DIMTIH
 70
     1
  9
$DIMTOH
 70
     1
  9
$DIMSE1
 70
     0
  9
$DIMSE2
 70
     0
  9
$DIMTAD
 70
     1
  9
$DIMZIN
 70
     0
  9
$DIMBLK
  1

  9
$DIMASO
 70
     1
  9
$DIMSHO
 70
     1
  9
$DIMPOST
  1

  9
$DIMAPOST
  1

  9
$DIMALT
 70
     0
  9
$DIMALTD
 70
     3
  9
$DIMALTF
 40
0.0393700787
  9
$DIMLFAC
 40
1.0
  9
$DIMTOFL
 70
     1
  9
$DIMTVP
 40
0.0
  9
$DIMTIX
 70
     0
  9
$DIMSOXD
 70
     0
  9
$DIMSAH
 70
     0
  9
$DIMBLK1
  1

  9
$DIMBLK2
  1

  9
$DIMSTYLE
  2
ISO-25
  9
$DIMCLRD
 70
     0
  9
$DIMCLRE
 70
     0
  9
$DIMCLRT
 70
     0
  9
$DIMTFAC
 40
1.0
  9
$DIMGAP
 40
1.5
  9
$DIMJUST
 70
     0
  9
$DIMSD1
 70
     0
  9
$DIMSD2
 70
     0
  9
$DIMTOLJ
 70
     0
  9
$DIMTZIN
 70
     0
  9
$DIMALTZ
 70
     0
  9
$DIMALTTZ
 70
     0
  9
$DIMUPT
 70
     0
  9
$DIMDEC
 70
     2
  9
$DIMTDEC
 70
     2
  9
$DIMALTU
 70
     2
  9
$DIMALTTD
 70
     3
  9
$DIMTXSTY
  7
Standard
  9
$DIMAUNIT
 70
     0
  9
$DIMADEC
 70
     2
  9
$DIMALTRND
 40
0.0
  9
$DIMAZIN
 70
     0
  9
$DIMDSEP
 70
    44
  9
$DIMATFIT
 70
     3
  9
$DIMFRAC
 70
     0
  9
$DIMLDRBLK
  1

  9
$DIMLUNIT
 70
     2
  9
$DIMLWD
 70
    -2
  9
$DIMLWE
 70
    -2
  9
$DIMTMOVE
 70
     0
  9
$DIMFXL
 40
1.0
  9
$DIMFXLON
 70
     0
  9
$DIMJOGANG
 40
0.7853981634
  9
$DIMTFILL
 70
     0
  9
$DIMTFILLCLR
 70
     0
  9
$DIMARCSYM
 70
     0
  9
$DIMLTYPE
  6

  9
$DIMLTEX1
  6

  9
$DIMLTEX2
  6

  9
$DIMTXTDIRECTION
 70
     0
  9
$LUNITS
 70
     2
  9
$LUPREC
 70
     2
  9
$SKETCHINC
 40
1.0
  9
$FILLETRAD
 40
10.0
  9
$AUNITS
 70
     0
  9
$AUPREC
 70
     2
  9
$MENU
  1
.
  9
$ELEVATION
 40
0.0
  9
$PELEVATION
 40
0.0
  9
$THICKNESS
 40
0.0
  9
$LIMCHECK
 70
     0
  9
$CHAMFERA
 40
10.0
  9
$CHAMFERB
 40
10.0
  9
$CHAMFERC
 40
20.0
  9
$CHAMFERD
 40
0.0
  9
$SKPOLY
 70
     0
  9
$TDCREATE
 40
2456227.296708773
  9
$TDUCREATE
 40
2456227.21337544
  9
$TDUPDATE
 40
2456227.296715463
  9
$TDUUPDATE
 40
2456227.21338213
  9
$TDINDWG
 40
0.0000000116
  9
$TDUSRTIMER
 40
0.0000000116
  9
$USRTIMER
 70
     1
  9
$ANGBASE
 50
0.0
  9
$ANGDIR
 70
     0
  9
$PDMODE
 70
     0
  9
$PDSIZE
 40
-1.0
  9
$PLINEWID
 40
0.0
  9
$SPLFRAME
 70
     0
  9
$SPLINETYPE
 70
     6
  9
$SPLINESEGS
 70
     8
  9
$HANDSEED
  5
152
  9
$SURFTAB1
 70
     6
  9
$SURFTAB2
 70
     6
  9
$SURFTYPE
 70
     6
  9
$SURFU
 70
     6
  9
$SURFV
 70
     6
  9
$UCSBASE
  2

  9
$UCSNAME
  2

  9
$UCSORG
 10
0.0
 20
0.0
 30
0.0
  9
$UCSXDIR
 10
1.0
 20
0.0
 30
0.0
  9
$UCSYDIR
 10
0.0
 20
1.0
 30
0.0
  9
$UCSORTHOREF
  2

  9
$UCSORTHOVIEW
 70
     0
  9
$UCSORGTOP
 10
0.0
 20
0.0
 30
0.0
  9
$UCSORGBOTTOM
 10
0.0
 20
0.0
 30
0.0
  9
$UCSORGLEFT
 10
0.0
 20
0.0
 30
0.0
  9
$UCSORGRIGHT
 10
0.0
 20
0.0
 30
0.0
  9
$UCSORGFRONT
 10
0.0
 20
0.0
 30
0.0
  9
$UCSORGBACK
 10
0.0
 20
0.0
 30
0.0
  9
$PUCSBASE
  2

  9
$PUCSNAME
  2

  9
$PUCSORG
 10
0.0
 20
0.0
 30
0.0
  9
$PUCSXDIR
 10
1.0
 20
0.0
 30
0.0
  9
$PUCSYDIR
 10
0.0
 20
1.0
 30
0.0
  9
$PUCSORTHOREF
  2

  9
$PUCSORTHOVIEW
 70
     0
  9
$PUCSORGTOP
 10
0.0
 20
0.0
 30
0.0
  9
$PUCSORGBOTTOM
 10
0.0
 20
0.0
 30
0.0
  9
$PUCSORGLEFT
 10
0.0
 20
0.0
 30
0.0
  9
$PUCSORGRIGHT
 10
0.0
 20
0.0
 30
0.0
  9
$PUCSORGFRONT
 10
0.0
 20
0.0
 30
0.0
  9
$PUCSORGBACK
 10
0.0
 20
0.0
 30
0.0
  9
$USERI1
 70
     0
  9
$USERI2
 70
     0
  9
$USERI3
 70
     0
  9
$USERI4
 70
     0
  9
$USERI5
 70
     0
  9
$USERR1
 40
0.0
  9
$USERR2
 40
0.0
  9
$USERR3
 40
0.0
  9
$USERR4
 40
0.0
  9
$USERR5
 40
0.0
  9
$WORLDVIEW
 70
     1
  9
$SHADEDGE
 70
     3
  9
$SHADEDIF
 70
    70
  9
$TILEMODE
 70
     1
  9
$MAXACTVP
 70
    64
  9
$PINSBASE
 10
0.0
 20
0.0
 30
0.0
  9
$PLIMCHECK
 70
     0
  9
$PEXTMIN
 10
1.0000000000E+20
 20
1.0000000000E+20
 30
1.0000000000E+20
  9
$PEXTMAX
 10
-1.0000000000E+20
 20
-1.0000000000E+20
 30
-1.0000000000E+20
  9
$PLIMMIN
 10
0.0
 20
0.0
  9
$PLIMMAX
 10
420.0
 20
297.0
  9
$UNITMODE
 70
     0
  9
$VISRETAIN
 70
     1
  9
$PLINEGEN
 70
     0
  9
$PSLTSCALE
 70
     1
  9
$TREEDEPTH
 70
  3020
  9
$CMLSTYLE
  2
Standard
  9
$CMLJUST
 70
     0
  9
$CMLSCALE
 40
20.0
  9
$PROXYGRAPHICS
 70
     1
  9
$MEASUREMENT
 70
     1
  9
$CELWEIGHT
370
    -1
  9
$ENDCAPS
280
     0
  9
$JOINSTYLE
280
     0
  9
$LWDISPLAY
290
     1
  9
$INSUNITS
 70
     4
  9
$HYPERLINKBASE
  1

  9
$STYLESHEET
  1

  9
$XEDIT
290
     1
  9
$CEPSNTYPE
380
     0
  9
$PSTYLEMODE
290
     1
  9
$FINGERPRINTGUID
  2
{CE00D21B-2EAC-4CB1-B4A2-DAB8BECC0AB2}
  9
$VERSIONGUID
  2
{FAEB1C32-E019-11D5-929B-00C0DF256EC4}
  9
$EXTNAMES
290
     1
  9
$PSVPSCALE
 40
0.0
  9
$OLESTARTUP
290
     0
  9
$SORTENTS
280
   127
  9
$INDEXCTL
280
     0
  9
$HIDETEXT
280
     1
  9
$XCLIPFRAME
280
     2
  9
$HALOGAP
280
     0
  9
$OBSCOLOR
 70
   257
  9
$OBSLTYPE
280
     0
  9
$INTERSECTIONDISPLAY
280
     0
  9
$INTERSECTIONCOLOR
 70
   257
  9
$DIMASSOC
280
     2
  9
$PROJECTNAME
  1

  9
$CAMERADISPLAY
290
     0
  9
$LENSLENGTH
 40
50.0
  9
$CAMERAHEIGHT
 40
0.0
  9
$STEPSPERSEC
 40
2.0
  9
$STEPSIZE
 40
6.0
  9
$3DDWFPREC
 40
2.0
  9
$PSOLWIDTH
 40
5.0
  9
$PSOLHEIGHT
 40
80.0
  9
$LOFTANG1
 40
1.5707963268
  9
$LOFTANG2
 40
1.5707963268
  9
$LOFTMAG1
 40
0.0
  9
$LOFTMAG2
 40
0.0
  9
$LOFTPARAM
 70
     7
  9
$LOFTNORMALS
280
     1
  9
$LATITUDE
 40
37.795
  9
$LONGITUDE
 40
-122.394
  9
$NORTHDIRECTION
 40
0.0
  9
$TIMEZONE
 70
 -8000
  9
$LIGHTGLYPHDISPLAY
280
     1
  9
$TILEMODELIGHTSYNCH
280
     1
  9
$SOLIDHIST
280
     1
  9
$SHOWHIST
280
     1
  9
$DWFFRAME
280
     2
  9
$DGNFRAME
280
     2
  9
$REALWORLDSCALE
290
     1
  9
$INTERFERECOLOR
 62
   256
  9
$CSHADOW
280
     0
  9
$SHADOWPLANELOCATION
 40
0.0
  0
ENDSEC
  0
SECTION
  2
CLASSES
  0
CLASS
  1
ACDBDICTIONARYWDFLT
  2
AcDbDictionaryWithDefault
  3
ObjectDBX Classes
 90
        0
 91
        4
280
     0
281
     0
  0
CLASS
  1
VISUALSTYLE
  2
AcDbVisualStyle
  3
ObjectDBX Classes
 90
     4095
 91
        4
280
     0
281
     0
  0
CLASS
  1
MATERIAL
  2
AcDbMaterial
  3
ObjectDBX Classes
 90
     1153
 91
        4
280
     0
281
     0
  0
ENDSEC
  0
SECTION
  2
TABLES
  0
TABLE
  2
VPORT
  5
8
330
0
100
AcDbSymbolTable
 70
     1
  0
VPORT
  5
29
330
8
100
AcDbSymbolTableRecord
100
AcDbViewportTableRecord
  2
*Active
 70
     0
 10
0.0
 20
0.0
 11
1.0
 21
1.0
 12
297.0
 22
420.5
 13
0.0
 23
0.0
 14
10.0
 24
10.0
 15
10.0
 25
10.0
 16
0.0
 26
0.0
 36
1.0
 17
0.0
 27
0.0
 37
0.0
 40
841.0
 41
0.7063020214
 42
50.0
 43
0.0
 44
0.0
 50
0.0
 51
0.0
 71
     0
 72
  2000
 73
     1
 74
     3
 75
     0
 76
     0
 77
     0
 78
     0
281
     0
 65
     1
110
0.0
120
0.0
130
0.0
111
1.0
121
0.0
131
0.0
112
0.0
122
1.0
132
0.0
 79
     0
146
0.0
 60
     3
 61
     5
292
     1
282
     1
141
0.0
142
0.0
 63
   250
  0
ENDTAB
  0
TABLE
  2
LTYPE
  5
5
330
0
100
AcDbSymbolTable
 70
     6
  0
LTYPE
  5
14
330
5
100
AcDbSymbolTableRecord
100
AcDbLinetypeTableRecord
  2
ByBlock
 70
     0
  3

 72
    65
 73
     0
 40
0.0
  0
LTYPE
  5
15
330
5
100
AcDbSymbolTableRecord
100
AcDbLinetypeTableRecord
  2
ByLayer
 70
     0
  3

 72
    65
 73
     0
 40
0.0
  0
LTYPE
  5
16
330
5
100
AcDbSymbolTableRecord
100
AcDbLinetypeTableRecord
  2
Continuous
 70
     0
  3
Solid line
 72
    65
 73
     0
 40
0.0
  0
LTYPE
  5
3F
330
5
100
AcDbSymbolTableRecord
100
AcDbLinetypeTableRecord
  2
HIDDEN
 70
     0
  3
Hidden __ __ __ __ __ __ __ __ __ __ __ __ __ __
 72
    65
 73
     2
 40
1.905
 49
1.27
 74
     0
 49
-0.635
 74
     0
  0
LTYPE
  5
40
330
5
100
AcDbSymbolTableRecord
100
AcDbLinetypeTableRecord
  2
PHANTOM
 70
     0
  3
Phantom ______  __  __  ______  __  __  ______
 72
    65
 73
     6
 40
12.7
 49
6.35
 74
     0
 49
-1.27
 74
     0
 49
1.27
 74
     0
 49
-1.27
 74
     0
 49
1.27
 74
     0
 49
-1.27
 74
     0
  0
LTYPE
  5
41
330
5
100
AcDbSymbolTableRecord
100
AcDbLinetypeTableRecord
  2
CENTER
 70
     0
  3
Center ____ _ ____ _ ____ _ ____ _ ____ _ ____
 72
    65
 73
     4
 40
10.16
 49
6.35
 74
     0
 49
-1.27
 74
     0
 49
1.27
 74
     0
 49
-1.27
 74
     0
  0
LTYPE
  5
42
330
5
100
AcDbSymbolTableRecord
100
AcDbLinetypeTableRecord
  2
CENTERX2
 70
     0
  3
Center (2x) ________  __  ________  __  _____
 72
    65
 73
     4
 40
20.32
 49
12.7
 74
     0
 49
-2.54
 74
     0
 49
2.54
 74
     0
 49
-2.54
 74
     0
  0
LTYPE
  5
43
330
5
100
AcDbSymbolTableRecord
100
AcDbLinetypeTableRecord
  2
DOT2
 70
     0
  3
Dot (.5x) ........................................
 72
    65
 73
     2
 40
0.635
 49
0.0
 74
     0
 49
-0.635
 74
     0
  0
ENDTAB
  0
TABLE
  2
LAYER
  5
2
330
0
100
AcDbSymbolTable
 70
     1
  0
LAYER
  5
10
330
2
100
AcDbSymbolTableRecord
100
AcDbLayerTableRecord
  2
0
 70
     0
 62
     7
  6
Continuous
370
    -3
390
F
347
3E
  0
ENDTAB
  0
TABLE
  2
STYLE
  5
3
330
0
100
AcDbSymbolTable
 70
     3
  0
STYLE
  5
11
330
3
100
AcDbSymbolTableRecord
100
AcDbTextStyleTableRecord
  2
Standard
 70
     0
 40
0.0
 41
1.0
 50
0.0
 71
     0
 42
10.0
  3
txt
  4

  0
STYLE
  5
49
330
3
100
AcDbSymbolTableRecord
100
AcDbTextStyleTableRecord
  2
SLDTEXTSTYLE0
 70
     0
 40
0.0
 41
0.96
 50
0.0
 71
     0
 42
0.2
  3
ISOCP3
  4

  0
STYLE
  5
60
330
3
100
AcDbSymbolTableRecord
100
AcDbTextStyleTableRecord
  2
SLDTEXTSTYLE1
 70
     0
 40
0.0
 41
0.605
 50
0.0
 71
     0
 42
0.2
  3
TXT
  4

  0
ENDTAB
  0
TABLE
  2
VIEW
  5
6
330
0
100
AcDbSymbolTable
 70
     0
  0
ENDTAB
  0
TABLE
  2
UCS
  5
7
330
0
100
AcDbSymbolTable
 70
     0
  0
ENDTAB
  0
TABLE
  2
APPID
  5
9
330
0
100
AcDbSymbolTable
 70
     1
  0
APPID
  5
12
330
9
100
AcDbSymbolTableRecord
100
AcDbRegAppTableRecord
  2
ACAD
 70
     0
  0
ENDTAB
  0
TABLE
  2
DIMSTYLE
  5
A
330
0
100
AcDbSymbolTable
 70
     2
100
AcDbDimStyleTable
  0
DIMSTYLE
105
27
330
A
100
AcDbSymbolTableRecord
100
AcDbDimStyleTableRecord
  2
ISO-25
 70
     0
 41
2.5
 42
0.625
 43
3.75
 44
1.25
 73
     0
 74
     0
 77
     1
 78
     8
140
2.5
141
2.5
143
0.0393700787
147
0.625
171
     3
172
     1
178
     0
271
     2
272
     2
274
     3
278
    44
283
     0
284
     8
340
11
  0
DIMSTYLE
105
4A
102
{ACAD_REACTORS
330
48
330
55
102
}
330
A
100
AcDbSymbolTableRecord
100
AcDbDimStyleTableRecord
  2
SLDDIMSTYLE0
 70
     0
 41
2.5
 44
0.0
 45
0.000000001
 73
     0
 74
     0
 77
     1
 78
    12
 79
     3
140
6.0
147
1.5
173
     1
178
     0
271
     2
272
     2
276
     2
284
    12
340
49
  0
ENDTAB
  0
TABLE
  2
BLOCK_RECORD
  5
1
330
0
100
AcDbSymbolTable
 70
     3
  0
BLOCK_RECORD
  5
1F
330
1
100
AcDbSymbolTableRecord
100
AcDbBlockTableRecord
  2
*Model_Space
340
22
 70
     0
280
     1
281
     0
  0
BLOCK_RECORD
  5
1B
330
1
100
AcDbSymbolTableRecord
100
AcDbBlockTableRecord
  2
*Paper_Space
340
1E
 70
     0
280
     1
281
     0
  0
BLOCK_RECORD
  5
23
330
1
100
AcDbSymbolTableRecord
100
AcDbBlockTableRecord
  2
*Paper_Space0
340
26
 70
     0
280
     1
281
     0
  0
BLOCK_RECORD
  5
4B
330
1
100
AcDbSymbolTableRecord
100
AcDbBlockTableRecord
  2
_D
340
0
 70
     0
280
     1
281
     0
  0
BLOCK_RECORD
  5
56
330
1
100
AcDbSymbolTableRecord
100
AcDbBlockTableRecord
  2
_D_1
340
0
 70
     0
280
     1
281
     0
  0
ENDTAB
  0
ENDSEC
  0
SECTION
  2
BLOCKS
  0
BLOCK
  5
20
330
1F
100
AcDbEntity
  8
0
100
AcDbBlockBegin
  2
*Model_Space
 70
     0
 10
0.0
 20
0.0
 30
0.0
  3
*Model_Space
  1

  0
ENDBLK
  5
21
330
1F
100
AcDbEntity
  8
0
100
AcDbBlockEnd
  0
BLOCK
  5
1C
330
1B
100
AcDbEntity
 67
     1
  8
0
100
AcDbBlockBegin
  2
*Paper_Space
 70
     0
 10
0.0
 20
0.0
 30
0.0
  3
*Paper_Space
  1

  0
ENDBLK
  5
1D
330
1B
100
AcDbEntity
 67
     1
  8
0
100
AcDbBlockEnd
  0
BLOCK
  5
24
330
23
100
AcDbEntity
  8
0
100
AcDbBlockBegin
  2
*Paper_Space0
 70
     0
 10
0.0
 20
0.0
 30
0.0
  3
*Paper_Space0
  1

  0
ENDBLK
  5
25
330
23
100
AcDbEntity
  8
0
100
AcDbBlockEnd
  0
BLOCK
  5
4C
330
4B
100
AcDbEntity
  8
0
100
AcDbBlockBegin
  2
_D
 70
     0
 10
0.0
 20
0.0
 30
0.0
  3
_D
  1

  0
SOLID
  5
4E
330
4B
100
AcDbEntity
  8
0
  6
Continuous
 62
     7
370
     0
100
AcDbTrace
 10
42.7614395004
 20
152.0299240879
 30
0.0
 11
42.4614395004
 21
149.5299240879
 31
0.0
 12
43.0614395004
 22
149.5299240879
 32
0.0
 13
43.0614395004
 23
149.5299240879
 33
0.0
  0
SOLID
  5
4F
330
4B
100
AcDbEntity
  8
0
  6
Continuous
 62
     7
370
     0
100
AcDbTrace
 10
42.7614395004
 20
52.0299240879
 30
0.0
 11
43.0614395004
 21
54.5299240879
 31
0.0
 12
42.4614395004
 22
54.5299240879
 32
0.0
 13
42.4614395004
 23
54.5299240879
 33
0.0
  0
LINE
  5
50
330
4B
100
AcDbEntity
  8
0
  6
Continuous
 62
     7
370
     0
100
AcDbLine
 10
56.6850079902
 20
152.0299240879
 30
0.0
 11
41.7614395004
 21
152.0299240879
 31
0.0
  0
LINE
  5
51
330
4B
100
AcDbEntity
  8
0
  6
Continuous
 62
     7
370
     0
100
AcDbLine
 10
56.6850079902
 20
52.0299240879
 30
0.0
 11
41.7614395004
 21
52.0299240879
 31
0.0
  0
LINE
  5
52
330
4B
100
AcDbEntity
  8
0
  6
Continuous
 62
     7
370
     0
100
AcDbLine
 10
42.7614395004
 20
152.0299240879
 30
0.0
 11
42.7614395004
 21
52.0299240879
 31
0.0
  0
MTEXT
  5
53
330
4B
100
AcDbEntity
  8
0
  6
Continuous
 62
     7
370
     0
100
AcDbMText
 10
35.0270332946
 20
91.6722208134
 30
0.1
 40
6.0
 41
0.0
 46
0.0
 71
     1
 72
     1
  1
100
  7
SLDTEXTSTYLE0
 11
-7.044195017643634E-15
 21
1.0
 31
0.0
 73
     1
 44
1.0
  0
MTEXT
  5
54
330
4B
100
AcDbEntity
  8
0
  6
Continuous
 62
     7
370
     0
100
AcDbMText
 10
35.0270332946
 20
108.4388881795
 30
0.1
 40
6.0
 41
0.0
 46
0.0
 71
     1
 72
     1
  1
mm
  7
SLDTEXTSTYLE0
 11
-7.044195017643634E-15
 21
1.0
 31
0.0
 73
     1
 44
1.0
  0
ENDBLK
  5
4D
330
4B
100
AcDbEntity
  8
0
100
AcDbBlockEnd
  0
BLOCK
  5
57
330
56
100
AcDbEntity
  8
0
100
AcDbBlockBegin
  2
_D_1
 70
     0
 10
0.0
 20
0.0
 30
0.0
  3
_D_1
  1

  0
SOLID
  5
59
330
56
100
AcDbEntity
  8
0
  6
Continuous
 62
     7
370
     0
100
AcDbTrace
 10
56.6850079902
 20
38.4602342313
 30
0.0
 11
59.1850079902
 21
38.1602342313
 31
0.0
 12
59.1850079902
 22
38.7602342313
 32
0.0
 13
59.1850079902
 23
38.7602342313
 33
0.0
  0
SOLID
  5
5A
330
56
100
AcDbEntity
  8
0
  6
Continuous
 62
     7
370
     0
100
AcDbTrace
 10
156.6850079902
 20
38.4602342313
 30
0.0
 11
154.1850079902
 21
38.7602342313
 31
0.0
 12
154.1850079902
 22
38.1602342313
 32
0.0
 13
154.1850079902
 23
38.1602342313
 33
0.0
  0
LINE
  5
5B
330
56
100
AcDbEntity
  8
0
  6
Continuous
 62
     7
370
     0
100
AcDbLine
 10
56.6850079902
 20
52.0299240879
 30
0.0
 11
56.6850079902
 21
37.4602342313
 31
0.0
  0
LINE
  5
5C
330
56
100
AcDbEntity
  8
0
  6
Continuous
 62
     7
370
     0
100
AcDbLine
 10
156.6850079902
 20
52.0299240879
 30
0.0
 11
156.6850079902
 21
37.4602342313
 31
0.0
  0
LINE
  5
5D
330
56
100
AcDbEntity
  8
0
  6
Continuous
 62
     7
370
     0
100
AcDbLine
 10
56.6850079902
 20
38.4602342313
 30
0.0
 11
156.6850079902
 21
38.4602342313
 31
0.0
  0
MTEXT
  5
5E
330
56
100
AcDbEntity
  8
0
  6
Continuous
 62
     7
370
     0
100
AcDbMText
 10
91.2668151533
 20
46.1946404371
 30
0.1
 40
6.0
 41
0.0
 46
0.0
 71
     1
 72
     1
  1
100
  7
SLDTEXTSTYLE0
 73
     1
 44
1.0
  0
MTEXT
  5
5F
330
56
100
AcDbEntity
  8
0
  6
Continuous
 62
     7
370
     0
100
AcDbMText
 10
108.0334825193
 20
46.1946404371
 30
0.1
 40
6.0
 41
0.0
 46
0.0
 71
     1
 72
     1
  1
mm
  7
SLDTEXTSTYLE0
 73
     1
 44
1.0
  0
ENDBLK
  5
58
330
56
100
AcDbEntity
  8
0
100
AcDbBlockEnd
  0
ENDSEC
  0
SECTION
  2
ENTITIES
  0
LINE
  5
44
330
1F
100
AcDbEntity
  8
0
  6
Continuous
 62
     7
370
    15
100
AcDbLine
 10
165.5906746122
 20
439.8034536684
 30
0.0
 11
166.0539023533
 21
438.7895845369
 31
0.0
  0
LINE
  5
45
330
1F
100
AcDbEntity
  8
0
  6
Continuous
 62
     7
370
    15
100
AcDbLine
 10
211.5906746121
 20
439.8034583976
 30
0.0
 11
210.9907489547
 21
438.6852396104
 31
0.0
  0
LINE
  5
46
330
1F
100
AcDbEntity
  8
0
  6
Continuous
 62
     7
370
     0
100
AcDbLine
 10
56.6850079902
 20
152.0299240879
 30
0.0
 11
56.6850079902
 21
52.0299240879
 31
0.0
  0
LINE
  5
47
330
1F
100
AcDbEntity
  8
0
  6
Continuous
 62
     7
370
     0
100
AcDbLine
 10
56.6850079902
 20
52.0299240879
 30
0.0
 11
156.6850079902
 21
52.0299240879
 31
0.0
  0
DIMENSION
  5
48
330
1F
100
AcDbEntity
  8
0
  6
Continuous
 62
     7
370
     0
100
AcDbDimension
280
     0
  2
_D
 10
42.7614395004
 20
52.0299240879
 30
0.0
 11
42.7614395004
 21
105.4472211621
 31
0.0
 70
   160
  1
<>mm
 71
     2
 42
-1.0
 73
     0
 74
     0
 75
     0
  3
SLDDIMSTYLE0
100
AcDbAlignedDimension
 13
56.6850079902
 23
152.0299240879
 33
0.0
 14
56.6850079902
 24
52.0299240879
 34
0.0
 50
90.0
100
AcDbRotatedDimension
  0
DIMENSION
  5
55
330
1F
100
AcDbEntity
  8
0
  6
Continuous
 62
     7
370
     0
100
AcDbDimension
280
     0
  2
_D_1
 10
156.6850079902
 20
38.4602342313
 30
0.0
 11
105.0418155019
 21
38.4602342313
 31
0.0
 70
   160
  1
<>mm
 71
     2
 42
-1.0
 73
     0
 74
     0
 75
     0
  3
SLDDIMSTYLE0
100
AcDbAlignedDimension
 13
56.6850079902
 23
52.0299240879
 33
0.0
 14
156.6850079902
 24
52.0299240879
 34
0.0
100
AcDbRotatedDimension
  0
MTEXT
  5
61
330
1F
100
AcDbEntity
  8
0
  6
Continuous
 62
     7
370
     0
100
AcDbMText
 10
278.2854526673
 20
45.9116341465
 30
0.0
 40
10.0
 41
0.0
 46
0.0
 71
     1
 72
     1
  1
32 260 05 75
  7
SLDTEXTSTYLE1
 73
     1
 44
1.0
  0
MTEXT
  5
62
330
1F
100
AcDbEntity
  8
0
  6
Continuous
 62
     7
370
     0
100
AcDbMText
 10
412.8252631579
 20
48.4342449499
 30
0.0
 40
10.0
 41
0.0
 46
0.0
 71
     1
 72
     1
  1
KLUDI GmbH & Co KG
  7
SLDTEXTSTYLE1
 73
     1
 44
1.0
  0
LINE
  5
63
330
1F
100
AcDbEntity
  8
0
  6
Continuous
 62
     7
370
    15
100
AcDbLine
 10
172.2480982677
 20
435.9811270727
 30
0.0
 11
168.455555522
 21
435.0162513485
 31
0.0
  0
LINE
  5
64
330
1F
100
AcDbEntity
  8
0
  6
Continuous
 62
     7
370
    15
100
AcDbLine
 10
208.7261154263
 20
435.0156611361
 30
0.0
 11
204.9126509667
 21
435.9855310334
 31
0.0
  0
SPLINE
  5
65
330
1F
100
AcDbEntity
  8
0
  6
Continuous
 62
     7
370
    15
100
AcDbSpline
210
0.0
220
0.0
230
1.0
 70
     8
 71
     3
 72
    11
 73
     7
 74
     0
 42
0.00000001
 43
0.00000001
 12
1.0
 22
0.0
 32
0.0
 13
1.0
 23
0.0
 33
0.0
 40
0.0
 40
0.0
 40
0.0
 40
0.0
 40
0.0922790383467676
 40
0.45441471291193
 40
0.8184431574721059
 40
1.0
 40
1.0
 40
1.0
 40
1.0
 10
176.5204696211724
 20
420.6000169155334
 30
0.0
 10
176.5113052548981
 20
420.6248237268557
 30
0.0
 10
176.4661766650887
 20
420.7469812639002
 30
0.0
 10
176.5133363804539
 20
420.7371136767168
 30
0.0
 10
176.4666088159381
 20
420.7504095427337
 30
0.0
 10
176.6117890078686
 20
420.7807762441054
 30
0.0
 10
176.6601012660403
 20
420.7908815063798
 30
0.0
  0
SPLINE
  5
66
330
1F
100
AcDbEntity
  8
0
  6
Continuous
 62
     7
370
    15
100
AcDbSpline
210
0.0
220
0.0
230
1.0
 70
     8
 71
     3
 72
    11
 73
     7
 74
     0
 42
0.00000001
 43
0.00000001
 12
1.0
 22
0.0
 32
0.0
 13
1.0
 23
0.0
 33
0.0
 40
0.0
 40
0.0
 40
0.0
 40
0.0
 40
0.254355789023538
 40
0.6075280241730424
 40
0.9565104167377702
 40
1.0
 40
1.0
 40
1.0
 40
1.0
 10
200.3723830519744
 20
420.8152253160456
 30
0.0
 10
200.4586140217159
 20
420.8022594410964
 30
0.0
 10
200.6645764292188
 20
420.7712904884345
 30
0.0
 10
200.6846046456637
 20
420.6974846281383
 30
0.0
 10
200.7094967617883
 20
420.7674676848321
 30
0.0
 10
200.6825222174757
 20
420.6754601678467
 30
0.0
 10
200.6795331844667
 20
420.6652648703042
 30
0.0
  0
LINE
  5
67
330
1F
100
AcDbEntity
  8
0
  6
Continuous
 62
     7
370
    15
100
AcDbLine
 10
176.8502937825
 20
414.3642674557
 30
0.0
 11
177.8286588516
 21
413.4269191628
 31
0.0
  0
LINE
  5
68
330
1F
100
AcDbEntity
  8
0
  6
Continuous
 62
     7
370
    15
100
AcDbLine
 10
199.3526903727
 20
413.4269191628
 30
0.0
 11
200.3310554418
 21
414.3642674557
 31
0.0
  0
LINE
  5
69
330
1F
100
AcDbEntity
  8
0
  6
Continuous
 62
     7
370
    15
100
AcDbLine
 10
200.5906746122
 20
414.8672377183
 30
0.0
 11
200.5906746122
 21
420.7747495951
 31
0.0
  0
LINE
  5
6A
330
1F
100
AcDbEntity
  8
0
  6
Continuous
 62
     7
370
    15
100
AcDbLine
 10
176.5906746122
 20
420.7755120819
 30
0.0
 11
176.5906746122
 21
414.8672377183
 31
0.0
  0
LINE
  5
6B
330
1F
100
AcDbEntity
  8
0
  6
Continuous
 62
     7
370
    15
100
AcDbLine
 10
203.8482701598
 20
470.6429603469
 30
0.0
 11
203.9963209185
 21
471.2249663026
 31
0.0
  0
LINE
  5
6C
330
1F
100
AcDbEntity
  8
0
  6
Continuous
 62
     7
370
    15
100
AcDbLine
 10
173.1766008316
 20
471.2238227844
 30
0.0
 11
173.3021759068
 21
470.728248616
 31
0.0
  0
SPLINE
  5
6D
330
1F
100
AcDbEntity
  8
0
  6
Continuous
 62
     7
370
    15
100
AcDbSpline
210
0.0
220
0.0
230
1.0
 70
     8
 71
     3
 72
    13
 73
     9
 74
     0
 42
0.00000001
 43
0.00000001
 12
1.0
 22
0.0
 32
0.0
 13
1.0
 23
0.0
 33
0.0
 40
0.0
 40
0.0
 40
0.0
 40
0.0
 40
0.1638488645358165
 40
0.3323059164741808
 40
0.499643271697636
 40
0.6669811724502783
 40
0.8354390921313825
 40
1.0
 40
1.0
 40
1.0
 40
1.0
 10
210.6481827269595
 20
472.6017576551724
 30
0.0
 10
208.2740923556989
 20
473.1513958759452
 30
0.0
 10
203.4591412185685
 20
474.2661306847618
 30
0.0
 10
196.0689838334145
 20
475.1243014294334
 30
0.0
 10
188.5911146184039
 20
475.4410119058936
 30
0.0
 10
181.1132314279071
 20
475.1243351796217
 30
0.0
 10
173.7125079136951
 20
474.2651821524129
 30
0.0
 10
168.8873062532226
 20
473.1476281502622
 30
0.0
 10
166.5029378625856
 20
472.5953900004277
 30
0.0
  0
LINE
  5
6E
330
1F
100
AcDbEntity
  8
0
  6
Continuous
 62
     7
370
    15
100
AcDbLine
 10
211.5906746122
 20
315.1443234973
 30
0.0
 11
211.5906746122
 21
433.6443255791
 31
0.0
  0
LINE
  5
6F
330
1F
100
AcDbEntity
  8
0
  6
Continuous
 62
     7
370
    15
100
AcDbLine
 10
165.5906746122
 20
433.6443255827
 30
0.0
 11
165.5906746122
 21
315.1443234973
 31
0.0
  0
LINE
  5
70
330
1F
100
AcDbEntity
  8
0
  6
Continuous
 62
     7
370
    15
100
AcDbLine
 10
211.5906746122
 20
439.8038209647
 30
0.0
 11
211.5906746122
 21
471.4442692043
 31
0.0
  0
LINE
  5
71
330
1F
100
AcDbEntity
  8
0
  6
Continuous
 62
     7
370
    15
100
AcDbLine
 10
165.5906746122
 20
471.4442691841
 30
0.0
 11
165.5906746122
 21
439.8167194818
 31
0.0
  0
ARC
  5
72
330
1F
100
AcDbEntity
  8
0
  6
Continuous
 62
     7
370
    15
100
AcDbCircle
 10
200.0906746122
 20
436.975397551
 30
0.0
 40
10.0
100
AcDbArc
 50
0.0
 51
9.0468459803
  0
ARC
  5
73
330
1F
100
AcDbEntity
  8
0
  6
Continuous
 62
     7
370
    15
100
AcDbCircle
 10
177.0906746122
 20
436.975397551
 30
0.0
 40
10.00000000000003
100
AcDbArc
 50
170.9531540197
 51
180.0
  0
LINE
  5
74
330
1F
100
AcDbEntity
  8
0
  6
Continuous
 62
     7
370
    15
100
AcDbLine
 10
167.0906746122
 20
436.975397551
 30
0.0
 11
167.0906746122
 21
435.1918979214
 31
0.0
  0
LINE
  5
75
330
1F
100
AcDbEntity
  8
0
  6
Continuous
 62
     7
370
    15
100
AcDbLine
 10
210.0906746122
 20
435.1917174421
 30
0.0
 11
210.0906746122
 21
436.975397551
 31
0.0
  0
ARC
  5
76
330
1F
100
AcDbEntity
  8
0
  6
Continuous
 62
     7
370
    15
100
AcDbCircle
 10
210.3906693353
 20
471.4442693458
 30
0.0
 40
1.199999943817534
100
AcDbArc
 50
0.0525311335
 51
76.8409966272
  0
ARC
  5
77
330
1F
100
AcDbEntity
  8
0
  6
Continuous
 62
     7
370
    15
100
AcDbCircle
 10
166.7906766146
 20
471.4442693085
 30
0.0
 40
1.199999981948854
100
AcDbArc
 50
104.0351851091
 51
180.0662911991
  0
SPLINE
  5
78
330
1F
100
AcDbEntity
  8
0
  6
Continuous
 62
     7
370
    15
100
AcDbSpline
210
0.0
220
0.0
230
1.0
 70
     8
 71
     3
 72
    11
 73
     7
 74
     0
 42
0.00000001
 43
0.00000001
 12
1.0
 22
0.0
 32
0.0
 13
1.0
 23
0.0
 33
0.0
 40
0.0
 40
0.0
 40
0.0
 40
0.0
 40
0.247580170119613
 40
0.5438588281636502
 40
0.8561470860859116
 40
0.9999999999999999
 40
0.9999999999999999
 40
0.9999999999999999
 40
0.9999999999999999
 10
166.095619026499
 20
438.7731875775507
 30
0.0
 10
166.2381757884734
 20
438.674150032023
 30
0.0
 10
166.5513299214426
 20
438.4565944683893
 30
0.0
 10
167.2512681041106
 20
438.2681969451176
 30
0.0
 10
167.9745977120448
 20
438.1649553895949
 30
0.0
 10
168.5360127316338
 20
438.1601833261819
 30
0.0
 10
168.7130657833412
 20
438.1586783639691
 30
0.0
  0
SPLINE
  5
79
330
1F
100
AcDbEntity
  8
0
  6
Continuous
 62
     7
370
    15
100
AcDbSpline
210
0.0
220
0.0
230
1.0
 70
     8
 71
     3
 72
    12
 73
     8
 74
     0
 42
0.00000001
 43
0.00000001
 12
1.0
 22
0.0
 32
0.0
 13
1.0
 23
0.0
 33
0.0
 40
0.0
 40
0.0
 40
0.0
 40
0.0
 40
0.0454060393041597
 40
0.3390262305859533
 40
0.6322475227993812
 40
0.9242155327674552
 40
1.0
 40
1.0
 40
1.0
 40
1.0
 10
208.2110359586444
 20
438.1499279988253
 30
0.0
 10
208.2750363453244
 20
438.1486575817865
 30
0.0
 10
208.7528981052286
 20
438.1391719559421
 30
0.0
 10
209.4671856527605
 20
438.194063682737
 30
0.0
 10
210.3132129138757
 20
438.3592957694718
 30
0.0
 10
210.8329503331732
 20
438.5481864296655
 30
0.0
 10
211.0231396483252
 20
438.7335781198737
 30
0.0
 10
211.0623328470544
 20
438.771782649667
 30
0.0
  0
SPLINE
  5
7A
330
1F
100
AcDbEntity
  8
0
  6
Continuous
 62
     7
370
    15
100
AcDbSpline
210
0.0
220
0.0
230
1.0
 70
     8
 71
     3
 72
    13
 73
     9
 74
     0
 42
0.00000001
 43
0.00000001
 12
1.0
 22
0.0
 32
0.0
 13
1.0
 23
0.0
 33
0.0
 40
0.0
 40
0.0
 40
0.0
 40
0.0
 40
0.0130436924019971
 40
0.2627485562792408
 40
0.5327992647036071
 40
0.7552970988515824
 40
0.9572536288667924
 40
1.0
 40
1.0
 40
1.0
 40
1.0
 10
210.0500082429172
 20
435.1920489667327
 30
0.0
 10
210.0483881802248
 20
435.192064321402
 30
0.0
 10
210.015754082426
 20
435.1923736216401
 30
0.0
 10
209.8507701076176
 20
435.1893395572922
 30
0.0
 10
209.4368206664013
 20
435.2082522325784
 30
0.0
 10
208.8595598871605
 20
435.2859775788999
 30
0.0
 10
208.3765237086986
 20
435.3645777461811
 30
0.0
 10
208.029182679095
 20
435.4312530743916
 30
0.0
 10
207.9685067799064
 20
435.4429003753094
 30
0.0
  0
SPLINE
  5
7B
330
1F
100
AcDbEntity
  8
0
  6
Continuous
 62
     7
370
    15
100
AcDbSpline
210
0.0
220
0.0
230
1.0
 70
     8
 71
     3
 72
    13
 73
     9
 74
     0
 42
0.00000001
 43
0.00000001
 12
1.0
 22
0.0
 32
0.0
 13
1.0
 23
0.0
 33
0.0
 40
0.0
 40
0.0
 40
0.0
 40
0.0
 40
0.0799848601567117
 40
0.1552366516012029
 40
0.2269215083447366
 40
0.3344104090468972
 40
0.5569372803900979
 40
1.0
 40
1.0
 40
1.0
 40
1.0
 10
210.1419886183242
 20
435.18364228007
 30
0.0
 10
210.1354780005759
 20
435.1851671953528
 30
0.0
 10
210.1228420280042
 20
435.1881267897311
 30
0.0
 10
210.1091801736543
 20
435.1897594200415
 30
0.0
 10
210.0992014993861
 20
435.1907977705305
 30
0.0
 10
210.0905615001177
 20
435.1913698625123
 30
0.0
 10
210.0835187010874
 20
435.1916832854444
 30
0.0
 10
210.0818065861492
 20
435.1917087095013
 30
0.0
 10
210.0806668833787
 20
435.1917256335216
 30
0.0
  0
SPLINE
  5
7C
330
1F
100
AcDbEntity
  8
0
  6
Continuous
 62
     7
370
    15
100
AcDbSpline
210
0.0
220
0.0
230
1.0
 70
     8
 71
     3
 72
    10
 73
     6
 74
     0
 42
0.00000001
 43
0.00000001
 12
1.0
 22
0.0
 32
0.0
 13
1.0
 23
0.0
 33
0.0
 40
0.0
 40
0.0
 40
0.0
 40
0.0
 40
0.5247205957231769
 40
0.9844580455989904
 40
1.0
 40
1.0
 40
1.0
 40
1.0
 10
167.111585276643
 20
435.1919749723351
 30
0.0
 10
167.10476767336
 20
435.1913239870895
 30
0.0
 10
167.0919767814868
 20
435.1901026367789
 30
0.0
 10
167.1210823572255
 20
435.1953457353261
 30
0.0
 10
167.0759486170357
 20
435.1901550312281
 30
0.0
 10
167.0744727135448
 20
435.1899852917324
 30
0.0
  0
SPLINE
  5
7D
330
1F
100
AcDbEntity
  8
0
  6
Continuous
 62
     7
370
    15
100
AcDbSpline
210
0.0
220
0.0
230
1.0
 70
     8
 71
     3
 72
    13
 73
     9
 74
     0
 42
0.00000001
 43
0.00000001
 12
1.0
 22
0.0
 32
0.0
 13
1.0
 23
0.0
 33
0.0
 40
0.0
 40
0.0
 40
0.0
 40
0.0
 40
0.0173782075782283
 40
0.1999194239802836
 40
0.4162071942660502
 40
0.6533832407221593
 40
0.9298611097116857
 40
1.0
 40
1.0
 40
1.0
 40
1.0
 10
169.2064131793014
 20
435.441019286969
 30
0.0
 10
169.1817200650166
 20
435.436236192434
 30
0.0
 10
168.8976497337205
 20
435.38121132868
 30
0.0
 10
168.4606169225281
 20
435.3086628598043
 30
0.0
 10
167.8972607514899
 20
435.2250057051697
 30
0.0
 10
167.4467408885179
 20
435.1918162029332
 30
0.0
 10
167.2137974637945
 20
435.19171658526
 30
0.0
 10
167.158204442829
 20
435.1918662756283
 30
0.0
 10
167.1469550364055
 20
435.1918965659015
 30
0.0
  0
SPLINE
  5
7E
330
1F
100
AcDbEntity
  8
0
  6
Continuous
 62
     7
370
    15
100
AcDbSpline
210
0.0
220
0.0
230
1.0
 70
     8
 71
     3
 72
    14
 73
    10
 74
     0
 42
0.00000001
 43
0.00000001
 12
1.0
 22
0.0
 32
0.0
 13
1.0
 23
0.0
 33
0.0
 40
0.0
 40
0.0
 40
0.0
 40
0.0
 40
0.1405539352542402
 40
0.3802477416061635
 40
0.5746317946839127
 40
0.7388655102371183
 40
0.8758793782506211
 40
0.9849775138435395
 40
1.0
 40
1.0
 40
1.0
 40
1.0
 10
211.5660872186254
 20
433.6444291624852
 30
0.0
 10
211.5702833374115
 20
433.7415865875687
 30
0.0
 10
211.581635311933
 20
434.0044315331866
 30
0.0
 10
211.4192082873166
 20
434.3805790220381
 30
0.0
 10
211.169633730186
 20
434.7089682526768
 30
0.0
 10
210.8985246765104
 20
434.9215923580826
 30
0.0
 10
210.6439951116441
 20
435.0444103344682
 30
0.0
 10
210.4722385720476
 20
435.100703738035
 30
0.0
 10
210.3879628504239
 20
435.1136399829024
 30
0.0
 10
210.3777628462378
 20
435.1152056740559
 30
0.0
  0
SPLINE
  5
7F
330
1F
100
AcDbEntity
  8
0
  6
Continuous
 62
     7
370
    15
100
AcDbSpline
210
0.0
220
0.0
230
1.0
 70
     8
 71
     3
 72
    13
 73
     9
 74
     0
 42
0.00000001
 43
0.00000001
 12
1.0
 22
0.0
 32
0.0
 13
1.0
 23
0.0
 33
0.0
 40
0.0
 40
0.0
 40
0.0
 40
0.0
 40
0.0078103169789735
 40
0.1408327304324371
 40
0.3424226379636607
 40
0.5875568248896348
 40
0.8435627396491883
 40
1.0
 40
1.0
 40
1.0
 40
1.0
 10
166.7897946573187
 20
435.1129976540617
 30
0.0
 10
166.7845387188869
 20
435.1121913855084
 30
0.0
 10
166.6897655922231
 20
435.0976530508759
 30
0.0
 10
166.4676146826017
 20
435.0198391810472
 30
0.0
 10
166.120951357024
 20
434.8217746740358
 30
0.0
 10
165.8007687792733
 20
434.4580484694458
 30
0.0
 10
165.6051788763953
 20
434.0364703935139
 30
0.0
 10
165.6120172988385
 20
433.7535283742828
 30
0.0
 10
165.6146110720822
 20
433.6462101374983
 30
0.0
  0
SPLINE
  5
80
330
1F
100
AcDbEntity
  8
0
  6
Continuous
 62
     7
370
    15
100
AcDbSpline
210
0.0
220
0.0
230
1.0
 70
     8
 71
     3
 72
     9
 73
     5
 74
     0
 42
0.00000001
 43
0.00000001
 12
1.0
 22
0.0
 32
0.0
 13
1.0
 23
0.0
 33
0.0
 40
0.0
 40
0.0
 40
0.0
 40
0.0
 40
0.1738798364334357
 40
1.0
 40
1.0
 40
1.0
 40
1.0
 10
168.4368745160552
 20
435.0897067435115
 30
0.0
 10
168.3693054460822
 20
435.0896544228316
 30
0.0
 10
167.9807090949525
 20
435.0893535214685
 30
0.0
 10
167.4163428845864
 20
435.0894898839524
 30
0.0
 10
166.9501085785672
 20
435.08960253575
 30
0.0
  0
LINE
  5
81
330
1F
100
AcDbEntity
  8
0
  6
Continuous
 62
     7
370
    15
100
AcDbLine
 10
210.2312951039
 20
435.0895884679
 30
0.0
 11
208.7448963534
 21
435.0895525122
 31
0.0
  0
SPLINE
  5
82
330
1F
100
AcDbEntity
  8
0
  6
Continuous
 62
     7
370
    15
100
AcDbSpline
210
0.0
220
0.0
230
1.0
 70
     8
 71
     3
 72
    10
 73
     6
 74
     0
 42
0.00000001
 43
0.00000001
 12
1.0
 22
0.0
 32
0.0
 13
1.0
 23
0.0
 33
0.0
 40
0.0
 40
0.0
 40
0.0
 40
0.0
 40
0.2993909802095625
 40
0.770092608838207
 40
0.9999999999999999
 40
0.9999999999999999
 40
0.9999999999999999
 40
0.9999999999999999
 10
176.5906746121507
 20
419.3630390210153
 30
0.0
 10
176.4889812789879
 20
419.4960100564459
 30
0.0
 10
176.2274059830926
 20
419.8380377671771
 30
0.0
 10
176.0162376794937
 20
420.2248678652562
 30
0.0
 10
176.0263401987301
 20
420.3879539954222
 30
0.0
 10
176.0296553770623
 20
420.4414713005981
 30
0.0
  0
SPLINE
  5
83
330
1F
100
AcDbEntity
  8
0
  6
Continuous
 62
     7
370
    15
100
AcDbSpline
210
0.0
220
0.0
230
1.0
 70
     8
 71
     3
 72
    37
 73
    33
 74
     0
 42
0.00000001
 43
0.00000001
 12
1.0
 22
0.0
 32
0.0
 13
1.0
 23
0.0
 33
0.0
 40
0.0
 40
0.0
 40
0.0
 40
0.0
 40
0.0364078147571752
 40
0.0952073628761056
 40
0.1550079426260799
 40
0.1877047983133266
 40
0.2206323690251552
 40
0.2542991051228258
 40
0.2882261556724527
 40
0.3201671346327801
 40
0.3523354863627593
 40
0.3852275575121645
 40
0.4183723798843402
 40
0.4496610013136711
 40
0.4814018170676648
 40
0.5133728351987141
 40
0.5458170231361432
 40
0.5767855802273419
 40
0.6081909051080265
 40
0.6398174936610928
 40
0.67189725101162
 40
0.703015479524208
 40
0.7345638352001549
 40
0.7663293208300965
 40
0.7985381694370114
 40
0.8301463627579916
 40
0.8621812529997587
 40
0.8944304568197898
 40
0.9271165029412852
 40
0.9594090772325183
 40
0.9919222908622154
 40
1.0
 40
1.0
 40
1.0
 40
1.0
 10
176.4159793498674
 20
420.8450182530116
 30
0.0
 10
176.5152688094522
 20
420.8640962168014
 30
0.0
 10
176.774913275112
 20
420.9139855780166
 30
0.0
 10
177.4917289039838
 20
420.894082381078
 30
0.0
 10
178.3750749940934
 20
420.8690759267022
 30
0.0
 10
179.2431389351382
 20
420.847316640624
 30
0.0
 10
179.9977201978292
 20
420.8331795703413
 30
0.0
 10
180.827229127521
 20
420.8213958166487
 30
0.0
 10
181.7083697087332
 20
420.8121529042979
 30
0.0
 10
182.6273841431873
 20
420.8049190396277
 30
0.0
 10
183.5798306786452
 20
420.7991572109123
 30
0.0
 10
184.5815977053769
 20
420.7944775452032
 30
0.0
 10
185.6047155090297
 20
420.79092105296
 30
0.0
 10
186.6373571624605
 20
420.7885002048195
 30
0.0
 10
187.6713037813012
 20
420.7872352020224
 30
0.0
 10
188.7245120792505
 20
420.7871389827397
 30
0.0
 10
189.7683494545162
 20
420.7882080920396
 30
0.0
 10
190.7974243004629
 20
420.790387918608
 30
0.0
 10
191.8023747709458
 20
420.7935836901289
 30
0.0
 10
192.796506040171
 20
420.7978211120994
 30
0.0
 10
193.7578557522646
 20
420.8030562447638
 30
0.0
 10
194.6821658033361
 20
420.8094069541904
 30
0.0
 10
195.5615951026354
 20
420.8171078095969
 30
0.0
 10
196.4025605941326
 20
420.8266899212977
 30
0.0
 10
197.1894386470645
 20
420.8384967535851
 30
0.0
 10
197.9188075304437
 20
420.8527769014996
 30
0.0
 10
198.5847233786969
 20
420.8694666187552
 30
0.0
 10
199.188482748688
 20
420.886973659228
 30
0.0
 10
199.7223004182609
 20
420.9023493138275
 30
0.0
 10
200.1737440552586
 20
420.9062050071615
 30
0.0
 10
200.4712415365691
 20
420.9039389063693
 30
0.0
 10
200.5899423214455
 20
420.8854070936703
 30
0.0
 10
200.6135641154153
 20
420.8817192102084
 30
0.0
  0
SPLINE
  5
84
330
1F
100
AcDbEntity
  8
0
  6
Continuous
 62
     7
370
    15
100
AcDbSpline
210
0.0
220
0.0
230
1.0
 70
     8
 71
     3
 72
    11
 73
     7
 74
     0
 42
0.00000001
 43
0.00000001
 12
1.0
 22
0.0
 32
0.0
 13
1.0
 23
0.0
 33
0.0
 40
0.0
 40
0.0
 40
0.0
 40
0.0
 40
0.0183368166739661
 40
0.4996208248350915
 40
0.6285147817413089
 40
1.0
 40
1.0
 40
1.0
 40
1.0
 10
201.1798436996438
 20
420.5048627605382
 30
0.0
 10
201.1816626887233
 20
420.5014086825387
 30
0.0
 10
201.2312244442031
 20
420.4072958749642
 30
0.0
 10
201.1180839572499
 20
420.1717906804604
 30
0.0
 10
200.9143708258287
 20
419.7897499676214
 30
0.0
 10
200.7285955543233
 20
419.5529458766651
 30
0.0
 10
200.5906746121507
 20
419.3771407597065
 30
0.0
  0
LINE
  5
85
330
1F
100
AcDbEntity
  8
0
  6
Continuous
 62
     7
370
    15
100
AcDbLine
 10
166.9501955784
 20
435.0897816611
 30
0.0
 11
166.7934378268
 21
435.0897801287
 31
0.0
  0
LINE
  5
86
330
1F
100
AcDbEntity
  8
0
  6
Continuous
 62
     7
370
    15
100
AcDbLine
 10
210.3879131076
 20
435.0897791395
 30
0.0
 11
210.2311641525
 21
435.0897805751
 31
0.0
  0
SPLINE
  5
87
330
1F
100
AcDbEntity
  8
0
  6
Continuous
 62
     7
370
    15
100
AcDbSpline
210
0.0
220
0.0
230
1.0
 70
     8
 71
     3
 72
    10
 73
     6
 74
     0
 42
0.00000001
 43
0.00000001
 12
1.0
 22
0.0
 32
0.0
 13
1.0
 23
0.0
 33
0.0
 40
0.0
 40
0.0
 40
0.0
 40
0.0
 40
0.0498517945460319
 40
0.7875118523386315
 40
1.0
 40
1.0
 40
1.0
 40
1.0
 10
169.1799110670508
 20
435.4346401271785
 30
0.0
 10
169.1647079089644
 20
435.4318104481538
 30
0.0
 10
168.9245426893358
 20
435.3871098352563
 30
0.0
 10
168.6224066772243
 20
435.3307590647244
 30
0.0
 10
168.4442382383296
 20
435.3080366642773
 30
0.0
 10
168.4043932106432
 20
435.3029550983135
 30
0.0
  0
SPLINE
  5
88
330
1F
100
AcDbEntity
  8
0
  6
Continuous
 62
     7
370
    15
100
AcDbSpline
210
0.0
220
0.0
230
1.0
 70
     8
 71
     3
 72
    11
 73
     7
 74
     0
 42
0.00000001
 43
0.00000001
 12
1.0
 22
0.0
 32
0.0
 13
1.0
 23
0.0
 33
0.0
 40
0.0
 40
0.0
 40
0.0
 40
0.0
 40
0.1211755338623557
 40
0.3829068688140879
 40
0.637351884262923
 40
1.0
 40
1.0
 40
1.0
 40
1.0
 10
167.8541315223216
 20
435.2290504969851
 30
0.0
 10
167.7815244251205
 20
435.21876056224
 30
0.0
 10
167.5520906825423
 20
435.1862450323478
 30
0.0
 10
167.3465467935882
 20
435.1826439993201
 30
0.0
 10
167.0737725367935
 20
435.1817354923923
 30
0.0
 10
167.0737685133491
 20
435.181905220345
 30
0.0
 10
167.0737661488849
 20
435.1820049646446
 30
0.0
  0
SPLINE
  5
89
330
1F
100
AcDbEntity
  8
0
  6
Continuous
 62
     7
370
    15
100
AcDbSpline
210
0.0
220
0.0
230
1.0
 70
     8
 71
     3
 72
    12
 73
     8
 74
     0
 42
0.00000001
 43
0.00000001
 12
1.0
 22
0.0
 32
0.0
 13
1.0
 23
0.0
 33
0.0
 40
0.0
 40
0.0
 40
0.0
 40
0.0
 40
0.1809882608768742
 40
0.3930337889393426
 40
0.6066193247788486
 40
0.825093760437763
 40
1.0
 40
1.0
 40
1.0
 40
1.0
 10
167.0460455575503
 20
435.182013470884
 30
0.0
 10
167.0785570266817
 20
435.1819256229855
 30
0.0
 10
167.1491588758557
 20
435.1817348526435
 30
0.0
 10
167.4272765492677
 20
435.1817693926639
 30
0.0
 10
167.8710988220185
 20
435.1820826906554
 30
0.0
 10
168.4218274181625
 20
435.1818151293754
 30
0.0
 10
168.8957332683553
 20
435.181836611612
 30
0.0
 10
169.1064428821846
 20
435.1818461631163
 30
0.0
  0
SPLINE
  5
8A
330
1F
100
AcDbEntity
  8
0
  6
Continuous
 62
     7
370
    15
100
AcDbSpline
210
0.0
220
0.0
230
1.0
 70
     8
 71
     3
 72
    12
 73
     8
 74
     0
 42
0.00000001
 43
0.00000001
 12
1.0
 22
0.0
 32
0.0
 13
1.0
 23
0.0
 33
0.0
 40
0.0
 40
0.0
 40
0.0
 40
0.0
 40
0.0970264607319843
 40
0.3359287186202611
 40
0.5665068165400988
 40
0.7986905914656002
 40
1.0
 40
1.0
 40
1.0
 40
1.0
 10
208.0726713810493
 20
435.1818501004116
 30
0.0
 10
208.1838189269483
 20
435.1818420483908
 30
0.0
 10
208.5686382060394
 20
435.1818141703773
 30
0.0
 10
209.0695216592543
 20
435.1819663831531
 30
0.0
 10
209.5722032404934
 20
435.1819371715924
 30
0.0
 10
209.915622435233
 20
435.1816145874672
 30
0.0
 10
210.0219555206689
 20
435.1818030920378
 30
0.0
 10
210.0713354217919
 20
435.1818906314618
 30
0.0
  0
SPLINE
  5
8B
330
1F
100
AcDbEntity
  8
0
  6
Continuous
 62
     7
370
    15
100
AcDbSpline
210
0.0
220
0.0
230
1.0
 70
     8
 71
     3
 72
    13
 73
     9
 74
     0
 42
0.00000001
 43
0.00000001
 12
1.0
 22
0.0
 32
0.0
 13
1.0
 23
0.0
 33
0.0
 40
0.0
 40
0.0
 40
0.0
 40
0.0
 40
0.0359778966710009
 40
0.2142354734006513
 40
0.5759154508918674
 40
0.7594249987836748
 40
0.9219077988953428
 40
1.0
 40
1.0
 40
1.0
 40
1.0
 10
210.1405043031423
 20
435.1816608054509
 30
0.0
 10
210.144316569408
 20
435.1816355679234
 30
0.0
 10
210.1670172479834
 20
435.1814852874974
 30
0.0
 10
210.0154395998481
 20
435.1822942918417
 30
0.0
 10
209.6111008957415
 20
435.1826649746151
 30
0.0
 10
208.961034173092
 20
435.2684614599012
 30
0.0
 10
208.4612801647784
 20
435.3501415596583
 30
0.0
 10
208.1145788900213
 20
435.4139315374841
 30
0.0
 10
208.0020374142458
 20
435.4346381767926
 30
0.0
  0
SPLINE
  5
8C
330
1F
100
AcDbEntity
  8
0
  6
Continuous
 62
     7
370
    15
100
AcDbSpline
210
0.0
220
0.0
230
1.0
 70
     8
 71
     3
 72
    29
 73
    25
 74
     0
 42
0.00000001
 43
0.00000001
 12
1.0
 22
0.0
 32
0.0
 13
1.0
 23
0.0
 33
0.0
 40
0.0
 40
0.0
 40
0.0
 40
0.0
 40
0.0349809457284611
 40
0.0833998677827914
 40
0.1320688380217414
 40
0.1810697865050029
 40
0.2311245698251234
 40
0.2815495694498069
 40
0.3189294830772509
 40
0.356468498232454
 40
0.3945057014118808
 40
0.4327153688493774
 40
0.4795442360845735
 40
0.526701769806163
 40
0.5748951704767772
 40
0.6234449945648567
 40
0.6702377463354985
 40
0.7173470240226449
 40
0.7654350859018191
 40
0.8138535415138713
 40
0.8615831993763455
 40
0.9096266547819778
 40
0.9586543057320847
 40
1.0
 40
1.0
 40
1.0
 40
1.0
 10
204.9266746161488
 20
436.0407249587437
 30
0.0
 10
204.641604277319
 20
436.0965764552962
 30
0.0
 10
203.9619534539321
 20
436.2297348742853
 30
0.0
 10
202.7628326505221
 20
436.45211007608
 30
0.0
 10
201.3541260733375
 20
436.6968212566503
 30
0.0
 10
199.8365605591153
 20
436.9366754766915
 30
0.0
 10
198.2202286746893
 20
437.1623863257122
 30
0.0
 10
196.6626369636593
 20
437.3472299422175
 30
0.0
 10
195.2026839727846
 20
437.4914114186702
 30
0.0
 10
193.8582495563856
 20
437.6004861374233
 30
0.0
 10
192.4804443595785
 20
437.6869649601717
 30
0.0
 10
190.9711179122153
 20
437.7530765844639
 30
0.0
 10
189.3349693823036
 20
437.7895900914516
 30
0.0
 10
187.5700466857655
 20
437.7865319023327
 30
0.0
 10
185.7910132843591
 20
437.7401165895138
 30
0.0
 10
184.0368759519902
 20
437.6515291066596
 30
0.0
 10
182.3284012276798
 20
437.5251044179166
 30
0.0
 10
180.6683761575203
 20
437.3651536952624
 30
0.0
 10
179.0440915122107
 20
437.1736488445521
 30
0.0
 10
177.479279468831
 20
436.9574342668026
 30
0.0
 10
175.9898969255409
 20
436.7246661320523
 30
0.0
 10
174.5820014442351
 20
436.482558803596
 30
0.0
 10
173.3155012558851
 20
436.249183034641
 30
0.0
 10
172.5732914410448
 20
436.1040423849081
 30
0.0
 10
172.2337313637566
 20
436.0376407161945
 30
0.0
  0
LINE
  5
8D
330
1F
100
AcDbEntity
  8
0
  6
Continuous
 62
     7
370
    15
100
AcDbLine
 10
200.6759591985
 20
420.633845137
 30
0.0
 11
200.6629043859
 21
420.7003324469
 31
0.0
  0
LINE
  5
8E
330
1F
100
AcDbEntity
  8
0
  6
Continuous
 62
     7
370
    15
100
AcDbLine
 10
176.5200594899
 20
420.6971709867
 30
0.0
 11
176.5256698062
 21
420.5399328887
 31
0.0
  0
LWPOLYLINE
  5
8F
330
1F
100
AcDbEntity
  8
0
  6
Continuous
 62
     7
370
    15
100
AcDbPolyline
 90
       41
 70
   128
 43
0.0
 10
188.5906746122
 20
411.6594232255
 10
190.3114537276
 20
411.6868603988
 10
191.9898615503
 20
411.7684963246
 10
193.5845701093
 20
411.9023208552
 10
195.0563123874
 20
412.0850387868
 10
196.3688492052
 20
412.3121509974
 10
197.4898615503
 20
412.5780652306
 10
198.3917463782
 20
412.8762337955
 10
199.0522962914
 20
413.1993147925
 10
199.4552463587
 20
413.5393528951
 10
199.5906746122
 20
413.8879752368
 10
199.4552463587
 20
414.2365975785
 10
199.0522962914
 20
414.5766356811
 10
198.3917463782
 20
414.8997166781
 10
197.4898615503
 20
415.197885243
 10
196.3688492052
 20
415.4637994762
 10
195.0563123874
 20
415.6909116868
 10
193.5845701093
 20
415.8736296184
 10
191.9898615503
 20
416.007454149
 10
190.3114537276
 20
416.0890900748
 10
188.5906746122
 20
416.1165272481
 10
186.8698954967
 20
416.0890900748
 10
185.191487674
 20
416.007454149
 10
183.596779115
 20
415.8736296184
 10
182.1250368369
 20
415.6909116868
 10
180.8125000191
 20
415.4637994762
 10
179.691487674
 20
415.197885243
 10
178.7896028461
 20
414.8997166781
 10
178.1290529329
 20
414.5766356811
 10
177.7261028656
 20
414.2365975785
 10
177.5906746122
 20
413.8879752368
 10
177.7261028656
 20
413.5393528951
 10
178.1290529329
 20
413.1993147925
 10
178.7896028461
 20
412.8762337955
 10
179.691487674
 20
412.5780652306
 10
180.8125000191
 20
412.3121509974
 10
182.1250368369
 20
412.0850387868
 10
183.596779115
 20
411.9023208552
 10
185.191487674
 20
411.7684963246
 10
186.8698954967
 20
411.6868603988
 10
188.5906746122
 20
411.6594232255
  0
LWPOLYLINE
  5
90
330
1F
100
AcDbEntity
  8
0
  6
Continuous
 62
     7
370
    15
100
AcDbPolyline
 90
       25
 70
   128
 43
0.0
 10
176.8502937825
 20
414.3642674557
 10
176.624229046
 20
414.685557827
 10
176.624229046
 20
415.0489176096
 10
176.891539666
 20
415.4082189637
 10
177.4201896284
 20
415.7554356907
 10
178.1983697667
 20
416.0828115427
 10
179.2086968225
 20
416.3830334841
 10
180.4286017589
 20
416.6493950529
 10
181.8308339154
 20
416.8759461718
 10
183.3840697427
 20
417.0576260631
 10
185.0536125192
 20
417.1903762983
 10
186.802167418
 20
417.2712314564
 10
188.5906746122
 20
417.298385367
 10
190.3791818063
 20
417.2712314564
 10
192.1277367051
 20
417.1903762983
 10
193.7972794816
 20
417.0576260631
 10
195.3505153089
 20
416.8759461718
 10
196.7527474654
 20
416.6493950529
 10
197.9726524018
 20
416.3830334841
 10
198.9829794576
 20
416.0828115427
 10
199.7611595959
 20
415.7554356907
 10
200.2898095583
 20
415.4082189637
 10
200.5571201783
 20
415.0489176096
 10
200.5571201783
 20
414.685557827
 10
200.3310554418
 20
414.3642674557
  0
LINE
  5
91
330
1F
100
AcDbEntity
  8
0
  6
Continuous
 62
     7
370
    15
100
AcDbLine
 10
173.1303539236
 20
471.213940097
 30
0.0
 11
173.1399068571
 21
471.2140941727
 31
0.0
  0
LINE
  5
92
330
1F
100
AcDbEntity
  8
0
  6
Continuous
 62
     7
370
    15
100
AcDbLine
 10
204.0377261615
 20
471.2139274535
 30
0.0
 11
204.0510140811
 21
471.2140767876
 31
0.0
  0
LINE
  5
93
330
1F
100
AcDbEntity
  8
0
  6
Continuous
 62
     7
370
    15
100
AcDbLine
 10
204.0511248487
 20
471.2140774715
 30
0.0
 11
203.6938227399
 21
470.2081290553
 31
0.0
  0
LINE
  5
94
330
1F
100
AcDbEntity
  8
0
  6
Continuous
 62
     7
370
    15
100
AcDbLine
 10
173.1302516186
 20
471.2139425001
 30
0.0
 11
173.3991963321
 21
470.4541615298
 31
0.0
  0
LINE
  5
95
330
1F
100
AcDbEntity
  8
0
  6
Continuous
 62
     7
370
    15
100
AcDbLine
 10
166.5006745331
 20
472.606053486
 30
0.0
 11
166.5004424505
 21
472.6060354769
 31
0.0
  0
LINE
  5
96
330
1F
100
AcDbEntity
  8
0
  6
Continuous
 62
     7
370
    15
100
AcDbLine
 10
210.6622567777
 20
472.6060674185
 30
0.0
 11
210.6491036331
 21
472.6060970104
 31
0.0
  0
SPLINE
  5
97
330
1F
100
AcDbEntity
  8
0
  6
Continuous
 62
     7
370
    15
100
AcDbSpline
210
0.0
220
0.0
230
1.0
 70
     8
 71
     3
 72
    32
 73
    28
 74
     0
 42
0.00000001
 43
0.00000001
 12
1.0
 22
0.0
 32
0.0
 13
1.0
 23
0.0
 33
0.0
 40
0.0
 40
0.0
 40
0.0
 40
0.0
 40
0.0625000000000001
 40
0.0625000000000001
 40
0.1250000000000001
 40
0.1250000000000001
 40
0.1875000000000002
 40
0.1875000000000002
 40
0.2500000000000002
 40
0.2500000000000002
 40
0.3125000000000002
 40
0.3125000000000002
 40
0.3750000000000002
 40
0.3750000000000002
 40
0.4375000000000003
 40
0.4375000000000003
 40
0.5000000000000002
 40
0.5000000000000002
 40
0.5625000000000003
 40
0.5625000000000003
 40
0.6250000000000002
 40
0.6250000000000002
 40
0.7500000000000001
 40
0.7500000000000001
 40
0.8750000000000001
 40
0.8750000000000001
 40
1.0
 40
1.0
 40
1.0
 40
1.0
 10
188.5906842989293
 20
452.394323497261
 30
0.0
 10
188.3723282373755
 20
452.3943239949474
 30
0.0
 10
188.1542209146375
 20
452.3775987675324
 30
0.0
 10
187.7185184275776
 20
452.3097112263535
 30
0.0
 10
187.5036142046809
 20
452.2587182113816
 30
0.0
 10
187.08868085308
 20
452.1260265174249
 30
0.0
 10
186.8871725468309
 20
452.0441129668337
 30
0.0
 10
186.4960820661044
 20
451.8487747737096
 30
0.0
 10
186.3076002078509
 20
451.7355482965713
 30
0.0
 10
185.9546569925032
 20
451.4850921818085
 30
0.0
 10
185.7885842909642
 20
451.3471064035699
 30
0.0
 10
185.4771360179843
 20
451.0452554054003
 30
0.0
 10
185.3316891594945
 20
450.8807803408645
 30
0.0
 10
185.0709775644076
 20
450.5361669138812
 30
0.0
 10
184.9543318649952
 20
450.354844450915
 30
0.0
 10
184.7484874055622
 20
449.9738012727078
 30
0.0
 10
184.6587749836414
 20
449.7722359726998
 30
0.0
 10
184.5129629693214
 20
449.3617804674603
 30
0.0
 10
184.4562291912941
 20
449.1523665533916
 30
0.0
 10
184.3749327929085
 20
448.725108013702
 30
0.0
 10
184.3503354988118
 20
448.5056469954774
 30
0.0
 10
184.3283864112391
 20
447.8451226312358
 30
0.0
 10
184.381054209116
 20
447.4110106547722
 30
0.0
 10
184.6226959689949
 20
446.5588276284407
 30
0.0
 10
184.8053119874456
 20
446.1624235505964
 30
0.0
 10
185.2927600651794
 20
445.4275869918263
 30
0.0
 10
185.5877983050115
 20
445.104934998773
 30
0.0
 10
185.9300673926228
 20
444.8301615785668
 30
0.0
  0
SPLINE
  5
98
330
1F
100
AcDbEntity
  8
0
  6
Continuous
 62
     7
370
    15
100
AcDbSpline
210
0.0
220
0.0
230
1.0
 70
     8
 71
     3
 72
    34
 73
    30
 74
     0
 42
0.00000001
 43
0.00000001
 12
1.0
 22
0.0
 32
0.0
 13
1.0
 23
0.0
 33
0.0
 40
0.0
 40
0.0
 40
0.0
 40
0.0
 40
0.0624999999999998
 40
0.0624999999999998
 40
0.1249999999999997
 40
0.1249999999999997
 40
0.2500000000000059
 40
0.2500000000000059
 40
0.3125000000000053
 40
0.3125000000000053
 40
0.3750000000000046
 40
0.3750000000000046
 40
0.4375000000000039
 40
0.4375000000000039
 40
0.5000000000000032
 40
0.5000000000000032
 40
0.5625000000000024
 40
0.5625000000000024
 40
0.6250000000000018
 40
0.6250000000000018
 40
0.687500000000001
 40
0.687500000000001
 40
0.7500000000000003
 40
0.7500000000000003
 40
0.8124999999999996
 40
0.8124999999999996
 40
0.8749999999999989
 40
0.8749999999999989
 40
1.0
 40
1.0
 40
1.0
 40
1.0
 10
191.2512819156245
 20
444.8301616459581
 30
0.0
 10
191.4211009093744
 20
444.9664922403316
 30
0.0
 10
191.5820436349404
 20
445.1173651171626
 30
0.0
 10
191.8782095022373
 20
445.4419393624971
 30
0.0
 10
192.0122268750273
 20
445.613927021272
 30
0.0
 10
192.3733097149676
 20
446.1584039288252
 30
0.0
 10
192.5606697276128
 20
446.5656385560821
 30
0.0
 10
192.7392030126671
 20
447.1957119064764
 30
0.0
 10
192.7825813262968
 20
447.410114977382
 30
0.0
 10
192.8360624560913
 20
447.8479688021787
 30
0.0
 10
192.8456145752919
 20
448.0692607591122
 30
0.0
 10
192.8309150977775
 20
448.5055839692969
 30
0.0
 10
192.8068891226129
 20
448.7222615801505
 30
0.0
 10
192.7251365412941
 20
449.1526398079289
 30
0.0
 10
192.6670946337454
 20
449.3659887882886
 30
0.0
 10
192.5213299973325
 20
449.7751559591375
 30
0.0
 10
192.4333149603547
 20
449.9729173894984
 30
0.0
 10
192.2269623312951
 20
450.3549912904815
 30
0.0
 10
192.10784578933
 20
450.5398963413874
 30
0.0
 10
191.8465306947016
 20
450.8845175617063
 30
0.0
 10
191.7036436292536
 20
451.0458126972079
 30
0.0
 10
191.393227698791
 20
451.346652630161
 30
0.0
 10
191.2240985124175
 20
451.487188591342
 30
0.0
 10
190.8696168717318
 20
451.7382198025573
 30
0.0
 10
190.6840800271832
 20
451.84933709547
 30
0.0
 10
190.2963235638144
 20
452.0430711998309
 30
0.0
 10
190.0927488291676
 20
452.1261104859091
 30
0.0
 10
189.4643098637036
 20
452.3267486014985
 30
0.0
 10
189.0335477565589
 20
452.3943245066982
 30
0.0
 10
188.5906649253721
 20
452.3943234972611
 30
0.0
  0
ARC
  5
99
330
1F
100
AcDbEntity
  8
0
  6
Continuous
 62
     7
370
    15
100
AcDbCircle
 10
188.5906746122
 20
448.1443234973
 30
0.0
 40
2.513862238026809
100
AcDbArc
 50
78.5275260255
 51
101.4724739745
  0
LINE
  5
9A
330
1F
100
AcDbEntity
  8
0
  6
Continuous
 62
     7
370
    15
100
AcDbLine
 10
188.0906746122
 20
445.680687292
 30
0.0
 11
188.0906746122
 21
450.6079597025
 31
0.0
  0
ARC
  5
9B
330
1F
100
AcDbEntity
  8
0
  6
Continuous
 62
     7
370
    15
100
AcDbCircle
 10
188.5906746122
 20
448.1443234973
 30
0.0
 40
2.513862238026864
100
AcDbArc
 50
258.5275260255
 51
281.4724739745
  0
LINE
  5
9C
330
1F
100
AcDbEntity
  8
0
  6
Continuous
 62
     7
370
    15
100
AcDbLine
 10
189.0906746122
 20
445.680687292
 30
0.0
 11
189.0906746122
 21
450.6079597025
 31
0.0
  0
ARC
  5
9D
330
1F
100
AcDbEntity
  8
0
  6
Continuous
 62
     7
370
    15
100
AcDbCircle
 10
188.5906746122
 20
448.1443234973
 30
0.0
 40
2.50000000000005
100
AcDbArc
 50
113.5781784782
 51
246.4218215218
  0
LINE
  5
9E
330
1F
100
AcDbEntity
  8
0
  6
Continuous
 62
     7
370
    15
100
AcDbLine
 10
187.5906746122
 20
445.8530356498
 30
0.0
 11
187.5906746122
 21
450.4356113448
 31
0.0
  0
ARC
  5
9F
330
1F
100
AcDbEntity
  8
0
  6
Continuous
 62
     7
370
    15
100
AcDbCircle
 10
188.5906746122
 20
448.1443234973
 30
0.0
 40
2.50000000000005
100
AcDbArc
 50
293.5781784782
 51
66.4218215218
  0
LINE
  5
A0
330
1F
100
AcDbEntity
  8
0
  6
Continuous
 62
     7
370
    15
100
AcDbLine
 10
189.5906746122
 20
450.4356113448
 30
0.0
 11
189.5906746122
 21
445.8530356498
 31
0.0
  0
CIRCLE
  5
A1
330
1F
100
AcDbEntity
  8
0
  6
Continuous
 62
     7
370
    15
100
AcDbCircle
 10
188.5906746122
 20
448.1443234973
 30
0.0
 40
4.0
  0
LINE
  5
A2
330
1F
100
AcDbEntity
  8
0
  6
Continuous
 62
     7
370
    15
100
AcDbLine
 10
211.5906746122
 20
315.1443234973
 30
0.0
 11
165.5906746122
 21
315.1443234973
 31
0.0
  0
SPLINE
  5
A3
330
1F
100
AcDbEntity
  8
0
  6
Continuous
 62
     7
370
    15
100
AcDbSpline
210
0.0
220
0.0
230
1.0
 70
     8
 71
     3
 72
    22
 73
    18
 74
     0
 42
0.00000001
 43
0.00000001
 12
1.0
 22
0.0
 32
0.0
 13
1.0
 23
0.0
 33
0.0
 40
0.0
 40
0.0
 40
0.0
 40
0.0
 40
0.125
 40
0.125
 40
0.25
 40
0.25
 40
0.375
 40
0.375
 40
0.5
 40
0.5
 40
0.625
 40
0.625
 40
0.75
 40
0.75
 40
0.875
 40
0.875
 40
1.0
 40
1.0
 40
1.0
 40
1.0
 10
191.2504374637577
 20
444.8294838973501
 30
0.0
 10
191.0646087777436
 20
444.680378572364
 30
0.0
 10
190.8632405502938
 20
444.5449822989945
 30
0.0
 10
190.4446470598079
 20
444.3125355114677
 30
0.0
 10
190.2273960506934
 20
444.2148661104177
 30
0.0
 10
189.7770377029883
 20
444.0562879006575
 30
0.0
 10
189.5415167531035
 20
443.9951023869955
 30
0.0
 10
189.0681921540194
 20
443.9144164538272
 30
0.0
 10
188.8302676059176
 20
443.8943470811258
 30
0.0
 10
188.3519190304738
 20
443.8942999546691
 30
0.0
 10
188.1091586074939
 20
443.9148709279108
 30
0.0
 10
187.635950749972
 20
443.9959950331549
 30
0.0
 10
187.4049982086811
 20
444.0560756474586
 30
0.0
 10
186.9542004196438
 20
444.2147495722126
 30
0.0
 10
186.7324862200889
 20
444.3145858253387
 30
0.0
 10
186.3143550476921
 20
444.5473631170785
 30
0.0
 10
186.1169071907759
 20
444.6802437734349
 30
0.0
 10
185.930900847291
 20
444.8294926539614
 30
0.0
  0
LINE
  5
A4
330
1F
100
AcDbEntity
  8
0
  6
Continuous
 62
     7
370
    15
100
AcDbLine
 10
208.1365103788
 20
438.1443234973
 30
0.0
 11
169.0448388455
 21
438.1443234973
 31
0.0
  0
LINE
  5
A5
330
1F
100
AcDbEntity
  8
0
  6
Continuous
 62
     7
370
    15
100
AcDbLine
 10
210.0500044917
 20
435.1918641408
 30
0.0
 11
210.0824802704
 21
435.1917174421
 31
0.0
  0
LINE
  5
A6
330
1F
100
AcDbEntity
  8
0
  6
Continuous
 62
     7
370
    15
100
AcDbLine
 10
167.1634340803
 20
435.1918979214
 30
0.0
 11
167.1469551425
 21
435.1919425269
 31
0.0
  0
LINE
  5
A7
330
1F
100
AcDbEntity
  8
0
  6
Continuous
 62
     7
370
    15
100
AcDbLine
 10
169.0448388455
 20
438.1443234973
 30
0.0
 11
168.7136215936
 21
438.1555846035
 31
0.0
  0
SPLINE
  5
A8
330
1F
100
AcDbEntity
  8
0
  6
Continuous
 62
     8
370
    15
100
AcDbSpline
210
0.0
220
0.0
230
1.0
 70
     8
 71
     3
 72
    44
 73
    40
 74
     0
 42
0.00000001
 43
0.00000001
 12
1.0
 22
0.0
 32
0.0
 13
1.0
 23
0.0
 33
0.0
 40
0.0
 40
0.0
 40
0.0
 40
0.0
 40
0.0624999999999993
 40
0.0624999999999993
 40
0.0937499999999989
 40
0.0937499999999989
 40
0.1249999999999985
 40
0.1249999999999985
 40
0.1874999999999973
 40
0.1874999999999973
 40
0.2187499999999963
 40
0.2187499999999963
 40
0.2499999999999953
 40
0.2499999999999953
 40
0.3124999999999943
 40
0.3124999999999943
 40
0.3437499999999945
 40
0.3437499999999945
 40
0.3749999999999946
 40
0.3749999999999946
 40
0.4374999999999949
 40
0.4374999999999949
 40
0.4687499999999949
 40
0.4687499999999949
 40
0.4999999999999951
 40
0.4999999999999951
 40
0.5312499999999952
 40
0.5312499999999952
 40
0.5624999999999952
 40
0.5624999999999952
 40
0.5937499999999953
 40
0.5937499999999953
 40
0.6249999999999954
 40
0.6249999999999954
 40
0.6874999999999964
 40
0.6874999999999964
 40
0.7499999999999976
 40
0.7499999999999976
 40
1.0
 40
1.0
 40
1.0
 40
1.0
 10
188.5905783302852
 20
432.977734454003
 30
0.0
 10
187.6057860291483
 20
432.9779789779624
 30
0.0
 10
186.6151699072755
 20
432.9826275541632
 30
0.0
 10
185.1436194941478
 20
432.9885077610764
 30
0.0
 10
184.6554757073009
 20
432.9903867816072
 30
0.0
 10
183.6970215599331
 20
432.994305515674
 30
0.0
 10
183.224926178278
 20
432.9963539298124
 30
0.0
 10
181.8289712544397
 20
433.0032750247344
 30
0.0
 10
180.925163286575
 20
433.0089625992867
 30
0.0
 10
179.6072862886451
 20
433.0205444697992
 30
0.0
 10
179.1725751227508
 20
433.0249287937893
 30
0.0
 10
178.3297142780922
 20
433.0346143239869
 30
0.0
 10
177.9206394602413
 20
433.0399172327773
 30
0.0
 10
176.7305320288897
 20
433.0569813750257
 30
0.0
 10
175.9868717474567
 20
433.0697923991438
 30
0.0
 10
174.9455397689582
 20
433.0904946206832
 30
0.0
 10
174.6097716518468
 20
433.0976875398734
 30
0.0
 10
173.9669002005849
 20
433.112857608392
 30
0.0
 10
173.6617243223035
 20
433.1207990827798
 30
0.0
 10
172.7932673178403
 20
433.1463937568382
 30
0.0
 10
172.2767101307537
 20
433.1655241411693
 30
0.0
 10
171.6055882467434
 20
433.199855445431
 30
0.0
 10
171.3986566200346
 20
433.2121456480266
 30
0.0
 10
171.0189560351084
 20
433.2377718428529
 30
0.0
 10
170.8466270433062
 20
433.2511471365513
 30
0.0
 10
170.5427064475379
 20
433.2764585848914
 30
0.0
 10
170.4100923860323
 20
433.288411041284
 30
0.0
 10
170.1863870585315
 20
433.3065973929225
 30
0.0
 10
170.0954657324879
 20
433.3108040431175
 30
0.0
 10
169.9648605773677
 20
433.3283600398024
 30
0.0
 10
169.9246879203434
 20
433.3408660587057
 30
0.0
 10
169.8687941728458
 20
433.3609092411849
 30
0.0
 10
169.8517188047706
 20
433.3675760850631
 30
0.0
 10
169.8059384545682
 20
433.3794830966553
 30
0.0
 10
169.784156633474
 20
433.3801171549088
 30
0.0
 10
169.7364636078277
 20
433.3815087271419
 30
0.0
 10
169.7121791371796
 20
433.3819165636575
 30
0.0
 10
169.5888682152529
 20
433.3861210030893
 30
0.0
 10
169.4874215970778
 20
433.3950795790454
 30
0.0
 10
169.3893801148252
 20
433.4072749750616
 30
0.0
  0
SPLINE
  5
A9
330
1F
100
AcDbEntity
  8
0
  6
Continuous
 62
     8
370
    15
100
AcDbSpline
210
0.0
220
0.0
230
1.0
 70
     8
 71
     3
 72
    24
 73
    20
 74
     0
 42
0.00000001
 43
0.00000001
 12
1.0
 22
0.0
 32
0.0
 13
1.0
 23
0.0
 33
0.0
 40
0.0
 40
0.0
 40
0.0
 40
0.0
 40
0.125
 40
0.125
 40
0.25
 40
0.25
 40
0.5
 40
0.5
 40
0.6249999999999999
 40
0.6249999999999999
 40
0.6874999999999999
 40
0.6874999999999999
 40
0.7499999999999999
 40
0.7499999999999999
 40
0.8125
 40
0.8125
 40
0.8750000000000001
 40
0.8750000000000001
 40
1.0
 40
1.0
 40
1.0
 40
1.0
 10
169.3893801148252
 20
433.4072749750616
 30
0.0
 10
169.2786824503648
 20
433.4210446756529
 30
0.0
 10
169.1707588263914
 20
433.4394152257697
 30
0.0
 10
168.974156797411
 20
433.4754565445617
 30
0.0
 10
168.8851318774431
 20
433.4935449964014
 30
0.0
 10
168.6544693491669
 20
433.5395232631785
 30
0.0
 10
168.5449374807056
 20
433.5579614934673
 30
0.0
 10
168.4589975295899
 20
433.5787212678339
 30
0.0
 10
168.440731479663
 20
433.5852374789727
 30
0.0
 10
168.4018609210875
 20
433.5949013122416
 30
0.0
 10
168.3868922476892
 20
433.5980921785385
 30
0.0
 10
168.3406832728573
 20
433.604419341825
 30
0.0
 10
168.3098570798223
 20
433.6075306780434
 30
0.0
 10
168.2046306756602
 20
433.6142835836691
 30
0.0
 10
168.1291211118853
 20
433.6179693754769
 30
0.0
 10
167.8920209930765
 20
433.6251624611889
 30
0.0
 10
167.7282742196802
 20
433.6285386218401
 30
0.0
 10
167.0978664053109
 20
433.6357623727885
 30
0.0
 10
166.4981396479131
 20
433.6397984995862
 30
0.0
 10
165.8639100091195
 20
433.6441732644561
 30
0.0
  0
SPLINE
  5
AA
330
1F
100
AcDbEntity
  8
0
  6
Continuous
 62
     8
370
     0
100
AcDbSpline
210
0.0
220
0.0
230
1.0
 70
     8
 71
     3
 72
    56
 73
    52
 74
     0
 42
0.00000001
 43
0.00000001
 12
1.0
 22
0.0
 32
0.0
 13
1.0
 23
0.0
 33
0.0
 40
0.0
 40
0.0
 40
0.0
 40
0.0
 40
0.0085719703612367
 40
0.0172447581719606
 40
0.0257731464392845
 40
0.0342703525611264
 40
0.0512797310455623
 40
0.0681771497573153
 40
0.0852304862494629
 40
0.1023887775244983
 40
0.1193771607065264
 40
0.1365314481165167
 40
0.1534798172384541
 40
0.1618673128393167
 40
0.1703599138123745
 40
0.1789343323323861
 40
0.1874875821524033
 40
0.1960526551753784
 40
0.2045910035980519
 40
0.2101925941956056
 40
0.2160547229857237
 40
0.2222042410169076
 40
0.2264505777553561
 40
0.2325669581069204
 40
0.2386160556374126
 40
0.2502221952151916
 40
0.2616070195420402
 40
0.2710653234813844
 40
0.2878436194738163
 40
0.3049906045665106
 40
0.3214287892951653
 40
0.3362356279130868
 40
0.3709780413185541
 40
0.4049840662963787
 40
0.4255063440793102
 40
0.4471758142565719
 40
0.4699691196149245
 40
0.504895509767261
 40
0.5388448334261136
 40
0.605240490819805
 40
0.6732166440624079
 40
0.7078869250196811
 40
0.7420323577938612
 40
0.8104923359094038
 40
0.8446468556939327
 40
0.8784054884281243
 40
0.9125663375935481
 40
0.9465058976336382
 40
0.9635260447816871
 40
0.9807447595061556
 40
1.0
 40
1.0
 40
1.0
 40
1.0
 10
188.4215840442304
 20
435.0900267247626
 30
0.0
 10
188.042310694349
 20
435.0899677519297
 30
0.0
 10
187.2793032498356
 20
435.0898491126674
 30
0.0
 10
186.1443682940366
 20
435.0894267289295
 30
0.0
 10
185.0231384793305
 20
435.0895736388104
 30
0.0
 10
183.558315662685
 20
435.0899406992249
 30
0.0
 10
181.7797902166558
 20
435.0902589686408
 30
0.0
 10
179.7523700119586
 20
435.0896071588645
 30
0.0
 10
177.8630239747028
 20
435.0893060844111
 30
0.0
 10
176.149930672064
 20
435.0901302215437
 30
0.0
 10
174.6344366294996
 20
435.0901647009949
 30
0.0
 10
173.3434168623305
 20
435.0892958116487
 30
0.0
 10
172.4821372140649
 20
435.089209039794
 30
0.0
 10
171.9276701652023
 20
435.0896433222021
 30
0.0
 10
171.5769074701126
 20
435.0904274078303
 30
0.0
 10
171.2937353509233
 20
435.0900619682778
 30
0.0
 10
171.0895500227929
 20
435.0890893009948
 30
0.0
 10
170.9812508793945
 20
435.0894640002468
 30
0.0
 10
170.9358529374492
 20
435.0904179196923
 30
0.0
 10
170.9063828498493
 20
435.0902477342491
 30
0.0
 10
170.8844071389349
 20
435.0898034774151
 30
0.0
 10
170.8655361397557
 20
435.0894616688836
 30
0.0
 10
170.8467050354612
 20
435.0893414255394
 30
0.0
 10
170.8279108314535
 20
435.0894248497531
 30
0.0
 10
170.8003863738762
 20
435.089787014856
 30
0.0
 10
170.766213094741
 20
435.0901048745828
 30
0.0
 10
170.7275823245575
 20
435.0900547540789
 30
0.0
 10
170.6826360013961
 20
435.0898791838763
 30
0.0
 10
170.6308805385753
 20
435.0896473590585
 30
0.0
 10
170.5711401664299
 20
435.0895273488837
 30
0.0
 10
170.5141973016646
 20
435.0895692940678
 30
0.0
 10
170.4373454267816
 20
435.0897736250471
 30
0.0
 10
170.3417474057556
 20
435.0900662703121
 30
0.0
 10
170.24345213489
 20
435.0898533523563
 30
0.0
 10
170.1632672682181
 20
435.0895178613686
 30
0.0
 10
170.0977434320392
 20
435.0896285870889
 30
0.0
 10
170.0214407261788
 20
435.0899323697805
 30
0.0
 10
169.9396120543476
 20
435.0899859382864
 30
0.0
 10
169.8308027199627
 20
435.0895149552378
 30
0.0
 10
169.7168047891236
 20
435.0901116231842
 30
0.0
 10
169.6301876921509
 20
435.089533635439
 30
0.0
 10
169.5836286800892
 20
435.089775463167
 30
0.0
 10
169.5470430468283
 20
435.0900578739734
 30
0.0
 10
169.5183858361254
 20
435.0895414424111
 30
0.0
 10
169.4711785207021
 20
435.0897338477743
 30
0.0
 10
169.4114200798195
 20
435.0900606425452
 30
0.0
 10
169.3009240904014
 20
435.0894578929586
 30
0.0
 10
169.1287510424351
 20
435.0897561698866
 30
0.0
 10
168.91727195321
 20
435.090108892493
 30
0.0
 10
168.7196991631022
 20
435.0898820882854
 30
0.0
 10
168.5345945087248
 20
435.0897673276586
 30
0.0
 10
168.4368745160552
 20
435.0897067435115
 30
0.0
  0
LWPOLYLINE
  5
AB
330
1F
100
AcDbEntity
  8
0
  6
Continuous
 62
     8
370
     0
100
AcDbPolyline
 90
        3
 70
   128
 43
0.0
 10
188.5920697108
 20
435.0902429844
 10
188.5066803456
 20
435.0901903247
 10
188.4215840467
 20
435.0900267724
  0
SPLINE
  5
AC
330
1F
100
AcDbEntity
  8
0
  6
Continuous
 62
     8
370
     0
100
AcDbSpline
210
0.0
220
0.0
230
1.0
 70
     8
 71
     3
 72
    32
 73
    28
 74
     0
 42
0.00000001
 43
0.00000001
 12
1.0
 22
0.0
 32
0.0
 13
1.0
 23
0.0
 33
0.0
 40
0.0
 40
0.0
 40
0.0
 40
0.0
 40
0.0052694894236751
 40
0.0947600106527421
 40
0.1856926184925479
 40
0.2758923962719342
 40
0.3653693114384735
 40
0.4586947069430358
 40
0.5132973777414308
 40
0.5682292033628591
 40
0.6203930358907427
 40
0.6747605036641611
 40
0.729542947728852
 40
0.7626433263816279
 40
0.7965677912851122
 40
0.8136141076966419
 40
0.8305216312753464
 40
0.8474909243786508
 40
0.8644552637084891
 40
0.8814482149789019
 40
0.8985670571533261
 40
0.9155365524609399
 40
0.9325003063366798
 40
0.9493655154331839
 40
0.9663894456196127
 40
0.9830528609546744
 40
1.0
 40
1.0
 40
1.0
 40
1.0
 10
208.7448963534003
 20
435.0895525121938
 30
0.0
 10
208.7129151246566
 20
435.0895516417354
 30
0.0
 10
208.1378040782571
 20
435.0895359884819
 30
0.0
 10
207.8051262881399
 20
435.0897086280021
 30
0.0
 10
207.6635093187093
 20
435.0895879062884
 30
0.0
 10
207.6203932946665
 20
435.0899127894941
 30
0.0
 10
207.5175641074363
 20
435.0899805338876
 30
0.0
 10
207.3637923376998
 20
435.0894524471998
 30
0.0
 10
207.1968244382243
 20
435.0901778435862
 30
0.0
 10
207.0412920223535
 20
435.0891909650201
 30
0.0
 10
206.8682030933924
 20
435.0903706425017
 30
0.0
 10
206.6817892396969
 20
435.0891252486265
 30
0.0
 10
206.5173447813376
 20
435.0904807003425
 30
0.0
 10
206.360217488931
 20
435.0890332732883
 30
0.0
 10
206.2972556241747
 20
435.0911857580029
 30
0.0
 10
206.1200615484653
 20
435.0886622140288
 30
0.0
 10
205.6009669421023
 20
435.0909059613628
 30
0.0
 10
204.8201540443058
 20
435.0890170769259
 30
0.0
 10
203.7723928062698
 20
435.0894883246
 30
0.0
 10
202.4694818516007
 20
435.0902378177123
 30
0.0
 10
200.9499316771719
 20
435.0900951533495
 30
0.0
 10
199.2326276640121
 20
435.0892654150341
 30
0.0
 10
197.3483710447155
 20
435.0896386735844
 30
0.0
 10
195.3208031133809
 20
435.0902497547189
 30
0.0
 10
193.19802179778
 20
435.0898826902147
 30
0.0
 10
190.9972184943628
 20
435.0893026769008
 30
0.0
 10
189.5097682099371
 20
435.0897782163826
 30
0.0
 10
188.7597649071685
 20
435.0900179932582
 30
0.0
  0
SPLINE
  5
AD
330
1F
100
AcDbEntity
  8
0
  6
Continuous
 62
     8
370
    15
100
AcDbSpline
210
0.0
220
0.0
230
1.0
 70
     8
 71
     3
 72
    24
 73
    20
 74
     0
 42
0.00000001
 43
0.00000001
 12
1.0
 22
0.0
 32
0.0
 13
1.0
 23
0.0
 33
0.0
 40
0.0
 40
0.0
 40
0.0
 40
0.0
 40
0.1249999999999999
 40
0.1249999999999999
 40
0.1874999999999999
 40
0.1874999999999999
 40
0.2499999999999999
 40
0.2499999999999999
 40
0.3124999999999999
 40
0.3124999999999999
 40
0.3749999999999999
 40
0.3749999999999999
 40
0.4999999999999999
 40
0.4999999999999999
 40
0.7499999999999999
 40
0.7499999999999999
 40
0.8749999999999999
 40
0.8749999999999999
 40
1.0
 40
1.0
 40
1.0
 40
1.0
 10
211.3174392151776
 20
433.6441732616545
 30
0.0
 10
210.683209576376
 20
433.6397984968616
 30
0.0
 10
210.083482818972
 20
433.635762370128
 30
0.0
 10
209.4530750045919
 20
433.6285386192466
 30
0.0
 10
209.2893282311904
 20
433.6251624586124
 30
0.0
 10
209.0522281123703
 20
433.6179693729226
 30
0.0
 10
208.9767185485895
 20
433.6142835811206
 30
0.0
 10
208.8714921444163
 20
433.6075306755015
 30
0.0
 10
208.8406659513762
 20
433.6044193392844
 30
0.0
 10
208.7944569765337
 20
433.5980921759988
 30
0.0
 10
208.77948830313
 20
433.5949013097019
 30
0.0
 10
208.7406177445381
 20
433.5852374764323
 30
0.0
 10
208.7223516946001
 20
433.5787212652932
 30
0.0
 10
208.6364117434495
 20
433.5579614909347
 30
0.0
 10
208.5268798749579
 20
433.5395232606654
 30
0.0
 10
208.2962173466076
 20
433.4935449939235
 30
0.0
 10
208.2071924266108
 20
433.4754565420972
 30
0.0
 10
208.0105903975736
 20
433.4394152233332
 30
0.0
 10
207.9026667735716
 20
433.4210446732306
 30
0.0
 10
207.7919691090904
 20
433.4072749726528
 30
0.0
  0
SPLINE
  5
AE
330
1F
100
AcDbEntity
  8
0
  6
Continuous
 62
     8
370
    15
100
AcDbSpline
210
0.0
220
0.0
230
1.0
 70
     8
 71
     3
 72
    44
 73
    40
 74
     0
 42
0.00000001
 43
0.00000001
 12
1.0
 22
0.0
 32
0.0
 13
1.0
 23
0.0
 33
0.0
 40
0.0
 40
0.0
 40
0.0
 40
0.0
 40
0.2500000000000043
 40
0.2500000000000043
 40
0.3125000000000053
 40
0.3125000000000053
 40
0.3750000000000064
 40
0.3750000000000064
 40
0.4062500000000069
 40
0.4062500000000069
 40
0.4375000000000075
 40
0.4375000000000075
 40
0.468750000000008
 40
0.468750000000008
 40
0.5000000000000085
 40
0.5000000000000085
 40
0.5312500000000091
 40
0.5312500000000091
 40
0.5625000000000097
 40
0.5625000000000097
 40
0.6250000000000092
 40
0.6250000000000092
 40
0.6562500000000083
 40
0.6562500000000083
 40
0.6875000000000074
 40
0.6875000000000074
 40
0.7500000000000057
 40
0.7500000000000057
 40
0.7812500000000049
 40
0.7812500000000049
 40
0.8125000000000041
 40
0.8125000000000041
 40
0.8750000000000032
 40
0.8750000000000032
 40
0.9062500000000026
 40
0.9062500000000026
 40
0.9375000000000018
 40
0.9375000000000018
 40
1.0
 40
1.0
 40
1.0
 40
1.0
 10
207.7919691090904
 20
433.4072749726529
 30
0.0
 10
207.6939276268207
 20
433.395079576649
 30
0.0
 10
207.5924810086347
 20
433.3861210007074
 30
0.0
 10
207.4691700867039
 20
433.3819165612837
 30
0.0
 10
207.4448856160556
 20
433.3815087247693
 30
0.0
 10
207.3971925904063
 20
433.3801171525303
 30
0.0
 10
207.37541076931
 20
433.3794830942703
 30
0.0
 10
207.3296304190861
 20
433.3675760826605
 30
0.0
 10
207.3125550509992
 20
433.3609092387769
 30
0.0
 10
207.2566613034729
 20
433.3408660563001
 30
0.0
 10
207.2164886464332
 20
433.3283600374022
 30
0.0
 10
207.0858834913028
 20
433.3108040407357
 30
0.0
 10
206.994962165263
 20
433.30659739056
 30
0.0
 10
206.771256837752
 20
433.2884110389729
 30
0.0
 10
206.6386427762374
 20
433.276458582605
 30
0.0
 10
206.3347221804538
 20
433.2511471343155
 30
0.0
 10
206.1623931886463
 20
433.2377718406432
 30
0.0
 10
205.7826926037044
 20
433.2121456458691
 30
0.0
 10
205.5757609769896
 20
433.1998554432998
 30
0.0
 10
204.9046390929688
 20
433.1655241391208
 30
0.0
 10
204.3880819058871
 20
433.1463937548572
 30
0.0
 10
203.5196249014458
 20
433.1207990809121
 30
0.0
 10
203.2144490231742
 20
433.1128576065641
 30
0.0
 10
202.5715775719365
 20
433.0976875381286
 30
0.0
 10
202.2358094548352
 20
433.0904946189816
 30
0.0
 10
201.194477476374
 20
433.0697923975753
 30
0.0
 10
200.4508171949709
 20
433.0569813735515
 30
0.0
 10
199.2607097636748
 20
433.0399172314533
 30
0.0
 10
198.851634945844
 20
433.0346143227141
 30
0.0
 10
198.0087741012297
 20
433.0249287926223
 30
0.0
 10
197.574062935353
 20
433.0205444686866
 30
0.0
 10
196.2561859374707
 20
433.0089625983387
 30
0.0
 10
195.3523779696411
 20
433.0032750238986
 30
0.0
 10
193.9564230458604
 20
432.9963539291491
 30
0.0
 10
193.4843276642253
 20
432.994305515069
 30
0.0
 10
192.5258735168998
 20
432.9903867811202
 30
0.0
 10
192.0377297300766
 20
432.9885077606494
 30
0.0
 10
190.5661793169824
 20
432.9826275539172
 30
0.0
 10
189.5755631951322
 20
432.9779789778392
 30
0.0
 10
188.5907708940161
 20
432.9777344540034
 30
0.0
  0
LWPOLYLINE
  5
AF
330
1F
100
AcDbEntity
  8
0
  6
Continuous
 62
     8
370
     0
100
AcDbPolyline
 90
        3
 70
   128
 43
0.0
 10
188.7597649042
 20
435.090018072
 10
188.6760665913
 20
435.0901840302
 10
188.5920849474
 20
435.0902429893
  0
SPLINE
  5
B0
330
1F
100
AcDbEntity
  8
0
  6
Continuous
 62
     8
370
    15
100
AcDbSpline
210
0.0
220
0.0
230
1.0
 70
     8
 71
     3
 72
    14
 73
    10
 74
     0
 42
0.00000001
 43
0.00000001
 12
1.0
 22
0.0
 32
0.0
 13
1.0
 23
0.0
 33
0.0
 40
0.0
 40
0.0
 40
0.0
 40
0.0
 40
0.2228092375613362
 40
0.4223857224997977
 40
0.600828819261174
 40
0.7271106428726903
 40
0.8464749366250044
 40
0.9544851152419247
 40
1.0
 40
1.0
 40
1.0
 40
1.0
 10
207.7919939261776
 20
433.4074098098035
 30
0.0
 10
207.5672833795413
 20
432.1709089797588
 30
0.0
 10
207.1412932920874
 20
429.8268396665366
 30
0.0
 10
206.17125984176
 20
426.5736463948804
 30
0.0
 10
205.0561131577164
 20
423.9507691432202
 30
0.0
 10
203.8381464729747
 20
421.8847189915893
 30
0.0
 10
202.5970355192497
 20
420.3209340431686
 30
0.0
 10
201.5089010309337
 20
419.2195313775793
 30
0.0
 10
200.8006473840728
 20
418.7208480737164
 30
0.0
 10
200.5906746121507
 20
418.5730056784284
 30
0.0
  0
SPLINE
  5
B1
330
1F
100
AcDbEntity
  8
0
  6
Continuous
 62
     8
370
     0
100
AcDbSpline
210
0.0
220
0.0
230
1.0
 70
     8
 71
     3
 72
    10
 73
     6
 74
     0
 42
0.00000001
 43
0.00000001
 12
1.0
 22
0.0
 32
0.0
 13
1.0
 23
0.0
 33
0.0
 40
0.0
 40
0.0
 40
0.0
 40
0.0
 40
0.2854484284306374
 40
0.8210175669536612
 40
1.0
 40
1.0
 40
1.0
 40
1.0
 10
176.0296553770623
 20
420.4414713005981
 30
0.0
 10
176.0214052136843
 20
420.5083543271595
 30
0.0
 10
175.9976757817138
 20
420.7007258180095
 30
0.0
 10
176.1401794794461
 20
420.8113489158277
 30
0.0
 10
176.3607342986585
 20
420.8382739994554
 30
0.0
 10
176.4159793498674
 20
420.8450182530116
 30
0.0
  0
SPLINE
  5
B2
330
1F
100
AcDbEntity
  8
0
  6
Continuous
 62
     8
370
     0
100
AcDbSpline
210
0.0
220
0.0
230
1.0
 70
     8
 71
     3
 72
    10
 73
     6
 74
     0
 42
0.00000001
 43
0.00000001
 12
1.0
 22
0.0
 32
0.0
 13
1.0
 23
0.0
 33
0.0
 40
0.0
 40
0.0
 40
0.0
 40
0.0
 40
0.2252057069428181
 40
0.5252641729268704
 40
1.0
 40
1.0
 40
1.0
 40
1.0
 10
200.6135641154153
 20
420.8817192102084
 30
0.0
 10
200.6929255961337
 20
420.8725498050076
 30
0.0
 10
200.8780263340223
 20
420.8511633130557
 30
0.0
 10
201.1118415865825
 20
420.7603428615805
 30
0.0
 10
201.1540075562273
 20
420.6019276932798
 30
0.0
 10
201.1798436996438
 20
420.5048627605382
 30
0.0
  0
SPLINE
  5
B3
330
1F
100
AcDbEntity
  8
0
  6
Continuous
 62
     8
370
    15
100
AcDbSpline
210
0.0
220
0.0
230
1.0
 70
     8
 71
     3
 72
    15
 73
    11
 74
     0
 42
0.00000001
 43
0.00000001
 12
1.0
 22
0.0
 32
0.0
 13
1.0
 23
0.0
 33
0.0
 40
0.0
 40
0.0
 40
0.0
 40
0.0
 40
0.2229423280618523
 40
0.4226045560353655
 40
0.6010962661960361
 40
0.7261076563750253
 40
0.8443257323046044
 40
0.9166181993413445
 40
0.9883712071478761
 40
1.0
 40
1.0
 40
1.0
 40
1.0
 10
169.3893497345417
 20
433.4074411092409
 30
0.0
 10
169.6144434632124
 20
432.1688378641055
 30
0.0
 10
170.0411261667538
 20
429.8209688924977
 30
0.0
 10
171.0138764157774
 20
426.5636623729274
 30
0.0
 10
172.1279513987424
 20
423.9426882261561
 30
0.0
 10
173.3443458849939
 20
421.8911166525679
 30
0.0
 10
174.4425729433255
 20
420.4807263452252
 30
0.0
 10
175.4894027058429
 20
419.4340614883632
 30
0.0
 10
176.149247147182
 20
418.8491665139703
 30
0.0
 10
176.5366462311073
 20
418.5819474226561
 30
0.0
 10
176.5906746121507
 20
418.5446798722497
 30
0.0
  0
SPLINE
  5
B4
330
1F
100
AcDbEntity
  8
0
  6
Continuous
 62
     8
370
     0
100
AcDbSpline
210
0.0
220
0.0
230
1.0
 70
     8
 71
     3
 72
     9
 73
     5
 74
     0
 42
0.00000001
 43
0.00000001
 12
1.0
 22
0.0
 32
0.0
 13
1.0
 23
0.0
 33
0.0
 40
0.0
 40
0.0
 40
0.0
 40
0.0
 40
0.8640773783471319
 40
1.0
 40
1.0
 40
1.0
 40
1.0
 10
200.5906746121507
 20
420.3991978014933
 30
0.0
 10
200.6372087450051
 20
420.4815452975095
 30
0.0
 10
200.6910628719855
 20
420.5768463643811
 30
0.0
 10
200.6777664790504
 20
420.6270247581992
 30
0.0
 10
200.6759591984642
 20
420.6338451370373
 30
0.0
  0
SPLINE
  5
B5
330
1F
100
AcDbEntity
  8
0
  6
Continuous
 62
     8
370
     0
100
AcDbSpline
210
0.0
220
0.0
230
1.0
 70
     8
 71
     3
 72
     9
 73
     5
 74
     0
 42
0.00000001
 43
0.00000001
 12
1.0
 22
0.0
 32
0.0
 13
1.0
 23
0.0
 33
0.0
 40
0.0
 40
0.0
 40
0.0
 40
0.0
 40
0.2630587759430264
 40
1.0
 40
1.0
 40
1.0
 40
1.0
 10
176.5256698062298
 20
420.5399328887491
 30
0.0
 10
176.5250900311967
 20
420.5301561623592
 30
0.0
 10
176.5228860559409
 20
420.4929906036174
 30
0.0
 10
176.5619136034888
 20
420.4285352042049
 30
0.0
 10
176.5906746121507
 20
420.3810353632647
 30
0.0
  0
SPLINE
  5
B6
330
1F
100
AcDbEntity
  8
0
  6
Continuous
 62
     8
370
    15
100
AcDbSpline
210
0.0
220
0.0
230
1.0
 70
     8
 71
     3
 72
    17
 73
    13
 74
     0
 42
0.00000001
 43
0.00000001
 12
1.0
 22
0.0
 32
0.0
 13
1.0
 23
0.0
 33
0.0
 40
0.0
 40
0.0
 40
0.0
 40
0.0
 40
0.0692362691805893
 40
0.1553382414724379
 40
0.2427390550944925
 40
0.3082175387651497
 40
0.3733604427383805
 40
0.5024232376814591
 40
0.6288156595530501
 40
0.7540583350938047
 40
0.8779631304590239
 40
1.0
 40
1.0
 40
1.0
 40
1.0
 10
173.1399068571475
 20
471.214094172681
 30
0.0
 10
173.1544147493561
 20
471.2143741807412
 30
0.0
 10
173.186964603498
 20
471.2150024058059
 30
0.0
 10
173.2373157323366
 20
471.2148899596667
 30
0.0
 10
173.3462599872036
 20
471.1630967992714
 30
0.0
 10
173.8112576315536
 20
471.1113096313123
 30
0.0
 10
174.6719072659251
 20
471.0099674197062
 30
0.0
 10
176.2521345118412
 20
470.9001941427373
 30
0.0
 10
178.7936605571574
 20
470.8035865359502
 30
0.0
 10
181.8062916102293
 20
470.7476563037973
 30
0.0
 10
185.1282741427679
 20
470.7071782439164
 30
0.0
 10
187.4423991126624
 20
470.7029394325514
 30
0.0
 10
188.5906737133091
 20
470.7008361237454
 30
0.0
  0
SPLINE
  5
B7
330
1F
100
AcDbEntity
  8
0
  6
Continuous
 62
     8
370
    15
100
AcDbSpline
210
0.0
220
0.0
230
1.0
 70
     8
 71
     3
 72
    30
 73
    26
 74
     0
 42
0.00000001
 43
0.00000001
 12
1.0
 22
0.0
 32
0.0
 13
1.0
 23
0.0
 33
0.0
 40
0.0
 40
0.0
 40
0.0
 40
0.0
 40
0.1249999999999999
 40
0.1249999999999999
 40
0.2499999999999999
 40
0.2499999999999999
 40
0.3749999999999998
 40
0.3749999999999998
 40
0.4999999999999998
 40
0.4999999999999998
 40
0.6249999999999999
 40
0.6249999999999999
 40
0.6875
 40
0.6875
 40
0.7500000000000001
 40
0.7500000000000001
 40
0.8125000000000002
 40
0.8125000000000002
 40
0.8437500000000002
 40
0.8437500000000002
 40
0.8750000000000001
 40
0.8750000000000001
 40
0.9375
 40
0.9375
 40
1.0
 40
1.0
 40
1.0
 40
1.0
 10
173.1302069962452
 20
471.2141689060572
 30
0.0
 10
173.0814326958009
 20
471.2130525742462
 30
0.0
 10
173.0313411089573
 20
471.2127068525064
 30
0.0
 10
172.9274851517343
 20
471.2169010456888
 30
0.0
 10
172.8747330723921
 20
471.2200661419959
 30
0.0
 10
172.7869193257343
 20
471.2283721249322
 30
0.0
 10
172.7517427023833
 20
471.2317687338737
 30
0.0
 10
172.6713202277708
 20
471.24106433281
 30
0.0
 10
172.6226242508515
 20
471.2474455121837
 30
0.0
 10
172.4727735159615
 20
471.2629399123583
 30
0.0
 10
172.3735121866567
 20
471.273802727681
 30
0.0
 10
172.1309393980614
 20
471.2914554730618
 30
0.0
 10
172.0346643902872
 20
471.297408290373
 30
0.0
 10
171.7822781242493
 20
471.3110507090451
 30
0.0
 10
171.6272194458356
 20
471.3187529965221
 30
0.0
 10
171.1868511130567
 20
471.3422661475031
 30
0.0
 10
170.8970352434313
 20
471.3566153393591
 30
0.0
 10
170.3396404991471
 20
471.3753233722627
 30
0.0
 10
170.1348282996252
 20
471.3811413398766
 30
0.0
 10
169.704130529227
 20
471.3933792244307
 30
0.0
 10
169.4789427836545
 20
471.3995751099249
 30
0.0
 10
168.808290598594
 20
471.4145223254121
 30
0.0
 10
168.3661759274164
 20
471.4229493312774
 30
0.0
 10
167.5411236409415
 20
471.4374893603509
 30
0.0
 10
167.1550111719922
 20
471.4424114251928
 30
0.0
 10
166.7963445051077
 20
471.4441915067765
 30
0.0
  0
SPLINE
  5
B8
330
1F
100
AcDbEntity
  8
0
  6
Continuous
 62
     8
370
     0
100
AcDbSpline
210
0.0
220
0.0
230
1.0
 70
     8
 71
     3
 72
    56
 73
    52
 74
     0
 42
0.00000001
 43
0.00000001
 12
1.0
 22
0.0
 32
0.0
 13
1.0
 23
0.0
 33
0.0
 40
0.0
 40
0.0
 40
0.0
 40
0.0
 40
0.0100506898462715
 40
0.0198583896623217
 40
0.0294266900452623
 40
0.0387570509668416
 40
0.0478493727855199
 40
0.0567023074398623
 40
0.0653138272025615
 40
0.0736820564433795
 40
0.081805835226759
 40
0.0896835523728175
 40
0.0973049252627918
 40
0.1046685856174491
 40
0.1117800427264792
 40
0.1186468543587517
 40
0.1252732364311134
 40
0.1432696554178556
 40
0.1646994525470453
 40
0.1896701869515745
 40
0.2183097656434799
 40
0.2506536669436792
 40
0.2856458519552216
 40
0.3386791410956699
 40
0.4097570320883136
 40
0.4989190916653551
 40
0.5361917371688769
 40
0.624058935711352
 40
0.6537172599936709
 40
0.6869552035035805
 40
0.6972558662325995
 40
0.7086305401603026
 40
0.7210895193874298
 40
0.7346812951732287
 40
0.7495206338207646
 40
0.7604708469880886
 40
0.7851402075026017
 40
0.7989134351448984
 40
0.8119293385145672
 40
0.8395258267300819
 40
0.8743842387973195
 40
0.886455151408254
 40
0.8987144113029183
 40
0.9110304889347239
 40
0.9233764721267576
 40
0.9358099346922658
 40
0.9483899416300321
 40
0.9611636462452953
 40
0.974010820356896
 40
0.9869434959507104
 40
1.0
 40
1.0
 40
1.0
 40
1.0
 10
167.6492005371547
 20
472.6062050129733
 30
0.0
 10
167.7369977280648
 20
472.6062397113653
 30
0.0
 10
167.9104694852297
 20
472.6063082692654
 30
0.0
 10
168.1793414383292
 20
472.6063658349831
 30
0.0
 10
168.4496179620665
 20
472.6063948030179
 30
0.0
 10
168.7216540043519
 20
472.6063985859523
 30
0.0
 10
168.9945137268492
 20
472.6063859251046
 30
0.0
 10
169.2671725473891
 20
472.60636699269
 30
0.0
 10
169.538085734484
 20
472.6063511828368
 30
0.0
 10
169.8054021481312
 20
472.606340639756
 30
0.0
 10
170.0670916328205
 20
472.6063246070067
 30
0.0
 10
170.3214218344075
 20
472.606307595057
 30
0.0
 10
170.5658537481182
 20
472.6062580589539
 30
0.0
 10
170.7969951612946
 20
472.6062264669585
 30
0.0
 10
171.0126262341599
 20
472.6062185009998
 30
0.0
 10
171.2115185716772
 20
472.6062249338708
 30
0.0
 10
171.4996302051478
 20
472.606258987917
 30
0.0
 10
171.8738173534946
 20
472.6062321308376
 30
0.0
 10
172.284888557553
 20
472.6060705863823
 30
0.0
 10
172.6269155568085
 20
472.6060358071859
 30
0.0
 10
172.9008886868705
 20
472.6061640836501
 30
0.0
 10
173.117817925592
 20
472.6063419072818
 30
0.0
 10
173.3115046919474
 20
472.6063059672791
 30
0.0
 10
173.4768516478948
 20
472.6062313827665
 30
0.0
 10
173.6017485648714
 20
472.6062243413582
 30
0.0
 10
173.6822972459921
 20
472.6064235112552
 30
0.0
 10
173.8054590983737
 20
472.6062377266127
 30
0.0
 10
173.9079476186135
 20
472.6062165307799
 30
0.0
 10
173.9979783434371
 20
472.6062770658806
 30
0.0
 10
174.0409997658535
 20
472.6061063766289
 30
0.0
 10
174.0749832913681
 20
472.6060961456538
 30
0.0
 10
174.0979087308083
 20
472.6062612644041
 30
0.0
 10
174.1277352429163
 20
472.6064948556793
 30
0.0
 10
174.1697910230816
 20
472.6062889822545
 30
0.0
 10
174.2689041157728
 20
472.6060218380102
 30
0.0
 10
174.5284930390114
 20
472.6065721863691
 30
0.0
 10
174.921254235847
 20
472.6061300814226
 30
0.0
 10
175.4754527862105
 20
472.6059887088289
 30
0.0
 10
176.16252331588
 20
472.6061883958317
 30
0.0
 10
177.3186251908776
 20
472.6062473666054
 30
0.0
 10
178.7372009684998
 20
472.6060927478028
 30
0.0
 10
179.995023612881
 20
472.6061083980392
 30
0.0
 10
180.8135643946626
 20
472.6061274805348
 30
0.0
 10
181.6744746717209
 20
472.606160507846
 30
0.0
 10
182.5719160176191
 20
472.6061773947773
 30
0.0
 10
183.5042565007498
 20
472.6061587490776
 30
0.0
 10
184.4718810690315
 20
472.6061345167569
 30
0.0
 10
185.470375231854
 20
472.6061086253851
 30
0.0
 10
186.4938986182102
 20
472.6060557452889
 30
0.0
 10
187.5362891937239
 20
472.6060388188019
 30
0.0
 10
188.2371984610523
 20
472.606070748794
 30
0.0
 10
188.5893228763946
 20
472.6060867898572
 30
0.0
  0
SPLINE
  5
B9
330
1F
100
AcDbEntity
  8
0
  6
Continuous
 62
     8
370
    15
100
AcDbSpline
210
0.0
220
0.0
230
1.0
 70
     8
 71
     3
 72
    30
 73
    26
 74
     0
 42
0.00000001
 43
0.00000001
 12
1.0
 22
0.0
 32
0.0
 13
1.0
 23
0.0
 33
0.0
 40
0.0
 40
0.0
 40
0.0
 40
0.0
 40
0.0625
 40
0.0625
 40
0.1249999999999999
 40
0.1249999999999999
 40
0.1562499999999999
 40
0.1562499999999999
 40
0.1874999999999998
 40
0.1874999999999998
 40
0.2499999999999998
 40
0.2499999999999998
 40
0.3124999999999998
 40
0.3124999999999998
 40
0.3749999999999998
 40
0.3749999999999998
 40
0.4999999999999999
 40
0.4999999999999999
 40
0.6249999999999999
 40
0.6249999999999999
 40
0.7499999999999999
 40
0.7499999999999999
 40
0.875
 40
0.875
 40
1.0
 40
1.0
 40
1.0
 40
1.0
 10
210.3850047191818
 20
471.4441915055556
 30
0.0
 10
210.0263380522952
 20
471.4424114240998
 30
0.0
 10
209.6402255833393
 20
471.4374893593919
 30
0.0
 10
208.8151732968571
 20
471.4229493305847
 30
0.0
 10
208.3730586256774
 20
471.4145223248529
 30
0.0
 10
207.7024064406178
 20
471.3995751095528
 30
0.0
 10
207.477218695046
 20
471.3933792241194
 30
0.0
 10
207.0465209246514
 20
471.3811413396769
 30
0.0
 10
206.841708725132
 20
471.3753233721135
 30
0.0
 10
206.2843139808568
 20
471.3566153393434
 30
0.0
 10
205.9944981112389
 20
471.3422661475499
 30
0.0
 10
205.5541297784734
 20
471.3187529966593
 30
0.0
 10
205.3990711000652
 20
471.3110507092115
 30
0.0
 10
205.1466848340358
 20
471.2974082905791
 30
0.0
 10
205.0504098262647
 20
471.2914554732789
 30
0.0
 10
204.8078370376763
 20
471.2738027279149
 30
0.0
 10
204.7085757083729
 20
471.2629399125826
 30
0.0
 10
204.5587249734802
 20
471.2474455123695
 30
0.0
 10
204.5100289965572
 20
471.241064332967
 30
0.0
 10
204.4296065219353
 20
471.2317687339705
 30
0.0
 10
204.3944298985786
 20
471.2283721249971
 30
0.0
 10
204.3066161519112
 20
471.2200661420069
 30
0.0
 10
204.2538640725646
 20
471.2169010456773
 30
0.0
 10
204.1500081153356
 20
471.2127068524642
 30
0.0
 10
204.0999165284905
 20
471.2130525741962
 30
0.0
 10
204.0511422280464
 20
471.2141689060078
 30
0.0
  0
SPLINE
  5
BA
330
1F
100
AcDbEntity
  8
0
  6
Continuous
 62
     8
370
    15
100
AcDbSpline
210
0.0
220
0.0
230
1.0
 70
     8
 71
     3
 72
    16
 73
    12
 74
     0
 42
0.00000001
 43
0.00000001
 12
1.0
 22
0.0
 32
0.0
 13
1.0
 23
0.0
 33
0.0
 40
0.0
 40
0.0
 40
0.0
 40
0.0
 40
0.1226666470706376
 40
0.246558058445069
 40
0.3722919375861197
 40
0.4996036567232805
 40
0.6295303992129689
 40
0.694863580508825
 40
0.7607057380623324
 40
0.8923789700217613
 40
1.0
 40
1.0
 40
1.0
 40
1.0
 10
188.590665808312
 20
470.700836093012
 30
0.0
 10
189.7386802822837
 20
470.7029300105623
 30
0.0
 10
192.0461715729384
 20
470.7071387523685
 30
0.0
 10
195.3605781702312
 20
470.7474128954071
 30
0.0
 10
198.3709119039657
 20
470.8031705862143
 30
0.0
 10
200.9176746435183
 20
470.8995618673272
 30
0.0
 10
202.5014200972285
 20
471.0095181795497
 30
0.0
 10
203.3658229160795
 20
471.1102862896881
 30
0.0
 10
203.921657342962
 20
471.1752510936184
 30
0.0
 10
203.9574140823118
 20
471.2223969718026
 30
0.0
 10
204.0128115241442
 20
471.2165548911026
 30
0.0
 10
204.0377261614609
 20
471.213927453499
 30
0.0
  0
SPLINE
  5
BB
330
1F
100
AcDbEntity
  8
0
  6
Continuous
 62
     8
370
     0
100
AcDbSpline
210
0.0
220
0.0
230
1.0
 70
     8
 71
     3
 72
    67
 73
    63
 74
     0
 42
0.00000001
 43
0.00000001
 12
1.0
 22
0.0
 32
0.0
 13
1.0
 23
0.0
 33
0.0
 40
0.0
 40
0.0
 40
0.0
 40
0.0
 40
0.0050155613701752
 40
0.0100092692718818
 40
0.0149829668516269
 40
0.0199385438977543
 40
0.0248779562409522
 40
0.0298029639686215
 40
0.0347164768537163
 40
0.0396227456708734
 40
0.0445251533191278
 40
0.0494023640723448
 40
0.0542461656025536
 40
0.0590605398811294
 40
0.0638491307062698
 40
0.0686153357064432
 40
0.0733624170882002
 40
0.0780936299407704
 40
0.0828123250161549
 40
0.0875217113171618
 40
0.0922248596509855
 40
0.0969250172591006
 40
0.101625427713883
 40
0.106324690904939
 40
0.1109951223247284
 40
0.1156344526612806
 40
0.1202460065604373
 40
0.1248329780986021
 40
0.1565735640367592
 40
0.1875198945863249
 40
0.2034134901250083
 40
0.2185612750850379
 40
0.2365008704211924
 40
0.2500341890039388
 40
0.261546663258163
 40
0.2725768470659677
 40
0.2831668164839316
 40
0.2933682937412941
 40
0.30319582169241
 40
0.3126541250425894
 40
0.3488713348940501
 40
0.3746316901089705
 40
0.4509032414357296
 40
0.4979837746755462
 40
0.5645408228796319
 40
0.621202289212179
 40
0.6679829399087389
 40
0.7048967056514884
 40
0.7319513808977299
 40
0.7491382349238793
 40
0.7788444805738911
 40
0.8061700110097512
 40
0.8311279767434173
 40
0.8538185008484327
 40
0.874390924490621
 40
0.8895899242745966
 40
0.905707822441782
 40
0.9227825226662545
 40
0.940765579114631
 40
0.9596365019947677
 40
0.9793795916413818
 40
1.0
 40
1.0
 40
1.0
 40
1.0
 10
188.5897438620765
 20
472.6060858290695
 30
0.0
 10
188.72498395305
 20
472.6060825353835
 30
0.0
 10
188.9948748759198
 20
472.6060759623623
 30
0.0
 10
189.3986404168746
 20
472.6060609286691
 30
0.0
 10
189.8002351359629
 20
472.6060518287917
 30
0.0
 10
190.1994754269412
 20
472.606052887557
 30
0.0
 10
190.5961664654673
 20
472.6060678746006
 30
0.0
 10
190.9901647539464
 20
472.6060900203305
 30
0.0
 10
191.3814462061345
 20
472.6061075820398
 30
0.0
 10
191.7700340047725
 20
472.6061232857635
 30
0.0
 10
192.1553143401165
 20
472.6061369985484
 30
0.0
 10
192.5363589612243
 20
472.6061489055942
 30
0.0
 10
192.9122766265072
 20
472.6061594150586
 30
0.0
 10
193.2828352371502
 20
472.6061691305522
 30
0.0
 10
193.6481014464361
 20
472.6061780928406
 30
0.0
 10
194.008123527933
 20
472.6061857511233
 30
0.0
 10
194.3629435998276
 20
472.6061909701653
 30
0.0
 10
194.7126058088986
 20
472.6061924076182
 30
0.0
 10
195.0571501262221
 20
472.6061886702135
 30
0.0
 10
195.3965965606638
 20
472.6061795053756
 30
0.0
 10
195.7309612356157
 20
472.6061679928178
 30
0.0
 10
196.0602550990593
 20
472.6061551516551
 30
0.0
 10
196.3843729841001
 20
472.6061425587031
 30
0.0
 10
196.7025047643638
 20
472.6061320330862
 30
0.0
 10
197.0137765999953
 20
472.6061222103709
 30
0.0
 10
197.3174729401051
 20
472.6061141974678
 30
0.0
 10
197.6136026279752
 20
472.6061083590777
 30
0.0
 10
198.4720622940096
 20
472.606101484506
 30
0.0
 10
199.7685311157846
 20
472.6061021258374
 30
0.0
 10
200.9962421990245
 20
472.6061163842151
 30
0.0
 10
201.7716563110098
 20
472.6061506759778
 30
0.0
 10
202.2792585736425
 20
472.6061498170577
 30
0.0
 10
202.6470415207848
 20
472.6063113596021
 30
0.0
 10
202.8810641289847
 20
472.6061166776473
 30
0.0
 10
202.9893849630692
 20
472.6061018973807
 30
0.0
 10
203.0356678709052
 20
472.6063981858102
 30
0.0
 10
203.0650798257316
 20
472.6063460357823
 30
0.0
 10
203.087937601921
 20
472.6062021415381
 30
0.0
 10
203.1075632494729
 20
472.6060955867491
 30
0.0
 10
203.1418740528278
 20
472.6061125195418
 30
0.0
 10
203.1839987682692
 20
472.6062238472286
 30
0.0
 10
203.2663995739885
 20
472.6062516160418
 30
0.0
 10
203.3634497483088
 20
472.6063197207217
 30
0.0
 10
203.476613769862
 20
472.6063931280088
 30
0.0
 10
203.5550748817784
 20
472.6062173470248
 30
0.0
 10
203.6343654325817
 20
472.6061201257448
 30
0.0
 10
203.7359494551223
 20
472.6061303187785
 30
0.0
 10
203.8512883365929
 20
472.606185451181
 30
0.0
 10
203.9664318234724
 20
472.6062897528552
 30
0.0
 10
204.0976281425574
 20
472.6063178003881
 30
0.0
 10
204.2630730988934
 20
472.6062130598738
 30
0.0
 10
204.5142864572594
 20
472.6060992668434
 30
0.0
 10
204.8363087987631
 20
472.6060723443406
 30
0.0
 10
205.250840962905
 20
472.6062157613261
 30
0.0
 10
205.7176294910877
 20
472.6062410754035
 30
0.0
 10
206.2096137197385
 20
472.6061803031518
 30
0.0
 10
206.7165087908877
 20
472.606263244553
 30
0.0
 10
207.2701869890979
 20
472.6063179964359
 30
0.0
 10
207.8447283915896
 20
472.606332818754
 30
0.0
 10
208.4222156795959
 20
472.6063812545444
 30
0.0
 10
208.9932434538986
 20
472.6063735104723
 30
0.0
 10
209.3497972869582
 20
472.6062569905048
 30
0.0
 10
209.5319491321368
 20
472.6061974642143
 30
0.0
  0
SPLINE
  5
BC
330
1F
100
AcDbEntity
  8
0
  6
Continuous
 62
     8
370
    15
100
AcDbSpline
210
0.0
220
0.0
230
1.0
 70
     8
 71
     3
 72
    15
 73
    11
 74
     0
 42
0.00000001
 43
0.00000001
 12
1.0
 22
0.0
 32
0.0
 13
1.0
 23
0.0
 33
0.0
 40
0.0
 40
0.0
 40
0.0
 40
0.0
 40
0.0802780610184559
 40
0.2130271744524363
 40
0.3513538321981005
 40
0.4181100143444546
 40
0.4913039568568188
 40
0.6574653916984473
 40
0.8313567209081382
 40
1.0
 40
1.0
 40
1.0
 40
1.0
 10
203.6938227399098
 20
470.2081290553025
 30
0.0
 10
203.5619833449743
 20
469.75911290046
 30
0.0
 10
203.2121321723338
 20
468.5675962950999
 30
0.0
 10
201.8087722175023
 20
466.9878833019989
 30
0.0
 10
200.1075057786516
 20
465.9877085012228
 30
0.0
 10
198.5883475622739
 20
465.4415205598454
 30
0.0
 10
196.8707181864633
 20
464.9960461037718
 30
0.0
 10
194.493169663367
 20
464.6711486930209
 30
0.0
 10
191.5510554465619
 20
464.5090781471982
 30
0.0
 10
189.5674600971916
 20
464.4958943737614
 30
0.0
 10
188.5908579787432
 20
464.4894034828287
 30
0.0
  0
SPLINE
  5
BD
330
1F
100
AcDbEntity
  8
0
  6
Continuous
 62
     8
370
    15
100
AcDbSpline
210
0.0
220
0.0
230
1.0
 70
     8
 71
     3
 72
    20
 73
    16
 74
     0
 42
0.00000001
 43
0.00000001
 12
1.0
 22
0.0
 32
0.0
 13
1.0
 23
0.0
 33
0.0
 40
0.0
 40
0.0
 40
0.0
 40
0.0
 40
0.0929211490286802
 40
0.1581570963445565
 40
0.2232205479800168
 40
0.2873916359837552
 40
0.3557589762436802
 40
0.39847946993499
 40
0.4438468546241066
 40
0.4920442563571351
 40
0.586605318523026
 40
0.6967351591729826
 40
0.8015390544213506
 40
0.8960986004948926
 40
1.0
 40
1.0
 40
1.0
 40
1.0
 10
173.3991963320834
 20
470.4541615298097
 30
0.0
 10
173.5482893827967
 20
469.9233662422989
 30
0.0
 10
173.8020542601412
 20
469.0199223836767
 30
0.0
 10
174.5688040785396
 20
467.9349295258018
 30
0.0
 10
175.3676081058778
 20
467.1113766444878
 30
0.0
 10
176.3164413233499
 20
466.4294946944013
 30
0.0
 10
177.2359408907541
 20
465.9560375659037
 30
0.0
 10
178.0927829710709
 20
465.6178802164798
 30
0.0
 10
178.8571516282407
 20
465.3737428210933
 30
0.0
 10
179.9301814944101
 20
465.0999530660258
 30
0.0
 10
181.3970487844238
 20
464.8396706979005
 30
0.0
 10
183.2092186404451
 20
464.6501817685843
 30
0.0
 10
185.0276749914383
 20
464.5477415572888
 30
0.0
 10
186.8114494145143
 20
464.4965277684012
 30
0.0
 10
187.9791635042198
 20
464.4918516227883
 30
0.0
 10
188.5905035731109
 20
464.4894034933992
 30
0.0
  0
SPLINE
  5
BE
330
1F
100
AcDbEntity
  8
0
  6
Continuous
 62
     8
370
     0
100
AcDbSpline
210
0.0
220
0.0
230
1.0
 70
     8
 71
     3
 72
    13
 73
     9
 74
     0
 42
0.00000001
 43
0.00000001
 12
1.0
 22
0.0
 32
0.0
 13
1.0
 23
0.0
 33
0.0
 40
0.0
 40
0.0
 40
0.0
 40
0.0
 40
0.1935381986742693
 40
0.3862110117325393
 40
0.5777687665789895
 40
0.768300490900555
 40
0.962485478337162
 40
0.9999999999999999
 40
0.9999999999999999
 40
0.9999999999999999
 40
0.9999999999999999
 10
167.6492257028107
 20
472.6061016784747
 30
0.0
 10
167.5166790720485
 20
472.6057619785742
 30
0.0
 10
167.2521784787855
 20
472.6050840977052
 30
0.0
 10
166.9505724571132
 20
472.6063758692896
 30
0.0
 10
166.7191755599038
 20
472.606410249748
 30
0.0
 10
166.570740012327
 20
472.6062453182177
 30
0.0
 10
166.4983925504754
 20
472.6060743978271
 30
0.0
 10
166.50035654269
 20
472.6060564000044
 30
0.0
 10
166.5006745331284
 20
472.6060534859727
 30
0.0
  0
SPLINE
  5
BF
330
1F
100
AcDbEntity
  8
0
  6
Continuous
 62
     8
370
     0
100
AcDbSpline
210
0.0
220
0.0
230
1.0
 70
     8
 71
     3
 72
    12
 73
     8
 74
     0
 42
0.00000001
 43
0.00000001
 12
1.0
 22
0.0
 32
0.0
 13
1.0
 23
0.0
 33
0.0
 40
0.0
 40
0.0
 40
0.0
 40
0.0
 40
0.2306676459201718
 40
0.4255798693988602
 40
0.6176640530834628
 40
0.8099112183971063
 40
1.0
 40
1.0
 40
1.0
 40
1.0
 10
210.64910363315
 20
472.6060970103993
 30
0.0
 10
210.64478731272
 20
472.6061222720102
 30
0.0
 10
210.6368237377783
 20
472.6061688794701
 30
0.0
 10
210.455837574266
 20
472.6063872215298
 30
0.0
 10
210.2264880633586
 20
472.6063944071612
 30
0.0
 10
209.9240199440416
 20
472.6050600672266
 30
0.0
 10
209.6621113206163
 20
472.605675314732
 30
0.0
 10
209.5318962793164
 20
472.6059812018703
 30
0.0
  0
SPLINE
  5
C0
330
1F
100
AcDbEntity
  8
0
  6
Continuous
 62
     8
370
     0
100
AcDbSpline
210
0.0
220
0.0
230
1.0
 70
     8
 71
     3
 72
    34
 73
    30
 74
     0
 42
0.00000001
 43
0.00000001
 12
1.0
 22
0.0
 32
0.0
 13
1.0
 23
0.0
 33
0.0
 40
0.0
 40
0.0
 40
0.0
 40
0.0
 40
0.013786955405745
 40
0.0274536428501035
 40
0.0410036287202251
 40
0.0544394763740004
 40
0.0677632774175585
 40
0.0809771534323952
 40
0.0940831970065274
 40
0.1070833633045307
 40
0.1412579636146214
 40
0.1748450733173624
 40
0.2091678446983276
 40
0.2431343064826375
 40
0.3120306206302543
 40
0.3799866902043559
 40
0.4485611034559145
 40
0.5170200097369321
 40
0.5851810606156802
 40
0.6537206485625393
 40
0.7220518753473638
 40
0.7561487228397974
 40
0.7904178386843151
 40
0.8247810188035354
 40
0.859065624389614
 40
0.9274816263941024
 40
0.9626024968245132
 40
0.9961429233579776
 40
1.0
 40
1.0
 40
1.0
 40
1.0
 10
166.796344168624
 20
471.4442259749143
 30
0.0
 10
166.7984628174143
 20
471.2549035827038
 30
0.0
 10
166.8026816333531
 20
470.8779103172356
 30
0.0
 10
166.8125274484134
 20
470.3153067527085
 30
0.0
 10
166.824895355827
 20
469.7580309179806
 30
0.0
 10
166.8400727248384
 20
469.2061288824943
 30
0.0
 10
166.8580493022813
 20
468.6596387046595
 30
0.0
 10
166.8788939347083
 20
468.1186160910524
 30
0.0
 10
166.9026577814811
 20
467.5831144590326
 30
0.0
 10
166.9439954903602
 20
466.764108555503
 30
0.0
 10
167.0118295103876
 20
465.6720774093719
 30
0.0
 10
167.1228364828936
 20
464.3049171660076
 30
0.0
 10
167.2621320365849
 20
462.9573231865627
 30
0.0
 10
167.4924394542458
 20
461.1704618073918
 30
0.0
 10
167.8713280412956
 20
459.00787871283
 30
0.0
 10
168.510907807164
 20
456.5464665584567
 30
0.0
 10
169.3768500542378
 20
454.2732411921642
 30
0.0
 10
170.5020061127184
 20
452.2078649649495
 30
0.0
 10
171.915901540666
 20
450.3896353092996
 30
0.0
 10
173.6217138797768
 20
448.8277964901983
 30
0.0
 10
175.2831375203485
 20
447.7440020043431
 30
0.0
 10
176.7395803668177
 20
447.0080177481002
 30
0.0
 10
177.8943893311275
 20
446.5182810302121
 30
0.0
 10
179.1063451449673
 20
446.089198153518
 30
0.0
 10
180.7857765047631
 20
445.5992683285517
 30
0.0
 10
182.5634329742495
 20
445.2256311773825
 30
0.0
 10
184.3881487470132
 20
444.9691300575331
 30
0.0
 10
185.3692056039319
 20
444.8724810284428
 30
0.0
 10
185.8780256026583
 20
444.8340889664202
 30
0.0
 10
185.9305039117816
 20
444.8301293136869
 30
0.0
  0
SPLINE
  5
C1
330
1F
100
AcDbEntity
  8
0
  6
Continuous
 62
     8
370
     0
100
AcDbSpline
210
0.0
220
0.0
230
1.0
 70
     8
 71
     3
 72
    37
 73
    33
 74
     0
 42
0.00000001
 43
0.00000001
 12
1.0
 22
0.0
 32
0.0
 13
1.0
 23
0.0
 33
0.0
 40
0.0
 40
0.0
 40
0.0
 40
0.0
 40
0.0151617756634286
 40
0.0301927946104224
 40
0.0450973937379718
 40
0.059880021206663
 40
0.07454523616049
 40
0.0890977080914655
 40
0.1035422158259311
 40
0.1178836461108963
 40
0.1321269917806896
 40
0.1462773494865478
 40
0.1603399169746919
 40
0.1743199899017597
 40
0.1882229581803111
 40
0.2020543018513881
 40
0.2158195864857477
 40
0.2295244581204091
 40
0.2431746377423639
 40
0.3360239169107718
 40
0.4265654626882335
 40
0.5169994275828069
 40
0.5836377794788762
 40
0.6508850760547975
 40
0.7195562288468063
 40
0.7904167149278307
 40
0.8581684630859835
 40
0.9274582727254554
 40
0.9455530748094885
 40
0.9636695758785732
 40
0.981815867131606
 40
1.0
 40
1.0
 40
1.0
 40
1.0
 10
210.3846938724415
 20
471.4442392733489
 30
0.0
 10
210.3823221161301
 20
471.2360782996383
 30
0.0
 10
210.3775990577782
 20
470.8215515539149
 30
0.0
 10
210.366291459035
 20
470.2029733997137
 30
0.0
 10
210.3518654473171
 20
469.5902510821699
 30
0.0
 10
210.3339689955532
 20
468.9834129686404
 30
0.0
 10
210.3126109436288
 20
468.3824516533123
 30
0.0
 10
210.2876885326292
 20
467.7873692196472
 30
0.0
 10
210.2591125186706
 20
467.1981652632011
 30
0.0
 10
210.2267741447442
 20
466.6148400621462
 30
0.0
 10
210.1905539974404
 20
466.0373937417936
 30
0.0
 10
210.1503197873968
 20
465.4658264824555
 30
0.0
 10
210.1059270791307
 20
464.9001385149683
 30
0.0
 10
210.0572192690858
 20
464.3403299340304
 30
0.0
 10
210.004027741126
 20
463.7864014405134
 30
0.0
 10
209.9461721512475
 20
463.2383515760238
 30
0.0
 10
209.8834601266292
 20
462.6961869646146
 30
0.0
 10
209.8156892716655
 20
462.1598843507909
 30
0.0
 10
209.6012961630232
 20
460.6033306240092
 30
0.0
 10
209.1413700920503
 20
458.1221248773891
 30
0.0
 10
208.1443317290829
 20
454.95421076607
 30
0.0
 10
206.8375619110575
 20
452.4197141496674
 30
0.0
 10
205.2982322540952
 20
450.4251565618699
 30
0.0
 10
203.6228000223839
 20
448.8730428277689
 30
0.0
 10
201.624293848437
 20
447.5553112813544
 30
0.0
 10
199.3519181065659
 20
446.501068494276
 30
0.0
 10
196.8488389050966
 20
445.6945124553116
 30
0.0
 10
194.848672637932
 20
445.2737585987416
 30
0.0
 10
193.4522466407042
 20
445.061406104114
 30
0.0
 10
192.7254510350537
 20
444.9679068527993
 30
0.0
 10
191.9916730825469
 20
444.8888311400074
 30
0.0
 10
191.4979822622833
 20
444.8493018150934
 30
0.0
 10
191.2508797390213
 20
444.8295165658479
 30
0.0
  0
CIRCLE
  5
C2
330
1F
100
AcDbEntity
  8
0
  6
Continuous
 62
     8
370
     0
100
AcDbCircle
 10
188.5906746122
 20
448.1443234973
 30
0.0
 40
3.781418633081842
  0
CIRCLE
  5
C3
330
1F
100
AcDbEntity
  8
0
  6
Continuous
 62
     8
370
     0
100
AcDbCircle
 10
188.5906746122
 20
448.1443234973
 30
0.0
 40
3.569682227408606
  0
SPLINE
  5
C4
330
1F
100
AcDbEntity
  8
0
  6
Continuous
 62
     8
370
    15
100
AcDbSpline
210
0.0
220
0.0
230
1.0
 70
     8
 71
     3
 72
     9
 73
     5
 74
     0
 42
0.00000001
 43
0.00000001
 12
1.0
 22
0.0
 32
0.0
 13
1.0
 23
0.0
 33
0.0
 40
0.0
 40
0.0
 40
0.0
 40
0.0
 40
0.5396573631080314
 40
1.0
 40
1.0
 40
1.0
 40
1.0
 10
165.8640598363652
 20
433.644327140585
 30
0.0
 10
165.7706875651648
 20
433.644326861626
 30
0.0
 10
165.5976661675457
 20
433.6443263447073
 30
0.0
 10
165.6472381144126
 20
433.6443258228803
 30
0.0
 10
165.6700581951492
 20
433.644325582661
 30
0.0
  0
SPLINE
  5
C5
330
1F
100
AcDbEntity
  8
0
  6
Continuous
 62
     8
370
    15
100
AcDbSpline
210
0.0
220
0.0
230
1.0
 70
     8
 71
     3
 72
     9
 73
     5
 74
     0
 42
0.00000001
 43
0.00000001
 12
1.0
 22
0.0
 32
0.0
 13
1.0
 23
0.0
 33
0.0
 40
0.0
 40
0.0
 40
0.0
 40
0.0
 40
0.503815550767096
 40
0.9999999999999999
 40
0.9999999999999999
 40
0.9999999999999999
 40
0.9999999999999999
 10
211.5834343985921
 20
433.6443255790667
 30
0.0
 10
211.5748370600845
 20
433.6443258420127
 30
0.0
 10
211.5577726036687
 20
433.6443263639219
 30
0.0
 10
211.3970278418844
 20
433.644326881054
 30
0.0
 10
211.3172687907914
 20
433.6443271376469
 30
0.0
  0
SPLINE
  5
C6
330
1F
100
AcDbEntity
  8
0
  6
Continuous
 62
     8
370
    15
100
AcDbSpline
210
0.0
220
0.0
230
1.0
 70
     8
 71
     3
 72
    10
 73
     6
 74
     0
 42
0.00000001
 43
0.00000001
 12
1.0
 22
0.0
 32
0.0
 13
1.0
 23
0.0
 33
0.0
 40
0.0
 40
0.0
 40
0.0
 40
0.0
 40
0.2560506580194813
 40
0.77311825996309
 40
1.0
 40
1.0
 40
1.0
 40
1.0
 10
166.7966546640498
 20
471.4442735135696
 30
0.0
 10
166.6086892574752
 20
471.4442753064732
 30
0.0
 10
166.0411473140633
 20
471.4442807199586
 30
0.0
 10
165.6398531167617
 20
471.4442774250876
 30
0.0
 10
165.6100297394151
 20
471.4442711099892
 30
0.0
 10
165.6009345237003
 20
471.4442691840778
 30
0.0
  0
SPLINE
  5
C7
330
1F
100
AcDbEntity
  8
0
  6
Continuous
 62
     8
370
    15
100
AcDbSpline
210
0.0
220
0.0
230
1.0
 70
     8
 71
     3
 72
    11
 73
     7
 74
     0
 42
0.00000001
 43
0.00000001
 12
1.0
 22
0.0
 32
0.0
 13
1.0
 23
0.0
 33
0.0
 40
0.0
 40
0.0
 40
0.0
 40
0.0
 40
0.2272401934021321
 40
0.4868006916334015
 40
0.7507761903032485
 40
0.9999999999999999
 40
0.9999999999999999
 40
0.9999999999999999
 40
0.9999999999999999
 10
211.582248781832
 20
471.4442692043171
 30
0.0
 10
211.5736755310907
 20
471.444271151121
 30
0.0
 10
211.5553096587159
 20
471.4442753216222
 30
0.0
 10
211.3242288859149
 20
471.4442786749319
 30
0.0
 10
210.9505164847156
 20
471.4442789802898
 30
0.0
 10
210.5696523778626
 20
471.4442752997281
 30
0.0
 10
210.3846942102674
 20
471.4442735123453
 30
0.0
  0
LINE
  5
C8
330
1F
100
AcDbEntity
  8
0
  6
Continuous
 62
     7
370
    15
100
AcDbLine
 10
358.0100710396
 20
438.4443234973
 30
0.0
 11
358.0100710396
 21
443.8972884087
 31
0.0
  0
LINE
  5
C9
330
1F
100
AcDbEntity
  8
0
  6
Continuous
 62
     7
370
    15
100
AcDbLine
 10
312.0100710396
 20
471.4442446949
 30
0.0
 11
312.0100710396
 21
449.5496338399
 31
0.0
  0
ARC
  5
CA
330
1F
100
AcDbEntity
  8
0
  6
Continuous
 62
     7
370
    15
100
AcDbCircle
 10
313.5100710396
 20
433.6443162056
 30
0.0
 40
1.500000000000044
100
AcDbArc
 50
105.5201429898
 51
179.6544932877
  0
ARC
  5
CB
330
1F
100
AcDbEntity
  8
0
  6
Continuous
 62
     7
370
    15
100
AcDbCircle
 10
313.2100710471
 20
471.4442447714
 30
0.0
 40
1.199999999999998
100
AcDbArc
 50
104.382742853
 51
180.1461524961
  0
LINE
  5
CC
330
1F
100
AcDbEntity
  8
0
  6
Continuous
 62
     7
370
    15
100
AcDbLine
 10
358.0100710396
 20
315.1443234973
 30
0.0
 11
358.0100710396
 21
378.6523869132
 31
0.0
  0
LINE
  5
CD
330
1F
100
AcDbEntity
  8
0
  6
Continuous
 62
     7
370
    15
100
AcDbLine
 10
312.0100710396
 20
341.5223770133
 30
0.0
 11
312.0100710396
 21
315.1443234973
 31
0.0
  0
LINE
  5
CE
330
1F
100
AcDbEntity
  8
0
  6
Continuous
 62
     7
370
    15
100
AcDbLine
 10
312.0100710396
 20
433.6443154681
 30
0.0
 11
312.0100710396
 21
361.6675769291
 31
0.0
  0
SPLINE
  5
CF
330
1F
100
AcDbEntity
  8
0
  6
Continuous
 62
     7
370
    15
100
AcDbSpline
210
0.0
220
0.0
230
1.0
 70
     8
 71
     3
 72
    24
 73
    20
 74
     0
 42
0.00000001
 43
0.00000001
 12
1.0
 22
0.0
 32
0.0
 13
1.0
 23
0.0
 33
0.0
 40
0.0
 40
0.0
 40
0.0
 40
0.0
 40
0.0437902473444135
 40
0.0894773694838686
 40
0.1333045700166146
 40
0.1793290689872017
 40
0.2277258666813338
 40
0.2785036405150682
 40
0.3583974446261013
 40
0.4311111116334145
 40
0.4965176741737816
 40
0.5567285978656781
 40
0.6181228810375484
 40
0.681865987107435
 40
0.7513829329790035
 40
0.8101980508583384
 40
0.8724626531333387
 40
0.9376392014918639
 40
1.0
 40
1.0
 40
1.0
 40
1.0
 10
413.7439721517235
 20
472.583235852228
 30
0.0
 10
412.3070324714747
 20
472.9313713718559
 30
0.0
 10
409.3709087797216
 20
473.6427226979902
 30
0.0
 10
404.9018408253743
 20
474.2194273448126
 30
0.0
 10
400.3362510680855
 20
474.5093405958078
 30
0.0
 10
395.670682090712
 20
474.5745914754862
 30
0.0
 10
390.7715234865486
 20
474.5599476006183
 30
0.0
 10
384.7292982936959
 20
474.5400526814395
 30
0.0
 10
377.8666058629324
 20
474.5468997246812
 30
0.0
 10
370.5103078297893
 20
474.563165339571
 30
0.0
 10
363.8181634328369
 20
474.5757295091378
 30
0.0
 10
357.508002395835
 20
474.6182145165374
 30
0.0
 10
351.2551059535732
 20
474.7677623814161
 30
0.0
 10
344.6941024151854
 20
475.0744980814376
 30
0.0
 10
338.2184347791607
 20
475.3507979153237
 30
0.0
 10
331.7838076113329
 20
475.3451154093734
 30
0.0
 10
325.5087792141168
 20
474.9365602715837
 30
0.0
 10
319.1512707414017
 20
474.0804879972938
 30
0.0
 10
314.9644888213256
 20
473.0756828771879
 30
0.0
 10
312.9173154236514
 20
472.5843722832771
 30
0.0
  0
LINE
  5
D0
330
1F
100
AcDbEntity
  8
0
  6
Continuous
 62
     7
370
    15
100
AcDbLine
 10
313.4696244923
 20
435.138325453
 30
0.0
 11
313.118068279
 21
435.0536693047
 31
0.0
  0
SPLINE
  5
D1
330
1F
100
AcDbEntity
  8
0
  6
Continuous
 62
     7
370
    15
100
AcDbSpline
210
0.0
220
0.0
230
1.0
 70
     8
 71
     3
 72
    31
 73
    27
 74
     0
 42
0.00000001
 43
0.00000001
 12
1.0
 22
0.0
 32
0.0
 13
1.0
 23
0.0
 33
0.0
 40
0.0
 40
0.0
 40
0.0
 40
0.0
 40
0.0439823147700123
 40
0.0953067753039917
 40
0.1437248123484779
 40
0.1895894332826528
 40
0.2330174568167069
 40
0.2740296055275437
 40
0.3336033290948336
 40
0.3872203211518767
 40
0.4348782878761118
 40
0.5129346694445108
 40
0.5950187538723755
 40
0.6815323549852426
 40
0.725269355446967
 40
0.7700567925798916
 40
0.8146624045646346
 40
0.8535748077985859
 40
0.8861311510680282
 40
0.9123315746896755
 40
0.9321759688962971
 40
0.9408298559002202
 40
0.9518014802339021
 40
0.9686708659576289
 40
0.991438949959737
 40
1.0
 40
1.0
 40
1.0
 40
1.0
 10
471.7511678405492
 20
435.1118313394061
 30
0.0
 10
470.1140537862067
 20
435.5406010748788
 30
0.0
 10
466.5665356044076
 20
436.4697168126369
 30
0.0
 10
461.0781198798475
 20
437.2178171194859
 30
0.0
 10
455.4896179559977
 20
437.5820500065251
 30
0.0
 10
450.1936711888336
 20
437.6567788660975
 30
0.0
 10
445.1835599506504
 20
437.6448871776312
 30
0.0
 10
439.6461602440367
 20
437.6139483450513
 30
0.0
 10
433.7169590459484
 20
437.6038856153826
 30
0.0
 10
427.5322262164856
 20
437.6184927562268
 30
0.0
 10
420.636853211146
 20
437.6405610060807
 30
0.0
 10
412.6469224189403
 20
437.6714333372014
 30
0.0
 10
403.162951962747
 20
437.7005770363448
 30
0.0
 10
394.998555689969
 20
437.7172613328522
 30
0.0
 10
388.2682288456235
 20
437.7242548404978
 30
0.0
 10
383.1492889543409
 20
437.7258220969514
 30
0.0
 10
378.2158583800953
 20
437.7243280628345
 30
0.0
 10
373.7527219293952
 20
437.7223693803452
 30
0.0
 10
369.9972763876106
 20
437.7226371702559
 30
0.0
 10
366.9750103314304
 20
437.7261755383764
 30
0.0
 10
364.8718142173622
 20
437.7314378706535
 30
0.0
 10
363.3541798730001
 20
437.7369504983798
 30
0.0
 10
361.9509398851596
 20
437.7432049716573
 30
0.0
 10
360.0050239070757
 20
437.7551286081253
 30
0.0
 10
358.1518010937343
 20
437.7689375038007
 30
0.0
 10
356.9472676732204
 20
437.7839547038141
 30
0.0
 10
356.6181149148248
 20
437.7880583282744
 30
0.0
  0
ARC
  5
D2
330
1F
100
AcDbEntity
  8
0
  6
Continuous
 62
     7
370
    15
100
AcDbCircle
 10
335.0100710396
 20
435.144336776
 30
0.0
 40
21.64486082191335
100
AcDbArc
 50
146.8438890289
 51
170.9531540197
  0
ARC
  5
D3
330
1F
100
AcDbEntity
  8
0
  6
Continuous
 62
     7
370
    15
100
AcDbCircle
 10
346.5100710396
 20
436.975397551
 30
0.0
 40
10.00000000000003
100
AcDbArc
 50
4.3944612377
 51
6.7127990764
  0
ARC
  5
D4
330
1F
100
AcDbEntity
  8
0
  6
Continuous
 62
     7
370
    15
100
AcDbCircle
 10
323.5100710396
 20
436.975397551
 30
0.0
 40
9.999999999999947
100
AcDbArc
 50
170.9531540197
 51
180.0
  0
LINE
  5
D5
330
1F
100
AcDbEntity
  8
0
  6
Continuous
 62
     7
370
    15
100
AcDbLine
 10
313.5100710396
 20
436.975397551
 30
0.0
 11
313.5100710396
 21
435.1917950479
 31
0.0
  0
ARC
  5
D6
330
1F
100
AcDbEntity
  8
0
  6
Continuous
 62
     7
370
    15
100
AcDbCircle
 10
312.3100710396
 20
449.5496338399
 30
0.0
 40
0.3000000000000247
100
AcDbArc
 50
193.2296437099
 51
244.0
  0
ARC
  5
D7
330
1F
100
AcDbEntity
  8
0
  6
Continuous
 62
     7
370
    15
100
AcDbCircle
 10
357.7100710396
 20
438.4443234973
 30
0.0
 40
0.3000000000000114
100
AcDbArc
 50
270.0
 51
0.0
  0
SPLINE
  5
D8
330
1F
100
AcDbEntity
  8
0
  6
Continuous
 62
     7
370
    15
100
AcDbSpline
210
0.0
220
0.0
230
1.0
 70
     8
 71
     3
 72
    13
 73
     9
 74
     0
 42
0.00000001
 43
0.00000001
 12
1.0
 22
0.0
 32
0.0
 13
1.0
 23
0.0
 33
0.0
 40
0.0
 40
0.0
 40
0.0
 40
0.0
 40
0.0976675938822238
 40
0.2800071501699508
 40
0.4882399627005561
 40
0.644734782538448
 40
0.8191130840307802
 40
1.0
 40
1.0
 40
1.0
 40
1.0
 10
461.2206347142498
 20
420.8280413270541
 30
0.0
 10
461.7150056115844
 20
421.0898018437317
 30
0.0
 10
463.1323374059617
 20
421.8402535891723
 30
0.0
 10
465.4046031983846
 20
423.48377090439
 30
0.0
 10
467.7614418865886
 20
425.5557559661482
 30
0.0
 10
469.8046144201548
 20
427.8748193749634
 30
0.0
 10
471.518240741905
 20
430.2614802297516
 30
0.0
 10
472.4607873203953
 20
432.0657285746088
 30
0.0
 10
472.9406945428323
 20
432.984380057227
 30
0.0
  0
SPLINE
  5
D9
330
1F
100
AcDbEntity
  8
0
  6
Continuous
 62
     7
370
    15
100
AcDbSpline
210
0.0
220
0.0
230
1.0
 70
     8
 71
     3
 72
    16
 73
    12
 74
     0
 42
0.00000001
 43
0.00000001
 12
1.0
 22
0.0
 32
0.0
 13
1.0
 23
0.0
 33
0.0
 40
0.0
 40
0.0
 40
0.0
 40
0.0
 40
0.1604824012053794
 40
0.297045525675129
 40
0.4060123188180957
 40
0.4863760524086243
 40
0.5782238894942711
 40
0.7031010710858857
 40
0.848937841849694
 40
0.9245162145703141
 40
0.9999999999999999
 40
0.9999999999999999
 40
0.9999999999999999
 40
0.9999999999999999
 10
394.6023778164555
 20
464.4796977821874
 30
0.0
 10
395.7368517120426
 20
464.5711666612525
 30
0.0
 10
397.8367105884565
 20
464.7404713392779
 30
0.0
 10
400.6905881502666
 20
465.1307649481138
 30
0.0
 10
402.9653726530821
 20
465.541230551874
 30
0.0
 10
404.9118583948767
 20
465.9753780035265
 30
0.0
 10
406.9478212543368
 20
466.5190519219684
 30
0.0
 10
409.3894689652877
 20
467.3337256697951
 30
0.0
 10
411.6221756089178
 20
468.3757079375119
 30
0.0
 10
413.3773332045532
 20
469.5664123129451
 30
0.0
 10
414.0908402654633
 20
470.3706574404944
 30
0.0
 10
414.4473704153551
 20
470.7725282159694
 30
0.0
  0
SPLINE
  5
DA
330
1F
100
AcDbEntity
  8
0
  6
Continuous
 62
     7
370
    15
100
AcDbSpline
210
0.0
220
0.0
230
1.0
 70
     8
 71
     3
 72
     9
 73
     5
 74
     0
 42
0.00000001
 43
0.00000001
 12
1.0
 22
0.0
 32
0.0
 13
1.0
 23
0.0
 33
0.0
 40
0.0
 40
0.0
 40
0.0
 40
0.0
 40
0.9351390745217052
 40
1.0
 40
1.0
 40
1.0
 40
1.0
 10
461.0408256551869
 20
420.7506905044391
 30
0.0
 10
461.0680407656446
 20
420.7502103624112
 30
0.0
 10
461.0971435068295
 20
420.7496969178969
 30
0.0
 10
461.0912419549293
 20
420.7499107489595
 30
0.0
 10
461.0908591748113
 20
420.7499246182401
 30
0.0
  0
LINE
  5
DB
330
1F
100
AcDbEntity
  8
0
  6
Continuous
 62
     7
370
    15
100
AcDbLine
 10
461.4701205499
 20
417.298385367
 30
0.0
 11
460.7471984655
 21
420.7926880257
 31
0.0
  0
LINE
  5
DC
330
1F
100
AcDbEntity
  8
0
  6
Continuous
 62
     7
370
    15
100
AcDbLine
 10
437.3456919896
 20
415.4432011804
 30
0.0
 11
437.9678209935
 21
412.4360900696
 31
0.0
  0
LINE
  5
DD
330
1F
100
AcDbEntity
  8
0
  6
Continuous
 62
     7
370
    15
100
AcDbLine
 10
437.9678209935
 20
412.4360900696
 30
0.0
 11
439.1496791124
 21
411.6594232255
 31
0.0
  0
LINE
  5
DE
330
1F
100
AcDbEntity
  8
0
  6
Continuous
 62
     7
370
    15
100
AcDbLine
 10
460.6934537058
 20
416.1165272481
 30
0.0
 11
461.4701205499
 21
417.298385367
 31
0.0
  0
LINE
  5
DF
330
1F
100
AcDbEntity
  8
0
  6
Continuous
 62
     7
370
    15
100
AcDbLine
 10
311.6663683296
 20
350.5428583359
 30
0.0
 11
311.7976959401
 21
350.7215170019
 31
0.0
  0
SPLINE
  5
E0
330
1F
100
AcDbEntity
  8
0
  6
Continuous
 62
     7
370
    15
100
AcDbSpline
210
0.0
220
0.0
230
1.0
 70
     8
 71
     3
 72
    12
 73
     8
 74
     0
 42
0.00000001
 43
0.00000001
 12
1.0
 22
0.0
 32
0.0
 13
1.0
 23
0.0
 33
0.0
 40
0.0
 40
0.0
 40
0.0
 40
0.0
 40
0.0019549136046382
 40
0.0939816786563228
 40
0.2257752679918958
 40
0.5827744155829915
 40
1.0
 40
1.0
 40
1.0
 40
1.0
 10
294.2477957719806
 20
356.8388862308602
 30
0.0
 10
294.2477982936746
 20
356.8389376779265
 30
0.0
 10
294.2479195230912
 20
356.8414109747725
 30
0.0
 10
294.2450358287876
 20
356.7772491402946
 30
0.0
 10
294.2523243804968
 20
356.5819412612624
 30
0.0
 10
294.3361165202078
 20
356.1899499926146
 30
0.0
 10
294.5475383731276
 20
355.9286000876573
 30
0.0
 10
294.6614724835948
 20
355.7877600158732
 30
0.0
  0
SPLINE
  5
E1
330
1F
100
AcDbEntity
  8
0
  6
Continuous
 62
     7
370
    15
100
AcDbSpline
210
0.0
220
0.0
230
1.0
 70
     8
 71
     3
 72
    11
 73
     7
 74
     0
 42
0.00000001
 43
0.00000001
 12
1.0
 22
0.0
 32
0.0
 13
1.0
 23
0.0
 33
0.0
 40
0.0
 40
0.0
 40
0.0
 40
0.0
 40
0.2424371145280116
 40
0.4924410844905676
 40
0.7457501802157352
 40
1.0
 40
1.0
 40
1.0
 40
1.0
 10
313.7789775866378
 20
358.2998034416169
 30
0.0
 10
313.7781224413135
 20
358.4004962898286
 30
0.0
 10
313.7763854601926
 20
358.6050247733091
 30
0.0
 10
313.7274019502138
 20
358.9077580277875
 30
0.0
 10
313.6489823735911
 20
359.1811168720002
 30
0.0
 10
313.5779294652816
 20
359.3111124989337
 30
0.0
 10
313.5423371653912
 20
359.3762307811875
 30
0.0
  0
SPLINE
  5
E2
330
1F
100
AcDbEntity
  8
0
  6
Continuous
 62
     7
370
    15
100
AcDbSpline
210
0.0
220
0.0
230
1.0
 70
     8
 71
     3
 72
     9
 73
     5
 74
     0
 42
0.00000001
 43
0.00000001
 12
1.0
 22
0.0
 32
0.0
 13
1.0
 23
0.0
 33
0.0
 40
0.0
 40
0.0
 40
0.0
 40
0.0
 40
0.4805650760625819
 40
1.0
 40
1.0
 40
1.0
 40
1.0
 10
305.998154994731
 20
352.1919620238225
 30
0.0
 10
306.2887552445463
 20
352.1432657506283
 30
0.0
 10
306.8934605473044
 20
352.0419344728894
 30
0.0
 10
307.4641512161584
 20
351.8172966542087
 30
0.0
 10
307.7605878803264
 20
351.7006119259489
 30
0.0
  0
LINE
  5
E3
330
1F
100
AcDbEntity
  8
0
  6
Continuous
 62
     7
370
    15
100
AcDbLine
 10
304.62796903
 20
352.4688167028
 30
0.0
 11
305.9981549947
 21
352.1919620238
 31
0.0
  0
SPLINE
  5
E4
330
1F
100
AcDbEntity
  8
0
  6
Continuous
 62
     7
370
    15
100
AcDbSpline
210
0.0
220
0.0
230
1.0
 70
     8
 71
     3
 72
    12
 73
     8
 74
     0
 42
0.00000001
 43
0.00000001
 12
1.0
 22
0.0
 32
0.0
 13
1.0
 23
0.0
 33
0.0
 40
0.0
 40
0.0
 40
0.0
 40
0.0
 40
0.2511631709146686
 40
0.5019700612057238
 40
0.6684262793956705
 40
0.8330384037325137
 40
1.0
 40
1.0
 40
1.0
 40
1.0
 10
313.5392054532913
 20
359.3812267386154
 30
0.0
 10
313.2643677646324
 20
359.8055838783727
 30
0.0
 10
312.7150822507758
 20
360.6536961977119
 30
0.0
 10
312.1575633776392
 20
361.459256414686
 30
0.0
 10
311.8612905391924
 20
361.8763500187172
 30
0.0
 10
311.535041305158
 20
362.360592387892
 30
0.0
 10
311.269997208882
 20
362.4182010305084
 30
0.0
 10
311.1365361332731
 20
362.4472094540726
 30
0.0
  0
LINE
  5
E5
330
1F
100
AcDbEntity
  8
0
  6
Continuous
 62
     7
370
    15
100
AcDbLine
 10
437.67969726
 20
415.5969589322
 30
0.0
 11
437.7838149379
 21
415.6458031339
 31
0.0
  0
SPLINE
  5
E6
330
1F
100
AcDbEntity
  8
0
  6
Continuous
 62
     7
370
    15
100
AcDbSpline
210
0.0
220
0.0
230
1.0
 70
     8
 71
     3
 72
    18
 73
    14
 74
     0
 42
0.00000001
 43
0.00000001
 12
1.0
 22
0.0
 32
0.0
 13
1.0
 23
0.0
 33
0.0
 40
0.0
 40
0.0
 40
0.0
 40
0.0
 40
0.0158003442596109
 40
0.0317652193345355
 40
0.0438846035785496
 40
0.0511193197439617
 40
0.0565222528073605
 40
0.0633581313361224
 40
0.0754976052892955
 40
0.1056173305993356
 40
0.2234673721102814
 40
0.5409577660672124
 40
0.9999999999999999
 40
0.9999999999999999
 40
0.9999999999999999
 40
0.9999999999999999
 10
437.1706937240487
 20
415.4362769375051
 30
0.0
 10
437.1616229150459
 20
415.4208131084874
 30
0.0
 10
437.1433868416551
 20
415.389724423809
 30
0.0
 10
437.1080856418131
 20
415.354678773863
 30
0.0
 10
437.0765505089245
 20
415.3311049918972
 30
0.0
 10
437.0566546731167
 20
415.3192996854914
 30
0.0
 10
437.0461373602207
 20
415.3136985435619
 30
0.0
 10
437.0382721194296
 20
415.3098127661323
 30
0.0
 10
437.0310885337519
 20
415.3065184152854
 30
0.0
 10
437.0268298637877
 20
415.3047438916221
 30
0.0
 10
437.0456877588294
 20
415.3126764515475
 30
0.0
 10
437.1318956723113
 20
415.3479256790593
 30
0.0
 10
437.3233520557533
 20
415.4329933644848
 30
0.0
 10
437.4365302568997
 20
415.4832805758018
 30
0.0
  0
LINE
  5
E7
330
1F
100
AcDbEntity
  8
0
  6
Continuous
 62
     7
370
    15
100
AcDbLine
 10
357.9652208693
 20
444.1443234973
 30
0.0
 11
358.2600710396
 21
444.1443234973
 31
0.0
  0
LINE
  5
E8
330
1F
100
AcDbEntity
  8
0
  6
Continuous
 62
     7
370
    15
100
AcDbLine
 10
358.2600710396
 20
444.1443234973
 30
0.0
 11
358.8606184095
 21
444.3629048642
 31
0.0
  0
LINE
  5
E9
330
1F
100
AcDbEntity
  8
0
  6
Continuous
 62
     7
370
    15
100
AcDbLine
 10
358.8606184095
 20
451.9257421304
 30
0.0
 11
358.2600710396
 21
452.1443234973
 31
0.0
  0
ARC
  5
EA
330
1F
100
AcDbEntity
  8
0
  6
Continuous
 62
     7
370
    15
100
AcDbCircle
 10
358.7922143809
 20
451.7378036062
 30
0.0
 40
0.2000000000000019
100
AcDbArc
 50
0.0
 51
70.0
  0
ARC
  5
EB
330
1F
100
AcDbEntity
  8
0
  6
Continuous
 62
     7
370
    15
100
AcDbCircle
 10
358.7922143809
 20
444.5508433883
 30
0.0
 40
0.2000000000000553
100
AcDbArc
 50
290.0
 51
0.0
  0
LINE
  5
EC
330
1F
100
AcDbEntity
  8
0
  6
Continuous
 62
     7
370
    15
100
AcDbLine
 10
358.9922143809
 20
444.5508433883
 30
0.0
 11
358.9922143809
 21
451.7378036062
 31
0.0
  0
LINE
  5
ED
330
1F
100
AcDbEntity
  8
0
  6
Continuous
 62
     7
370
    15
100
AcDbLine
 10
307.8796601083
 20
351.7426738544
 30
0.0
 11
312.0091026728
 21
341.5219448777
 31
0.0
  0
LINE
  5
EE
330
1F
100
AcDbEntity
  8
0
  6
Continuous
 62
     7
370
    15
100
AcDbLine
 10
294.3602744899
 20
356.2316601776
 30
0.0
 11
294.6614724836
 21
355.7877600159
 31
0.0
  0
SPLINE
  5
EF
330
1F
100
AcDbEntity
  8
0
  6
Continuous
 62
     7
370
    15
100
AcDbSpline
210
0.0
220
0.0
230
1.0
 70
     8
 71
     3
 72
     9
 73
     5
 74
     0
 42
0.00000001
 43
0.00000001
 12
1.0
 22
0.0
 32
0.0
 13
1.0
 23
0.0
 33
0.0
 40
0.0
 40
0.0
 40
0.0
 40
0.0
 40
0.4806127052245481
 40
1.0
 40
1.0
 40
1.0
 40
1.0
 10
305.9981549806384
 20
352.1919620274245
 30
0.0
 10
306.2887554848903
 20
352.143266695942
 30
0.0
 10
306.8934013901959
 20
352.0419474196241
 30
0.0
 10
307.4640360335293
 20
351.8173338253923
 30
0.0
 10
307.7604164172355
 20
351.7006723783145
 30
0.0
  0
LINE
  5
F0
330
1F
100
AcDbEntity
  8
0
  6
Continuous
 62
     7
370
    15
100
AcDbLine
 10
304.62796903
 20
352.4688167027
 30
0.0
 11
305.9981549806
 21
352.1919620274
 31
0.0
  0
SPLINE
  5
F1
330
1F
100
AcDbEntity
  8
0
  6
Continuous
 62
     7
370
    15
100
AcDbSpline
210
0.0
220
0.0
230
1.0
 70
     8
 71
     3
 72
    35
 73
    31
 74
     0
 42
0.00000001
 43
0.00000001
 12
1.0
 22
0.0
 32
0.0
 13
1.0
 23
0.0
 33
0.0
 40
0.0
 40
0.0
 40
0.0
 40
0.0
 40
0.0191157502911727
 40
0.0392792742456943
 40
0.0604914819684191
 40
0.0929095199722585
 40
0.1293884184504497
 40
0.163170996580654
 40
0.204119232260863
 40
0.243566392013974
 40
0.2843420340393665
 40
0.3260820493644038
 40
0.3677987958885182
 40
0.4084390575469135
 40
0.4469840351911588
 40
0.4828241705768329
 40
0.5164816151330435
 40
0.5767192352996543
 40
0.6289871675363982
 40
0.6747545818656173
 40
0.7156999636819734
 40
0.753659814131572
 40
0.7904682518843219
 40
0.8277338886375577
 40
0.8666777284746972
 40
0.9081039211682589
 40
0.9294442656903198
 40
0.9524769046615359
 40
0.975251948244788
 40
0.9999999999999999
 40
0.9999999999999999
 40
0.9999999999999999
 40
0.9999999999999999
 10
436.9251900080635
 20
415.2809066521613
 30
0.0
 10
436.2822181471226
 20
415.2467566327343
 30
0.0
 10
434.9610318126356
 20
415.176584760946
 30
0.0
 10
432.9257485797674
 20
415.0805275119068
 30
0.0
 10
430.4424853686914
 20
414.9726749623608
 30
0.0
 10
427.4096036599366
 20
414.8550013431409
 30
0.0
 10
423.9531688870609
 20
414.733607883237
 30
0.0
 10
420.209217635697
 20
414.6131969321171
 30
0.0
 10
416.3651001151571
 20
414.497289722423
 30
0.0
 10
412.2854398826279
 20
414.3777160435325
 30
0.0
 10
408.1790530103636
 20
414.2598563164057
 30
0.0
 10
403.9964269120237
 20
414.1332225426228
 30
0.0
 10
399.819503129277
 20
413.9716956284598
 30
0.0
 10
395.7527098023599
 20
413.7542078819761
 30
0.0
 10
391.8895476859061
 20
413.4524855693264
 30
0.0
 10
388.271710497586
 20
413.0511096077821
 30
0.0
 10
383.9482690578335
 20
412.4114715391503
 30
0.0
 10
379.1223290018605
 20
411.4010959962139
 30
0.0
 10
374.0362890541927
 20
409.7627497762476
 30
0.0
 10
369.7961277899806
 20
407.7386470346944
 30
0.0
 10
366.3344740872856
 20
405.3230156714349
 30
0.0
 10
363.5915762534104
 20
402.5201171408741
 30
0.0
 10
361.5067620958412
 20
399.3482339118446
 30
0.0
 10
360.0007498207042
 20
395.8339413344233
 30
0.0
 10
358.982633890405
 20
391.9935929937047
 30
0.0
 10
358.4774955275621
 20
388.5998116925059
 30
0.0
 10
358.2189895862684
 20
385.7210951701973
 30
0.0
 10
358.0927517270963
 20
383.4624720320376
 30
0.0
 10
358.02136390359
 20
381.0867565094044
 30
0.0
 10
358.0140090840655
 20
379.4859962781857
 30
0.0
 10
358.010178999915
 20
378.6523869190365
 30
0.0
  0
SPLINE
  5
F2
330
1F
100
AcDbEntity
  8
0
  6
Continuous
 62
     7
370
    15
100
AcDbSpline
210
0.0
220
0.0
230
1.0
 70
     8
 71
     3
 72
    14
 73
    10
 74
     0
 42
0.00000001
 43
0.00000001
 12
1.0
 22
0.0
 32
0.0
 13
1.0
 23
0.0
 33
0.0
 40
0.0
 40
0.0
 40
0.0
 40
0.0
 40
0.25
 40
0.25
 40
0.5
 40
0.5
 40
0.75
 40
0.75
 40
1.0
 40
1.0
 40
1.0
 40
1.0
 10
472.952757256137
 20
432.977734454003
 30
0.0
 10
473.0505725958741
 20
433.1748934334757
 30
0.0
 10
473.1042475229339
 20
433.3937992793577
 30
0.0
 10
473.1132102797769
 20
433.8338876567085
 30
0.0
 10
473.0684925530671
 20
434.0547973538144
 30
0.0
 10
472.8890786401064
 20
434.456753419232
 30
0.0
 10
472.7544936821524
 20
434.6375505934439
 30
0.0
 10
472.4209083134605
 20
434.9247415315658
 30
0.0
 10
472.2221147101647
 20
435.030957250427
 30
0.0
 10
472.0100352781975
 20
435.0897937184276
 30
0.0
  0
LWPOLYLINE
  5
F3
330
1F
100
AcDbEntity
  8
0
  6
Continuous
 62
     7
370
    15
100
AcDbPolyline
 90
        3
 70
   128
 43
0.0
 10
472.0090311824
 20
435.0902429844
 10
472.0090327172
 20
435.0901903247
 10
472.009030164
 20
435.0900267724
  0
SPLINE
  5
F4
330
1F
100
AcDbEntity
  8
0
  6
Continuous
 62
     7
370
    15
100
AcDbSpline
210
0.0
220
0.0
230
1.0
 70
     8
 71
     3
 72
    24
 73
    20
 74
     0
 42
0.00000001
 43
0.00000001
 12
1.0
 22
0.0
 32
0.0
 13
1.0
 23
0.0
 33
0.0
 40
0.0
 40
0.0
 40
0.0
 40
0.0
 40
0.2499999999999987
 40
0.2499999999999987
 40
0.3124999999999985
 40
0.3124999999999985
 40
0.3749999999999983
 40
0.3749999999999983
 40
0.4999999999999983
 40
0.4999999999999983
 40
0.5624999999999981
 40
0.5624999999999981
 40
0.6249999999999979
 40
0.6249999999999979
 40
0.7499999999999986
 40
0.7499999999999986
 40
0.8749999999999993
 40
0.8749999999999993
 40
1.0
 40
1.0
 40
1.0
 40
1.0
 10
346.5534805958899
 20
438.1443234972721
 30
0.0
 10
344.8428202992702
 20
438.1443234972721
 30
0.0
 10
343.0427286696222
 20
438.2317499139841
 30
0.0
 10
340.6880167958709
 20
438.48729244214
 30
0.0
 10
340.2104592351075
 20
438.5459279170992
 30
0.0
 10
339.2504749165272
 20
438.6781646393433
 30
0.0
 10
338.7708624116968
 20
438.7513390397819
 30
0.0
 10
337.3333198049135
 20
438.9921834353812
 30
0.0
 10
336.376692413975
 20
439.1811562395291
 30
0.0
 10
334.9448041205961
 20
439.5081402393901
 30
0.0
 10
334.4680147140405
 20
439.6243934100416
 30
0.0
 10
333.515501987343
 20
439.8716271249526
 30
0.0
 10
333.038142646255
 20
440.0030973320036
 30
0.0
 10
331.621215121817
 20
440.4159722355184
 30
0.0
 10
330.6986670478188
 20
440.7149894054293
 30
0.0
 10
328.8943759517198
 20
441.3567945156515
 30
0.0
 10
328.0126455649025
 20
441.6995962409555
 30
0.0
 10
326.2881773066439
 20
442.4256977944493
 30
0.0
 10
325.4462399190123
 20
442.8089156063289
 30
0.0
 10
324.6349232564349
 20
443.2046211823143
 30
0.0
  0
SPLINE
  5
F5
330
1F
100
AcDbEntity
  8
0
  6
Continuous
 62
     7
370
    15
100
AcDbSpline
210
0.0
220
0.0
230
1.0
 70
     8
 71
     3
 72
    17
 73
    13
 74
     0
 42
0.00000001
 43
0.00000001
 12
1.0
 22
0.0
 32
0.0
 13
1.0
 23
0.0
 33
0.0
 40
0.0
 40
0.0
 40
0.0
 40
0.0
 40
0.0328470269798302
 40
0.1592177511091183
 40
0.2796241263796596
 40
0.4008634602683916
 40
0.524713470761913
 40
0.6494579850526537
 40
0.7363262227393587
 40
0.8234966984920538
 40
0.9115922487580579
 40
1.0
 40
1.0
 40
1.0
 40
1.0
 10
358.0095235768428
 20
443.8972884086508
 30
0.0
 10
358.0096865613212
 20
443.8964056919994
 30
0.0
 10
358.0104765878322
 20
443.8921269437222
 30
0.0
 10
358.0062627871856
 20
443.9149253477891
 30
0.0
 10
357.9970094564716
 20
443.9654322394784
 30
0.0
 10
357.9824575911235
 20
444.0460425110128
 30
0.0
 10
357.9631798283938
 20
444.1552548570253
 30
0.0
 10
357.9418565089371
 20
444.2797707694226
 30
0.0
 10
357.9204517101852
 20
444.4089730748902
 30
0.0
 10
357.9001644246661
 20
444.5354518591536
 30
0.0
 10
357.878570054914
 20
444.674442764169
 30
0.0
 10
357.8633737623937
 20
444.777748447955
 30
0.0
 10
357.8557621764492
 20
444.8294926539614
 30
0.0
  0
SPLINE
  5
F6
330
1F
100
AcDbEntity
  8
0
  6
Continuous
 62
     7
370
    15
100
AcDbSpline
210
0.0
220
0.0
230
1.0
 70
     8
 71
     3
 72
    33
 73
    29
 74
     0
 42
0.00000001
 43
0.00000001
 12
1.0
 22
0.0
 32
0.0
 13
1.0
 23
0.0
 33
0.0
 40
0.0
 40
0.0
 40
0.0
 40
0.0
 40
0.0091133212409765
 40
0.0231682500477252
 40
0.0393822769930191
 40
0.0560617787725154
 40
0.0815092142549895
 40
0.1076163596034511
 40
0.1327226557739824
 40
0.1580248459269657
 40
0.1837510717115519
 40
0.2095670179691081
 40
0.2387777613315807
 40
0.2680558462881713
 40
0.3269670844263452
 40
0.3868202849874884
 40
0.4468765284853721
 40
0.5009500046516406
 40
0.5551219595587354
 40
0.6095742487453755
 40
0.6641153590381038
 40
0.7198178461465378
 40
0.7756291204649047
 40
0.8318397557959899
 40
0.8882293589331788
 40
0.9275113729241095
 40
0.9669308587193152
 40
1.0
 40
1.0
 40
1.0
 40
1.0
 10
312.0101712243464
 20
341.5223770132713
 30
0.0
 10
312.0101713187256
 20
341.5223786605951
 30
0.0
 10
312.01017155866
 20
341.5223828484873
 30
0.0
 10
312.0112943883285
 20
341.554127349889
 30
0.0
 10
312.0134613945057
 20
341.6160370772263
 30
0.0
 10
312.0171878387857
 20
341.7243962771965
 30
0.0
 10
312.022508731928
 20
341.8836953141823
 30
0.0
 10
312.0291026400965
 20
342.0905252710489
 30
0.0
 10
312.0358707237619
 20
342.3144862478921
 30
0.0
 10
312.0425567945683
 20
342.5490299699317
 30
0.0
 10
312.0491073275081
 20
342.7941785619886
 30
0.0
 10
312.0556800274661
 20
343.0582907648048
 30
0.0
 10
312.0621216181488
 20
343.3394401508853
 30
0.0
 10
312.0703896171393
 20
343.7368518928303
 30
0.0
 10
312.0793819464827
 20
344.2465364610048
 30
0.0
 10
312.0877423550861
 20
344.870040625085
 30
0.0
 10
312.0933787568096
 20
345.4813403760705
 30
0.0
 10
312.0965408572298
 20
346.0749830468628
 30
0.0
 10
312.0975307773347
 20
346.6498317399348
 30
0.0
 10
312.0964905243565
 20
347.2263128402416
 30
0.0
 10
312.0934413985732
 20
347.8072530218069
 30
0.0
 10
312.0884005046835
 20
348.3910205191469
 30
0.0
 10
312.0813886911728
 20
348.9774526175961
 30
0.0
 10
312.0725199058021
 20
349.5612858399253
 30
0.0
 10
312.0629956824208
 20
350.0814470571891
 30
0.0
 10
312.053506671099
 20
350.5352601591915
 30
0.0
 10
312.0450990610429
 20
350.905194869297
 30
0.0
 10
312.0393369105932
 20
351.1327156613198
 30
0.0
 10
312.0367082311026
 20
351.2365101118315
 30
0.0
  0
LINE
  5
F7
330
1F
100
AcDbEntity
  8
0
  6
Continuous
 62
     7
370
    15
100
AcDbLine
 10
358.0100710396
 20
315.1443234973
 30
0.0
 11
312.0100710396
 21
315.1443234973
 31
0.0
  0
SPLINE
  5
F8
330
1F
100
AcDbEntity
  8
0
  6
Continuous
 62
     7
370
    15
100
AcDbSpline
210
0.0
220
0.0
230
1.0
 70
     8
 71
     3
 72
    14
 73
    10
 74
     0
 42
0.00000001
 43
0.00000001
 12
1.0
 22
0.0
 32
0.0
 13
1.0
 23
0.0
 33
0.0
 40
0.0
 40
0.0
 40
0.0
 40
0.0
 40
0.25
 40
0.25
 40
0.5
 40
0.5
 40
0.75
 40
0.75
 40
1.0
 40
1.0
 40
1.0
 40
1.0
 10
414.3915181289111
 20
470.701014422265
 30
0.0
 10
414.5145069698581
 20
470.8569500357082
 30
0.0
 10
414.5978858305112
 20
471.0438735295982
 30
0.0
 10
414.6656023429047
 20
471.4352598712371
 30
0.0
 10
414.6498722111702
 20
471.6393309456159
 30
0.0
 10
414.5229746190421
 20
472.0157160841011
 30
0.0
 10
414.4119341817253
 20
472.1876533908747
 30
0.0
 10
414.1210671241014
 20
472.4581436653407
 30
0.0
 10
413.9415316584804
 20
472.55642587528
 30
0.0
 10
413.7492342996732
 20
472.6060630836335
 30
0.0
  0
SPLINE
  5
F9
330
1F
100
AcDbEntity
  8
0
  6
Continuous
 62
     7
370
    15
100
AcDbSpline
210
0.0
220
0.0
230
1.0
 70
     8
 71
     3
 72
    30
 73
    26
 74
     0
 42
0.00000001
 43
0.00000001
 12
1.0
 22
0.0
 32
0.0
 13
1.0
 23
0.0
 33
0.0
 40
0.0
 40
0.0
 40
0.0
 40
0.0
 40
0.0251357588669829
 40
0.0513329935968466
 40
0.0785927253798423
 40
0.1069132771830574
 40
0.1739848261670315
 40
0.2536525823237639
 40
0.2907851421649006
 40
0.3279037621079192
 40
0.401015905328844
 40
0.4707372087356251
 40
0.5348720258591417
 40
0.5928683852991529
 40
0.6438569713933218
 40
0.6901401106175992
 40
0.7316671477571924
 40
0.7700795241762824
 40
0.8065426722842884
 40
0.8423999999651952
 40
0.8795938759433116
 40
0.9186189450018872
 40
0.9618500798283227
 40
0.9804234169048403
 40
1.0
 40
1.0
 40
1.0
 40
1.0
 10
394.7388416015461
 20
464.4894009374051
 30
0.0
 10
394.3863490517485
 20
464.4650441085122
 30
0.0
 10
393.6664782932228
 20
464.4153018688523
 30
0.0
 10
392.5636153007183
 20
464.3501172265043
 30
0.0
 10
391.4156584136692
 20
464.2897014657414
 30
0.0
 10
389.6933633383143
 20
464.210436785212
 30
0.0
 10
387.2341415889119
 20
464.1206862591875
 30
0.0
 10
384.6503806669563
 20
464.0511968504258
 30
0.0
 10
382.4873249181757
 20
464.0015436348864
 30
0.0
 10
380.4163617777375
 20
463.955663908108
 30
0.0
 10
377.8875456107237
 20
463.8927648564397
 30
0.0
 10
374.9803659667344
 20
463.7751407293713
 30
0.0
 10
372.2897420371445
 20
463.5809348269732
 30
0.0
 10
369.8733801798587
 20
463.2805159409962
 30
0.0
 10
367.7284328472046
 20
462.8658299172881
 30
0.0
 10
365.8498742302862
 20
462.3266409233912
 30
0.0
 10
364.2069823550582
 20
461.6441692043772
 30
0.0
 10
362.7931414236915
 20
460.8078960489319
 30
0.0
 10
361.5950620678238
 20
459.802251851622
 30
0.0
 10
360.600910108603
 20
458.6168433410472
 30
0.0
 10
359.8018780553883
 20
457.2512837226053
 30
0.0
 10
359.1732403430694
 20
455.6890529679016
 30
0.0
 10
358.8058567495376
 20
454.3172589474319
 30
0.0
 10
358.5789759341338
 20
453.195825411908
 30
0.0
 10
358.4948309045944
 20
452.6661339814551
 30
0.0
 10
358.4516519895296
 20
452.3943234964949
 30
0.0
  0
SPLINE
  5
FA
330
1F
100
AcDbEntity
  8
0
  6
Continuous
 62
     7
370
    15
100
AcDbSpline
210
0.0
220
0.0
230
1.0
 70
     8
 71
     3
 72
    32
 73
    28
 74
     0
 42
0.00000001
 43
0.00000001
 12
1.0
 22
0.0
 32
0.0
 13
1.0
 23
0.0
 33
0.0
 40
0.0
 40
0.0
 40
0.0
 40
0.0
 40
0.0625000000000001
 40
0.0625000000000001
 40
0.1250000000000001
 40
0.1250000000000001
 40
0.1875000000000002
 40
0.1875000000000002
 40
0.2500000000000002
 40
0.2500000000000002
 40
0.3125000000000002
 40
0.3125000000000002
 40
0.3750000000000002
 40
0.3750000000000002
 40
0.4375000000000003
 40
0.4375000000000003
 40
0.5000000000000002
 40
0.5000000000000002
 40
0.5625000000000003
 40
0.5625000000000003
 40
0.6250000000000002
 40
0.6250000000000002
 40
0.7500000000000001
 40
0.7500000000000001
 40
0.8750000000000001
 40
0.8750000000000001
 40
1.0
 40
1.0
 40
1.0
 40
1.0
 10
358.4516519896446
 20
452.394323497261
 30
0.0
 10
358.4514125209623
 20
452.3943239949474
 30
0.0
 10
358.4462067398337
 20
452.3775987675324
 30
0.0
 10
358.4255655814831
 20
452.3097112263535
 30
0.0
 10
358.4101868452003
 20
452.2587182113816
 30
0.0
 10
358.3710070301167
 20
452.1260265174249
 30
0.0
 10
358.3471385191507
 20
452.0441129668337
 30
0.0
 10
358.2920474913695
 20
451.8487747737096
 30
0.0
 10
358.2609089048572
 20
451.7355482965713
 30
0.0
 10
358.195096694897
 20
451.4850921818085
 30
0.0
 10
358.1602016972767
 20
451.3471064035699
 30
0.0
 10
358.0883820735756
 20
451.0452554054003
 30
0.0
 10
358.0513754408134
 20
450.8807803408645
 30
0.0
 10
357.9797520834416
 20
450.5361669138812
 30
0.0
 10
357.9448324487782
 20
450.354844450915
 30
0.0
 10
357.87862182
 20
449.9738012727078
 30
0.0
 10
357.8471050838029
 20
449.7722359726998
 30
0.0
 10
357.7911786880166
 20
449.3617804674603
 30
0.0
 10
357.7666106810213
 20
449.1523665533916
 30
0.0
 10
357.7251888136013
 20
448.725108013702
 30
0.0
 10
357.7082470301007
 20
448.5056469954774
 30
0.0
 10
357.6709177332871
 20
447.8451226312358
 30
0.0
 10
357.6643026239563
 20
447.4110106547722
 30
0.0
 10
357.683099412227
 20
446.5588276284407
 30
0.0
 10
357.7078642941785
 20
446.1624235505964
 30
0.0
 10
357.774945510947
 20
445.4275869918263
 30
0.0
 10
357.8157887585364
 20
445.104934998773
 30
0.0
 10
357.8557048731775
 20
444.8301615785668
 30
0.0
  0
SPLINE
  5
FB
330
1F
100
AcDbEntity
  8
0
  6
Continuous
 62
     7
370
    15
100
AcDbSpline
210
0.0
220
0.0
230
1.0
 70
     8
 71
     3
 72
    31
 73
    27
 74
     0
 42
0.00000001
 43
0.00000001
 12
1.0
 22
0.0
 32
0.0
 13
1.0
 23
0.0
 33
0.0
 40
0.0
 40
0.0
 40
0.0
 40
0.0
 40
0.0023417109101621
 40
0.0369921506998218
 40
0.1074667438205287
 40
0.1432099540585917
 40
0.1779581116794288
 40
0.2482353049694525
 40
0.2838380328742784
 40
0.3255501262579428
 40
0.3675651590565259
 40
0.4105419015769497
 40
0.4538515300412297
 40
0.4945983040452788
 40
0.5356285841809448
 40
0.5775531975220795
 40
0.6197868361195136
 40
0.6604926077724287
 40
0.7432864843010863
 40
0.7854735236095179
 40
0.8261893316565755
 40
0.8671878501288015
 40
0.909077970301136
 40
0.9512761473604998
 40
0.9919919888259113
 40
1.0
 40
1.0
 40
1.0
 40
1.0
 10
344.6968397369798
 20
435.4346401271785
 30
0.0
 10
344.6663101038303
 20
435.4318010579698
 30
0.0
 10
344.1840316187385
 20
435.3869521077617
 30
0.0
 10
342.741977999984
 20
435.2780234900029
 30
0.0
 10
340.7563794125874
 20
435.2019188542068
 30
0.0
 10
338.7329242368067
 20
435.1802232369775
 30
0.0
 10
336.6934123597047
 20
435.182988171095
 30
0.0
 10
334.6295601908305
 20
435.1820115219968
 30
0.0
 10
332.4767525308251
 20
435.1817546209914
 30
0.0
 10
330.7509589774382
 20
435.1817643291227
 30
0.0
 10
328.9497641394626
 20
435.1820817499042
 30
0.0
 10
327.1714263931345
 20
435.1818044164172
 30
0.0
 10
325.4697843563947
 20
435.181831900078
 30
0.0
 10
323.8636895989946
 20
435.1819214838814
 30
0.0
 10
322.3531148401934
 20
435.1819594968436
 30
0.0
 10
320.9149983230334
 20
435.1819612191462
 30
0.0
 10
319.5826519453695
 20
435.1819432072647
 30
0.0
 10
317.9611327072719
 20
435.1819114925991
 30
0.0
 10
316.5723555829628
 20
435.1818876175924
 30
0.0
 10
315.4542911173673
 20
435.1818741136369
 30
0.0
 10
314.7561564257574
 20
435.1818622786951
 30
0.0
 10
314.2018364692393
 20
435.1818471224455
 30
0.0
 10
313.7859463027294
 20
435.181831998238
 30
0.0
 10
313.5382413734205
 20
435.18182382233
 30
0.0
 10
313.4330043678579
 20
435.1818261167099
 30
0.0
 10
313.4555100106632
 20
435.1818268786826
 30
0.0
 10
313.4592089266828
 20
435.1818270039166
 30
0.0
  0
SPLINE
  5
FC
330
1F
100
AcDbEntity
  8
0
  6
Continuous
 62
     7
370
    15
100
AcDbSpline
210
0.0
220
0.0
230
1.0
 70
     8
 71
     3
 72
    26
 73
    22
 74
     0
 42
0.00000001
 43
0.00000001
 12
1.0
 22
0.0
 32
0.0
 13
1.0
 23
0.0
 33
0.0
 40
0.0
 40
0.0
 40
0.0
 40
0.0
 40
0.0207042297196949
 40
0.0671154317512807
 40
0.1569103326018143
 40
0.2029826854557464
 40
0.2493938874389561
 40
0.2838773227513453
 40
0.355526033916871
 40
0.4316826003677683
 40
0.4654050431950973
 40
0.5362909634790632
 40
0.613969489234332
 40
0.6589126094036942
 40
0.7041700716427771
 40
0.7499143828221563
 40
0.7963255846158912
 40
0.8864476728812494
 40
0.9321919843834849
 40
0.9786051291510176
 40
1.0
 40
1.0
 40
1.0
 40
1.0
 10
313.5293935487206
 20
435.1917950489888
 30
0.0
 10
313.5250995285434
 20
435.1917945223206
 30
0.0
 10
313.5111799081544
 20
435.1917928150579
 30
0.0
 10
313.7073037553418
 20
435.1917932355198
 30
0.0
 10
314.1938906117595
 20
435.191818445191
 30
0.0
 10
314.9868202605364
 20
435.1918433173262
 30
0.0
 10
315.6713684946159
 20
435.1918578735139
 30
0.0
 10
316.6296024097991
 20
435.1918757521705
 30
0.0
 10
317.9810471623429
 20
435.1919046293143
 30
0.0
 10
319.5887256486472
 20
435.1919465541066
 30
0.0
 10
321.3576760684412
 20
435.1919687471195
 30
0.0
 10
323.2957801526729
 20
435.1919757821293
 30
0.0
 10
325.5470662198898
 20
435.1917853285062
 30
0.0
 10
327.6047547785507
 20
435.1918617303721
 30
0.0
 10
329.323065612304
 20
435.1920416902498
 30
0.0
 10
331.1006553164542
 20
435.1916866906268
 30
0.0
 10
333.4951826957384
 20
435.1916750579176
 30
0.0
 10
335.9249120739852
 20
435.193309153886
 30
0.0
 10
338.3268157650862
 20
435.1895967301351
 30
0.0
 10
339.8076980702328
 20
435.1998603575879
 30
0.0
 10
340.6720997349383
 20
435.221897626187
 30
0.0
 10
340.9448368414569
 20
435.2288508530475
 30
0.0
  0
SPLINE
  5
FD
330
1F
100
AcDbEntity
  8
0
  6
Continuous
 62
     7
370
    15
100
AcDbSpline
210
0.0
220
0.0
230
1.0
 70
     8
 71
     3
 72
    22
 73
    18
 74
     0
 42
0.00000001
 43
0.00000001
 12
1.0
 22
0.0
 32
0.0
 13
1.0
 23
0.0
 33
0.0
 40
0.0
 40
0.0
 40
0.0
 40
0.0
 40
0.0416026192073036
 40
0.1159449992474693
 40
0.1908371924319185
 40
0.2630189535621164
 40
0.335688982580654
 40
0.4098688686619532
 40
0.484558414906485
 40
0.5581854326023485
 40
0.6322965094408435
 40
0.7079257908090676
 40
0.784081085092604
 40
0.8375695129342853
 40
0.8912477227931397
 40
0.9455203820667734
 40
1.0
 40
1.0
 40
1.0
 40
1.0
 10
356.6180332657958
 20
437.7812600861012
 30
0.0
 10
356.6202409119301
 20
437.7819382681455
 30
0.0
 10
356.626393542083
 20
437.7838283370431
 30
0.0
 10
356.4756251331237
 20
437.7388511551898
 30
0.0
 10
356.1802987788846
 20
437.6518553929172
 30
0.0
 10
355.7409256023897
 20
437.5250180403609
 30
0.0
 10
355.1710658810949
 20
437.3651763970818
 30
0.0
 10
354.4614968294292
 20
437.1736466528568
 30
0.0
 10
353.6190741984929
 20
436.9574199221198
 30
0.0
 10
352.6532375263851
 20
436.7247248113987
 30
0.0
 10
351.565674526109
 20
436.4823345733383
 30
0.0
 10
350.3519243311907
 20
436.2365148016625
 30
0.0
 10
349.1506556888701
 20
436.0200667946023
 30
0.0
 10
348.0091992069415
 20
435.8371169847402
 30
0.0
 10
346.9561752402279
 20
435.6870542502347
 30
0.0
 10
345.854821551675
 20
435.5497100191363
 30
0.0
 10
345.0833230696892
 20
435.473045389484
 30
0.0
 10
344.6968397369798
 20
435.4346401271785
 30
0.0
  0
SPLINE
  5
FE
330
1F
100
AcDbEntity
  8
0
  6
Continuous
 62
     7
370
    15
100
AcDbSpline
210
0.0
220
0.0
230
1.0
 70
     8
 71
     3
 72
    16
 73
    12
 74
     0
 42
0.00000001
 43
0.00000001
 12
1.0
 22
0.0
 32
0.0
 13
1.0
 23
0.0
 33
0.0
 40
0.0
 40
0.0
 40
0.0
 40
0.0
 40
0.0534045882337366
 40
0.1602467088948085
 40
0.2674419331180292
 40
0.3682816882185108
 40
0.4694173604122449
 40
0.6244657596929624
 40
0.7805921016212769
 40
0.9401105136231124
 40
1.0
 40
1.0
 40
1.0
 40
1.0
 10
353.6522770562129
 20
436.9753975509772
 30
0.0
 10
353.7496758542954
 20
436.999977442819
 30
0.0
 10
354.0419323318609
 20
437.0737322811752
 30
0.0
 10
354.4858945222549
 20
437.1894121307813
 30
0.0
 10
354.9514889005982
 20
437.314067836926
 30
0.0
 10
355.3497022806645
 20
437.423309281219
 30
0.0
 10
355.7429844297869
 20
437.5332286772075
 30
0.0
 10
356.1009094004643
 20
437.6353039860052
 30
0.0
 10
356.3613985997506
 20
437.7106763864936
 30
0.0
 10
356.4842391986293
 20
437.7465233020391
 30
0.0
 10
356.4675709812711
 20
437.7416040523283
 30
0.0
 10
356.463021231769
 20
437.7402612960249
 30
0.0
  0
SPLINE
  5
FF
330
1F
100
AcDbEntity
  8
0
  6
Continuous
 62
     7
370
    15
100
AcDbSpline
210
0.0
220
0.0
230
1.0
 70
     8
 71
     3
 72
    11
 73
     7
 74
     0
 42
0.00000001
 43
0.00000001
 12
1.0
 22
0.0
 32
0.0
 13
1.0
 23
0.0
 33
0.0
 40
0.0
 40
0.0
 40
0.0
 40
0.0
 40
0.1458172596749311
 40
0.468708903654498
 40
0.7916280089422405
 40
1.0
 40
1.0
 40
1.0
 40
1.0
 10
345.7799186392299
 20
435.5466786424359
 30
0.0
 10
346.2541969329431
 20
435.6014452414469
 30
0.0
 10
347.7786972532001
 20
435.7774847078076
 30
0.0
 10
350.054815595812
 20
436.1706833228085
 30
0.0
 10
352.193132567844
 20
436.6167088813826
 30
0.0
 10
353.2412184979849
 20
436.8743506371509
 30
0.0
 10
353.6522770562128
 20
436.9753975509771
 30
0.0
  0
LINE
  5
100
330
1F
100
AcDbEntity
  8
0
  6
Continuous
 62
     7
370
    15
100
AcDbLine
 10
324.6349232564
 20
443.2046211823
 30
0.0
 11
312.1785597077
 21
449.2799956201
 31
0.0
  0
LINE
  5
101
330
1F
100
AcDbEntity
  8
0
  6
Continuous
 62
     7
370
    15
100
AcDbLine
 10
357.7100710396
 20
438.1443234973
 30
0.0
 11
346.5534805959
 21
438.1443234973
 31
0.0
  0
SPLINE
  5
102
330
1F
100
AcDbEntity
  8
0
  6
Continuous
 62
     7
370
    15
100
AcDbSpline
210
0.0
220
0.0
230
1.0
 70
     8
 71
     3
 72
    36
 73
    32
 74
     0
 42
0.00000001
 43
0.00000001
 12
1.0
 22
0.0
 32
0.0
 13
1.0
 23
0.0
 33
0.0
 40
0.0
 40
0.0
 40
0.0
 40
0.0
 40
0.0290946390621059
 40
0.0583962460419212
 40
0.0883444423937479
 40
0.1185124583584852
 40
0.1475933622718403
 40
0.1770572480064158
 40
0.2067116609088059
 40
0.2367521414179144
 40
0.2670148313945881
 40
0.2974830005110941
 40
0.3286452865241292
 40
0.3600839279623411
 40
0.4094436705662181
 40
0.4599301643938054
 40
0.5094205200358359
 40
0.5598439219571609
 40
0.6145677132656663
 40
0.6702231485718373
 40
0.7006535849325742
 40
0.7312987440464763
 40
0.7626318324661524
 40
0.7942071913487687
 40
0.8239341454280564
 40
0.8538727116777386
 40
0.8844848319213134
 40
0.91533218365238
 40
0.9444519990966467
 40
0.9739926645073735
 40
1.0
 40
1.0
 40
1.0
 40
1.0
 10
437.6495848901517
 20
415.6076882799942
 30
0.0
 10
437.7657771612743
 20
415.6635621398682
 30
0.0
 10
437.9989882500307
 20
415.775707324469
 30
0.0
 10
438.4384964359137
 20
415.9970092940509
 30
0.0
 10
438.9433805065184
 20
416.2594521879647
 30
0.0
 10
439.5097312858078
 20
416.5622829838294
 30
0.0
 10
440.128240669595
 20
416.8994213554244
 30
0.0
 10
440.7939514453874
 20
417.2658063544975
 30
0.0
 10
441.5150577412675
 20
417.66209364727
 30
0.0
 10
442.2889112441702
 20
418.0806921710901
 30
0.0
 10
443.1152055722079
 20
418.5121935926372
 30
0.0
 10
443.9970063832166
 20
418.9463165791615
 30
0.0
 10
444.9359135585946
 20
419.3692037958278
 30
0.0
 10
446.1186185421873
 20
419.8385992087757
 30
0.0
 10
447.5809620436702
 20
420.301187243266
 30
0.0
 10
449.3106352462477
 20
420.6565095038668
 30
0.0
 10
451.0609619444514
 20
420.8430817867965
 30
0.0
 10
452.8162965010793
 20
420.9061684455344
 30
0.0
 10
454.5515393872892
 20
420.8969895974232
 30
0.0
 10
455.955202360263
 20
420.8686748594349
 30
0.0
 10
457.0212167306387
 20
420.8473968078966
 30
0.0
 10
457.8048611770224
 20
420.8331574875249
 30
0.0
 10
458.5297770761547
 20
420.8214018594528
 30
0.0
 10
459.1728583569601
 20
420.8121513601122
 30
0.0
 10
459.7291727166239
 20
420.804919534981
 30
0.0
 10
460.2012228499378
 20
420.7991567337253
 30
0.0
 10
460.594523409436
 20
420.7944789849424
 30
0.0
 10
460.8967092023963
 20
420.7909158688354
 30
0.0
 10
461.1054234498389
 20
420.7885184302708
 30
0.0
 10
461.2283916382819
 20
420.787223085012
 30
0.0
 10
461.2383643942274
 20
420.7873066424621
 30
0.0
 10
461.2430335957368
 20
420.7873457637015
 30
0.0
  0
LINE
  5
103
330
1F
100
AcDbEntity
  8
0
  6
Continuous
 62
     7
370
    15
100
AcDbLine
 10
437.9678209935
 20
412.4360900696
 30
0.0
 11
461.4701205499
 21
417.298385367
 31
0.0
  0
LINE
  5
104
330
1F
100
AcDbEntity
  8
0
  6
Continuous
 62
     7
370
    15
100
AcDbLine
 10
460.6934537058
 20
416.1165272481
 30
0.0
 11
439.1496791124
 21
411.6594232255
 31
0.0
  0
SPLINE
  5
105
330
1F
100
AcDbEntity
  8
0
  6
Continuous
 62
     7
370
    15
100
AcDbSpline
210
0.0
220
0.0
230
1.0
 70
     8
 71
     3
 72
    23
 73
    19
 74
     0
 42
0.00000001
 43
0.00000001
 12
1.0
 22
0.0
 32
0.0
 13
1.0
 23
0.0
 33
0.0
 40
0.0
 40
0.0
 40
0.0
 40
0.0
 40
0.0296107933375432
 40
0.0587821556895332
 40
0.0875467725894239
 40
0.1159387343527753
 40
0.1439934897831475
 40
0.1801480923271251
 40
0.2158117106120458
 40
0.2881461868607385
 40
0.4311860693315391
 40
0.5021018651997504
 40
0.5743053835716818
 40
0.709520310803597
 40
0.8580731098347031
 40
0.904022720737984
 40
0.9513093162942604
 40
1.0
 40
1.0
 40
1.0
 40
1.0
 10
313.7413474110725
 20
358.3147520888481
 30
0.0
 10
313.7378642592828
 20
358.2039601653979
 30
0.0
 10
313.7309496464775
 20
357.9840204961308
 30
0.0
 10
313.7155198813547
 20
357.6577937629424
 30
0.0
 10
313.6965106945149
 20
357.3375752851854
 30
0.0
 10
313.6736174124723
 20
357.0234334634735
 30
0.0
 10
313.644353705218
 20
356.6846172471642
 30
0.0
 10
313.6072904706092
 20
356.3230150422852
 30
0.0
 10
313.5448203388217
 20
355.8089550497642
 30
0.0
 10
313.4132403205081
 20
354.9382557358896
 30
0.0
 10
313.2103906878626
 20
354.0234227259241
 30
0.0
 10
312.9763145390727
 20
353.243453347126
 30
0.0
 10
312.7383492073326
 20
352.576996903426
 30
0.0
 10
312.4340770245935
 20
351.901816217463
 30
0.0
 10
312.1905482288202
 20
351.4745162145041
 30
0.0
 10
312.0425526602812
 20
351.2386608925062
 30
0.0
 10
311.9638202840086
 20
351.1190305704319
 30
0.0
 10
311.9189053403476
 20
351.0542547761469
 30
0.0
 10
311.896119329614
 20
351.0213930641295
 30
0.0
  0
SPLINE
  5
106
330
1F
100
AcDbEntity
  8
0
  6
Continuous
 62
     7
370
    15
100
AcDbSpline
210
0.0
220
0.0
230
1.0
 70
     8
 71
     3
 72
     9
 73
     5
 74
     0
 42
0.00000001
 43
0.00000001
 12
1.0
 22
0.0
 32
0.0
 13
1.0
 23
0.0
 33
0.0
 40
0.0
 40
0.0
 40
0.0
 40
0.0
 40
0.8664220687340768
 40
1.0
 40
1.0
 40
1.0
 40
1.0
 10
311.5222356811205
 20
350.4105672899722
 30
0.0
 10
311.5721603249178
 20
350.441708359683
 30
0.0
 10
311.6297819456025
 20
350.4776505070897
 30
0.0
 10
311.6591429746284
 20
350.5367536566676
 30
0.0
 10
311.6630649601455
 20
350.5446485331195
 30
0.0
  0
SPLINE
  5
107
330
1F
100
AcDbEntity
  8
0
  6
Continuous
 62
     7
370
    15
100
AcDbSpline
210
0.0
220
0.0
230
1.0
 70
     8
 71
     3
 72
    10
 73
     6
 74
     0
 42
0.00000001
 43
0.00000001
 12
1.0
 22
0.0
 32
0.0
 13
1.0
 23
0.0
 33
0.0
 40
0.0
 40
0.0
 40
0.0
 40
0.0
 40
0.5
 40
0.5
 40
1.0
 40
1.0
 40
1.0
 40
1.0
 10
311.0317993847871
 20
350.4134204379139
 30
0.0
 10
311.1095525400713
 20
350.3690000375104
 30
0.0
 10
311.1970766237847
 20
350.3465664844859
 30
0.0
 10
311.3679810933191
 20
350.3467943641854
 30
0.0
 10
311.4512252859237
 20
350.3693945539186
 30
0.0
 10
311.5222356811205
 20
350.4105672899722
 30
0.0
  0
LINE
  5
108
330
1F
100
AcDbEntity
  8
0
  6
Continuous
 62
     7
370
    15
100
AcDbLine
 10
294.67626142
 20
355.7787977866
 30
0.0
 11
294.6352377224
 21
355.8048213926
 31
0.0
  0
SPLINE
  5
109
330
1F
100
AcDbEntity
  8
0
  6
Continuous
 62
     7
370
    15
100
AcDbSpline
210
0.0
220
0.0
230
1.0
 70
     8
 71
     3
 72
    10
 73
     6
 74
     0
 42
0.00000001
 43
0.00000001
 12
1.0
 22
0.0
 32
0.0
 13
1.0
 23
0.0
 33
0.0
 40
0.0
 40
0.0
 40
0.0
 40
0.0
 40
0.5721721538319856
 40
0.8796886301532405
 40
1.0
 40
1.0
 40
1.0
 40
1.0
 10
294.635237722405
 20
355.8048213926314
 30
0.0
 10
294.5294334724751
 20
355.9435481587227
 30
0.0
 10
294.3667642564673
 20
356.1568342440576
 30
0.0
 10
294.2728997914354
 20
356.4508385012598
 30
0.0
 10
294.264373129308
 20
356.5801514639188
 30
0.0
 10
294.2619753087595
 20
356.6165161368025
 30
0.0
  0
SPLINE
  5
10A
330
1F
100
AcDbEntity
  8
0
  6
Continuous
 62
     7
370
    15
100
AcDbSpline
210
0.0
220
0.0
230
1.0
 70
     8
 71
     3
 72
    10
 73
     6
 74
     0
 42
0.00000001
 43
0.00000001
 12
1.0
 22
0.0
 32
0.0
 13
1.0
 23
0.0
 33
0.0
 40
0.0
 40
0.0
 40
0.0
 40
0.0
 40
0.2294685336641051
 40
0.4988264165489564
 40
1.0
 40
1.0
 40
1.0
 40
1.0
 10
294.2517890749251
 20
356.8384246535542
 30
0.0
 10
294.2579821070887
 20
356.9175964786041
 30
0.0
 10
294.2714447287056
 20
357.089702854806
 30
0.0
 10
294.3811858771509
 20
357.4232875284912
 30
0.0
 10
294.5507089503616
 20
357.632054182206
 30
0.0
 10
294.660971139241
 20
357.7678414102667
 30
0.0
  0
SPLINE
  5
10B
330
1F
100
AcDbEntity
  8
0
  6
Continuous
 62
     7
370
    15
100
AcDbSpline
210
0.0
220
0.0
230
1.0
 70
     8
 71
     3
 72
    22
 73
    18
 74
     0
 42
0.00000001
 43
0.00000001
 12
1.0
 22
0.0
 32
0.0
 13
1.0
 23
0.0
 33
0.0
 40
0.0
 40
0.0
 40
0.0
 40
0.0
 40
0.2499999999999962
 40
0.2499999999999962
 40
0.3749999999999962
 40
0.3749999999999962
 40
0.4999999999999963
 40
0.4999999999999963
 40
0.6249999999999964
 40
0.6249999999999964
 40
0.7499999999999964
 40
0.7499999999999964
 40
0.8124999999999972
 40
0.8124999999999972
 40
0.8749999999999979
 40
0.8749999999999979
 40
1.0
 40
1.0
 40
1.0
 40
1.0
 10
311.0318081966982
 20
350.4134366176008
 30
0.0
 10
310.6990681885102
 20
350.6036520527903
 30
0.0
 10
310.360743717825
 20
350.7797881207266
 30
0.0
 10
309.8445001178183
 20
351.0209609202423
 30
0.0
 10
309.6694918668592
 20
351.0981081083197
 30
0.0
 10
309.3240368583691
 20
351.2413517462917
 30
0.0
 10
309.1548794983935
 20
351.3069854849791
 30
0.0
 10
308.8264521486471
 20
351.426629559934
 30
0.0
 10
308.6666682605635
 20
351.4806990736401
 30
0.0
 10
308.3766618836018
 20
351.5730364669781
 30
0.0
 10
308.2426921063731
 20
351.6125284101988
 30
0.0
 10
308.0750959910589
 20
351.6595993300022
 30
0.0
 10
308.0248038841395
 20
351.6732824365577
 30
0.0
 10
307.9362608471454
 20
351.6968941608956
 30
0.0
 10
307.8977516738275
 20
351.7068876372745
 30
0.0
 10
307.8055463210183
 20
351.7305120495641
 30
0.0
 10
307.7735645378428
 20
351.7383228771842
 30
0.0
 10
307.7735466525976
 20
351.7383671468161
 30
0.0
  0
SPLINE
  5
10C
330
1F
100
AcDbEntity
  8
0
  6
Continuous
 62
     7
370
    15
100
AcDbSpline
210
0.0
220
0.0
230
1.0
 70
     8
 71
     3
 72
    15
 73
    11
 74
     0
 42
0.00000001
 43
0.00000001
 12
1.0
 22
0.0
 32
0.0
 13
1.0
 23
0.0
 33
0.0
 40
0.0
 40
0.0
 40
0.0
 40
0.0
 40
0.0554439642278185
 40
0.2518189876007572
 40
0.4474312305432604
 40
0.5652389231200764
 40
0.5653996769562569
 40
0.6911058348785392
 40
0.8320679725204887
 40
1.0
 40
1.0
 40
1.0
 40
1.0
 10
305.9981728643402
 20
352.192031954827
 30
0.0
 10
305.7794807886792
 20
352.2514647403897
 30
0.0
 10
304.7862109556825
 20
352.5214004150683
 30
0.0
 10
302.9504146551603
 20
352.6288058297247
 30
0.0
 10
300.8710346461096
 20
352.7468440184738
 30
0.0
 10
299.6155379248355
 20
353.010823898504
 30
0.0
 10
298.636462012249
 20
353.1878890110881
 30
0.0
 10
297.6079445130765
 20
353.5833877421156
 30
0.0
 10
296.0511159029621
 20
354.4559386225048
 30
0.0
 10
295.1338868290482
 20
355.3297669213893
 30
0.0
 10
294.6352301516553
 20
355.8048285265282
 30
0.0
  0
SPLINE
  5
10D
330
1F
100
AcDbEntity
  8
0
  6
Continuous
 62
     7
370
    15
100
AcDbSpline
210
0.0
220
0.0
230
1.0
 70
     8
 71
     3
 72
    19
 73
    15
 74
     0
 42
0.00000001
 43
0.00000001
 12
1.0
 22
0.0
 32
0.0
 13
1.0
 23
0.0
 33
0.0
 40
0.0102326600000002
 40
0.0102326600000002
 40
0.0102326600000002
 40
0.0102326600000002
 40
0.01689803
 40
0.0183246
 40
0.07468107
 40
0.1962853800000001
 40
0.22700065
 40
0.42428381
 40
0.65601259
 40
0.7063996400000001
 40
0.7705286100000001
 40
0.8209156500000001
 40
0.8599745700000001
 40
1.562694789999904
 40
1.562694789999904
 40
1.562694789999904
 40
1.562694789999904
 10
294.6609913237845
 20
357.7678706782329
 30
0.0
 10
294.6825998769215
 20
357.7892798056117
 30
0.0
 10
294.7087340389283
 20
357.81481934732
 30
0.0
 10
294.915606130633
 20
358.014138143921
 30
0.0
 10
295.5180889255572
 20
358.5303902111755
 30
0.0
 10
296.2135568676026
 20
358.97957988434
 30
0.0
 10
297.4238711665403
 20
359.6219354442009
 30
0.0
 10
299.0301300504933
 20
360.2374517348194
 30
0.0
 10
300.7331528719292
 20
360.666525700144
 30
0.0
 10
301.9684209060712
 20
360.9288511182817
 30
0.0
 10
302.5578938943885
 20
361.0492908739985
 30
0.0
 10
303.1066457729479
 20
361.1543122384559
 30
0.0
 10
305.9380254574212
 20
361.7145562024256
 30
0.0
 10
308.602713801585
 20
362.1302691059752
 30
0.0
 10
311.1365341505988
 20
362.4472270532897
 30
0.0
  0
LINE
  5
10E
330
1F
100
AcDbEntity
  8
0
  6
Continuous
 62
     7
370
    15
100
AcDbLine
 10
358.2600710396
 20
448.1443234973
 30
0.0
 11
358.2600710396
 21
451.769118331
 31
0.0
  0
LINE
  5
10F
330
1F
100
AcDbEntity
  8
0
  6
Continuous
 62
     7
370
    15
100
AcDbLine
 10
358.2600710396
 20
444.1443234973
 30
0.0
 11
358.2600710396
 21
448.1443234973
 31
0.0
  0
SPLINE
  5
110
330
1F
100
AcDbEntity
  8
0
  6
Continuous
 62
     8
370
     0
100
AcDbSpline
210
0.0
220
0.0
230
1.0
 70
     8
 71
     3
 72
    44
 73
    40
 74
     0
 42
0.00000001
 43
0.00000001
 12
1.0
 22
0.0
 32
0.0
 13
1.0
 23
0.0
 33
0.0
 40
0.0
 40
0.0
 40
0.0
 40
0.0
 40
0.0624999999999993
 40
0.0624999999999993
 40
0.0937499999999989
 40
0.0937499999999989
 40
0.1249999999999985
 40
0.1249999999999985
 40
0.1874999999999973
 40
0.1874999999999973
 40
0.2187499999999963
 40
0.2187499999999963
 40
0.2499999999999953
 40
0.2499999999999953
 40
0.3124999999999943
 40
0.3124999999999943
 40
0.3437499999999945
 40
0.3437499999999945
 40
0.3749999999999946
 40
0.3749999999999946
 40
0.4374999999999949
 40
0.4374999999999949
 40
0.4687499999999949
 40
0.4687499999999949
 40
0.4999999999999951
 40
0.4999999999999951
 40
0.5312499999999952
 40
0.5312499999999952
 40
0.5624999999999952
 40
0.5624999999999952
 40
0.5937499999999953
 40
0.5937499999999953
 40
0.6249999999999954
 40
0.6249999999999954
 40
0.6874999999999964
 40
0.6874999999999964
 40
0.7499999999999976
 40
0.7499999999999976
 40
1.0
 40
1.0
 40
1.0
 40
1.0
 10
472.952757256137
 20
432.977734454003
 30
0.0
 10
472.9513221838448
 20
432.9779789779624
 30
0.0
 10
472.8794549979334
 20
432.9826275541632
 30
0.0
 10
472.645617575035
 20
432.9885077610764
 30
0.0
 10
472.5472451412633
 20
432.9903867816072
 30
0.0
 10
472.3138842276463
 20
432.994305515674
 30
0.0
 10
472.1786670030337
 20
432.9963539298124
 30
0.0
 10
471.7195138860395
 20
433.0032750247344
 30
0.0
 10
471.342780351123
 20
433.0089625992867
 30
0.0
 10
470.6685986166537
 20
433.0205444697992
 30
0.0
 10
470.4242988154116
 20
433.0249287937893
 30
0.0
 10
469.9053619849591
 20
433.0346143239869
 30
0.0
 10
469.6304279135767
 20
433.0399172327773
 30
0.0
 10
468.7602874661169
 20
433.0569813750257
 30
0.0
 10
468.1199667001337
 20
433.0697923991438
 30
0.0
 10
467.073034180005
 20
433.0904946206832
 30
0.0
 10
466.7084909289455
 20
433.0976875398734
 30
0.0
 10
465.954542620622
 20
433.112857608392
 30
0.0
 10
465.5676263817866
 20
433.1207990827798
 30
0.0
 10
464.3757619835993
 20
433.1463937568382
 30
0.0
 10
463.5369830897821
 20
433.1655241411693
 30
0.0
 10
462.2198371940466
 20
433.199855445431
 30
0.0
 10
461.770810340962
 20
433.2121456480266
 30
0.0
 10
460.8522292643356
 20
433.2377718428529
 30
0.0
 10
460.3833713000644
 20
433.2511471365513
 30
0.0
 10
459.4409998676912
 20
433.2764585848914
 30
0.0
 10
458.96538511823
 20
433.288411041284
 30
0.0
 10
458.0003197234673
 20
433.3065973929225
 30
0.0
 10
457.5032423405347
 20
433.3108040431175
 30
0.0
 10
456.5097924137101
 20
433.3283600398024
 30
0.0
 10
456.0182910711754
 20
433.3408660587057
 30
0.0
 10
455.0631903519395
 20
433.3609092411849
 30
0.0
 10
454.5982441204475
 20
433.3675760850631
 30
0.0
 10
453.2104639023109
 20
433.3794830966553
 30
0.0
 10
452.2962644982571
 20
433.3801171549088
 30
0.0
 10
450.4660905175235
 20
433.3815087271419
 30
0.0
 10
449.5511731273028
 20
433.3819165636575
 30
0.0
 10
444.975108351736
 20
433.3861210030893
 30
0.0
 10
441.3121156158161
 20
433.3950795790454
 30
0.0
 10
437.6493845484733
 20
433.4072749750616
 30
0.0
  0
SPLINE
  5
111
330
1F
100
AcDbEntity
  8
0
  6
Continuous
 62
     8
370
     0
100
AcDbSpline
210
0.0
220
0.0
230
1.0
 70
     8
 71
     3
 72
    24
 73
    20
 74
     0
 42
0.00000001
 43
0.00000001
 12
1.0
 22
0.0
 32
0.0
 13
1.0
 23
0.0
 33
0.0
 40
0.0
 40
0.0
 40
0.0
 40
0.0
 40
0.125
 40
0.125
 40
0.25
 40
0.25
 40
0.5
 40
0.5
 40
0.6249999999999999
 40
0.6249999999999999
 40
0.6874999999999999
 40
0.6874999999999999
 40
0.7499999999999999
 40
0.7499999999999999
 40
0.8125
 40
0.8125
 40
0.8750000000000001
 40
0.8750000000000001
 40
1.0
 40
1.0
 40
1.0
 40
1.0
 10
437.6493845484731
 20
433.4072749750616
 30
0.0
 10
433.5138312562741
 20
433.4210446756529
 30
0.0
 10
429.3782058414265
 20
433.4394152257697
 30
0.0
 10
421.1065373284678
 20
433.4754565445617
 30
0.0
 10
416.9705010263411
 20
433.4935449964014
 30
0.0
 10
404.5615637570078
 20
433.5395232631785
 30
0.0
 10
396.2882303421119
 20
433.5579614934673
 30
0.0
 10
383.8774869193222
 20
433.5787212678339
 30
0.0
 10
379.7404570728546
 20
433.5852374789727
 30
0.0
 10
373.535038703704
 20
433.5949013122416
 30
0.0
 10
371.466588059856
 20
433.5980921785385
 30
0.0
 10
367.3298662650599
 20
433.604419341825
 30
0.0
 10
365.2615904941867
 20
433.6075306780434
 30
0.0
 10
361.1255209506922
 20
433.6142835836691
 30
0.0
 10
359.0586703463073
 20
433.6179693754769
 30
0.0
 10
354.9345173120834
 20
433.6251624611889
 30
0.0
 10
352.8769478032567
 20
433.6285386218401
 30
0.0
 10
346.7181140551026
 20
433.6357623727885
 30
0.0
 10
342.6301202261017
 20
433.6397984995862
 30
0.0
 10
338.5455676967012
 20
433.6441732644561
 30
0.0
  0
SPLINE
  5
112
330
1F
100
AcDbEntity
  8
0
  6
Continuous
 62
     8
370
     0
100
AcDbSpline
210
0.0
220
0.0
230
1.0
 70
     8
 71
     3
 72
    58
 73
    54
 74
     0
 42
0.00000001
 43
0.00000001
 12
1.0
 22
0.0
 32
0.0
 13
1.0
 23
0.0
 33
0.0
 40
0.0
 40
0.0
 40
0.0
 40
0.0
 40
0.0109198481345064
 40
0.0319237640254557
 40
0.062981851936475
 40
0.08388088164267
 40
0.1256483791939932
 40
0.1884133154377933
 40
0.2512811293216892
 40
0.3633005850442114
 40
0.4469477447642403
 40
0.5022036561315135
 40
0.5507390759059602
 40
0.6258516914386918
 40
0.6591545944428404
 40
0.6908722705653633
 40
0.7210052056691781
 40
0.7495533352248839
 40
0.7749908884365072
 40
0.7936973843373503
 40
0.805688539580023
 40
0.8109560588964948
 40
0.8182515749308815
 40
0.8259790629564923
 40
0.8340976316199324
 40
0.8425761574620427
 40
0.8544597410527737
 40
0.8636236010135132
 40
0.8700657077001616
 40
0.8738300785504526
 40
0.8787214965848115
 40
0.883669645748215
 40
0.8886831530991063
 40
0.8937714366100016
 40
0.8989265099977212
 40
0.9041076161463136
 40
0.9093204744340839
 40
0.9145737356900712
 40
0.9198763558877532
 40
0.9252378219891333
 40
0.9306683477587041
 40
0.9361790757363759
 40
0.9417488456169268
 40
0.9473371101247785
 40
0.9529547861036167
 40
0.9586136585136815
 40
0.9643259733346041
 40
0.9701047296279048
 40
0.9759640150401132
 40
0.9819070825631013
 40
0.9878907666415743
 40
0.9939189435630079
 40
1.0
 40
1.0
 40
1.0
 40
1.0
 10
338.3769179488027
 20
435.089779229921
 30
0.0
 10
338.8938251743542
 20
435.0898085422328
 30
0.0
 10
340.4049839458226
 20
435.0898942356703
 30
0.0
 10
343.3889192773071
 20
435.089849094095
 30
0.0
 10
346.8522611673911
 20
435.0897548174962
 30
0.0
 10
351.3124034686452
 20
435.0898073016866
 30
0.0
 10
357.302217834396
 20
435.089804017408
 30
0.0
 10
365.3204285447197
 20
435.0897265736892
 30
0.0
 10
376.7036104747561
 20
435.0897935118425
 30
0.0
 10
389.0881190171136
 20
435.0898982805476
 30
0.0
 10
401.1071089090824
 20
435.0899221385658
 30
0.0
 10
410.0847463971367
 20
435.0897539525901
 30
0.0
 10
418.6531181122664
 20
435.0898303708289
 30
0.0
 10
426.1695134888839
 20
435.0897875863147
 30
0.0
 10
432.880093099258
 20
435.0897897552849
 30
0.0
 10
437.4366180116334
 20
435.0897655198463
 30
0.0
 10
441.765378683593
 20
435.0897776402289
 30
0.0
 10
445.7933716611356
 20
435.0897838024156
 30
0.0
 10
449.2741907735409
 20
435.0898723565797
 30
0.0
 10
451.9622484435585
 20
435.090110498054
 30
0.0
 10
453.6844909600944
 20
435.0901089979923
 30
0.0
 10
454.860091208194
 20
435.0897878383478
 30
0.0
 10
455.8311287978233
 20
435.0896743550443
 30
0.0
 10
456.936237883697
 20
435.0893130400204
 30
0.0
 10
458.0851182914685
 20
435.0898448172231
 30
0.0
 10
459.4078536915905
 20
435.0898478201094
 30
0.0
 10
460.7470623781441
 20
435.0896789012634
 30
0.0
 10
461.951777599731
 20
435.0896326175318
 30
0.0
 10
462.7744441828558
 20
435.0897013680285
 30
0.0
 10
463.4005069891954
 20
435.0897807091048
 30
0.0
 10
463.9526779777621
 20
435.0897705440879
 30
0.0
 10
464.5398345088042
 20
435.0898001959319
 30
0.0
 10
465.1181274810039
 20
435.0898317991642
 30
0.0
 10
465.6865777851172
 20
435.0898681746944
 30
0.0
 10
466.2422282126975
 20
435.0898994822075
 30
0.0
 10
466.7819940660268
 20
435.0899266539668
 30
0.0
 10
467.3034318266658
 20
435.089943639975
 30
0.0
 10
467.8056446306831
 20
435.0899503297549
 30
0.0
 10
468.2876706284083
 20
435.0899488862934
 30
0.0
 10
468.7484618955646
 20
435.0899433547969
 30
0.0
 10
469.1869399534039
 20
435.0899383384128
 30
0.0
 10
469.6011709595113
 20
435.0899370974869
 30
0.0
 10
469.9881757503711
 20
435.0899436812243
 30
0.0
 10
470.3454967775057
 20
435.0899610645352
 30
0.0
 10
470.6717133155157
 20
435.0899851088625
 30
0.0
 10
470.966282665735
 20
435.0900116250012
 30
0.0
 10
471.2282812194011
 20
435.0900347347562
 30
0.0
 10
471.4563953203104
 20
435.090047627588
 30
0.0
 10
471.6487012093112
 20
435.0900414051245
 30
0.0
 10
471.8028124649526
 20
435.090009151903
 30
0.0
 10
471.9155448177631
 20
435.0899336646023
 30
0.0
 10
471.9886230915537
 20
435.0898415038895
 30
0.0
 10
472.0021681786482
 20
435.0898207082367
 30
0.0
 10
472.0089702970505
 20
435.0898102650043
 30
0.0
  0
SPLINE
  5
113
330
1F
100
AcDbEntity
  8
0
  6
Continuous
 62
     8
370
     0
100
AcDbSpline
210
0.0
220
0.0
230
1.0
 70
     8
 71
     3
 72
    10
 73
     6
 74
     0
 42
0.00000001
 43
0.00000001
 12
1.0
 22
0.0
 32
0.0
 13
1.0
 23
0.0
 33
0.0
 40
0.0
 40
0.0
 40
0.0
 40
0.0
 40
0.5
 40
0.5
 40
1.0
 40
1.0
 40
1.0
 40
1.0
 10
436.9251900080951
 20
415.2809066521631
 30
0.0
 10
436.9251034065323
 20
415.2813037129422
 30
0.0
 10
436.9879372374763
 20
415.30629498204
 30
0.0
 10
437.2305200913931
 20
415.412548301606
 30
0.0
 10
437.4102875059414
 20
415.4937924982719
 30
0.0
 10
437.6498633360592
 20
415.6081068983252
 30
0.0
  0
SPLINE
  5
114
330
1F
100
AcDbEntity
  8
0
  6
Continuous
 62
     8
370
     0
100
AcDbSpline
210
0.0
220
0.0
230
1.0
 70
     8
 71
     3
 72
    27
 73
    23
 74
     0
 42
0.00000001
 43
0.00000001
 12
1.0
 22
0.0
 32
0.0
 13
1.0
 23
0.0
 33
0.0
 40
0.0
 40
0.0
 40
0.0
 40
0.0
 40
0.0880608621917516
 40
0.132598156440741
 40
0.1778930353585108
 40
0.2217947506999596
 40
0.2660040859083944
 40
0.3105680652958814
 40
0.3558629442125604
 40
0.3911385470733603
 40
0.4621283803087979
 40
0.5337702818713739
 40
0.5776719972169122
 40
0.6218813324295388
 40
0.6664453118213378
 40
0.7117401907425694
 40
0.7556022999097963
 40
0.7997711903030944
 40
0.8444152188907657
 40
0.8897100978142559
 40
0.9777709340213445
 40
1.0
 40
1.0
 40
1.0
 40
1.0
 10
342.3599482155776
 20
471.4442735135696
 30
0.0
 10
341.1269243879569
 20
471.4442762559028
 30
0.0
 10
339.2702915737789
 20
471.4442803851871
 30
0.0
 10
336.6953385467236
 20
471.4442749410198
 30
0.0
 10
334.7517824601766
 20
471.4442686572742
 30
0.0
 10
332.8138551605446
 20
471.4442606692533
 30
0.0
 10
330.902152537452
 20
471.4442522002598
 30
0.0
 10
328.9995709306924
 20
471.4442439691074
 30
0.0
 10
327.2639687549104
 20
471.4442372981878
 30
0.0
 10
325.2201960609899
 20
471.4442308192461
 30
0.0
 10
322.9243402909009
 20
471.4442260602968
 30
0.0
 10
320.7098601454604
 20
471.4442250839131
 30
0.0
 10
318.9761160980823
 20
471.4442263143772
 30
0.0
 10
317.648154121331
 20
471.444228277358
 30
0.0
 10
316.4299649950527
 20
471.4442308508629
 30
0.0
 10
315.3485137956289
 20
471.4442336754137
 30
0.0
 10
314.4101355852754
 20
471.4442364721971
 30
0.0
 10
313.6208285680613
 20
471.4442390361099
 30
0.0
 10
312.9735300224748
 20
471.4442412656027
 30
0.0
 10
312.3351674274386
 20
471.4442435533598
 30
0.0
 10
312.0104885523189
 20
471.444244770161
 30
0.0
 10
312.0271938689183
 20
471.4442447075395
 30
0.0
 10
312.0305608461078
 20
471.444244694918
 30
0.0
  0
SPLINE
  5
115
330
1F
100
AcDbEntity
  8
0
  6
Continuous
 62
     8
370
     0
100
AcDbSpline
210
0.0
220
0.0
230
1.0
 70
     8
 71
     3
 72
    25
 73
    21
 74
     0
 42
0.00000001
 43
0.00000001
 12
1.0
 22
0.0
 32
0.0
 13
1.0
 23
0.0
 33
0.0
 40
0.0
 40
0.0
 40
0.0
 40
0.0
 40
0.0967929538661552
 40
0.1457465550411419
 40
0.1955328623351872
 40
0.293617150114553
 40
0.3909763174574666
 40
0.4392313154390917
 40
0.4878244367935673
 40
0.5368073687515051
 40
0.586593676045549
 40
0.6348486740271702
 40
0.6834417953816418
 40
0.7324247273395756
 40
0.7822110346336155
 40
0.8304660326152322
 40
0.8790591539696992
 40
0.9280420859276285
 40
0.9778283932216636
 40
1.0
 40
1.0
 40
1.0
 40
1.0
 10
338.5457436535638
 20
433.644327140585
 30
0.0
 10
337.2705957955571
 20
433.6443265785564
 30
0.0
 10
335.3505344682671
 20
433.6443257322784
 30
0.0
 10
332.7646853763412
 20
433.6443245925219
 30
0.0
 10
330.1863041308993
 20
433.6443234560437
 30
0.0
 10
327.0439361336079
 20
433.6443220709477
 30
0.0
 10
324.1100883001724
 20
433.6443207777264
 30
0.0
 10
321.9358175313591
 20
433.6443198192984
 30
0.0
 10
320.3941512221672
 20
433.6443191397128
 30
0.0
 10
318.9405111721259
 20
433.6443184989165
 30
0.0
 10
317.6056972972424
 20
433.6443179104869
 30
0.0
 10
316.3985450867723
 20
433.6443173783188
 30
0.0
 10
315.3281642244271
 20
433.6443169064289
 30
0.0
 10
314.3868547199776
 20
433.6443164914221
 30
0.0
 10
313.5955912376501
 20
433.6443161425453
 30
0.0
 10
312.9606208838941
 20
433.6443158625531
 30
0.0
 10
312.4774826285459
 20
433.6443156494806
 30
0.0
 10
312.1721936663605
 20
433.6443155147937
 30
0.0
 10
311.987577978013
 20
433.6443154333168
 30
0.0
 10
312.0479946796918
 20
433.6443154598835
 30
0.0
 10
312.0666102186458
 20
433.6443154680693
 30
0.0
  0
SPLINE
  5
116
330
1F
100
AcDbEntity
  8
0
  6
Continuous
 62
     8
370
     0
100
AcDbSpline
210
0.0
220
0.0
230
1.0
 70
     8
 71
     3
 72
    16
 73
    12
 74
     0
 42
0.00000001
 43
0.00000001
 12
1.0
 22
0.0
 32
0.0
 13
1.0
 23
0.0
 33
0.0
 40
0.0
 40
0.0
 40
0.0
 40
0.0
 40
0.1249980345600591
 40
0.2499960705134436
 40
0.3749941078601532
 40
0.4999921466001882
 40
0.6249901867335483
 40
0.7499882282602335
 40
0.8749862711802437
 40
0.999984315493579
 40
1.0
 40
1.0
 40
1.0
 40
1.0
 10
338.3769438898976
 20
435.0897816610963
 30
0.0
 10
336.806311896204
 20
435.0897809462644
 30
0.0
 10
333.6650478913093
 20
435.0897795166006
 30
0.0
 10
328.9735059286766
 20
435.0897773809912
 30
0.0
 10
324.5734274524281
 20
435.0897753737876
 30
0.0
 10
320.6513855435213
 20
435.0897735772251
 30
0.0
 10
317.4042526996379
 20
435.0897720780829
 30
0.0
 10
314.9389020670486
 20
435.0897709234935
 30
0.0
 10
313.5284958257356
 20
435.0897702338085
 30
0.0
 10
312.9401652651271
 20
435.0897699292463
 30
0.0
 10
313.1092850974657
 20
435.0897699810524
 30
0.0
 10
313.1093063156241
 20
435.0897699810589
 30
0.0
  0
SPLINE
  5
117
330
1F
100
AcDbEntity
  8
0
  6
Continuous
 62
     8
370
     0
100
AcDbSpline
210
0.0
220
0.0
230
1.0
 70
     8
 71
     3
 72
    36
 73
    32
 74
     0
 42
0.00000001
 43
0.00000001
 12
1.0
 22
0.0
 32
0.0
 13
1.0
 23
0.0
 33
0.0
 40
0.0
 40
0.0
 40
0.0
 40
0.0
 40
0.0312756690972969
 40
0.0624114923432168
 40
0.0933671227801927
 40
0.1241569472346812
 40
0.1555371370490524
 40
0.1869700824390199
 40
0.2180578661139336
 40
0.249731096829001
 40
0.3121768222394591
 40
0.3436653146437167
 40
0.3748762109745709
 40
0.4370931223253806
 40
0.4681041546948375
 40
0.4991344147373443
 40
0.530506060342956
 40
0.5613281204968952
 40
0.5919100484132954
 40
0.6234674922248875
 40
0.6547904118169423
 40
0.6865737743482899
 40
0.7180077931528145
 40
0.7496600683942035
 40
0.7807844756385921
 40
0.8123721541043524
 40
0.8436336824264381
 40
0.8749956536045236
 40
0.9369569431183719
 40
0.999021157612084
 40
1.0
 40
1.0
 40
1.0
 40
1.0
 10
342.0716803774112
 20
472.6061016784747
 30
0.0
 10
341.6554109680662
 20
472.6057620268245
 30
0.0
 10
340.8247334540783
 20
472.6050842422404
 30
0.0
 10
339.5552374345633
 20
472.6063752955497
 30
0.0
 10
338.2782050488929
 20
472.6064123828592
 30
0.0
 10
336.9861474620809
 20
472.6062373363502
 30
0.0
 10
335.6807168368513
 20
472.6060412987255
 30
0.0
 10
334.3687175146839
 20
472.6059812383107
 30
0.0
 10
333.0548875441445
 20
472.606085305829
 30
0.0
 10
331.3178987089725
 20
472.6061236872271
 30
0.0
 10
329.596586462356
 20
472.6060559148943
 30
0.0
 10
327.924630199773
 20
472.6061638773404
 30
0.0
 10
326.2890945391236
 20
472.6063284537467
 30
0.0
 10
324.7155208725168
 20
472.6060610476142
 30
0.0
 10
323.2205652270827
 20
472.6061859993197
 30
0.0
 10
322.1375203501653
 20
472.6063155833433
 30
0.0
 10
321.1011830506105
 20
472.6062812565639
 30
0.0
 10
320.1180841776423
 20
472.6063176130471
 30
0.0
 10
319.1837776265527
 20
472.6062845001942
 30
0.0
 10
318.2996519030721
 20
472.606320927479
 30
0.0
 10
317.46331774972
 20
472.606201239025
 30
0.0
 10
316.690725442294
 20
472.6060756688289
 30
0.0
 10
315.981814836418
 20
472.6061150158199
 30
0.0
 10
315.3457117509184
 20
472.6061964068623
 30
0.0
 10
314.7776156770096
 20
472.6060397675756
 30
0.0
 10
314.2829884190492
 20
472.605884141216
 30
0.0
 10
313.8622226823382
 20
472.6059346538173
 30
0.0
 10
313.4001941247641
 20
472.6060371287456
 30
0.0
 10
313.0407130047577
 20
472.6059866342079
 30
0.0
 10
312.8603880760431
 20
472.6060176366158
 30
0.0
 10
312.9116632428189
 20
472.6060135403703
 30
0.0
 10
312.9124593702463
 20
472.6060134767697
 30
0.0
  0
SPLINE
  5
118
330
1F
100
AcDbEntity
  8
0
  6
Continuous
 62
     8
370
     0
100
AcDbSpline
210
0.0
220
0.0
230
1.0
 70
     8
 71
     3
 72
    10
 73
     6
 74
     0
 42
0.00000001
 43
0.00000001
 12
1.0
 22
0.0
 32
0.0
 13
1.0
 23
0.0
 33
0.0
 40
0.0
 40
0.0
 40
0.0
 40
0.0
 40
0.5
 40
0.5
 40
1.0
 40
1.0
 40
1.0
 40
1.0
 10
342.0716827506014
 20
472.6062102128424
 30
0.0
 10
342.1533412196218
 20
472.5403295225022
 30
0.0
 10
342.2275620770598
 20
472.3875934793706
 30
0.0
 10
342.3308525687984
 20
471.9707144198886
 30
0.0
 10
342.3596038715634
 20
471.7078561854086
 30
0.0
 10
342.3595971488641
 20
471.4441915067766
 30
0.0
  0
SPLINE
  5
119
330
1F
100
AcDbEntity
  8
0
  6
Continuous
 62
     8
370
     0
100
AcDbSpline
210
0.0
220
0.0
230
1.0
 70
     8
 71
     3
 72
    38
 73
    34
 74
     0
 42
0.00000001
 43
0.00000001
 12
1.0
 22
0.0
 32
0.0
 13
1.0
 23
0.0
 33
0.0
 40
0.0
 40
0.0
 40
0.0
 40
0.0
 40
0.0625000000000002
 40
0.0625000000000002
 40
0.1250000000000005
 40
0.1250000000000005
 40
0.2500000000000013
 40
0.2500000000000013
 40
0.3125000000000017
 40
0.3125000000000017
 40
0.375000000000002
 40
0.375000000000002
 40
0.4375000000000023
 40
0.4375000000000023
 40
0.4687500000000024
 40
0.4687500000000024
 40
0.5000000000000024
 40
0.5000000000000024
 40
0.6250000000000016
 40
0.6250000000000016
 40
0.6875000000000004
 40
0.6875000000000004
 40
0.7187500000000006
 40
0.7187500000000006
 40
0.7500000000000007
 40
0.7500000000000007
 40
0.7812500000000008
 40
0.7812500000000008
 40
0.8125000000000009
 40
0.8125000000000009
 40
0.8750000000000011
 40
0.8750000000000011
 40
1.0
 40
1.0
 40
1.0
 40
1.0
 10
414.3915181289111
 20
470.701014422265
 30
0.0
 10
414.3920642163812
 20
470.7006256596655
 30
0.0
 10
414.360698644753
 20
470.7005665450342
 30
0.0
 10
414.2245584098623
 20
470.7054298600379
 30
0.0
 10
414.1202482302742
 20
470.7095115344866
 30
0.0
 10
413.7017461390855
 20
470.723580769419
 30
0.0
 10
413.2925584603041
 20
470.7373739622454
 30
0.0
 10
412.4849584277735
 20
470.7623852117404
 30
0.0
 10
412.1818153153909
 20
470.7716216542286
 30
0.0
 10
411.5140575557843
 20
470.7929553655717
 30
0.0
 10
411.1532023761971
 20
470.8049522021142
 30
0.0
 10
410.3789228962973
 20
470.8321164518946
 30
0.0
 10
409.9655299738644
 20
470.8472529483985
 30
0.0
 10
409.3047400676111
 20
470.8724827720047
 30
0.0
 10
409.0776625529428
 20
470.8813195981697
 30
0.0
 10
408.6093514047352
 20
470.8998942234817
 30
0.0
 10
408.3681775704532
 20
470.9096311165061
 30
0.0
 10
407.1428284251971
 20
470.959856570897
 30
0.0
 10
406.0905464446628
 20
471.006159755849
 30
0.0
 10
404.3940949869688
 20
471.0775146474465
 30
0.0
 10
403.805167075515
 20
471.1022039321512
 30
0.0
 10
402.9185950910086
 20
471.132923819344
 30
0.0
 10
402.6205003482934
 20
471.1412802055814
 30
0.0
 10
402.0172694941874
 20
471.1546169866199
 30
0.0
 10
401.7117412639524
 20
471.1597294182811
 30
0.0
 10
401.1062742875832
 20
471.1720215246804
 30
0.0
 10
400.8079361600371
 20
471.1794843814603
 30
0.0
 10
400.2237114972921
 20
471.1931261893424
 30
0.0
 10
399.9374451666035
 20
471.1989907424788
 30
0.0
 10
399.0857702799137
 20
471.2105449582188
 30
0.0
 10
398.5248668498894
 20
471.2124359484864
 30
0.0
 10
396.8439362410959
 20
471.2162223686003
 30
0.0
 10
395.727164486734
 20
471.2147336535784
 30
0.0
 10
394.6095191063787
 20
471.2141689060573
 30
0.0
  0
SPLINE
  5
11A
330
1F
100
AcDbEntity
  8
0
  6
Continuous
 62
     8
370
     0
100
AcDbSpline
210
0.0
220
0.0
230
1.0
 70
     8
 71
     3
 72
    30
 73
    26
 74
     0
 42
0.00000001
 43
0.00000001
 12
1.0
 22
0.0
 32
0.0
 13
1.0
 23
0.0
 33
0.0
 40
0.0
 40
0.0
 40
0.0
 40
0.0
 40
0.1249999999999999
 40
0.1249999999999999
 40
0.2499999999999999
 40
0.2499999999999999
 40
0.3749999999999998
 40
0.3749999999999998
 40
0.4999999999999998
 40
0.4999999999999998
 40
0.6249999999999999
 40
0.6249999999999999
 40
0.6875
 40
0.6875
 40
0.7500000000000001
 40
0.7500000000000001
 40
0.8125000000000002
 40
0.8125000000000002
 40
0.8437500000000002
 40
0.8437500000000002
 40
0.8750000000000001
 40
0.8750000000000001
 40
0.9375
 40
0.9375
 40
1.0
 40
1.0
 40
1.0
 40
1.0
 10
394.6095191063769
 20
471.2141689060572
 30
0.0
 10
392.4002786140402
 20
471.2130525742462
 30
0.0
 10
390.191065717856
 20
471.2127068525064
 30
0.0
 10
385.7727316654061
 20
471.2169010456888
 30
0.0
 10
383.5635884372884
 20
471.2200661419959
 30
0.0
 10
379.144850611151
 20
471.2283721249322
 30
0.0
 10
376.935254809995
 20
471.2317687338737
 30
0.0
 10
372.5163287879867
 20
471.24106433281
 30
0.0
 10
370.3070886693305
 20
471.2474455121837
 30
0.0
 10
365.8899674380266
 20
471.2629399123583
 30
0.0
 10
363.6794621573507
 20
471.273802727681
 30
0.0
 10
360.3770918085779
 20
471.2914554730618
 30
0.0
 10
359.278713933419
 20
471.297408290373
 30
0.0
 10
357.0913320820665
 20
471.3110507090451
 30
0.0
 10
356.0021635562346
 20
471.3187529965221
 30
0.0
 10
353.8442662189531
 20
471.3422661475031
 30
0.0
 10
352.7762305793634
 20
471.3566153393591
 30
0.0
 10
351.193343526118
 20
471.3753233722627
 30
0.0
 10
350.6715125621341
 20
471.3811413398766
 30
0.0
 10
349.6379008350534
 20
471.3933792244307
 30
0.0
 10
349.1250223992962
 20
471.3995751099249
 30
0.0
 10
347.5843980678584
 20
471.4145223254121
 30
0.0
 10
346.5553126565209
 20
471.4229493312774
 30
0.0
 10
344.4735051018102
 20
471.4374893603509
 30
0.0
 10
343.4220406090924
 20
471.4424114251928
 30
0.0
 10
342.359597148864
 20
471.4441915067765
 30
0.0
  0
SPLINE
  5
11B
330
1F
100
AcDbEntity
  8
0
  6
Continuous
 62
     8
370
     0
100
AcDbSpline
210
0.0
220
0.0
230
1.0
 70
     8
 71
     3
 72
    56
 73
    52
 74
     0
 42
0.00000001
 43
0.00000001
 12
1.0
 22
0.0
 32
0.0
 13
1.0
 23
0.0
 33
0.0
 40
0.0
 40
0.0
 40
0.0
 40
0.0
 40
0.0100506898462715
 40
0.0198583896623217
 40
0.0294266900452623
 40
0.0387570509668416
 40
0.0478493727855199
 40
0.0567023074398623
 40
0.0653138272025615
 40
0.0736820564433795
 40
0.081805835226759
 40
0.0896835523728175
 40
0.0973049252627918
 40
0.1046685856174491
 40
0.1117800427264792
 40
0.1186468543587517
 40
0.1252732364311134
 40
0.1432696554178556
 40
0.1646994525470453
 40
0.1896701869515745
 40
0.2183097656434799
 40
0.2506536669436792
 40
0.2856458519552216
 40
0.3386791410956699
 40
0.4097570320883136
 40
0.4989190916653551
 40
0.5361917371688769
 40
0.624058935711352
 40
0.6537172599936709
 40
0.6869552035035805
 40
0.6972558662325995
 40
0.7086305401603026
 40
0.7210895193874298
 40
0.7346812951732287
 40
0.7495206338207646
 40
0.7604708469880886
 40
0.7851402075026017
 40
0.7989134351448984
 40
0.8119293385145672
 40
0.8395258267300819
 40
0.8743842387973195
 40
0.886455151408254
 40
0.8987144113029183
 40
0.9110304889347239
 40
0.9233764721267576
 40
0.9358099346922658
 40
0.9483899416300321
 40
0.9611636462452953
 40
0.974010820356896
 40
0.9869434959507104
 40
1.0
 40
1.0
 40
1.0
 40
1.0
 10
342.0716891955573
 20
472.6062050129733
 30
0.0
 10
342.3280589716184
 20
472.6062397113653
 30
0.0
 10
342.8346004119109
 20
472.6063082692654
 30
0.0
 10
343.5810763822245
 20
472.6063658349831
 30
0.0
 10
344.3063365493221
 20
472.6063948030179
 30
0.0
 10
345.0103046486022
 20
472.6063985859523
 30
0.0
 10
345.693221533181
 20
472.6063859251046
 30
0.0
 10
346.355301851311
 20
472.60636699269
 30
0.0
 10
346.9969530426129
 20
472.6063511828368
 30
0.0
 10
347.6187631166364
 20
472.606340639756
 30
0.0
 10
348.2214497769058
 20
472.6063246070067
 30
0.0
 10
348.8053776738116
 20
472.606307595057
 30
0.0
 10
349.3712640977572
 20
472.6062580589539
 30
0.0
 10
349.9203705504776
 20
472.6062264669585
 30
0.0
 10
350.4538799900792
 20
472.6062185009998
 30
0.0
 10
350.9726314644906
 20
472.6062249338708
 30
0.0
 10
351.771304834791
 20
472.606258987917
 30
0.0
 10
352.9561008762528
 20
472.6062321308376
 30
0.0
 10
354.64447305146
 20
472.6060705863823
 30
0.0
 10
356.6398848638381
 20
472.6060358071859
 30
0.0
 10
358.9417469887878
 20
472.6061640836501
 30
0.0
 10
361.5206532569463
 20
472.6063419072818
 30
0.0
 10
364.7604420098024
 20
472.6063059672791
 30
0.0
 10
369.0472496422389
 20
472.6062313827665
 30
0.0
 10
374.7962121381019
 20
472.6062243413582
 30
0.0
 10
380.1208707102698
 20
472.6064235112552
 30
0.0
 10
385.897505843296
 20
472.6062377266127
 30
0.0
 10
390.0698628119142
 20
472.6062165307799
 30
0.0
 10
394.1336980488219
 20
472.6062770658806
 30
0.0
 10
396.1067378865983
 20
472.6061063766289
 30
0.0
 10
397.5869018458052
 20
472.6060961456538
 30
0.0
 10
398.5069306309687
 20
472.6062612644041
 30
0.0
 10
399.5155654471399
 20
472.6064948556793
 30
0.0
 10
400.6171711643377
 20
472.6062889822545
 30
0.0
 10
401.6760083849489
 20
472.6060218380102
 30
0.0
 10
403.0126027341407
 20
472.6065721863691
 30
0.0
 10
404.2907907496853
 20
472.6061300814226
 30
0.0
 10
405.5640439163771
 20
472.6059887088289
 30
0.0
 10
406.8608172691069
 20
472.6061883958317
 30
0.0
 10
408.5451336330331
 20
472.6062473666054
 30
0.0
 10
409.9887052091565
 20
472.6060927478028
 30
0.0
 10
410.9720276256684
 20
472.6061083980392
 30
0.0
 10
411.5269078167325
 20
472.6061274805348
 30
0.0
 10
412.0281926565464
 20
472.606160507846
 30
0.0
 10
412.471456333555
 20
472.6061773947773
 30
0.0
 10
412.8548085369436
 20
472.6061587490776
 30
0.0
 10
413.1762060540154
 20
472.6061345167569
 30
0.0
 10
413.4325004078005
 20
472.6061086253851
 30
0.0
 10
413.6180618441213
 20
472.6060557452889
 30
0.0
 10
413.7314418336429
 20
472.6060388188019
 30
0.0
 10
413.7432239498017
 20
472.606070748794
 30
0.0
 10
413.7491430765093
 20
472.6060867898572
 30
0.0
  0
SPLINE
  5
11C
330
1F
100
AcDbEntity
  8
0
  6
Continuous
 62
     8
370
     0
100
AcDbSpline
210
0.0
220
0.0
230
1.0
 70
     8
 71
     3
 72
    11
 73
     7
 74
     0
 42
0.00000001
 43
0.00000001
 12
1.0
 22
0.0
 32
0.0
 13
1.0
 23
0.0
 33
0.0
 40
0.0
 40
0.0
 40
0.0
 40
0.0
 40
0.2442147820214786
 40
0.4922028912370174
 40
0.7440910027753189
 40
1.0
 40
1.0
 40
1.0
 40
1.0
 10
311.896119329614
 20
351.0213930641295
 30
0.0
 10
311.8812509039291
 20
351.0003347864037
 30
0.0
 10
311.8512843226697
 20
350.9578928625556
 30
0.0
 10
311.8128824590276
 20
350.9052580126767
 30
0.0
 10
311.7787239189761
 20
350.8593432298171
 30
0.0
 10
311.7608068398508
 20
350.8358371476991
 30
0.0
 10
311.7517773639578
 20
350.8239910426314
 30
0.0
  0
ARC
  5
11D
330
1F
100
AcDbEntity
  8
0
  6
Continuous
 62
     8
370
     0
100
AcDbCircle
 10
313.4519860287
 20
360.2919788476
 30
0.0
 40
2.018827557757685
100
AcDbArc
 50
265.139631082
 51
279.321376703
  0
SPLINE
  5
11E
330
1F
100
AcDbEntity
  8
0
  6
Continuous
 62
     8
370
     0
100
AcDbSpline
210
0.0
220
0.0
230
1.0
 70
     8
 71
     3
 72
    44
 73
    40
 74
     0
 42
0.00000001
 43
0.00000001
 12
1.0
 22
0.0
 32
0.0
 13
1.0
 23
0.0
 33
0.0
 40
0.0
 40
0.0
 40
0.0
 40
0.0
 40
0.2499999999999982
 40
0.2499999999999982
 40
0.3749999999999973
 40
0.3749999999999973
 40
0.437499999999997
 40
0.437499999999997
 40
0.4999999999999966
 40
0.4999999999999966
 40
0.5624999999999961
 40
0.5624999999999961
 40
0.5937499999999958
 40
0.5937499999999958
 40
0.6093749999999958
 40
0.6093749999999958
 40
0.6249999999999957
 40
0.6249999999999957
 40
0.6406249999999956
 40
0.6406249999999956
 40
0.6562499999999954
 40
0.6562499999999954
 40
0.6874999999999957
 40
0.6874999999999957
 40
0.7031249999999958
 40
0.7031249999999958
 40
0.718749999999996
 40
0.718749999999996
 40
0.7499999999999964
 40
0.7499999999999964
 40
0.8124999999999973
 40
0.8124999999999973
 40
0.8749999999999982
 40
0.8749999999999982
 40
0.9374999999999991
 40
0.9374999999999991
 40
0.9687499999999996
 40
0.9687499999999996
 40
1.0
 40
1.0
 40
1.0
 40
1.0
 10
313.0675781280226
 20
359.5255072940625
 30
0.0
 10
310.9789527070819
 20
359.2770597555657
 30
0.0
 10
308.8893148033708
 20
359.0328867548885
 30
0.0
 10
305.7517807154167
 20
358.6823775739082
 30
0.0
 10
304.7050612795002
 20
358.5680590492547
 30
0.0
 10
303.1361706854007
 20
358.3938680677749
 30
0.0
 10
302.6132109074383
 20
358.335404025587
 30
0.0
 10
301.5647366434833
 20
358.2188391116932
 30
0.0
 10
301.0391573366946
 20
358.1606856247155
 30
0.0
 10
299.9833650515107
 20
358.0478900697246
 30
0.0
 10
299.4518743236695
 20
357.9928972987037
 30
0.0
 10
298.6527691053914
 20
357.9201201820244
 30
0.0
 10
298.3861012857431
 20
357.8975567711847
 30
0.0
 10
297.9869421316112
 20
357.8689838966425
 30
0.0
 10
297.8540909427939
 20
357.8603562234268
 30
0.0
 10
297.5882342979033
 20
357.8454919002955
 30
0.0
 10
297.4546556369647
 20
357.8392608408896
 30
0.0
 10
297.1953910830256
 20
357.8301040595146
 30
0.0
 10
297.0700292053501
 20
357.8271619675013
 30
0.0
 10
296.8271690817695
 20
357.8239059946426
 30
0.0
 10
296.7094643213458
 20
357.8236774649778
 30
0.0
 10
296.3805481888047
 20
357.826223039028
 30
0.0
 10
296.196779019299
 20
357.8317973243925
 30
0.0
 10
295.9592372169843
 20
357.8395172071383
 30
0.0
 10
295.8866869367842
 20
357.8419927785189
 30
0.0
 10
295.7551673825014
 20
357.8461452028028
 30
0.0
 10
295.6955558341635
 20
357.8478672368756
 30
0.0
 10
295.5307671502627
 20
357.8515945105219
 30
0.0
 10
295.4390573800866
 20
357.8520734193068
 30
0.0
 10
295.1988248571876
 20
357.8486956645523
 30
0.0
 10
295.0851525026436
 20
357.8401137059834
 30
0.0
 10
294.9066015143968
 20
357.8202792924803
 30
0.0
 10
294.8427385470624
 20
357.8089098773249
 30
0.0
 10
294.7457782940752
 20
357.7892279638701
 30
0.0
 10
294.7130748489055
 20
357.781112872925
 30
0.0
 10
294.6813697751761
 20
357.773140302942
 30
0.0
 10
294.673737991516
 20
357.7711178778698
 30
0.0
 10
294.6634505885634
 20
357.7683858067302
 30
0.0
 10
294.6608826285496
 20
357.7677174410086
 30
0.0
 10
294.660971153188
 20
357.7678414240833
 30
0.0
  0
SPLINE
  5
11F
330
1F
100
AcDbEntity
  8
0
  6
Continuous
 62
     8
370
     0
100
AcDbSpline
210
0.0
220
0.0
230
1.0
 70
     8
 71
     3
 72
    27
 73
    23
 74
     0
 42
0.00000001
 43
0.00000001
 12
1.0
 22
0.0
 32
0.0
 13
1.0
 23
0.0
 33
0.0
 40
0.0
 40
0.0
 40
0.0
 40
0.0
 40
0.070380025712008
 40
0.134284094092782
 40
0.1937448420095853
 40
0.2499344237192594
 40
0.3082794792267132
 40
0.3749003531516284
 40
0.4124081488714426
 40
0.4685741658097881
 40
0.5307175762011019
 40
0.5622382183479064
 40
0.6310724145235622
 40
0.6874256952930433
 40
0.750554341666253
 40
0.8125935646680595
 40
0.851874497595749
 40
0.8919365809051011
 40
0.9377290011186245
 40
0.9579064943313129
 40
0.9794192009519888
 40
1.0
 40
1.0
 40
1.0
 40
1.0
 10
313.2809353140264
 20
358.2804108039456
 30
0.0
 10
312.7881212999509
 20
358.2114225709608
 30
0.0
 10
311.8478391280297
 20
358.0797939977159
 30
0.0
 10
310.4933128188946
 20
357.8755444191136
 30
0.0
 10
309.2401141577351
 20
357.6732586124663
 30
0.0
 10
308.0282083775737
 20
357.4633029839652
 30
0.0
 10
306.7697234836098
 20
357.228285638715
 30
0.0
 10
305.644455077398
 20
357.0031424607159
 30
0.0
 10
304.5352615518909
 20
356.77936383616
 30
0.0
 10
303.4572313306211
 20
356.5630629299618
 30
0.0
 10
302.4195015050117
 20
356.3620772764277
 30
0.0
 10
301.2962623263388
 20
356.139961471537
 30
0.0
 10
300.2174341295861
 20
355.9138707890264
 30
0.0
 10
298.9416503900219
 20
355.6219615470051
 30
0.0
 10
297.7507923449694
 20
355.354905441831
 30
0.0
 10
296.7748100480839
 20
355.2517006034433
 30
0.0
 10
296.0930156235431
 20
355.2896076297293
 30
0.0
 10
295.6270793848791
 20
355.3765919238494
 30
0.0
 10
295.3541056217836
 20
355.4599279966946
 30
0.0
 10
295.1840211771254
 20
355.5220779526495
 30
0.0
 10
295.0812647421311
 20
355.5642707633098
 30
0.0
 10
295.0262671747755
 20
355.5891855902461
 30
0.0
 10
294.9993771863108
 20
355.6013672092002
 30
0.0
  0
SPLINE
  5
120
330
1F
100
AcDbEntity
  8
0
  6
Continuous
 62
     8
370
     0
100
AcDbSpline
210
0.0
220
0.0
230
1.0
 70
     8
 71
     3
 72
     9
 73
     5
 74
     0
 42
0.00000001
 43
0.00000001
 12
1.0
 22
0.0
 32
0.0
 13
1.0
 23
0.0
 33
0.0
 40
0.0
 40
0.0
 40
0.0
 40
0.0
 40
0.7102517933586067
 40
1.0
 40
1.0
 40
1.0
 40
1.0
 10
294.9990268923951
 20
355.6015953561472
 30
0.0
 10
294.8747318011184
 20
355.6680000367331
 30
0.0
 10
294.6997303545342
 20
355.7614945990939
 30
0.0
 10
294.6815338302479
 20
355.774910541389
 30
0.0
 10
294.6762614199687
 20
355.7787977866094
 30
0.0
  0
ARC
  5
121
330
1F
100
AcDbEntity
  8
0
  6
Continuous
 62
     8
370
     0
100
AcDbCircle
 10
313.2072850892
 20
359.1402262446
 30
0.0
 40
0.4098291032600158
100
AcDbArc
 50
35.1652084638
 51
109.9311607896
  0
LINE
  5
122
330
1F
100
AcDbEntity
  8
0
  6
Continuous
 62
     8
370
     0
100
AcDbLine
 10
307.7735466527
 20
351.7383671452
 30
0.0
 11
305.9981728643
 21
352.1920319548
 31
0.0
  0
SPLINE
  5
123
330
1F
100
AcDbEntity
  8
0
  6
Continuous
 62
     7
370
    15
100
AcDbSpline
210
0.0
220
0.0
230
1.0
 70
     8
 71
     3
 72
    22
 73
    18
 74
     0
 42
0.00000001
 43
0.00000001
 12
1.0
 22
0.0
 32
0.0
 13
1.0
 23
0.0
 33
0.0
 40
0.0
 40
0.0
 40
0.0
 40
0.0
 40
0.0881719021517039
 40
0.162331687365954
 40
0.2287805145270345
 40
0.2936843030278379
 40
0.3557686892349709
 40
0.4217513642439116
 40
0.4860540121283672
 40
0.5534545891355389
 40
0.6220307087926354
 40
0.6914417115967296
 40
0.7611853624575265
 40
0.8306039426940088
 40
0.899398132800935
 40
0.9653713226241664
 40
1.0
 40
1.0
 40
1.0
 40
1.0
 10
173.1317088291089
 20
166.4754359215271
 30
0.0
 10
173.1500898229743
 20
165.6633044633257
 30
0.0
 10
173.1839307368803
 20
164.1681039883945
 30
0.0
 10
173.2280349313365
 20
162.0597680671356
 30
0.0
 10
173.4399457361269
 20
160.1743382340844
 30
0.0
 10
173.8427227224765
 20
158.4340296319101
 30
0.0
 10
174.4410264450513
 20
156.7551376235308
 30
0.0
 10
175.2527228518341
 20
155.1734788646131
 30
0.0
 10
176.2788130930004
 20
153.6635845737583
 30
0.0
 10
177.493372512913
 20
152.2682463259183
 30
0.0
 10
178.9013598703814
 20
150.997038750956
 30
0.0
 10
180.4693778905559
 20
149.8911914563881
 30
0.0
 10
182.1667829238086
 20
148.9802527032772
 30
0.0
 10
183.9583727645184
 20
148.2853362474649
 30
0.0
 10
185.7893860109068
 20
147.8369704986836
 30
0.0
 10
187.3445328344411
 20
147.6412098231546
 30
0.0
 10
188.271898165986
 20
147.6519814565529
 30
0.0
 10
188.5911112757394
 20
147.6556892149489
 30
0.0
  0
LINE
  5
124
330
1F
100
AcDbEntity
  8
0
  6
Continuous
 62
     7
370
    15
100
AcDbLine
 10
173.1077500201
 20
167.5487361974
 30
0.0
 11
173.1317088291
 21
166.4754359215
 31
0.0
  0
LINE
  5
125
330
1F
100
AcDbEntity
  8
0
  6
Continuous
 62
     7
370
    15
100
AcDbLine
 10
204.0448577715
 20
166.2448802938
 30
0.0
 11
204.0698328086
 21
167.4057999043
 31
0.0
  0
SPLINE
  5
126
330
1F
100
AcDbEntity
  8
0
  6
Continuous
 62
     7
370
    15
100
AcDbSpline
210
0.0
220
0.0
230
1.0
 70
     8
 71
     3
 72
    22
 73
    18
 74
     0
 42
0.00000001
 43
0.00000001
 12
1.0
 22
0.0
 32
0.0
 13
1.0
 23
0.0
 33
0.0
 40
0.0
 40
0.0
 40
0.0
 40
0.0
 40
0.0512754624355739
 40
0.1143839974031517
 40
0.1809747901021692
 40
0.2483731927431236
 40
0.3172610417919611
 40
0.3869911766081505
 40
0.457127430868291
 40
0.5269818141536909
 40
0.5961034094398191
 40
0.6643705998129137
 40
0.7292737024628746
 40
0.7958653886184939
 40
0.8651503911277185
 40
0.9340381082539091
 40
1.0
 40
1.0
 40
1.0
 40
1.0
 10
188.5906251340393
 20
147.6506615780392
 30
0.0
 10
189.0594977115611
 20
147.6541724070566
 30
0.0
 10
190.105446731661
 20
147.6620042751301
 30
0.0
 10
191.7467785572051
 20
147.9072344337023
 30
0.0
 10
193.4891473693824
 20
148.3763469341234
 30
0.0
 10
195.2112794166599
 20
149.0747884384547
 30
0.0
 10
196.862921195399
 20
149.9868297315743
 30
0.0
 10
198.4139860730233
 20
151.1047738792653
 30
0.0
 10
199.8255779888119
 20
152.4076009659036
 30
0.0
 10
201.0630317067158
 20
153.8697372558225
 30
0.0
 10
202.0996250801893
 20
155.4603687023943
 30
0.0
 10
202.8993784003415
 20
157.13327427449
 30
0.0
 10
203.4603831261703
 20
158.8745366977278
 30
0.0
 10
203.8242166944905
 20
160.6773515140003
 30
0.0
 10
203.9618697352108
 20
162.5461391558239
 30
0.0
 10
204.0062039086226
 20
164.4104750896406
 30
0.0
 10
204.0321608796055
 20
165.6423209925718
 30
0.0
 10
204.0448577715309
 20
166.2448802938298
 30
0.0
  0
LINE
  5
127
330
1F
100
AcDbEntity
  8
0
  6
Continuous
 62
     7
370
    15
100
AcDbLine
 10
209.6150476372
 20
210.878385248
 30
0.0
 11
209.6907218891
 21
211.6672666816
 31
0.0
  0
LINE
  5
128
330
1F
100
AcDbEntity
  8
0
  6
Continuous
 62
     7
370
    15
100
AcDbLine
 10
167.4874930138
 20
211.7176183467
 30
0.0
 11
167.565799834
 21
210.8590936612
 31
0.0
  0
SPLINE
  5
129
330
1F
100
AcDbEntity
  8
0
  6
Continuous
 62
     7
370
    15
100
AcDbSpline
210
0.0
220
0.0
230
1.0
 70
     8
 71
     3
 72
    24
 73
    20
 74
     0
 42
0.00000001
 43
0.00000001
 12
1.0
 22
0.0
 32
0.0
 13
1.0
 23
0.0
 33
0.0
 40
0.0
 40
0.0
 40
0.0
 40
0.0
 40
0.2739176623020358
 40
0.346676651428636
 40
0.3938663431261976
 40
0.4357187120844506
 40
0.4794236641793592
 40
0.5239312367127394
 40
0.5691605044726786
 40
0.6149147943639869
 40
0.6609225292368383
 40
0.7068091280930796
 40
0.7519510144061379
 40
0.7971423158494273
 40
0.8428526112170228
 40
0.8888710109246338
 40
0.9349143419623932
 40
0.9807386143198455
 40
1.0
 40
1.0
 40
1.0
 40
1.0
 10
169.3766076446328
 20
124.3650884296837
 30
0.0
 10
169.4591802520451
 20
120.1749002098092
 30
0.0
 10
169.563686090759
 20
114.8716992087724
 30
0.0
 10
169.767160693978
 20
108.8499297020809
 30
0.0
 10
169.8583677367023
 20
106.3751782034104
 30
0.0
 10
170.1181929727125
 20
104.3569128765143
 30
0.0
 10
170.6032171650153
 20
102.4224074647583
 30
0.0
 10
171.3126878425105
 20
100.5039142840506
 30
0.0
 10
172.242746444869
 20
98.64664427794432
 30
0.0
 10
173.3823570707811
 20
96.8826887627478
 30
0.0
 10
174.7156585770648
 20
95.24703328473224
 30
0.0
 10
176.2165974281996
 20
93.77668795671909
 30
0.0
 10
177.8659197440536
 20
92.49554403292997
 30
0.0
 10
179.643998314618
 20
91.40551655917848
 30
0.0
 10
181.5429835863023
 20
90.51188561971146
 30
0.0
 10
183.541252349987
 20
89.82544863436259
 30
0.0
 10
185.604917866232
 20
89.37582540537906
 30
0.0
 10
187.2994420840085
 20
89.17041623606967
 30
0.0
 10
188.2955654207826
 20
89.18237976284932
 30
0.0
 10
188.5903571821799
 20
89.18592023720798
 30
0.0
  0
LINE
  5
12A
330
1F
100
AcDbEntity
  8
0
  6
Continuous
 62
     7
370
    15
100
AcDbLine
 10
207.7915288757
 20
123.940580544
 30
0.0
 11
207.8022116986
 21
124.3651547556
 31
0.0
  0
SPLINE
  5
12B
330
1F
100
AcDbEntity
  8
0
  6
Continuous
 62
     7
370
    15
100
AcDbSpline
210
0.0
220
0.0
230
1.0
 70
     8
 71
     3
 72
    25
 73
    21
 74
     0
 42
0.00000001
 43
0.00000001
 12
1.0
 22
0.0
 32
0.0
 13
1.0
 23
0.0
 33
0.0
 40
0.0
 40
0.0
 40
0.0
 40
0.0
 40
0.0417973319298985
 40
0.0876238612893611
 40
0.13330614508915
 40
0.1794297542543881
 40
0.2257904288882463
 40
0.2720815405140402
 40
0.3180612083797473
 40
0.3634842898308056
 40
0.409503919025119
 40
0.4558902042954422
 40
0.5022845675184
 40
0.5483483905083152
 40
0.593868529773396
 40
0.6372703426449187
 40
0.6828119703984875
 40
0.808376356084282
 40
0.9764262619865353
 40
1.0
 40
1.0
 40
1.0
 40
1.0
 10
188.5905693880416
 20
89.16834052329739
 30
0.0
 10
189.2244470151056
 20
89.18628803133457
 30
0.0
 10
190.5533070811368
 20
89.22391315911496
 30
0.0
 10
192.5523502925411
 20
89.55963140389022
 30
0.0
 10
194.5668246743124
 20
90.11395134589428
 30
0.0
 10
196.515791209393
 20
90.89295405949471
 30
0.0
 10
198.3755312662037
 20
91.88476073213805
 30
0.0
 10
200.1119157420348
 20
93.07616719661718
 30
0.0
 10
201.6912014769958
 20
94.44762627734494
 30
0.0
 10
203.1030778610867
 20
95.98484244646893
 30
0.0
 10
204.342851125664
 20
97.67157435781051
 30
0.0
 10
205.397277960564
 20
99.49704866113821
 30
0.0
 10
206.2436537289042
 20
101.4289596506205
 30
0.0
 10
206.8605572805024
 20
103.4314981926862
 30
0.0
 10
207.2425722727855
 20
105.4477580724823
 30
0.0
 10
207.3583446118121
 20
107.4849796375329
 30
0.0
 10
207.4973707846755
 20
110.7326980992772
 30
0.0
 10
207.5896162335921
 20
115.8736897903347
 30
0.0
 10
207.7094496161054
 20
120.6797117343122
 30
0.0
 10
207.7825375257752
 20
123.5833695671691
 30
0.0
 10
207.7915288756906
 20
123.9405805440286
 30
0.0
  0
SPLINE
  5
12C
330
1F
100
AcDbEntity
  8
0
  6
Continuous
 62
     7
370
    15
100
AcDbSpline
210
0.0
220
0.0
230
1.0
 70
     8
 71
     3
 72
    14
 73
    10
 74
     0
 42
0.00000001
 43
0.00000001
 12
1.0
 22
0.0
 32
0.0
 13
1.0
 23
0.0
 33
0.0
 40
0.0
 40
0.0
 40
0.0
 40
0.0
 40
0.3804986282757903
 40
0.5688529785397486
 40
0.743817836022497
 40
0.8278645307532755
 40
0.9123292859035254
 40
0.9987692069620194
 40
1.0
 40
1.0
 40
1.0
 40
1.0
 10
198.7523018713586
 20
248.5828120552133
 30
0.0
 10
198.8366223905528
 20
248.5514731433494
 30
0.0
 10
198.9626832352738
 20
248.5046208499819
 30
0.0
 10
199.1098433088664
 20
248.4935968572129
 30
0.0
 10
199.2105370700179
 20
248.5115771511203
 30
0.0
 10
199.2965145693212
 20
248.5489625703683
 30
0.0
 10
199.3590025886205
 20
248.5895746926819
 30
0.0
 10
199.400802731838
 20
248.6218029345125
 30
0.0
 10
199.4180877834164
 20
248.6421267606792
 30
0.0
 10
199.4183304450779
 20
248.6424120831385
 30
0.0
  0
SPLINE
  5
12D
330
1F
100
AcDbEntity
  8
0
  6
Continuous
 62
     7
370
    15
100
AcDbSpline
210
0.0
220
0.0
230
1.0
 70
     8
 71
     3
 72
    15
 73
    11
 74
     0
 42
0.00000001
 43
0.00000001
 12
1.0
 22
0.0
 32
0.0
 13
1.0
 23
0.0
 33
0.0
 40
0.0
 40
0.0
 40
0.0
 40
0.0
 40
0.1082316264110939
 40
0.2225255953740528
 40
0.2812473291214349
 40
0.3415311220371895
 40
0.468759782341276
 40
0.604233306577576
 40
0.7426706458715604
 40
1.0
 40
1.0
 40
1.0
 40
1.0
 10
177.6150359291466
 20
248.9968131536241
 30
0.0
 10
177.6182093395888
 20
248.9526860754624
 30
0.0
 10
177.6247339116702
 20
248.8619602435991
 30
0.0
 10
177.6734128886198
 20
248.7524834044642
 30
0.0
 10
177.7282890219466
 20
248.6747324279931
 30
0.0
 10
177.79461958301
 20
248.6054008893051
 30
0.0
 10
177.8917677730824
 20
248.5429532438613
 30
0.0
 10
178.0196684325098
 20
248.5083938132169
 30
0.0
 10
178.1955840737571
 20
248.5050084331444
 30
0.0
 10
178.3370636319131
 20
248.5521580128429
 30
0.0
 10
178.4290543019916
 20
248.58281488997
 30
0.0
  0
SPLINE
  5
12E
330
1F
100
AcDbEntity
  8
0
  6
Continuous
 62
     7
370
    15
100
AcDbSpline
210
0.0
220
0.0
230
1.0
 70
     8
 71
     3
 72
    21
 73
    17
 74
     0
 42
0.00000001
 43
0.00000001
 12
1.0
 22
0.0
 32
0.0
 13
1.0
 23
0.0
 33
0.0
 40
0.0
 40
0.0
 40
0.0
 40
0.0
 40
0.1127927291155392
 40
0.2031900315427785
 40
0.2733302544933405
 40
0.3242691446122171
 40
0.3612215247496645
 40
0.4088149913808533
 40
0.4580154102708372
 40
0.504009035403776
 40
0.5592013287079022
 40
0.6102829266410869
 40
0.6699455318342388
 40
0.7548601829603019
 40
0.8649524809906792
 40
1.0
 40
1.0
 40
1.0
 40
1.0
 10
188.7415691998368
 20
268.028323126249
 30
0.0
 10
187.6989223663881
 20
268.0202121663042
 30
0.0
 10
185.8206502061374
 20
268.0056007084561
 30
0.0
 10
183.2981890296105
 20
267.8389643141764
 30
0.0
 10
181.3656742342351
 20
267.5082213180613
 30
0.0
 10
180.0006189328465
 20
266.9463547652138
 30
0.0
 10
179.0219408109525
 20
266.1400800390447
 30
0.0
 10
178.3637902844186
 20
265.0597278388512
 30
0.0
 10
178.0522849727378
 20
263.7720440387331
 30
0.0
 10
177.9053886453165
 20
262.3982497390904
 30
0.0
 10
177.8323927171324
 20
261.0009775735967
 30
0.0
 10
177.7831672462759
 20
259.477129960322
 30
0.0
 10
177.7345058744614
 20
257.6836915388197
 30
0.0
 10
177.6788182427368
 20
255.3564956877919
 30
0.0
 10
177.6398296259471
 20
252.3347665461216
 30
0.0
 10
177.6269426199961
 20
250.0844531047434
 30
0.0
 10
177.6198431687435
 20
248.8447554867825
 30
0.0
  0
SPLINE
  5
12F
330
1F
100
AcDbEntity
  8
0
  6
Continuous
 62
     7
370
    15
100
AcDbSpline
210
0.0
220
0.0
230
1.0
 70
     8
 71
     3
 72
    16
 73
    12
 74
     0
 42
0.00000001
 43
0.00000001
 12
1.0
 22
0.0
 32
0.0
 13
1.0
 23
0.0
 33
0.0
 40
0.0
 40
0.0
 40
0.0
 40
0.0
 40
0.3619087449967526
 40
0.5132402711662373
 40
0.5652211362334881
 40
0.6039633044686935
 40
0.6338536526521186
 40
0.6695756451708398
 40
0.7422520216348296
 40
0.8176253927613635
 40
0.9999999999999999
 40
0.9999999999999999
 40
0.9999999999999999
 40
0.9999999999999999
 10
199.5615060555579
 20
248.8447554867825
 30
0.0
 10
199.5187690439355
 20
252.1590319590879
 30
0.0
 10
199.4581616235923
 20
256.859167501215
 30
0.0
 10
199.3533118971849
 20
262.0552447129656
 30
0.0
 10
199.043242745931
 20
264.2605832463561
 30
0.0
 10
198.6671339616856
 20
265.3152312389478
 30
0.0
 10
198.1320250867117
 20
266.1273236932952
 30
0.0
 10
197.1717545575753
 20
266.9965268681683
 30
0.0
 10
195.5405518712354
 20
267.5923164540941
 30
0.0
 10
192.5154763752129
 20
267.9986598544917
 30
0.0
 10
190.1286356876474
 20
268.016031488162
 30
0.0
 10
188.4397800244646
 20
268.028323126249
 30
0.0
  0
LINE
  5
130
330
1F
100
AcDbEntity
  8
0
  6
Continuous
 62
     7
370
    15
100
AcDbLine
 10
186.5906746122
 20
250.4942103275
 30
0.0
 11
186.5906746122
 21
250.1773969383
 31
0.0
  0
LINE
  5
131
330
1F
100
AcDbEntity
  8
0
  6
Continuous
 62
     7
370
    15
100
AcDbLine
 10
190.5906746122
 20
250.1777253458
 30
0.0
 11
190.5906746122
 21
250.4779770517
 31
0.0
  0
LINE
  5
132
330
1F
100
AcDbEntity
  8
0
  6
Continuous
 62
     7
370
    15
100
AcDbLine
 10
166.7966550009
 20
219.9146239629
 30
0.0
 11
166.808573492
 21
219.8805915329
 31
0.0
  0
SPLINE
  5
133
330
1F
100
AcDbEntity
  8
0
  6
Continuous
 62
     7
370
    15
100
AcDbSpline
210
0.0
220
0.0
230
1.0
 70
     8
 71
     3
 72
     9
 73
     5
 74
     0
 42
0.00000001
 43
0.00000001
 12
1.0
 22
0.0
 32
0.0
 13
1.0
 23
0.0
 33
0.0
 40
0.0
 40
0.0
 40
0.0
 40
0.0
 40
0.8221462589161826
 40
1.0
 40
1.0
 40
1.0
 40
1.0
 10
166.8940997554297
 20
219.6363771817109
 30
0.0
 10
166.9009155788904
 20
219.6071324023506
 30
0.0
 10
166.9092058598311
 20
219.5715611411022
 30
0.0
 10
167.003930180622
 20
219.3326024813467
 30
0.0
 10
167.0207772554463
 20
219.2901027897448
 30
0.0
  0
SPLINE
  5
134
330
1F
100
AcDbEntity
  8
0
  6
Continuous
 62
     7
370
    15
100
AcDbSpline
210
0.0
220
0.0
230
1.0
 70
     8
 71
     3
 72
    30
 73
    26
 74
     0
 42
0.00000001
 43
0.00000001
 12
1.0
 22
0.0
 32
0.0
 13
1.0
 23
0.0
 33
0.0
 40
0.0
 40
0.0
 40
0.0
 40
0.0
 40
0.1249999999999999
 40
0.1249999999999999
 40
0.2499999999999999
 40
0.2499999999999999
 40
0.3749999999999998
 40
0.3749999999999998
 40
0.4999999999999998
 40
0.4999999999999998
 40
0.6249999999999999
 40
0.6249999999999999
 40
0.6875
 40
0.6875
 40
0.7500000000000001
 40
0.7500000000000001
 40
0.8125000000000002
 40
0.8125000000000002
 40
0.8437500000000002
 40
0.8437500000000002
 40
0.8750000000000001
 40
0.8750000000000001
 40
0.9375
 40
0.9375
 40
1.0
 40
1.0
 40
1.0
 40
1.0
 10
173.1302069962452
 20
167.6650540709702
 30
0.0
 10
173.0814326958009
 20
169.8742945633068
 30
0.0
 10
173.0313411089573
 20
172.0835074594911
 30
0.0
 10
172.9274851517343
 20
176.5018415119411
 30
0.0
 10
172.8747330723921
 20
178.7109847400587
 30
0.0
 10
172.7869193257343
 20
183.1297225661961
 30
0.0
 10
172.7517427023833
 20
185.3393183673521
 30
0.0
 10
172.6713202277708
 20
189.7582443893604
 30
0.0
 10
172.6226242508515
 20
191.9674845080166
 30
0.0
 10
172.4727735159615
 20
196.3846057393204
 30
0.0
 10
172.3735121866567
 20
198.5951110199965
 30
0.0
 10
172.1309393980614
 20
201.8974813687691
 30
0.0
 10
172.0346643902872
 20
202.9958592439281
 30
0.0
 10
171.7822781242493
 20
205.1832410952807
 30
0.0
 10
171.6272194458356
 20
206.2724096211124
 30
0.0
 10
171.1868511130567
 20
208.430306958394
 30
0.0
 10
170.8970352434313
 20
209.4983425979837
 30
0.0
 10
170.3396404991471
 20
211.0812296512291
 30
0.0
 10
170.1348282996252
 20
211.6030606152129
 30
0.0
 10
169.704130529227
 20
212.6366723422937
 30
0.0
 10
169.4789427836545
 20
213.1495507780508
 30
0.0
 10
168.808290598594
 20
214.6901751094887
 30
0.0
 10
168.3661759274164
 20
215.7192605208262
 30
0.0
 10
167.5411236409415
 20
217.8010680755369
 30
0.0
 10
167.1550111719922
 20
218.8525325682547
 30
0.0
 10
166.7963445051077
 20
219.9149760284831
 30
0.0
  0
SPLINE
  5
135
330
1F
100
AcDbEntity
  8
0
  6
Continuous
 62
     7
370
    15
100
AcDbSpline
210
0.0
220
0.0
230
1.0
 70
     8
 71
     3
 72
    30
 73
    26
 74
     0
 42
0.00000001
 43
0.00000001
 12
1.0
 22
0.0
 32
0.0
 13
1.0
 23
0.0
 33
0.0
 40
0.0
 40
0.0
 40
0.0
 40
0.0
 40
0.0625
 40
0.0625
 40
0.1249999999999999
 40
0.1249999999999999
 40
0.1562499999999999
 40
0.1562499999999999
 40
0.1874999999999998
 40
0.1874999999999998
 40
0.2499999999999998
 40
0.2499999999999998
 40
0.3124999999999998
 40
0.3124999999999998
 40
0.3749999999999998
 40
0.3749999999999998
 40
0.4999999999999999
 40
0.4999999999999999
 40
0.6249999999999999
 40
0.6249999999999999
 40
0.7499999999999999
 40
0.7499999999999999
 40
0.875
 40
0.875
 40
1.0
 40
1.0
 40
1.0
 40
1.0
 10
210.3850047191818
 20
219.914976028448
 30
0.0
 10
210.0263380522952
 20
218.8525325682216
 30
0.0
 10
209.6402255833393
 20
217.8010680755
 30
0.0
 10
208.8151732968571
 20
215.7192605207933
 30
0.0
 10
208.3730586256774
 20
214.6901751094571
 30
0.0
 10
207.7024064406178
 20
213.1495507780194
 30
0.0
 10
207.477218695046
 20
212.636672342262
 30
0.0
 10
207.0465209246514
 20
211.60306061518
 30
0.0
 10
206.841708725132
 20
211.0812296511951
 30
0.0
 10
206.2843139808568
 20
209.4983425979468
 30
0.0
 10
205.9944981112389
 20
208.4303069583555
 30
0.0
 10
205.5541297784734
 20
206.2724096210721
 30
0.0
 10
205.3990711000652
 20
205.1832410952401
 30
0.0
 10
205.1466848340358
 20
202.9958592438882
 30
0.0
 10
205.0504098262647
 20
201.89748136873
 30
0.0
 10
204.8078370376763
 20
198.5951110199603
 30
0.0
 10
204.7085757083729
 20
196.3846057392869
 30
0.0
 10
204.5587249734802
 20
191.9674845079878
 30
0.0
 10
204.5100289965572
 20
189.758244389334
 30
0.0
 10
204.4296065219353
 20
185.3393183673304
 30
0.0
 10
204.3944298985786
 20
183.1297225661769
 30
0.0
 10
204.3066161519112
 20
178.7109847400444
 30
0.0
 10
204.2538640725646
 20
176.5018415119291
 30
0.0
 10
204.1500081153356
 20
172.0835074594838
 30
0.0
 10
204.0999165284905
 20
169.8742945633017
 30
0.0
 10
204.0511422280464
 20
167.6650540709672
 30
0.0
  0
SPLINE
  5
136
330
1F
100
AcDbEntity
  8
0
  6
Continuous
 62
     7
370
    15
100
AcDbSpline
210
0.0
220
0.0
230
1.0
 70
     8
 71
     3
 72
    10
 73
     6
 74
     0
 42
0.00000001
 43
0.00000001
 12
1.0
 22
0.0
 32
0.0
 13
1.0
 23
0.0
 33
0.0
 40
0.0
 40
0.0
 40
0.0
 40
0.0
 40
0.4850514228409886
 40
0.996449751543303
 40
1.0
 40
1.0
 40
1.0
 40
1.0
 10
210.3765871362353
 20
219.8910487745429
 30
0.0
 10
210.3536099100306
 20
219.8263464580001
 30
0.0
 10
210.3064073862058
 20
219.6934273401348
 30
0.0
 10
210.2083904354896
 20
219.3858870246595
 30
0.0
 10
210.0876505356473
 20
219.0867317680031
 30
0.0
 10
210.0868181095332
 20
219.0846692795618
 30
0.0
  0
SPLINE
  5
137
330
1F
100
AcDbEntity
  8
0
  6
Continuous
 62
     7
370
    15
100
AcDbSpline
210
0.0
220
0.0
230
1.0
 70
     8
 71
     3
 72
    73
 73
    69
 74
     0
 42
0.00000001
 43
0.00000001
 12
1.0
 22
0.0
 32
0.0
 13
1.0
 23
0.0
 33
0.0
 40
0.0
 40
0.0
 40
0.0
 40
0.0
 40
0.0625000000000001
 40
0.0625000000000001
 40
0.0781250000000001
 40
0.0781250000000001
 40
0.0937500000000001
 40
0.0937500000000001
 40
0.1250000000000001
 40
0.1250000000000001
 40
0.1562500000000001
 40
0.1562500000000001
 40
0.1718750000000001
 40
0.1718750000000001
 40
0.1875000000000001
 40
0.1875000000000001
 40
0.2500000000000001
 40
0.2500000000000001
 40
0.28125
 40
0.28125
 40
0.3124999999999999
 40
0.3437499999999998
 40
0.3437499999999998
 40
0.3593749999999998
 40
0.3593749999999998
 40
0.3749999999999998
 40
0.3749999999999998
 40
0.4374999999999999
 40
0.4374999999999999
 40
0.4531249999999999
 40
0.4531249999999999
 40
0.4687499999999999
 40
0.4687499999999999
 40
0.5
 40
0.5
 40
0.53125
 40
0.53125
 40
0.546875
 40
0.546875
 40
0.5625000000000001
 40
0.5625000000000001
 40
0.5937500000000001
 40
0.5937500000000001
 40
0.6250000000000001
 40
0.6250000000000001
 40
0.6875000000000002
 40
0.6875000000000002
 40
0.7031250000000002
 40
0.7031250000000002
 40
0.7187500000000002
 40
0.7187500000000002
 40
0.7500000000000002
 40
0.7500000000000002
 40
0.7812500000000003
 40
0.7812500000000003
 40
0.7968750000000003
 40
0.7968750000000003
 40
0.8125000000000003
 40
0.8125000000000003
 40
0.8750000000000003
 40
0.8750000000000003
 40
0.9062500000000002
 40
0.9062500000000002
 40
0.9375000000000001
 40
0.9375000000000001
 40
0.9687500000000001
 40
0.9687500000000001
 40
1.0
 40
1.0
 40
1.0
 40
1.0
 10
166.7966546640498
 20
219.9146249617694
 30
0.0
 10
166.2105370088855
 20
221.6525941227176
 30
0.0
 10
165.8411483630064
 20
223.4247788947845
 30
0.0
 10
165.6407584928894
 20
225.6812692694221
 30
0.0
 10
165.6139227660017
 20
226.1346579347134
 30
0.0
 10
165.5872010803713
 20
227.0456899001034
 30
0.0
 10
165.5873869306563
 20
227.5048783256236
 30
0.0
 10
165.6289730519291
 20
228.875824866579
 30
0.0
 10
165.7107515709765
 20
229.7799089221537
 30
0.0
 10
165.9789545646634
 20
231.5689493908924
 30
0.0
 10
166.1653875332245
 20
232.4539042515005
 30
0.0
 10
166.5242902832908
 20
233.7668502804218
 30
0.0
 10
166.6571672280767
 20
234.2020783994457
 30
0.0
 10
166.9499607647173
 20
235.067592213326
 30
0.0
 10
167.110156740842
 20
235.4982921806522
 30
0.0
 10
167.9682784602508
 20
237.610705344773
 30
0.0
 10
168.842294446995
 20
239.1937281308457
 30
0.0
 10
170.4317868536551
 20
241.4095024332429
 30
0.0
 10
171.0124965995009
 20
242.1250444254492
 30
0.0
 10
172.2414963879427
 20
243.4673546866669
 30
0.0
 10
173.5415417054119
 20
244.7278843470514
 30
0.0
 10
174.9809236315895
 20
245.8280234559937
 30
0.0
 10
176.1138958023848
 20
246.5916178538414
 30
0.0
 10
176.5016761532411
 20
246.8365604630692
 30
0.0
 10
177.2896431694944
 20
247.3018682111962
 30
0.0
 10
177.6887210204845
 20
247.5216893558529
 30
0.0
 10
179.7090138239376
 20
248.5580626506834
 30
0.0
 10
181.4039030653173
 20
249.1890281139694
 30
0.0
 10
183.622397694288
 20
249.7261279081852
 30
0.0
 10
184.0721974110211
 20
249.8209113099407
 30
0.0
 10
184.9704458641019
 20
249.9823844063994
 30
0.0
 10
185.4201250836974
 20
250.0494355988172
 30
0.0
 10
186.770795993147
 20
250.2103154893106
 30
0.0
 10
187.6734153689805
 20
250.2640077179727
 30
0.0
 10
189.482969140986
 20
250.2649897831824
 30
0.0
 10
190.3899030982294
 20
250.2122904430957
 30
0.0
 10
191.7536564873443
 20
250.0505746047135
 30
0.0
 10
192.2069003501608
 20
249.9830005562543
 30
0.0
 10
193.1030857339408
 20
249.8221040680922
 30
0.0
 10
193.5472001457375
 20
249.7286495728663
 30
0.0
 10
194.8677975195819
 20
249.4098851647824
 30
0.0
 10
195.7325748231979
 20
249.1463057661646
 30
0.0
 10
197.4308985507793
 20
248.5170433827863
 30
0.0
 10
198.2664716913692
 20
248.1503275952876
 30
0.0
 10
200.7115238845354
 20
246.8971287975169
 30
0.0
 10
202.212064249684
 20
245.8856183061293
 30
0.0
 10
203.9306816936368
 20
244.4077135252889
 30
0.0
 10
204.2664477264824
 20
244.1013145952958
 30
0.0
 10
204.9217616095418
 20
243.4664684982334
 30
0.0
 10
205.2422143654849
 20
243.1369547102751
 30
0.0
 10
206.1675641067784
 20
242.126771916986
 30
0.0
 10
206.739248313979
 20
241.4224347466583
 30
0.0
 10
207.794827340309
 20
239.9538008245449
 30
0.0
 10
208.2787168275308
 20
239.189500431101
 30
0.0
 10
208.9378770765314
 20
237.9975119446972
 30
0.0
 10
209.1464563861307
 20
237.5925733734069
 30
0.0
 10
209.5408335079192
 20
236.7671366161654
 30
0.0
 10
209.7261800420149
 20
236.3473389434853
 30
0.0
 10
210.5838607062604
 20
234.2373059411689
 30
0.0
 10
211.0621571653175
 20
232.4935751517378
 30
0.0
 10
211.4691661349518
 20
229.7947805457135
 30
0.0
 10
211.5520914586621
 20
228.8769297026546
 30
0.0
 10
211.6077234647882
 20
227.0594451537881
 30
0.0
 10
211.5816716428753
 20
226.1547785822984
 30
0.0
 10
211.4236173686498
 20
224.3534617885275
 30
0.0
 10
211.2916181311459
 20
223.4568113230099
 30
0.0
 10
210.9189586059386
 20
221.6717318147282
 30
0.0
 10
210.6777530792283
 20
220.783608490507
 30
0.0
 10
210.3846942102674
 20
219.9146239239886
 30
0.0
  0
SPLINE
  5
138
330
1F
100
AcDbEntity
  8
0
  6
Continuous
 62
     7
370
    15
100
AcDbSpline
210
0.0
220
0.0
230
1.0
 70
     8
 71
     3
 72
    24
 73
    20
 74
     0
 42
0.00000001
 43
0.00000001
 12
1.0
 22
0.0
 32
0.0
 13
1.0
 23
0.0
 33
0.0
 40
0.0
 40
0.0
 40
0.0
 40
0.0
 40
0.1249999999999999
 40
0.1249999999999999
 40
0.1874999999999999
 40
0.1874999999999999
 40
0.2499999999999999
 40
0.2499999999999999
 40
0.3124999999999999
 40
0.3124999999999999
 40
0.3749999999999999
 40
0.3749999999999999
 40
0.4999999999999999
 40
0.4999999999999999
 40
0.7499999999999999
 40
0.7499999999999999
 40
0.8749999999999999
 40
0.8749999999999999
 40
1.0
 40
1.0
 40
1.0
 40
1.0
 10
211.3174392151776
 20
223.7290054806198
 30
0.0
 10
210.683209576376
 20
219.644452951221
 30
0.0
 10
210.083482818972
 20
215.5564591222213
 30
0.0
 10
209.4530750045919
 20
209.3976253740691
 30
0.0
 10
209.2893282311904
 20
207.3400558652432
 30
0.0
 10
209.0522281123703
 20
203.2159028310206
 30
0.0
 10
208.9767185485895
 20
201.1490522266363
 30
0.0
 10
208.8714921444163
 20
197.0129826831428
 30
0.0
 10
208.8406659513762
 20
194.94470691227
 30
0.0
 10
208.7944569765337
 20
190.8079851174747
 30
0.0
 10
208.77948830313
 20
188.739534473627
 30
0.0
 10
208.7406177445381
 20
182.5341161044777
 30
0.0
 10
208.7223516946001
 20
178.3970862580108
 30
0.0
 10
208.6364117434495
 20
165.9863428352235
 30
0.0
 10
208.5268798749579
 20
157.7130094203295
 30
0.0
 10
208.2962173466076
 20
145.3040721509994
 30
0.0
 10
208.2071924266108
 20
141.1680358488738
 30
0.0
 10
208.0105903975736
 20
132.8963673359176
 30
0.0
 10
207.9026667735716
 20
128.7607419210715
 30
0.0
 10
207.7919691090904
 20
124.6251886288738
 30
0.0
  0
SPLINE
  5
139
330
1F
100
AcDbEntity
  8
0
  6
Continuous
 62
     7
370
    15
100
AcDbSpline
210
0.0
220
0.0
230
1.0
 70
     8
 71
     3
 72
    24
 73
    20
 74
     0
 42
0.00000001
 43
0.00000001
 12
1.0
 22
0.0
 32
0.0
 13
1.0
 23
0.0
 33
0.0
 40
0.0
 40
0.0
 40
0.0
 40
0.0
 40
0.125
 40
0.125
 40
0.25
 40
0.25
 40
0.5
 40
0.5
 40
0.6249999999999999
 40
0.6249999999999999
 40
0.6874999999999999
 40
0.6874999999999999
 40
0.7499999999999999
 40
0.7499999999999999
 40
0.8125
 40
0.8125
 40
0.8750000000000001
 40
0.8750000000000001
 40
1.0
 40
1.0
 40
1.0
 40
1.0
 10
169.3893801148252
 20
124.625188628874
 30
0.0
 10
169.2786824503648
 20
128.760741921073
 30
0.0
 10
169.1707588263914
 20
132.8963673359206
 30
0.0
 10
168.974156797411
 20
141.1680358488793
 30
0.0
 10
168.8851318774431
 20
145.3040721510059
 30
0.0
 10
168.6544693491669
 20
157.7130094203393
 30
0.0
 10
168.5449374807056
 20
165.9863428352352
 30
0.0
 10
168.4589975295899
 20
178.3970862580248
 30
0.0
 10
168.440731479663
 20
182.5341161044925
 30
0.0
 10
168.4018609210875
 20
188.7395344736431
 30
0.0
 10
168.3868922476892
 20
190.8079851174911
 30
0.0
 10
168.3406832728573
 20
194.9447069122872
 30
0.0
 10
168.3098570798223
 20
197.0129826831604
 30
0.0
 10
168.2046306756602
 20
201.1490522266549
 30
0.0
 10
168.1291211118853
 20
203.2159028310398
 30
0.0
 10
167.8920209930765
 20
207.3400558652637
 30
0.0
 10
167.7282742196802
 20
209.3976253740903
 30
0.0
 10
167.0978664053109
 20
215.5564591222445
 30
0.0
 10
166.4981396479131
 20
219.6444529512454
 30
0.0
 10
165.8639100091195
 20
223.7290054806459
 30
0.0
  0
SPLINE
  5
13A
330
1F
100
AcDbEntity
  8
0
  6
Continuous
 62
     7
370
    15
100
AcDbSpline
210
0.0
220
0.0
230
1.0
 70
     8
 71
     3
 72
    21
 73
    17
 74
     0
 42
0.00000001
 43
0.00000001
 12
1.0
 22
0.0
 32
0.0
 13
1.0
 23
0.0
 33
0.0
 40
0.0
 40
0.0
 40
0.0
 40
0.0
 40
0.0422327273897925
 40
0.0843068546114926
 40
0.1262404272205237
 40
0.1680516727577014
 40
0.2097589791443433
 40
0.2513808720548338
 40
0.3774048538425347
 40
0.5023452746026582
 40
0.6274065330382559
 40
0.7517516850237556
 40
0.8139330124456738
 40
0.8759847475847402
 40
0.9379819806948059
 40
1.0
 40
1.0
 40
1.0
 40
1.0
 10
198.4807156532787
 20
248.6918971717815
 30
0.0
 10
198.3600777125076
 20
248.7390148018715
 30
0.0
 10
198.1192548729275
 20
248.833073117191
 30
0.0
 10
197.7506958453276
 20
248.9692863012735
 30
0.0
 10
197.3777402409472
 20
249.1013608535735
 30
0.0
 10
196.9998485784487
 20
249.2288266727293
 30
0.0
 10
196.6172064721069
 20
249.3516116302429
 30
0.0
 10
195.9678441878225
 20
249.549285380069
 30
0.0
 10
195.0348168123604
 20
249.8028037059786
 30
0.0
 10
193.7929609311381
 20
250.0784871773568
 30
0.0
 10
192.5210031348841
 20
250.2978828967125
 30
0.0
 10
191.439018939386
 20
250.4309645221744
 30
0.0
 10
190.5667238608595
 20
250.5060199180824
 30
0.0
 10
189.9096040630407
 20
250.546105042401
 30
0.0
 10
189.2506800472854
 20
250.5712830651007
 30
0.0
 10
188.8107010054897
 20
250.5744011707222
 30
0.0
 10
188.5906746121507
 20
250.5759604848457
 30
0.0
  0
SPLINE
  5
13B
330
1F
100
AcDbEntity
  8
0
  6
Continuous
 62
     7
370
    15
100
AcDbSpline
210
0.0
220
0.0
230
1.0
 70
     8
 71
     3
 72
    22
 73
    18
 74
     0
 42
0.00000001
 43
0.00000001
 12
1.0
 22
0.0
 32
0.0
 13
1.0
 23
0.0
 33
0.0
 40
0.0
 40
0.0
 40
0.0
 40
0.0
 40
0.0354463232535993
 40
0.0708756965096089
 40
0.1063021669363755
 40
0.1417397851542166
 40
0.1772025885329603
 40
0.2127045845680548
 40
0.248259734433355
 40
0.3725996729864576
 40
0.4976649998317654
 40
0.6226001635283895
 40
0.7486282505368587
 40
0.8110878282386254
 40
0.87376166130212
 40
0.9367119300358977
 40
1.0
 40
1.0
 40
1.0
 40
1.0
 10
188.5906746121507
 20
250.5759604848457
 30
0.0
 10
188.4649247362563
 20
250.5754513385247
 30
0.0
 10
188.2134851165178
 20
250.5744332893502
 30
0.0
 10
187.8365894635673
 20
250.566205474702
 30
0.0
 10
187.4601716005502
 20
250.5530904423186
 30
0.0
 10
187.0843045278874
 20
250.5346231455444
 30
0.0
 10
186.7090630834196
 20
250.5109504110561
 30
0.0
 10
186.3345132019485
 20
250.4820547094049
 30
0.0
 10
185.6499209474616
 20
250.419624143305
 30
0.0
 10
184.660348298286
 20
250.2978737347463
 30
0.0
 10
183.3884271950845
 20
250.0784958677966
 30
0.0
 10
182.1465307898825
 20
249.8028088706845
 30
0.0
 10
181.1471167655349
 20
249.5312277464699
 30
0.0
 10
180.3706636193809
 20
249.2916680564488
 30
0.0
 10
179.8021236755243
 20
249.1019731813876
 30
0.0
 10
179.2434113974825
 20
248.9026066610509
 30
0.0
 10
178.8818819854176
 20
248.7622588537926
 30
0.0
 10
178.7006335710226
 20
248.6918971717815
 30
0.0
  0
LWPOLYLINE
  5
13C
330
1F
100
AcDbEntity
  8
0
  6
Continuous
 62
     7
370
    15
100
AcDbPolyline
 90
        3
 70
   128
 43
0.0
 10
199.5629452038
 20
248.9936378241
 10
199.5474398005
 20
248.8725297757
 10
199.5273984226
 20
248.8108524864
  0
LWPOLYLINE
  5
13D
330
1F
100
AcDbEntity
  8
0
  6
Continuous
 62
     7
370
    15
100
AcDbPolyline
 90
        3
 70
   128
 43
0.0
 10
199.5119454677
 20
248.775964431
 10
199.503103464
 20
248.7587427504
 10
199.4335008522
 20
248.6600789716
  0
SPLINE
  5
13E
330
1F
100
AcDbEntity
  8
0
  6
Continuous
 62
     7
370
    15
100
AcDbSpline
210
0.0
220
0.0
230
1.0
 70
     8
 71
     3
 72
     9
 73
     5
 74
     0
 42
0.00000001
 43
0.00000001
 12
1.0
 22
0.0
 32
0.0
 13
1.0
 23
0.0
 33
0.0
 40
0.0
 40
0.0
 40
0.0
 40
0.0
 40
0.4601745644454304
 40
0.9999999999999999
 40
0.9999999999999999
 40
0.9999999999999999
 40
0.9999999999999999
 10
198.7653165121452
 20
248.5774538293319
 30
0.0
 10
198.7313320261839
 20
248.5913460191573
 30
0.0
 10
198.6574807345503
 20
248.6215349754769
 30
0.0
 10
198.5426852017645
 20
248.6672298930175
 30
0.0
 10
198.4807156532787
 20
248.6918971717815
 30
0.0
  0
SPLINE
  5
13F
330
1F
100
AcDbEntity
  8
0
  6
Continuous
 62
     7
370
    15
100
AcDbSpline
210
0.0
220
0.0
230
1.0
 70
     8
 71
     3
 72
     9
 73
     5
 74
     0
 42
0.00000001
 43
0.00000001
 12
1.0
 22
0.0
 32
0.0
 13
1.0
 23
0.0
 33
0.0
 40
0.0
 40
0.0
 40
0.0
 40
0.0
 40
0.5397765053991688
 40
1.0
 40
1.0
 40
1.0
 40
1.0
 10
178.7006335710226
 20
248.6918971717815
 30
0.0
 10
178.6386727777999
 20
248.6672334087065
 30
0.0
 10
178.5238830590868
 20
248.6215408622019
 30
0.0
 10
178.4500275528728
 20
248.5913502164779
 30
0.0
 10
178.4160375137074
 20
248.5774557719986
 30
0.0
  0
LINE
  5
140
330
1F
100
AcDbEntity
  8
0
  6
Continuous
 62
     8
370
     0
100
AcDbLine
 10
210.3846938724
 20
219.9146229223
 30
0.0
 11
210.3765871362
 21
219.8910487745
 31
0.0
  0
SPLINE
  5
141
330
1F
100
AcDbEntity
  8
0
  6
Continuous
 62
     8
370
     0
100
AcDbSpline
210
0.0
220
0.0
230
1.0
 70
     8
 71
     3
 72
    73
 73
    69
 74
     0
 42
0.00000001
 43
0.00000001
 12
1.0
 22
0.0
 32
0.0
 13
1.0
 23
0.0
 33
0.0
 40
0.0
 40
0.0
 40
0.0
 40
0.0
 40
0.0312499999999999
 40
0.0312499999999999
 40
0.0624999999999998
 40
0.0624999999999998
 40
0.0937499999999997
 40
0.0937499999999997
 40
0.1249999999999996
 40
0.1249999999999996
 40
0.1874999999999994
 40
0.1874999999999994
 40
0.2031249999999993
 40
0.2031249999999993
 40
0.2187499999999993
 40
0.2187499999999993
 40
0.2499999999999992
 40
0.2499999999999992
 40
0.2812499999999991
 40
0.2812499999999991
 40
0.2968749999999991
 40
0.2968749999999991
 40
0.312499999999999
 40
0.312499999999999
 40
0.3749999999999992
 40
0.3749999999999992
 40
0.4062499999999992
 40
0.4062499999999992
 40
0.4374999999999993
 40
0.4374999999999993
 40
0.4531249999999993
 40
0.4531249999999993
 40
0.4687499999999993
 40
0.4687499999999993
 40
0.4999999999999993
 40
0.4999999999999993
 40
0.5312499999999993
 40
0.5312499999999993
 40
0.5468749999999994
 40
0.5468749999999994
 40
0.5624999999999994
 40
0.5624999999999994
 40
0.6249999999999994
 40
0.6249999999999994
 40
0.6406249999999996
 40
0.6406249999999996
 40
0.6562499999999997
 40
0.6562499999999997
 40
0.6874999999999997
 40
0.7187499999999998
 40
0.7187499999999998
 40
0.7499999999999999
 40
0.7499999999999999
 40
0.8124999999999999
 40
0.8124999999999999
 40
0.828125
 40
0.828125
 40
0.84375
 40
0.84375
 40
0.875
 40
0.875
 40
0.9062500000000001
 40
0.9062500000000001
 40
0.921875
 40
0.921875
 40
0.9375
 40
0.9375
 40
1.0
 40
1.0
 40
1.0
 40
1.0
 10
209.531938415934
 20
220.2022050763584
 30
0.0
 10
209.8135281757017
 20
221.037182705584
 30
0.0
 10
210.0452943038486
 20
221.890549743742
 30
0.0
 10
210.403371092889
 20
223.6057707362808
 30
0.0
 10
210.5302056141175
 20
224.4673308145456
 30
0.0
 10
210.6820774693686
 20
226.1981526070088
 30
0.0
 10
210.7071117141631
 20
227.0674145548846
 30
0.0
 10
210.6536618210923
 20
228.8137703238687
 30
0.0
 10
210.5739848015173
 20
229.6957004518335
 30
0.0
 10
210.1829141063592
 20
232.2888775018324
 30
0.0
 10
209.7233439534037
 20
233.96436685134
 30
0.0
 10
208.8992417038838
 20
235.9918232462195
 30
0.0
 10
208.7211515967725
 20
236.3951918458903
 30
0.0
 10
208.3422133922375
 20
237.1883267684237
 30
0.0
 10
208.1417993890366
 20
237.5774189140312
 30
0.0
 10
207.5084432859828
 20
238.7227615907986
 30
0.0
 10
207.0434964097266
 20
239.4571530257826
 30
0.0
 10
206.0292395317188
 20
240.868316374228
 30
0.0
 10
205.4799346512932
 20
241.5450917853915
 30
0.0
 10
204.5908090759669
 20
242.5157453854057
 30
0.0
 10
204.2829002959458
 20
242.832365874747
 30
0.0
 10
203.6532376505695
 20
243.4423724617986
 30
0.0
 10
203.330614638201
 20
243.7367831310345
 30
0.0
 10
201.6792697002505
 20
245.1568638243184
 30
0.0
 10
200.2374655172398
 20
246.1288010679015
 30
0.0
 10
197.8881224500802
 20
247.3329782714972
 30
0.0
 10
197.0852511892866
 20
247.6853533415325
 30
0.0
 10
195.4534002164896
 20
248.2900090363258
 30
0.0
 10
194.6224705702022
 20
248.5432834019326
 30
0.0
 10
193.3535620279356
 20
248.8495891435639
 30
0.0
 10
192.9268305111194
 20
248.9393918505743
 30
0.0
 10
192.0657224375675
 20
249.0940031571301
 30
0.0
 10
191.6302200058559
 20
249.1589385519816
 30
0.0
 10
190.3198384497452
 20
249.3143448779634
 30
0.0
 10
189.4483982873164
 20
249.3649948415777
 30
0.0
 10
187.7096633081053
 20
249.3640781526285
 30
0.0
 10
186.842368913249
 20
249.3125010964194
 30
0.0
 10
185.5445579639254
 20
249.1579392795728
 30
0.0
 10
185.1124774246688
 20
249.0935196742923
 30
0.0
 10
184.249382885778
 20
248.9383813847851
 30
0.0
 10
183.8171854508858
 20
248.8473151843424
 30
0.0
 10
181.6855008846934
 20
248.3312724033179
 30
0.0
 10
180.0569324405408
 20
247.7250304998213
 30
0.0
 10
178.1156914803651
 20
246.7292581104224
 30
0.0
 10
177.7322290042568
 20
246.5180483592319
 30
0.0
 10
176.9750938146367
 20
246.0709683349314
 30
0.0
 10
176.6024830018442
 20
245.8356185419778
 30
0.0
 10
175.5138336902134
 20
245.1019298960283
 30
0.0
 10
174.1307604852289
 20
244.0448750252265
 30
0.0
 10
172.8815697081661
 20
242.8337082558006
 30
0.0
 10
171.7006429194328
 20
241.5439629051524
 30
0.0
 10
171.1426437275543
 20
240.8564380152139
 30
0.0
 10
169.6153049975566
 20
238.7274145782085
 30
0.0
 10
168.7754592491031
 20
237.206368143777
 30
0.0
 10
167.9508727139778
 20
235.1766576575317
 30
0.0
 10
167.7969359652192
 20
234.7628193645575
 30
0.0
 10
167.5155786752997
 20
233.9311836385588
 30
0.0
 10
167.3878907787771
 20
233.5129912535471
 30
0.0
 10
167.0430003010163
 20
232.251436568097
 30
0.0
 10
166.8638409794861
 20
231.4011204900767
 30
0.0
 10
166.6060880234588
 20
229.6821062525975
 30
0.0
 10
166.5274862348759
 20
228.8134095834397
 30
0.0
 10
166.4874902792276
 20
227.4961242175977
 30
0.0
 10
166.4872989265337
 20
227.0549044502427
 30
0.0
 10
166.5129496041783
 20
226.1795229923535
 30
0.0
 10
166.5387225023848
 20
225.7438762911971
 30
0.0
 10
166.7312067936436
 20
223.575686424872
 30
0.0
 10
167.086088051279
 20
221.8728495621152
 30
0.0
 10
167.6492111858009
 20
220.2028879044587
 30
0.0
  0
SPLINE
  5
142
330
1F
100
AcDbEntity
  8
0
  6
Continuous
 62
     8
370
     0
100
AcDbSpline
210
0.0
220
0.0
230
1.0
 70
     8
 71
     3
 72
    56
 73
    52
 74
     0
 42
0.00000001
 43
0.00000001
 12
1.0
 22
0.0
 32
0.0
 13
1.0
 23
0.0
 33
0.0
 40
0.0
 40
0.0
 40
0.0
 40
0.0
 40
0.0100506898462715
 40
0.0198583896623217
 40
0.0294266900452623
 40
0.0387570509668416
 40
0.0478493727855199
 40
0.0567023074398623
 40
0.0653138272025615
 40
0.0736820564433795
 40
0.081805835226759
 40
0.0896835523728175
 40
0.0973049252627918
 40
0.1046685856174491
 40
0.1117800427264792
 40
0.1186468543587517
 40
0.1252732364311134
 40
0.1432696554178556
 40
0.1646994525470453
 40
0.1896701869515745
 40
0.2183097656434799
 40
0.2506536669436792
 40
0.2856458519552216
 40
0.3386791410956699
 40
0.4097570320883136
 40
0.4989190916653551
 40
0.5361917371688769
 40
0.624058935711352
 40
0.6537172599936709
 40
0.6869552035035805
 40
0.6972558662325995
 40
0.7086305401603026
 40
0.7210895193874298
 40
0.7346812951732287
 40
0.7495206338207646
 40
0.7604708469880886
 40
0.7851402075026017
 40
0.7989134351448984
 40
0.8119293385145672
 40
0.8395258267300819
 40
0.8743842387973195
 40
0.886455151408254
 40
0.8987144113029183
 40
0.9110304889347239
 40
0.9233764721267576
 40
0.9358099346922658
 40
0.9483899416300321
 40
0.9611636462452953
 40
0.974010820356896
 40
0.9869434959507104
 40
1.0
 40
1.0
 40
1.0
 40
1.0
 10
167.6492005371547
 20
220.2028839817899
 30
0.0
 10
167.7369977280648
 20
219.9465142057287
 30
0.0
 10
167.9104694852297
 20
219.4399727654362
 30
0.0
 10
168.1793414383292
 20
218.6934967951226
 30
0.0
 10
168.4496179620665
 20
217.968236628025
 30
0.0
 10
168.7216540043519
 20
217.2642685287449
 30
0.0
 10
168.9945137268492
 20
216.5813516441661
 30
0.0
 10
169.2671725473891
 20
215.9192713260361
 30
0.0
 10
169.538085734484
 20
215.2776201347342
 30
0.0
 10
169.8054021481312
 20
214.6558100607106
 30
0.0
 10
170.0670916328205
 20
214.0531234004413
 30
0.0
 10
170.3214218344075
 20
213.4691955035355
 30
0.0
 10
170.5658537481182
 20
212.9033090795899
 30
0.0
 10
170.7969951612946
 20
212.3542026268694
 30
0.0
 10
171.0126262341599
 20
211.8206931872679
 30
0.0
 10
171.2115185716772
 20
211.3019417128564
 30
0.0
 10
171.4996302051478
 20
210.5032683425561
 30
0.0
 10
171.8738173534946
 20
209.3184723010943
 30
0.0
 10
172.284888557553
 20
207.6301001258871
 30
0.0
 10
172.6269155568085
 20
205.634688313509
 30
0.0
 10
172.9008886868705
 20
203.3328261885592
 30
0.0
 10
173.117817925592
 20
200.7539199204008
 30
0.0
 10
173.3115046919474
 20
197.5141311675446
 30
0.0
 10
173.4768516478948
 20
193.2273235351082
 30
0.0
 10
173.6017485648714
 20
187.4783610392452
 30
0.0
 10
173.6822972459921
 20
182.1537024670773
 30
0.0
 10
173.8054590983737
 20
176.3770673340511
 30
0.0
 10
173.9079476186135
 20
172.2047103654329
 30
0.0
 10
173.9979783434371
 20
168.1408751285252
 30
0.0
 10
174.0409997658535
 20
166.1678352907488
 30
0.0
 10
174.0749832913681
 20
164.6876713315419
 30
0.0
 10
174.0979087308083
 20
163.7676425463784
 30
0.0
 10
174.1277352429163
 20
162.7590077302072
 30
0.0
 10
174.1697910230816
 20
161.6574020130094
 30
0.0
 10
174.2689041157728
 20
160.5985647923982
 30
0.0
 10
174.5284930390114
 20
159.2619704432063
 30
0.0
 10
174.921254235847
 20
157.9837824276618
 30
0.0
 10
175.4754527862105
 20
156.71052926097
 30
0.0
 10
176.16252331588
 20
155.4137559082402
 30
0.0
 10
177.3186251908776
 20
153.7294395443139
 30
0.0
 10
178.7372009684998
 20
152.2858679681906
 30
0.0
 10
179.995023612881
 20
151.3025455516787
 30
0.0
 10
180.8135643946626
 20
150.7476653606146
 30
0.0
 10
181.6744746717209
 20
150.2463805208007
 30
0.0
 10
182.5719160176191
 20
149.8031168437921
 30
0.0
 10
183.5042565007498
 20
149.4197646404035
 30
0.0
 10
184.4718810690315
 20
149.0983671233317
 30
0.0
 10
185.470375231854
 20
148.8420727695465
 30
0.0
 10
186.4938986182102
 20
148.6565113332258
 30
0.0
 10
187.5362891937239
 20
148.5431313437042
 30
0.0
 10
188.2371984610523
 20
148.5313492275454
 30
0.0
 10
188.5893228763946
 20
148.5254301008378
 30
0.0
  0
SPLINE
  5
143
330
1F
100
AcDbEntity
  8
0
  6
Continuous
 62
     8
370
     0
100
AcDbSpline
210
0.0
220
0.0
230
1.0
 70
     8
 71
     3
 72
    67
 73
    63
 74
     0
 42
0.00000001
 43
0.00000001
 12
1.0
 22
0.0
 32
0.0
 13
1.0
 23
0.0
 33
0.0
 40
0.0
 40
0.0
 40
0.0
 40
0.0
 40
0.0050155613701752
 40
0.0100092692718818
 40
0.0149829668516269
 40
0.0199385438977543
 40
0.0248779562409522
 40
0.0298029639686215
 40
0.0347164768537163
 40
0.0396227456708734
 40
0.0445251533191278
 40
0.0494023640723448
 40
0.0542461656025536
 40
0.0590605398811294
 40
0.0638491307062698
 40
0.0686153357064432
 40
0.0733624170882002
 40
0.0780936299407704
 40
0.0828123250161549
 40
0.0875217113171618
 40
0.0922248596509855
 40
0.0969250172591006
 40
0.101625427713883
 40
0.106324690904939
 40
0.1109951223247284
 40
0.1156344526612806
 40
0.1202460065604373
 40
0.1248329780986021
 40
0.1565735640367592
 40
0.1875198945863249
 40
0.2034134901250083
 40
0.2185612750850379
 40
0.2365008704211924
 40
0.2500341890039388
 40
0.261546663258163
 40
0.2725768470659677
 40
0.2831668164839316
 40
0.2933682937412941
 40
0.30319582169241
 40
0.3126541250425894
 40
0.3488713348940501
 40
0.3746316901089705
 40
0.4509032414357296
 40
0.4979837746755462
 40
0.5645408228796319
 40
0.621202289212179
 40
0.6679829399087389
 40
0.7048967056514884
 40
0.7319513808977299
 40
0.7491382349238793
 40
0.7788444805738911
 40
0.8061700110097512
 40
0.8311279767434173
 40
0.8538185008484327
 40
0.874390924490621
 40
0.8895899242745966
 40
0.905707822441782
 40
0.9227825226662545
 40
0.940765579114631
 40
0.9596365019947677
 40
0.9793795916413818
 40
1.0
 40
1.0
 40
1.0
 40
1.0
 10
188.5897438620765
 20
148.5254297079017
 30
0.0
 10
188.72498395305
 20
148.5261619362298
 30
0.0
 10
188.9948748759198
 20
148.5276232024695
 30
0.0
 10
189.3986404168746
 20
148.5429637978009
 30
0.0
 10
189.8002351359629
 20
148.5686031498261
 30
0.0
 10
190.1994754269412
 20
148.6057494013441
 30
0.0
 10
190.5961664654673
 20
148.6542709239144
 30
0.0
 10
190.9901647539464
 20
148.7140841780526
 30
0.0
 10
191.3814462061345
 20
148.7847721787194
 30
0.0
 10
191.7700340047725
 20
148.8660875396138
 30
0.0
 10
192.1553143401165
 20
148.9577094639506
 30
0.0
 10
192.5363589612243
 20
149.059240049949
 30
0.0
 10
192.9122766265072
 20
149.1702456707405
 30
0.0
 10
193.2828352371502
 20
149.2904735159598
 30
0.0
 10
193.6481014464361
 20
149.4197904561146
 30
0.0
 10
194.008123527933
 20
149.5580771089441
 30
0.0
 10
194.3629435998276
 20
149.7052181649275
 30
0.0
 10
194.7126058088986
 20
149.8611066830423
 30
0.0
 10
195.0571501262221
 20
150.0256567383628
 30
0.0
 10
195.3965965606638
 20
150.1988221431001
 30
0.0
 10
195.7309612356157
 20
150.3805626156184
 30
0.0
 10
196.0602550990593
 20
150.5708537104521
 30
0.0
 10
196.3843729841001
 20
150.7696330432677
 30
0.0
 10
196.7025047643638
 20
150.9763906688724
 30
0.0
 10
197.0137765999953
 20
151.1904458575494
 30
0.0
 10
197.3174729401051
 20
151.4111121447595
 30
0.0
 10
197.6136026279752
 20
151.6381761153068
 30
0.0
 10
198.4720622940096
 20
152.3320818513613
 30
0.0
 10
199.7685311157846
 20
153.6160651366744
 30
0.0
 10
200.9962421990245
 20
155.3566113020234
 30
0.0
 10
201.7716563110098
 20
156.8394433809615
 30
0.0
 10
202.2792585736425
 20
158.0605005037076
 30
0.0
 10
202.6470415207848
 20
159.265040371683
 30
0.0
 10
202.8810641289847
 20
160.4017864915452
 30
0.0
 10
202.9893849630692
 20
161.3694650322929
 30
0.0
 10
203.0356678709052
 20
162.2617919253433
 30
0.0
 10
203.0650798257316
 20
163.1192891894468
 30
0.0
 10
203.087937601921
 20
163.944560445079
 30
0.0
 10
203.1075632494729
 20
164.7393853485865
 30
0.0
 10
203.1418740528278
 20
166.2355239229826
 30
0.0
 10
203.1839987682692
 20
168.1611916932505
 30
0.0
 10
203.2663995739885
 20
171.8878993685796
 30
0.0
 10
203.3634497483088
 20
175.9072534456051
 30
0.0
 10
203.476613769862
 20
181.0265442534754
 30
0.0
 10
203.5550748817784
 20
185.6176603048326
 30
0.0
 10
203.6343654325817
 20
190.2006902832455
 30
0.0
 10
203.7359494551223
 20
193.9838273768148
 30
0.0
 10
203.8512883365929
 20
196.9678148603774
 30
0.0
 10
203.9664318234724
 20
199.1530607139659
 30
0.0
 10
204.0976281425574
 20
201.1426220895129
 30
0.0
 10
204.2630730988934
 20
203.13716871222
 30
0.0
 10
204.5142864572594
 20
205.3340199819868
 30
0.0
 10
204.8363087987631
 20
207.3308558801093
 30
0.0
 10
205.250840962905
 20
209.1246529658471
 30
0.0
 10
205.7176294910877
 20
210.6316725078788
 30
0.0
 10
206.2096137197385
 20
211.9419029601611
 30
0.0
 10
206.7165087908877
 20
213.1443878649311
 30
0.0
 10
207.2701869890979
 20
214.4082513764527
 30
0.0
 10
207.8447283915896
 20
215.7440673856563
 30
0.0
 10
208.4222156795959
 20
217.1567009287957
 30
0.0
 10
208.9932434538986
 20
218.6485456561646
 30
0.0
 10
209.3497972869582
 20
219.6768658675063
 30
0.0
 10
209.5319491321368
 20
220.2022014734177
 30
0.0
  0
SPLINE
  5
144
330
1F
100
AcDbEntity
  8
0
  6
Continuous
 62
     8
370
     0
100
AcDbSpline
210
0.0
220
0.0
230
1.0
 70
     8
 71
     3
 72
    57
 73
    53
 74
     0
 42
0.00000001
 43
0.00000001
 12
1.0
 22
0.0
 32
0.0
 13
1.0
 23
0.0
 33
0.0
 40
0.0
 40
0.0
 40
0.0
 40
0.0
 40
0.0083376950294034
 40
0.0167734521276245
 40
0.0250687561789359
 40
0.0333337303051037
 40
0.0498782357649268
 40
0.0663138413568254
 40
0.0829011034346669
 40
0.0995904518397726
 40
0.1161145358070859
 40
0.1327999897743578
 40
0.1492851532816292
 40
0.1574434153186395
 40
0.1657039101565562
 40
0.1740439864355894
 40
0.1823634725635505
 40
0.1906944587616682
 40
0.1989994507533541
 40
0.2044479476699064
 40
0.2101498621674315
 40
0.2161313114446815
 40
0.2202615941247802
 40
0.2262108113882684
 40
0.2320945846967291
 40
0.2433835239009298
 40
0.2544571964873223
 40
0.2636570012484624
 40
0.2799767397919559
 40
0.2966550910171444
 40
0.3126440136718823
 40
0.327046175548701
 40
0.3608390650890297
 40
0.3939156919879671
 40
0.4138770878225297
 40
0.4349543228306888
 40
0.457124678161058
 40
0.4910965162911805
 40
0.5241179915405635
 40
0.588699029422907
 40
0.6548173675790653
 40
0.6885400960794672
 40
0.7217523207046859
 40
0.7883412606091251
 40
0.8215623238931147
 40
0.8543983198760402
 40
0.8876255395564477
 40
0.9206375180306211
 40
0.9371924978422321
 40
0.9539406183000593
 40
0.9866280968755204
 40
1.0
 40
1.0
 40
1.0
 40
1.0
 10
188.4215840442304
 20
90.26554284145499
 30
0.0
 10
188.042310694349
 20
90.27585592610485
 30
0.0
 10
187.2793032498356
 20
90.29660339060818
 30
0.0
 10
186.1443682940366
 20
90.42003477037433
 30
0.0
 10
185.0231384793305
 20
90.61337044191731
 30
0.0
 10
183.558315662685
 20
90.96699251644883
 30
0.0
 10
181.7797902166558
 20
91.58155622327143
 30
0.0
 10
179.7523700119586
 20
92.58160869909466
 30
0.0
 10
177.8630239747028
 20
93.8360387551469
 30
0.0
 10
176.149930672064
 20
95.32812118906759
 30
0.0
 10
174.6344366294996
 20
97.02558496303845
 30
0.0
 10
173.3434168623305
 20
98.88874112071832
 30
0.0
 10
172.4821372140649
 20
100.5664556979995
 30
0.0
 10
171.9276701652023
 20
101.9576169189907
 30
0.0
 10
171.5769074701126
 20
103.0287398572268
 30
0.0
 10
171.2937353509233
 20
104.1272548024852
 30
0.0
 10
171.0895500227929
 20
105.2469313851531
 30
0.0
 10
170.9812508793945
 20
106.378003715326
 30
0.0
 10
170.9358529374492
 20
107.3817119298572
 30
0.0
 10
170.9063828498493
 20
108.2662590451005
 30
0.0
 10
170.8844071389349
 20
109.0452933953891
 30
0.0
 10
170.8655361397557
 20
109.7644195334011
 30
0.0
 10
170.8467050354612
 20
110.4948012436519
 30
0.0
 10
170.8279108314535
 20
111.2207389227814
 30
0.0
 10
170.8003863738762
 20
112.2722121642753
 30
0.0
 10
170.766213094741
 20
113.5567063578016
 30
0.0
 10
170.7275823245575
 20
114.9919839615489
 30
0.0
 10
170.6826360013961
 20
116.6560291586964
 30
0.0
 10
170.6308805385753
 20
118.5749443505282
 30
0.0
 10
170.5711401664299
 20
120.8025984143755
 30
0.0
 10
170.5141973016647
 20
122.943064144498
 30
0.0
 10
170.4373454267813
 20
125.8618284015772
 30
0.0
 10
170.3417474057586
 20
129.5577005699064
 30
0.0
 10
170.2434521348812
 20
133.5064799331165
 30
0.0
 10
170.1632672682371
 20
136.877083905064
 30
0.0
 10
170.0977434319606
 20
139.7517607088766
 30
0.0
 10
170.0214407265587
 20
143.2637007254839
 30
0.0
 10
169.9396120521014
 20
147.3189984388704
 30
0.0
 10
169.8308027312113
 20
153.3034262368879
 30
0.0
 10
169.7168046997569
 20
160.7503506706811
 30
0.0
 10
169.6301879573382
 20
168.2295583775989
 30
0.0
 10
169.5836282140821
 20
174.2820759531014
 30
0.0
 10
169.5470455314318
 20
180.3560660723017
 30
0.0
 10
169.518370233706
 20
186.4072795860028
 30
0.0
 10
169.4712050152353
 20
192.4412704829027
 30
0.0
 10
169.4113199122856
 20
196.9574245568976
 30
0.0
 10
169.3013025644509
 20
201.4632624454466
 30
0.0
 10
169.1276443154689
 20
205.2260900728668
 30
0.0
 10
168.9192041804456
 20
208.2358024560323
 30
0.0
 10
168.6562300493323
 20
211.2261526115437
 30
0.0
 10
168.3643337096755
 20
214.069510812805
 30
0.0
 10
168.0595119573979
 20
216.1425992230179
 30
0.0
 10
167.9710164806621
 20
216.7444557040806
 30
0.0
  0
LWPOLYLINE
  5
145
330
1F
100
AcDbEntity
  8
0
  6
Continuous
 62
     8
370
     0
100
AcDbPolyline
 90
        3
 70
   128
 43
0.0
 10
188.5920697108
 20
90.2655419949
 10
188.5066803456
 20
90.2655404602
 10
188.4215840467
 20
90.2655430133
  0
SPLINE
  5
146
330
1F
100
AcDbEntity
  8
0
  6
Continuous
 62
     8
370
     0
100
AcDbSpline
210
0.0
220
0.0
230
1.0
 70
     8
 71
     3
 72
    32
 73
    28
 74
     0
 42
0.00000001
 43
0.00000001
 12
1.0
 22
0.0
 32
0.0
 13
1.0
 23
0.0
 33
0.0
 40
0.0
 40
0.0
 40
0.0
 40
0.0
 40
0.0338273406402845
 40
0.1207486665311328
 40
0.2090706779754155
 40
0.2966808982754575
 40
0.3835890087220462
 40
0.4742351129701189
 40
0.5272701883925698
 40
0.5806249688882337
 40
0.6312912229741368
 40
0.6840978478466999
 40
0.7373075354007101
 40
0.7694576308574557
 40
0.8024081537625635
 40
0.8189650851972619
 40
0.8353872084211285
 40
0.8518693278200549
 40
0.86834663566406
 40
0.8848517340246125
 40
0.9014791090703822
 40
0.9179614248685075
 40
0.9344381640662943
 40
0.9508191876200871
 40
0.967354375518814
 40
0.9835393986352399
 40
1.0
 40
1.0
 40
1.0
 40
1.0
 10
209.2760343888264
 20
216.9080445976257
 30
0.0
 10
209.0539727516514
 20
215.3831221226565
 30
0.0
 10
208.2613107785527
 20
209.9398223559407
 30
0.0
 10
207.7791914767473
 20
200.4127957383462
 30
0.0
 10
207.6704445177252
 20
188.4451007031583
 30
0.0
 10
207.618558171169
 20
176.4733060069925
 30
0.0
 10
207.5180863557064
 20
164.3970822471778
 30
0.0
 10
207.3637138001005
 20
153.895971392831
 30
0.0
 10
207.1968407653659
 20
144.9235878438787
 30
0.0
 10
207.0412878873267
 20
137.7721879775755
 30
0.0
 10
206.8682042292663
 20
130.6316458328964
 30
0.0
 10
206.6817889222713
 20
123.4979074879377
 30
0.0
 10
206.5173448301216
 20
117.2076925343876
 30
0.0
 10
206.3602174781867
 20
111.8206519018689
 30
0.0
 10
206.2972556255307
 20
108.104480974001
 30
0.0
 10
206.1200615482116
 20
105.1001717783432
 30
0.0
 10
205.6009669421704
 20
102.8978351554245
 30
0.0
 10
204.8201540442875
 20
100.7836768120871
 30
0.0
 10
203.7723928062747
 20
98.78162646215263
 30
0.0
 10
202.4694818515994
 20
96.92841438174487
 30
0.0
 10
200.9499316771722
 20
95.24825820567744
 30
0.0
 10
199.232627664012
 20
93.77198892731222
 30
0.0
 10
197.3483710447155
 20
92.53631432776066
 30
0.0
 10
195.3208031133809
 20
91.54725683932402
 30
0.0
 10
193.19802179778
 20
90.82909730806585
 30
0.0
 10
190.9972184943628
 20
90.36539581208267
 30
0.0
 10
189.5097682099371
 20
90.29901378680414
 30
0.0
 10
188.7597649071685
 20
90.26554259201886
 30
0.0
  0
LWPOLYLINE
  5
147
330
1F
100
AcDbEntity
  8
0
  6
Continuous
 62
     8
370
     0
100
AcDbPolyline
 90
        3
 70
   128
 43
0.0
 10
188.7597649042
 20
90.2655428763
 10
188.6760665913
 20
90.2655404659
 10
188.5920849474
 20
90.2655420154
  0
SPLINE
  5
148
330
1F
100
AcDbEntity
  8
0
  6
Continuous
 62
     8
370
     0
100
AcDbSpline
210
0.0
220
0.0
230
1.0
 70
     8
 71
     3
 72
    44
 73
    40
 74
     0
 42
0.00000001
 43
0.00000001
 12
1.0
 22
0.0
 32
0.0
 13
1.0
 23
0.0
 33
0.0
 40
0.0
 40
0.0
 40
0.0
 40
0.0
 40
0.2499999999999982
 40
0.2499999999999982
 40
0.3749999999999973
 40
0.3749999999999973
 40
0.437499999999997
 40
0.437499999999997
 40
0.4999999999999966
 40
0.4999999999999966
 40
0.5624999999999961
 40
0.5624999999999961
 40
0.5937499999999958
 40
0.5937499999999958
 40
0.6093749999999958
 40
0.6093749999999958
 40
0.6249999999999957
 40
0.6249999999999957
 40
0.6406249999999956
 40
0.6406249999999956
 40
0.6562499999999954
 40
0.6562499999999954
 40
0.6874999999999957
 40
0.6874999999999957
 40
0.7031249999999958
 40
0.7031249999999958
 40
0.718749999999996
 40
0.718749999999996
 40
0.7499999999999964
 40
0.7499999999999964
 40
0.8124999999999973
 40
0.8124999999999973
 40
0.8749999999999982
 40
0.8749999999999982
 40
0.9374999999999991
 40
0.9374999999999991
 40
0.9687499999999996
 40
0.9687499999999996
 40
1.0
 40
1.0
 40
1.0
 40
1.0
 10
178.2397892605816
 20
249.2069950493245
 30
0.0
 10
178.2470415701542
 20
251.2956204702652
 30
0.0
 10
178.2705796901
 20
253.3852583739763
 30
0.0
 10
178.3608604055487
 20
256.5227924619305
 30
0.0
 10
178.4009916811406
 20
257.5695118978468
 30
0.0
 10
178.4679802818052
 20
259.1384024919464
 30
0.0
 10
178.4912571364383
 20
259.6613622699088
 30
0.0
 10
178.5458143775663
 20
260.7098365338638
 30
0.0
 10
178.5769931216037
 20
261.2354158406525
 30
0.0
 10
178.6656746329074
 20
262.2912081258364
 30
0.0
 10
178.7218267483749
 20
262.8226988536775
 30
0.0
 10
178.8640379147276
 20
263.6218040719558
 30
0.0
 10
178.9215368233381
 20
263.888471891604
 30
0.0
 10
179.0384057953821
 20
264.2876310457359
 30
0.0
 10
179.0825459998118
 20
264.4204822345532
 30
0.0
 10
179.1862074407589
 20
264.6863388794438
 30
0.0
 10
179.2461344864932
 20
264.8199175403824
 30
0.0
 10
179.3839376726776
 20
265.0791820943215
 30
0.0
 10
179.4614501076165
 20
265.204543971997
 30
0.0
 10
179.6369034426937
 20
265.4474040955776
 30
0.0
 10
179.7355400730789
 20
265.5651088560012
 30
0.0
 10
180.0555150691426
 20
265.8940249885424
 30
0.0
 10
180.2960580715278
 20
266.0777941580481
 30
0.0
 10
180.6835117656697
 20
266.3153359603629
 30
0.0
 10
180.816789514038
 20
266.3878862405629
 30
0.0
 10
181.082977029197
 20
266.5194057948457
 30
0.0
 10
181.2167909553589
 20
266.5790173431836
 30
0.0
 10
181.6196153461472
 20
266.7438060270844
 30
0.0
 10
181.8898805076544
 20
266.8355157972604
 30
0.0
 10
182.7020624307333
 20
267.0757483201595
 30
0.0
 10
183.2466018682321
 20
267.1894206747035
 30
0.0
 10
184.3275630954455
 20
267.3679716629504
 30
0.0
 10
184.8641583679188
 20
267.4318346302846
 30
0.0
 10
185.9333102945847
 20
267.5287948832719
 30
0.0
 10
186.4656420153025
 20
267.5614983284416
 30
0.0
 10
187.2629381919494
 20
267.593203402171
 30
0.0
 10
187.5285312044457
 20
267.600835185831
 30
0.0
 10
188.0598304774871
 20
267.6111225887836
 30
0.0
 10
188.3268431790746
 20
267.6136905487975
 30
0.0
 10
188.5902114041211
 20
267.6136020241591
 30
0.0
  0
SPLINE
  5
149
330
1F
100
AcDbEntity
  8
0
  6
Continuous
 62
     8
370
     0
100
AcDbSpline
210
0.0
220
0.0
230
1.0
 70
     8
 71
     3
 72
    44
 73
    40
 74
     0
 42
0.00000001
 43
0.00000001
 12
1.0
 22
0.0
 32
0.0
 13
1.0
 23
0.0
 33
0.0
 40
0.0
 40
0.0
 40
0.0
 40
0.0
 40
0.0312500000000001
 40
0.0312500000000001
 40
0.0625000000000002
 40
0.0625000000000002
 40
0.1250000000000004
 40
0.1250000000000004
 40
0.1875000000000007
 40
0.1875000000000007
 40
0.2500000000000009
 40
0.2500000000000009
 40
0.2812500000000009
 40
0.2812500000000009
 40
0.2968750000000009
 40
0.2968750000000009
 40
0.3125000000000009
 40
0.3125000000000009
 40
0.3437500000000012
 40
0.3437500000000012
 40
0.359375000000001
 40
0.359375000000001
 40
0.3750000000000008
 40
0.3750000000000008
 40
0.3906250000000007
 40
0.3906250000000007
 40
0.4062500000000006
 40
0.4062500000000006
 40
0.4375000000000003
 40
0.4375000000000003
 40
0.5000000000000006
 40
0.5000000000000006
 40
0.5625000000000008
 40
0.5625000000000008
 40
0.6250000000000011
 40
0.6250000000000011
 40
0.7500000000000007
 40
0.7500000000000007
 40
1.0
 40
1.0
 40
1.0
 40
1.0
 10
188.5911378201691
 20
267.613602038106
 30
0.0
 10
188.8545060452332
 20
267.6136905627422
 30
0.0
 10
189.1215187468382
 20
267.611122602761
 30
0.0
 10
189.6528180199261
 20
267.6008351999346
 30
0.0
 10
189.9184110324552
 20
267.5932034163676
 30
0.0
 10
190.7157072092136
 20
267.5614983430186
 30
0.0
 10
191.2480389300222
 20
267.5287948982401
 30
0.0
 10
192.3171908569444
 20
267.4318346463214
 30
0.0
 10
192.8537861296161
 20
267.367971679664
 30
0.0
 10
193.9347473576909
 20
267.189420693016
 30
0.0
 10
194.4792867957574
 20
267.0757483394079
 30
0.0
 10
195.2914687206287
 20
266.8355158176723
 30
0.0
 10
195.5617338828928
 20
266.74380604785
 30
0.0
 10
195.9645582752968
 20
266.5790173642122
 30
0.0
 10
196.0983722020819
 20
266.5194058159133
 30
0.0
 10
196.3645597187221
 20
266.3878862615337
 30
0.0
 10
196.4978374679382
 20
266.3153359811946
 30
0.0
 10
196.8852911649353
 20
266.0777941780012
 30
0.0
 10
197.1258341697126
 20
265.8940250072201
 30
0.0
 10
197.4458091689478
 20
265.565108871536
 30
0.0
 10
197.5444458002815
 20
265.4474041098891
 30
0.0
 10
197.7198991368032
 20
265.2045439839044
 30
0.0
 10
197.7974115722835
 20
265.0791821050054
 30
0.0
 10
197.9352147592246
 20
264.8199175487321
 30
0.0
 10
197.9951418051527
 20
264.6863388867305
 30
0.0
 10
198.0988032462558
 20
264.4204822400642
 30
0.0
 10
198.1429434506548
 20
264.2876310505144
 30
0.0
 10
198.2598124224655
 20
263.8884718945318
 30
0.0
 10
198.3173113307502
 20
263.6218040741102
 30
0.0
 10
198.4595224961297
 20
262.8226988541727
 30
0.0
 10
198.5156746109299
 20
262.2912081258854
 30
0.0
 10
198.6043561211527
 20
261.2354158401604
 30
0.0
 10
198.6355348647377
 20
260.7098365332632
 30
0.0
 10
198.6900921050239
 20
259.6613622691772
 30
0.0
 10
198.7133689592616
 20
259.1384024911936
 30
0.0
 10
198.7803575587061
 20
257.5695118970803
 30
0.0
 10
198.8204888334239
 20
256.5227924610723
 30
0.0
 10
198.9107695468004
 20
253.3852583730391
 30
0.0
 10
198.934307666115
 20
251.295620469246
 30
0.0
 10
198.9415599754351
 20
249.2069950484436
 30
0.0
  0
LWPOLYLINE
  5
14A
330
1F
100
AcDbEntity
  8
0
  6
Continuous
 62
     8
370
     0
100
AcDbPolyline
 90
        9
 70
   128
 43
0.0
 10
198.4807156535
 20
248.6918971723
 10
198.5397450507
 20
248.6832167406
 10
198.6055786941
 20
248.7003607834
 10
198.6746272645
 20
248.7423945896
 10
198.7431261618
 20
248.807026432
 10
198.8073407546
 20
248.8907325151
 10
198.8637699961
 20
248.9889490958
 10
198.9093373051
 20
249.0963213035
 10
198.9415583044
 20
249.2069950932
  0
LWPOLYLINE
  5
14B
330
1F
100
AcDbEntity
  8
0
  6
Continuous
 62
     8
370
     0
100
AcDbPolyline
 90
        9
 70
   128
 43
0.0
 10
178.7006335708
 20
248.6918971723
 10
178.6416041736
 20
248.6832167406
 10
178.5757705302
 20
248.7003607834
 10
178.5067219598
 20
248.7423945896
 10
178.4382230625
 20
248.807026432
 10
178.3740084697
 20
248.8907325151
 10
178.3175792282
 20
248.9889490958
 10
178.2720119192
 20
249.0963213035
 10
178.2397909199
 20
249.2069950932
  0
LWPOLYLINE
  5
14C
330
1F
100
AcDbEntity
  8
0
  6
Continuous
 62
     8
370
     0
100
AcDbPolyline
 90
        3
 70
   128
 43
0.0
 10
199.0782592016
 20
248.495687009
 10
198.9904004739
 20
248.5008042184
 10
198.8730071327
 20
248.5332257817
  0
ARC
  5
14D
330
1F
100
AcDbEntity
  8
0
  6
Continuous
 62
     8
370
     0
100
AcDbCircle
 10
178.1181630415
 20
248.9931560456
 30
0.0
 40
0.4976986223493021
100
AcDbArc
 50
259.241636014
 51
292.4648647663
  0
LWPOLYLINE
  5
14E
330
1F
100
AcDbEntity
  8
0
  6
Continuous
 62
     8
370
     0
100
AcDbPolyline
 90
        3
 70
   128
 43
0.0
 10
177.6489731833
 20
248.823879128
 10
177.6339094189
 20
248.8725297948
 10
177.6184040204
 20
248.9936378407
  0
SPLINE
  5
14F
330
1F
100
AcDbEntity
  8
0
  6
Continuous
 62
     8
370
     0
100
AcDbSpline
210
0.0
220
0.0
230
1.0
 70
     8
 71
     3
 72
    10
 73
     6
 74
     0
 42
0.00000001
 43
0.00000001
 12
1.0
 22
0.0
 32
0.0
 13
1.0
 23
0.0
 33
0.0
 40
0.0
 40
0.0
 40
0.0
 40
0.0
 40
0.064163279317559
 40
0.5322848488275636
 40
1.0
 40
1.0
 40
1.0
 40
1.0
 10
178.4160375137074
 20
248.5774557719986
 30
0.0
 10
178.4099883406534
 20
248.5749985613232
 30
0.0
 10
178.3598056941487
 20
248.5546140668464
 30
0.0
 10
178.3126610443388
 20
248.5349649024167
 30
0.0
 10
178.3097813255788
 20
248.5338053210081
 30
0.0
 10
178.3083420915058
 20
248.5332257820973
 30
0.0
  0
ENDSEC
  0
SECTION
  2
OBJECTS
  0
DICTIONARY
  5
C
330
0
100
AcDbDictionary
281
     1
  3
ACAD_GROUP
350
D
  3
ACAD_LAYOUT
350
1A
  3
ACAD_MATERIAL
350
3B
  3
ACAD_MLEADERSTYLE
350
151
  3
ACAD_MLINESTYLE
350
17
  3
ACAD_PLOTSETTINGS
350
19
  3
ACAD_PLOTSTYLENAME
350
E
  3
ACAD_TABLESTYLE
350
150
  3
ACAD_VISUALSTYLE
350
2A
  0
DICTIONARY
  5
D
102
{ACAD_REACTORS
330
C
102
}
330
C
100
AcDbDictionary
281
     1
  0
DICTIONARY
  5
1A
102
{ACAD_REACTORS
330
C
102
}
330
C
100
AcDbDictionary
281
     1
  3
Layout1
350
1E
  3
Layout2
350
26
  3
Model
350
22
  0
DICTIONARY
  5
3B
102
{ACAD_REACTORS
330
C
102
}
330
C
100
AcDbDictionary
281
     1
  3
ByBlock
350
3D
  3
ByLayer
350
3C
  3
Global
350
3E
  0
DICTIONARY
  5
151
102
{ACAD_REACTORS
330
C
102
}
330
C
100
AcDbDictionary
281
     1
  0
DICTIONARY
  5
17
102
{ACAD_REACTORS
330
C
102
}
330
C
100
AcDbDictionary
281
     1
  3
Standard
350
18
  0
DICTIONARY
  5
19
102
{ACAD_REACTORS
330
C
102
}
330
C
100
AcDbDictionary
281
     1
  0
ACDBDICTIONARYWDFLT
  5
E
102
{ACAD_REACTORS
330
C
102
}
330
C
100
AcDbDictionary
281
     1
  3
Normal
350
F
100
AcDbDictionaryWithDefault
340
F
  0
DICTIONARY
  5
150
102
{ACAD_REACTORS
330
C
102
}
330
C
100
AcDbDictionary
281
     1
  0
DICTIONARY
  5
2A
102
{ACAD_REACTORS
330
C
102
}
330
C
100
AcDbDictionary
281
     1
  3
2dWireframe
350
2F
  3
3D Hidden
350
31
  3
3dWireframe
350
30
  3
Basic
350
32
  3
Brighten
350
36
  3
ColorChange
350
3A
  3
Conceptual
350
34
  3
Dim
350
35
  3
Facepattern
350
39
  3
Flat
350
2B
  3
FlatWithEdges
350
2C
  3
Gouraud
350
2D
  3
GouraudWithEdges
350
2E
  3
Linepattern
350
38
  3
Realistic
350
33
  3
Thicken
350
37
  0
LAYOUT
  5
1E
102
{ACAD_REACTORS
330
1A
102
}
330
1A
100
AcDbPlotSettings
  1

  2
none_device
  4

  6

 40
0.0
 41
0.0
 42
0.0
 43
0.0
 44
0.0
 45
0.0
 46
0.0
 47
0.0
 48
0.0
 49
0.0
140
0.0
141
0.0
142
1.0
143
1.0
 70
   688
 72
     0
 73
     0
 74
     5
  7

 75
    16
 76
     0
 77
     2
 78
   300
147
1.0
148
0.0
149
0.0
100
AcDbLayout
  1
Layout1
 70
     1
 71
     1
 10
0.0
 20
0.0
 11
420.0
 21
297.0
 12
0.0
 22
0.0
 32
0.0
 14
1.0000000000E+20
 24
1.0000000000E+20
 34
1.0000000000E+20
 15
-1.0000000000E+20
 25
-1.0000000000E+20
 35
-1.0000000000E+20
146
0.0
 13
0.0
 23
0.0
 33
0.0
 16
1.0
 26
0.0
 36
0.0
 17
0.0
 27
1.0
 37
0.0
 76
     0
330
1B
  0
LAYOUT
  5
26
102
{ACAD_REACTORS
330
1A
102
}
330
1A
100
AcDbPlotSettings
  1

  2
none_device
  4

  6

 40
0.0
 41
0.0
 42
0.0
 43
0.0
 44
0.0
 45
0.0
 46
0.0
 47
0.0
 48
0.0
 49
0.0
140
0.0
141
0.0
142
1.0
143
1.0
 70
   688
 72
     0
 73
     0
 74
     5
  7

 75
    16
 76
     0
 77
     2
 78
   300
147
1.0
148
0.0
149
0.0
100
AcDbLayout
  1
Layout2
 70
     1
 71
     2
 10
0.0
 20
0.0
 11
0.0
 21
0.0
 12
0.0
 22
0.0
 32
0.0
 14
0.0
 24
0.0
 34
0.0
 15
0.0
 25
0.0
 35
0.0
146
0.0
 13
0.0
 23
0.0
 33
0.0
 16
1.0
 26
0.0
 36
0.0
 17
0.0
 27
1.0
 37
0.0
 76
     0
330
23
  0
LAYOUT
  5
22
102
{ACAD_REACTORS
330
1A
102
}
330
1A
100
AcDbPlotSettings
  1

  2
none_device
  4

  6

 40
0.0
 41
0.0
 42
0.0
 43
0.0
 44
0.0
 45
0.0
 46
0.0
 47
0.0
 48
0.0
 49
0.0
140
0.0
141
0.0
142
1.0
143
1.0
 70
  1712
 72
     0
 73
     0
 74
     0
  7

 75
     0
 76
     0
 77
     2
 78
   300
147
1.0
148
0.0
149
0.0
100
AcDbLayout
  1
Model
 70
     1
 71
     0
 10
0.0
 20
0.0
 11
594.0
 21
841.0
 12
0.0
 22
0.0
 32
0.0
 14
0.0
 24
0.0
 34
0.0
 15
594.0
 25
841.0
 35
0.0
146
0.0
 13
0.0
 23
0.0
 33
0.0
 16
1.0
 26
0.0
 36
0.0
 17
0.0
 27
1.0
 37
0.0
 76
     0
330
1F
331
29
  0
MATERIAL
  5
3D
102
{ACAD_REACTORS
330
3B
102
}
330
3B
100
AcDbMaterial
  1
ByBlock
 72
     1
 94
      127
  0
MATERIAL
  5
3C
102
{ACAD_REACTORS
330
3B
102
}
330
3B
100
AcDbMaterial
  1
ByLayer
 72
     1
 94
      127
  0
MATERIAL
  5
3E
102
{ACAD_REACTORS
330
3B
102
}
330
3B
100
AcDbMaterial
  1
Global
 72
     1
 94
      127
  0
MLINESTYLE
  5
18
102
{ACAD_REACTORS
330
17
102
}
330
17
100
AcDbMlineStyle
  2
Standard
 70
     0
  3

 62
   256
 51
90.0
 52
90.0
 71
     2
 49
0.5
 62
   256
  6
BYLAYER
 49
-0.5
 62
   256
  6
BYLAYER
  0
ACDBPLACEHOLDER
  5
F
102
{ACAD_REACTORS
330
E
102
}
330
E
  0
VISUALSTYLE
  5
2F
102
{ACAD_REACTORS
330
2A
102
}
330
2A
100
AcDbVisualStyle
  2
2dWireframe
 70
     4
177
     2
291
     0
 71
     0
176
     1
 72
     2
176
     1
 73
     0
176
     1
 90
        0
176
     1
 40
-0.6
176
     1
 41
-30.0
176
     1
 62
     5
 63
     7
421
 16777215
176
     1
 74
     1
176
     1
 91
        4
176
     1
 64
     7
176
     1
 65
   257
176
     1
 75
     1
176
     1
175
     1
176
     1
 42
1.0
176
     1
 92
        0
176
     1
 66
   257
176
     1
 43
1.0
176
     1
 76
     1
176
     1
 77
     6
176
     1
 78
     2
176
     1
 67
     7
176
     1
 79
     5
176
     1
170
     0
176
     1
171
     0
176
     1
290
     0
176
     1
 93
        1
176
     1
 44
0.0
176
     1
173
     0
176
     1
  0
VISUALSTYLE
  5
31
102
{ACAD_REACTORS
330
2A
102
}
330
2A
100
AcDbVisualStyle
  2
3D Hidden
 70
     6
177
     2
291
     0
 71
     1
176
     1
 72
     2
176
     1
 73
     2
176
     1
 90
        0
176
     1
 40
-0.6
176
     1
 41
-30.0
176
     1
 62
     5
 63
     7
421
 16777215
176
     1
 74
     2
176
     1
 91
        2
176
     1
 64
     7
176
     1
 65
   257
176
     1
 75
     2
176
     1
175
     1
176
     1
 42
40.0
176
     1
 92
        0
176
     1
 66
   257
176
     1
 43
1.0
176
     1
 76
     1
176
     1
 77
     6
176
     1
 78
     2
176
     1
 67
     7
176
     1
 79
     3
176
     1
170
     0
176
     1
171
     0
176
     1
290
     0
176
     1
 93
        1
176
     1
 44
0.0
176
     1
173
     0
176
     1
  0
VISUALSTYLE
  5
30
102
{ACAD_REACTORS
330
2A
102
}
330
2A
100
AcDbVisualStyle
  2
3dWireframe
 70
     5
177
     2
291
     0
 71
     0
176
     1
 72
     2
176
     1
 73
     0
176
     1
 90
        0
176
     1
 40
-0.6
176
     1
 41
-30.0
176
     1
 62
     5
 63
     7
421
 16777215
176
     1
 74
     1
176
     1
 91
        4
176
     1
 64
     7
176
     1
 65
   257
176
     1
 75
     1
176
     1
175
     1
176
     1
 42
1.0
176
     1
 92
        0
176
     1
 66
   257
176
     1
 43
1.0
176
     1
 76
     1
176
     1
 77
     6
176
     1
 78
     2
176
     1
 67
     7
176
     1
 79
     5
176
     1
170
     0
176
     1
171
     0
176
     1
290
     0
176
     1
 93
        1
176
     1
 44
0.0
176
     1
173
     0
176
     1
  0
VISUALSTYLE
  5
32
102
{ACAD_REACTORS
330
2A
102
}
330
2A
100
AcDbVisualStyle
  2
Basic
 70
     7
177
     2
291
     1
 71
     1
176
     1
 72
     0
176
     1
 73
     1
176
     1
 90
        0
176
     1
 40
-0.6
176
     1
 41
-30.0
176
     1
 62
     5
 63
     7
421
 16777215
176
     1
 74
     0
176
     1
 91
        4
176
     1
 64
     7
176
     1
 65
   257
176
     1
 75
     1
176
     1
175
     1
176
     1
 42
1.0
176
     1
 92
        8
176
     1
 66
     7
176
     1
 43
1.0
176
     1
 76
     1
176
     1
 77
     6
176
     1
 78
     2
176
     1
 67
     7
176
     1
 79
     5
176
     1
170
     0
176
     1
171
     0
176
     1
290
     0
176
     1
 93
        1
176
     1
 44
0.0
176
     1
173
     0
176
     1
  0
VISUALSTYLE
  5
36
102
{ACAD_REACTORS
330
2A
102
}
330
2A
100
AcDbVisualStyle
  2
Brighten
 70
    12
177
     2
291
     1
 71
     2
176
     1
 72
     2
176
     1
 73
     0
176
     1
 90
        0
176
     1
 40
-0.6
176
     1
 41
-30.0
176
     1
 62
     5
 63
     7
421
 16777215
176
     1
 74
     1
176
     1
 91
        4
176
     1
 64
     7
176
     1
 65
   257
176
     1
 75
     1
176
     1
175
     1
176
     1
 42
1.0
176
     1
 92
        8
176
     1
 66
     7
176
     1
 43
1.0
176
     1
 76
     1
176
     1
 77
     6
176
     1
 78
     2
176
     1
 67
     7
176
     1
 79
     5
176
     1
170
     0
176
     1
171
     0
176
     1
290
     0
176
     1
 93
        1
176
     1
 44
50.0
176
     1
173
     0
176
     1
  0
VISUALSTYLE
  5
3A
102
{ACAD_REACTORS
330
2A
102
}
330
2A
100
AcDbVisualStyle
  2
ColorChange
 70
    16
177
     2
291
     1
 71
     2
176
     1
 72
     2
176
     1
 73
     3
176
     1
 90
        0
176
     1
 40
-0.6
176
     1
 41
-30.0
176
     1
 62
     5
 63
     8
421
  8421504
176
     1
 74
     1
176
     1
 91
        4
176
     1
 64
     7
176
     1
 65
   257
176
     1
 75
     1
176
     1
175
     1
176
     1
 42
1.0
176
     1
 92
        8
176
     1
 66
     8
424
  8421504
176
     1
 43
1.0
176
     1
 76
     1
176
     1
 77
     6
176
     1
 78
     2
176
     1
 67
     7
176
     1
 79
     5
176
     1
170
     0
176
     1
171
     0
176
     1
290
     0
176
     1
 93
        1
176
     1
 44
0.0
176
     1
173
     0
176
     1
  0
VISUALSTYLE
  5
34
102
{ACAD_REACTORS
330
2A
102
}
330
2A
100
AcDbVisualStyle
  2
Conceptual
 70
     9
177
     2
291
     0
 71
     3
176
     1
 72
     2
176
     1
 73
     0
176
     1
 90
        0
176
     1
 40
-0.6
176
     1
 41
-30.0
176
     1
 62
     5
 63
     7
421
 16777215
176
     1
 74
     2
176
     1
 91
        2
176
     1
 64
     7
176
     1
 65
   257
176
     1
 75
     1
176
     1
175
     1
176
     1
 42
40.0
176
     1
 92
        8
176
     1
 66
     7
176
     1
 43
1.0
176
     1
 76
     1
176
     1
 77
     6
176
     1
 78
     2
176
     1
 67
     7
176
     1
 79
     3
176
     1
170
     0
176
     1
171
     0
176
     1
290
     0
176
     1
 93
        1
176
     1
 44
0.0
176
     1
173
     0
176
     1
  0
VISUALSTYLE
  5
35
102
{ACAD_REACTORS
330
2A
102
}
330
2A
100
AcDbVisualStyle
  2
Dim
 70
    11
177
     2
291
     1
 71
     2
176
     1
 72
     2
176
     1
 73
     0
176
     1
 90
        0
176
     1
 40
-0.6
176
     1
 41
-30.0
176
     1
 62
     5
 63
     7
421
 16777215
176
     1
 74
     1
176
     1
 91
        4
176
     1
 64
     7
176
     1
 65
   257
176
     1
 75
     1
176
     1
175
     1
176
     1
 42
1.0
176
     1
 92
        8
176
     1
 66
     7
176
     1
 43
1.0
176
     1
 76
     1
176
     1
 77
     6
176
     1
 78
     2
176
     1
 67
     7
176
     1
 79
     5
176
     1
170
     0
176
     1
171
     0
176
     1
290
     0
176
     1
 93
        1
176
     1
 44
-50.0
176
     1
173
     0
176
     1
  0
VISUALSTYLE
  5
39
102
{ACAD_REACTORS
330
2A
102
}
330
2A
100
AcDbVisualStyle
  2
Facepattern
 70
    15
177
     2
291
     1
 71
     2
176
     1
 72
     2
176
     1
 73
     0
176
     1
 90
        0
176
     1
 40
-0.6
176
     1
 41
-30.0
176
     1
 62
     5
 63
     7
421
 16777215
176
     1
 74
     1
176
     1
 91
        4
176
     1
 64
     7
176
     1
 65
   257
176
     1
 75
     1
176
     1
175
     1
176
     1
 42
1.0
176
     1
 92
        8
176
     1
 66
     7
176
     1
 43
1.0
176
     1
 76
     1
176
     1
 77
     6
176
     1
 78
     2
176
     1
 67
     7
176
     1
 79
     5
176
     1
170
     0
176
     1
171
     0
176
     1
290
     0
176
     1
 93
        1
176
     1
 44
0.0
176
     1
173
     0
176
     1
  0
VISUALSTYLE
  5
2B
102
{ACAD_REACTORS
330
2A
102
}
330
2A
100
AcDbVisualStyle
  2
Flat
 70
     0
177
     2
291
     1
 71
     2
176
     1
 72
     1
176
     1
 73
     1
176
     1
 90
        2
176
     1
 40
-0.6
176
     1
 41
30.0
176
     1
 62
     5
 63
     7
421
 16777215
176
     1
 74
     0
176
     1
 91
        4
176
     1
 64
     7
176
     1
 65
   257
176
     1
 75
     1
176
     1
175
     1
176
     1
 42
1.0
176
     1
 92
        8
176
     1
 66
     7
176
     1
 43
1.0
176
     1
 76
     1
176
     1
 77
     6
176
     1
 78
     2
176
     1
 67
     7
176
     1
 79
     5
176
     1
170
     0
176
     1
171
     0
176
     1
290
     0
176
     1
 93
       13
176
     1
 44
0.0
176
     1
173
     0
176
     1
  0
VISUALSTYLE
  5
2C
102
{ACAD_REACTORS
330
2A
102
}
330
2A
100
AcDbVisualStyle
  2
FlatWithEdges
 70
     1
177
     2
291
     1
 71
     2
176
     1
 72
     1
176
     1
 73
     1
176
     1
 90
        2
176
     1
 40
-0.6
176
     1
 41
30.0
176
     1
 62
     5
 63
     7
421
 16777215
176
     1
 74
     1
176
     1
 91
        4
176
     1
 64
     7
176
     1
 65
   257
176
     1
 75
     1
176
     1
175
     1
176
     1
 42
1.0
176
     1
 92
        0
176
     1
 66
   257
176
     1
 43
1.0
176
     1
 76
     1
176
     1
 77
     6
176
     1
 78
     2
176
     1
 67
     7
176
     1
 79
     5
176
     1
170
     0
176
     1
171
     0
176
     1
290
     0
176
     1
 93
       13
176
     1
 44
0.0
176
     1
173
     0
176
     1
  0
VISUALSTYLE
  5
2D
102
{ACAD_REACTORS
330
2A
102
}
330
2A
100
AcDbVisualStyle
  2
Gouraud
 70
     2
177
     2
291
     1
 71
     2
176
     1
 72
     2
176
     1
 73
     1
176
     1
 90
        2
176
     1
 40
-0.6
176
     1
 41
30.0
176
     1
 62
     5
 63
     7
421
 16777215
176
     1
 74
     0
176
     1
 91
        4
176
     1
 64
     7
176
     1
 65
   257
176
     1
 75
     1
176
     1
175
     1
176
     1
 42
1.0
176
     1
 92
        0
176
     1
 66
     7
176
     1
 43
1.0
176
     1
 76
     1
176
     1
 77
     6
176
     1
 78
     2
176
     1
 67
     7
176
     1
 79
     5
176
     1
170
     0
176
     1
171
     0
176
     1
290
     0
176
     1
 93
       13
176
     1
 44
0.0
176
     1
173
     0
176
     1
  0
VISUALSTYLE
  5
2E
102
{ACAD_REACTORS
330
2A
102
}
330
2A
100
AcDbVisualStyle
  2
GouraudWithEdges
 70
     3
177
     2
291
     1
 71
     2
176
     1
 72
     2
176
     1
 73
     1
176
     1
 90
        2
176
     1
 40
-0.6
176
     1
 41
30.0
176
     1
 62
     5
 63
     7
421
 16777215
176
     1
 74
     1
176
     1
 91
        4
176
     1
 64
     7
176
     1
 65
   257
176
     1
 75
     1
176
     1
175
     1
176
     1
 42
1.0
176
     1
 92
        0
176
     1
 66
   257
176
     1
 43
1.0
176
     1
 76
     1
176
     1
 77
     6
176
     1
 78
     2
176
     1
 67
     7
176
     1
 79
     5
176
     1
170
     0
176
     1
171
     0
176
     1
290
     0
176
     1
 93
       13
176
     1
 44
0.0
176
     1
173
     0
176
     1
  0
VISUALSTYLE
  5
38
102
{ACAD_REACTORS
330
2A
102
}
330
2A
100
AcDbVisualStyle
  2
Linepattern
 70
    14
177
     2
291
     1
 71
     2
176
     1
 72
     2
176
     1
 73
     0
176
     1
 90
        0
176
     1
 40
-0.6
176
     1
 41
-30.0
176
     1
 62
     5
 63
     7
421
 16777215
176
     1
 74
     1
176
     1
 91
        4
176
     1
 64
     7
176
     1
 65
   257
176
     1
 75
     7
176
     1
175
     7
176
     1
 42
1.0
176
     1
 92
        8
176
     1
 66
     7
176
     1
 43
1.0
176
     1
 76
     1
176
     1
 77
     6
176
     1
 78
     2
176
     1
 67
     7
176
     1
 79
     5
176
     1
170
     0
176
     1
171
     0
176
     1
290
     0
176
     1
 93
        1
176
     1
 44
0.0
176
     1
173
     0
176
     1
  0
VISUALSTYLE
  5
33
102
{ACAD_REACTORS
330
2A
102
}
330
2A
100
AcDbVisualStyle
  2
Realistic
 70
     8
177
     2
291
     0
 71
     2
176
     1
 72
     2
176
     1
 73
     0
176
     1
 90
        0
176
     1
 40
-0.6
176
     1
 41
-30.0
176
     1
 62
     5
 63
     7
421
 16777215
176
     1
 74
     1
176
     1
 91
        0
176
     1
 64
     7
176
     1
 65
   257
176
     1
 75
     1
176
     1
175
     1
176
     1
 42
1.0
176
     1
 92
        8
176
     1
 66
     8
424
  7895160
176
     1
 43
1.0
176
     1
 76
     1
176
     1
 77
     6
176
     1
 78
     2
176
     1
 67
     7
176
     1
 79
     5
176
     1
170
     0
176
     1
171
     0
176
     1
290
     0
176
     1
 93
       13
176
     1
 44
0.0
176
     1
173
     0
176
     1
  0
VISUALSTYLE
  5
37
102
{ACAD_REACTORS
330
2A
102
}
330
2A
100
AcDbVisualStyle
  2
Thicken
 70
    13
177
     2
291
     1
 71
     2
176
     1
 72
     2
176
     1
 73
     0
176
     1
 90
        0
176
     1
 40
-0.6
176
     1
 41
-30.0
176
     1
 62
     5
 63
     7
421
 16777215
176
     1
 74
     1
176
     1
 91
        4
176
     1
 64
     7
176
     1
 65
   257
176
     1
 75
     1
176
     1
175
     1
176
     1
 42
1.0
176
     1
 92
       12
176
     1
 66
     7
176
     1
 43
1.0
176
     1
 76
     1
176
     1
 77
     6
176
     1
 78
     2
176
     1
 67
     7
176
     1
 79
     5
176
     1
170
     0
176
     1
171
     0
176
     1
290
     0
176
     1
 93
        1
176
     1
 44
0.0
176
     1
173
     0
176
     1
  0
ENDSEC
  0
EOF
