  0
SECTION
  2
HEADER
  9
$ACADVER
  1
AC1024
  9
$ACADMAINTVER
 70
     6
  9
$DWGCODEPAGE
  3
ANSI_1252
  9
$INSBASE
 10
0.0
 20
0.0
 30
0.0
  9
$EXTMIN
 10
0.0
 20
0.0
 30
0.0
  9
$EXTMAX
 10
594.0
 20
841.0
 30
0.0
  9
$LIMMIN
 10
0.0
 20
0.0
  9
$LIMMAX
 10
594.0
 20
841.0
  9
$ORTHOMODE
 70
     0
  9
$REGENMODE
 70
     1
  9
$FILLMODE
 70
     1
  9
$QTEXTMODE
 70
     0
  9
$MIRRTEXT
 70
     1
  9
$LTSCALE
 40
1.0
  9
$ATTMODE
 70
     1
  9
$TEXTSIZE
 40
10.0
  9
$TRACEWID
 40
1.0
  9
$TEXTSTYLE
  7
Standard
  9
$CLAYER
  8
0
  9
$CELTYPE
  6
ByLayer
  9
$CECOLOR
 62
   256
  9
$CELTSCALE
 40
1.0
  9
$DISPSILH
 70
     0
  9
$DIMSCALE
 40
1.0
  9
$DIMASZ
 40
2.5
  9
$DIMEXO
 40
0.0
  9
$DIMDLI
 40
3.75
  9
$DIMRND
 40
0.0
  9
$DIMDLE
 40
0.0
  9
$DIMEXE
 40
1.0
  9
$DIMTP
 40
0.0
  9
$DIMTM
 40
0.0
  9
$DIMTXT
 40
3.5
  9
$DIMCEN
 40
2.5
  9
$DIMTSZ
 40
0.0
  9
$DIMTOL
 70
     0
  9
$DIMLIM
 70
     0
  9
$DIMTIH
 70
     1
  9
$DIMTOH
 70
     1
  9
$DIMSE1
 70
     0
  9
$DIMSE2
 70
     0
  9
$DIMTAD
 70
     1
  9
$DIMZIN
 70
     0
  9
$DIMBLK
  1

  9
$DIMASO
 70
     1
  9
$DIMSHO
 70
     1
  9
$DIMPOST
  1

  9
$DIMAPOST
  1

  9
$DIMALT
 70
     0
  9
$DIMALTD
 70
     3
  9
$DIMALTF
 40
0.0393700787
  9
$DIMLFAC
 40
1.0
  9
$DIMTOFL
 70
     1
  9
$DIMTVP
 40
0.0
  9
$DIMTIX
 70
     0
  9
$DIMSOXD
 70
     0
  9
$DIMSAH
 70
     0
  9
$DIMBLK1
  1

  9
$DIMBLK2
  1

  9
$DIMSTYLE
  2
ISO-25
  9
$DIMCLRD
 70
     0
  9
$DIMCLRE
 70
     0
  9
$DIMCLRT
 70
     0
  9
$DIMTFAC
 40
1.0
  9
$DIMGAP
 40
1.5
  9
$DIMJUST
 70
     0
  9
$DIMSD1
 70
     0
  9
$DIMSD2
 70
     0
  9
$DIMTOLJ
 70
     0
  9
$DIMTZIN
 70
     0
  9
$DIMALTZ
 70
     0
  9
$DIMALTTZ
 70
     0
  9
$DIMUPT
 70
     0
  9
$DIMDEC
 70
     2
  9
$DIMTDEC
 70
     2
  9
$DIMALTU
 70
     2
  9
$DIMALTTD
 70
     3
  9
$DIMTXSTY
  7
Standard
  9
$DIMAUNIT
 70
     0
  9
$DIMADEC
 70
     2
  9
$DIMALTRND
 40
0.0
  9
$DIMAZIN
 70
     0
  9
$DIMDSEP
 70
    44
  9
$DIMATFIT
 70
     3
  9
$DIMFRAC
 70
     0
  9
$DIMLDRBLK
  1

  9
$DIMLUNIT
 70
     2
  9
$DIMLWD
 70
    -2
  9
$DIMLWE
 70
    -2
  9
$DIMTMOVE
 70
     0
  9
$DIMFXL
 40
1.0
  9
$DIMFXLON
 70
     0
  9
$DIMJOGANG
 40
0.7853981634
  9
$DIMTFILL
 70
     0
  9
$DIMTFILLCLR
 70
     0
  9
$DIMARCSYM
 70
     0
  9
$DIMLTYPE
  6

  9
$DIMLTEX1
  6

  9
$DIMLTEX2
  6

  9
$DIMTXTDIRECTION
 70
     0
  9
$LUNITS
 70
     2
  9
$LUPREC
 70
     2
  9
$SKETCHINC
 40
1.0
  9
$FILLETRAD
 40
10.0
  9
$AUNITS
 70
     0
  9
$AUPREC
 70
     2
  9
$MENU
  1
.
  9
$ELEVATION
 40
0.0
  9
$PELEVATION
 40
0.0
  9
$THICKNESS
 40
0.0
  9
$LIMCHECK
 70
     0
  9
$CHAMFERA
 40
10.0
  9
$CHAMFERB
 40
10.0
  9
$CHAMFERC
 40
20.0
  9
$CHAMFERD
 40
0.0
  9
$SKPOLY
 70
     0
  9
$TDCREATE
 40
2456211.543910185
  9
$TDUCREATE
 40
2456211.460576852
  9
$TDUPDATE
 40
2456211.543910197
  9
$TDUUPDATE
 40
2456211.460576863
  9
$TDINDWG
 40
0.0000000116
  9
$TDUSRTIMER
 40
0.0000000116
  9
$USRTIMER
 70
     1
  9
$ANGBASE
 50
0.0
  9
$ANGDIR
 70
     0
  9
$PDMODE
 70
     0
  9
$PDSIZE
 40
-1.0
  9
$PLINEWID
 40
0.0
  9
$SPLFRAME
 70
     0
  9
$SPLINETYPE
 70
     6
  9
$SPLINESEGS
 70
     8
  9
$HANDSEED
  5
ED
  9
$SURFTAB1
 70
     6
  9
$SURFTAB2
 70
     6
  9
$SURFTYPE
 70
     6
  9
$SURFU
 70
     6
  9
$SURFV
 70
     6
  9
$UCSBASE
  2

  9
$UCSNAME
  2

  9
$UCSORG
 10
0.0
 20
0.0
 30
0.0
  9
$UCSXDIR
 10
1.0
 20
0.0
 30
0.0
  9
$UCSYDIR
 10
0.0
 20
1.0
 30
0.0
  9
$UCSORTHOREF
  2

  9
$UCSORTHOVIEW
 70
     0
  9
$UCSORGTOP
 10
0.0
 20
0.0
 30
0.0
  9
$UCSORGBOTTOM
 10
0.0
 20
0.0
 30
0.0
  9
$UCSORGLEFT
 10
0.0
 20
0.0
 30
0.0
  9
$UCSORGRIGHT
 10
0.0
 20
0.0
 30
0.0
  9
$UCSORGFRONT
 10
0.0
 20
0.0
 30
0.0
  9
$UCSORGBACK
 10
0.0
 20
0.0
 30
0.0
  9
$PUCSBASE
  2

  9
$PUCSNAME
  2

  9
$PUCSORG
 10
0.0
 20
0.0
 30
0.0
  9
$PUCSXDIR
 10
1.0
 20
0.0
 30
0.0
  9
$PUCSYDIR
 10
0.0
 20
1.0
 30
0.0
  9
$PUCSORTHOREF
  2

  9
$PUCSORTHOVIEW
 70
     0
  9
$PUCSORGTOP
 10
0.0
 20
0.0
 30
0.0
  9
$PUCSORGBOTTOM
 10
0.0
 20
0.0
 30
0.0
  9
$PUCSORGLEFT
 10
0.0
 20
0.0
 30
0.0
  9
$PUCSORGRIGHT
 10
0.0
 20
0.0
 30
0.0
  9
$PUCSORGFRONT
 10
0.0
 20
0.0
 30
0.0
  9
$PUCSORGBACK
 10
0.0
 20
0.0
 30
0.0
  9
$USERI1
 70
     0
  9
$USERI2
 70
     0
  9
$USERI3
 70
     0
  9
$USERI4
 70
     0
  9
$USERI5
 70
     0
  9
$USERR1
 40
0.0
  9
$USERR2
 40
0.0
  9
$USERR3
 40
0.0
  9
$USERR4
 40
0.0
  9
$USERR5
 40
0.0
  9
$WORLDVIEW
 70
     1
  9
$SHADEDGE
 70
     3
  9
$SHADEDIF
 70
    70
  9
$TILEMODE
 70
     1
  9
$MAXACTVP
 70
    64
  9
$PINSBASE
 10
0.0
 20
0.0
 30
0.0
  9
$PLIMCHECK
 70
     0
  9
$PEXTMIN
 10
1.0000000000E+20
 20
1.0000000000E+20
 30
1.0000000000E+20
  9
$PEXTMAX
 10
-1.0000000000E+20
 20
-1.0000000000E+20
 30
-1.0000000000E+20
  9
$PLIMMIN
 10
0.0
 20
0.0
  9
$PLIMMAX
 10
420.0
 20
297.0
  9
$UNITMODE
 70
     0
  9
$VISRETAIN
 70
     1
  9
$PLINEGEN
 70
     0
  9
$PSLTSCALE
 70
     1
  9
$TREEDEPTH
 70
  3020
  9
$CMLSTYLE
  2
Standard
  9
$CMLJUST
 70
     0
  9
$CMLSCALE
 40
20.0
  9
$PROXYGRAPHICS
 70
     1
  9
$MEASUREMENT
 70
     1
  9
$CELWEIGHT
370
    -1
  9
$ENDCAPS
280
     0
  9
$JOINSTYLE
280
     0
  9
$LWDISPLAY
290
     1
  9
$INSUNITS
 70
     4
  9
$HYPERLINKBASE
  1

  9
$STYLESHEET
  1

  9
$XEDIT
290
     1
  9
$CEPSNTYPE
380
     0
  9
$PSTYLEMODE
290
     1
  9
$FINGERPRINTGUID
  2
{F8CDF6A4-C24F-4959-A834-E2D9D4ACC8DA}
  9
$VERSIONGUID
  2
{FAEB1C32-E019-11D5-929B-00C0DF256EC4}
  9
$EXTNAMES
290
     1
  9
$PSVPSCALE
 40
0.0
  9
$OLESTARTUP
290
     0
  9
$SORTENTS
280
   127
  9
$INDEXCTL
280
     0
  9
$HIDETEXT
280
     1
  9
$XCLIPFRAME
280
     2
  9
$HALOGAP
280
     0
  9
$OBSCOLOR
 70
   257
  9
$OBSLTYPE
280
     0
  9
$INTERSECTIONDISPLAY
280
     0
  9
$INTERSECTIONCOLOR
 70
   257
  9
$DIMASSOC
280
     2
  9
$PROJECTNAME
  1

  9
$CAMERADISPLAY
290
     0
  9
$LENSLENGTH
 40
50.0
  9
$CAMERAHEIGHT
 40
0.0
  9
$STEPSPERSEC
 40
2.0
  9
$STEPSIZE
 40
6.0
  9
$3DDWFPREC
 40
2.0
  9
$PSOLWIDTH
 40
5.0
  9
$PSOLHEIGHT
 40
80.0
  9
$LOFTANG1
 40
1.5707963268
  9
$LOFTANG2
 40
1.5707963268
  9
$LOFTMAG1
 40
0.0
  9
$LOFTMAG2
 40
0.0
  9
$LOFTPARAM
 70
     7
  9
$LOFTNORMALS
280
     1
  9
$LATITUDE
 40
37.795
  9
$LONGITUDE
 40
-122.394
  9
$NORTHDIRECTION
 40
0.0
  9
$TIMEZONE
 70
 -8000
  9
$LIGHTGLYPHDISPLAY
280
     1
  9
$TILEMODELIGHTSYNCH
280
     1
  9
$SOLIDHIST
280
     1
  9
$SHOWHIST
280
     1
  9
$DWFFRAME
280
     2
  9
$DGNFRAME
280
     2
  9
$REALWORLDSCALE
290
     1
  9
$INTERFERECOLOR
 62
   256
  9
$CSHADOW
280
     0
  9
$SHADOWPLANELOCATION
 40
0.0
  0
ENDSEC
  0
SECTION
  2
CLASSES
  0
CLASS
  1
ACDBDICTIONARYWDFLT
  2
AcDbDictionaryWithDefault
  3
ObjectDBX Classes
 90
        0
 91
        4
280
     0
281
     0
  0
CLASS
  1
VISUALSTYLE
  2
AcDbVisualStyle
  3
ObjectDBX Classes
 90
     4095
 91
        4
280
     0
281
     0
  0
CLASS
  1
MATERIAL
  2
AcDbMaterial
  3
ObjectDBX Classes
 90
     1153
 91
        4
280
     0
281
     0
  0
ENDSEC
  0
SECTION
  2
TABLES
  0
TABLE
  2
VPORT
  5
8
330
0
100
AcDbSymbolTable
 70
     1
  0
VPORT
  5
29
330
8
100
AcDbSymbolTableRecord
100
AcDbViewportTableRecord
  2
*Active
 70
     0
 10
0.0
 20
0.0
 11
1.0
 21
1.0
 12
297.0
 22
420.5
 13
0.0
 23
0.0
 14
10.0
 24
10.0
 15
10.0
 25
10.0
 16
0.0
 26
0.0
 36
1.0
 17
0.0
 27
0.0
 37
0.0
 40
841.0
 41
0.7063020214
 42
50.0
 43
0.0
 44
0.0
 50
0.0
 51
0.0
 71
     0
 72
  2000
 73
     1
 74
     3
 75
     0
 76
     0
 77
     0
 78
     0
281
     0
 65
     1
110
0.0
120
0.0
130
0.0
111
1.0
121
0.0
131
0.0
112
0.0
122
1.0
132
0.0
 79
     0
146
0.0
 60
     3
 61
     5
292
     1
282
     1
141
0.0
142
0.0
 63
   250
  0
ENDTAB
  0
TABLE
  2
LTYPE
  5
5
330
0
100
AcDbSymbolTable
 70
     6
  0
LTYPE
  5
14
330
5
100
AcDbSymbolTableRecord
100
AcDbLinetypeTableRecord
  2
ByBlock
 70
     0
  3

 72
    65
 73
     0
 40
0.0
  0
LTYPE
  5
15
330
5
100
AcDbSymbolTableRecord
100
AcDbLinetypeTableRecord
  2
ByLayer
 70
     0
  3

 72
    65
 73
     0
 40
0.0
  0
LTYPE
  5
16
330
5
100
AcDbSymbolTableRecord
100
AcDbLinetypeTableRecord
  2
Continuous
 70
     0
  3
Solid line
 72
    65
 73
     0
 40
0.0
  0
LTYPE
  5
3F
330
5
100
AcDbSymbolTableRecord
100
AcDbLinetypeTableRecord
  2
HIDDEN
 70
     0
  3
Hidden __ __ __ __ __ __ __ __ __ __ __ __ __ __
 72
    65
 73
     2
 40
1.905
 49
1.27
 74
     0
 49
-0.635
 74
     0
  0
LTYPE
  5
40
330
5
100
AcDbSymbolTableRecord
100
AcDbLinetypeTableRecord
  2
PHANTOM
 70
     0
  3
Phantom ______  __  __  ______  __  __  ______
 72
    65
 73
     6
 40
12.7
 49
6.35
 74
     0
 49
-1.27
 74
     0
 49
1.27
 74
     0
 49
-1.27
 74
     0
 49
1.27
 74
     0
 49
-1.27
 74
     0
  0
LTYPE
  5
41
330
5
100
AcDbSymbolTableRecord
100
AcDbLinetypeTableRecord
  2
CENTER
 70
     0
  3
Center ____ _ ____ _ ____ _ ____ _ ____ _ ____
 72
    65
 73
     4
 40
10.16
 49
6.35
 74
     0
 49
-1.27
 74
     0
 49
1.27
 74
     0
 49
-1.27
 74
     0
  0
LTYPE
  5
42
330
5
100
AcDbSymbolTableRecord
100
AcDbLinetypeTableRecord
  2
CENTERX2
 70
     0
  3
Center (2x) ________  __  ________  __  _____
 72
    65
 73
     4
 40
20.32
 49
12.7
 74
     0
 49
-2.54
 74
     0
 49
2.54
 74
     0
 49
-2.54
 74
     0
  0
LTYPE
  5
43
330
5
100
AcDbSymbolTableRecord
100
AcDbLinetypeTableRecord
  2
DOT2
 70
     0
  3
Dot (.5x) ........................................
 72
    65
 73
     2
 40
0.635
 49
0.0
 74
     0
 49
-0.635
 74
     0
  0
ENDTAB
  0
TABLE
  2
LAYER
  5
2
330
0
100
AcDbSymbolTable
 70
     1
  0
LAYER
  5
10
330
2
100
AcDbSymbolTableRecord
100
AcDbLayerTableRecord
  2
0
 70
     0
 62
     7
  6
Continuous
370
    -3
390
F
347
3E
  0
ENDTAB
  0
TABLE
  2
STYLE
  5
3
330
0
100
AcDbSymbolTable
 70
     3
  0
STYLE
  5
11
330
3
100
AcDbSymbolTableRecord
100
AcDbTextStyleTableRecord
  2
Standard
 70
     0
 40
0.0
 41
1.0
 50
0.0
 71
     0
 42
2.5
  3
txt
  4

  0
STYLE
  5
47
330
3
100
AcDbSymbolTableRecord
100
AcDbTextStyleTableRecord
  2
SLDTEXTSTYLE0
 70
     0
 40
0.0
 41
0.96
 50
0.0
 71
     0
 42
0.2
  3
ISOCP3
  4

  0
STYLE
  5
5E
330
3
100
AcDbSymbolTableRecord
100
AcDbTextStyleTableRecord
  2
SLDTEXTSTYLE1
 70
     0
 40
0.0
 41
0.605
 50
0.0
 71
     0
 42
0.2
  3
TXT
  4

  0
ENDTAB
  0
TABLE
  2
VIEW
  5
6
330
0
100
AcDbSymbolTable
 70
     0
  0
ENDTAB
  0
TABLE
  2
UCS
  5
7
330
0
100
AcDbSymbolTable
 70
     0
  0
ENDTAB
  0
TABLE
  2
APPID
  5
9
330
0
100
AcDbSymbolTable
 70
     1
  0
APPID
  5
12
330
9
100
AcDbSymbolTableRecord
100
AcDbRegAppTableRecord
  2
ACAD
 70
     0
  0
ENDTAB
  0
TABLE
  2
DIMSTYLE
  5
A
330
0
100
AcDbSymbolTable
 70
     2
100
AcDbDimStyleTable
  0
DIMSTYLE
105
27
330
A
100
AcDbSymbolTableRecord
100
AcDbDimStyleTableRecord
  2
ISO-25
 70
     0
 41
2.5
 42
0.625
 43
3.75
 44
1.25
 73
     0
 74
     0
 77
     1
 78
     8
140
2.5
141
2.5
143
0.0393700787
147
0.625
171
     3
172
     1
178
     0
271
     2
272
     2
274
     3
278
    44
283
     0
284
     8
340
11
  0
DIMSTYLE
105
48
102
{ACAD_REACTORS
330
46
330
53
102
}
330
A
100
AcDbSymbolTableRecord
100
AcDbDimStyleTableRecord
  2
SLDDIMSTYLE0
 70
     0
 41
2.5
 44
0.0
 45
0.000000001
 73
     0
 74
     0
 77
     1
 78
    12
 79
     3
140
6.0
147
1.5
173
     1
178
     0
271
     2
272
     2
276
     2
284
    12
340
47
  0
ENDTAB
  0
TABLE
  2
BLOCK_RECORD
  5
1
330
0
100
AcDbSymbolTable
 70
     3
  0
BLOCK_RECORD
  5
1F
330
1
100
AcDbSymbolTableRecord
100
AcDbBlockTableRecord
  2
*Model_Space
340
22
 70
     0
280
     1
281
     0
  0
BLOCK_RECORD
  5
1B
330
1
100
AcDbSymbolTableRecord
100
AcDbBlockTableRecord
  2
*Paper_Space
340
1E
 70
     0
280
     1
281
     0
  0
BLOCK_RECORD
  5
23
330
1
100
AcDbSymbolTableRecord
100
AcDbBlockTableRecord
  2
*Paper_Space0
340
26
 70
     0
280
     1
281
     0
  0
BLOCK_RECORD
  5
49
330
1
100
AcDbSymbolTableRecord
100
AcDbBlockTableRecord
  2
*D1
340
0
 70
     0
280
     1
281
     0
  0
BLOCK_RECORD
  5
54
330
1
100
AcDbSymbolTableRecord
100
AcDbBlockTableRecord
  2
*D2
340
0
 70
     0
280
     1
281
     0
  0
ENDTAB
  0
ENDSEC
  0
SECTION
  2
BLOCKS
  0
BLOCK
  5
20
330
1F
100
AcDbEntity
  8
0
100
AcDbBlockBegin
  2
*Model_Space
 70
     0
 10
0.0
 20
0.0
 30
0.0
  3
*Model_Space
  1

  0
ENDBLK
  5
21
330
1F
100
AcDbEntity
  8
0
100
AcDbBlockEnd
  0
BLOCK
  5
1C
330
1B
100
AcDbEntity
 67
     1
  8
0
100
AcDbBlockBegin
  2
*Paper_Space
 70
     0
 10
0.0
 20
0.0
 30
0.0
  3
*Paper_Space
  1

  0
ENDBLK
  5
1D
330
1B
100
AcDbEntity
 67
     1
  8
0
100
AcDbBlockEnd
  0
BLOCK
  5
24
330
23
100
AcDbEntity
  8
0
100
AcDbBlockBegin
  2
*Paper_Space0
 70
     0
 10
0.0
 20
0.0
 30
0.0
  3
*Paper_Space0
  1

  0
ENDBLK
  5
25
330
23
100
AcDbEntity
  8
0
100
AcDbBlockEnd
  0
BLOCK
  5
4A
330
49
100
AcDbEntity
  8
0
100
AcDbBlockBegin
  2
*D1
 70
     1
 10
0.0
 20
0.0
 30
0.0
  3
*D1
  1

  0
SOLID
  5
4C
330
49
100
AcDbEntity
  8
0
  6
Continuous
 62
     7
370
     0
100
AcDbTrace
 10
42.7614395004
 20
152.0299240879
 30
0.0
 11
42.4614395004
 21
149.5299240879
 31
0.0
 12
43.0614395004
 22
149.5299240879
 32
0.0
 13
43.0614395004
 23
149.5299240879
 33
0.0
  0
SOLID
  5
4D
330
49
100
AcDbEntity
  8
0
  6
Continuous
 62
     7
370
     0
100
AcDbTrace
 10
42.7614395004
 20
52.0299240879
 30
0.0
 11
43.0614395004
 21
54.5299240879
 31
0.0
 12
42.4614395004
 22
54.5299240879
 32
0.0
 13
42.4614395004
 23
54.5299240879
 33
0.0
  0
LINE
  5
4E
330
49
100
AcDbEntity
  8
0
  6
Continuous
 62
     7
370
     0
100
AcDbLine
 10
56.6850079902
 20
152.0299240879
 30
0.0
 11
41.7614395004
 21
152.0299240879
 31
0.0
  0
LINE
  5
4F
330
49
100
AcDbEntity
  8
0
  6
Continuous
 62
     7
370
     0
100
AcDbLine
 10
56.6850079902
 20
52.0299240879
 30
0.0
 11
41.7614395004
 21
52.0299240879
 31
0.0
  0
LINE
  5
50
330
49
100
AcDbEntity
  8
0
  6
Continuous
 62
     7
370
     0
100
AcDbLine
 10
42.7614395004
 20
152.0299240879
 30
0.0
 11
42.7614395004
 21
52.0299240879
 31
0.0
  0
MTEXT
  5
51
330
49
100
AcDbEntity
  8
0
  6
Continuous
 62
     7
370
     0
100
AcDbMText
 10
35.0270332946
 20
91.6722208134
 30
0.1
 40
6.0
 41
0.0
 46
0.0
 71
     1
 72
     1
  1
100
  7
SLDTEXTSTYLE0
 11
-7.044195017643634E-15
 21
1.0
 31
0.0
 73
     1
 44
1.0
  0
MTEXT
  5
52
330
49
100
AcDbEntity
  8
0
  6
Continuous
 62
     7
370
     0
100
AcDbMText
 10
35.0270332946
 20
108.4388881795
 30
0.1
 40
6.0
 41
0.0
 46
0.0
 71
     1
 72
     1
  1
mm
  7
SLDTEXTSTYLE0
 11
-7.044195017643634E-15
 21
1.0
 31
0.0
 73
     1
 44
1.0
  0
ENDBLK
  5
4B
330
49
100
AcDbEntity
  8
0
100
AcDbBlockEnd
  0
BLOCK
  5
55
330
54
100
AcDbEntity
  8
0
100
AcDbBlockBegin
  2
*D2
 70
     1
 10
0.0
 20
0.0
 30
0.0
  3
*D2
  1

  0
SOLID
  5
57
330
54
100
AcDbEntity
  8
0
  6
Continuous
 62
     7
370
     0
100
AcDbTrace
 10
56.6850079902
 20
38.4602342313
 30
0.0
 11
59.1850079902
 21
38.1602342313
 31
0.0
 12
59.1850079902
 22
38.7602342313
 32
0.0
 13
59.1850079902
 23
38.7602342313
 33
0.0
  0
SOLID
  5
58
330
54
100
AcDbEntity
  8
0
  6
Continuous
 62
     7
370
     0
100
AcDbTrace
 10
156.6850079902
 20
38.4602342313
 30
0.0
 11
154.1850079902
 21
38.7602342313
 31
0.0
 12
154.1850079902
 22
38.1602342313
 32
0.0
 13
154.1850079902
 23
38.1602342313
 33
0.0
  0
LINE
  5
59
330
54
100
AcDbEntity
  8
0
  6
Continuous
 62
     7
370
     0
100
AcDbLine
 10
56.6850079902
 20
52.0299240879
 30
0.0
 11
56.6850079902
 21
37.4602342313
 31
0.0
  0
LINE
  5
5A
330
54
100
AcDbEntity
  8
0
  6
Continuous
 62
     7
370
     0
100
AcDbLine
 10
156.6850079902
 20
52.0299240879
 30
0.0
 11
156.6850079902
 21
37.4602342313
 31
0.0
  0
LINE
  5
5B
330
54
100
AcDbEntity
  8
0
  6
Continuous
 62
     7
370
     0
100
AcDbLine
 10
56.6850079902
 20
38.4602342313
 30
0.0
 11
156.6850079902
 21
38.4602342313
 31
0.0
  0
MTEXT
  5
5C
330
54
100
AcDbEntity
  8
0
  6
Continuous
 62
     7
370
     0
100
AcDbMText
 10
91.2668151533
 20
46.1946404371
 30
0.1
 40
6.0
 41
0.0
 46
0.0
 71
     1
 72
     1
  1
100
  7
SLDTEXTSTYLE0
 73
     1
 44
1.0
  0
MTEXT
  5
5D
330
54
100
AcDbEntity
  8
0
  6
Continuous
 62
     7
370
     0
100
AcDbMText
 10
108.0334825193
 20
46.1946404371
 30
0.1
 40
6.0
 41
0.0
 46
0.0
 71
     1
 72
     1
  1
mm
  7
SLDTEXTSTYLE0
 73
     1
 44
1.0
  0
ENDBLK
  5
56
330
54
100
AcDbEntity
  8
0
100
AcDbBlockEnd
  0
ENDSEC
  0
SECTION
  2
ENTITIES
  0
LINE
  5
44
330
1F
100
AcDbEntity
  8
0
  6
Continuous
 62
     7
370
     0
100
AcDbLine
 10
56.6850079902
 20
152.0299240879
 30
0.0
 11
56.6850079902
 21
52.0299240879
 31
0.0
  0
LINE
  5
45
330
1F
100
AcDbEntity
  8
0
  6
Continuous
 62
     7
370
     0
100
AcDbLine
 10
56.6850079902
 20
52.0299240879
 30
0.0
 11
156.6850079902
 21
52.0299240879
 31
0.0
  0
DIMENSION
  5
46
330
1F
100
AcDbEntity
  8
0
  6
Continuous
 62
     7
370
     0
100
AcDbDimension
280
     0
  2
*D1
 10
42.7614395004
 20
52.0299240879
 30
0.0
 11
42.7614395004
 21
105.4472211621
 31
0.0
 70
   160
  1
<>mm
 71
     2
 42
-1.0
 73
     0
 74
     0
 75
     0
  3
SLDDIMSTYLE0
100
AcDbAlignedDimension
 13
56.6850079902
 23
152.0299240879
 33
0.0
 14
56.6850079902
 24
52.0299240879
 34
0.0
 50
90.0
100
AcDbRotatedDimension
  0
DIMENSION
  5
53
330
1F
100
AcDbEntity
  8
0
  6
Continuous
 62
     7
370
     0
100
AcDbDimension
280
     0
  2
*D2
 10
156.6850079902
 20
38.4602342313
 30
0.0
 11
105.0418155019
 21
38.4602342313
 31
0.0
 70
   160
  1
<>mm
 71
     2
 42
-1.0
 73
     0
 74
     0
 75
     0
  3
SLDDIMSTYLE0
100
AcDbAlignedDimension
 13
56.6850079902
 23
52.0299240879
 33
0.0
 14
156.6850079902
 24
52.0299240879
 34
0.0
100
AcDbRotatedDimension
  0
MTEXT
  5
5F
330
1F
100
AcDbEntity
  8
0
  6
Continuous
 62
     7
370
     0
100
AcDbMText
 10
276.0270213778
 20
48.1980929047
 30
0.0
 40
10.0
 41
0.0
 46
0.0
 71
     1
 72
     1
  1
38 650 05 75
  7
SLDTEXTSTYLE1
 73
     1
 44
1.0
  0
MTEXT
  5
60
330
1F
100
AcDbEntity
  8
0
  6
Continuous
 62
     7
370
     0
100
AcDbMText
 10
412.8252631579
 20
48.4342449499
 30
0.0
 40
10.0
 41
0.0
 46
0.0
 71
     1
 72
     1
  1
KLUDI GmbH & Co KG
  7
SLDTEXTSTYLE1
 73
     1
 44
1.0
  0
SPLINE
  5
61
330
1F
100
AcDbEntity
  8
0
  6
Continuous
 62
     7
370
    15
100
AcDbSpline
210
0.0
220
0.0
230
1.0
 70
     8
 71
     3
 72
    15
 73
    11
 74
     0
 42
0.00000001
 43
0.00000001
 40
0.0
 40
0.0
 40
0.0
 40
0.0
 40
0.0095736522405891
 40
0.1171940533793541
 40
0.1407568480729187
 40
0.1538816148889067
 40
0.1767576360363942
 40
0.3050367599026774
 40
0.4998147133529198
 40
1.0
 40
1.0
 40
1.0
 40
1.0
 10
205.8544031495099
 20
338.4731362074859
 30
0.0
 10
205.8543586353325
 20
338.473160655332
 30
0.0
 10
205.8538137234472
 20
338.4734599290178
 30
0.0
 10
205.8532813676887
 20
338.4737640584081
 30
0.0
 10
205.8617128130635
 20
338.4690880870948
 30
0.0
 10
205.8699018264915
 20
338.4645072335536
 30
0.0
 10
205.9000519391613
 20
338.4474745050155
 30
0.0
 10
205.9645764417711
 20
338.4086720106638
 30
0.0
 10
206.1150255676749
 20
338.3134510709864
 30
0.0
 10
206.2172152451708
 20
338.2018210858391
 30
0.0
 10
206.2907641326248
 20
338.1214777339929
 30
0.0
  0
CIRCLE
  5
62
330
1F
100
AcDbEntity
  8
0
  6
Continuous
 62
     7
370
    15
100
AcDbCircle
 10
217.9020742435
 20
360.4642694791
 30
0.0
 40
25.07499999999999
  0
ARC
  5
63
330
1F
100
AcDbEntity
  8
0
  6
Continuous
 62
     7
370
    15
100
AcDbCircle
 10
231.0162992435
 20
336.5414184532
 30
0.0
 40
2.206600000000065
100
AcDbArc
 50
118.7310340118
 51
180.0
  0
ARC
  5
64
330
1F
100
AcDbEntity
  8
0
  6
Continuous
 62
     7
370
    15
100
AcDbCircle
 10
204.7878492435
 20
336.5414184532
 30
0.0
 40
2.206600000000002
100
AcDbArc
 50
0.0
 51
61.2689659882
  0
ARC
  5
65
330
1F
100
AcDbEntity
  8
0
  6
Continuous
 62
     7
370
    15
100
AcDbCircle
 10
212.5109492435
 20
282.0296694791
 30
0.0
 40
5.516500000000008
100
AcDbArc
 50
180.0
 51
270.0
  0
LINE
  5
66
330
1F
100
AcDbEntity
  8
0
  6
Continuous
 62
     7
370
    15
100
AcDbLine
 10
223.2931992435
 20
276.5131694791
 30
0.0
 11
212.5109492435
 21
276.5131694791
 31
0.0
  0
LINE
  5
67
330
1F
100
AcDbEntity
  8
0
  6
Continuous
 62
     7
370
    15
100
AcDbLine
 10
228.8096992435
 20
336.5414184532
 30
0.0
 11
228.8096992435
 21
282.0296694791
 31
0.0
  0
LINE
  5
68
330
1F
100
AcDbEntity
  8
0
  6
Continuous
 62
     7
370
    15
100
AcDbLine
 10
206.9944492435
 20
282.0296694791
 30
0.0
 11
206.9944492435
 21
336.5414184532
 31
0.0
  0
ARC
  5
69
330
1F
100
AcDbEntity
  8
0
  6
Continuous
 62
     7
370
    15
100
AcDbCircle
 10
223.2931992435
 20
282.0296694791
 30
0.0
 40
5.516500000000008
100
AcDbArc
 50
270.0
 51
0.0
  0
CIRCLE
  5
6A
330
1F
100
AcDbEntity
  8
0
  6
Continuous
 62
     7
370
    15
100
AcDbCircle
 10
217.9020742435
 20
345.6198694791
 30
0.0
 40
85.50575000000003
  0
CIRCLE
  5
6B
330
1F
100
AcDbEntity
  8
0
  6
Continuous
 62
     8
370
     0
100
AcDbCircle
 10
217.9020742435
 20
360.4642694791
 30
0.0
 40
23.57050000000001
  0
LINE
  5
6C
330
1F
100
AcDbEntity
  8
0
  6
Continuous
 62
     8
370
     0
100
AcDbLine
 10
226.9134023685
 20
337.0644491716
 30
0.0
 11
227.7063992435
 21
335.0052649846
 31
0.0
  0
LINE
  5
6D
330
1F
100
AcDbEntity
  8
0
  6
Continuous
 62
     8
370
     0
100
AcDbLine
 10
208.8907461185
 20
337.0644491716
 30
0.0
 11
208.0977492435
 21
335.0052649846
 31
0.0
  0
ARC
  5
6E
330
1F
100
AcDbEntity
  8
0
  6
Continuous
 62
     8
370
     0
100
AcDbCircle
 10
212.5109492435
 20
282.0296694791
 30
0.0
 40
4.413200000000018
100
AcDbArc
 50
180.0
 51
270.0
  0
LINE
  5
6F
330
1F
100
AcDbEntity
  8
0
  6
Continuous
 62
     8
370
     0
100
AcDbLine
 10
212.5109492435
 20
277.6164694791
 30
0.0
 11
223.2931992435
 21
277.6164694791
 31
0.0
  0
LINE
  5
70
330
1F
100
AcDbEntity
  8
0
  6
Continuous
 62
     8
370
     0
100
AcDbLine
 10
227.7063992435
 20
282.0296694791
 30
0.0
 11
227.7063992435
 21
335.0052649846
 31
0.0
  0
LINE
  5
71
330
1F
100
AcDbEntity
  8
0
  6
Continuous
 62
     8
370
     0
100
AcDbLine
 10
208.0977492435
 20
335.0052649846
 30
0.0
 11
208.0977492435
 21
282.0296694791
 31
0.0
  0
ARC
  5
72
330
1F
100
AcDbEntity
  8
0
  6
Continuous
 62
     8
370
     0
100
AcDbCircle
 10
223.2931992435
 20
282.0296694791
 30
0.0
 40
4.413200000000018
100
AcDbArc
 50
270.0
 51
0.0
  0
CIRCLE
  5
73
330
1F
100
AcDbEntity
  8
0
  6
Continuous
 62
     8
370
     0
100
AcDbCircle
 10
217.9020742435
 20
345.6198694791
 30
0.0
 40
84.0945279969664
  0
LINE
  5
74
330
1F
100
AcDbEntity
  8
0
  6
Continuous
 62
     7
370
    15
100
AcDbLine
 10
387.2383597086
 20
260.1141194791
 30
0.0
 11
396.5169281582
 21
260.3570873448
 31
0.0
  0
LINE
  5
75
330
1F
100
AcDbEntity
  8
0
  6
Continuous
 62
     7
370
    15
100
AcDbLine
 10
396.5169281582
 20
430.8826516134
 30
0.0
 11
387.2383597086
 21
431.1256194791
 31
0.0
  0
ARC
  5
76
330
1F
100
AcDbEntity
  8
0
  6
Continuous
 62
     7
370
    15
100
AcDbCircle
 10
396.4801704873
 20
429.4789327977
 30
0.0
 40
1.404199999999979
100
AcDbArc
 50
9.653305255
 51
88.5
  0
ARC
  5
77
330
1F
100
AcDbEntity
  8
0
  6
Continuous
 62
     7
370
    15
100
AcDbCircle
 10
396.4801704873
 20
261.7608061606
 30
0.0
 40
1.404199999999979
100
AcDbArc
 50
271.5
 51
350.346694745
  0
ARC
  5
78
330
1F
100
AcDbEntity
  8
0
  6
Continuous
 62
     7
370
    15
100
AcDbCircle
 10
-96.5345013805
 20
345.6198694791
 30
0.0
 40
501.4999999999999
100
AcDbArc
 50
4.5043864963
 51
9.653305255
  0
ARC
  5
79
330
1F
100
AcDbEntity
  8
0
  6
Continuous
 62
     7
370
    15
100
AcDbCircle
 10
-96.5345013805
 20
345.6198694791
 30
0.0
 40
501.4999999999999
100
AcDbArc
 50
356.3634774224
 51
358.8889922721
  0
ARC
  5
7A
330
1F
100
AcDbEntity
  8
0
  6
Continuous
 62
     7
370
    15
100
AcDbCircle
 10
-96.5345013805
 20
345.6198694791
 30
0.0
 40
501.4999999999999
100
AcDbArc
 50
350.346694745
 51
355.4463067796
  0
LINE
  5
7B
330
1F
100
AcDbEntity
  8
0
  6
Continuous
 62
     7
370
    15
100
AcDbLine
 10
473.1039149138
 20
385.5392694791
 30
0.0
 11
442.0892778622
 21
385.5392694791
 31
0.0
  0
LINE
  5
7C
330
1F
100
AcDbEntity
  8
0
  6
Continuous
 62
     7
370
    15
100
AcDbLine
 10
471.3988149138
 20
335.3892694791
 30
0.0
 11
473.1039149138
 21
335.3892694791
 31
0.0
  0
LINE
  5
7D
330
1F
100
AcDbEntity
  8
0
  6
Continuous
 62
     7
370
    15
100
AcDbLine
 10
452.5424149138
 20
335.3892694791
 30
0.0
 11
460.4460549138
 21
335.3892694791
 31
0.0
  0
LINE
  5
7E
330
1F
100
AcDbEntity
  8
0
  6
Continuous
 62
     7
370
    15
100
AcDbLine
 10
436.5947149138
 20
335.3892694791
 30
0.0
 11
446.5244149138
 21
335.3892694791
 31
0.0
  0
ARC
  5
7F
330
1F
100
AcDbEntity
  8
0
  6
Continuous
 62
     7
370
    15
100
AcDbCircle
 10
473.1039149138
 20
384.0347694791
 30
0.0
 40
1.504500000000007
100
AcDbArc
 50
0.0
 51
90.0
  0
ARC
  5
80
330
1F
100
AcDbEntity
  8
0
  6
Continuous
 62
     7
370
    15
100
AcDbCircle
 10
473.1039149138
 20
336.8937694791
 30
0.0
 40
1.504500000000007
100
AcDbArc
 50
270.0
 51
0.0
  0
ARC
  5
81
330
1F
100
AcDbEntity
  8
0
  6
Continuous
 62
     7
370
    15
100
AcDbCircle
 10
436.5947149138
 20
335.4895694791
 30
0.0
 40
0.1003000000000043
100
AcDbArc
 50
180.0
 51
270.0
  0
LINE
  5
82
330
1F
100
AcDbEntity
  8
0
  6
Continuous
 62
     7
370
    15
100
AcDbLine
 10
431.6049427955
 20
385.0377694791
 30
0.0
 11
403.4149281307
 21
385.0377694791
 31
0.0
  0
LINE
  5
83
330
1F
100
AcDbEntity
  8
0
  6
Continuous
 62
     7
370
    15
100
AcDbLine
 10
404.8709677332
 20
335.8907694791
 30
0.0
 11
431.6049427955
 21
335.8907694791
 31
0.0
  0
ARC
  5
84
330
1F
100
AcDbEntity
  8
0
  6
Continuous
 62
     7
370
    15
100
AcDbCircle
 10
431.6049427955
 20
360.4642694791
 30
0.0
 40
24.57349999999997
100
AcDbArc
 50
66.298261904
 51
90.0
  0
ARC
  5
85
330
1F
100
AcDbEntity
  8
0
  6
Continuous
 62
     7
370
    15
100
AcDbCircle
 10
431.6049427955
 20
360.4642694791
 30
0.0
 40
24.57350000000002
100
AcDbArc
 50
270.0
 51
281.4914034788
  0
ARC
  5
86
330
1F
100
AcDbEntity
  8
0
  6
Continuous
 62
     7
370
    15
100
AcDbCircle
 10
460.4460549138
 20
333.1826694791
 30
0.0
 40
2.20659999999998
100
AcDbArc
 50
0.0
 51
90.0
  0
ARC
  5
87
330
1F
100
AcDbEntity
  8
0
  6
Continuous
 62
     7
370
    15
100
AcDbCircle
 10
471.3988149138
 20
333.1826694791
 30
0.0
 40
2.206600000000037
100
AcDbArc
 50
90.0
 51
180.0
  0
ARC
  5
88
330
1F
100
AcDbEntity
  8
0
  6
Continuous
 62
     7
370
    15
100
AcDbCircle
 10
437.5894612059
 20
302.7917694791
 30
0.0
 40
0.5015000000000782
100
AcDbArc
 50
180.0
 51
270.0
  0
ARC
  5
89
330
1F
100
AcDbEntity
  8
0
  6
Continuous
 62
     7
370
    15
100
AcDbCircle
 10
437.5894612059
 20
316.8337694791
 30
0.0
 40
0.5014999999999645
100
AcDbArc
 50
90.0
 51
180.0
  0
LINE
  5
8A
330
1F
100
AcDbEntity
  8
0
  6
Continuous
 62
     7
370
    15
100
AcDbLine
 10
437.5894612059
 20
302.2902694791
 30
0.0
 11
446.6164612059
 21
302.2902694791
 31
0.0
  0
LINE
  5
8B
330
1F
100
AcDbEntity
  8
0
  6
Continuous
 62
     7
370
    15
100
AcDbLine
 10
446.6164612059
 20
317.3352694791
 30
0.0
 11
437.5894612059
 21
317.3352694791
 31
0.0
  0
ARC
  5
8C
330
1F
100
AcDbEntity
  8
0
  6
Continuous
 62
     7
370
    15
100
AcDbCircle
 10
446.6164612059
 20
302.7917694791
 30
0.0
 40
0.5015000000000782
100
AcDbArc
 50
270.0
 51
0.0
  0
ARC
  5
8D
330
1F
100
AcDbEntity
  8
0
  6
Continuous
 62
     7
370
    15
100
AcDbCircle
 10
446.6164612059
 20
316.8337694791
 30
0.0
 40
0.5014999999999645
100
AcDbArc
 50
0.0
 51
90.0
  0
LINE
  5
8E
330
1F
100
AcDbEntity
  8
0
  6
Continuous
 62
     7
370
    15
100
AcDbLine
 10
437.0879612059
 20
313.8247694791
 30
0.0
 11
403.9556138959
 21
313.8247694791
 31
0.0
  0
LINE
  5
8F
330
1F
100
AcDbEntity
  8
0
  6
Continuous
 62
     7
370
    15
100
AcDbLine
 10
403.3824051319
 20
305.8007694791
 30
0.0
 11
437.0879612059
 21
305.8007694791
 31
0.0
  0
LINE
  5
90
330
1F
100
AcDbEntity
  8
0
  6
Continuous
 62
     7
370
    15
100
AcDbLine
 10
450.0349149138
 20
335.3898964628
 30
0.0
 11
450.0349149138
 21
335.4697934585
 31
0.0
  0
LINE
  5
91
330
1F
100
AcDbEntity
  8
0
  6
Continuous
 62
     7
370
    15
100
AcDbLine
 10
449.0319149138
 20
335.4696424086
 30
0.0
 11
449.0319149138
 21
335.3898964628
 31
0.0
  0
LINE
  5
92
330
1F
100
AcDbEntity
  8
0
  6
Continuous
 62
     7
370
    15
100
AcDbLine
 10
387.2383597086
 20
431.1256194791
 30
0.0
 11
387.2383597086
 21
260.1141194791
 31
0.0
  0
SPLINE
  5
93
330
1F
100
AcDbEntity
  8
0
  6
Continuous
 62
     7
370
    15
100
AcDbSpline
210
0.0
220
0.0
230
1.0
 70
     8
 71
     3
 72
    21
 73
    17
 74
     0
 42
0.00000001
 43
0.00000001
 40
0.0
 40
0.0
 40
0.0
 40
0.0
 40
0.0707089130194473
 40
0.1434716708905183
 40
0.2141794965038231
 40
0.2869322294448526
 40
0.3577387789492487
 40
0.4305961588396076
 40
0.5014420536235685
 40
0.5743465345277026
 40
0.6451155161290818
 40
0.717945716389909
 40
0.7885552522202575
 40
0.8612223019149302
 40
0.9316603355253593
 40
1.0
 40
1.0
 40
1.0
 40
1.0
 10
403.8722999641983
 20
312.6468636456981
 30
0.0
 10
403.8604756826431
 20
312.4816215539428
 30
0.0
 10
403.8364836658047
 20
312.1463376697304
 30
0.0
 10
403.7944151101911
 20
311.5584931648677
 30
0.0
 10
403.7488217002511
 20
310.9214486869414
 30
0.0
 10
403.7012711931711
 20
310.2571217842404
 30
0.0
 10
403.6523854633598
 20
309.5742069417544
 30
0.0
 10
403.6043775683228
 20
308.903620709737
 30
0.0
 10
403.5577751989122
 20
308.2527293255932
 30
0.0
 10
403.514756146443
 20
307.6519402571876
 30
0.0
 10
403.4757720861912
 20
307.1075474731587
 30
0.0
 10
403.4426762258678
 20
306.6454141384355
 30
0.0
 10
403.415731179084
 20
306.2691903289569
 30
0.0
 10
403.3964267825936
 20
305.9996626768412
 30
0.0
 10
403.3843096558508
 20
305.8304890040209
 30
0.0
 10
403.3830348500274
 20
305.8126910351554
 30
0.0
 10
403.382407084879
 20
305.8039266065953
 30
0.0
  0
SPLINE
  5
94
330
1F
100
AcDbEntity
  8
0
  6
Continuous
 62
     7
370
    15
100
AcDbSpline
210
0.0
220
0.0
230
1.0
 70
     8
 71
     3
 72
    13
 73
     9
 74
     0
 42
0.00000001
 43
0.00000001
 40
0.0
 40
0.0
 40
0.0
 40
0.0
 40
0.0896771194273532
 40
0.306678760014824
 40
0.5174549693940859
 40
0.7343310167170047
 40
0.8664400617118985
 40
1.0
 40
1.0
 40
1.0
 40
1.0
 10
403.9556137491992
 20
313.8112767173051
 30
0.0
 10
403.9558419463154
 20
313.8144663205096
 30
0.0
 10
403.9566223372236
 20
313.8253741592308
 30
0.0
 10
403.9493927780725
 20
313.7243236624773
 30
0.0
 10
403.9342794339196
 20
313.5130831146177
 30
0.0
 10
403.9141276188036
 20
313.2314305964625
 30
0.0
 10
403.892897803892
 20
312.9347236020228
 30
0.0
 10
403.8791908632533
 20
312.7431656817606
 30
0.0
 10
403.8722999641983
 20
312.6468636456981
 30
0.0
  0
SPLINE
  5
95
330
1F
100
AcDbEntity
  8
0
  6
Continuous
 62
     7
370
    15
100
AcDbSpline
210
0.0
220
0.0
230
1.0
 70
     8
 71
     3
 72
    30
 73
    26
 74
     0
 42
0.00000001
 43
0.00000001
 40
0.0
 40
0.0
 40
0.0
 40
0.0
 40
0.0351690595387695
 40
0.0705824117188839
 40
0.1067661190880605
 40
0.1432159563549281
 40
0.1783849914831804
 40
0.2499174461001612
 40
0.2863663102968116
 40
0.3215437688922544
 40
0.3930935990319011
 40
0.4295515387062274
 40
0.4647323421624682
 40
0.5001574603960597
 40
0.5363532433257936
 40
0.5728153752568119
 40
0.6079896189725745
 40
0.6795339528032677
 40
0.7159898129005441
 40
0.7511504848424921
 40
0.8226673181779051
 40
0.8591092096855286
 40
0.894255251837889
 40
0.9657420448259426
 40
1.0
 40
1.0
 40
1.0
 40
1.0
 10
403.6271906196809
 20
377.855297135561
 30
0.0
 10
403.6417652091545
 20
377.3642145043603
 30
0.0
 10
403.6710156266619
 20
376.3786380653549
 30
0.0
 10
403.7195065329626
 20
374.7445789592152
 30
0.0
 10
403.7713444203728
 20
372.9975654015211
 30
0.0
 10
403.8258285584741
 20
371.1611697101612
 30
0.0
 10
403.901112251102
 20
368.6234413813635
 30
0.0
 10
403.980246982428
 20
365.9554460139362
 30
0.0
 10
404.0612583898061
 20
363.2236746537193
 30
0.0
 10
404.1430340874546
 20
360.4657947934451
 30
0.0
 10
404.2252606788412
 20
357.6921973003335
 30
0.0
 10
404.3058457661227
 20
354.9734699873737
 30
0.0
 10
404.3649561683441
 20
352.9790032124308
 30
0.0
 10
404.4223655682559
 20
351.0417067491902
 30
0.0
 10
404.4784645498243
 20
349.1484156831497
 30
0.0
 10
404.5320053902944
 20
347.3412593928776
 30
0.0
 10
404.5993763921506
 20
345.0670598713096
 30
0.0
 10
404.6606518967324
 20
342.9983085753607
 30
0.0
 10
404.7141908208503
 20
341.1905344746389
 30
0.0
 10
404.7623157156837
 20
339.5654448334533
 30
0.0
 10
404.8019114211156
 20
338.2282257293441
 30
0.0
 10
404.8319255356569
 20
337.2145247994676
 30
0.0
 10
404.8552867019518
 20
336.4254899136781
 30
0.0
 10
404.8692566207548
 20
335.9536240851031
 30
0.0
 10
404.870548806765
 20
335.9099773856767
 30
0.0
 10
404.8709674341786
 20
335.8958372349983
 30
0.0
  0
SPLINE
  5
96
330
1F
100
AcDbEntity
  8
0
  6
Continuous
 62
     7
370
    15
100
AcDbSpline
210
0.0
220
0.0
230
1.0
 70
     8
 71
     3
 72
    14
 73
    10
 74
     0
 42
0.00000001
 43
0.00000001
 40
0.0
 40
0.0
 40
0.0
 40
0.0
 40
0.192648212222598
 40
0.3021019419891587
 40
0.4077006812313693
 40
0.6224848763083668
 40
0.7319268767156927
 40
0.8652214620157851
 40
1.0
 40
1.0
 40
1.0
 40
1.0
 10
403.4149328311877
 20
385.0055143771257
 30
0.0
 10
403.4160575393426
 20
384.967635613904
 30
0.0
 10
403.4178212542188
 20
384.9082359039488
 30
0.0
 10
403.4334797568831
 20
384.3808575380638
 30
0.0
 10
403.4558672905545
 20
383.6268214341177
 30
0.0
 10
403.488315790029
 20
382.5338685302407
 30
0.0
 10
403.532623106873
 20
381.0413321894259
 30
0.0
 10
403.5745883363697
 20
379.6276015018296
 30
0.0
 10
403.6095919362921
 20
378.4482414232835
 30
0.0
 10
403.627190619681
 20
377.8552971355608
 30
0.0
  0
SPLINE
  5
97
330
1F
100
AcDbEntity
  8
0
  6
Continuous
 62
     7
370
    15
100
AcDbSpline
210
0.0
220
0.0
230
1.0
 70
     8
 71
     3
 72
    12
 73
     8
 74
     0
 42
0.00000001
 43
0.00000001
 40
0.0
 40
0.0
 40
0.0
 40
0.0
 40
0.4999999999999999
 40
0.4999999999999999
 40
0.7499999999999999
 40
0.7499999999999999
 40
1.0
 40
1.0
 40
1.0
 40
1.0
 10
436.4944149138288
 20
357.2561507300099
 30
0.0
 10
436.4944149138288
 20
359.331234942944
 30
0.0
 10
436.6226991839333
 20
361.3895464678452
 30
0.0
 10
437.0027971634949
 20
364.4527411276736
 30
0.0
 10
437.1620054930088
 20
365.4742941770039
 30
0.0
 10
437.5338450776387
 20
367.4639249325338
 30
0.0
 10
437.7467905058338
 20
368.4368006053298
 30
0.0
 10
437.9840842410875
 20
369.3885337943333
 30
0.0
  0
SPLINE
  5
98
330
1F
100
AcDbEntity
  8
0
  6
Continuous
 62
     7
370
    15
100
AcDbSpline
210
0.0
220
0.0
230
1.0
 70
     8
 71
     3
 72
    17
 73
    13
 74
     0
 42
0.00000001
 43
0.00000001
 40
0.0
 40
0.0
 40
0.0
 40
0.0
 40
0.0361897108003339
 40
0.1439982226090407
 40
0.2518998226498181
 40
0.3595977737058152
 40
0.4668435602678657
 40
0.5736466526860099
 40
0.6803110569568803
 40
0.7872346519990185
 40
0.8946356098795698
 40
1.0
 40
1.0
 40
1.0
 40
1.0
 10
450.0285590432117
 20
335.4697934584556
 30
0.0
 10
450.0303018569629
 20
335.4712751830089
 30
0.0
 10
450.0372364822186
 20
335.4771709389393
 30
0.0
 10
449.9907657272184
 20
335.4884553009911
 30
0.0
 10
449.8937121721783
 20
335.5013397606184
 30
0.0
 10
449.7519552795724
 20
335.5109900310433
 30
0.0
 10
449.5868313621862
 20
335.5156423167454
 30
0.0
 10
449.4160104769104
 20
335.5145361927663
 30
0.0
 10
449.2584110550659
 20
335.5078982622711
 30
0.0
 10
449.1325926676977
 20
335.4969160965223
 30
0.0
 10
449.0478173357655
 20
335.4833555239878
 30
0.0
 10
449.037600361965
 20
335.4741841847249
 30
0.0
 10
449.0325407729694
 20
335.4696424086458
 30
0.0
  0
SPLINE
  5
99
330
1F
100
AcDbEntity
  8
0
  6
Continuous
 62
     7
370
    15
100
AcDbSpline
210
0.0
220
0.0
230
1.0
 70
     8
 71
     3
 72
     8
 73
     4
 74
     0
 42
0.00000001
 43
0.00000001
 40
0.0
 40
0.0
 40
0.0
 40
0.0
 40
0.0001773994833721
 40
0.0001773994833721
 40
0.0001773994833721
 40
0.0001773994833721
 10
452.5424149138288
 20
335.3892694791413
 30
0.0
 10
452.5424149138288
 20
335.3892694791413
 30
0.0
 10
452.5406702195634
 20
335.389479021286
 30
0.0
 10
452.5371855712578
 20
335.3898964628039
 30
0.0
  0
SPLINE
  5
9A
330
1F
100
AcDbEntity
  8
0
  6
Continuous
 62
     7
370
    15
100
AcDbSpline
210
0.0
220
0.0
230
1.0
 70
     8
 71
     3
 72
    20
 73
    16
 74
     0
 42
0.00000001
 43
0.00000001
 40
0.0
 40
0.0
 40
0.0
 40
0.0
 40
0.0000336062965663
 40
0.0000336062965663
 40
0.0000336062965663
 40
0.0000672097675054
 40
0.0000672097675054
 40
0.0000672097675054
 40
0.0001008580008363
 40
0.0001008580008363
 40
0.0001008580008363
 40
0.000134599026555
 40
0.000134599026555
 40
0.000134599026555
 40
0.0001568986433836
 40
0.0001568986433836
 40
0.0001568986433836
 40
0.0001568986433836
 10
451.3409385069448
 20
335.4619529037208
 30
0.0
 10
451.3521406058002
 20
335.4619529037208
 30
0.0
 10
451.3634971610306
 20
335.4618054129983
 30
0.0
 10
451.3740672309034
 20
335.4615240070203
 30
0.0
 10
451.384636805424
 20
335.46124261423
 30
0.0
 10
451.3947111279396
 20
335.4608197141876
 30
0.0
 10
451.4034604591532
 20
335.4602936329229
 30
0.0
 10
451.4122215721412
 20
335.4597668432417
 30
0.0
 10
451.4198952178377
 20
335.4591223175569
 30
0.0
 10
451.4258531288839
 20
335.458417028149
 30
0.0
 10
451.4318272713025
 20
335.4577098172935
 30
0.0
 10
451.4362407785328
 20
335.4569222350576
 30
0.0
 10
451.4387327656723
 20
335.4561218888064
 30
0.0
 10
451.4403929034372
 20
335.4555887058635
 30
0.0
 10
451.4412385069453
 20
335.4550418333109
 30
0.0
 10
451.4412385069453
 20
335.4545017181179
 30
0.0
  0
LINE
  5
9B
330
1F
100
AcDbEntity
  8
0
  6
Continuous
 62
     7
370
    15
100
AcDbLine
 10
450.7320104054
 20
335.4619529037
 30
0.0
 11
451.3409385069
 21
335.4619529037
 31
0.0
  0
ARC
  5
9C
330
1F
100
AcDbEntity
  8
0
  6
Continuous
 62
     7
370
    15
100
AcDbCircle
 10
448.8241868123
 20
360.4642694791
 30
0.0
 40
25.07500000000005
100
AcDbArc
 50
272.7675610391
 51
274.3635485385
  0
ARC
  5
9D
330
1F
100
AcDbEntity
  8
0
  6
Continuous
 62
     7
370
    15
100
AcDbCircle
 10
450.2426430154
 20
360.4642694791
 30
0.0
 40
25.07500000000004
100
AcDbArc
 50
265.6364514615
 51
267.2324389609
  0
LINE
  5
9E
330
1F
100
AcDbEntity
  8
0
  6
Continuous
 62
     7
370
    15
100
AcDbLine
 10
447.7258913207
 20
335.4619529037
 30
0.0
 11
448.3348194222
 21
335.4619529037
 31
0.0
  0
SPLINE
  5
9F
330
1F
100
AcDbEntity
  8
0
  6
Continuous
 62
     7
370
    15
100
AcDbSpline
210
0.0
220
0.0
230
1.0
 70
     8
 71
     3
 72
    20
 73
    16
 74
     0
 42
0.00000001
 43
0.00000001
 40
0.0
 40
0.0
 40
0.0
 40
0.0
 40
0.0000338374571852
 40
0.0000338374571852
 40
0.0000338374571852
 40
0.000067677097624
 40
0.000067677097624
 40
0.000067677097624
 40
0.0001014809053897
 40
0.0001014809053897
 40
0.0001014809053897
 40
0.0001351963353239
 40
0.0001351963353239
 40
0.0001351963353239
 40
0.0001568988972962
 40
0.0001568988972962
 40
0.0001568988972962
 40
0.0001568988972962
 10
447.6255913207128
 20
335.4545017181179
 30
0.0
 10
447.6255913207128
 20
335.4553147723179
 30
0.0
 10
447.6275374354602
 20
335.456147046647
 30
0.0
 10
447.6312697086809
 20
335.4569284200685
 30
0.0
 10
447.6350021132
 20
335.457709820978
 30
0.0
 10
447.6406242269567
 20
335.4584617869555
 30
0.0
 10
447.6476729464692
 20
335.4591186061812
 30
0.0
 10
447.6547140611504
 20
335.4597747167675
 30
0.0
 10
447.6633739883143
 20
335.4603538488146
 30
0.0
 10
447.6729352785782
 20
335.4608038083822
 30
0.0
 10
447.6824718085024
 20
335.4612526027146
 30
0.0
 10
447.6931691768164
 20
335.4615851318457
 30
0.0
 10
447.7041383946598
 20
335.4617708546645
 30
0.0
 10
447.7112585590388
 20
335.4618914081094
 30
0.0
 10
447.7185965581133
 20
335.4619529037208
 30
0.0
 10
447.7258913207127
 20
335.4619529037208
 30
0.0
  0
SPLINE
  5
A0
330
1F
100
AcDbEntity
  8
0
  6
Continuous
 62
     7
370
    15
100
AcDbSpline
210
0.0
220
0.0
230
1.0
 70
     8
 71
     3
 72
     8
 73
     4
 74
     0
 42
0.00000001
 43
0.00000001
 40
0.0
 40
0.0
 40
0.0
 40
0.0
 40
0.0001773994833721
 40
0.0001773994833721
 40
0.0001773994833721
 40
0.0001773994833721
 10
446.5296442563998
 20
335.3898964628039
 30
0.0
 10
446.5261596080942
 20
335.389479021286
 30
0.0
 10
446.5244149138288
 20
335.3892694791413
 30
0.0
 10
446.5244149138288
 20
335.3892694791413
 30
0.0
  0
LINE
  5
A1
330
1F
100
AcDbEntity
  8
0
  6
Continuous
 62
     7
370
    15
100
AcDbLine
 10
474.6084149138
 20
360.4642694791
 30
0.0
 11
474.6084149138
 21
336.8937694791
 31
0.0
  0
LINE
  5
A2
330
1F
100
AcDbEntity
  8
0
  6
Continuous
 62
     7
370
    15
100
AcDbLine
 10
474.6084149138
 20
384.0347694791
 30
0.0
 11
474.6084149138
 21
360.4642694791
 31
0.0
  0
LINE
  5
A3
330
1F
100
AcDbEntity
  8
0
  6
Continuous
 62
     7
370
    15
100
AcDbLine
 10
436.4944149138
 20
335.4895694791
 30
0.0
 11
436.4944149138
 21
357.25615073
 31
0.0
  0
LINE
  5
A4
330
1F
100
AcDbEntity
  8
0
  6
Continuous
 62
     7
370
    15
100
AcDbLine
 10
437.9840842411
 20
369.3885337943
 30
0.0
 11
441.9919571991
 21
385.4632342385
 31
0.0
  0
LINE
  5
A5
330
1F
100
AcDbEntity
  8
0
  6
Continuous
 62
     7
370
    15
100
AcDbLine
 10
462.6526549138
 20
282.0296694791
 30
0.0
 11
462.6526549138
 21
335.0052649846
 31
0.0
  0
LINE
  5
A6
330
1F
100
AcDbEntity
  8
0
  6
Continuous
 62
     7
370
    15
100
AcDbLine
 10
469.1922149138
 20
335.0052649846
 30
0.0
 11
469.1922149138
 21
282.0296694791
 31
0.0
  0
ARC
  5
A7
330
1F
100
AcDbEntity
  8
0
  6
Continuous
 62
     7
370
    15
100
AcDbCircle
 10
463.7559549138
 20
277.6164694791
 30
0.0
 40
1.10329999999999
100
AcDbArc
 50
180.0
 51
270.0
  0
LINE
  5
A8
330
1F
100
AcDbEntity
  8
0
  6
Continuous
 62
     7
370
    15
100
AcDbLine
 10
462.6526549138
 20
277.6164694791
 30
0.0
 11
462.6526549138
 21
282.0296694791
 31
0.0
  0
LINE
  5
A9
330
1F
100
AcDbEntity
  8
0
  6
Continuous
 62
     7
370
    15
100
AcDbLine
 10
468.0889149138
 20
276.5131694791
 30
0.0
 11
463.7559549138
 21
276.5131694791
 31
0.0
  0
LINE
  5
AA
330
1F
100
AcDbEntity
  8
0
  6
Continuous
 62
     7
370
    15
100
AcDbLine
 10
469.1922149138
 20
282.0296694791
 30
0.0
 11
469.1922149138
 21
277.6164694791
 31
0.0
  0
ARC
  5
AB
330
1F
100
AcDbEntity
  8
0
  6
Continuous
 62
     7
370
    15
100
AcDbCircle
 10
468.0889149138
 20
277.6164694791
 30
0.0
 40
1.10329999999999
100
AcDbArc
 50
270.0
 51
0.0
  0
LINE
  5
AC
330
1F
100
AcDbEntity
  8
0
  6
Continuous
 62
     7
370
    15
100
AcDbLine
 10
437.0879612059
 20
316.8337694791
 30
0.0
 11
437.0879612059
 21
302.7917694791
 31
0.0
  0
LINE
  5
AD
330
1F
100
AcDbEntity
  8
0
  6
Continuous
 62
     7
370
    15
100
AcDbLine
 10
447.1179612059
 20
316.8337694791
 30
0.0
 11
447.1179612059
 21
302.7917694791
 31
0.0
  0
LINE
  5
AE
330
1F
100
AcDbEntity
  8
0
  6
Continuous
 62
     7
370
    15
100
AcDbLine
 10
452.5424149138
 20
334.8883964628
 30
0.0
 11
452.5424149138
 21
335.3892694791
 31
0.0
  0
LINE
  5
AF
330
1F
100
AcDbEntity
  8
0
  6
Continuous
 62
     7
370
    15
100
AcDbLine
 10
452.5155483045
 20
334.8883964628
 30
0.0
 11
452.5424149138
 21
334.8883964628
 31
0.0
  0
LINE
  5
B0
330
1F
100
AcDbEntity
  8
0
  6
Continuous
 62
     7
370
    15
100
AcDbLine
 10
446.5244149138
 20
334.8883964628
 30
0.0
 11
446.5512815231
 21
334.8883964628
 31
0.0
  0
LINE
  5
B1
330
1F
100
AcDbEntity
  8
0
  6
Continuous
 62
     7
370
    15
100
AcDbLine
 10
446.5244149138
 20
334.8883964628
 30
0.0
 11
446.5244149138
 21
335.3892694791
 31
0.0
  0
LINE
  5
B2
330
1F
100
AcDbEntity
  8
0
  6
Continuous
 62
     7
370
    15
100
AcDbLine
 10
446.5296442564
 20
335.3898964628
 30
0.0
 11
452.5371855713
 21
335.3898964628
 31
0.0
  0
SPLINE
  5
B3
330
1F
100
AcDbEntity
  8
0
  6
Continuous
 62
     7
370
    15
100
AcDbSpline
210
0.0
220
0.0
230
1.0
 70
     8
 71
     3
 72
    12
 73
     8
 74
     0
 42
0.00000001
 43
0.00000001
 40
0.0
 40
0.0
 40
0.0
 40
0.0
 40
0.2500000000000067
 40
0.2500000000000067
 40
0.5000000000000134
 40
0.5000000000000134
 40
1.0
 40
1.0
 40
1.0
 40
1.0
 10
452.5155483045409
 20
334.8883964628039
 30
0.0
 10
452.5155483045409
 20
334.7951075256148
 30
0.0
 10
452.4968807229554
 20
334.7035335084194
 30
0.0
 10
452.4251326777107
 20
334.5330002502896
 30
0.0
 10
452.3720341657606
 20
334.4550036586296
 30
0.0
 10
452.1751025566335
 20
334.261282713643
 30
0.0
 10
451.9916751696203
 20
334.1862964628039
 30
0.0
 10
451.8051600954017
 20
334.1862964628039
 30
0.0
  0
LINE
  5
B4
330
1F
100
AcDbEntity
  8
0
  6
Continuous
 62
     7
370
    15
100
AcDbLine
 10
451.8051600954
 20
334.1862964628
 30
0.0
 11
447.2616697323
 21
334.1862964628
 31
0.0
  0
SPLINE
  5
B5
330
1F
100
AcDbEntity
  8
0
  6
Continuous
 62
     7
370
    15
100
AcDbSpline
210
0.0
220
0.0
230
1.0
 70
     8
 71
     3
 72
    12
 73
     8
 74
     0
 42
0.00000001
 43
0.00000001
 40
0.0
 40
0.0
 40
0.0
 40
0.0
 40
0.2499999999999999
 40
0.2499999999999999
 40
0.4999999999999998
 40
0.4999999999999998
 40
1.0
 40
1.0
 40
1.0
 40
1.0
 10
447.2616697322558
 20
334.1862964628039
 30
0.0
 10
447.1683971923682
 20
334.1862964628039
 30
0.0
 10
447.0768886572728
 20
334.204167958012
 30
0.0
 10
446.9052686757991
 20
334.2738409474397
 30
0.0
 10
446.8265718297242
 20
334.3254721857095
 30
0.0
 10
446.6292943321084
 20
334.5192453303011
 30
0.0
 10
446.5512815231167
 20
334.7017801649269
 30
0.0
 10
446.5512815231167
 20
334.8883964628039
 30
0.0
  0
LINE
  5
B6
330
1F
100
AcDbEntity
  8
0
  6
Continuous
 62
     7
370
    15
100
AcDbLine
 10
447.6255913207
 20
335.3898964628
 30
0.0
 11
447.6255913207
 21
335.4545017181
 31
0.0
  0
LINE
  5
B7
330
1F
100
AcDbEntity
  8
0
  6
Continuous
 62
     7
370
    15
100
AcDbLine
 10
451.4412385069
 20
335.4545017181
 30
0.0
 11
451.4412385069
 21
335.3898964628
 31
0.0
  0
LINE
  5
B8
330
1F
100
AcDbEntity
  8
0
  6
Continuous
 62
     7
370
    15
100
AcDbLine
 10
448.3348194222
 20
335.4619529037
 30
0.0
 11
448.3348194222
 21
335.3898964628
 31
0.0
  0
LINE
  5
B9
330
1F
100
AcDbEntity
  8
0
  6
Continuous
 62
     7
370
    15
100
AcDbLine
 10
450.7320104054
 20
335.3898964628
 30
0.0
 11
450.7320104054
 21
335.4619529037
 31
0.0
  0
SPLINE
  5
BA
330
1F
100
AcDbEntity
  8
0
  6
Continuous
 62
     7
370
    15
100
AcDbSpline
210
0.0
220
0.0
230
1.0
 70
     8
 71
     3
 72
    10
 73
     6
 74
     0
 42
0.00000001
 43
0.00000001
 40
0.0
 40
0.0
 40
0.0
 40
0.0
 40
0.5
 40
0.5
 40
1.0
 40
1.0
 40
1.0
 40
1.0
 10
451.9069461228083
 20
334.1862964628039
 30
0.0
 10
452.0667977435285
 20
334.1862964628039
 30
0.0
 10
452.2234057767205
 20
334.2503183305175
 30
0.0
 10
452.4487182600222
 20
334.4717728574053
 30
0.0
 10
452.5155483045409
 20
334.6281877653117
 30
0.0
 10
452.5155483045409
 20
334.7880964628039
 30
0.0
  0
LINE
  5
BB
330
1F
100
AcDbEntity
  8
0
  6
Continuous
 62
     7
370
    15
100
AcDbLine
 10
451.9069461228
 20
334.1862964628
 30
0.0
 11
451.8051600954
 21
334.1862964628
 31
0.0
  0
LINE
  5
BC
330
1F
100
AcDbEntity
  8
0
  6
Continuous
 62
     7
370
    15
100
AcDbLine
 10
447.2616697323
 20
334.1862964628
 30
0.0
 11
447.1598837048
 21
334.1862964628
 31
0.0
  0
SPLINE
  5
BD
330
1F
100
AcDbEntity
  8
0
  6
Continuous
 62
     7
370
    15
100
AcDbSpline
210
0.0
220
0.0
230
1.0
 70
     8
 71
     3
 72
    10
 73
     6
 74
     0
 42
0.00000001
 43
0.00000001
 40
0.0
 40
0.0
 40
0.0
 40
0.0
 40
0.5
 40
0.5
 40
1.0
 40
1.0
 40
1.0
 40
1.0
 10
446.5512815231167
 20
334.7880964628039
 30
0.0
 10
446.5512815231167
 20
334.6282194086184
 30
0.0
 10
446.6179849879994
 20
334.4720606412328
 30
0.0
 10
446.8429156333677
 20
334.2506551314258
 30
0.0
 10
447.0000578434732
 20
334.1862964628039
 30
0.0
 10
447.1598837048492
 20
334.1862964628039
 30
0.0
  0
LINE
  5
BE
330
1F
100
AcDbEntity
  8
0
  6
Continuous
 62
     8
370
     0
100
AcDbLine
 10
396.5169281582
 20
430.8826516134
 30
0.0
 11
396.5169281582
 21
260.3570873448
 31
0.0
  0
LINE
  5
BF
330
1F
100
AcDbEntity
  8
0
  6
Continuous
 62
     8
370
     0
100
AcDbLine
 10
397.8644876566
 20
429.7143974761
 30
0.0
 11
397.8644876566
 21
261.5253414822
 31
0.0
  0
ARC
  5
C0
330
1F
100
AcDbEntity
  8
0
  6
Continuous
 62
     8
370
     0
100
AcDbCircle
 10
436.5700536669
 20
357.4481346593
 30
0.0
 40
0.2063469168233733
100
AcDbArc
 50
248.4963128307
 51
276.864027428
  0
SPLINE
  5
C1
330
1F
100
AcDbEntity
  8
0
  6
Continuous
 62
     8
370
     0
100
AcDbSpline
210
0.0
220
0.0
230
1.0
 70
     8
 71
     3
 72
    22
 73
    18
 74
     0
 42
0.00000001
 43
0.00000001
 40
0.0
 40
0.0
 40
0.0
 40
0.0
 40
0.125
 40
0.125
 40
0.25
 40
0.25
 40
0.375
 40
0.375
 40
0.5
 40
0.5
 40
0.625
 40
0.625
 40
0.75
 40
0.75
 40
0.875
 40
0.875
 40
1.0
 40
1.0
 40
1.0
 40
1.0
 10
468.0889149138288
 20
338.4763549332394
 30
0.0
 10
468.3084596411217
 20
338.4763549332394
 30
0.0
 10
468.5243216692985
 20
338.4654255627797
 30
0.0
 10
468.9490100353346
 20
338.4229943782925
 30
0.0
 10
469.1597086168477
 20
338.3909773852905
 30
0.0
 10
469.5586867240639
 20
338.3095116630517
 30
0.0
 10
469.7483625446798
 20
338.2601254549229
 30
0.0
 10
470.1082743132931
 20
338.1454927135018
 30
0.0
 10
470.2749716993659
 20
338.0812809544293
 30
0.0
 10
470.5781326578613
 20
337.9430503183182
 30
0.0
 10
470.7166082037086
 20
337.8679302328445
 30
0.0
 10
470.9565242609054
 20
337.7128901034744
 30
0.0
 10
471.0583377378879
 20
337.6331066567828
 30
0.0
 10
471.2253783997862
 20
337.4701361718025
 30
0.0
 10
471.2903553231731
 20
337.386593746819
 30
0.0
 10
471.3765361691677
 20
337.2236214712751
 30
0.0
 10
471.3988149138288
 20
337.1433476697125
 30
0.0
 10
471.3988149138287
 20
337.064449171635
 30
0.0
  0
LINE
  5
C2
330
1F
100
AcDbEntity
  8
0
  6
Continuous
 62
     8
370
     0
100
AcDbLine
 10
463.7559549138
 20
338.4763549332
 30
0.0
 11
468.0889149138
 21
338.4763549332
 31
0.0
  0
SPLINE
  5
C3
330
1F
100
AcDbEntity
  8
0
  6
Continuous
 62
     8
370
     0
100
AcDbSpline
210
0.0
220
0.0
230
1.0
 70
     8
 71
     3
 72
    22
 73
    18
 74
     0
 42
0.00000001
 43
0.00000001
 40
0.0
 40
0.0
 40
0.0
 40
0.0
 40
0.125
 40
0.125
 40
0.25
 40
0.25
 40
0.375
 40
0.375
 40
0.5
 40
0.5
 40
0.625
 40
0.625
 40
0.75
 40
0.75
 40
0.875
 40
0.875
 40
1.0
 40
1.0
 40
1.0
 40
1.0
 10
460.4460549138288
 20
337.064449171635
 30
0.0
 10
460.4460549138288
 20
337.1435012281744
 30
0.0
 10
460.4684143023339
 20
337.2237419109316
 30
0.0
 10
460.5543262301156
 20
337.386269732341
 30
0.0
 10
460.6186819069411
 20
337.4692938314317
 30
0.0
 10
460.7866814354405
 20
337.6333047019648
 30
0.0
 10
460.8887312844637
 20
337.7131233847626
 30
0.0
 10
461.1274679165556
 20
337.8674332705028
 30
0.0
 10
461.2660195927284
 20
337.9427168276162
 30
0.0
 10
461.5703740076283
 20
338.0815042345434
 30
0.0
 10
461.7354249363378
 20
338.1449908425136
 30
0.0
 10
462.0914075261766
 20
338.2586279571841
 30
0.0
 10
462.2848444809691
 20
338.3091905587474
 30
0.0
 10
462.683848617566
 20
338.3907568321929
 30
0.0
 10
462.8899487992323
 20
338.4222199899843
 30
0.0
 10
463.3156966696235
 20
338.4651200689921
 30
0.0
 10
463.5359696966591
 20
338.4763549332394
 30
0.0
 10
463.7559549138288
 20
338.4763549332394
 30
0.0
  0
LINE
  5
C4
330
1F
100
AcDbEntity
  8
0
  6
Continuous
 62
     8
370
     0
100
AcDbLine
 10
460.4460549138
 20
335.3892694791
 30
0.0
 11
460.4460549138
 21
337.0644491716
 31
0.0
  0
LINE
  5
C5
330
1F
100
AcDbEntity
  8
0
  6
Continuous
 62
     8
370
     0
100
AcDbLine
 10
471.3988149138
 20
337.0644491716
 30
0.0
 11
471.3988149138
 21
335.3892694791
 31
0.0
  0
SPLINE
  5
C6
330
1F
100
AcDbEntity
  8
0
  6
Continuous
 62
     8
370
    15
100
AcDbSpline
210
0.0
220
0.0
230
1.0
 70
     8
 71
     3
 72
    16
 73
    12
 74
     0
 42
0.00000001
 43
0.00000001
 40
0.0
 40
0.0
 40
0.0
 40
0.0
 40
0.1250000000000043
 40
0.1250000000000043
 40
0.2500000000000085
 40
0.2500000000000085
 40
0.5000000000000057
 40
0.5000000000000057
 40
0.7500000000000029
 40
0.7500000000000029
 40
1.0
 40
1.0
 40
1.0
 40
1.0
 10
463.7559549138288
 20
336.5414184532001
 30
0.0
 10
463.6553358179229
 20
336.5414184532001
 30
0.0
 10
463.5568926697905
 20
336.5178240414007
 30
0.0
 10
463.381081074423
 20
336.4408163082753
 30
0.0
 10
463.3010598411599
 20
336.3870470812981
 30
0.0
 10
463.0909242036186
 20
336.2073986501651
 30
0.0
 10
462.9872047333111
 20
336.0657458371608
 30
0.0
 10
462.8198606259821
 20
335.7694235739498
 30
0.0
 10
462.7589298774582
 20
335.6164971077259
 30
0.0
 10
462.6748909525287
 20
335.3081914415802
 30
0.0
 10
462.6526549138288
 20
335.1555923300378
 30
0.0
 10
462.6526549138288
 20
335.0052649845744
 30
0.0
  0
SPLINE
  5
C7
330
1F
100
AcDbEntity
  8
0
  6
Continuous
 62
     8
370
    15
100
AcDbSpline
210
0.0
220
0.0
230
1.0
 70
     8
 71
     3
 72
    18
 73
    14
 74
     0
 42
0.00000001
 43
0.00000001
 40
0.0
 40
0.0
 40
0.0
 40
0.0
 40
0.25
 40
0.25
 40
0.5
 40
0.5
 40
0.625
 40
0.625
 40
0.75
 40
0.75
 40
0.875
 40
0.875
 40
1.0
 40
1.0
 40
1.0
 40
1.0
 10
469.1922149138287
 20
335.0052649845744
 30
0.0
 10
469.1922149138287
 20
335.155515151117
 30
0.0
 10
469.1698648592919
 20
335.3087607770996
 30
0.0
 10
469.0857952197739
 20
335.6168765443232
 30
0.0
 10
469.0246667805693
 20
335.77017884228
 30
0.0
 10
468.8990751805396
 20
335.9923445018816
 30
0.0
 10
468.8518509984212
 20
336.0643819077888
 30
0.0
 10
468.743507785456
 20
336.2025750012261
 30
0.0
 10
468.6818645931659
 20
336.2691913922936
 30
0.0
 10
468.5433316458792
 20
336.3872834408836
 30
0.0
 10
468.4647954250208
 20
336.4403134696785
 30
0.0
 10
468.2878417888068
 20
336.5179449341848
 30
0.0
 10
468.1895087495313
 20
336.5414184532001
 30
0.0
 10
468.0889149138288
 20
336.5414184532001
 30
0.0
  0
LINE
  5
C8
330
1F
100
AcDbEntity
  8
0
  6
Continuous
 62
     8
370
    15
100
AcDbLine
 10
468.0889149138
 20
336.5414184532
 30
0.0
 11
463.7559549138
 21
336.5414184532
 31
0.0
  0
LINE
  5
C9
330
1F
100
AcDbEntity
  8
0
  6
Continuous
 62
     8
370
     0
100
AcDbLine
 10
447.7258913207
 20
335.4619529037
 30
0.0
 11
447.7258913207
 21
335.3898964628
 31
0.0
  0
LINE
  5
CA
330
1F
100
AcDbEntity
  8
0
  6
Continuous
 62
     8
370
     0
100
AcDbLine
 10
451.3409385069
 20
335.3898964628
 30
0.0
 11
451.3409385069
 21
335.4619529037
 31
0.0
  0
LINE
  5
CB
330
1F
100
AcDbEntity
  8
0
  6
Continuous
 62
     7
370
    15
100
AcDbLine
 10
132.3963242435
 20
197.3292583718
 30
0.0
 11
132.6392921092
 21
188.0506899223
 31
0.0
  0
LINE
  5
CC
330
1F
100
AcDbEntity
  8
0
  6
Continuous
 62
     7
370
    15
100
AcDbLine
 10
303.1648563778
 20
188.0506899223
 30
0.0
 11
303.4078242435
 21
197.3292583718
 31
0.0
  0
ARC
  5
CD
330
1F
100
AcDbEntity
  8
0
  6
Continuous
 62
     7
370
    15
100
AcDbCircle
 10
301.7611375621
 20
188.0874475931
 30
0.0
 40
1.404200000000054
100
AcDbArc
 50
279.653305255
 51
358.5
  0
ARC
  5
CE
330
1F
100
AcDbEntity
  8
0
  6
Continuous
 62
     7
370
    15
100
AcDbCircle
 10
134.043010925
 20
188.0874475931
 30
0.0
 40
1.404200000000049
100
AcDbArc
 50
181.5
 51
260.346694745
  0
ARC
  5
CF
330
1F
100
AcDbEntity
  8
0
  6
Continuous
 62
     7
370
    15
100
AcDbCircle
 10
217.9020742435
 20
681.102119461
 30
0.0
 40
501.4999999999999
100
AcDbArc
 50
260.346694745
 51
267.1913821231
  0
ARC
  5
D0
330
1F
100
AcDbEntity
  8
0
  6
Continuous
 62
     7
370
    15
100
AcDbCircle
 10
217.9020742435
 20
681.102119461
 30
0.0
 40
501.4999999999999
100
AcDbArc
 50
272.8086178769
 51
279.653305255
  0
LINE
  5
D1
330
1F
100
AcDbEntity
  8
0
  6
Continuous
 62
     7
370
    15
100
AcDbLine
 10
242.9770742435
 20
111.4637031666
 30
0.0
 11
242.9770742435
 21
147.8644272772
 31
0.0
  0
LINE
  5
D2
330
1F
100
AcDbEntity
  8
0
  6
Continuous
 62
     7
370
    15
100
AcDbLine
 10
192.8270742435
 20
147.86517375
 30
0.0
 11
192.8270742435
 21
111.4637031666
 31
0.0
  0
ARC
  5
D3
330
1F
100
AcDbEntity
  8
0
  6
Continuous
 62
     7
370
    15
100
AcDbCircle
 10
241.4725742435
 20
111.4637031666
 30
0.0
 40
1.504500000000036
100
AcDbArc
 50
270.0
 51
0.0
  0
ARC
  5
D4
330
1F
100
AcDbEntity
  8
0
  6
Continuous
 62
     7
370
    15
100
AcDbCircle
 10
194.3315742435
 20
111.4637031666
 30
0.0
 40
1.504500000000021
100
AcDbArc
 50
180.0
 51
270.0
  0
LINE
  5
D5
330
1F
100
AcDbEntity
  8
0
  6
Continuous
 62
     7
370
    15
100
AcDbLine
 10
242.4755742435
 20
152.9626752849
 30
0.0
 11
242.4755742435
 21
180.4245473116
 31
0.0
  0
LINE
  5
D6
330
1F
100
AcDbEntity
  8
0
  6
Continuous
 62
     7
370
    15
100
AcDbLine
 10
193.3285742435
 20
180.4245503101
 30
0.0
 11
193.3285742435
 21
152.9626752849
 31
0.0
  0
ARC
  5
D7
330
1F
100
AcDbEntity
  8
0
  6
Continuous
 62
     7
370
    15
100
AcDbCircle
 10
217.9020742435
 20
152.9626752849
 30
0.0
 40
24.57350000000002
100
AcDbArc
 50
180.0
 51
191.8541107229
  0
ARC
  5
D8
330
1F
100
AcDbEntity
  8
0
  6
Continuous
 62
     7
370
    15
100
AcDbCircle
 10
217.9020742435
 20
152.9626752849
 30
0.0
 40
24.5735
100
AcDbArc
 50
348.2298701218
 51
0.0
  0
LINE
  5
D9
330
1F
100
AcDbEntity
  8
0
  6
Continuous
 62
     7
370
    15
100
AcDbLine
 10
303.4078242435
 20
197.3292583718
 30
0.0
 11
132.3963242435
 21
197.3292583718
 31
0.0
  0
SPLINE
  5
DA
330
1F
100
AcDbEntity
  8
0
  6
Continuous
 62
     7
370
    15
100
AcDbSpline
210
0.0
220
0.0
230
1.0
 70
     8
 71
     3
 72
    15
 73
    11
 74
     0
 42
0.00000001
 43
0.00000001
 40
0.0
 40
0.0
 40
0.0
 40
0.0
 40
0.2114016335635237
 40
0.3198693138031528
 40
0.4291347700238455
 40
0.5349427320054105
 40
0.748994205452104
 40
0.8582567447061052
 40
0.9640901447935711
 40
1.0
 40
1.0
 40
1.0
 40
1.0
 10
200.5409377800484
 20
180.940427460762
 30
0.0
 10
199.6208262571292
 20
180.9105378844928
 30
0.0
 10
198.2286163839255
 20
180.8653123198179
 30
0.0
 10
196.7320024426188
 20
180.7962048716808
 30
0.0
 10
195.744815741958
 20
180.7417425321813
 30
0.0
 10
194.6514619803468
 20
180.6664260736347
 30
0.0
 10
193.8746791487733
 20
180.5872974429618
 30
0.0
 10
193.4617807409176
 20
180.5062933043935
 30
0.0
 10
193.3216291783061
 20
180.4584461625998
 30
0.0
 10
193.3425315507738
 20
180.4314018375388
 30
0.0
 10
193.3478270490832
 20
180.424550310141
 30
0.0
  0
SPLINE
  5
DB
330
1F
100
AcDbEntity
  8
0
  6
Continuous
 62
     7
370
    15
100
AcDbSpline
210
0.0
220
0.0
230
1.0
 70
     8
 71
     3
 72
    30
 73
    26
 74
     0
 42
0.00000001
 43
0.00000001
 40
0.0
 40
0.0
 40
0.0
 40
0.0
 40
0.0148175273251279
 40
0.051301627773134
 40
0.1043025503919841
 40
0.1581505948688342
 40
0.1946420642706457
 40
0.2299755737425455
 40
0.2655563240361082
 40
0.3015200766112155
 40
0.3380085344870908
 40
0.3733301097032595
 40
0.4447872199325835
 40
0.4812635800317701
 40
0.5165699814027574
 40
0.5879962932849121
 40
0.6244567727825032
 40
0.6597514321536779
 40
0.731153676926226
 40
0.7676014754672444
 40
0.8028929865613623
 40
0.8742884760177079
 40
0.9107323687135503
 40
0.9551191082242824
 40
1.0
 40
1.0
 40
1.0
 40
1.0
 10
242.4542483693546
 20
180.4245473115684
 30
0.0
 10
242.4594088300758
 20
180.4330168639108
 30
0.0
 10
242.477275511152
 20
180.4623403679028
 30
0.0
 10
242.2917192084581
 20
180.5218490670833
 30
0.0
 10
241.8005754621406
 20
180.6026333456624
 30
0.0
 10
240.9540955275857
 20
180.6809311920564
 30
0.0
 10
239.9760877334384
 20
180.7467658046289
 30
0.0
 10
238.9823120814192
 20
180.8007448284999
 30
0.0
 10
237.8460518012372
 20
180.8518323018662
 30
0.0
 10
236.5551097311923
 20
180.9004291908053
 30
0.0
 10
235.1324767896601
 20
180.9454884059111
 30
0.0
 10
233.0786956441934
 20
181.0004215158972
 30
0.0
 10
230.798097900033
 20
181.0474980476323
 30
0.0
 10
228.3461308519263
 20
181.0854266641866
 30
0.0
 10
225.7959471076767
 20
181.1170828580433
 30
0.0
 10
223.1198568862848
 20
181.1390889063202
 30
0.0
 10
220.3840842245091
 20
181.1507826828353
 30
0.0
 10
217.6255368760792
 20
181.1555941861292
 30
0.0
 10
214.8558420500904
 20
181.1500650145497
 30
0.0
 10
212.1446011882894
 20
181.1342260708086
 30
0.0
 10
209.4885282503056
 20
181.1116648274184
 30
0.0
 10
206.9356646243702
 20
181.0792750652865
 30
0.0
 10
204.4057313017049
 20
181.0349926600865
 30
0.0
 10
202.4279472384925
 20
180.9930303771096
 30
0.0
 10
201.1722579418436
 20
180.9580263559402
 30
0.0
 10
200.5409377800485
 20
180.940427460762
 30
0.0
  0
SPLINE
  5
DC
330
1F
100
AcDbEntity
  8
0
  6
Continuous
 62
     7
370
    15
100
AcDbSpline
210
0.0
220
0.0
230
1.0
 70
     8
 71
     3
 72
    13
 73
     9
 74
     0
 42
0.00000001
 43
0.00000001
 40
0.0
 40
0.0
 40
0.0
 40
0.0
 40
0.1683819427379979
 40
0.3371118575625002
 40
0.5062068798137199
 40
0.6109512730801931
 40
0.8209522426889875
 40
1.0
 40
1.0
 40
1.0
 40
1.0
 10
194.4732857423816
 20
146.4862131780099
 30
0.0
 10
194.3010249165829
 20
146.6003294259435
 30
0.0
 10
193.9561472769383
 20
146.8287977503576
 30
0.0
 10
193.5472598455309
 20
147.125190643527
 30
0.0
 10
193.2622270241461
 20
147.351018001412
 30
0.0
 10
193.025803584384
 20
147.5623081542589
 30
0.0
 10
192.8574955753652
 20
147.7429442600339
 30
0.0
 10
192.843258996632
 20
147.8266505119928
 30
0.0
 10
192.8367070474349
 20
147.8651737499553
 30
0.0
  0
SPLINE
  5
DD
330
1F
100
AcDbEntity
  8
0
  6
Continuous
 62
     7
370
    15
100
AcDbSpline
210
0.0
220
0.0
230
1.0
 70
     8
 71
     3
 72
     9
 73
     5
 74
     0
 42
0.00000001
 43
0.00000001
 40
0.0
 40
0.0
 40
0.0
 40
0.0
 40
0.9261886094409097
 40
1.0
 40
1.0
 40
1.0
 40
1.0
 10
192.8287824815694
 20
147.887849621818
 30
0.0
 10
192.8441527020805
 20
147.921827260571
 30
0.0
 10
192.8607478322241
 20
147.9585127028304
 30
0.0
 10
192.939040897304
 20
147.9645261360769
 30
0.0
 10
192.9448198173087
 20
147.9649699959468
 30
0.0
  0
SPLINE
  5
DE
330
1F
100
AcDbEntity
  8
0
  6
Continuous
 62
     7
370
    15
100
AcDbSpline
210
0.0
220
0.0
230
1.0
 70
     8
 71
     3
 72
    12
 73
     8
 74
     0
 42
0.00000001
 43
0.00000001
 40
0.0
 40
0.0
 40
0.0
 40
0.0
 40
0.2499999999999999
 40
0.2499999999999999
 40
0.4999999999999998
 40
0.4999999999999998
 40
1.0
 40
1.0
 40
1.0
 40
1.0
 10
242.7693371853792
 20
147.9729031666141
 30
0.0
 10
242.9039583084787
 20
147.9729031666141
 30
0.0
 10
242.9726999773577
 20
147.9408181356838
 30
0.0
 10
242.9810456020372
 20
147.8117993715131
 30
0.0
 10
242.9194604640916
 20
147.7139765148247
 30
0.0
 10
242.5484083733237
 20
147.3320247611133
 30
0.0
 10
242.0578556957422
 20
146.9595603451419
 30
0.0
 10
241.3308627446822
 20
146.4862131780099
 30
0.0
  0
LINE
  5
DF
330
1F
100
AcDbEntity
  8
0
  6
Continuous
 62
     7
370
    15
100
AcDbLine
 10
194.3315742435
 20
109.9592031666
 30
0.0
 11
241.4725742435
 21
109.9592031666
 31
0.0
  0
SPLINE
  5
E0
330
1F
100
AcDbEntity
  8
0
  6
Continuous
 62
     7
370
    15
100
AcDbSpline
210
0.0
220
0.0
230
1.0
 70
     8
 71
     3
 72
    35
 73
    31
 74
     0
 42
0.00000001
 43
0.00000001
 40
0.0
 40
0.0
 40
0.0
 40
0.0
 40
0.0490229104102578
 40
0.0750305215534689
 40
0.0976232397817621
 40
0.1433404374921011
 40
0.1664611523926353
 40
0.1918605335998878
 40
0.2432411531774692
 40
0.2692706197623053
 40
0.3239291674937849
 40
0.3519741913464959
 40
0.3802256276339394
 40
0.4350630703200425
 40
0.4628975239839399
 40
0.4911377570277954
 40
0.5459760992061624
 40
0.5738110393167566
 40
0.6020517815706041
 40
0.656889697967176
 40
0.6847243786527176
 40
0.7129648500285302
 40
0.7678033508291687
 40
0.7956383248462677
 40
0.8238788467941436
 40
0.8785380417458815
 40
0.9066324603269473
 40
0.9350119090486047
 40
0.9605069879818822
 40
1.0
 40
1.0
 40
1.0
 40
1.0
 10
241.9480329617173
 20
147.9513305979372
 30
0.0
 10
241.8809913138458
 20
147.8487901797655
 30
0.0
 10
241.7783827627928
 20
147.6918500676559
 30
0.0
 10
241.2298762155448
 20
147.3108536050023
 30
0.0
 10
240.5408882299375
 20
146.8862130446827
 30
0.0
 10
239.6252321277827
 20
146.3694270282245
 30
0.0
 10
238.4726294271813
 20
145.8780498243608
 30
0.0
 10
237.0963600509177
 20
145.3770510367838
 30
0.0
 10
235.4393648273692
 20
144.9068715718126
 30
0.0
 10
233.0460550966625
 20
144.3693424056227
 30
0.0
 10
230.8587095546416
 20
143.987496017363
 30
0.0
 10
228.4558421037148
 20
143.6709888603551
 30
0.0
 10
225.9475728895428
 20
143.4055213211559
 30
0.0
 10
223.3161167012233
 20
143.2193884285637
 30
0.0
 10
220.6226140831516
 20
143.1161869959213
 30
0.0
 10
217.902970922756
 20
143.0694626371012
 30
0.0
 10
215.1688427340209
 20
143.1073804316535
 30
0.0
 10
212.4878364701492
 20
143.2285939111092
 30
0.0
 10
209.8584434924632
 20
143.4052360045766
 30
0.0
 10
207.32966998105
 20
143.6630432244252
 30
0.0
 10
204.9634763380842
 20
143.9952183114297
 30
0.0
 10
202.7207763662287
 20
144.3754878898573
 30
0.0
 10
200.6824637311339
 20
144.823784640436
 30
0.0
 10
198.8977966121552
 20
145.3296807142
 30
0.0
 10
197.297377270121
 20
145.8679983667841
 30
0.0
 10
195.9759432401962
 20
146.4738269856512
 30
0.0
 10
194.9755608448399
 20
147.0596889678091
 30
0.0
 10
194.4256214914444
 20
147.4092921892897
 30
0.0
 10
193.9660783708436
 20
147.7483289172931
 30
0.0
 10
193.9277905701216
 20
147.8615748150329
 30
0.0
 10
193.9045232214132
 20
147.9303939099619
 30
0.0
  0
SPLINE
  5
E1
330
1F
100
AcDbEntity
  8
0
  6
Continuous
 62
     7
370
    15
100
AcDbSpline
210
0.0
220
0.0
230
1.0
 70
     8
 71
     3
 72
    12
 73
     8
 74
     0
 42
0.00000001
 43
0.00000001
 40
0.0
 40
0.0
 40
0.0
 40
0.0
 40
0.5000000000000001
 40
0.5000000000000001
 40
0.75
 40
0.75
 40
1.0
 40
1.0
 40
1.0
 40
1.0
 10
241.2371475906776
 20
146.5835338393554
 30
0.0
 10
241.9612569191166
 20
147.0578455473955
 30
0.0
 10
242.4498351977444
 20
147.4310513527223
 30
0.0
 10
242.8193916565545
 20
147.8137592256212
 30
0.0
 10
242.880728487681
 20
147.9117745461493
 30
0.0
 10
242.8724189569045
 20
148.0410518649221
 30
0.0
 10
242.803954874159
 20
148.0732031666141
 30
0.0
 10
242.6698681336118
 20
148.0732031666141
 30
0.0
  0
SPLINE
  5
E2
330
1F
100
AcDbEntity
  8
0
  6
Continuous
 62
     7
370
     0
100
AcDbSpline
210
0.0
220
0.0
230
1.0
 70
     8
 71
     3
 72
    12
 73
     8
 74
     0
 42
0.00000001
 43
0.00000001
 40
0.0
 40
0.0
 40
0.0
 40
0.0
 40
0.4999999999999999
 40
0.4999999999999999
 40
0.7499999999999999
 40
0.7499999999999999
 40
1.0
 40
1.0
 40
1.0
 40
1.0
 10
193.1342803534522
 20
148.0732031666141
 30
0.0
 10
192.8660367478293
 20
148.0732031666141
 30
0.0
 10
192.8599629354429
 20
147.9449188965096
 30
0.0
 10
193.2242402215416
 20
147.564820916948
 30
0.0
 10
193.4103306473375
 20
147.405612587434
 30
0.0
 10
193.9005817910088
 20
147.0337730028042
 30
0.0
 10
194.204735735386
 20
146.8208275746091
 30
0.0
 10
194.5670008963862
 20
146.5835338393553
 30
0.0
  0
LINE
  5
E3
330
1F
100
AcDbEntity
  8
0
  6
Continuous
 62
     7
370
    15
100
AcDbLine
 10
193.1342803535
 20
148.0732031666
 30
0.0
 11
193.8199239107
 21
148.0732031666
 31
0.0
  0
LINE
  5
E4
330
1F
100
AcDbEntity
  8
0
  6
Continuous
 62
     7
370
    15
100
AcDbLine
 10
241.9842245764
 20
148.0732031666
 30
0.0
 11
242.6698681336
 21
148.0732031666
 31
0.0
  0
LINE
  5
E5
330
1F
100
AcDbEntity
  8
0
  6
Continuous
 62
     8
370
     0
100
AcDbLine
 10
303.1648563778
 20
188.0506899223
 30
0.0
 11
132.6392921092
 21
188.0506899223
 31
0.0
  0
LINE
  5
E6
330
1F
100
AcDbEntity
  8
0
  6
Continuous
 62
     8
370
     0
100
AcDbLine
 10
301.9966022405
 20
186.7031304238
 30
0.0
 11
133.8075462466
 21
186.7031304238
 31
0.0
  0
ELLIPSE
  5
E7
330
1F
100
AcDbEntity
  8
0
  6
Continuous
 62
     8
370
    15
100
AcDbEllipse
 10
217.9020742435
 20
148.7052322909
 30
0.0
 11
25.07500000000002
 21
5.684341886080801E-14
 31
0.0
210
0.0
220
0.0
230
1.0
 40
0.2483306908
 41
3.505962539284683
 42
5.918815421484775
  0
ELLIPSE
  5
E8
330
1F
100
AcDbEntity
  8
0
  6
Continuous
 62
     8
370
     0
100
AcDbEllipse
 10
217.9020742435
 20
148.8025529522
 30
0.0
 11
24.97470000000001
 21
5.684341886080801E-14
 31
0.0
210
0.0
220
0.0
230
1.0
 40
0.2493280028
 41
3.505962539284683
 42
5.918815421484776
  0
ARC
  5
E9
330
1F
100
AcDbEntity
  8
0
  6
Continuous
 62
     8
370
     0
100
AcDbCircle
 10
241.2247650307
 20
146.4778280829
 30
0.0
 40
0.1064285428948658
100
AcDbArc
 50
4.5187970032
 51
83.3187202183
  0
ARC
  5
EA
330
1F
100
AcDbEntity
  8
0
  6
Continuous
 62
     8
370
     0
100
AcDbCircle
 10
194.5793834564
 20
146.4778280829
 30
0.0
 40
0.1064285428949575
100
AcDbArc
 50
96.6812797817
 51
175.4812029967
  0
ENDSEC
  0
SECTION
  2
OBJECTS
  0
DICTIONARY
  5
C
330
0
100
AcDbDictionary
281
     1
  3
ACAD_GROUP
350
D
  3
ACAD_LAYOUT
350
1A
  3
ACAD_MATERIAL
350
3B
  3
ACAD_MLEADERSTYLE
350
EC
  3
ACAD_MLINESTYLE
350
17
  3
ACAD_PLOTSETTINGS
350
19
  3
ACAD_PLOTSTYLENAME
350
E
  3
ACAD_TABLESTYLE
350
EB
  3
ACAD_VISUALSTYLE
350
2A
  0
DICTIONARY
  5
D
102
{ACAD_REACTORS
330
C
102
}
330
C
100
AcDbDictionary
281
     1
  0
DICTIONARY
  5
1A
102
{ACAD_REACTORS
330
C
102
}
330
C
100
AcDbDictionary
281
     1
  3
Layout1
350
1E
  3
Layout2
350
26
  3
Model
350
22
  0
DICTIONARY
  5
3B
102
{ACAD_REACTORS
330
C
102
}
330
C
100
AcDbDictionary
281
     1
  3
ByBlock
350
3D
  3
ByLayer
350
3C
  3
Global
350
3E
  0
DICTIONARY
  5
EC
102
{ACAD_REACTORS
330
C
102
}
330
C
100
AcDbDictionary
281
     1
  0
DICTIONARY
  5
17
102
{ACAD_REACTORS
330
C
102
}
330
C
100
AcDbDictionary
281
     1
  3
Standard
350
18
  0
DICTIONARY
  5
19
102
{ACAD_REACTORS
330
C
102
}
330
C
100
AcDbDictionary
281
     1
  0
ACDBDICTIONARYWDFLT
  5
E
102
{ACAD_REACTORS
330
C
102
}
330
C
100
AcDbDictionary
281
     1
  3
Normal
350
F
100
AcDbDictionaryWithDefault
340
F
  0
DICTIONARY
  5
EB
102
{ACAD_REACTORS
330
C
102
}
330
C
100
AcDbDictionary
281
     1
  0
DICTIONARY
  5
2A
102
{ACAD_REACTORS
330
C
102
}
330
C
100
AcDbDictionary
281
     1
  3
2dWireframe
350
2F
  3
3D Hidden
350
31
  3
3dWireframe
350
30
  3
Basic
350
32
  3
Brighten
350
36
  3
ColorChange
350
3A
  3
Conceptual
350
34
  3
Dim
350
35
  3
Facepattern
350
39
  3
Flat
350
2B
  3
FlatWithEdges
350
2C
  3
Gouraud
350
2D
  3
GouraudWithEdges
350
2E
  3
Linepattern
350
38
  3
Realistic
350
33
  3
Thicken
350
37
  0
LAYOUT
  5
1E
102
{ACAD_REACTORS
330
1A
102
}
330
1A
100
AcDbPlotSettings
  1

  2
none_device
  4

  6

 40
0.0
 41
0.0
 42
0.0
 43
0.0
 44
0.0
 45
0.0
 46
0.0
 47
0.0
 48
0.0
 49
0.0
140
0.0
141
0.0
142
1.0
143
1.0
 70
   688
 72
     0
 73
     0
 74
     5
  7

 75
    16
 76
     0
 77
     2
 78
   300
147
1.0
148
0.0
149
0.0
100
AcDbLayout
  1
Layout1
 70
     1
 71
     1
 10
0.0
 20
0.0
 11
420.0
 21
297.0
 12
0.0
 22
0.0
 32
0.0
 14
1.0000000000E+20
 24
1.0000000000E+20
 34
1.0000000000E+20
 15
-1.0000000000E+20
 25
-1.0000000000E+20
 35
-1.0000000000E+20
146
0.0
 13
0.0
 23
0.0
 33
0.0
 16
1.0
 26
0.0
 36
0.0
 17
0.0
 27
1.0
 37
0.0
 76
     0
330
1B
  0
LAYOUT
  5
26
102
{ACAD_REACTORS
330
1A
102
}
330
1A
100
AcDbPlotSettings
  1

  2
none_device
  4

  6

 40
0.0
 41
0.0
 42
0.0
 43
0.0
 44
0.0
 45
0.0
 46
0.0
 47
0.0
 48
0.0
 49
0.0
140
0.0
141
0.0
142
1.0
143
1.0
 70
   688
 72
     0
 73
     0
 74
     5
  7

 75
    16
 76
     0
 77
     2
 78
   300
147
1.0
148
0.0
149
0.0
100
AcDbLayout
  1
Layout2
 70
     1
 71
     2
 10
0.0
 20
0.0
 11
0.0
 21
0.0
 12
0.0
 22
0.0
 32
0.0
 14
0.0
 24
0.0
 34
0.0
 15
0.0
 25
0.0
 35
0.0
146
0.0
 13
0.0
 23
0.0
 33
0.0
 16
1.0
 26
0.0
 36
0.0
 17
0.0
 27
1.0
 37
0.0
 76
     0
330
23
  0
LAYOUT
  5
22
102
{ACAD_REACTORS
330
1A
102
}
330
1A
100
AcDbPlotSettings
  1

  2
none_device
  4

  6

 40
0.0
 41
0.0
 42
0.0
 43
0.0
 44
0.0
 45
0.0
 46
0.0
 47
0.0
 48
0.0
 49
0.0
140
0.0
141
0.0
142
1.0
143
1.0
 70
  1712
 72
     0
 73
     0
 74
     0
  7

 75
     0
 76
     0
 77
     2
 78
   300
147
1.0
148
0.0
149
0.0
100
AcDbLayout
  1
Model
 70
     1
 71
     0
 10
0.0
 20
0.0
 11
594.0
 21
841.0
 12
0.0
 22
0.0
 32
0.0
 14
0.0
 24
0.0
 34
0.0
 15
594.0
 25
841.0
 35
0.0
146
0.0
 13
0.0
 23
0.0
 33
0.0
 16
1.0
 26
0.0
 36
0.0
 17
0.0
 27
1.0
 37
0.0
 76
     0
330
1F
331
29
  0
MATERIAL
  5
3D
102
{ACAD_REACTORS
330
3B
102
}
330
3B
100
AcDbMaterial
  1
ByBlock
 72
     1
 94
      127
  0
MATERIAL
  5
3C
102
{ACAD_REACTORS
330
3B
102
}
330
3B
100
AcDbMaterial
  1
ByLayer
 72
     1
 94
      127
  0
MATERIAL
  5
3E
102
{ACAD_REACTORS
330
3B
102
}
330
3B
100
AcDbMaterial
  1
Global
 72
     1
 94
      127
  0
MLINESTYLE
  5
18
102
{ACAD_REACTORS
330
17
102
}
330
17
100
AcDbMlineStyle
  2
Standard
 70
     0
  3

 62
   256
 51
90.0
 52
90.0
 71
     2
 49
0.5
 62
   256
  6
BYLAYER
 49
-0.5
 62
   256
  6
BYLAYER
  0
ACDBPLACEHOLDER
  5
F
102
{ACAD_REACTORS
330
E
102
}
330
E
  0
VISUALSTYLE
  5
2F
102
{ACAD_REACTORS
330
2A
102
}
330
2A
100
AcDbVisualStyle
  2
2dWireframe
 70
     4
177
     2
291
     0
 71
     0
176
     1
 72
     2
176
     1
 73
     0
176
     1
 90
        0
176
     1
 40
-0.6
176
     1
 41
-30.0
176
     1
 62
     5
 63
     7
421
 16777215
176
     1
 74
     1
176
     1
 91
        4
176
     1
 64
     7
176
     1
 65
   257
176
     1
 75
     1
176
     1
175
     1
176
     1
 42
1.0
176
     1
 92
        0
176
     1
 66
   257
176
     1
 43
1.0
176
     1
 76
     1
176
     1
 77
     6
176
     1
 78
     2
176
     1
 67
     7
176
     1
 79
     5
176
     1
170
     0
176
     1
171
     0
176
     1
290
     0
176
     1
 93
        1
176
     1
 44
0.0
176
     1
173
     0
176
     1
  0
VISUALSTYLE
  5
31
102
{ACAD_REACTORS
330
2A
102
}
330
2A
100
AcDbVisualStyle
  2
3D Hidden
 70
     6
177
     2
291
     0
 71
     1
176
     1
 72
     2
176
     1
 73
     2
176
     1
 90
        0
176
     1
 40
-0.6
176
     1
 41
-30.0
176
     1
 62
     5
 63
     7
421
 16777215
176
     1
 74
     2
176
     1
 91
        2
176
     1
 64
     7
176
     1
 65
   257
176
     1
 75
     2
176
     1
175
     1
176
     1
 42
40.0
176
     1
 92
        0
176
     1
 66
   257
176
     1
 43
1.0
176
     1
 76
     1
176
     1
 77
     6
176
     1
 78
     2
176
     1
 67
     7
176
     1
 79
     3
176
     1
170
     0
176
     1
171
     0
176
     1
290
     0
176
     1
 93
        1
176
     1
 44
0.0
176
     1
173
     0
176
     1
  0
VISUALSTYLE
  5
30
102
{ACAD_REACTORS
330
2A
102
}
330
2A
100
AcDbVisualStyle
  2
3dWireframe
 70
     5
177
     2
291
     0
 71
     0
176
     1
 72
     2
176
     1
 73
     0
176
     1
 90
        0
176
     1
 40
-0.6
176
     1
 41
-30.0
176
     1
 62
     5
 63
     7
421
 16777215
176
     1
 74
     1
176
     1
 91
        4
176
     1
 64
     7
176
     1
 65
   257
176
     1
 75
     1
176
     1
175
     1
176
     1
 42
1.0
176
     1
 92
        0
176
     1
 66
   257
176
     1
 43
1.0
176
     1
 76
     1
176
     1
 77
     6
176
     1
 78
     2
176
     1
 67
     7
176
     1
 79
     5
176
     1
170
     0
176
     1
171
     0
176
     1
290
     0
176
     1
 93
        1
176
     1
 44
0.0
176
     1
173
     0
176
     1
  0
VISUALSTYLE
  5
32
102
{ACAD_REACTORS
330
2A
102
}
330
2A
100
AcDbVisualStyle
  2
Basic
 70
     7
177
     2
291
     1
 71
     1
176
     1
 72
     0
176
     1
 73
     1
176
     1
 90
        0
176
     1
 40
-0.6
176
     1
 41
-30.0
176
     1
 62
     5
 63
     7
421
 16777215
176
     1
 74
     0
176
     1
 91
        4
176
     1
 64
     7
176
     1
 65
   257
176
     1
 75
     1
176
     1
175
     1
176
     1
 42
1.0
176
     1
 92
        8
176
     1
 66
     7
176
     1
 43
1.0
176
     1
 76
     1
176
     1
 77
     6
176
     1
 78
     2
176
     1
 67
     7
176
     1
 79
     5
176
     1
170
     0
176
     1
171
     0
176
     1
290
     0
176
     1
 93
        1
176
     1
 44
0.0
176
     1
173
     0
176
     1
  0
VISUALSTYLE
  5
36
102
{ACAD_REACTORS
330
2A
102
}
330
2A
100
AcDbVisualStyle
  2
Brighten
 70
    12
177
     2
291
     1
 71
     2
176
     1
 72
     2
176
     1
 73
     0
176
     1
 90
        0
176
     1
 40
-0.6
176
     1
 41
-30.0
176
     1
 62
     5
 63
     7
421
 16777215
176
     1
 74
     1
176
     1
 91
        4
176
     1
 64
     7
176
     1
 65
   257
176
     1
 75
     1
176
     1
175
     1
176
     1
 42
1.0
176
     1
 92
        8
176
     1
 66
     7
176
     1
 43
1.0
176
     1
 76
     1
176
     1
 77
     6
176
     1
 78
     2
176
     1
 67
     7
176
     1
 79
     5
176
     1
170
     0
176
     1
171
     0
176
     1
290
     0
176
     1
 93
        1
176
     1
 44
50.0
176
     1
173
     0
176
     1
  0
VISUALSTYLE
  5
3A
102
{ACAD_REACTORS
330
2A
102
}
330
2A
100
AcDbVisualStyle
  2
ColorChange
 70
    16
177
     2
291
     1
 71
     2
176
     1
 72
     2
176
     1
 73
     3
176
     1
 90
        0
176
     1
 40
-0.6
176
     1
 41
-30.0
176
     1
 62
     5
 63
     8
421
  8421504
176
     1
 74
     1
176
     1
 91
        4
176
     1
 64
     7
176
     1
 65
   257
176
     1
 75
     1
176
     1
175
     1
176
     1
 42
1.0
176
     1
 92
        8
176
     1
 66
     8
424
  8421504
176
     1
 43
1.0
176
     1
 76
     1
176
     1
 77
     6
176
     1
 78
     2
176
     1
 67
     7
176
     1
 79
     5
176
     1
170
     0
176
     1
171
     0
176
     1
290
     0
176
     1
 93
        1
176
     1
 44
0.0
176
     1
173
     0
176
     1
  0
VISUALSTYLE
  5
34
102
{ACAD_REACTORS
330
2A
102
}
330
2A
100
AcDbVisualStyle
  2
Conceptual
 70
     9
177
     2
291
     0
 71
     3
176
     1
 72
     2
176
     1
 73
     0
176
     1
 90
        0
176
     1
 40
-0.6
176
     1
 41
-30.0
176
     1
 62
     5
 63
     7
421
 16777215
176
     1
 74
     2
176
     1
 91
        2
176
     1
 64
     7
176
     1
 65
   257
176
     1
 75
     1
176
     1
175
     1
176
     1
 42
40.0
176
     1
 92
        8
176
     1
 66
     7
176
     1
 43
1.0
176
     1
 76
     1
176
     1
 77
     6
176
     1
 78
     2
176
     1
 67
     7
176
     1
 79
     3
176
     1
170
     0
176
     1
171
     0
176
     1
290
     0
176
     1
 93
        1
176
     1
 44
0.0
176
     1
173
     0
176
     1
  0
VISUALSTYLE
  5
35
102
{ACAD_REACTORS
330
2A
102
}
330
2A
100
AcDbVisualStyle
  2
Dim
 70
    11
177
     2
291
     1
 71
     2
176
     1
 72
     2
176
     1
 73
     0
176
     1
 90
        0
176
     1
 40
-0.6
176
     1
 41
-30.0
176
     1
 62
     5
 63
     7
421
 16777215
176
     1
 74
     1
176
     1
 91
        4
176
     1
 64
     7
176
     1
 65
   257
176
     1
 75
     1
176
     1
175
     1
176
     1
 42
1.0
176
     1
 92
        8
176
     1
 66
     7
176
     1
 43
1.0
176
     1
 76
     1
176
     1
 77
     6
176
     1
 78
     2
176
     1
 67
     7
176
     1
 79
     5
176
     1
170
     0
176
     1
171
     0
176
     1
290
     0
176
     1
 93
        1
176
     1
 44
-50.0
176
     1
173
     0
176
     1
  0
VISUALSTYLE
  5
39
102
{ACAD_REACTORS
330
2A
102
}
330
2A
100
AcDbVisualStyle
  2
Facepattern
 70
    15
177
     2
291
     1
 71
     2
176
     1
 72
     2
176
     1
 73
     0
176
     1
 90
        0
176
     1
 40
-0.6
176
     1
 41
-30.0
176
     1
 62
     5
 63
     7
421
 16777215
176
     1
 74
     1
176
     1
 91
        4
176
     1
 64
     7
176
     1
 65
   257
176
     1
 75
     1
176
     1
175
     1
176
     1
 42
1.0
176
     1
 92
        8
176
     1
 66
     7
176
     1
 43
1.0
176
     1
 76
     1
176
     1
 77
     6
176
     1
 78
     2
176
     1
 67
     7
176
     1
 79
     5
176
     1
170
     0
176
     1
171
     0
176
     1
290
     0
176
     1
 93
        1
176
     1
 44
0.0
176
     1
173
     0
176
     1
  0
VISUALSTYLE
  5
2B
102
{ACAD_REACTORS
330
2A
102
}
330
2A
100
AcDbVisualStyle
  2
Flat
 70
     0
177
     2
291
     1
 71
     2
176
     1
 72
     1
176
     1
 73
     1
176
     1
 90
        2
176
     1
 40
-0.6
176
     1
 41
30.0
176
     1
 62
     5
 63
     7
421
 16777215
176
     1
 74
     0
176
     1
 91
        4
176
     1
 64
     7
176
     1
 65
   257
176
     1
 75
     1
176
     1
175
     1
176
     1
 42
1.0
176
     1
 92
        8
176
     1
 66
     7
176
     1
 43
1.0
176
     1
 76
     1
176
     1
 77
     6
176
     1
 78
     2
176
     1
 67
     7
176
     1
 79
     5
176
     1
170
     0
176
     1
171
     0
176
     1
290
     0
176
     1
 93
       13
176
     1
 44
0.0
176
     1
173
     0
176
     1
  0
VISUALSTYLE
  5
2C
102
{ACAD_REACTORS
330
2A
102
}
330
2A
100
AcDbVisualStyle
  2
FlatWithEdges
 70
     1
177
     2
291
     1
 71
     2
176
     1
 72
     1
176
     1
 73
     1
176
     1
 90
        2
176
     1
 40
-0.6
176
     1
 41
30.0
176
     1
 62
     5
 63
     7
421
 16777215
176
     1
 74
     1
176
     1
 91
        4
176
     1
 64
     7
176
     1
 65
   257
176
     1
 75
     1
176
     1
175
     1
176
     1
 42
1.0
176
     1
 92
        0
176
     1
 66
   257
176
     1
 43
1.0
176
     1
 76
     1
176
     1
 77
     6
176
     1
 78
     2
176
     1
 67
     7
176
     1
 79
     5
176
     1
170
     0
176
     1
171
     0
176
     1
290
     0
176
     1
 93
       13
176
     1
 44
0.0
176
     1
173
     0
176
     1
  0
VISUALSTYLE
  5
2D
102
{ACAD_REACTORS
330
2A
102
}
330
2A
100
AcDbVisualStyle
  2
Gouraud
 70
     2
177
     2
291
     1
 71
     2
176
     1
 72
     2
176
     1
 73
     1
176
     1
 90
        2
176
     1
 40
-0.6
176
     1
 41
30.0
176
     1
 62
     5
 63
     7
421
 16777215
176
     1
 74
     0
176
     1
 91
        4
176
     1
 64
     7
176
     1
 65
   257
176
     1
 75
     1
176
     1
175
     1
176
     1
 42
1.0
176
     1
 92
        0
176
     1
 66
     7
176
     1
 43
1.0
176
     1
 76
     1
176
     1
 77
     6
176
     1
 78
     2
176
     1
 67
     7
176
     1
 79
     5
176
     1
170
     0
176
     1
171
     0
176
     1
290
     0
176
     1
 93
       13
176
     1
 44
0.0
176
     1
173
     0
176
     1
  0
VISUALSTYLE
  5
2E
102
{ACAD_REACTORS
330
2A
102
}
330
2A
100
AcDbVisualStyle
  2
GouraudWithEdges
 70
     3
177
     2
291
     1
 71
     2
176
     1
 72
     2
176
     1
 73
     1
176
     1
 90
        2
176
     1
 40
-0.6
176
     1
 41
30.0
176
     1
 62
     5
 63
     7
421
 16777215
176
     1
 74
     1
176
     1
 91
        4
176
     1
 64
     7
176
     1
 65
   257
176
     1
 75
     1
176
     1
175
     1
176
     1
 42
1.0
176
     1
 92
        0
176
     1
 66
   257
176
     1
 43
1.0
176
     1
 76
     1
176
     1
 77
     6
176
     1
 78
     2
176
     1
 67
     7
176
     1
 79
     5
176
     1
170
     0
176
     1
171
     0
176
     1
290
     0
176
     1
 93
       13
176
     1
 44
0.0
176
     1
173
     0
176
     1
  0
VISUALSTYLE
  5
38
102
{ACAD_REACTORS
330
2A
102
}
330
2A
100
AcDbVisualStyle
  2
Linepattern
 70
    14
177
     2
291
     1
 71
     2
176
     1
 72
     2
176
     1
 73
     0
176
     1
 90
        0
176
     1
 40
-0.6
176
     1
 41
-30.0
176
     1
 62
     5
 63
     7
421
 16777215
176
     1
 74
     1
176
     1
 91
        4
176
     1
 64
     7
176
     1
 65
   257
176
     1
 75
     7
176
     1
175
     7
176
     1
 42
1.0
176
     1
 92
        8
176
     1
 66
     7
176
     1
 43
1.0
176
     1
 76
     1
176
     1
 77
     6
176
     1
 78
     2
176
     1
 67
     7
176
     1
 79
     5
176
     1
170
     0
176
     1
171
     0
176
     1
290
     0
176
     1
 93
        1
176
     1
 44
0.0
176
     1
173
     0
176
     1
  0
VISUALSTYLE
  5
33
102
{ACAD_REACTORS
330
2A
102
}
330
2A
100
AcDbVisualStyle
  2
Realistic
 70
     8
177
     2
291
     0
 71
     2
176
     1
 72
     2
176
     1
 73
     0
176
     1
 90
        0
176
     1
 40
-0.6
176
     1
 41
-30.0
176
     1
 62
     5
 63
     7
421
 16777215
176
     1
 74
     1
176
     1
 91
        0
176
     1
 64
     7
176
     1
 65
   257
176
     1
 75
     1
176
     1
175
     1
176
     1
 42
1.0
176
     1
 92
        8
176
     1
 66
     8
424
  7895160
176
     1
 43
1.0
176
     1
 76
     1
176
     1
 77
     6
176
     1
 78
     2
176
     1
 67
     7
176
     1
 79
     5
176
     1
170
     0
176
     1
171
     0
176
     1
290
     0
176
     1
 93
       13
176
     1
 44
0.0
176
     1
173
     0
176
     1
  0
VISUALSTYLE
  5
37
102
{ACAD_REACTORS
330
2A
102
}
330
2A
100
AcDbVisualStyle
  2
Thicken
 70
    13
177
     2
291
     1
 71
     2
176
     1
 72
     2
176
     1
 73
     0
176
     1
 90
        0
176
     1
 40
-0.6
176
     1
 41
-30.0
176
     1
 62
     5
 63
     7
421
 16777215
176
     1
 74
     1
176
     1
 91
        4
176
     1
 64
     7
176
     1
 65
   257
176
     1
 75
     1
176
     1
175
     1
176
     1
 42
1.0
176
     1
 92
       12
176
     1
 66
     7
176
     1
 43
1.0
176
     1
 76
     1
176
     1
 77
     6
176
     1
 78
     2
176
     1
 67
     7
176
     1
 79
     5
176
     1
170
     0
176
     1
171
     0
176
     1
290
     0
176
     1
 93
        1
176
     1
 44
0.0
176
     1
173
     0
176
     1
  0
ENDSEC
  0
EOF
