  0
SECTION
  2
HEADER
  9
$ACADVER
  1
AC1024
  9
$ACADMAINTVER
 70
     6
  9
$DWGCODEPAGE
  3
ANSI_1252
  9
$INSBASE
 10
0.0
 20
0.0
 30
0.0
  9
$EXTMIN
 10
0.0
 20
0.0
 30
0.0
  9
$EXTMAX
 10
594.0
 20
841.0
 30
0.0
  9
$LIMMIN
 10
0.0
 20
0.0
  9
$LIMMAX
 10
594.0
 20
841.0
  9
$ORTHOMODE
 70
     0
  9
$REGENMODE
 70
     1
  9
$FILLMODE
 70
     1
  9
$QTEXTMODE
 70
     0
  9
$MIRRTEXT
 70
     1
  9
$LTSCALE
 40
1.0
  9
$ATTMODE
 70
     1
  9
$TEXTSIZE
 40
10.0
  9
$TRACEWID
 40
1.0
  9
$TEXTSTYLE
  7
Standard
  9
$CLAYER
  8
0
  9
$CELTYPE
  6
ByLayer
  9
$CECOLOR
 62
   256
  9
$CELTSCALE
 40
1.0
  9
$DISPSILH
 70
     0
  9
$DIMSCALE
 40
1.0
  9
$DIMASZ
 40
2.5
  9
$DIMEXO
 40
0.0
  9
$DIMDLI
 40
3.75
  9
$DIMRND
 40
0.0
  9
$DIMDLE
 40
0.0
  9
$DIMEXE
 40
1.0
  9
$DIMTP
 40
0.0
  9
$DIMTM
 40
0.0
  9
$DIMTXT
 40
3.5
  9
$DIMCEN
 40
2.5
  9
$DIMTSZ
 40
0.0
  9
$DIMTOL
 70
     0
  9
$DIMLIM
 70
     0
  9
$DIMTIH
 70
     1
  9
$DIMTOH
 70
     1
  9
$DIMSE1
 70
     0
  9
$DIMSE2
 70
     0
  9
$DIMTAD
 70
     1
  9
$DIMZIN
 70
     0
  9
$DIMBLK
  1

  9
$DIMASO
 70
     1
  9
$DIMSHO
 70
     1
  9
$DIMPOST
  1

  9
$DIMAPOST
  1

  9
$DIMALT
 70
     0
  9
$DIMALTD
 70
     3
  9
$DIMALTF
 40
0.0393700787
  9
$DIMLFAC
 40
1.0
  9
$DIMTOFL
 70
     1
  9
$DIMTVP
 40
0.0
  9
$DIMTIX
 70
     0
  9
$DIMSOXD
 70
     0
  9
$DIMSAH
 70
     0
  9
$DIMBLK1
  1

  9
$DIMBLK2
  1

  9
$DIMSTYLE
  2
ISO-25
  9
$DIMCLRD
 70
     0
  9
$DIMCLRE
 70
     0
  9
$DIMCLRT
 70
     0
  9
$DIMTFAC
 40
1.0
  9
$DIMGAP
 40
1.5
  9
$DIMJUST
 70
     0
  9
$DIMSD1
 70
     0
  9
$DIMSD2
 70
     0
  9
$DIMTOLJ
 70
     0
  9
$DIMTZIN
 70
     0
  9
$DIMALTZ
 70
     0
  9
$DIMALTTZ
 70
     0
  9
$DIMUPT
 70
     0
  9
$DIMDEC
 70
     2
  9
$DIMTDEC
 70
     2
  9
$DIMALTU
 70
     2
  9
$DIMALTTD
 70
     3
  9
$DIMTXSTY
  7
Standard
  9
$DIMAUNIT
 70
     0
  9
$DIMADEC
 70
     2
  9
$DIMALTRND
 40
0.0
  9
$DIMAZIN
 70
     0
  9
$DIMDSEP
 70
    44
  9
$DIMATFIT
 70
     3
  9
$DIMFRAC
 70
     0
  9
$DIMLDRBLK
  1

  9
$DIMLUNIT
 70
     2
  9
$DIMLWD
 70
    -2
  9
$DIMLWE
 70
    -2
  9
$DIMTMOVE
 70
     0
  9
$DIMFXL
 40
1.0
  9
$DIMFXLON
 70
     0
  9
$DIMJOGANG
 40
0.7853981634
  9
$DIMTFILL
 70
     0
  9
$DIMTFILLCLR
 70
     0
  9
$DIMARCSYM
 70
     0
  9
$DIMLTYPE
  6

  9
$DIMLTEX1
  6

  9
$DIMLTEX2
  6

  9
$DIMTXTDIRECTION
 70
     0
  9
$LUNITS
 70
     2
  9
$LUPREC
 70
     2
  9
$SKETCHINC
 40
1.0
  9
$FILLETRAD
 40
10.0
  9
$AUNITS
 70
     0
  9
$AUPREC
 70
     2
  9
$MENU
  1
.
  9
$ELEVATION
 40
0.0
  9
$PELEVATION
 40
0.0
  9
$THICKNESS
 40
0.0
  9
$LIMCHECK
 70
     0
  9
$CHAMFERA
 40
0.0
  9
$CHAMFERB
 40
0.0
  9
$CHAMFERC
 40
0.0
  9
$CHAMFERD
 40
0.0
  9
$SKPOLY
 70
     0
  9
$TDCREATE
 40
2458747.417875636
  9
$TDUCREATE
 40
2458747.334542303
  9
$TDUPDATE
 40
2458747.417876366
  9
$TDUUPDATE
 40
2458747.334543033
  9
$TDINDWG
 40
0.0000000116
  9
$TDUSRTIMER
 40
0.0000000116
  9
$USRTIMER
 70
     1
  9
$ANGBASE
 50
0.0
  9
$ANGDIR
 70
     0
  9
$PDMODE
 70
     0
  9
$PDSIZE
 40
-1.0
  9
$PLINEWID
 40
0.0
  9
$SPLFRAME
 70
     0
  9
$SPLINETYPE
 70
     6
  9
$SPLINESEGS
 70
     8
  9
$HANDSEED
  5
130
  9
$SURFTAB1
 70
     6
  9
$SURFTAB2
 70
     6
  9
$SURFTYPE
 70
     6
  9
$SURFU
 70
     6
  9
$SURFV
 70
     6
  9
$UCSBASE
  2

  9
$UCSNAME
  2

  9
$UCSORG
 10
0.0
 20
0.0
 30
0.0
  9
$UCSXDIR
 10
1.0
 20
0.0
 30
0.0
  9
$UCSYDIR
 10
0.0
 20
1.0
 30
0.0
  9
$UCSORTHOREF
  2

  9
$UCSORTHOVIEW
 70
     0
  9
$UCSORGTOP
 10
0.0
 20
0.0
 30
0.0
  9
$UCSORGBOTTOM
 10
0.0
 20
0.0
 30
0.0
  9
$UCSORGLEFT
 10
0.0
 20
0.0
 30
0.0
  9
$UCSORGRIGHT
 10
0.0
 20
0.0
 30
0.0
  9
$UCSORGFRONT
 10
0.0
 20
0.0
 30
0.0
  9
$UCSORGBACK
 10
0.0
 20
0.0
 30
0.0
  9
$PUCSBASE
  2

  9
$PUCSNAME
  2

  9
$PUCSORG
 10
0.0
 20
0.0
 30
0.0
  9
$PUCSXDIR
 10
1.0
 20
0.0
 30
0.0
  9
$PUCSYDIR
 10
0.0
 20
1.0
 30
0.0
  9
$PUCSORTHOREF
  2

  9
$PUCSORTHOVIEW
 70
     0
  9
$PUCSORGTOP
 10
0.0
 20
0.0
 30
0.0
  9
$PUCSORGBOTTOM
 10
0.0
 20
0.0
 30
0.0
  9
$PUCSORGLEFT
 10
0.0
 20
0.0
 30
0.0
  9
$PUCSORGRIGHT
 10
0.0
 20
0.0
 30
0.0
  9
$PUCSORGFRONT
 10
0.0
 20
0.0
 30
0.0
  9
$PUCSORGBACK
 10
0.0
 20
0.0
 30
0.0
  9
$USERI1
 70
     0
  9
$USERI2
 70
     0
  9
$USERI3
 70
     0
  9
$USERI4
 70
     0
  9
$USERI5
 70
     0
  9
$USERR1
 40
0.0
  9
$USERR2
 40
0.0
  9
$USERR3
 40
0.0
  9
$USERR4
 40
0.0
  9
$USERR5
 40
0.0
  9
$WORLDVIEW
 70
     1
  9
$SHADEDGE
 70
     3
  9
$SHADEDIF
 70
    70
  9
$TILEMODE
 70
     1
  9
$MAXACTVP
 70
    64
  9
$PINSBASE
 10
0.0
 20
0.0
 30
0.0
  9
$PLIMCHECK
 70
     0
  9
$PEXTMIN
 10
1.0000000000E+20
 20
1.0000000000E+20
 30
1.0000000000E+20
  9
$PEXTMAX
 10
-1.0000000000E+20
 20
-1.0000000000E+20
 30
-1.0000000000E+20
  9
$PLIMMIN
 10
0.0
 20
0.0
  9
$PLIMMAX
 10
420.0
 20
297.0
  9
$UNITMODE
 70
     0
  9
$VISRETAIN
 70
     1
  9
$PLINEGEN
 70
     0
  9
$PSLTSCALE
 70
     1
  9
$TREEDEPTH
 70
  3020
  9
$CMLSTYLE
  2
Standard
  9
$CMLJUST
 70
     0
  9
$CMLSCALE
 40
20.0
  9
$PROXYGRAPHICS
 70
     1
  9
$MEASUREMENT
 70
     1
  9
$CELWEIGHT
370
    -1
  9
$ENDCAPS
280
     0
  9
$JOINSTYLE
280
     0
  9
$LWDISPLAY
290
     1
  9
$INSUNITS
 70
     4
  9
$HYPERLINKBASE
  1

  9
$STYLESHEET
  1

  9
$XEDIT
290
     1
  9
$CEPSNTYPE
380
     0
  9
$PSTYLEMODE
290
     1
  9
$FINGERPRINTGUID
  2
{6B63DE10-DE93-482F-BB8F-EB020DAE690B}
  9
$VERSIONGUID
  2
{FAEB1C32-E019-11D5-929B-00C0DF256EC4}
  9
$EXTNAMES
290
     1
  9
$PSVPSCALE
 40
0.0
  9
$OLESTARTUP
290
     0
  9
$SORTENTS
280
   127
  9
$INDEXCTL
280
     0
  9
$HIDETEXT
280
     1
  9
$XCLIPFRAME
280
     2
  9
$HALOGAP
280
     0
  9
$OBSCOLOR
 70
   257
  9
$OBSLTYPE
280
     0
  9
$INTERSECTIONDISPLAY
280
     0
  9
$INTERSECTIONCOLOR
 70
   257
  9
$DIMASSOC
280
     2
  9
$PROJECTNAME
  1

  9
$CAMERADISPLAY
290
     0
  9
$LENSLENGTH
 40
50.0
  9
$CAMERAHEIGHT
 40
0.0
  9
$STEPSPERSEC
 40
2.0
  9
$STEPSIZE
 40
6.0
  9
$3DDWFPREC
 40
2.0
  9
$PSOLWIDTH
 40
5.0
  9
$PSOLHEIGHT
 40
80.0
  9
$LOFTANG1
 40
1.5707963268
  9
$LOFTANG2
 40
1.5707963268
  9
$LOFTMAG1
 40
0.0
  9
$LOFTMAG2
 40
0.0
  9
$LOFTPARAM
 70
     7
  9
$LOFTNORMALS
280
     1
  9
$LATITUDE
 40
37.795
  9
$LONGITUDE
 40
-122.394
  9
$NORTHDIRECTION
 40
0.0
  9
$TIMEZONE
 70
 -8000
  9
$LIGHTGLYPHDISPLAY
280
     1
  9
$TILEMODELIGHTSYNCH
280
     1
  9
$CMATERIAL
347
44
  9
$SOLIDHIST
280
     0
  9
$SHOWHIST
280
     1
  9
$DWFFRAME
280
     2
  9
$DGNFRAME
280
     2
  9
$REALWORLDSCALE
290
     1
  9
$INTERFERECOLOR
 62
   256
  9
$CSHADOW
280
     0
  9
$SHADOWPLANELOCATION
 40
0.0
  0
ENDSEC
  0
SECTION
  2
CLASSES
  0
CLASS
  1
ACDBDICTIONARYWDFLT
  2
AcDbDictionaryWithDefault
  3
ObjectDBX Classes
 90
        0
 91
        4
280
     0
281
     0
  0
CLASS
  1
VISUALSTYLE
  2
AcDbVisualStyle
  3
ObjectDBX Classes
 90
     4095
 91
        4
280
     0
281
     0
  0
CLASS
  1
MATERIAL
  2
AcDbMaterial
  3
ObjectDBX Classes
 90
     1153
 91
        4
280
     0
281
     0
  0
CLASS
  1
SCALE
  2
AcDbScale
  3
ObjectDBX Classes
 90
     1153
 91
        4
280
     0
281
     0
  0
CLASS
  1
TABLESTYLE
  2
AcDbTableStyle
  3
ObjectDBX Classes
 90
     4095
 91
        4
280
     0
281
     0
  0
CLASS
  1
MLEADERSTYLE
  2
AcDbMLeaderStyle
  3
ACDB_MLEADERSTYLE_CLASS
 90
     4095
 91
        4
280
     0
281
     0
  0
CLASS
  1
SUN
  2
AcDbSun
  3
SCENEOE
 90
     1153
 91
        4
280
     0
281
     0
  0
CLASS
  1
DICTIONARYVAR
  2
AcDbDictionaryVar
  3
ObjectDBX Classes
 90
        0
 91
        4
280
     0
281
     0
  0
CLASS
  1
CELLSTYLEMAP
  2
AcDbCellStyleMap
  3
ObjectDBX Classes
 90
     1152
 91
        4
280
     0
281
     0
  0
ENDSEC
  0
SECTION
  2
TABLES
  0
TABLE
  2
VPORT
  5
8
330
0
100
AcDbSymbolTable
 70
     1
  0
VPORT
  5
29
330
8
100
AcDbSymbolTableRecord
100
AcDbViewportTableRecord
  2
*Active
 70
     0
 10
0.0
 20
0.0
 11
1.0
 21
1.0
 12
297.0
 22
420.5
 13
0.0
 23
0.0
 14
10.0
 24
10.0
 15
10.0
 25
10.0
 16
0.0
 26
0.0
 36
1.0
 17
0.0
 27
0.0
 37
0.0
 40
841.0
 41
0.7063020214
 42
50.0
 43
0.0
 44
0.0
 50
0.0
 51
0.0
 71
     0
 72
  2000
 73
     1
 74
     3
 75
     0
 76
     0
 77
     0
 78
     0
281
     0
 65
     1
110
0.0
120
0.0
130
0.0
111
1.0
121
0.0
131
0.0
112
0.0
122
1.0
132
0.0
 79
     0
146
0.0
348
2F
 60
     3
 61
     5
292
     1
282
     1
141
0.0
142
0.0
 63
   250
361
6D
  0
ENDTAB
  0
TABLE
  2
LTYPE
  5
5
330
0
100
AcDbSymbolTable
 70
     6
  0
LTYPE
  5
14
330
5
100
AcDbSymbolTableRecord
100
AcDbLinetypeTableRecord
  2
ByBlock
 70
     0
  3

 72
    65
 73
     0
 40
0.0
  0
LTYPE
  5
15
330
5
100
AcDbSymbolTableRecord
100
AcDbLinetypeTableRecord
  2
ByLayer
 70
     0
  3

 72
    65
 73
     0
 40
0.0
  0
LTYPE
  5
16
330
5
100
AcDbSymbolTableRecord
100
AcDbLinetypeTableRecord
  2
Continuous
 70
     0
  3
Solid line
 72
    65
 73
     0
 40
0.0
  0
LTYPE
  5
6E
330
5
100
AcDbSymbolTableRecord
100
AcDbLinetypeTableRecord
  2
HIDDEN
 70
     0
  3
Hidden __ __ __ __ __ __ __ __ __ __ __ __ __ __
 72
    65
 73
     2
 40
1.905
 49
1.27
 74
     0
 49
-0.635
 74
     0
  0
LTYPE
  5
6F
330
5
100
AcDbSymbolTableRecord
100
AcDbLinetypeTableRecord
  2
PHANTOM
 70
     0
  3
Phantom ______  __  __  ______  __  __  ______
 72
    65
 73
     6
 40
12.7
 49
6.35
 74
     0
 49
-1.27
 74
     0
 49
1.27
 74
     0
 49
-1.27
 74
     0
 49
1.27
 74
     0
 49
-1.27
 74
     0
  0
LTYPE
  5
70
330
5
100
AcDbSymbolTableRecord
100
AcDbLinetypeTableRecord
  2
CENTER
 70
     0
  3
Center ____ _ ____ _ ____ _ ____ _ ____ _ ____
 72
    65
 73
     4
 40
10.16
 49
6.35
 74
     0
 49
-1.27
 74
     0
 49
1.27
 74
     0
 49
-1.27
 74
     0
  0
LTYPE
  5
71
330
5
100
AcDbSymbolTableRecord
100
AcDbLinetypeTableRecord
  2
CENTERX2
 70
     0
  3
Center (2x) ________  __  ________  __  _____
 72
    65
 73
     4
 40
20.32
 49
12.7
 74
     0
 49
-2.54
 74
     0
 49
2.54
 74
     0
 49
-2.54
 74
     0
  0
LTYPE
  5
72
330
5
100
AcDbSymbolTableRecord
100
AcDbLinetypeTableRecord
  2
DOT2
 70
     0
  3
Dot (.5x) ........................................
 72
    65
 73
     2
 40
0.635
 49
0.0
 74
     0
 49
-0.635
 74
     0
  0
ENDTAB
  0
TABLE
  2
LAYER
  5
2
330
0
100
AcDbSymbolTable
 70
     1
  0
LAYER
  5
10
330
2
100
AcDbSymbolTableRecord
100
AcDbLayerTableRecord
  2
0
 70
     0
 62
     7
  6
Continuous
370
    -3
390
F
347
46
  0
ENDTAB
  0
TABLE
  2
STYLE
  5
3
330
0
100
AcDbSymbolTable
 70
     3
  0
STYLE
  5
11
330
3
100
AcDbSymbolTableRecord
100
AcDbTextStyleTableRecord
  2
Standard
 70
     0
 40
0.0
 41
1.0
 50
0.0
 71
     0
 42
10.0
  3
txt
  4

  0
STYLE
  5
76
330
3
100
AcDbSymbolTableRecord
100
AcDbTextStyleTableRecord
  2
SLDTEXTSTYLE0
 70
     0
 40
0.0
 41
0.96
 50
0.0
 71
     0
 42
10.0
  3
ISOCP3
  4

  0
STYLE
  5
8D
330
3
100
AcDbSymbolTableRecord
100
AcDbTextStyleTableRecord
  2
SLDTEXTSTYLE1
 70
     0
 40
0.0
 41
0.605
 50
0.0
 71
     0
 42
10.0
  3
TXT
  4

  0
ENDTAB
  0
TABLE
  2
VIEW
  5
6
330
0
100
AcDbSymbolTable
 70
     0
  0
ENDTAB
  0
TABLE
  2
UCS
  5
7
330
0
100
AcDbSymbolTable
 70
     0
  0
ENDTAB
  0
TABLE
  2
APPID
  5
9
330
0
100
AcDbSymbolTable
 70
     1
  0
APPID
  5
12
330
9
100
AcDbSymbolTableRecord
100
AcDbRegAppTableRecord
  2
ACAD
 70
     0
  0
ENDTAB
  0
TABLE
  2
DIMSTYLE
  5
A
330
0
100
AcDbSymbolTable
 70
     2
100
AcDbDimStyleTable
  0
DIMSTYLE
105
27
330
A
100
AcDbSymbolTableRecord
100
AcDbDimStyleTableRecord
  2
ISO-25
 70
     0
 41
2.5
 42
0.625
 43
3.75
 44
1.25
 73
     0
 74
     0
 77
     1
 78
     8
140
2.5
141
2.5
143
0.0393700787
147
0.625
171
     3
172
     1
178
     0
271
     2
272
     2
274
     3
278
    44
283
     0
284
     8
340
11
  0
DIMSTYLE
105
77
102
{ACAD_REACTORS
330
75
330
82
102
}
330
A
100
AcDbSymbolTableRecord
100
AcDbDimStyleTableRecord
  2
SLDDIMSTYLE0
 70
     0
 41
2.5
 44
0.0
 45
0.000000001
 73
     0
 74
     0
 77
     1
 78
    12
 79
     3
140
6.0
147
1.5
173
     1
178
     0
271
     2
272
     2
276
     2
284
    12
340
76
  0
ENDTAB
  0
TABLE
  2
BLOCK_RECORD
  5
1
330
0
100
AcDbSymbolTable
 70
     3
  0
BLOCK_RECORD
  5
1F
330
1
100
AcDbSymbolTableRecord
100
AcDbBlockTableRecord
  2
*Model_Space
340
22
 70
     0
280
     1
281
     0
  0
BLOCK_RECORD
  5
1B
330
1
100
AcDbSymbolTableRecord
100
AcDbBlockTableRecord
  2
*Paper_Space
340
1E
 70
     0
280
     1
281
     0
  0
BLOCK_RECORD
  5
23
330
1
100
AcDbSymbolTableRecord
100
AcDbBlockTableRecord
  2
*Paper_Space0
340
26
 70
     0
280
     1
281
     0
  0
BLOCK_RECORD
  5
78
330
1
100
AcDbSymbolTableRecord
100
AcDbBlockTableRecord
  2
_D
340
0
 70
     0
280
     1
281
     0
  0
BLOCK_RECORD
  5
83
330
1
100
AcDbSymbolTableRecord
100
AcDbBlockTableRecord
  2
_D_1
340
0
 70
     0
280
     1
281
     0
  0
ENDTAB
  0
ENDSEC
  0
SECTION
  2
BLOCKS
  0
BLOCK
  5
20
330
1F
100
AcDbEntity
  8
0
100
AcDbBlockBegin
  2
*Model_Space
 70
     0
 10
0.0
 20
0.0
 30
0.0
  3
*Model_Space
  1

  0
ENDBLK
  5
21
330
1F
100
AcDbEntity
  8
0
100
AcDbBlockEnd
  0
BLOCK
  5
1C
330
1B
100
AcDbEntity
 67
     1
  8
0
100
AcDbBlockBegin
  2
*Paper_Space
 70
     0
 10
0.0
 20
0.0
 30
0.0
  3
*Paper_Space
  1

  0
ENDBLK
  5
1D
330
1B
100
AcDbEntity
 67
     1
  8
0
100
AcDbBlockEnd
  0
BLOCK
  5
24
330
23
100
AcDbEntity
  8
0
100
AcDbBlockBegin
  2
*Paper_Space0
 70
     0
 10
0.0
 20
0.0
 30
0.0
  3
*Paper_Space0
  1

  0
ENDBLK
  5
25
330
23
100
AcDbEntity
  8
0
100
AcDbBlockEnd
  0
BLOCK
  5
79
330
78
100
AcDbEntity
  8
0
100
AcDbBlockBegin
  2
_D
 70
     0
 10
0.0
 20
0.0
 30
0.0
  3
_D
  1

  0
SOLID
  5
7B
330
78
100
AcDbEntity
  8
0
  6
Continuous
 62
     7
370
    18
100
AcDbTrace
 10
42.7614395004
 20
152.0299240879
 30
0.0
 11
42.4614395004
 21
149.5299240879
 31
0.0
 12
43.0614395004
 22
149.5299240879
 32
0.0
 13
43.0614395004
 23
149.5299240879
 33
0.0
  0
SOLID
  5
7C
330
78
100
AcDbEntity
  8
0
  6
Continuous
 62
     7
370
    18
100
AcDbTrace
 10
42.7614395004
 20
52.0299240879
 30
0.0
 11
43.0614395004
 21
54.5299240879
 31
0.0
 12
42.4614395004
 22
54.5299240879
 32
0.0
 13
42.4614395004
 23
54.5299240879
 33
0.0
  0
LINE
  5
7D
330
78
100
AcDbEntity
  8
0
  6
Continuous
 62
     7
370
    18
100
AcDbLine
 10
56.6850079902
 20
152.0299240879
 30
0.0
 11
41.7614395004
 21
152.0299240879
 31
0.0
  0
LINE
  5
7E
330
78
100
AcDbEntity
  8
0
  6
Continuous
 62
     7
370
    18
100
AcDbLine
 10
56.6850079902
 20
52.0299240879
 30
0.0
 11
41.7614395004
 21
52.0299240879
 31
0.0
  0
LINE
  5
7F
330
78
100
AcDbEntity
  8
0
  6
Continuous
 62
     7
370
    18
100
AcDbLine
 10
42.7614395004
 20
152.0299240879
 30
0.0
 11
42.7614395004
 21
52.0299240879
 31
0.0
  0
MTEXT
  5
80
330
78
100
AcDbEntity
  8
0
  6
Continuous
 62
     7
370
    18
100
AcDbMText
 10
35.0270332946
 20
94.3680541463
 30
0.0
 40
6.0
 41
0.0
 46
0.0
 71
     1
 72
     1
  1
100
  7
SLDTEXTSTYLE0
 11
-7.044195017643634E-15
 21
1.0
 31
0.0
 73
     1
 44
1.0
  0
MTEXT
  5
81
330
78
100
AcDbEntity
  8
0
  6
Continuous
 62
     7
370
    18
100
AcDbMText
 10
35.0270332946
 20
105.7430548466
 30
0.0
 40
6.0
 41
0.0
 46
0.0
 71
     1
 72
     1
  1
mm
  7
SLDTEXTSTYLE0
 11
-7.044195017643634E-15
 21
1.0
 31
0.0
 73
     1
 44
1.0
  0
ENDBLK
  5
7A
330
78
100
AcDbEntity
  8
0
100
AcDbBlockEnd
  0
BLOCK
  5
84
330
83
100
AcDbEntity
  8
0
100
AcDbBlockBegin
  2
_D_1
 70
     0
 10
0.0
 20
0.0
 30
0.0
  3
_D_1
  1

  0
SOLID
  5
86
330
83
100
AcDbEntity
  8
0
  6
Continuous
 62
     7
370
    18
100
AcDbTrace
 10
56.6850079902
 20
38.4602342313
 30
0.0
 11
59.1850079902
 21
38.1602342313
 31
0.0
 12
59.1850079902
 22
38.7602342313
 32
0.0
 13
59.1850079902
 23
38.7602342313
 33
0.0
  0
SOLID
  5
87
330
83
100
AcDbEntity
  8
0
  6
Continuous
 62
     7
370
    18
100
AcDbTrace
 10
156.6850079902
 20
38.4602342313
 30
0.0
 11
154.1850079902
 21
38.7602342313
 31
0.0
 12
154.1850079902
 22
38.1602342313
 32
0.0
 13
154.1850079902
 23
38.1602342313
 33
0.0
  0
LINE
  5
88
330
83
100
AcDbEntity
  8
0
  6
Continuous
 62
     7
370
    18
100
AcDbLine
 10
56.6850079902
 20
52.0299240879
 30
0.0
 11
56.6850079902
 21
37.4602342313
 31
0.0
  0
LINE
  5
89
330
83
100
AcDbEntity
  8
0
  6
Continuous
 62
     7
370
    18
100
AcDbLine
 10
156.6850079902
 20
52.0299240879
 30
0.0
 11
156.6850079902
 21
37.4602342313
 31
0.0
  0
LINE
  5
8A
330
83
100
AcDbEntity
  8
0
  6
Continuous
 62
     7
370
    18
100
AcDbLine
 10
56.6850079902
 20
38.4602342313
 30
0.0
 11
156.6850079902
 21
38.4602342313
 31
0.0
  0
MTEXT
  5
8B
330
83
100
AcDbEntity
  8
0
  6
Continuous
 62
     7
370
    18
100
AcDbMText
 10
93.9626484861
 20
46.1946404371
 30
0.0
 40
6.0
 41
0.0
 46
0.0
 71
     1
 72
     1
  1
100
  7
SLDTEXTSTYLE0
 73
     1
 44
1.0
  0
MTEXT
  5
8C
330
83
100
AcDbEntity
  8
0
  6
Continuous
 62
     7
370
    18
100
AcDbMText
 10
105.3376491864
 20
46.1946404371
 30
0.0
 40
6.0
 41
0.0
 46
0.0
 71
     1
 72
     1
  1
mm
  7
SLDTEXTSTYLE0
 73
     1
 44
1.0
  0
ENDBLK
  5
85
330
83
100
AcDbEntity
  8
0
100
AcDbBlockEnd
  0
ENDSEC
  0
SECTION
  2
ENTITIES
  0
LINE
  5
73
330
1F
100
AcDbEntity
  8
0
  6
Continuous
 62
     7
370
    18
100
AcDbLine
 10
56.6850079902
 20
152.0299240879
 30
0.0
 11
56.6850079902
 21
52.0299240879
 31
0.0
  0
LINE
  5
74
330
1F
100
AcDbEntity
  8
0
  6
Continuous
 62
     7
370
    18
100
AcDbLine
 10
56.6850079902
 20
52.0299240879
 30
0.0
 11
156.6850079902
 21
52.0299240879
 31
0.0
  0
DIMENSION
  5
75
330
1F
100
AcDbEntity
  8
0
  6
Continuous
 62
     7
370
    18
100
AcDbDimension
280
     0
  2
_D
 10
42.7614395004
 20
52.0299240879
 30
0.0
 11
42.7614395004
 21
105.4472211621
 31
0.0
 70
   160
  1
<>mm
 71
     2
 42
-1.0
 73
     0
 74
     0
 75
     0
  3
SLDDIMSTYLE0
100
AcDbAlignedDimension
 13
56.6850079902
 23
152.0299240879
 33
0.0
 14
56.6850079902
 24
52.0299240879
 34
0.0
 50
90.0
100
AcDbRotatedDimension
  0
DIMENSION
  5
82
330
1F
100
AcDbEntity
  8
0
  6
Continuous
 62
     7
370
    18
100
AcDbDimension
280
     0
  2
_D_1
 10
156.6850079902
 20
38.4602342313
 30
0.0
 11
105.0418155019
 21
38.4602342313
 31
0.0
 70
   160
  1
<>mm
 71
     2
 42
-1.0
 73
     0
 74
     0
 75
     0
  3
SLDDIMSTYLE0
100
AcDbAlignedDimension
 13
56.6850079902
 23
52.0299240879
 33
0.0
 14
156.6850079902
 24
52.0299240879
 34
0.0
100
AcDbRotatedDimension
  0
MTEXT
  5
8E
330
1F
100
AcDbEntity
  8
0
  6
Continuous
 62
     7
370
     0
100
AcDbMText
 10
412.8252631579
 20
48.4342449499
 30
0.0
 40
10.0
 41
0.0
 46
0.0
 71
     1
 72
     1
  1
KLUDI GmbH & Co KG
  7
SLDTEXTSTYLE1
 73
     1
 44
1.0
  0
MTEXT
  5
8F
330
1F
100
AcDbEntity
  8
0
  6
Continuous
 62
     7
370
     0
100
AcDbMText
 10
210.0873490389
 20
48.4342449499
 30
0.0
 40
10.0
 41
0.0
 46
0.0
 71
     1
 72
     1
  1
38 270 05 76
  7
SLDTEXTSTYLE1
 73
     1
 44
1.0
  0
SPLINE
  5
90
330
1F
100
AcDbEntity
  8
0
  6
Continuous
 62
     7
370
    25
100
AcDbSpline
210
0.0
220
0.0
230
1.0
 70
     8
 71
     3
 72
    20
 73
    16
 74
     0
 42
0.000000001
 43
0.00000001
 40
0.0
 40
0.0
 40
0.0
 40
0.0
 40
0.0474038142890189
 40
0.1249086899069261
 40
0.2025131678968833
 40
0.2811754895415447
 40
0.3614009355439891
 40
0.4431248130119447
 40
0.5258574227715309
 40
0.6090001428607273
 40
0.6920078943724349
 40
0.7747229058028663
 40
0.8571349942358664
 40
0.9393190076588623
 40
1.0
 40
1.0
 40
1.0
 40
1.0
 10
164.2282372667327
 20
435.2289375441144
 30
0.0
 10
164.2213502402342
 20
434.9914945183696
 30
0.0
 10
164.2032029778213
 20
434.3658339524815
 30
0.0
 10
164.4272762189206
 20
433.3625438191299
 30
0.0
 10
164.8639312103639
 20
432.2501717644936
 30
0.0
 10
165.5175053825041
 20
431.1921337176142
 30
0.0
 10
166.3696106904115
 20
430.1990316897367
 30
0.0
 10
167.4152470724376
 20
429.2847934284954
 30
0.0
 10
168.6383779696913
 20
428.4657055121929
 30
0.0
 10
170.0165611628325
 20
427.7574811159733
 30
0.0
 10
171.5227867933225
 20
427.1726869866979
 30
0.0
 10
173.1289628110612
 20
426.7189140867873
 30
0.0
 10
174.8079674310781
 20
426.4044815536882
 30
0.0
 10
176.3837060238305
 20
426.2373820935856
 30
0.0
 10
177.3933837476912
 20
426.2194197922611
 30
0.0
 10
177.8222378670111
 20
426.2117904203008
 30
0.0
  0
SPLINE
  5
91
330
1F
100
AcDbEntity
  8
0
  6
Continuous
 62
     7
370
    25
100
AcDbSpline
210
0.0
220
0.0
230
1.0
 70
     8
 71
     3
 72
    20
 73
    16
 74
     0
 42
0.000000001
 43
0.00000001
 40
0.0
 40
0.0
 40
0.0
 40
0.0
 40
0.0443202339044925
 40
0.1276215540775734
 40
0.2111299148976729
 40
0.2949423024567839
 40
0.3791831580233835
 40
0.4639397966452324
 40
0.5492210049670271
 40
0.6348865933013131
 40
0.7204007089774908
 40
0.8049864131008329
 40
0.8878875182734567
 40
0.9687943101623386
 40
1.0
 40
1.0
 40
1.0
 40
1.0
 10
177.8222378670111
 20
426.2117904203008
 30
0.0
 10
178.1308342851527
 20
426.2158297495813
 30
0.0
 10
179.0194477015639
 20
426.2274611295356
 30
0.0
 10
180.4806558521923
 20
426.3560138117586
 30
0.0
 10
182.1701290769919
 20
426.641551013599
 30
0.0
 10
183.7933594751501
 20
427.0668465967549
 30
0.0
 10
185.3250909676219
 20
427.6255431598181
 30
0.0
 10
186.7411034903271
 20
428.3136000825552
 30
0.0
 10
188.0170864133189
 20
429.1248955874425
 30
0.0
 10
189.1280252319055
 20
430.050979867611
 30
0.0
 10
190.0464928412924
 20
431.0785790029348
 30
0.0
 10
190.7539467943364
 20
432.1875466218307
 30
0.0
 10
191.2136065411628
 20
433.3510733011607
 30
0.0
 10
191.4349063962648
 20
434.3033385927152
 30
0.0
 10
191.4203031688912
 20
434.8564850067991
 30
0.0
 10
191.4162384672894
 20
435.0104492681096
 30
0.0
  0
LINE
  5
92
330
1F
100
AcDbEntity
  8
0
  6
Continuous
 62
     7
370
    25
100
AcDbLine
 10
164.1999790772
 20
439.8110446112
 30
0.0
 11
164.1999790772
 21
435.1196971314
 31
0.0
  0
LINE
  5
93
330
1F
100
AcDbEntity
  8
0
  6
Continuous
 62
     7
370
    25
100
AcDbLine
 10
191.4444966568
 20
435.1196971314
 30
0.0
 11
191.4444966568
 21
439.8110446112
 31
0.0
  0
SPLINE
  5
94
330
1F
100
AcDbEntity
  8
0
  6
Continuous
 62
     7
370
    25
100
AcDbSpline
210
0.0
220
0.0
230
1.0
 70
     8
 71
     3
 72
    16
 73
    12
 74
     0
 42
0.000000001
 43
0.00000001
 40
0.0
 40
0.0
 40
0.0
 40
0.0
 40
0.1260963187311654
 40
0.2378471279611794
 40
0.3382617641569096
 40
0.4298955941526795
 40
0.5419351082577774
 40
0.645659825663084
 40
0.7432556932561185
 40
0.8798844746862031
 40
1.0
 40
1.0
 40
1.0
 40
1.0
 10
191.4449725626841
 20
439.8110446112225
 30
0.0
 10
191.4449657926046
 20
440.7593549791665
 30
0.0
 10
191.4449530226523
 20
442.5480899692192
 30
0.0
 10
191.4449905057702
 20
444.9065067268987
 30
0.0
 10
191.4450885094674
 20
446.8527293018123
 30
0.0
 10
191.4450758206917
 20
448.5878016651953
 30
0.0
 10
191.4444117178323
 20
450.0683107843031
 30
0.0
 10
191.441906256817
 20
451.2413693522129
 30
0.0
 10
191.4342926045631
 20
452.1552485551736
 30
0.0
 10
191.4203394530673
 20
452.7452236756513
 30
0.0
 10
191.3881257804698
 20
452.8182547462472
 30
0.0
 10
191.3730549021497
 20
452.8524216787885
 30
0.0
  0
SPLINE
  5
95
330
1F
100
AcDbEntity
  8
0
  6
Continuous
 62
     7
370
    25
100
AcDbSpline
210
0.0
220
0.0
230
1.0
 70
     8
 71
     3
 72
    15
 73
    11
 74
     0
 42
0.000000001
 43
0.00000001
 40
0.0
 40
0.0
 40
0.0
 40
0.0
 40
0.1206864089961691
 40
0.2354050226621104
 40
0.3573496736514774
 40
0.488548395719921
 40
0.5957642171339016
 40
0.7138686891833789
 40
0.846939098445646
 40
1.0
 40
1.0
 40
1.0
 40
1.0
 10
164.3929025485053
 20
451.9009378330777
 30
0.0
 10
164.3639968286295
 20
451.8853056940173
 30
0.0
 10
164.3076147413751
 20
451.8548144060557
 30
0.0
 10
164.2659971277616
 20
451.3201822134502
 30
0.0
 10
164.2350153300634
 20
450.4304122418154
 30
0.0
 10
164.2181784731578
 20
449.1151444985258
 30
0.0
 10
164.208229570999
 20
447.4355875967121
 30
0.0
 10
164.2027809116603
 20
445.4323540571418
 30
0.0
 10
164.199897724141
 20
442.881903647827
 30
0.0
 10
164.1996406751599
 20
440.8812558751053
 30
0.0
 10
164.1995031713381
 20
439.8110446112225
 30
0.0
  0
LINE
  5
96
330
1F
100
AcDbEntity
  8
0
  6
Continuous
 62
     7
370
    25
100
AcDbLine
 10
201.8222380756
 20
358.6510915833
 30
0.0
 11
201.8222380756
 21
487.9192870634
 31
0.0
  0
LINE
  5
97
330
1F
100
AcDbEntity
  8
0
  6
Continuous
 62
     7
370
    25
100
AcDbLine
 10
153.8222376584
 20
487.9192870634
 30
0.0
 11
153.8222376584
 21
358.6510915833
 31
0.0
  0
ARC
  5
98
330
1F
100
AcDbEntity
  8
0
  6
Continuous
 62
     7
370
    25
100
AcDbCircle
 10
154.122237867
 20
358.6510918525
 30
0.0
 40
0.3000000000000114
100
AcDbArc
 50
180.0
 51
270.0
  0
ARC
  5
99
330
1F
100
AcDbEntity
  8
0
  6
Continuous
 62
     7
370
    25
100
AcDbCircle
 10
201.522237867
 20
358.6510918525
 30
0.0
 40
0.3000000000000114
100
AcDbArc
 50
270.0
 51
0.0
  0
ARC
  5
9A
330
1F
100
AcDbEntity
  8
0
  6
Continuous
 62
     7
370
    25
100
AcDbCircle
 10
201.322237867
 20
487.9192797051
 30
0.0
 40
0.5
100
AcDbArc
 50
0.0
 51
90.0
  0
ARC
  5
9B
330
1F
100
AcDbEntity
  8
0
  6
Continuous
 62
     7
370
    25
100
AcDbCircle
 10
154.322237867
 20
487.9192797051
 30
0.0
 40
0.5
100
AcDbArc
 50
90.0
 51
180.0
  0
LINE
  5
9C
330
1F
100
AcDbEntity
  8
0
  6
Continuous
 62
     7
370
    25
100
AcDbLine
 10
201.8222380756
 20
488.708437659
 30
0.0
 11
201.8222380756
 21
516.9192862289
 31
0.0
  0
LINE
  5
9D
330
1F
100
AcDbEntity
  8
0
  6
Continuous
 62
     7
370
    25
100
AcDbLine
 10
153.8222376584
 20
516.9192862289
 30
0.0
 11
153.8222376584
 21
488.7119543331
 31
0.0
  0
ARC
  5
9E
330
1F
100
AcDbEntity
  8
0
  6
Continuous
 62
     7
370
    25
100
AcDbCircle
 10
155.322237867
 20
516.9192797051
 30
0.0
 40
1.500000000000114
100
AcDbArc
 50
90.0
 51
180.0
  0
ARC
  5
9F
330
1F
100
AcDbEntity
  8
0
  6
Continuous
 62
     7
370
    25
100
AcDbCircle
 10
200.322237867
 20
516.9192797051
 30
0.0
 40
1.500000000000114
100
AcDbArc
 50
0.0
 51
90.0
  0
ELLIPSE
  5
A0
330
1F
100
AcDbEntity
  8
0
  6
Continuous
 62
     7
370
    25
100
AcDbEllipse
 10
177.822237867
 20
435.1196935729
 30
0.0
 11
13.62225840003612
 21
0.0
 31
0.0
210
0.0
220
0.0
230
1.0
 40
0.6243407052
 41
3.130538849774358
 42
3.141592653589793
  0
ELLIPSE
  5
A1
330
1F
100
AcDbEntity
  8
0
  6
Continuous
 62
     7
370
    25
100
AcDbEllipse
 10
177.822237867
 20
435.1196935729
 30
0.0
 11
13.62225840003612
 21
0.0
 31
0.0
210
0.0
220
0.0
230
1.0
 40
0.6243407052
 41
6.272131503364167
 42
6.283185307179586
  0
LINE
  5
A2
330
1F
100
AcDbEntity
  8
0
  6
Continuous
 62
     7
370
    25
100
AcDbLine
 10
177.822237867
 20
358.3510920929
 30
0.0
 11
154.1222371488
 21
358.3510920929
 31
0.0
  0
LINE
  5
A3
330
1F
100
AcDbEntity
  8
0
  6
Continuous
 62
     7
370
    25
100
AcDbLine
 10
201.5222385852
 20
358.3510920929
 30
0.0
 11
177.822237867
 21
358.3510920929
 31
0.0
  0
CIRCLE
  5
A4
330
1F
100
AcDbEntity
  8
0
  6
Continuous
 62
     7
370
    25
100
AcDbCircle
 10
177.822237867
 20
498.4192797051
 30
0.0
 40
3.569682227408578
  0
CIRCLE
  5
A5
330
1F
100
AcDbEntity
  8
0
  6
Continuous
 62
     7
370
    25
100
AcDbCircle
 10
177.822237867
 20
498.4192797051
 30
0.0
 40
4.0
  0
SPLINE
  5
A6
330
1F
100
AcDbEntity
  8
0
  6
Continuous
 62
     7
370
    25
100
AcDbSpline
210
0.0
220
0.0
230
1.0
 70
    24
 71
     3
 72
    10
 73
     6
 74
     0
 42
0.000000001
 43
0.00000001
 40
0.0
 40
0.0
 40
0.0
 40
0.0
 40
0.5
 40
0.5
 40
1.0
 40
1.0
 40
1.0
 40
1.0
 10
175.6753213272162
 20
518.4192797050862
 30
0.0
 10
176.3909619081129
 20
518.4192797050862
 30
0.0
 10
177.1066024333499
 20
518.4192797050862
 30
0.0
 10
178.5378828664255
 20
518.4192797050862
 30
0.0
 10
179.253522773227
 20
518.4192797050862
 30
0.0
 10
179.9691626253717
 20
518.4192797050862
 30
0.0
  0
SPLINE
  5
A7
330
1F
100
AcDbEntity
  8
0
  6
Continuous
 62
     7
370
    25
100
AcDbSpline
210
0.0
220
0.0
230
1.0
 70
     8
 71
     3
 72
    10
 73
     6
 74
     0
 42
0.000000001
 43
0.00000001
 40
0.0
 40
0.0
 40
0.0
 40
0.0
 40
0.0467157079375684
 40
0.5192231149572861
 40
0.9999999999999999
 40
0.9999999999999999
 40
0.9999999999999999
 40
0.9999999999999999
 10
153.8357604621782
 20
488.7119543330739
 30
0.0
 10
153.8313330847342
 20
488.6963032094351
 30
0.0
 10
153.7821248674327
 20
488.5223483337184
 30
0.0
 10
153.9513812207166
 20
488.4389880189716
 30
0.0
 10
154.2855824223168
 20
488.4258876377642
 30
0.0
 10
154.4541325746908
 20
488.4192806260655
 30
0.0
  0
SPLINE
  5
A8
330
1F
100
AcDbEntity
  8
0
  6
Continuous
 62
     7
370
    25
100
AcDbSpline
210
0.0
220
0.0
230
1.0
 70
     8
 71
     3
 72
     9
 73
     5
 74
     0
 42
0.000000001
 43
0.00000001
 40
0.0
 40
0.0
 40
0.0
 40
0.0
 40
0.5155691840019099
 40
1.0
 40
1.0
 40
1.0
 40
1.0
 10
201.1903431593313
 20
488.4192806260655
 30
0.0
 10
201.3804908255877
 20
488.4156902609653
 30
0.0
 10
201.7493019806308
 20
488.4087263748146
 30
0.0
 10
201.7919174078804
 20
488.6106295426736
 30
0.0
 10
201.8125616340771
 20
488.7084376590321
 30
0.0
  0
LINE
  5
A9
330
1F
100
AcDbEntity
  8
0
  6
Continuous
 62
     7
370
    25
100
AcDbLine
 10
154.4541325747
 20
488.4192806261
 30
0.0
 11
201.1903431593
 21
488.4192806261
 31
0.0
  0
LINE
  5
AA
330
1F
100
AcDbEntity
  8
0
  6
Continuous
 62
     7
370
    25
100
AcDbLine
 10
179.9691715604
 20
518.4192818182
 30
0.0
 11
200.3222387611
 21
518.4192818182
 31
0.0
  0
LINE
  5
AB
330
1F
100
AcDbEntity
  8
0
  6
Continuous
 62
     7
370
    25
100
AcDbLine
 10
155.3222369729
 20
518.4192818182
 30
0.0
 11
175.6753144181
 21
518.4192818182
 31
0.0
  0
ELLIPSE
  5
AC
330
1F
100
AcDbEntity
  8
0
  6
Continuous
 62
     8
370
    18
100
AcDbEllipse
 10
177.822237867
 20
435.1196935729
 30
0.0
 11
13.62225840003612
 21
0.0
 31
0.0
210
0.0
220
0.0
230
1.0
 40
0.6243407052
 41
1.570796326794888
 42
3.130538849774358
  0
ELLIPSE
  5
AD
330
1F
100
AcDbEntity
  8
0
  6
Continuous
 62
     8
370
    18
100
AcDbEllipse
 10
177.822237867
 20
433.9217403078
 30
0.0
 11
12.12225840003611
 21
0.0
 31
0.0
210
0.0
220
0.0
230
1.0
 40
0.6110989899
 41
1.570796326794897
 42
4.712388980384699
  0
LINE
  5
AE
330
1F
100
AcDbEntity
  8
0
  6
Continuous
 62
     8
370
    18
100
AcDbLine
 10
177.822237867
 20
426.5138369577
 30
0.0
 11
177.822237867
 21
426.2117904203
 31
0.0
  0
ELLIPSE
  5
AF
330
1F
100
AcDbEntity
  8
0
  6
Continuous
 62
     8
370
    18
100
AcDbEllipse
 10
177.822237867
 20
435.1196935729
 30
0.0
 11
13.62225840003612
 21
0.0
 31
0.0
210
0.0
220
0.0
230
1.0
 40
0.6243407052
 41
0.0
 42
1.570796326794897
  0
ELLIPSE
  5
B0
330
1F
100
AcDbEntity
  8
0
  6
Continuous
 62
     8
370
    18
100
AcDbEllipse
 10
177.822237867
 20
433.9217403078
 30
0.0
 11
12.12225840003611
 21
0.0
 31
0.0
210
0.0
220
0.0
230
1.0
 40
0.6110989899
 41
4.712388980384699
 42
7.853981633974483
  0
LINE
  5
B1
330
1F
100
AcDbEntity
  8
0
  6
Continuous
 62
     8
370
    18
100
AcDbLine
 10
177.822237867
 20
469.4451403396
 30
0.0
 11
177.822237867
 21
469.3009269016
 31
0.0
  0
SPLINE
  5
B2
330
1F
100
AcDbEntity
  8
0
  6
Continuous
 62
     8
370
    18
100
AcDbSpline
210
0.0
220
0.0
230
1.0
 70
     8
 71
     3
 72
    31
 73
    27
 74
     0
 42
0.000000001
 43
0.00000001
 40
0.0
 40
0.0
 40
0.0
 40
0.0
 40
0.011968411764043
 40
0.112601224913682
 40
0.2133018182004081
 40
0.2490461752441666
 40
0.285970741233684
 40
0.3241427983311955
 40
0.3401650562358898
 40
0.3571340043447727
 40
0.375051050198481
 40
0.3939191031321572
 40
0.4137393927706687
 40
0.4345139014898474
 40
0.4356470780483106
 40
0.4438398101228098
 40
0.4659462760814613
 40
0.487783676186906
 40
0.5152991269419085
 40
0.5484910004582214
 40
0.6155788427261204
 40
0.675984215499243
 40
0.7297459329671648
 40
0.7769187763723457
 40
0.8914250784444948
 40
1.0
 40
1.0
 40
1.0
 40
1.0
 10
191.3904119609728
 20
452.7750026958058
 30
0.0
 10
191.4187510637753
 20
452.8695052118797
 30
0.0
 10
191.6853710423842
 20
453.7586038890581
 30
0.0
 10
191.754026504093
 20
455.6055645001277
 30
0.0
 10
191.5968824648165
 20
457.6016918003692
 30
0.0
 10
191.2822639857609
 20
459.0119379458885
 30
0.0
 10
191.027514629351
 20
459.8904107691243
 30
0.0
 10
190.7723779928919
 20
460.589957016006
 30
0.0
 10
190.5494039502242
 20
461.1216421690459
 30
0.0
 10
190.3796488483262
 20
461.4957724999875
 30
0.0
 10
190.189189827582
 20
461.8836974810408
 30
0.0
 10
189.9764219392852
 20
462.2842175498326
 30
0.0
 10
189.7397937536909
 20
462.6957651934413
 30
0.0
 10
189.564084295285
 20
462.9780208375984
 30
0.0
 10
189.4340132937874
 20
463.1784408263945
 30
0.0
 10
189.2968048409445
 20
463.3862011593232
 30
0.0
 10
189.0602441332111
 20
463.7249495137589
 30
0.0
 10
188.7189157233275
 20
464.1765270766339
 30
0.0
 10
188.3028203008936
 20
464.6811796758993
 30
0.0
 10
187.6193271748505
 20
465.4275010025223
 30
0.0
 10
186.6779193044611
 20
466.2934395761142
 30
0.0
 10
185.5063150369083
 20
467.1541915594291
 30
0.0
 10
184.3829977852112
 20
467.819774675895
 30
0.0
 10
182.7951348095449
 20
468.575842531862
 30
0.0
 10
180.63121738137
 20
469.283003185713
 30
0.0
 10
178.7418189899663
 20
469.392061182118
 30
0.0
 10
177.8222378670111
 20
469.4451403396199
 30
0.0
  0
ARC
  5
B3
330
1F
100
AcDbEntity
  8
0
  6
Continuous
 62
     8
370
    18
100
AcDbCircle
 10
177.8074989116
 20
455.5844593339
 30
0.0
 40
13.86068884216671
100
AcDbArc
 50
89.9390737278
 51
195.4887798282
  0
SPLINE
  5
B4
330
1F
100
AcDbEntity
  8
0
  6
Continuous
 62
     8
370
    18
100
AcDbSpline
210
0.0
220
0.0
230
1.0
 70
     8
 71
     3
 72
    25
 73
    21
 74
     0
 42
0.000000001
 43
0.00000001
 40
0.0
 40
0.0
 40
0.0
 40
0.0
 40
0.0774092221336205
 40
0.1565669019605101
 40
0.2383967061786771
 40
0.2801293153743136
 40
0.322787428283989
 40
0.3688018446703947
 40
0.414077232062756
 40
0.4589823135369556
 40
0.5038949689467889
 40
0.5560039820883897
 40
0.6069173704922775
 40
0.7078092342191017
 40
0.808618540512993
 40
0.8424487619091506
 40
0.8767099661604938
 40
0.9116047308496439
 40
0.9717630086924585
 40
1.0
 40
1.0
 40
1.0
 40
1.0
 10
177.8222378670111
 20
474.4035166280339
 30
0.0
 10
178.879444195894
 20
474.341775027188
 30
0.0
 10
181.0177361859687
 20
474.2168972555208
 30
0.0
 10
184.0836304067182
 20
473.2056998622846
 30
0.0
 10
186.4171006213264
 20
471.922190765958
 30
0.0
 10
188.112151076752
 20
470.6126407457193
 30
0.0
 10
189.3248065023205
 20
469.4670944923806
 30
0.0
 10
190.4453235321119
 20
468.179264002999
 30
0.0
 10
191.4459849259102
 20
466.7575092760562
 30
0.0
 10
192.2982855347436
 20
465.244373837147
 30
0.0
 10
193.0477436624353
 20
463.5599285405157
 30
0.0
 10
193.6691309384172
 20
461.7124758820818
 30
0.0
 10
194.278739148059
 20
459.0534616846014
 30
0.0
 10
194.574426332569
 20
455.6022387843523
 30
0.0
 10
194.3044983065428
 20
452.3821175774282
 30
0.0
 10
193.8378464947278
 20
450.1680173205287
 30
0.0
 10
193.4719273207006
 20
448.8504121234132
 30
0.0
 10
192.9016250852085
 20
447.2532215880925
 30
0.0
 10
192.2625102485913
 20
445.7769906455007
 30
0.0
 10
191.6429190388748
 20
444.8319085027979
 30
0.0
 10
191.444996777071
 20
444.5300113933156
 30
0.0
  0
SPLINE
  5
B5
330
1F
100
AcDbEntity
  8
0
  6
Continuous
 62
     8
370
    18
100
AcDbSpline
210
0.0
220
0.0
230
1.0
 70
     8
 71
     3
 72
    24
 73
    20
 74
     0
 42
0.000000001
 43
0.00000001
 40
0.0
 40
0.0
 40
0.0
 40
0.0
 40
0.0447833010538605
 40
0.0897243607119748
 40
0.1416482814674059
 40
0.1923867111414083
 40
0.2426383510278522
 40
0.293122657928547
 40
0.3938969098560869
 40
0.4277180842401125
 40
0.4619726457422104
 40
0.4968626954892285
 40
0.5566953917254905
 40
0.6167479197924884
 40
0.6779092490977584
 40
0.7618784262243833
 40
0.8434180542188108
 40
0.9225817009724405
 40
1.0
 40
1.0
 40
1.0
 40
1.0
 10
164.202222633256
 20
444.4535237329076
 30
0.0
 10
163.910162157758
 20
444.9493337116528
 30
0.0
 10
163.3250123622621
 20
445.9427002641548
 30
0.0
 10
162.5867921288958
 20
447.6345195622966
 30
0.0
 10
161.9661629643594
 20
449.480482726851
 30
0.0
 10
161.5117605866174
 20
451.4801496381333
 30
0.0
 10
161.2443977335429
 20
453.5196443336523
 30
0.0
 10
161.1287616825824
 20
456.2696308894044
 30
0.0
 10
161.3436539071214
 20
458.807236323342
 30
0.0
 10
161.8134373975734
 20
461.0233680635635
 30
0.0
 10
162.1829701942249
 20
462.34129458535
 30
0.0
 10
162.7494738339106
 20
463.939936226722
 30
0.0
 10
163.593517874652
 20
465.7670322063096
 30
0.0
 10
164.8324869537496
 20
467.7332181260784
 30
0.0
 10
166.5185727611975
 20
469.7382442442821
 30
0.0
 10
168.7346452936442
 20
471.6500119189575
 30
0.0
 10
171.5537665306653
 20
473.202550379288
 30
0.0
 10
174.6209511109132
 20
474.216321395875
 30
0.0
 10
176.7631014735466
 20
474.3415836310336
 30
0.0
 10
177.8222378670111
 20
474.4035166280339
 30
0.0
  0
LINE
  5
B6
330
1F
100
AcDbEntity
  8
0
  6
Continuous
 62
     8
370
    18
100
AcDbLine
 10
177.822237867
 20
358.6510915833
 30
0.0
 11
201.8222380756
 21
358.6510915833
 31
0.0
  0
LINE
  5
B7
330
1F
100
AcDbEntity
  8
0
  6
Continuous
 62
     8
370
    18
100
AcDbLine
 10
153.8222376584
 20
358.6510915833
 30
0.0
 11
177.822237867
 21
358.6510915833
 31
0.0
  0
LINE
  5
B8
330
1F
100
AcDbEntity
  8
0
  6
Continuous
 62
     8
370
    18
100
AcDbLine
 10
201.6192041664
 20
488.6192840116
 30
0.0
 11
154.0252715676
 21
488.6192840116
 31
0.0
  0
CIRCLE
  5
B9
330
1F
100
AcDbEntity
  8
0
  6
Continuous
 62
     8
370
    18
100
AcDbCircle
 10
177.822237867
 20
510.4192797051
 30
0.0
 40
2.828082609483857
  0
CIRCLE
  5
BA
330
1F
100
AcDbEntity
  8
0
  6
Continuous
 62
     8
370
    18
100
AcDbCircle
 10
177.822237867
 20
510.4192797051
 30
0.0
 40
4.328080324853801
  0
SPLINE
  5
BB
330
1F
100
AcDbEntity
  8
0
  6
Continuous
 62
     8
370
    18
100
AcDbSpline
210
0.0
220
0.0
230
1.0
 70
     8
 71
     3
 72
    16
 73
    12
 74
     0
 42
0.000000001
 43
0.00000001
 40
0.0
 40
0.0
 40
0.0
 40
0.0
 40
0.2499999999999999
 40
0.2499999999999999
 40
0.4999999999999998
 40
0.4999999999999998
 40
0.7499999999999998
 40
0.7499999999999998
 40
0.8749999999999998
 40
0.8749999999999998
 40
1.0
 40
1.0
 40
1.0
 40
1.0
 10
180.1103124635672
 20
516.9196422876247
 30
0.0
 10
179.7334143385056
 20
516.9701426578375
 30
0.0
 10
179.3518803380746
 20
517.011118033205
 30
0.0
 10
178.5908549185559
 20
517.0667396353981
 30
0.0
 10
178.209374656364
 20
517.0816616321715
 30
0.0
 10
177.444082784549
 20
517.0818838597067
 30
0.0
 10
177.0593082240765
 20
517.0671451808737
 30
0.0
 10
176.4853819024951
 20
517.025326921749
 30
0.0
 10
176.2945401394956
 20
517.0081439243796
 30
0.0
 10
175.9136471046064
 20
516.9679951141017
 30
0.0
 10
175.7222968227873
 20
516.9448559965648
 30
0.0
 10
175.5338517346277
 20
516.9195876110412
 30
0.0
  0
SPLINE
  5
BC
330
1F
100
AcDbEntity
  8
0
  6
Continuous
 62
     8
370
    18
100
AcDbSpline
210
0.0
220
0.0
230
1.0
 70
     8
 71
     3
 72
    47
 73
    43
 74
     0
 42
0.000000001
 43
0.00000001
 40
0.0
 40
0.0
 40
0.0
 40
0.0
 40
0.0039700764322279
 40
0.0079597372480239
 40
0.0426571766612925
 40
0.0776947099143463
 40
0.1128141361440182
 40
0.1480912912147435
 40
0.1838279385273297
 40
0.219613343838187
 40
0.2550269346314021
 40
0.2909602694334013
 40
0.326484501676038
 40
0.3613266238710695
 40
0.3962443329314312
 40
0.4308301456084159
 40
0.4656625697798712
 40
0.5002981881937254
 40
0.534921694065499
 40
0.5697709326529596
 40
0.6043501785208981
 40
0.6392851311656348
 40
0.6740964144345297
 40
0.7096212681020517
 40
0.745551791429373
 40
0.7809924436733082
 40
0.7949707630128486
 40
0.8088258558161711
 40
0.8226344272110647
 40
0.8364739554892521
 40
0.8504214024791437
 40
0.8642725214972675
 40
0.8779499705795193
 40
0.8915483326338367
 40
0.905143568696057
 40
0.9188116910929823
 40
0.9325460864852417
 40
0.9461104918096968
 40
0.9595536252891318
 40
0.9729552020602569
 40
0.9863956763470235
 40
1.0
 40
1.0
 40
1.0
 40
1.0
 10
180.1113791794854
 20
516.9196396111074
 30
0.0
 10
180.157775843053
 20
516.9011582536016
 30
0.0
 10
180.2507980448891
 20
516.8641043700695
 30
0.0
 10
180.7431088304237
 20
516.6514322104143
 30
0.0
 10
181.5535965192572
 20
516.1904284160512
 30
0.0
 10
182.541581060693
 20
515.3141628406099
 30
0.0
 10
183.3501374339913
 20
514.2607978898685
 30
0.0
 10
183.9429522982549
 20
513.0588341667902
 30
0.0
 10
184.3114266002419
 20
511.7567482974588
 30
0.0
 10
184.4297522320213
 20
510.4033738960638
 30
0.0
 10
184.3018403620197
 20
509.0483230124639
 30
0.0
 10
183.9215626328633
 20
507.749189120529
 30
0.0
 10
183.3264493848218
 20
506.5463687554133
 30
0.0
 10
182.5161534876252
 20
505.4963809802279
 30
0.0
 10
181.5270732082644
 20
504.6303555763013
 30
0.0
 10
180.3793772546625
 20
503.9825986956801
 30
0.0
 10
179.1236628331977
 20
503.5749117822016
 30
0.0
 10
177.8056963007523
 20
503.443660292607
 30
0.0
 10
176.4882896479538
 20
503.5818279180268
 30
0.0
 10
175.2348454077636
 20
503.9959867469182
 30
0.0
 10
174.0903011075332
 20
504.6497129197035
 30
0.0
 10
173.1057727466345
 20
505.5204721600771
 30
0.0
 10
172.3007036086704
 20
506.5742798689017
 30
0.0
 10
171.7112802454417
 20
507.7796402562775
 30
0.0
 10
171.3367759986204
 20
509.0805671485511
 30
0.0
 10
171.2393464690992
 20
510.1614346657172
 30
0.0
 10
171.268752801623
 20
510.960491536015
 30
0.0
 10
171.3251206484962
 20
511.4836945739596
 30
0.0
 10
171.4189219870775
 20
511.999255216465
 30
0.0
 10
171.5501269403084
 20
512.5072062191247
 30
0.0
 10
171.7178470528962
 20
513.0041176397551
 30
0.0
 10
171.9191524503774
 20
513.4854259410154
 30
0.0
 10
172.1526129530348
 20
513.9463356814948
 30
0.0
 10
172.4178334624225
 20
514.3852702461633
 30
0.0
 10
172.7150861067869
 20
514.802442064569
 30
0.0
 10
173.043977524192
 20
515.1969520160097
 30
0.0
 10
173.4008355536687
 20
515.5657312725708
 30
0.0
 10
173.7826843442346
 20
515.90455011217
 30
0.0
 10
174.1867537844405
 20
516.2103081183412
 30
0.0
 10
174.6131144040939
 20
516.48189357613
 30
0.0
 10
175.0609092321717
 20
516.7227950347753
 30
0.0
 10
175.3749747927881
 20
516.8537216563576
 30
0.0
 10
175.5329589472418
 20
516.9195815728843
 30
0.0
  0
CIRCLE
  5
BD
330
1F
100
AcDbEntity
  8
0
  6
Continuous
 62
     8
370
    18
100
AcDbCircle
 10
177.822237867
 20
498.4192797051
 30
0.0
 40
3.781418633081842
  0
LINE
  5
BE
330
1F
100
AcDbEntity
  8
0
  6
Continuous
 62
     8
370
    18
100
AcDbLine
 10
175.5321862037
 20
516.9192862289
 30
0.0
 11
153.8222376584
 21
516.9192862289
 31
0.0
  0
LINE
  5
BF
330
1F
100
AcDbEntity
  8
0
  6
Continuous
 62
     8
370
    18
100
AcDbLine
 10
201.8222380756
 20
516.9192862289
 30
0.0
 11
180.1123004733
 21
516.9192862289
 31
0.0
  0
LINE
  5
C0
330
1F
100
AcDbEntity
  8
0
  6
Continuous
 62
     7
370
    25
100
AcDbLine
 10
385.6193801563
 20
474.403516628
 30
0.0
 11
385.6193801563
 21
487.9192870634
 31
0.0
  0
LINE
  5
C1
330
1F
100
AcDbEntity
  8
0
  6
Continuous
 62
     7
370
    25
100
AcDbLine
 10
385.6193801563
 20
358.6510915833
 30
0.0
 11
385.6193801563
 21
436.758623697
 31
0.0
  0
LINE
  5
C2
330
1F
100
AcDbEntity
  8
0
  6
Continuous
 62
     7
370
    25
100
AcDbLine
 10
337.6193797391
 20
392.6697981136
 30
0.0
 11
337.6193797391
 21
358.6510915833
 31
0.0
  0
LINE
  5
C3
330
1F
100
AcDbEntity
  8
0
  6
Continuous
 62
     7
370
    25
100
AcDbLine
 10
337.6193797391
 20
487.9192870634
 30
0.0
 11
337.6193797391
 21
404.354200937
 31
0.0
  0
ARC
  5
C4
330
1F
100
AcDbEntity
  8
0
  6
Continuous
 62
     7
370
    25
100
AcDbCircle
 10
337.9193799477
 20
358.6510918525
 30
0.0
 40
0.3000000000000114
100
AcDbArc
 50
180.0
 51
270.0
  0
ARC
  5
C5
330
1F
100
AcDbEntity
  8
0
  6
Continuous
 62
     7
370
    25
100
AcDbCircle
 10
385.3193799477
 20
358.6510918525
 30
0.0
 40
0.3000000000000114
100
AcDbArc
 50
270.0
 51
0.0
  0
ARC
  5
C6
330
1F
100
AcDbEntity
  8
0
  6
Continuous
 62
     7
370
    25
100
AcDbCircle
 10
385.1193799477
 20
487.9192797051
 30
0.0
 40
0.5
100
AcDbArc
 50
0.0
 51
90.0
  0
ARC
  5
C7
330
1F
100
AcDbEntity
  8
0
  6
Continuous
 62
     7
370
    25
100
AcDbCircle
 10
338.1193799477
 20
487.9192797051
 30
0.0
 40
0.5
100
AcDbArc
 50
90.0
 51
180.0
  0
ARC
  5
C8
330
1F
100
AcDbEntity
  8
0
  6
Continuous
 62
     7
370
    25
100
AcDbCircle
 10
338.0224141506
 20
488.6192797051
 30
0.0
 40
0.2000000000000487
100
AcDbArc
 50
153.3578326073
 51
180.0
  0
ARC
  5
C9
330
1F
100
AcDbEntity
  8
0
  6
Continuous
 62
     7
370
    25
100
AcDbCircle
 10
338.0224141506
 20
488.6192797051
 30
0.0
 40
0.2000000000000455
100
AcDbArc
 50
180.0
 51
270.0
  0
ARC
  5
CA
330
1F
100
AcDbEntity
  8
0
  6
Continuous
 62
     7
370
    25
100
AcDbCircle
 10
361.6193799477
 20
476.7810701625
 30
0.0
 40
26.59999999999999
100
AcDbArc
 50
139.5634701912
 51
153.3578326073
  0
SPLINE
  5
CB
330
1F
100
AcDbEntity
  8
0
  6
Continuous
 62
     7
370
    25
100
AcDbSpline
210
0.0
220
0.0
230
1.0
 70
     8
 71
     3
 72
    23
 73
    19
 74
     0
 42
0.000000001
 43
0.00000001
 40
0.0
 40
0.0
 40
0.0
 40
0.0
 40
0.0850578177344066
 40
0.1524428334506468
 40
0.2047717179245472
 40
0.2514932471002815
 40
0.3006418594167327
 40
0.4021715183385564
 40
0.5044655636119362
 40
0.5805241479150511
 40
0.6561908212170788
 40
0.7258476090914571
 40
0.758265280476282
 40
0.7893278056718482
 40
0.8236606418252388
 40
0.8689376617989976
 40
0.9268535278985569
 40
1.0
 40
1.0
 40
1.0
 40
1.0
 10
431.872826645866
 20
441.8612059729168
 30
0.0
 10
433.1656043119685
 20
441.8630022373333
 30
0.0
 10
435.4825540726331
 20
441.8662215491445
 30
0.0
 10
438.5947106554028
 20
441.831350191092
 30
0.0
 10
441.1237198454406
 20
441.7743782300412
 30
0.0
 10
443.3748325277409
 20
441.6949895004919
 30
0.0
 10
446.371298508178
 20
441.5432342458132
 30
0.0
 10
450.2051373903514
 20
441.2332599892441
 30
0.0
 10
454.4191239452243
 20
440.616398597322
 30
0.0
 10
458.1809059663585
 20
439.7279314415587
 30
0.0
 10
461.3739384193276
 20
438.6484234823839
 30
0.0
 10
463.8349975185708
 20
437.522788539078
 30
0.0
 10
465.6105308554416
 20
436.5510816991243
 30
0.0
 10
466.8835195227314
 20
435.7824397614796
 30
0.0
 10
468.2870851437238
 20
434.854508243362
 30
0.0
 10
469.9763204830478
 20
433.6222604993061
 30
0.0
 10
472.0646012178935
 20
431.9397920348003
 30
0.0
 10
473.5369789034643
 20
430.5974989356138
 30
0.0
 10
474.3587194185405
 20
429.8483592050144
 30
0.0
  0
SPLINE
  5
CC
330
1F
100
AcDbEntity
  8
0
  6
Continuous
 62
     7
370
    25
100
AcDbSpline
210
0.0
220
0.0
230
1.0
 70
     8
 71
     3
 72
    30
 73
    26
 74
     0
 42
0.000000001
 43
0.00000001
 40
0.0
 40
0.0
 40
0.0
 40
0.0
 40
0.0471646804894997
 40
0.0858010100048517
 40
0.116835320790534
 40
0.1466033302311179
 40
0.1657899969192676
 40
0.1811348554775884
 40
0.1987127814628439
 40
0.2184632975157915
 40
0.2403410591464848
 40
0.2643252121801187
 40
0.3430590901868161
 40
0.4209086125590216
 40
0.5004734631706935
 40
0.5902393618777283
 40
0.6784430378646631
 40
0.7629766106226418
 40
0.7895223138540165
 40
0.8148339225769887
 40
0.8387767238954059
 40
0.865068281482158
 40
0.900044934138648
 40
0.9446432397213286
 40
1.0
 40
1.0
 40
1.0
 40
1.0
 10
492.9394392471462
 20
449.7737374680111
 30
0.0
 10
492.174300896966
 20
450.4797471010116
 30
0.0
 10
490.7823770557027
 20
451.7641052044888
 30
0.0
 10
488.8402354528606
 20
453.4612425506193
 30
0.0
 10
487.1576291523734
 20
454.8708333327523
 30
0.0
 10
485.778747819262
 20
455.9738311294749
 30
0.0
 10
484.6524563219024
 20
456.837529683451
 30
0.0
 10
483.7288417544432
 20
457.5230852272193
 30
0.0
 10
482.7843206784092
 20
458.2011473772433
 30
0.0
 10
481.7082680213073
 20
458.9428939514393
 30
0.0
 10
480.4973252620794
 20
459.7375952312956
 30
0.0
 10
478.1586912659687
 20
461.185056565901
 30
0.0
 10
474.636383777987
 20
463.0669666213089
 30
0.0
 10
469.7967667487416
 20
465.0275021196539
 30
0.0
 10
464.5536744542131
 20
466.564873476771
 30
0.0
 10
458.9723822499166
 20
467.6765304697978
 30
0.0
 10
453.2226461282561
 20
468.4165355448491
 30
0.0
 10
448.8370570892952
 20
468.7711712428185
 30
0.0
 10
445.8317457501555
 20
468.9484640198459
 30
0.0
 10
444.1606658235694
 20
469.0315956569541
 30
0.0
 10
442.4945990799931
 20
469.1012739700968
 30
0.0
 10
440.6148556562474
 20
469.1661653531029
 30
0.0
 10
438.2788730444997
 20
469.2277082973735
 30
0.0
 10
435.3009601176059
 20
469.2806419238394
 30
0.0
 10
433.0946934380786
 20
469.2936968620049
 30
0.0
 10
431.872826645866
 20
469.3009269015858
 30
0.0
  0
LINE
  5
CD
330
1F
100
AcDbEntity
  8
0
  6
Continuous
 62
     7
370
    25
100
AcDbLine
 10
327.7777252894
 20
419.8510882037
 30
0.0
 11
314.7777250211
 21
419.8510882037
 31
0.0
  0
LINE
  5
CE
330
1F
100
AcDbEntity
  8
0
  6
Continuous
 62
     7
370
    25
100
AcDbLine
 10
314.7777250211
 20
415.8510949986
 30
0.0
 11
327.7777252894
 21
415.8510949986
 31
0.0
  0
ARC
  5
CF
330
1F
100
AcDbEntity
  8
0
  6
Continuous
 62
     7
370
    25
100
AcDbCircle
 10
327.7777263577
 20
413.8510918525
 30
0.0
 40
2.0
100
AcDbArc
 50
20.0
 51
90.0
  0
ARC
  5
D0
330
1F
100
AcDbEntity
  8
0
  6
Continuous
 62
     7
370
    25
100
AcDbCircle
 10
327.7777263577
 20
413.8510918525
 30
0.0
 40
6.000000000000018
100
AcDbArc
 50
20.0
 51
90.0
  0
LINE
  5
D1
330
1F
100
AcDbEntity
  8
0
  6
Continuous
 62
     7
370
    25
100
AcDbLine
 10
337.6193797391
 20
404.354200937
 30
0.0
 11
333.4158813756
 21
415.9032118099
 31
0.0
  0
LINE
  5
D2
330
1F
100
AcDbEntity
  8
0
  6
Continuous
 62
     7
370
    25
100
AcDbLine
 10
329.6571118932
 20
414.5351287501
 30
0.0
 11
337.6159431588
 21
392.6684234815
 31
0.0
  0
LINE
  5
D3
330
1F
100
AcDbEntity
  8
0
  6
Continuous
 62
     7
370
    25
100
AcDbLine
 10
385.6193801563
 20
502.3696732299
 30
0.0
 11
385.6193801563
 21
503.4901511447
 31
0.0
  0
LINE
  5
D4
330
1F
100
AcDbEntity
  8
0
  6
Continuous
 62
     7
370
    25
100
AcDbLine
 10
385.6193801563
 20
488.4192806261
 30
0.0
 11
385.6193801563
 21
494.4264453428
 31
0.0
  0
LINE
  5
D5
330
1F
100
AcDbEntity
  8
0
  6
Continuous
 62
     7
370
    25
100
AcDbLine
 10
337.6193797391
 20
516.9192862289
 30
0.0
 11
337.6193797391
 21
495.0750630872
 31
0.0
  0
ARC
  5
D6
330
1F
100
AcDbEntity
  8
0
  6
Continuous
 62
     7
370
    25
100
AcDbCircle
 10
339.1193799477
 20
516.9192797051
 30
0.0
 40
1.5
100
AcDbArc
 50
90.0
 51
180.0
  0
SPLINE
  5
D7
330
1F
100
AcDbEntity
  8
0
  6
Continuous
 62
     7
370
    25
100
AcDbSpline
210
0.0
220
0.0
230
1.0
 70
     8
 71
     3
 72
    13
 73
     9
 74
     0
 42
0.000000001
 43
0.00000001
 40
0.0
 40
0.0
 40
0.0
 40
0.0
 40
0.2394823331271997
 40
0.3683761462814298
 40
0.4999985742941367
 40
0.6316232724075266
 40
0.760518669510871
 40
1.0
 40
1.0
 40
1.0
 40
1.0
 10
385.6193801562935
 20
503.4884524123737
 30
0.0
 10
385.6523994033819
 20
503.7997395554765
 30
0.0
 10
385.7031902188743
 20
504.2785671861655
 30
0.0
 10
386.0114238074337
 20
504.8547661459701
 30
0.0
 10
386.3304354356829
 20
505.2513496101409
 30
0.0
 10
386.7264643154166
 20
505.5710530245705
 30
0.0
 10
387.3021285878247
 20
505.8802911371196
 30
0.0
 10
387.7808666352975
 20
505.9319221018765
 30
0.0
 10
388.0920937459617
 20
505.9654873387883
 30
0.0
  0
SPLINE
  5
D8
330
1F
100
AcDbEntity
  8
0
  6
Continuous
 62
     7
370
    25
100
AcDbSpline
210
0.0
220
0.0
230
1.0
 70
     8
 71
     3
 72
    13
 73
     9
 74
     0
 42
0.000000001
 43
0.00000001
 40
0.0
 40
0.0
 40
0.0
 40
0.0
 40
0.2602922580821875
 40
0.4003889414352692
 40
0.543449467277789
 40
0.6865134146702103
 40
0.8266083759887576
 40
1.0
 40
1.0
 40
1.0
 40
1.0
 10
388.0920918833166
 20
514.8730736749241
 30
0.0
 10
387.7808407996846
 20
514.9066309234597
 30
0.0
 10
387.302065545998
 20
514.9582496358931
 30
0.0
 10
386.7265904339699
 20
515.2675470160383
 30
0.0
 10
386.3299541325299
 20
515.5870508875855
 30
0.0
 10
386.0131734903254
 20
515.9843319007853
 30
0.0
 10
385.7454804412779
 20
516.4656979345982
 30
0.0
 10
385.7015984714615
 20
516.8393314761495
 30
0.0
 10
385.677327046886
 20
517.0459908025333
 30
0.0
  0
LINE
  5
D9
330
1F
100
AcDbEntity
  8
0
  6
Continuous
 62
     7
370
    25
100
AcDbLine
 10
388.0917882722
 20
505.9654873388
 30
0.0
 11
460.1220010023
 21
506.0911935346
 31
0.0
  0
LINE
  5
DA
330
1F
100
AcDbEntity
  8
0
  6
Continuous
 62
     7
370
    25
100
AcDbLine
 10
460.1220010023
 20
514.7473674791
 30
0.0
 11
388.0918348383
 21
514.8730736749
 31
0.0
  0
ARC
  5
DB
330
1F
100
AcDbEntity
  8
0
  6
Continuous
 62
     7
370
    25
100
AcDbCircle
 10
460.1193799477
 20
513.2473623146
 30
0.0
 40
1.500000000000057
100
AcDbArc
 50
0.0
 51
89.9
  0
ARC
  5
DC
330
1F
100
AcDbEntity
  8
0
  6
Continuous
 62
     7
370
    25
100
AcDbCircle
 10
460.1193799477
 20
507.5911970956
 30
0.0
 40
1.500000000000069
100
AcDbArc
 50
270.1
 51
0.0
  0
LINE
  5
DD
330
1F
100
AcDbEntity
  8
0
  6
Continuous
 62
     7
370
    25
100
AcDbLine
 10
385.6182420801
 20
494.4192778843
 30
0.0
 11
385.9693804931
 21
494.4192778843
 31
0.0
  0
LINE
  5
DE
330
1F
100
AcDbEntity
  8
0
  6
Continuous
 62
     7
370
    25
100
AcDbLine
 10
385.9693804931
 20
502.4192791956
 30
0.0
 11
385.6112180452
 21
502.4192791956
 31
0.0
  0
LINE
  5
DF
330
1F
100
AcDbEntity
  8
0
  6
Continuous
 62
     7
370
    25
100
AcDbLine
 10
385.9693804931
 20
494.4192778843
 30
0.0
 11
386.5699270915
 21
494.6378630178
 31
0.0
  0
LINE
  5
E0
330
1F
100
AcDbEntity
  8
0
  6
Continuous
 62
     7
370
    25
100
AcDbLine
 10
386.5699270915
 20
502.200694062
 30
0.0
 11
385.9693804931
 21
502.4192791956
 31
0.0
  0
ARC
  5
E1
330
1F
100
AcDbEntity
  8
0
  6
Continuous
 62
     7
370
    25
100
AcDbCircle
 10
386.5015232889
 20
502.012759814
 30
0.0
 40
0.2000000000000359
100
AcDbArc
 50
0.0
 51
70.0
  0
ARC
  5
E2
330
1F
100
AcDbEntity
  8
0
  6
Continuous
 62
     7
370
    25
100
AcDbCircle
 10
386.5015232889
 20
494.8257995962
 30
0.0
 40
0.1999999999999824
100
AcDbArc
 50
290.0
 51
0.0
  0
LINE
  5
E3
330
1F
100
AcDbEntity
  8
0
  6
Continuous
 62
     7
370
    25
100
AcDbLine
 10
386.7015229713
 20
494.8257964628
 30
0.0
 11
386.7015229713
 21
502.012760617
 31
0.0
  0
ARC
  5
E4
330
1F
100
AcDbEntity
  8
0
  6
Continuous
 62
     7
370
    25
100
AcDbCircle
 10
384.1423088929
 20
516.9193079326
 30
0.0
 40
1.499966103984546
100
AcDbArc
 50
4.3234650483
 51
91.1836122228
  0
SPLINE
  5
E5
330
1F
100
AcDbEntity
  8
0
  6
Continuous
 62
     7
370
    25
100
AcDbSpline
210
0.0
220
0.0
230
1.0
 70
     8
 71
     3
 72
    22
 73
    18
 74
     0
 42
0.000000001
 43
0.00000001
 40
0.0
 40
0.0
 40
0.0
 40
0.0
 40
0.0104286926296256
 40
0.0298173950373811
 40
0.0607115989749356
 40
0.1175713160005378
 40
0.1984472147543906
 40
0.2815674560288632
 40
0.4564125598572027
 40
0.6352992089329781
 40
0.7451354381026746
 40
0.8228636614608433
 40
0.9048188899361258
 40
0.9379052939884548
 40
0.971251661679582
 40
0.9898686205962237
 40
1.0
 40
1.0
 40
1.0
 40
1.0
 10
337.6197150151878
 20
392.6697981135914
 30
0.0
 10
337.6196622025963
 20
392.6680847574503
 30
0.0
 10
337.6195112024701
 20
392.6631859826264
 30
0.0
 10
337.62270903277
 20
392.7670427934087
 30
0.0
 10
337.6313944346556
 20
393.0576066675073
 30
0.0
 10
337.6485499132664
 20
393.6843681638709
 30
0.0
 10
337.6687946659653
 20
394.5853985772483
 30
0.0
 10
337.6926863816029
 20
396.0259079781929
 30
0.0
 10
337.7070226279476
 20
397.9295748410125
 30
0.0
 10
337.6988594697909
 20
399.9514815612506
 30
0.0
 10
337.6790946561802
 20
401.5299571042769
 30
0.0
 10
337.6591297154521
 20
402.6630153545246
 30
0.0
 10
337.6420722335487
 20
403.4457135249935
 30
0.0
 10
337.6290773630313
 20
403.9797653623453
 30
0.0
 10
337.6225272150948
 20
404.2348502935736
 30
0.0
 10
337.6196649516348
 20
404.3434222836849
 30
0.0
 10
337.6194540605057
 20
404.3513922071159
 30
0.0
 10
337.6193797390609
 20
404.3542009370396
 30
0.0
  0
LINE
  5
E6
330
1F
100
AcDbEntity
  8
0
  6
Continuous
 62
     7
370
    25
100
AcDbLine
 10
385.3193806659
 20
358.3510920929
 30
0.0
 11
337.9193792294
 21
358.3510920929
 31
0.0
  0
LINE
  5
E7
330
1F
100
AcDbEntity
  8
0
  6
Continuous
 62
     7
370
    25
100
AcDbLine
 10
367.1005853627
 20
488.4192806261
 30
0.0
 11
338.0224133085
 21
488.4192806261
 31
0.0
  0
ARC
  5
E8
330
1F
100
AcDbEntity
  8
0
  6
Continuous
 62
     7
370
    25
100
AcDbCircle
 10
390.5777890201
 20
474.4035183892
 30
0.0
 40
4.958409072396591
100
AcDbArc
 50
180.0
 51
269.8
  0
ARC
  5
E9
330
1F
100
AcDbEntity
  8
0
  6
Continuous
 62
     7
370
    25
100
AcDbCircle
 10
390.5777890201
 20
436.7586219359
 30
0.0
 40
4.958409072396591
100
AcDbArc
 50
90.2
 51
180.0
  0
LINE
  5
EA
330
1F
100
AcDbEntity
  8
0
  6
Continuous
 62
     7
370
    25
100
AcDbLine
 10
431.8728266459
 20
441.8612059729
 30
0.0
 11
390.5604804109
 21
441.7169999855
 31
0.0
  0
LINE
  5
EB
330
1F
100
AcDbEntity
  8
0
  6
Continuous
 62
     7
370
    25
100
AcDbLine
 10
390.5604804109
 20
469.4451403396
 30
0.0
 11
431.8728266459
 21
469.3009269016
 31
0.0
  0
LINE
  5
EC
330
1F
100
AcDbEntity
  8
0
  6
Continuous
 62
     7
370
    25
100
AcDbLine
 10
492.9394392471
 20
449.773737468
 30
0.0
 11
499.5335458021
 21
443.6246242898
 31
0.0
  0
LINE
  5
ED
330
1F
100
AcDbEntity
  8
0
  6
Continuous
 62
     7
370
    25
100
AcDbLine
 10
477.8263239365
 20
426.6147625225
 30
0.0
 11
474.3587194185
 21
429.848359205
 31
0.0
  0
ARC
  5
EE
330
1F
100
AcDbEntity
  8
0
  6
Continuous
 62
     7
370
    25
100
AcDbCircle
 10
498.5105486595
 20
442.527593437
 30
0.0
 40
1.50000000000004
100
AcDbArc
 50
307.0
 51
47.0
  0
LWPOLYLINE
  5
EF
330
1F
100
AcDbEntity
  8
0
  6
Continuous
 62
     7
370
    25
100
AcDbPolyline
 90
       23
 70
   128
 43
0.0
 10
499.4132785301
 20
441.3296368496
 10
499.3132023316
 20
441.254236974
 10
499.0150598984
 20
441.0295647161
 10
498.5249011021
 20
440.660202183
 10
497.8526948195
 20
440.15365956
 10
497.0121352177
 20
439.5202559011
 10
496.0203437309
 20
438.7728807108
 10
494.8974816303
 20
437.9267555254
 10
493.6664370995
 20
436.9990911858
 10
492.3522589903
 20
436.0087898152
 10
490.9816948872
 20
434.9759977834
 10
489.582654665
 20
433.921740629
 10
488.1836144428
 20
432.8674834745
 10
486.8130503397
 20
431.8346914427
 10
485.4988722305
 20
430.8443900721
 10
484.2678276997
 20
429.9167257326
 10
483.1449730497
 20
429.0706005471
 10
482.1531741123
 20
428.3232253568
 10
481.3126145106
 20
427.689821698
 10
480.6404156785
 20
427.1832790749
 10
480.1502494316
 20
426.8139090912
 10
479.8520995479
 20
426.5892442839
 10
479.7520382505
 20
426.5138369577
  0
ARC
  5
F0
330
1F
100
AcDbEntity
  8
0
  6
Continuous
 62
     7
370
    25
100
AcDbCircle
 10
478.8493183521
 20
427.7117937088
 30
0.0
 40
1.500000000000184
100
AcDbArc
 50
227.0
 51
307.0
  0
LINE
  5
F1
330
1F
100
AcDbEntity
  8
0
  6
Continuous
 62
     7
370
    25
100
AcDbLine
 10
314.7777250211
 20
415.8510949986
 30
0.0
 11
314.7777250211
 21
419.8510882037
 31
0.0
  0
SPLINE
  5
F2
330
1F
100
AcDbEntity
  8
0
  6
Continuous
 62
     7
370
    25
100
AcDbSpline
210
0.0
220
0.0
230
1.0
 70
     8
 71
     3
 72
    14
 73
    10
 74
     0
 42
0.000000001
 43
0.00000001
 40
0.0
 40
0.0
 40
0.0
 40
0.0
 40
0.2500000000000001
 40
0.2500000000000001
 40
0.5
 40
0.5
 40
0.7499999999999999
 40
0.7499999999999999
 40
1.0
 40
1.0
 40
1.0
 40
1.0
 10
356.3473771180327
 20
489.8813354860996
 30
0.0
 10
357.2120792612799
 20
489.6415323584757
 30
0.0
 10
358.0847344861222
 20
489.4017380041108
 30
0.0
 10
359.8631972865661
 20
488.9884996434265
 30
0.0
 10
360.7620868687479
 20
488.8159150156172
 30
0.0
 10
362.5815155700088
 20
488.5693725699603
 30
0.0
 10
363.4915836342134
 20
488.4968370526014
 30
0.0
 10
365.2986215611409
 20
488.4214433580739
 30
0.0
 10
366.1976057826836
 20
488.4192797050861
 30
0.0
 10
367.0903598363786
 20
488.4192797050861
 30
0.0
  0
LWPOLYLINE
  5
F3
330
1F
100
AcDbEntity
  8
0
  6
Continuous
 62
     7
370
    25
100
AcDbPolyline
 90
       14
 70
   128
 43
0.0
 10
337.6193797391
 20
495.0750630872
 10
337.7485430043
 20
495.0392555969
 10
338.1346395414
 20
494.9321758525
 10
338.7735175144
 20
494.7550010459
 10
339.658296312
 20
494.5096236246
 10
340.7794540923
 20
494.1986959951
 10
342.12492464
 20
493.8255709188
 10
343.6802240263
 20
493.3942419069
 10
345.4286126595
 20
492.9093730228
 10
347.3512713041
 20
492.376179673
 10
349.4275050413
 20
491.8003839033
 10
351.6349667858
 20
491.1881994979
 10
353.9498966362
 20
490.5462127702
 10
356.347377057
 20
489.8813378589
  0
LINE
  5
F4
330
1F
100
AcDbEntity
  8
0
  6
Continuous
 62
     7
370
    25
100
AcDbLine
 10
367.0903599064
 20
488.4192806261
 30
0.0
 11
385.6193801563
 21
488.4192806261
 31
0.0
  0
SPLINE
  5
F5
330
1F
100
AcDbEntity
  8
0
  6
Continuous
 62
     7
370
    25
100
AcDbSpline
210
0.0
220
0.0
230
1.0
 70
     8
 71
     3
 72
    12
 73
     8
 74
     0
 42
0.000000001
 43
0.00000001
 40
0.0
 40
0.0
 40
0.0
 40
0.0
 40
0.2128006797878202
 40
0.4255331000710845
 40
0.640129287133497
 40
0.8559825536204123
 40
1.0
 40
1.0
 40
1.0
 40
1.0
 10
385.2836998354345
 20
498.4192859904835
 30
0.0
 10
385.2912430359337
 20
498.86534114321
 30
0.0
 10
385.3063270173199
 20
499.7573083687454
 30
0.0
 10
385.4120174212021
 20
500.9510393454623
 30
0.0
 10
385.5271286595192
 20
501.8504691970674
 30
0.0
 10
385.6107779523228
 20
502.3682525043781
 30
0.0
 10
385.6110723070938
 20
502.3692671690636
 30
0.0
 10
385.6111901055723
 20
502.3696732299396
 30
0.0
  0
SPLINE
  5
F6
330
1F
100
AcDbEntity
  8
0
  6
Continuous
 62
     7
370
    25
100
AcDbSpline
210
0.0
220
0.0
230
1.0
 70
     8
 71
     3
 72
    12
 73
     8
 74
     0
 42
0.000000001
 43
0.00000001
 40
0.0
 40
0.0
 40
0.0
 40
0.0
 40
0.2049885394764028
 40
0.416884655874493
 40
0.6312320260825557
 40
0.84698740420525
 40
1.0
 40
1.0
 40
1.0
 40
1.0
 10
385.61821414043
 20
494.4264453427861
 30
0.0
 10
385.6117779887326
 20
494.4640605382918
 30
0.0
 10
385.5986888038818
 20
494.5405584628789
 30
0.0
 10
385.4970197093775
 20
495.1977328964297
 30
0.0
 10
385.3803890244606
 20
496.188064898415
 30
0.0
 10
385.2969470479256
 20
497.3275593597832
 30
0.0
 10
385.287584591763
 20
498.099136227617
 30
0.0
 10
385.2836998354345
 20
498.4192859904835
 30
0.0
  0
LINE
  5
F7
330
1F
100
AcDbEntity
  8
0
  6
Continuous
 62
     7
370
    25
100
AcDbLine
 10
339.1193790536
 20
518.4192818182
 30
0.0
 11
384.0167174291
 21
518.4192818182
 31
0.0
  0
LINE
  5
F8
330
1F
100
AcDbEntity
  8
0
  6
Continuous
 62
     7
370
    25
100
AcDbLine
 10
461.6193814378
 20
513.2473569887
 30
0.0
 11
461.6193814378
 21
507.591204025
 31
0.0
  0
LINE
  5
F9
330
1F
100
AcDbEntity
  8
0
  6
Continuous
 62
     7
370
    25
100
AcDbLine
 10
385.9693804931
 20
498.4192859905
 30
0.0
 11
385.9693804931
 21
502.4192791956
 31
0.0
  0
LINE
  5
FA
330
1F
100
AcDbEntity
  8
0
  6
Continuous
 62
     7
370
    25
100
AcDbLine
 10
385.9693804931
 20
494.4192778843
 30
0.0
 11
385.9693804931
 21
498.4192859905
 31
0.0
  0
LINE
  5
FB
330
1F
100
AcDbEntity
  8
0
  6
Continuous
 62
     7
370
    25
100
AcDbLine
 10
384.0166447859
 20
518.4192818182
 30
0.0
 11
384.0166429233
 21
518.4192818182
 31
0.0
  0
SPLINE
  5
FC
330
1F
100
AcDbEntity
  8
0
  6
Continuous
 62
     8
370
    18
100
AcDbSpline
210
0.0
220
0.0
230
1.0
 70
     8
 71
     3
 72
    51
 73
    47
 74
     0
 42
0.000000001
 43
0.00000001
 40
0.0
 40
0.0
 40
0.0
 40
0.0
 40
0.0064482036383753
 40
0.0128866955155746
 40
0.0193190545306884
 40
0.0257488698236653
 40
0.0321797347935101
 40
0.0386152410809155
 40
0.0450589725655866
 40
0.0515144994282425
 40
0.0579853723260206
 40
0.0644751167278359
 40
0.070987227453226
 40
0.0775251634544343
 40
0.0840923428771047
 40
0.0906921384300634
 40
0.0973278730894656
 40
0.1040028161571731
 40
0.1107201796877892
 40
0.1396060680714518
 40
0.1686975615523642
 40
0.1982250812449015
 40
0.2284090693183358
 40
0.2929123017471919
 40
0.3563652174792993
 40
0.4050673645952662
 40
0.4525692527488639
 40
0.500061899094609
 40
0.5476550113178019
 40
0.5952696513972314
 40
0.6441052932358756
 40
0.7075051657648748
 40
0.7719603215452603
 40
0.8019917678439671
 40
0.831376994877322
 40
0.8603333560519746
 40
0.8890879264642225
 40
0.9017624983118835
 40
0.9142954867813735
 40
0.92670916373511
 40
0.939026448261838
 40
0.9512708007462652
 40
0.9634661024829152
 40
0.9756365235172093
 40
0.9878063821383903
 40
1.0
 40
1.0
 40
1.0
 40
1.0
 10
385.6193799476772
 20
436.7586219359035
 30
0.0
 10
385.6188204993397
 20
436.7594702635212
 30
0.0
 10
385.6177024452605
 20
436.7611656410745
 30
0.0
 10
385.6086749550072
 20
436.7748339055084
 30
0.0
 10
385.5943108494537
 20
436.7966516764916
 30
0.0
 10
385.5741214161492
 20
436.8274140863339
 30
0.0
 10
385.5482884753743
 20
436.8669083050363
 30
0.0
 10
385.5168159410098
 20
436.9151912792697
 30
0.0
 10
385.4797569385194
 20
436.9722476388656
 30
0.0
 10
385.4371529079174
 20
437.0380813649833
 30
0.0
 10
385.3890498968618
 20
437.1126912090659
 30
0.0
 10
385.3354941455895
 20
437.1960772908176
 30
0.0
 10
385.2765332424001
 20
437.2882393381186
 30
0.0
 10
385.2122157386602
 20
437.3891771295446
 30
0.0
 10
385.1425913417503
 20
437.4988905078731
 30
0.0
 10
385.0677103370265
 20
437.617378896997
 30
0.0
 10
384.9876255315864
 20
437.7446432547101
 30
0.0
 10
384.9023848114253
 20
437.8806787072285
 30
0.0
 10
384.7129149159575
 20
438.1844647138787
 30
0.0
 10
384.3852272797016
 20
438.714502509727
 30
0.0
 10
383.8764530900743
 20
439.5661551901108
 30
0.0
 10
383.3110514174285
 20
440.5579094757859
 30
0.0
 10
382.4763994184821
 20
442.1054768194297
 30
0.0
 10
381.3662254112897
 20
444.3624731165845
 30
0.0
 10
380.2535110753986
 20
447.2692042448365
 30
0.0
 10
379.4694209687417
 20
450.1227162340501
 30
0.0
 10
379.0180944300033
 20
452.830094873205
 30
0.0
 10
378.8686416640313
 20
455.5863607835487
 30
0.0
 10
379.0191447980507
 20
458.3447791934422
 30
0.0
 10
379.4733208541429
 20
461.0580953511658
 30
0.0
 10
380.2604000532211
 20
463.9136110349326
 30
0.0
 10
381.3746721597925
 20
466.818535179838
 30
0.0
 10
382.4831756502391
 20
469.0697077220972
 30
0.0
 10
383.3151817847747
 20
470.6115471504825
 30
0.0
 10
383.8776446430347
 20
471.5978768081945
 30
0.0
 10
384.3840321065873
 20
472.4455305625666
 30
0.0
 10
384.7407625690684
 20
473.0227576829592
 30
0.0
 10
384.9777481257013
 20
473.4020694810305
 30
0.0
 10
385.1264455120025
 20
473.6380037563051
 30
0.0
 10
385.2563465990159
 20
473.8424990732369
 30
0.0
 10
385.3671270787405
 20
474.0155469891154
 30
0.0
 10
385.4584131053084
 20
474.1570914282085
 30
0.0
 10
385.5300224674305
 20
474.2673322443567
 30
0.0
 10
385.5811436709324
 20
474.3455036932616
 30
0.0
 10
385.6133781665168
 20
474.3944491498859
 30
0.0
 10
385.6173780537283
 20
474.4004933446507
 30
0.0
 10
385.6193799476772
 20
474.4035183891797
 30
0.0
  0
LINE
  5
FD
330
1F
100
AcDbEntity
  8
0
  6
Continuous
 62
     8
370
    18
100
AcDbLine
 10
337.6193797391
 20
358.6510915833
 30
0.0
 11
385.6193801563
 21
358.6510915833
 31
0.0
  0
SPLINE
  5
FE
330
1F
100
AcDbEntity
  8
0
  6
Continuous
 62
     8
370
    18
100
AcDbSpline
210
0.0
220
0.0
230
1.0
 70
     8
 71
     3
 72
    56
 73
    52
 74
     0
 42
0.000000001
 43
0.00000001
 40
0.0
 40
0.0
 40
0.0
 40
0.0
 40
0.0075185816351879
 40
0.0150766593266971
 40
0.022676243276783
 40
0.0303193112536426
 40
0.0380078077851983
 40
0.0457436434597947
 40
0.0535286943313192
 40
0.0613648014257188
 40
0.069253770345428
 40
0.0771973709678036
 40
0.0851973372333591
 40
0.093255367019303
 40
0.1013731220936975
 40
0.1095522281454052
 40
0.1177942748849103
 40
0.1261008162110527
 40
0.1526028766636459
 40
0.1828084344155378
 40
0.2167481389412309
 40
0.2544437825520295
 40
0.2887689702845118
 40
0.3101007041538201
 40
0.3184287784357799
 40
0.33589164216307
 40
0.3521278594400046
 40
0.3671407597055694
 40
0.3809346503139422
 40
0.4432257889556562
 40
0.4999640196397276
 40
0.5565570372284503
 40
0.6186658908294288
 40
0.6475479027400538
 40
0.6813029269508704
 40
0.6992076463737996
 40
0.7451585017223431
 40
0.7708549601595146
 40
0.7948624134375154
 40
0.8171865522108819
 40
0.8378343460240848
 40
0.8568144995965689
 40
0.8741381217943167
 40
0.8906506368398753
 40
0.9069133057258686
 40
0.9229389433476581
 40
0.9387409360217288
 40
0.954333240849473
 40
0.96973037996652
 40
0.9849474291093605
 40
1.0
 40
1.0
 40
1.0
 40
1.0
 10
390.5604809424279
 20
469.4451395251079
 30
0.0
 10
390.559935655698
 20
469.4443448244731
 30
0.0
 10
390.5588422177784
 20
469.4427512485408
 30
0.0
 10
390.550119177098
 20
469.4298157278655
 30
0.0
 10
390.53622045609
 20
469.4090251780817
 30
0.0
 10
390.5166299007203
 20
469.3795078784226
 30
0.0
 10
390.4914870602915
 20
469.341362062073
 30
0.0
 10
390.4607543090699
 20
469.2944304073245
 30
0.0
 10
390.424441910025
 20
469.2386315218607
 30
0.0
 10
390.3825471832633
 20
469.173870656774
 30
0.0
 10
390.3350709262147
 20
469.1000641730719
 30
0.0
 10
390.2820130790023
 20
469.0171332410523
 30
0.0
 10
390.2233734924276
 20
468.9250058893171
 30
0.0
 10
390.1591532453696
 20
468.8236166951173
 30
0.0
 10
390.0893485318288
 20
468.7129074884365
 30
0.0
 10
390.0139740382454
 20
468.5928263633865
 30
0.0
 10
389.9329746176217
 20
468.4633324970047
 30
0.0
 10
389.7836934221376
 20
468.2232941509751
 30
0.0
 10
389.5284520777528
 20
467.8157296145536
 30
0.0
 10
389.1263654784472
 20
467.1518126260791
 30
0.0
 10
388.6357504430011
 20
466.2922375674132
 30
0.0
 10
388.0890447490181
 20
465.2784475997703
 30
0.0
 10
387.5958329011716
 20
464.288259979434
 30
0.0
 10
387.2607877759294
 20
463.5618314381599
 30
0.0
 10
387.013014409802
 20
463.0103549495161
 30
0.0
 10
386.8032390326003
 20
462.5022588417384
 30
0.0
 10
386.5669607015417
 20
461.8935441416734
 30
0.0
 10
386.3593214783166
 20
461.3133039459251
 30
0.0
 10
385.9633544092439
 20
460.1094610625041
 30
0.0
 10
385.5108074390365
 20
458.2266691397089
 30
0.0
 10
385.2803409379749
 20
455.5853524965406
 30
0.0
 10
385.5092051498978
 20
452.9463629864712
 30
0.0
 10
386.0106306538185
 20
450.8542412028037
 30
0.0
 10
386.5748982505953
 20
449.2266217638722
 30
0.0
 10
386.9720765840046
 20
448.2347970636972
 30
0.0
 10
387.4865881479066
 20
447.1032973655099
 30
0.0
 10
387.9585987945867
 20
446.1355134739026
 30
0.0
 10
388.4557742204261
 20
445.2036463788093
 30
0.0
 10
388.8139210095595
 20
444.5557144513834
 30
0.0
 10
389.1323872549813
 20
444.0041681957994
 30
0.0
 10
389.4104499778995
 20
443.5401532728713
 30
0.0
 10
389.6484984449074
 20
443.1547800709798
 30
0.0
 10
389.849047681602
 20
442.8338404166262
 30
0.0
 10
390.0176308949332
 20
442.5631361023467
 30
0.0
 10
390.1625770695404
 20
442.3329731306187
 30
0.0
 10
390.2851528027658
 20
442.1399345328741
 30
0.0
 10
390.385468035561
 20
441.9836146138529
 30
0.0
 10
390.4636360647511
 20
441.8631874856563
 30
0.0
 10
390.5190939991405
 20
441.7788051196667
 30
0.0
 10
390.553930729571
 20
441.7266019419367
 30
0.0
 10
390.5583054619102
 20
441.7201895661638
 30
0.0
 10
390.5604809424279
 20
441.7170007999753
 30
0.0
  0
LINE
  5
FF
330
1F
100
AcDbEntity
  8
0
  6
Continuous
 62
     8
370
    18
100
AcDbLine
 10
385.5098733853
 20
516.9192862289
 30
0.0
 11
337.6193797391
 21
516.9192862289
 31
0.0
  0
SPLINE
  5
100
330
1F
100
AcDbEntity
  8
0
  6
Continuous
 62
     8
370
    18
100
AcDbSpline
210
0.0
220
0.0
230
1.0
 70
     8
 71
     3
 72
    23
 73
    19
 74
     0
 42
0.000000001
 43
0.00000001
 40
0.0
 40
0.0
 40
0.0
 40
0.0
 40
0.0008788690774479
 40
0.0701455659158794
 40
0.13986370376631
 40
0.2090415905854861
 40
0.2789316762535177
 40
0.3485740614678408
 40
0.4196432671229509
 40
0.4915248290636544
 40
0.562426513321986
 40
0.6340048360663526
 40
0.7055599620175934
 40
0.776152529205063
 40
0.8464368473823713
 40
0.9163273346080133
 40
0.9855524145263777
 40
1.0
 40
1.0
 40
1.0
 40
1.0
 10
385.6189349841028
 20
503.4901511447499
 30
0.0
 10
385.6190832423576
 20
503.4895833417038
 30
0.0
 10
385.6309162439453
 20
503.4442650263553
 30
0.0
 10
385.5885826053319
 20
503.6025746052107
 30
0.0
 10
385.4912063346217
 20
503.9904660588585
 30
0.0
 10
385.3352895764047
 20
504.6511978679425
 30
0.0
 10
385.1573936394774
 20
505.5200739952136
 30
0.0
 10
384.9792019676959
 20
506.5744088789279
 30
0.0
 10
384.8301133903838
 20
507.7795468050132
 30
0.0
 10
384.7268996954591
 20
509.0808019864519
 30
0.0
 10
384.6917904483403
 20
510.4366728593204
 30
0.0
 10
384.7275756196648
 20
511.7901205155213
 30
0.0
 10
384.8308039817249
 20
513.0907782106301
 30
0.0
 10
384.9821378900915
 20
514.2902935650466
 30
0.0
 10
385.1615070510773
 20
515.3390533485782
 30
0.0
 10
385.3396771684756
 20
516.2072113992123
 30
0.0
 10
385.4532344953149
 20
516.6875574792315
 30
0.0
 10
385.5015972028039
 20
516.8854197794102
 30
0.0
 10
385.509947891131
 20
516.9195842521259
 30
0.0
  0
SPLINE
  5
101
330
1F
100
AcDbEntity
  8
0
  6
Continuous
 62
     8
370
    18
100
AcDbSpline
210
0.0
220
0.0
230
1.0
 70
     8
 71
     3
 72
    14
 73
    10
 74
     0
 42
0.000000001
 43
0.00000001
 40
0.0
 40
0.0
 40
0.0
 40
0.0
 40
0.25
 40
0.25
 40
0.5
 40
0.5
 40
0.75
 40
0.75
 40
1.0
 40
1.0
 40
1.0
 40
1.0
 10
384.0166138477818
 20
518.4192797050861
 30
0.0
 10
384.2120506352052
 20
518.4192797050861
 30
0.0
 10
384.4074105660454
 20
518.380248895771
 30
0.0
 10
384.7685382237291
 20
518.2300071517997
 30
0.0
 10
384.9341639351503
 20
518.118855300529
 30
0.0
 10
385.2105812366191
 20
517.8412389428207
 30
0.0
 10
385.3212641240542
 20
517.6748836105309
 30
0.0
 10
385.4708997363703
 20
517.312146471071
 30
0.0
 10
385.5097936162301
 20
517.1159073122608
 30
0.0
 10
385.509833139993
 20
516.919583054548
 30
0.0
  0
LWPOLYLINE
  5
102
330
1F
100
AcDbEntity
  8
0
  6
Continuous
 62
     8
370
    18
100
AcDbPolyline
 90
        5
 70
   128
 43
0.0
 10
385.5937445711
 20
517.0300614612
 10
385.6199911039
 20
517.0646619575
 10
385.5099646549
 20
516.9195991533
 10
385.509959067
 20
516.9195842521
 10
385.509959067
 20
516.9195842521
  0
SPLINE
  5
103
330
1F
100
AcDbEntity
  8
0
  6
Continuous
 62
     8
370
    18
100
AcDbSpline
210
0.0
220
0.0
230
1.0
 70
     8
 71
     3
 72
    20
 73
    16
 74
     0
 42
0.000000001
 43
0.00000001
 40
0.0
 40
0.0
 40
0.0
 40
0.0
 40
0.0634611325103952
 40
0.1315871942284639
 40
0.2590660627533065
 40
0.331223217161416
 40
0.3953673313894844
 40
0.4994237161914281
 40
0.6035621284298801
 40
0.6675245775377042
 40
0.7393523874195456
 40
0.8667096152696077
 40
0.93492766911655
 40
0.9991460460497427
 40
1.0
 40
1.0
 40
1.0
 40
1.0
 10
388.0918311129957
 20
514.8720752971241
 30
0.0
 10
388.0871146214987
 20
514.8551069349949
 30
0.0
 10
388.077334936546
 20
514.819922892812
 30
0.0
 10
387.9820139101134
 20
514.4402630788418
 30
0.0
 10
387.8111487117906
 20
513.7097264555006
 30
0.0
 10
387.6551488072034
 20
512.7240901402091
 30
0.0
 10
387.5433818839523
 20
511.7041019624613
 30
0.0
 10
387.4650717070041
 20
510.4269056544672
 30
0.0
 10
387.5419143767441
 20
509.149974063897
 30
0.0
 10
387.6530238863389
 20
508.1295390250847
 30
0.0
 10
387.8076073134367
 20
507.1458400136719
 30
0.0
 10
387.9828689808236
 20
506.3959692772945
 30
0.0
 10
388.0701894756878
 20
506.0453141600075
 30
0.0
 10
388.0998351902683
 20
505.9360152708857
 30
0.0
 10
388.0918833126137
 20
505.9662822337936
 30
0.0
 10
388.0917789589315
 20
505.9666794316837
 30
0.0
  0
LINE
  5
104
330
1F
100
AcDbEntity
  8
0
  6
Continuous
 62
     8
370
    18
100
AcDbLine
 10
386.5699270915
 20
494.6378630178
 30
0.0
 11
386.5699270915
 21
502.200694062
 31
0.0
  0
SPLINE
  5
105
330
1F
100
AcDbEntity
  8
0
  6
Continuous
 62
     7
370
    25
100
AcDbSpline
210
0.0
220
0.0
230
1.0
 70
     8
 71
     3
 72
    11
 73
     7
 74
     0
 42
0.000000001
 43
0.00000001
 40
0.0
 40
0.0
 40
0.0
 40
0.0
 40
0.247473758884995
 40
0.4999995817515953
 40
0.7525256561066037
 40
1.0
 40
1.0
 40
1.0
 40
1.0
 10
191.7044800101652
 20
237.0523076245869
 30
0.0
 10
191.7404265849559
 20
237.6455924625523
 30
0.0
 10
191.8130535674761
 20
238.844273778013
 30
0.0
 10
192.3783598213787
 20
240.5708318811669
 30
0.0
 10
193.2366217792268
 20
242.172067886121
 30
0.0
 10
194.0533677959629
 20
243.0524238632765
 30
0.0
 10
194.4576148270502
 20
243.4881545344676
 30
0.0
  0
SPLINE
  5
106
330
1F
100
AcDbEntity
  8
0
  6
Continuous
 62
     7
370
    25
100
AcDbSpline
210
0.0
220
0.0
230
1.0
 70
     8
 71
     3
 72
    11
 73
     7
 74
     0
 42
0.000000001
 43
0.00000001
 40
0.0
 40
0.0
 40
0.0
 40
0.0
 40
0.2474740788453672
 40
0.5000000220658314
 40
0.7525260814042481
 40
1.0
 40
1.0
 40
1.0
 40
1.0
 10
161.1868534563913
 20
243.4881619850482
 30
0.0
 10
161.5911019296896
 20
243.0524298770141
 30
0.0
 10
162.4078510878731
 20
242.1720707515319
 30
0.0
 10
163.2661143704348
 20
240.5708325208467
 30
0.0
 10
163.8314225539262
 20
238.8442737146835
 30
0.0
 10
163.9040492808549
 20
237.6455923832463
 30
0.0
 10
163.9399957238569
 20
237.0523076245869
 30
0.0
  0
LINE
  5
107
330
1F
100
AcDbEntity
  8
0
  6
Continuous
 62
     7
370
    25
100
AcDbLine
 10
163.9396464779
 20
237.1524974445
 30
0.0
 11
164.1025133758
 21
190.4948401938
 31
0.0
  0
LINE
  5
108
330
1F
100
AcDbEntity
  8
0
  6
Continuous
 62
     7
370
    25
100
AcDbLine
 10
191.5419623582
 20
190.4948401938
 30
0.0
 11
191.7048283248
 21
237.1523074547
 31
0.0
  0
SPLINE
  5
109
330
1F
100
AcDbEntity
  8
0
  6
Continuous
 62
     7
370
    25
100
AcDbSpline
210
0.0
220
0.0
230
1.0
 70
     8
 71
     3
 72
    18
 73
    14
 74
     0
 42
0.000000001
 43
0.00000001
 40
0.0
 40
0.0
 40
0.0
 40
0.0
 40
0.1200779954339529
 40
0.227588421809326
 40
0.3240901274552431
 40
0.4112229039080039
 40
0.4907350888111345
 40
0.5645024612938023
 40
0.6687361092130466
 40
0.77159294329922
 40
0.8428363252618282
 40
0.9184016675027658
 40
1.0
 40
1.0
 40
1.0
 40
1.0
 10
164.1018968402281
 20
190.5339631924714
 30
0.0
 10
164.1095848252677
 20
188.2966338681058
 30
0.0
 10
164.12415615764
 20
184.0561379457687
 30
0.0
 10
164.1431492889204
 20
178.0199477269476
 30
0.0
 10
164.158736594611
 20
172.6058031995122
 30
0.0
 10
164.1711731271986
 20
167.7319160811299
 30
0.0
 10
164.1808221878551
 20
163.316696962497
 30
0.0
 10
164.1891282030609
 20
158.6624118840595
 30
0.0
 10
164.1952967667737
 20
153.7448411902574
 30
0.0
 10
164.1982285325585
 20
149.1850329100739
 30
0.0
 10
164.1992745156565
 20
145.3657594503416
 30
0.0
 10
164.1995236143832
 20
142.0435647858251
 30
0.0
 10
164.19951015787
 20
139.8806756043767
 30
0.0
 10
164.1995031713381
 20
138.7577179560746
 30
0.0
  0
SPLINE
  5
10A
330
1F
100
AcDbEntity
  8
0
  6
Continuous
 62
     7
370
    25
100
AcDbSpline
210
0.0
220
0.0
230
1.0
 70
     8
 71
     3
 72
    18
 73
    14
 74
     0
 42
0.000000001
 43
0.00000001
 40
0.0
 40
0.0
 40
0.0
 40
0.0
 40
0.0815983323424261
 40
0.1571636744400011
 40
0.2284070562674464
 40
0.33126389015848
 40
0.4354976625778877
 40
0.5092649058422364
 40
0.5887770905945166
 40
0.6759098823444256
 40
0.7724115786224544
 40
0.8799220047938588
 40
0.9999999999999999
 40
0.9999999999999999
 40
0.9999999999999999
 40
0.9999999999999999
 10
191.4449725626841
 20
138.7577179560746
 30
0.0
 10
191.444965576129
 20
139.8806756059588
 30
0.0
 10
191.4449521195713
 20
142.0435647904543
 30
0.0
 10
191.445201218607
 20
145.3657594338108
 30
0.0
 10
191.4462472004556
 20
149.1850329790942
 30
0.0
 10
191.4491789742746
 20
153.7448428419889
 30
0.0
 10
191.4553475153822
 20
158.6624153231116
 30
0.0
 10
191.4636535559156
 20
163.3166990047319
 30
0.0
 10
191.4733026068498
 20
167.7319167624024
 30
0.0
 10
191.4857391372449
 20
172.6058021988752
 30
0.0
 10
191.5013264463594
 20
178.019948227557
 30
0.0
 10
191.5203195761685
 20
184.0561378479307
 30
0.0
 10
191.5348909086806
 20
188.2966338343142
 30
0.0
 10
191.5425788937941
 20
190.5339631924714
 30
0.0
  0
LINE
  5
10B
330
1F
100
AcDbEntity
  8
0
  6
Continuous
 62
     7
370
    25
100
AcDbLine
 10
164.1999790772
 20
138.7577179561
 30
0.0
 11
164.1999790772
 21
133.7268624196
 31
0.0
  0
LINE
  5
10C
330
1F
100
AcDbEntity
  8
0
  6
Continuous
 62
     7
370
    25
100
AcDbLine
 10
191.4444966568
 20
133.7268624196
 30
0.0
 11
191.4444966568
 21
138.7577179561
 31
0.0
  0
SPLINE
  5
10D
330
1F
100
AcDbEntity
  8
0
  6
Continuous
 62
     7
370
    25
100
AcDbSpline
210
0.0
220
0.0
230
1.0
 70
     8
 71
     3
 72
    20
 73
    16
 74
     0
 42
0.000000001
 43
0.00000001
 40
0.0
 40
0.0
 40
0.0
 40
0.0
 40
0.0440405363501099
 40
0.1253514370890657
 40
0.2068056177842633
 40
0.2884084846432119
 40
0.3701865928697283
 40
0.4521348070146173
 40
0.5342077037710183
 40
0.6162979160249068
 40
0.6982556870866207
 40
0.7799420307173788
 40
0.8612559336053209
 40
0.9421720463805459
 40
1.0
 40
1.0
 40
1.0
 40
1.0
 10
177.8222378670111
 20
122.3962429652299
 30
0.0
 10
178.1379258833098
 20
122.4017149052912
 30
0.0
 10
179.0364605015138
 20
122.4172895464558
 30
0.0
 10
180.5097645217843
 20
122.5878457884699
 30
0.0
 10
182.2055466503216
 20
122.9629950094969
 30
0.0
 10
183.831877324587
 20
123.5191918883213
 30
0.0
 10
185.3616086259807
 20
124.2453936332068
 30
0.0
 10
186.769025872582
 20
125.1320058770872
 30
0.0
 10
188.0294123541458
 20
126.165319978938
 30
0.0
 10
189.1200970880293
 20
127.328580562826
 30
0.0
 10
190.0201294856411
 20
128.6016551530603
 30
0.0
 10
190.7159228260081
 20
129.9615438252547
 30
0.0
 10
191.1853425730969
 20
131.3832610308864
 30
0.0
 10
191.434048601953
 20
132.7045197330671
 30
0.0
 10
191.4241815454297
 20
133.5452393921728
 30
0.0
 10
191.4200689970388
 20
133.8956478724564
 30
0.0
  0
SPLINE
  5
10E
330
1F
100
AcDbEntity
  8
0
  6
Continuous
 62
     7
370
    25
100
AcDbSpline
210
0.0
220
0.0
230
1.0
 70
     8
 71
     3
 72
    20
 73
    16
 74
     0
 42
0.000000001
 43
0.00000001
 40
0.0
 40
0.0
 40
0.0
 40
0.0
 40
0.0231869167810385
 40
0.1051044447693263
 40
0.1869570052696574
 40
0.2689133873965129
 40
0.3510948556525815
 40
0.4335466748911325
 40
0.5162389805219564
 40
0.5990958899169464
 40
0.6820198151405927
 40
0.7649237151299516
 40
0.8477804078227191
 40
0.9305975402242647
 40
1.0
 40
1.0
 40
1.0
 40
1.0
 10
164.2244067369833
 20
133.5580620656098
 30
0.0
 10
164.2201599123175
 20
133.4203002252795
 30
0.0
 10
164.2009093947626
 20
132.7958367886333
 30
0.0
 10
164.3933321777976
 20
131.6900257155733
 30
0.0
 10
164.8030946531943
 20
130.2732070680345
 30
0.0
 10
165.4430497991961
 20
128.9156938930167
 30
0.0
 10
166.2813025440076
 20
127.6382631505813
 30
0.0
 10
167.3107429444985
 20
126.4608718637272
 30
0.0
 10
168.5136579883444
 20
125.4026718677544
 30
0.0
 10
169.8708502627771
 20
124.4812038922254
 30
0.0
 10
171.3594674777859
 20
123.7123236563974
 30
0.0
 10
172.9543837156535
 20
123.107560326604
 30
0.0
 10
174.6288978783822
 20
122.6807411291345
 30
0.0
 10
176.2626135149572
 20
122.436890129404
 30
0.0
 10
177.3338308452153
 20
122.408971902408
 30
0.0
 10
177.8222378670113
 20
122.3962429652299
 30
0.0
  0
LINE
  5
10F
330
1F
100
AcDbEntity
  8
0
  6
Continuous
 62
     7
370
    25
100
AcDbLine
 10
179.822237962
 20
294.629064549
 30
0.0
 11
179.822237962
 21
307.6290648172
 31
0.0
  0
LINE
  5
110
330
1F
100
AcDbEntity
  8
0
  6
Continuous
 62
     7
370
    25
100
AcDbLine
 10
175.822237772
 20
307.6290648172
 30
0.0
 11
175.822237772
 21
294.629064549
 31
0.0
  0
LINE
  5
111
330
1F
100
AcDbEntity
  8
0
  6
Continuous
 62
     7
370
    25
100
AcDbLine
 10
175.822237772
 20
294.629064549
 30
0.0
 11
175.822237772
 21
290.870293204
 31
0.0
  0
LINE
  5
112
330
1F
100
AcDbEntity
  8
0
  6
Continuous
 62
     7
370
    25
100
AcDbLine
 10
179.822237962
 20
290.870293204
 30
0.0
 11
179.822237962
 21
294.629064549
 31
0.0
  0
LINE
  5
113
330
1F
100
AcDbEntity
  8
0
  6
Continuous
 62
     7
370
    25
100
AcDbLine
 10
179.822237962
 20
284.7039319316
 30
0.0
 11
179.822237962
 21
290.870293204
 31
0.0
  0
LINE
  5
114
330
1F
100
AcDbEntity
  8
0
  6
Continuous
 62
     7
370
    25
100
AcDbLine
 10
175.822237772
 20
290.870293204
 30
0.0
 11
175.822237772
 21
284.7039319316
 31
0.0
  0
SPLINE
  5
115
330
1F
100
AcDbEntity
  8
0
  6
Continuous
 62
     7
370
    25
100
AcDbSpline
210
0.0
220
0.0
230
1.0
 70
     8
 71
     3
 72
    15
 73
    11
 74
     0
 42
0.000000001
 43
0.00000001
 40
0.0
 40
0.0
 40
0.0
 40
0.0
 40
0.0854968294457007
 40
0.1737352403381267
 40
0.2676066174669237
 40
0.3717339388071332
 40
0.4920532733018035
 40
0.6344161307260981
 40
0.803023132874615
 40
0.9999999999999999
 40
0.9999999999999999
 40
0.9999999999999999
 40
0.9999999999999999
 10
182.2770769103303
 20
234.9120575676049
 30
0.0
 10
182.2877264133078
 20
235.0960160242753
 30
0.0
 10
182.3093669112217
 20
235.4698318357981
 30
0.0
 10
182.4715295059005
 20
236.0020531807749
 30
0.0
 10
182.696959160059
 20
236.4771845855402
 30
0.0
 10
182.9403883875688
 20
236.8644894972244
 30
0.0
 10
183.1254677397004
 20
237.1430695436815
 30
0.0
 10
183.16932635015
 20
237.3016689995873
 30
0.0
 10
183.0055831909044
 20
237.3415093311054
 30
0.0
 10
182.6677427880802
 20
237.2786965521051
 30
0.0
 10
182.4857141218021
 20
237.2448529789532
 30
0.0
  0
SPLINE
  5
116
330
1F
100
AcDbEntity
  8
0
  6
Continuous
 62
     7
370
    25
100
AcDbSpline
210
0.0
220
0.0
230
1.0
 70
     8
 71
     3
 72
    15
 73
    11
 74
     0
 42
0.000000001
 43
0.00000001
 40
0.0
 40
0.0
 40
0.0
 40
0.0
 40
0.1485099352220998
 40
0.2851187728174735
 40
0.4109977045083003
 40
0.5288714050119129
 40
0.643120372249796
 40
0.7584585513397691
 40
0.8776320171637481
 40
1.0
 40
1.0
 40
1.0
 40
1.0
 10
173.1359190634325
 20
237.2493885198916
 30
0.0
 10
172.9637033561969
 20
237.284469261097
 30
0.0
 10
172.6330727419323
 20
237.3518194883196
 30
0.0
 10
172.3928820162171
 20
237.3858487760427
 30
0.0
 10
172.3527734442952
 20
237.3294151466043
 30
0.0
 10
172.4941029629244
 20
237.1483387959554
 30
0.0
 10
172.7592884188887
 20
236.812851835564
 30
0.0
 10
173.0590512206117
 20
236.3103531653477
 30
0.0
 10
173.3110395040633
 20
235.661547359954
 30
0.0
 10
173.3484477793287
 20
235.1640805879179
 30
0.0
 10
173.3673992893531
 20
234.9120575676049
 30
0.0
  0
LINE
  5
117
330
1F
100
AcDbEntity
  8
0
  6
Continuous
 62
     7
370
    25
100
AcDbLine
 10
173.3673988237
 20
234.9120594303
 30
0.0
 11
173.494157414
 21
162.284788836
 31
0.0
  0
LINE
  5
118
330
1F
100
AcDbEntity
  8
0
  6
Continuous
 62
     7
370
    25
100
AcDbLine
 10
182.15031832
 20
162.284788836
 30
0.0
 11
182.277251999
 21
235.0123759101
 31
0.0
  0
ARC
  5
119
330
1F
100
AcDbEntity
  8
0
  6
Continuous
 62
     7
370
    25
100
AcDbCircle
 10
180.6503204765
 20
162.2874098907
 30
0.0
 40
1.500000000000012
100
AcDbArc
 50
270.0
 51
359.9
  0
ARC
  5
11A
330
1F
100
AcDbEntity
  8
0
  6
Continuous
 62
     7
370
    25
100
AcDbCircle
 10
174.9941552575
 20
162.2874098907
 30
0.0
 40
1.500000000000012
100
AcDbArc
 50
180.1
 51
270.0
  0
LINE
  5
11B
330
1F
100
AcDbEntity
  8
0
  6
Continuous
 62
     7
370
    25
100
AcDbLine
 10
177.822237867
 20
307.6290648172
 30
0.0
 11
179.822237962
 21
307.6290648172
 31
0.0
  0
LINE
  5
11C
330
1F
100
AcDbEntity
  8
0
  6
Continuous
 62
     7
370
    25
100
AcDbLine
 10
175.822237772
 20
307.6290648172
 30
0.0
 11
177.822237867
 21
307.6290648172
 31
0.0
  0
ARC
  5
11D
330
1F
100
AcDbEntity
  8
0
  6
Continuous
 62
     7
370
    25
100
AcDbCircle
 10
177.822237867
 20
260.7874098907
 30
0.0
 40
24.0
100
AcDbArc
 50
275.4754523714
 51
264.524573989
  0
SPLINE
  5
11E
330
1F
100
AcDbEntity
  8
0
  6
Continuous
 62
     7
370
    25
100
AcDbSpline
210
0.0
220
0.0
230
1.0
 70
     8
 71
     3
 72
    16
 73
    12
 74
     0
 42
0.000000001
 43
0.00000001
 40
0.0
 40
0.0
 40
0.0
 40
0.0
 40
0.2499999999999999
 40
0.2499999999999999
 40
0.4999999999999998
 40
0.4999999999999998
 40
0.7499999999999998
 40
0.7499999999999998
 40
0.8749999999999998
 40
0.8749999999999998
 40
1.0
 40
1.0
 40
1.0
 40
1.0
 10
180.1103124635672
 20
236.8968236808494
 30
0.0
 10
179.7334143385056
 20
236.8609294541238
 30
0.0
 10
179.3518803380746
 20
236.829250472324
 30
0.0
 10
178.5908549185559
 20
236.7853689182411
 30
0.0
 10
178.209374656364
 20
236.7729142771596
 30
0.0
 10
177.444082784549
 20
236.7727524909035
 30
0.0
 10
177.0593082240765
 20
236.7850669602138
 30
0.0
 10
176.4853819024951
 20
236.8180412230251
 30
0.0
 10
176.2945401394956
 20
236.8314029834017
 30
0.0
 10
175.9136471046064
 20
236.8617529858997
 30
0.0
 10
175.7222968227873
 20
236.8788679209131
 30
0.0
 10
175.5338517346277
 20
236.8968311426796
 30
0.0
  0
LINE
  5
11F
330
1F
100
AcDbEntity
  8
0
  6
Continuous
 62
     7
370
    25
100
AcDbLine
 10
180.6503204024
 20
160.7874084005
 30
0.0
 11
174.9941555644
 21
160.7874084005
 31
0.0
  0
SPLINE
  5
120
330
1F
100
AcDbEntity
  8
0
  6
Continuous
 62
     8
370
    18
100
AcDbSpline
210
0.0
220
0.0
230
1.0
 70
     8
 71
     3
 72
    29
 73
    25
 74
     0
 42
0.000000001
 43
0.00000001
 40
0.0
 40
0.0
 40
0.0
 40
0.0
 40
0.0003298599328823
 40
0.142768522515044
 40
0.1933280897032481
 40
0.2455570351772656
 40
0.2995505280010676
 40
0.3222136416233778
 40
0.3462158266668495
 40
0.3715590740651931
 40
0.3982474990057494
 40
0.4262828407644836
 40
0.4556679033662084
 40
0.457270755426845
 40
0.4688591856584619
 40
0.5001282710014125
 40
0.5310167689115942
 40
0.569936738277897
 40
0.616885876490006
 40
0.7117800793568543
 40
0.7972220835174658
 40
0.8732667907462189
 40
0.939991687844888
 40
1.0
 40
1.0
 40
1.0
 40
1.0
 10
191.7039379804268
 20
237.051834512719
 30
0.0
 10
191.7041171947036
 20
237.0519913331401
 30
0.0
 10
191.7816839282173
 20
237.119865656729
 30
0.0
 10
191.5820558408195
 20
236.9391617443274
 30
0.0
 10
191.2845986665358
 20
236.6915937983335
 30
0.0
 10
191.0268391733222
 20
236.4828803895839
 30
0.0
 10
190.77244793367
 20
236.282836484864
 30
0.0
 10
190.5493913360296
 20
236.1108355548106
 30
0.0
 10
190.3796525188966
 20
235.9824719017502
 30
0.0
 10
190.1891887635399
 20
235.8417678890573
 30
0.0
 10
189.976422247863
 20
235.6888780203276
 30
0.0
 10
189.7397936593414
 20
235.5233458106836
 30
0.0
 10
189.5640842971351
 20
235.4052241340104
 30
0.0
 10
189.4340132930171
 20
235.3176980943818
 30
0.0
 10
189.2968048729834
 20
235.2248656376731
 30
0.0
 10
189.060243807436
 20
235.0711433063173
 30
0.0
 10
188.7189170123156
 20
234.8598912051463
 30
0.0
 10
188.3028135396845
 20
234.616071584383
 30
0.0
 10
187.619371560616
 20
234.2367895212129
 30
0.0
 10
186.6775772319724
 20
233.7710310865153
 30
0.0
 10
185.507375888402
 20
233.2776197048238
 30
0.0
 10
184.3796925000444
 20
232.8804389549017
 30
0.0
 10
183.3366550321238
 20
232.5467523762929
 30
0.0
 10
182.6145441011386
 20
232.420432078727
 30
0.0
 10
182.2726237914398
 20
232.3606192807044
 30
0.0
  0
LWPOLYLINE
  5
121
330
1F
100
AcDbEntity
  8
0
  6
Continuous
 62
     8
370
    18
100
AcDbPolyline
 90
       31
 70
   128
 43
0.0
 10
173.3719236544
 20
232.3195386419
 10
173.2542137942
 20
232.3425944636
 10
172.3527494213
 20
232.5609113762
 10
171.7695468432
 20
232.7265787611
 10
171.1568367063
 20
232.9216293732
 10
170.5194213754
 20
233.1460576246
 10
169.8629688798
 20
233.3998672406
 10
169.1940864875
 20
233.6830582211
 10
168.5203872948
 20
233.995626841
 10
167.8505353956
 20
234.3375768254
 10
167.092519845
 20
234.7625914703
 10
166.5851641773
 20
235.0721705446
 10
166.2869612082
 20
235.2663159112
 10
166.2069829508
 20
235.3201016525
 10
166.1832314311
 20
235.3361706922
 10
166.1745691999
 20
235.342019398
 10
166.1718050345
 20
235.3438764552
 10
166.1707917555
 20
235.344554458
 10
166.1703847675
 20
235.3448245416
 10
166.1702134042
 20
235.3449400256
 10
166.1701398297
 20
235.3449884544
 10
166.1701072334
 20
235.3450108061
 10
166.1700932636
 20
235.3450201193
 10
166.1700867443
 20
235.3450238446
 10
166.1700820877
 20
235.3450275699
 10
165.6675413578
 20
235.6899577866
 10
165.2620444401
 20
235.9850454817
 10
164.9404513045
 20
236.23028693
 10
164.174831505
 20
236.8466119955
 10
163.9399966552
 20
237.0523076246
 10
163.9400888561
 20
237.0522275308
  0
ARC
  5
122
330
1F
100
AcDbEntity
  8
0
  6
Continuous
 62
     8
370
    18
100
AcDbCircle
 10
177.822237867
 20
260.7874098907
 30
0.0
 40
22.49999999999998
100
AcDbArc
 50
275.4754523714
 51
264.524573989
  0
SPLINE
  5
123
330
1F
100
AcDbEntity
  8
0
  6
Continuous
 62
     8
370
    18
100
AcDbSpline
210
0.0
220
0.0
230
1.0
 70
     8
 71
     3
 72
    10
 73
     6
 74
     0
 42
0.000000001
 43
0.00000001
 40
0.0
 40
0.0
 40
0.0
 40
0.0
 40
0.5
 40
0.5
 40
1.0
 40
1.0
 40
1.0
 40
1.0
 10
175.6753213272162
 20
238.3901452942072
 30
0.0
 10
176.3909619081129
 20
238.3218782783265
 30
0.0
 10
177.1066024333499
 20
238.2640352370937
 30
0.0
 10
178.5378828664255
 20
238.2639760049953
 30
0.0
 10
179.253522773227
 20
238.321954030399
 30
0.0
 10
179.9691626253717
 20
238.3901682215045
 30
0.0
  0
SPLINE
  5
124
330
1F
100
AcDbEntity
  8
0
  6
Continuous
 62
     8
370
    18
100
AcDbSpline
210
0.0
220
0.0
230
1.0
 70
     8
 71
     3
 72
    31
 73
    27
 74
     0
 42
0.000000001
 43
0.00000001
 40
0.0
 40
0.0
 40
0.0
 40
0.0
 40
0.0203768459921969
 40
0.0397456158503374
 40
0.058106377120736
 40
0.0754592072683497
 40
0.091804196280526
 40
0.1071414501256828
 40
0.1214710954271955
 40
0.134793285903251
 40
0.1471082114381282
 40
0.158416111188835
 40
0.1687172930891505
 40
0.2580837670486036
 40
0.3422361046933595
 40
0.4264257373225805
 40
0.5157994656585193
 40
0.5851240201975729
 40
0.6838473468496791
 40
0.7393113115256263
 40
0.7913242919334319
 40
0.8398943265128006
 40
0.8850316670022242
 40
0.9267494685493151
 40
0.9650647797813432
 40
1.0
 40
1.0
 40
1.0
 40
1.0
 10
181.0774188580459
 20
234.6302457884033
 30
0.0
 10
181.027617017586
 20
234.6206403299244
 30
0.0
 10
180.9304771157426
 20
234.6019046108188
 30
0.0
 10
180.7797386139143
 20
234.574937742066
 30
0.0
 10
180.6315165420548
 20
234.5497147452631
 30
0.0
 10
180.4863644077403
 20
234.526261570668
 30
0.0
 10
180.3454909241202
 20
234.5045715843942
 30
0.0
 10
180.2097910365551
 20
234.4846458606958
 30
0.0
 10
180.0800948195613
 20
234.466484333069
 30
0.0
 10
179.9571159573076
 20
234.4500842005514
 30
0.0
 10
179.8414782011617
 20
234.4354527020365
 30
0.0
 10
179.7337092875441
 20
234.4225627094404
 30
0.0
 10
179.3766864618024
 20
234.3828310444596
 30
0.0
 10
178.7501614743295
 20
234.3326996575939
 30
0.0
 10
177.8321350655966
 20
234.3062151549735
 30
0.0
 10
176.9134061247573
 20
234.3316857667523
 30
0.0
 10
176.0850093946755
 20
234.3968530784595
 30
0.0
 10
175.2818472862182
 20
234.5023182833779
 30
0.0
 10
174.6707816773752
 20
234.6073574147819
 30
0.0
 10
174.2062178388682
 20
234.7024747414718
 30
0.0
 10
173.9110194179684
 20
234.7663153664061
 30
0.0
 10
173.6894693890805
 20
234.8189203080061
 30
0.0
 10
173.5328638665844
 20
234.8600072824449
 30
0.0
 10
173.4331547267873
 20
234.8892680858095
 30
0.0
 10
173.3774768482918
 20
234.9080716763654
 30
0.0
 10
173.3706580181265
 20
234.9107689619514
 30
0.0
 10
173.3674059279541
 20
234.912055372631
 30
0.0
  0
SPLINE
  5
125
330
1F
100
AcDbEntity
  8
0
  6
Continuous
 62
     8
370
    18
100
AcDbSpline
210
0.0
220
0.0
230
1.0
 70
     8
 71
     3
 72
    10
 73
     6
 74
     0
 42
0.000000001
 43
0.00000001
 40
0.0
 40
0.0
 40
0.0
 40
0.0
 40
0.4330151876417792
 40
0.7000401796762533
 40
1.0
 40
1.0
 40
1.0
 40
1.0
 10
182.2762973933353
 20
234.9118247369613
 30
0.0
 10
182.230881661069
 20
234.8956077225431
 30
0.0
 10
182.1574596696858
 20
234.8693902548629
 30
0.0
 10
181.6870431555644
 20
234.753393546694
 30
0.0
 10
181.288346754916
 20
234.6728539314791
 30
0.0
 10
181.0774188815489
 20
234.6302449444617
 30
0.0
  0
LINE
  5
126
330
1F
100
AcDbEntity
  8
0
  6
Continuous
 62
     8
370
    18
100
AcDbLine
 10
173.494157414
 20
162.284788836
 30
0.0
 11
182.15031832
 21
162.284788836
 31
0.0
  0
ENDSEC
  0
SECTION
  2
OBJECTS
  0
DICTIONARY
  5
C
330
0
100
AcDbDictionary
281
     1
  3
ACAD_DETAILVIEWSTYLE
350
12E
  3
ACAD_GROUP
350
D
  3
ACAD_LAYOUT
350
1A
  3
ACAD_MATERIAL
350
43
  3
ACAD_MLEADERSTYLE
350
6B
  3
ACAD_MLINESTYLE
350
17
  3
ACAD_PLOTSETTINGS
350
19
  3
ACAD_PLOTSTYLENAME
350
E
  3
ACAD_SCALELIST
350
47
  3
ACAD_SECTIONVIEWSTYLE
350
12F
  3
ACAD_TABLESTYLE
350
69
  3
ACAD_VISUALSTYLE
350
2A
  3
ACDB_RECOMPOSE_DATA
350
12B
  3
AcDbVariableDictionary
350
127
  0
SUN
  5
6D
330
29
100
AcDbSun
 90
        1
290
     0
 63
     7
421
 16777215
 40
1.0
291
     1
 91
  2455826
 92
 54000000
292
     0
 70
     2
 71
   256
280
     1
  0
DICTIONARY
  5
12E
102
{ACAD_REACTORS
330
C
102
}
330
C
100
AcDbDictionary
281
     1
  0
DICTIONARY
  5
D
102
{ACAD_REACTORS
330
C
102
}
330
C
100
AcDbDictionary
281
     1
  0
DICTIONARY
  5
1A
102
{ACAD_REACTORS
330
C
102
}
330
C
100
AcDbDictionary
281
     1
  3
Layout1
350
1E
  3
Layout2
350
26
  3
Model
350
22
  0
DICTIONARY
  5
43
102
{ACAD_REACTORS
330
C
102
}
330
C
100
AcDbDictionary
281
     1
  3
ByBlock
350
45
  3
ByLayer
350
44
  3
Global
350
46
  0
DICTIONARY
  5
6B
102
{ACAD_REACTORS
330
C
102
}
330
C
100
AcDbDictionary
281
     1
  3
Standard
350
6C
  0
DICTIONARY
  5
17
102
{ACAD_REACTORS
330
C
102
}
330
C
100
AcDbDictionary
281
     1
  3
Standard
350
18
  0
DICTIONARY
  5
19
102
{ACAD_REACTORS
330
C
102
}
330
C
100
AcDbDictionary
281
     1
  0
ACDBDICTIONARYWDFLT
  5
E
102
{ACAD_REACTORS
330
C
102
}
330
C
100
AcDbDictionary
281
     1
  3
Normal
350
F
100
AcDbDictionaryWithDefault
340
F
  0
DICTIONARY
  5
47
102
{ACAD_REACTORS
330
C
102
}
330
C
100
AcDbDictionary
281
     1
  3
A0
350
48
  3
A1
350
49
  3
A2
350
4A
  3
A3
350
4B
  3
A4
350
4C
  3
A5
350
4D
  3
A6
350
4E
  3
A7
350
4F
  3
A8
350
50
  3
A9
350
51
  3
B0
350
52
  3
B1
350
53
  3
B2
350
54
  3
B3
350
55
  3
B4
350
56
  3
B5
350
57
  3
B6
350
58
  3
B7
350
59
  3
B8
350
5A
  3
B9
350
5B
  3
C0
350
5C
  3
C1
350
5D
  3
C2
350
5E
  3
C3
350
5F
  3
C4
350
60
  3
C5
350
61
  3
C6
350
62
  3
C7
350
63
  3
C8
350
64
  3
C9
350
65
  3
D0
350
66
  3
D1
350
67
  3
D2
350
68
  0
DICTIONARY
  5
12F
102
{ACAD_REACTORS
330
C
102
}
330
C
100
AcDbDictionary
281
     1
  0
DICTIONARY
  5
69
102
{ACAD_REACTORS
330
C
102
}
330
C
100
AcDbDictionary
281
     1
  3
Standard
350
6A
  0
DICTIONARY
  5
2A
102
{ACAD_REACTORS
330
C
102
}
330
C
100
AcDbDictionary
281
     1
  3
2dWireframe
350
2F
  3
Basic
350
32
  3
Brighten
350
36
  3
ColorChange
350
3A
  3
Conceptual
350
34
  3
Dim
350
35
  3
EdgeColorOff
350
3D
  3
Facepattern
350
39
  3
Flat
350
2B
  3
FlatWithEdges
350
2C
  3
Gouraud
350
2D
  3
GouraudWithEdges
350
2E
  3
Hidden
350
31
  3
JitterOff
350
3B
  3
Linepattern
350
38
  3
OverhangOff
350
3C
  3
Realistic
350
33
  3
Shaded
350
42
  3
Shaded with edges
350
41
  3
Shades of Gray
350
3E
  3
Sketchy
350
3F
  3
Thicken
350
37
  3
Wireframe
350
30
  3
X-Ray
350
40
  0
XRECORD
  5
12B
102
{ACAD_REACTORS
330
C
102
}
330
C
100
AcDbXrecord
280
     1
 90
        1
330
6A
  0
DICTIONARY
  5
127
102
{ACAD_REACTORS
330
C
102
}
330
C
100
AcDbDictionary
281
     1
  3
CANNOSCALE
350
128
  3
CMLEADERSTYLE
350
12D
  3
CTABLESTYLE
350
12C
  0
LAYOUT
  5
1E
102
{ACAD_REACTORS
330
1A
102
}
330
1A
100
AcDbPlotSettings
  1

  2
none_device
  4

  6

 40
0.0
 41
0.0
 42
0.0
 43
0.0
 44
0.0
 45
0.0
 46
0.0
 47
0.0
 48
0.0
 49
0.0
140
0.0
141
0.0
142
1.0
143
1.0
 70
   688
 72
     1
 73
     0
 74
     5
  7

 75
    16
 76
     0
 77
     2
 78
   300
147
1.0
148
0.0
149
0.0
100
AcDbLayout
  1
Layout1
 70
     1
 71
     1
 10
0.0
 20
0.0
 11
420.0
 21
297.0
 12
0.0
 22
0.0
 32
0.0
 14
1.0000000000E+20
 24
1.0000000000E+20
 34
1.0000000000E+20
 15
-1.0000000000E+20
 25
-1.0000000000E+20
 35
-1.0000000000E+20
146
0.0
 13
0.0
 23
0.0
 33
0.0
 16
1.0
 26
0.0
 36
0.0
 17
0.0
 27
1.0
 37
0.0
 76
     0
330
1B
  0
LAYOUT
  5
26
102
{ACAD_REACTORS
330
1A
102
}
330
1A
100
AcDbPlotSettings
  1

  2
none_device
  4

  6

 40
0.0
 41
0.0
 42
0.0
 43
0.0
 44
0.0
 45
0.0
 46
0.0
 47
0.0
 48
0.0
 49
0.0
140
0.0
141
0.0
142
1.0
143
1.0
 70
   688
 72
     1
 73
     0
 74
     5
  7

 75
    16
 76
     0
 77
     2
 78
   300
147
1.0
148
0.0
149
0.0
100
AcDbLayout
  1
Layout2
 70
     1
 71
     2
 10
0.0
 20
0.0
 11
0.0
 21
0.0
 12
0.0
 22
0.0
 32
0.0
 14
0.0
 24
0.0
 34
0.0
 15
0.0
 25
0.0
 35
0.0
146
0.0
 13
0.0
 23
0.0
 33
0.0
 16
1.0
 26
0.0
 36
0.0
 17
0.0
 27
1.0
 37
0.0
 76
     0
330
23
  0
LAYOUT
  5
22
102
{ACAD_REACTORS
330
1A
102
}
330
1A
100
AcDbPlotSettings
  1

  2
none_device
  4
Letter_(8.50_x_11.00_Inches)
  6

 40
6.35
 41
6.35
 42
6.35000508
 43
6.35000508
 44
215.9
 45
279.4
 46
0.0
 47
0.0
 48
0.0
 49
0.0
140
0.0
141
0.0
142
1.0
143
1.0
 70
  1712
 72
     1
 73
     0
 74
     0
  7

 75
     0
 76
     0
 77
     2
 78
   300
147
1.0
148
0.0
149
0.0
100
AcDbLayout
  1
Model
 70
     1
 71
     0
 10
0.0
 20
0.0
 11
594.0
 21
841.0
 12
0.0
 22
0.0
 32
0.0
 14
0.0
 24
0.0
 34
0.0
 15
594.0
 25
841.0
 35
0.0
146
0.0
 13
0.0
 23
0.0
 33
0.0
 16
1.0
 26
0.0
 36
0.0
 17
0.0
 27
1.0
 37
0.0
 76
     0
330
1F
331
29
  0
MATERIAL
  5
45
102
{ACAD_REACTORS
330
43
102
}
330
43
100
AcDbMaterial
  1
ByBlock
 72
     1
 94
      127
  0
MATERIAL
  5
44
102
{ACAD_REACTORS
330
43
102
}
330
43
100
AcDbMaterial
  1
ByLayer
 72
     1
 94
      127
  0
MATERIAL
  5
46
102
{ACAD_REACTORS
330
43
102
}
330
43
100
AcDbMaterial
  1
Global
 72
     1
 94
      127
  0
MLEADERSTYLE
  5
6C
102
{ACAD_REACTORS
330
6B
102
}
330
6B
100
AcDbMLeaderStyle
179
     2
170
     2
171
     1
172
     0
 90
        2
 40
0.0
 41
0.0
173
     1
 91
-1056964608
340
14
 92
       -2
290
     1
 42
2.0
291
     1
 43
8.0
  3
Standard
341
0
 44
4.0
300

342
11
174
     1
178
     6
175
     1
176
     0
 93
-1056964608
 45
4.0
292
     0
297
     0
 46
4.0
343
0
 94
-1056964608
 47
1.0
 49
1.0
140
1.0
293
     1
141
0.0
294
     1
177
     0
142
1.0
295
     0
296
     0
143
3.75
271
     0
272
     9
273
     9
  0
MLINESTYLE
  5
18
102
{ACAD_REACTORS
330
17
102
}
330
17
100
AcDbMlineStyle
  2
Standard
 70
     0
  3

 62
   256
 51
90.0
 52
90.0
 71
     2
 49
0.5
 62
   256
  6
BYLAYER
 49
-0.5
 62
   256
  6
BYLAYER
  0
ACDBPLACEHOLDER
  5
F
102
{ACAD_REACTORS
330
E
102
}
330
E
  0
SCALE
  5
48
102
{ACAD_REACTORS
330
47
102
}
330
47
100
AcDbScale
 70
     0
300
1:1
140
1.0
141
1.0
290
     1
  0
SCALE
  5
49
102
{ACAD_REACTORS
330
47
102
}
330
47
100
AcDbScale
 70
     0
300
1:2
140
1.0
141
2.0
290
     0
  0
SCALE
  5
4A
102
{ACAD_REACTORS
330
47
102
}
330
47
100
AcDbScale
 70
     0
300
1:4
140
1.0
141
4.0
290
     0
  0
SCALE
  5
4B
102
{ACAD_REACTORS
330
47
102
}
330
47
100
AcDbScale
 70
     0
300
1:5
140
1.0
141
5.0
290
     0
  0
SCALE
  5
4C
102
{ACAD_REACTORS
330
47
102
}
330
47
100
AcDbScale
 70
     0
300
1:8
140
1.0
141
8.0
290
     0
  0
SCALE
  5
4D
102
{ACAD_REACTORS
330
47
102
}
330
47
100
AcDbScale
 70
     0
300
1:10
140
1.0
141
10.0
290
     0
  0
SCALE
  5
4E
102
{ACAD_REACTORS
330
47
102
}
330
47
100
AcDbScale
 70
     0
300
1:16
140
1.0
141
16.0
290
     0
  0
SCALE
  5
4F
102
{ACAD_REACTORS
330
47
102
}
330
47
100
AcDbScale
 70
     0
300
1:20
140
1.0
141
20.0
290
     0
  0
SCALE
  5
50
102
{ACAD_REACTORS
330
47
102
}
330
47
100
AcDbScale
 70
     0
300
1:30
140
1.0
141
30.0
290
     0
  0
SCALE
  5
51
102
{ACAD_REACTORS
330
47
102
}
330
47
100
AcDbScale
 70
     0
300
1:40
140
1.0
141
40.0
290
     0
  0
SCALE
  5
52
102
{ACAD_REACTORS
330
47
102
}
330
47
100
AcDbScale
 70
     0
300
1:50
140
1.0
141
50.0
290
     0
  0
SCALE
  5
53
102
{ACAD_REACTORS
330
47
102
}
330
47
100
AcDbScale
 70
     0
300
1:100
140
1.0
141
100.0
290
     0
  0
SCALE
  5
54
102
{ACAD_REACTORS
330
47
102
}
330
47
100
AcDbScale
 70
     0
300
2:1
140
2.0
141
1.0
290
     0
  0
SCALE
  5
55
102
{ACAD_REACTORS
330
47
102
}
330
47
100
AcDbScale
 70
     0
300
4:1
140
4.0
141
1.0
290
     0
  0
SCALE
  5
56
102
{ACAD_REACTORS
330
47
102
}
330
47
100
AcDbScale
 70
     0
300
8:1
140
8.0
141
1.0
290
     0
  0
SCALE
  5
57
102
{ACAD_REACTORS
330
47
102
}
330
47
100
AcDbScale
 70
     0
300
10:1
140
10.0
141
1.0
290
     0
  0
SCALE
  5
58
102
{ACAD_REACTORS
330
47
102
}
330
47
100
AcDbScale
 70
     0
300
100:1
140
100.0
141
1.0
290
     0
  0
SCALE
  5
59
102
{ACAD_REACTORS
330
47
102
}
330
47
100
AcDbScale
 70
     0
300
1/128" = 1'-0"
140
0.0078125
141
12.0
290
     0
  0
SCALE
  5
5A
102
{ACAD_REACTORS
330
47
102
}
330
47
100
AcDbScale
 70
     0
300
1/64" = 1'-0"
140
0.015625
141
12.0
290
     0
  0
SCALE
  5
5B
102
{ACAD_REACTORS
330
47
102
}
330
47
100
AcDbScale
 70
     0
300
1/32" = 1'-0"
140
0.03125
141
12.0
290
     0
  0
SCALE
  5
5C
102
{ACAD_REACTORS
330
47
102
}
330
47
100
AcDbScale
 70
     0
300
1/16" = 1'-0"
140
0.0625
141
12.0
290
     0
  0
SCALE
  5
5D
102
{ACAD_REACTORS
330
47
102
}
330
47
100
AcDbScale
 70
     0
300
3/32" = 1'-0"
140
0.09375
141
12.0
290
     0
  0
SCALE
  5
5E
102
{ACAD_REACTORS
330
47
102
}
330
47
100
AcDbScale
 70
     0
300
1/8" = 1'-0"
140
0.125
141
12.0
290
     0
  0
SCALE
  5
5F
102
{ACAD_REACTORS
330
47
102
}
330
47
100
AcDbScale
 70
     0
300
3/16" = 1'-0"
140
0.1875
141
12.0
290
     0
  0
SCALE
  5
60
102
{ACAD_REACTORS
330
47
102
}
330
47
100
AcDbScale
 70
     0
300
1/4" = 1'-0"
140
0.25
141
12.0
290
     0
  0
SCALE
  5
61
102
{ACAD_REACTORS
330
47
102
}
330
47
100
AcDbScale
 70
     0
300
3/8" = 1'-0"
140
0.375
141
12.0
290
     0
  0
SCALE
  5
62
102
{ACAD_REACTORS
330
47
102
}
330
47
100
AcDbScale
 70
     0
300
1/2" = 1'-0"
140
0.5
141
12.0
290
     0
  0
SCALE
  5
63
102
{ACAD_REACTORS
330
47
102
}
330
47
100
AcDbScale
 70
     0
300
3/4" = 1'-0"
140
0.75
141
12.0
290
     0
  0
SCALE
  5
64
102
{ACAD_REACTORS
330
47
102
}
330
47
100
AcDbScale
 70
     0
300
1" = 1'-0"
140
1.0
141
12.0
290
     0
  0
SCALE
  5
65
102
{ACAD_REACTORS
330
47
102
}
330
47
100
AcDbScale
 70
     0
300
1-1/2" = 1'-0"
140
1.5
141
12.0
290
     0
  0
SCALE
  5
66
102
{ACAD_REACTORS
330
47
102
}
330
47
100
AcDbScale
 70
     0
300
3" = 1'-0"
140
3.0
141
12.0
290
     0
  0
SCALE
  5
67
102
{ACAD_REACTORS
330
47
102
}
330
47
100
AcDbScale
 70
     0
300
6" = 1'-0"
140
6.0
141
12.0
290
     0
  0
SCALE
  5
68
102
{ACAD_REACTORS
330
47
102
}
330
47
100
AcDbScale
 70
     0
300
1'-0" = 1'-0"
140
12.0
141
12.0
290
     0
  0
TABLESTYLE
  5
6A
102
{ACAD_REACTORS
330
69
102
}
102
{ACAD_XDICTIONARY
360
129
102
}
330
69
100
AcDbTableStyle
  3
Standard
 70
     0
 71
     0
 40
0.06
 41
0.06
280
     0
281
     0
  7
Standard
140
4.5
170
     2
 62
     0
 63
   257
283
     0
 90
        4
 91
        0
  1

274
    -2
284
     1
 64
     0
275
    -2
285
     1
 65
     0
276
    -2
286
     1
 66
     0
277
    -2
287
     1
 67
     0
278
    -2
288
     1
 68
     0
279
    -2
289
     1
 69
     0
  7
Standard
140
6.0
170
     5
 62
     0
 63
   257
283
     0
 90
        4
 91
        0
  1

274
    -2
284
     1
 64
     0
275
    -2
285
     1
 65
     0
276
    -2
286
     1
 66
     0
277
    -2
287
     1
 67
     0
278
    -2
288
     1
 68
     0
279
    -2
289
     1
 69
     0
  7
Standard
140
4.5
170
     5
 62
     0
 63
   257
283
     0
 90
        4
 91
        0
  1

274
    -2
284
     1
 64
     0
275
    -2
285
     1
 65
     0
276
    -2
286
     1
 66
     0
277
    -2
287
     1
 67
     0
278
    -2
288
     1
 68
     0
279
    -2
289
     1
 69
     0
  0
VISUALSTYLE
  5
2F
102
{ACAD_REACTORS
330
2A
102
}
330
2A
100
AcDbVisualStyle
  2
2dWireframe
 70
     4
177
     2
291
     0
 71
     0
176
     1
 72
     2
176
     1
 73
     0
176
     1
 90
        0
176
     1
 40
0.6
176
     1
 41
30.0
176
     1
 62
     5
 63
     7
421
 16777215
176
     1
 74
     1
176
     1
 91
        4
176
     1
 64
     7
176
     1
 65
   257
176
     1
 75
     1
176
     1
175
     1
176
     1
 42
1.0
176
     1
 92
        0
176
     1
 66
   257
176
     1
 43
1.0
176
     1
 76
     1
176
     1
 77
     6
176
     1
 78
     2
176
     1
 67
     7
176
     1
 79
     5
176
     1
170
     0
176
     1
171
     0
176
     1
290
     0
176
     1
 93
        1
176
     1
 44
0.0
176
     1
173
     0
176
     1
  0
VISUALSTYLE
  5
32
102
{ACAD_REACTORS
330
2A
102
}
330
2A
100
AcDbVisualStyle
  2
Basic
 70
     7
177
     2
291
     1
 71
     1
176
     1
 72
     0
176
     1
 73
     1
176
     1
 90
        0
176
     1
 40
0.6
176
     1
 41
30.0
176
     1
 62
     5
 63
     7
421
 16777215
176
     1
 74
     0
176
     1
 91
        4
176
     1
 64
     7
176
     1
 65
   257
176
     1
 75
     1
176
     1
175
     1
176
     1
 42
1.0
176
     1
 92
        8
176
     1
 66
     7
176
     1
 43
1.0
176
     1
 76
     1
176
     1
 77
     6
176
     1
 78
     2
176
     1
 67
     7
176
     1
 79
     5
176
     1
170
     0
176
     1
171
     0
176
     1
290
     0
176
     1
 93
        1
176
     1
 44
0.0
176
     1
173
     0
176
     1
  0
VISUALSTYLE
  5
36
102
{ACAD_REACTORS
330
2A
102
}
330
2A
100
AcDbVisualStyle
  2
Brighten
 70
    12
177
     2
291
     1
 71
     2
176
     1
 72
     2
176
     1
 73
     0
176
     1
 90
        0
176
     1
 40
0.6
176
     1
 41
30.0
176
     1
 62
     5
 63
     7
421
 16777215
176
     1
 74
     1
176
     1
 91
        4
176
     1
 64
     7
176
     1
 65
   257
176
     1
 75
     1
176
     1
175
     1
176
     1
 42
1.0
176
     1
 92
        8
176
     1
 66
     7
176
     1
 43
1.0
176
     1
 76
     1
176
     1
 77
     6
176
     1
 78
     2
176
     1
 67
     7
176
     1
 79
     5
176
     1
170
     0
176
     1
171
     0
176
     1
290
     0
176
     1
 93
        1
176
     1
 44
50.0
176
     1
173
     0
176
     1
  0
VISUALSTYLE
  5
3A
102
{ACAD_REACTORS
330
2A
102
}
330
2A
100
AcDbVisualStyle
  2
ColorChange
 70
    16
177
     2
291
     1
 71
     2
176
     1
 72
     2
176
     1
 73
     3
176
     1
 90
        0
176
     1
 40
0.6
176
     1
 41
30.0
176
     1
 62
     5
 63
     8
421
  8421504
176
     1
 74
     1
176
     1
 91
        4
176
     1
 64
     7
176
     1
 65
   257
176
     1
 75
     1
176
     1
175
     1
176
     1
 42
1.0
176
     1
 92
        8
176
     1
 66
     8
424
  8421504
176
     1
 43
1.0
176
     1
 76
     1
176
     1
 77
     6
176
     1
 78
     2
176
     1
 67
     7
176
     1
 79
     5
176
     1
170
     0
176
     1
171
     0
176
     1
290
     0
176
     1
 93
        1
176
     1
 44
0.0
176
     1
173
     0
176
     1
  0
VISUALSTYLE
  5
34
102
{ACAD_REACTORS
330
2A
102
}
330
2A
100
AcDbVisualStyle
  2
Conceptual
 70
     9
177
     2
291
     0
 71
     3
176
     1
 72
     2
176
     1
 73
     0
176
     1
 90
        0
176
     1
 40
0.6
176
     1
 41
30.0
176
     1
 62
     5
 63
     7
421
 16777215
176
     1
 74
     2
176
     1
 91
        2
176
     1
 64
     7
176
     1
 65
   257
176
     1
 75
     1
176
     1
175
     1
176
     1
 42
179.0
176
     1
 92
        8
176
     1
 66
     7
176
     1
 43
1.0
176
     1
 76
     1
176
     1
 77
     6
176
     1
 78
     2
176
     1
 67
     7
176
     1
 79
     3
176
     1
170
     0
176
     1
171
     0
176
     1
290
     0
176
     1
 93
        1
176
     1
 44
0.0
176
     1
173
     0
176
     1
  0
VISUALSTYLE
  5
35
102
{ACAD_REACTORS
330
2A
102
}
330
2A
100
AcDbVisualStyle
  2
Dim
 70
    11
177
     2
291
     1
 71
     2
176
     1
 72
     2
176
     1
 73
     0
176
     1
 90
        0
176
     1
 40
0.6
176
     1
 41
30.0
176
     1
 62
     5
 63
     7
421
 16777215
176
     1
 74
     1
176
     1
 91
        4
176
     1
 64
     7
176
     1
 65
   257
176
     1
 75
     1
176
     1
175
     1
176
     1
 42
1.0
176
     1
 92
        8
176
     1
 66
     7
176
     1
 43
1.0
176
     1
 76
     1
176
     1
 77
     6
176
     1
 78
     2
176
     1
 67
     7
176
     1
 79
     5
176
     1
170
     0
176
     1
171
     0
176
     1
290
     0
176
     1
 93
        1
176
     1
 44
-50.0
176
     1
173
     0
176
     1
  0
VISUALSTYLE
  5
3D
102
{ACAD_REACTORS
330
2A
102
}
330
2A
100
AcDbVisualStyle
  2
EdgeColorOff
 70
    22
177
     2
291
     1
 71
     2
176
     0
 72
     2
176
     0
 73
     0
176
     0
 90
        0
176
     0
 40
0.6
176
     0
 41
30.0
176
     0
 62
     5
 63
     7
421
 16777215
176
     0
 74
     1
176
     0
 91
        4
176
     0
 64
     7
176
     0
 65
   257
176
     0
 75
     1
176
     0
175
     1
176
     0
 42
1.0
176
     0
 92
        8
176
     2
 66
     7
176
     0
 43
1.0
176
     0
 76
     1
176
     0
 77
     6
176
     0
 78
     2
176
     0
 67
     7
176
     0
 79
     5
176
     0
170
     0
176
     0
171
     0
176
     0
290
     0
176
     0
 93
        1
176
     0
 44
0.0
176
     0
173
     0
176
     0
  0
VISUALSTYLE
  5
39
102
{ACAD_REACTORS
330
2A
102
}
330
2A
100
AcDbVisualStyle
  2
Facepattern
 70
    15
177
     2
291
     1
 71
     2
176
     1
 72
     2
176
     1
 73
     0
176
     1
 90
        0
176
     1
 40
0.6
176
     1
 41
30.0
176
     1
 62
     5
 63
     7
421
 16777215
176
     1
 74
     1
176
     1
 91
        4
176
     1
 64
     7
176
     1
 65
   257
176
     1
 75
     1
176
     1
175
     1
176
     1
 42
1.0
176
     1
 92
        8
176
     1
 66
     7
176
     1
 43
1.0
176
     1
 76
     1
176
     1
 77
     6
176
     1
 78
     2
176
     1
 67
     7
176
     1
 79
     5
176
     1
170
     0
176
     1
171
     0
176
     1
290
     0
176
     1
 93
        1
176
     1
 44
0.0
176
     1
173
     0
176
     1
  0
VISUALSTYLE
  5
2B
102
{ACAD_REACTORS
330
2A
102
}
330
2A
100
AcDbVisualStyle
  2
Flat
 70
     0
177
     2
291
     1
 71
     2
176
     1
 72
     1
176
     1
 73
     1
176
     1
 90
        2
176
     1
 40
0.6
176
     1
 41
30.0
176
     1
 62
     5
 63
     7
421
 16777215
176
     1
 74
     0
176
     1
 91
        0
176
     1
 64
     7
176
     1
 65
   257
176
     1
 75
     1
176
     1
175
     1
176
     1
 42
1.0
176
     1
 92
        8
176
     1
 66
     7
176
     1
 43
1.0
176
     1
 76
     1
176
     1
 77
     6
176
     1
 78
     2
176
     1
 67
     7
176
     1
 79
     5
176
     1
170
     0
176
     1
171
     0
176
     1
290
     0
176
     1
 93
       13
176
     1
 44
0.0
176
     1
173
     0
176
     1
  0
VISUALSTYLE
  5
2C
102
{ACAD_REACTORS
330
2A
102
}
330
2A
100
AcDbVisualStyle
  2
FlatWithEdges
 70
     1
177
     2
291
     1
 71
     2
176
     1
 72
     1
176
     1
 73
     1
176
     1
 90
        2
176
     1
 40
0.6
176
     1
 41
30.0
176
     1
 62
     5
 63
     7
421
 16777215
176
     1
 74
     1
176
     1
 91
        0
176
     1
 64
     7
176
     1
 65
   257
176
     1
 75
     1
176
     1
175
     1
176
     1
 42
1.0
176
     1
 92
        0
176
     1
 66
   257
176
     1
 43
1.0
176
     1
 76
     1
176
     1
 77
     6
176
     1
 78
     2
176
     1
 67
     7
176
     1
 79
     5
176
     1
170
     0
176
     1
171
     0
176
     1
290
     0
176
     1
 93
       13
176
     1
 44
0.0
176
     1
173
     0
176
     1
  0
VISUALSTYLE
  5
2D
102
{ACAD_REACTORS
330
2A
102
}
330
2A
100
AcDbVisualStyle
  2
Gouraud
 70
     2
177
     2
291
     1
 71
     2
176
     1
 72
     2
176
     1
 73
     1
176
     1
 90
        2
176
     1
 40
0.6
176
     1
 41
30.0
176
     1
 62
     5
 63
     7
421
 16777215
176
     1
 74
     0
176
     1
 91
        0
176
     1
 64
     7
176
     1
 65
   257
176
     1
 75
     1
176
     1
175
     1
176
     1
 42
1.0
176
     1
 92
        0
176
     1
 66
     7
176
     1
 43
1.0
176
     1
 76
     1
176
     1
 77
     6
176
     1
 78
     2
176
     1
 67
     7
176
     1
 79
     5
176
     1
170
     0
176
     1
171
     0
176
     1
290
     0
176
     1
 93
       13
176
     1
 44
0.0
176
     1
173
     0
176
     1
  0
VISUALSTYLE
  5
2E
102
{ACAD_REACTORS
330
2A
102
}
330
2A
100
AcDbVisualStyle
  2
GouraudWithEdges
 70
     3
177
     2
291
     1
 71
     2
176
     1
 72
     2
176
     1
 73
     1
176
     1
 90
        2
176
     1
 40
0.6
176
     1
 41
30.0
176
     1
 62
     5
 63
     7
421
 16777215
176
     1
 74
     1
176
     1
 91
        0
176
     1
 64
     7
176
     1
 65
   257
176
     1
 75
     1
176
     1
175
     1
176
     1
 42
1.0
176
     1
 92
        0
176
     1
 66
   257
176
     1
 43
1.0
176
     1
 76
     1
176
     1
 77
     6
176
     1
 78
     2
176
     1
 67
     7
176
     1
 79
     5
176
     1
170
     0
176
     1
171
     0
176
     1
290
     0
176
     1
 93
       13
176
     1
 44
0.0
176
     1
173
     0
176
     1
  0
VISUALSTYLE
  5
31
102
{ACAD_REACTORS
330
2A
102
}
330
2A
100
AcDbVisualStyle
  2
Hidden
 70
     6
177
     2
291
     0
 71
     1
176
     1
 72
     2
176
     1
 73
     2
176
     1
 90
        0
176
     1
 40
0.6
176
     1
 41
30.0
176
     1
 62
     5
 63
     7
421
 16777215
176
     1
 74
     2
176
     1
 91
        2
176
     1
 64
     7
176
     1
 65
   257
176
     1
 75
     2
176
     1
175
     1
176
     1
 42
40.0
176
     1
 92
        0
176
     1
 66
   257
176
     1
 43
1.0
176
     1
 76
     1
176
     1
 77
     6
176
     1
 78
     2
176
     1
 67
     7
176
     1
 79
     3
176
     1
170
     0
176
     1
171
     0
176
     1
290
     0
176
     1
 93
        1
176
     1
 44
0.0
176
     1
173
     0
176
     1
  0
VISUALSTYLE
  5
3B
102
{ACAD_REACTORS
330
2A
102
}
330
2A
100
AcDbVisualStyle
  2
JitterOff
 70
    20
177
     2
291
     1
 71
     2
176
     0
 72
     2
176
     0
 73
     0
176
     0
 90
        0
176
     0
 40
0.6
176
     0
 41
30.0
176
     0
 62
     5
 63
     7
421
 16777215
176
     0
 74
     1
176
     0
 91
        4
176
     0
 64
     7
176
     0
 65
   257
176
     0
 75
     1
176
     0
175
     1
176
     0
 42
1.0
176
     0
 92
       10
176
     2
 66
     7
176
     0
 43
1.0
176
     0
 76
     1
176
     0
 77
     6
176
     0
 78
     2
176
     0
 67
     7
176
     0
 79
     5
176
     0
170
     0
176
     0
171
     0
176
     0
290
     0
176
     0
 93
        1
176
     0
 44
0.0
176
     0
173
     0
176
     0
  0
VISUALSTYLE
  5
38
102
{ACAD_REACTORS
330
2A
102
}
330
2A
100
AcDbVisualStyle
  2
Linepattern
 70
    14
177
     2
291
     1
 71
     2
176
     1
 72
     2
176
     1
 73
     0
176
     1
 90
        0
176
     1
 40
0.6
176
     1
 41
30.0
176
     1
 62
     5
 63
     7
421
 16777215
176
     1
 74
     1
176
     1
 91
        4
176
     1
 64
     7
176
     1
 65
   257
176
     1
 75
     7
176
     1
175
     7
176
     1
 42
1.0
176
     1
 92
        8
176
     1
 66
     7
176
     1
 43
1.0
176
     1
 76
     1
176
     1
 77
     6
176
     1
 78
     2
176
     1
 67
     7
176
     1
 79
     5
176
     1
170
     0
176
     1
171
     0
176
     1
290
     0
176
     1
 93
        1
176
     1
 44
0.0
176
     1
173
     0
176
     1
  0
VISUALSTYLE
  5
3C
102
{ACAD_REACTORS
330
2A
102
}
330
2A
100
AcDbVisualStyle
  2
OverhangOff
 70
    21
177
     2
291
     1
 71
     2
176
     0
 72
     2
176
     0
 73
     0
176
     0
 90
        0
176
     0
 40
0.6
176
     0
 41
30.0
176
     0
 62
     5
 63
     7
421
 16777215
176
     0
 74
     1
176
     0
 91
        4
176
     0
 64
     7
176
     0
 65
   257
176
     0
 75
     1
176
     0
175
     1
176
     0
 42
1.0
176
     0
 92
        9
176
     2
 66
     7
176
     0
 43
1.0
176
     0
 76
     1
176
     0
 77
     6
176
     0
 78
     2
176
     0
 67
     7
176
     0
 79
     5
176
     0
170
     0
176
     0
171
     0
176
     0
290
     0
176
     0
 93
        1
176
     0
 44
0.0
176
     0
173
     0
176
     0
  0
VISUALSTYLE
  5
33
102
{ACAD_REACTORS
330
2A
102
}
330
2A
100
AcDbVisualStyle
  2
Realistic
 70
     8
177
     2
291
     0
 71
     2
176
     1
 72
     3
176
     1
 73
     0
176
     1
 90
        2
176
     1
 40
0.6
176
     1
 41
30.0
176
     1
 62
     5
 63
     7
421
 16777215
176
     1
 74
     0
176
     1
 91
        0
176
     1
 64
     7
176
     1
 65
   257
176
     1
 75
     1
176
     1
175
     1
176
     1
 42
1.0
176
     1
 92
        8
176
     1
 66
   257
176
     1
 43
1.0
176
     1
 76
     1
176
     1
 77
     6
176
     1
 78
     2
176
     1
 67
     7
176
     1
 79
     3
176
     1
170
     0
176
     1
171
     0
176
     1
290
     0
176
     1
 93
       13
176
     1
 44
0.0
176
     1
173
     0
176
     1
  0
VISUALSTYLE
  5
42
102
{ACAD_REACTORS
330
2A
102
}
330
2A
100
AcDbVisualStyle
  2
Shaded
 70
    27
177
     2
291
     0
 71
     2
176
     1
 72
     2
176
     1
 73
     1
176
     1
 90
        2
176
     1
 40
0.6
176
     1
 41
30.0
176
     1
 62
     5
 63
     7
421
 16777215
176
     1
 74
     0
176
     1
 91
        4
176
     1
 64
     7
176
     1
 65
   257
176
     1
 75
     1
176
     1
175
     1
176
     1
 42
1.0
176
     1
 92
        8
176
     1
 66
   257
176
     1
 43
1.0
176
     1
 76
     1
176
     1
 77
     6
176
     1
 78
     2
176
     1
 67
     8
425
  7895160
176
     1
 79
     3
176
     1
170
     0
176
     1
171
     0
176
     1
290
     0
176
     1
 93
        5
176
     1
 44
0.0
176
     1
173
     0
176
     1
  0
VISUALSTYLE
  5
41
102
{ACAD_REACTORS
330
2A
102
}
330
2A
100
AcDbVisualStyle
  2
Shaded with edges
 70
    26
177
     2
291
     0
 71
     2
176
     1
 72
     2
176
     1
 73
     1
176
     1
 90
        2
176
     1
 40
0.6
176
     1
 41
30.0
176
     1
 62
     5
 63
     7
421
 16777215
176
     1
 74
     1
176
     1
 91
       10
176
     1
 64
     7
176
     1
 65
   257
176
     1
 75
     2
176
     1
175
     1
176
     1
 42
1.0
176
     1
 92
        8
176
     1
 66
   257
176
     1
 43
1.0
176
     1
 76
     1
176
     1
 77
     6
176
     1
 78
     2
176
     1
 67
     7
176
     1
 79
     3
176
     1
170
     0
176
     1
171
     0
176
     1
290
     0
176
     1
 93
        5
176
     1
 44
0.0
176
     1
173
     0
176
     1
  0
VISUALSTYLE
  5
3E
102
{ACAD_REACTORS
330
2A
102
}
330
2A
100
AcDbVisualStyle
  2
Shades of Gray
 70
    23
177
     2
291
     0
 71
     2
176
     1
 72
     2
176
     1
 73
     3
176
     1
 90
        0
176
     1
 40
0.6
176
     1
 41
30.0
176
     1
 62
     5
 63
     7
421
 16777215
176
     1
 74
     2
176
     1
 91
        2
176
     1
 64
     7
176
     1
 65
     7
176
     1
 75
     1
176
     1
175
     1
176
     1
 42
40.0
176
     1
 92
        8
176
     1
 66
     7
176
     1
 43
1.0
176
     1
 76
     1
176
     1
 77
     6
176
     1
 78
     2
176
     1
 67
     7
176
     1
 79
     3
176
     1
170
     0
176
     1
171
     0
176
     1
290
     0
176
     1
 93
        1
176
     1
 44
0.0
176
     1
173
     0
176
     1
  0
VISUALSTYLE
  5
3F
102
{ACAD_REACTORS
330
2A
102
}
330
2A
100
AcDbVisualStyle
  2
Sketchy
 70
    24
177
     2
291
     0
 71
     1
176
     1
 72
     2
176
     1
 73
     2
176
     1
 90
        0
176
     1
 40
0.6
176
     1
 41
30.0
176
     1
 62
     5
 63
     7
421
 16777215
176
     1
 74
     2
176
     1
 91
        2
176
     1
 64
     7
176
     1
 65
     7
176
     1
 75
     1
176
     1
175
     1
176
     1
 42
40.0
176
     1
 92
       11
176
     1
 66
     7
176
     1
 43
1.0
176
     1
 76
     1
176
     1
 77
     6
176
     1
 78
     2
176
     1
 67
     7
176
     1
 79
     6
176
     1
170
     0
176
     1
171
     0
176
     1
290
     0
176
     1
 93
        1
176
     1
 44
0.0
176
     1
173
     0
176
     1
  0
VISUALSTYLE
  5
37
102
{ACAD_REACTORS
330
2A
102
}
330
2A
100
AcDbVisualStyle
  2
Thicken
 70
    13
177
     2
291
     1
 71
     2
176
     1
 72
     2
176
     1
 73
     0
176
     1
 90
        0
176
     1
 40
0.6
176
     1
 41
30.0
176
     1
 62
     5
 63
     7
421
 16777215
176
     1
 74
     1
176
     1
 91
        4
176
     1
 64
     7
176
     1
 65
   257
176
     1
 75
     1
176
     1
175
     1
176
     1
 42
1.0
176
     1
 92
       12
176
     1
 66
     7
176
     1
 43
1.0
176
     1
 76
     1
176
     1
 77
     6
176
     1
 78
     2
176
     1
 67
     7
176
     1
 79
     5
176
     1
170
     0
176
     1
171
     0
176
     1
290
     0
176
     1
 93
        1
176
     1
 44
0.0
176
     1
173
     0
176
     1
  0
VISUALSTYLE
  5
30
102
{ACAD_REACTORS
330
2A
102
}
330
2A
100
AcDbVisualStyle
  2
Wireframe
 70
     5
177
     2
291
     0
 71
     0
176
     1
 72
     2
176
     1
 73
     0
176
     1
 90
        0
176
     1
 40
0.6
176
     1
 41
30.0
176
     1
 62
     5
 63
     7
421
 16777215
176
     1
 74
     1
176
     1
 91
        4
176
     1
 64
     7
176
     1
 65
   257
176
     1
 75
     1
176
     1
175
     1
176
     1
 42
1.0
176
     1
 92
        0
176
     1
 66
   257
176
     1
 43
1.0
176
     1
 76
     1
176
     1
 77
     6
176
     1
 78
     2
176
     1
 67
     7
176
     1
 79
     3
176
     1
170
     0
176
     1
171
     0
176
     1
290
     0
176
     1
 93
        1
176
     1
 44
0.0
176
     1
173
     0
176
     1
  0
VISUALSTYLE
  5
40
102
{ACAD_REACTORS
330
2A
102
}
330
2A
100
AcDbVisualStyle
  2
X-Ray
 70
    25
177
     2
291
     0
 71
     2
176
     1
 72
     2
176
     1
 73
     1
176
     1
 90
        1
176
     1
 40
0.5
176
     1
 41
30.0
176
     1
 62
     5
 63
     7
421
 16777215
176
     1
 74
     1
176
     1
 91
        0
176
     1
 64
     7
176
     1
 65
   257
176
     1
 75
     1
176
     1
175
     1
176
     1
 42
1.0
176
     1
 92
        8
176
     1
 66
     7
176
     1
 43
1.0
176
     1
 76
     1
176
     1
 77
     6
176
     1
 78
     2
176
     1
 67
     7
176
     1
 79
     3
176
     1
170
     0
176
     1
171
     0
176
     1
290
     0
176
     1
 93
       13
176
     1
 44
0.0
176
     1
173
     0
176
     1
  0
DICTIONARYVAR
  5
128
102
{ACAD_REACTORS
330
127
102
}
330
127
100
DictionaryVariables
280
     0
  1
1:1
  0
DICTIONARYVAR
  5
12D
102
{ACAD_REACTORS
330
127
102
}
330
127
100
DictionaryVariables
280
     0
  1
Standard
  0
DICTIONARYVAR
  5
12C
102
{ACAD_REACTORS
330
127
102
}
330
127
100
DictionaryVariables
280
     0
  1
Standard
  0
DICTIONARY
  5
129
330
6A
100
AcDbDictionary
280
     1
281
     1
  3
ACAD_ROUNDTRIP_2008_TABLESTYLE_CELLSTYLEMAP
360
12A
  0
CELLSTYLEMAP
  5
12A
102
{ACAD_REACTORS
330
129
102
}
330
129
100
AcDbCellStyleMap
 90
        3
300
CELLSTYLE
  1
TABLEFORMAT_BEGIN
 90
        5
170
     1
 91
        0
 92
    32768
 62
   257
 93
        1
300
CONTENTFORMAT
  1
CONTENTFORMAT_BEGIN
 90
        0
 91
        0
 92
        4
 93
        0
300

 40
0.0
140
1.0
 94
        5
 62
     0
340
11
144
6.0
309
CONTENTFORMAT_END
171
     1
301
MARGIN
  1
CELLMARGIN_BEGIN
 40
1.5
 40
1.5
 40
1.5
 40
1.5
 40
1.5
 40
1.5
309
CELLMARGIN_END
 94
        6
 95
        1
302
GRIDFORMAT
  1
GRIDFORMAT_BEGIN
 90
        0
 91
        1
 62
     0
 92
       -2
340
14
 93
        0
 40
0.045
309
GRIDFORMAT_END
 95
        2
302
GRIDFORMAT
  1
GRIDFORMAT_BEGIN
 90
        0
 91
        1
 62
     0
 92
       -2
340
14
 93
        0
 40
0.045
309
GRIDFORMAT_END
 95
        4
302
GRIDFORMAT
  1
GRIDFORMAT_BEGIN
 90
        0
 91
        1
 62
     0
 92
       -2
340
14
 93
        0
 40
0.045
309
GRIDFORMAT_END
 95
        8
302
GRIDFORMAT
  1
GRIDFORMAT_BEGIN
 90
        0
 91
        1
 62
     0
 92
       -2
340
14
 93
        0
 40
0.045
309
GRIDFORMAT_END
 95
       16
302
GRIDFORMAT
  1
GRIDFORMAT_BEGIN
 90
        0
 91
        1
 62
     0
 92
       -2
340
14
 93
        0
 40
0.045
309
GRIDFORMAT_END
 95
       32
302
GRIDFORMAT
  1
GRIDFORMAT_BEGIN
 90
        0
 91
        1
 62
     0
 92
       -2
340
14
 93
        0
 40
0.045
309
GRIDFORMAT_END
309
TABLEFORMAT_END
  1
CELLSTYLE_BEGIN
 90
        1
 91
        1
300
_TITLE
309
CELLSTYLE_END
300
CELLSTYLE
  1
TABLEFORMAT_BEGIN
 90
        5
170
     1
 91
        0
 92
        0
 62
   257
 93
        1
300
CONTENTFORMAT
  1
CONTENTFORMAT_BEGIN
 90
        0
 91
        0
 92
        4
 93
        0
300

 40
0.0
140
1.0
 94
        5
 62
     0
340
11
144
4.5
309
CONTENTFORMAT_END
171
     1
301
MARGIN
  1
CELLMARGIN_BEGIN
 40
1.5
 40
1.5
 40
1.5
 40
1.5
 40
1.5
 40
1.5
309
CELLMARGIN_END
 94
        6
 95
        1
302
GRIDFORMAT
  1
GRIDFORMAT_BEGIN
 90
        0
 91
        1
 62
     0
 92
       -2
340
14
 93
        0
 40
0.045
309
GRIDFORMAT_END
 95
        2
302
GRIDFORMAT
  1
GRIDFORMAT_BEGIN
 90
        0
 91
        1
 62
     0
 92
       -2
340
14
 93
        0
 40
0.045
309
GRIDFORMAT_END
 95
        4
302
GRIDFORMAT
  1
GRIDFORMAT_BEGIN
 90
        0
 91
        1
 62
     0
 92
       -2
340
14
 93
        0
 40
0.045
309
GRIDFORMAT_END
 95
        8
302
GRIDFORMAT
  1
GRIDFORMAT_BEGIN
 90
        0
 91
        1
 62
     0
 92
       -2
340
14
 93
        0
 40
0.045
309
GRIDFORMAT_END
 95
       16
302
GRIDFORMAT
  1
GRIDFORMAT_BEGIN
 90
        0
 91
        1
 62
     0
 92
       -2
340
14
 93
        0
 40
0.045
309
GRIDFORMAT_END
 95
       32
302
GRIDFORMAT
  1
GRIDFORMAT_BEGIN
 90
        0
 91
        1
 62
     0
 92
       -2
340
14
 93
        0
 40
0.045
309
GRIDFORMAT_END
309
TABLEFORMAT_END
  1
CELLSTYLE_BEGIN
 90
        2
 91
        1
300
_HEADER
309
CELLSTYLE_END
300
CELLSTYLE
  1
TABLEFORMAT_BEGIN
 90
        5
170
     1
 91
        0
 92
        0
 62
   257
 93
        1
300
CONTENTFORMAT
  1
CONTENTFORMAT_BEGIN
 90
        0
 91
        0
 92
        4
 93
        0
300

 40
0.0
140
1.0
 94
        2
 62
     0
340
11
144
4.5
309
CONTENTFORMAT_END
171
     1
301
MARGIN
  1
CELLMARGIN_BEGIN
 40
1.5
 40
1.5
 40
1.5
 40
1.5
 40
1.5
 40
1.5
309
CELLMARGIN_END
 94
        6
 95
        1
302
GRIDFORMAT
  1
GRIDFORMAT_BEGIN
 90
        0
 91
        1
 62
     0
 92
       -2
340
14
 93
        0
 40
0.045
309
GRIDFORMAT_END
 95
        2
302
GRIDFORMAT
  1
GRIDFORMAT_BEGIN
 90
        0
 91
        1
 62
     0
 92
       -2
340
14
 93
        0
 40
0.045
309
GRIDFORMAT_END
 95
        4
302
GRIDFORMAT
  1
GRIDFORMAT_BEGIN
 90
        0
 91
        1
 62
     0
 92
       -2
340
14
 93
        0
 40
0.045
309
GRIDFORMAT_END
 95
        8
302
GRIDFORMAT
  1
GRIDFORMAT_BEGIN
 90
        0
 91
        1
 62
     0
 92
       -2
340
14
 93
        0
 40
0.045
309
GRIDFORMAT_END
 95
       16
302
GRIDFORMAT
  1
GRIDFORMAT_BEGIN
 90
        0
 91
        1
 62
     0
 92
       -2
340
14
 93
        0
 40
0.045
309
GRIDFORMAT_END
 95
       32
302
GRIDFORMAT
  1
GRIDFORMAT_BEGIN
 90
        0
 91
        1
 62
     0
 92
       -2
340
14
 93
        0
 40
0.045
309
GRIDFORMAT_END
309
TABLEFORMAT_END
  1
CELLSTYLE_BEGIN
 90
        3
 91
        2
300
_DATA
309
CELLSTYLE_END
  0
ENDSEC
  0
EOF
