  0
SECTION
  2
HEADER
  9
$ACADVER
  1
AC1015
  9
$ACADMAINTVER
 70
     6
  9
$DWGCODEPAGE
  3
ANSI_1252
  9
$INSBASE
 10
0.0
 20
0.0
 30
0.0
  9
$EXTMIN
 10
0.0
 20
0.0
 30
0.0
  9
$EXTMAX
 10
594.0
 20
841.0
 30
0.0
  9
$LIMMIN
 10
0.0
 20
0.0
  9
$LIMMAX
 10
594.0
 20
841.0
  9
$ORTHOMODE
 70
     0
  9
$REGENMODE
 70
     1
  9
$FILLMODE
 70
     1
  9
$QTEXTMODE
 70
     0
  9
$MIRRTEXT
 70
     1
  9
$LTSCALE
 40
1.0
  9
$ATTMODE
 70
     1
  9
$TEXTSIZE
 40
10.0
  9
$TRACEWID
 40
1.0
  9
$TEXTSTYLE
  7
Standard
  9
$CLAYER
  8
0
  9
$CELTYPE
  6
ByLayer
  9
$CECOLOR
 62
   256
  9
$CELTSCALE
 40
1.0
  9
$DISPSILH
 70
     0
  9
$DIMSCALE
 40
1.0
  9
$DIMASZ
 40
2.5
  9
$DIMEXO
 40
0.0
  9
$DIMDLI
 40
3.75
  9
$DIMRND
 40
0.0
  9
$DIMDLE
 40
0.0
  9
$DIMEXE
 40
1.0
  9
$DIMTP
 40
0.0
  9
$DIMTM
 40
0.0
  9
$DIMTXT
 40
3.5
  9
$DIMCEN
 40
2.5
  9
$DIMTSZ
 40
0.0
  9
$DIMTOL
 70
     0
  9
$DIMLIM
 70
     0
  9
$DIMTIH
 70
     1
  9
$DIMTOH
 70
     1
  9
$DIMSE1
 70
     0
  9
$DIMSE2
 70
     0
  9
$DIMTAD
 70
     1
  9
$DIMZIN
 70
     0
  9
$DIMBLK
  1

  9
$DIMASO
 70
     1
  9
$DIMSHO
 70
     1
  9
$DIMPOST
  1

  9
$DIMAPOST
  1

  9
$DIMALT
 70
     0
  9
$DIMALTD
 70
     3
  9
$DIMALTF
 40
0.0393700787
  9
$DIMLFAC
 40
2.0
  9
$DIMTOFL
 70
     1
  9
$DIMTVP
 40
0.0
  9
$DIMTIX
 70
     0
  9
$DIMSOXD
 70
     0
  9
$DIMSAH
 70
     0
  9
$DIMBLK1
  1

  9
$DIMBLK2
  1

  9
$DIMSTYLE
  2
ISO-25
  9
$DIMCLRD
 70
     0
  9
$DIMCLRE
 70
     0
  9
$DIMCLRT
 70
     0
  9
$DIMTFAC
 40
1.0
  9
$DIMGAP
 40
1.5
  9
$DIMJUST
 70
     0
  9
$DIMSD1
 70
     0
  9
$DIMSD2
 70
     0
  9
$DIMTOLJ
 70
     0
  9
$DIMTZIN
 70
     0
  9
$DIMALTZ
 70
     0
  9
$DIMALTTZ
 70
     0
  9
$DIMUPT
 70
     0
  9
$DIMDEC
 70
     2
  9
$DIMTDEC
 70
     2
  9
$DIMALTU
 70
     2
  9
$DIMALTTD
 70
     3
  9
$DIMTXSTY
  7
Standard
  9
$DIMAUNIT
 70
     0
  9
$DIMADEC
 70
     2
  9
$DIMALTRND
 40
0.0
  9
$DIMAZIN
 70
     0
  9
$DIMDSEP
 70
    44
  9
$DIMATFIT
 70
     3
  9
$DIMFRAC
 70
     0
  9
$DIMLDRBLK
  1

  9
$DIMLUNIT
 70
     2
  9
$DIMLWD
 70
    -2
  9
$DIMLWE
 70
    -2
  9
$DIMTMOVE
 70
     0
  9
$LUNITS
 70
     2
  9
$LUPREC
 70
     2
  9
$SKETCHINC
 40
1.0
  9
$FILLETRAD
 40
10.0
  9
$AUNITS
 70
     0
  9
$AUPREC
 70
     2
  9
$MENU
  1
.
  9
$ELEVATION
 40
0.0
  9
$PELEVATION
 40
0.0
  9
$THICKNESS
 40
0.0
  9
$LIMCHECK
 70
     0
  9
$CHAMFERA
 40
0.0
  9
$CHAMFERB
 40
0.0
  9
$CHAMFERC
 40
0.0
  9
$CHAMFERD
 40
0.0
  9
$SKPOLY
 70
     0
  9
$TDCREATE
 40
2458866.34042103
  9
$TDUCREATE
 40
2458866.298754363
  9
$TDUPDATE
 40
2458866.340422905
  9
$TDUUPDATE
 40
2458866.298756239
  9
$TDINDWG
 40
0.0000000116
  9
$TDUSRTIMER
 40
0.0000000116
  9
$USRTIMER
 70
     1
  9
$ANGBASE
 50
0.0
  9
$ANGDIR
 70
     0
  9
$PDMODE
 70
     0
  9
$PDSIZE
 40
-1.0
  9
$PLINEWID
 40
0.0
  9
$SPLFRAME
 70
     0
  9
$SPLINETYPE
 70
     6
  9
$SPLINESEGS
 70
     8
  9
$HANDSEED
  5
243
  9
$SURFTAB1
 70
     6
  9
$SURFTAB2
 70
     6
  9
$SURFTYPE
 70
     6
  9
$SURFU
 70
     6
  9
$SURFV
 70
     6
  9
$UCSBASE
  2

  9
$UCSNAME
  2

  9
$UCSORG
 10
0.0
 20
0.0
 30
0.0
  9
$UCSXDIR
 10
1.0
 20
0.0
 30
0.0
  9
$UCSYDIR
 10
0.0
 20
1.0
 30
0.0
  9
$UCSORTHOREF
  2

  9
$UCSORTHOVIEW
 70
     0
  9
$UCSORGTOP
 10
0.0
 20
0.0
 30
0.0
  9
$UCSORGBOTTOM
 10
0.0
 20
0.0
 30
0.0
  9
$UCSORGLEFT
 10
0.0
 20
0.0
 30
0.0
  9
$UCSORGRIGHT
 10
0.0
 20
0.0
 30
0.0
  9
$UCSORGFRONT
 10
0.0
 20
0.0
 30
0.0
  9
$UCSORGBACK
 10
0.0
 20
0.0
 30
0.0
  9
$PUCSBASE
  2

  9
$PUCSNAME
  2

  9
$PUCSORG
 10
0.0
 20
0.0
 30
0.0
  9
$PUCSXDIR
 10
1.0
 20
0.0
 30
0.0
  9
$PUCSYDIR
 10
0.0
 20
1.0
 30
0.0
  9
$PUCSORTHOREF
  2

  9
$PUCSORTHOVIEW
 70
     0
  9
$PUCSORGTOP
 10
0.0
 20
0.0
 30
0.0
  9
$PUCSORGBOTTOM
 10
0.0
 20
0.0
 30
0.0
  9
$PUCSORGLEFT
 10
0.0
 20
0.0
 30
0.0
  9
$PUCSORGRIGHT
 10
0.0
 20
0.0
 30
0.0
  9
$PUCSORGFRONT
 10
0.0
 20
0.0
 30
0.0
  9
$PUCSORGBACK
 10
0.0
 20
0.0
 30
0.0
  9
$USERI1
 70
     0
  9
$USERI2
 70
     0
  9
$USERI3
 70
     0
  9
$USERI4
 70
     0
  9
$USERI5
 70
     0
  9
$USERR1
 40
0.0
  9
$USERR2
 40
0.0
  9
$USERR3
 40
0.0
  9
$USERR4
 40
0.0
  9
$USERR5
 40
0.0
  9
$WORLDVIEW
 70
     1
  9
$SHADEDGE
 70
     3
  9
$SHADEDIF
 70
    70
  9
$TILEMODE
 70
     1
  9
$MAXACTVP
 70
    64
  9
$PINSBASE
 10
0.0
 20
0.0
 30
0.0
  9
$PLIMCHECK
 70
     0
  9
$PEXTMIN
 10
1.0000000000E+20
 20
1.0000000000E+20
 30
1.0000000000E+20
  9
$PEXTMAX
 10
-1.0000000000E+20
 20
-1.0000000000E+20
 30
-1.0000000000E+20
  9
$PLIMMIN
 10
0.0
 20
0.0
  9
$PLIMMAX
 10
420.0
 20
297.0
  9
$UNITMODE
 70
     0
  9
$VISRETAIN
 70
     1
  9
$PLINEGEN
 70
     0
  9
$PSLTSCALE
 70
     1
  9
$TREEDEPTH
 70
  3020
  9
$CMLSTYLE
  2
Standard
  9
$CMLJUST
 70
     0
  9
$CMLSCALE
 40
20.0
  9
$PROXYGRAPHICS
 70
     1
  9
$MEASUREMENT
 70
     1
  9
$CELWEIGHT
370
    -1
  9
$ENDCAPS
280
     0
  9
$JOINSTYLE
280
     0
  9
$LWDISPLAY
290
     1
  9
$INSUNITS
 70
     4
  9
$HYPERLINKBASE
  1

  9
$STYLESHEET
  1

  9
$XEDIT
290
     1
  9
$CEPSNTYPE
380
     0
  9
$PSTYLEMODE
290
     1
  9
$FINGERPRINTGUID
  2
{c191f0de-020c-4297-8d65-64062feb1ba0}
  9
$VERSIONGUID
  2
{FAEB1C32-E019-11D5-929B-00C0DF256EC4}
  9
$EXTNAMES
290
     1
  9
$PSVPSCALE
 40
0.0
  9
$OLESTARTUP
290
     0
  0
ENDSEC
  0
SECTION
  2
CLASSES
  0
CLASS
  1
ACDBDICTIONARYWDFLT
  2
AcDbDictionaryWithDefault
  3
ObjectDBX Classes
 90
        0
280
     0
281
     0
  0
CLASS
  1
VISUALSTYLE
  2
AcDbVisualStyle
  3
ObjectDBX Classes
 90
     4095
280
     0
281
     0
  0
CLASS
  1
MATERIAL
  2
AcDbMaterial
  3
ObjectDBX Classes
 90
     1153
280
     0
281
     0
  0
CLASS
  1
SCALE
  2
AcDbScale
  3
ObjectDBX Classes
 90
     1153
280
     0
281
     0
  0
CLASS
  1
TABLESTYLE
  2
AcDbTableStyle
  3
ObjectDBX Classes
 90
     4095
280
     0
281
     0
  0
CLASS
  1
MLEADERSTYLE
  2
AcDbMLeaderStyle
  3
ACDB_MLEADERSTYLE_CLASS
 90
     4095
280
     0
281
     0
  0
CLASS
  1
SUN
  2
AcDbSun
  3
SCENEOE
 90
     1153
280
     0
281
     0
  0
CLASS
  1
ACDBPLACEHOLDER
  2
AcDbPlaceHolder
  3
ObjectDBX Classes
 90
        0
280
     0
281
     0
  0
CLASS
  1
LAYOUT
  2
AcDbLayout
  3
ObjectDBX Classes
 90
        0
280
     0
281
     0
  0
ENDSEC
  0
SECTION
  2
TABLES
  0
TABLE
  2
VPORT
  5
8
330
0
100
AcDbSymbolTable
 70
     1
  0
VPORT
  5
29
330
8
100
AcDbSymbolTableRecord
100
AcDbViewportTableRecord
  2
*Active
 70
     0
 10
0.0
 20
0.0
 11
1.0
 21
1.0
 12
297.0
 22
420.5
 13
0.0
 23
0.0
 14
10.0
 24
10.0
 15
10.0
 25
10.0
 16
0.0
 26
0.0
 36
1.0
 17
0.0
 27
0.0
 37
0.0
 40
841.0
 41
0.7063020214
 42
50.0
 43
0.0
 44
0.0
 50
0.0
 51
0.0
 71
     0
 72
  2000
 73
     1
 74
     3
 75
     0
 76
     0
 77
     0
 78
     0
281
     0
 65
     1
110
0.0
120
0.0
130
0.0
111
1.0
121
0.0
131
0.0
112
0.0
122
1.0
132
0.0
 79
     0
146
0.0
  0
ENDTAB
  0
TABLE
  2
LTYPE
  5
5
330
0
100
AcDbSymbolTable
 70
     6
  0
LTYPE
  5
14
330
5
100
AcDbSymbolTableRecord
100
AcDbLinetypeTableRecord
  2
ByBlock
 70
     0
  3

 72
    65
 73
     0
 40
0.0
  0
LTYPE
  5
15
330
5
100
AcDbSymbolTableRecord
100
AcDbLinetypeTableRecord
  2
ByLayer
 70
     0
  3

 72
    65
 73
     0
 40
0.0
  0
LTYPE
  5
16
330
5
100
AcDbSymbolTableRecord
100
AcDbLinetypeTableRecord
  2
Continuous
 70
     0
  3
Solid line
 72
    65
 73
     0
 40
0.0
  0
LTYPE
  5
6E
330
5
100
AcDbSymbolTableRecord
100
AcDbLinetypeTableRecord
  2
HIDDEN
 70
     0
  3
Hidden __ __ __ __ __ __ __ __ __ __ __ __ __ __
 72
    65
 73
     2
 40
1.905
 49
1.27
 74
     0
 49
-0.635
 74
     0
  0
LTYPE
  5
6F
330
5
100
AcDbSymbolTableRecord
100
AcDbLinetypeTableRecord
  2
PHANTOM
 70
     0
  3
Phantom ______  __  __  ______  __  __  ______
 72
    65
 73
     6
 40
12.7
 49
6.35
 74
     0
 49
-1.27
 74
     0
 49
1.27
 74
     0
 49
-1.27
 74
     0
 49
1.27
 74
     0
 49
-1.27
 74
     0
  0
LTYPE
  5
70
330
5
100
AcDbSymbolTableRecord
100
AcDbLinetypeTableRecord
  2
CENTER
 70
     0
  3
Center ____ _ ____ _ ____ _ ____ _ ____ _ ____
 72
    65
 73
     4
 40
10.16
 49
6.35
 74
     0
 49
-1.27
 74
     0
 49
1.27
 74
     0
 49
-1.27
 74
     0
  0
LTYPE
  5
71
330
5
100
AcDbSymbolTableRecord
100
AcDbLinetypeTableRecord
  2
CENTERX2
 70
     0
  3
Center (2x) ________  __  ________  __  _____
 72
    65
 73
     4
 40
20.32
 49
12.7
 74
     0
 49
-2.54
 74
     0
 49
2.54
 74
     0
 49
-2.54
 74
     0
  0
LTYPE
  5
72
330
5
100
AcDbSymbolTableRecord
100
AcDbLinetypeTableRecord
  2
DOT2
 70
     0
  3
Dot (.5x) ........................................
 72
    65
 73
     2
 40
0.635
 49
0.0
 74
     0
 49
-0.635
 74
     0
  0
ENDTAB
  0
TABLE
  2
LAYER
  5
2
330
0
100
AcDbSymbolTable
 70
     1
  0
LAYER
  5
10
330
2
100
AcDbSymbolTableRecord
100
AcDbLayerTableRecord
  2
0
 70
     0
 62
     7
  6
Continuous
370
    -3
390
F
  0
ENDTAB
  0
TABLE
  2
STYLE
  5
3
330
0
100
AcDbSymbolTable
 70
     3
  0
STYLE
  5
11
330
3
100
AcDbSymbolTableRecord
100
AcDbTextStyleTableRecord
  2
Standard
 70
     0
 40
0.0
 41
1.0
 50
0.0
 71
     0
 42
10.0
  3
txt
  4

  0
STYLE
  5
76
330
3
100
AcDbSymbolTableRecord
100
AcDbTextStyleTableRecord
  2
SLDTEXTSTYLE0
 70
     0
 40
0.0
 41
0.96
 50
0.0
 71
     0
 42
10.0
  3
ISOCP3
  4

  0
STYLE
  5
8D
330
3
100
AcDbSymbolTableRecord
100
AcDbTextStyleTableRecord
  2
SLDTEXTSTYLE1
 70
     0
 40
0.0
 41
0.605
 50
0.0
 71
     0
 42
10.0
  3
TXT
  4

  0
ENDTAB
  0
TABLE
  2
VIEW
  5
6
330
0
100
AcDbSymbolTable
 70
     0
  0
ENDTAB
  0
TABLE
  2
UCS
  5
7
330
0
100
AcDbSymbolTable
 70
     0
  0
ENDTAB
  0
TABLE
  2
APPID
  5
9
330
0
100
AcDbSymbolTable
 70
     1
  0
APPID
  5
12
330
9
100
AcDbSymbolTableRecord
100
AcDbRegAppTableRecord
  2
ACAD
 70
     0
  0
ENDTAB
  0
TABLE
  2
DIMSTYLE
  5
A
330
0
100
AcDbSymbolTable
 70
     2
100
AcDbDimStyleTable
  0
DIMSTYLE
105
27
330
A
100
AcDbSymbolTableRecord
100
AcDbDimStyleTableRecord
  2
ISO-25
 70
     0
 41
2.5
 42
0.625
 43
3.75
 44
1.25
 73
     0
 74
     0
 77
     1
 78
     8
140
2.5
141
2.5
143
0.0393700787
147
0.625
171
     3
172
     1
178
     0
271
     2
272
     2
274
     3
278
    44
283
     0
284
     8
340
11
  0
DIMSTYLE
105
77
102
{ACAD_REACTORS
330
75
330
82
102
}
330
A
100
AcDbSymbolTableRecord
100
AcDbDimStyleTableRecord
  2
SLDDIMSTYLE0
 70
     0
 41
2.5
 44
0.0
 45
0.000000001
 73
     0
 74
     0
 77
     1
 78
    12
 79
     3
140
6.0
144
2.0
147
1.5
173
     1
178
     0
271
     2
272
     2
276
     2
284
    12
340
76
  0
ENDTAB
  0
TABLE
  2
BLOCK_RECORD
  5
1
330
0
100
AcDbSymbolTable
 70
     3
  0
BLOCK_RECORD
  5
1F
330
1
100
AcDbSymbolTableRecord
100
AcDbBlockTableRecord
  2
*Model_Space
340
22
  0
BLOCK_RECORD
  5
1B
330
1
100
AcDbSymbolTableRecord
100
AcDbBlockTableRecord
  2
*Paper_Space
340
1E
  0
BLOCK_RECORD
  5
23
330
1
100
AcDbSymbolTableRecord
100
AcDbBlockTableRecord
  2
*Paper_Space0
340
26
  0
BLOCK_RECORD
  5
78
330
1
100
AcDbSymbolTableRecord
100
AcDbBlockTableRecord
  2
_D
340
0
  0
BLOCK_RECORD
  5
83
330
1
100
AcDbSymbolTableRecord
100
AcDbBlockTableRecord
  2
_D_1
340
0
  0
ENDTAB
  0
ENDSEC
  0
SECTION
  2
BLOCKS
  0
BLOCK
  5
20
330
1F
100
AcDbEntity
  8
0
100
AcDbBlockBegin
  2
*Model_Space
 70
     0
 10
0.0
 20
0.0
 30
0.0
  3
*Model_Space
  1

  0
ENDBLK
  5
21
330
1F
100
AcDbEntity
  8
0
100
AcDbBlockEnd
  0
BLOCK
  5
1C
330
1B
100
AcDbEntity
 67
     1
  8
0
100
AcDbBlockBegin
  2
*Paper_Space
 70
     0
 10
0.0
 20
0.0
 30
0.0
  3
*Paper_Space
  1

  0
ENDBLK
  5
1D
330
1B
100
AcDbEntity
 67
     1
  8
0
100
AcDbBlockEnd
  0
BLOCK
  5
24
330
23
100
AcDbEntity
  8
0
100
AcDbBlockBegin
  2
*Paper_Space0
 70
     0
 10
0.0
 20
0.0
 30
0.0
  3
*Paper_Space0
  1

  0
ENDBLK
  5
25
330
23
100
AcDbEntity
  8
0
100
AcDbBlockEnd
  0
BLOCK
  5
79
330
78
100
AcDbEntity
  8
0
100
AcDbBlockBegin
  2
_D
 70
     0
 10
0.0
 20
0.0
 30
0.0
  3
_D
  1

  0
SOLID
  5
7B
330
78
100
AcDbEntity
  8
0
  6
Continuous
 62
     7
370
    18
100
AcDbTrace
 10
42.7614395004
 20
152.0299240879
 30
0.0
 11
42.4614395004
 21
149.5299240879
 31
0.0
 12
43.0614395004
 22
149.5299240879
 32
0.0
 13
43.0614395004
 23
149.5299240879
 33
0.0
  0
SOLID
  5
7C
330
78
100
AcDbEntity
  8
0
  6
Continuous
 62
     7
370
    18
100
AcDbTrace
 10
42.7614395004
 20
52.0299240879
 30
0.0
 11
43.0614395004
 21
54.5299240879
 31
0.0
 12
42.4614395004
 22
54.5299240879
 32
0.0
 13
42.4614395004
 23
54.5299240879
 33
0.0
  0
LINE
  5
7D
330
78
100
AcDbEntity
  8
0
  6
Continuous
 62
     7
370
     0
100
AcDbLine
 10
56.6850079902
 20
152.0299240879
 30
0.0
 11
41.7614395004
 21
152.0299240879
 31
0.0
  0
LINE
  5
7E
330
78
100
AcDbEntity
  8
0
  6
Continuous
 62
     7
370
     0
100
AcDbLine
 10
56.6850079902
 20
52.0299240879
 30
0.0
 11
41.7614395004
 21
52.0299240879
 31
0.0
  0
LINE
  5
7F
330
78
100
AcDbEntity
  8
0
  6
Continuous
 62
     7
370
     0
100
AcDbLine
 10
42.7614395004
 20
152.0299240879
 30
0.0
 11
42.7614395004
 21
52.0299240879
 31
0.0
  0
MTEXT
  5
80
330
78
100
AcDbEntity
  8
0
  6
Continuous
 62
     7
370
    18
100
AcDbMText
 10
35.0270332946
 20
94.3680541463
 30
0.0
 40
6.0
 41
0.0
 71
     1
 72
     1
  1
100
  7
SLDTEXTSTYLE0
 11
-7.044195017643634E-15
 21
1.0
 31
0.0
 73
     1
 44
1.0
  0
MTEXT
  5
81
330
78
100
AcDbEntity
  8
0
  6
Continuous
 62
     7
370
    18
100
AcDbMText
 10
35.0270332946
 20
105.7430548466
 30
0.0
 40
6.0
 41
0.0
 71
     1
 72
     1
  1
mm
  7
SLDTEXTSTYLE0
 11
-7.044195017643634E-15
 21
1.0
 31
0.0
 73
     1
 44
1.0
  0
ENDBLK
  5
7A
330
78
100
AcDbEntity
  8
0
100
AcDbBlockEnd
  0
BLOCK
  5
84
330
83
100
AcDbEntity
  8
0
100
AcDbBlockBegin
  2
_D_1
 70
     0
 10
0.0
 20
0.0
 30
0.0
  3
_D_1
  1

  0
SOLID
  5
86
330
83
100
AcDbEntity
  8
0
  6
Continuous
 62
     7
370
    18
100
AcDbTrace
 10
56.6850079902
 20
38.4602342313
 30
0.0
 11
59.1850079902
 21
38.1602342313
 31
0.0
 12
59.1850079902
 22
38.7602342313
 32
0.0
 13
59.1850079902
 23
38.7602342313
 33
0.0
  0
SOLID
  5
87
330
83
100
AcDbEntity
  8
0
  6
Continuous
 62
     7
370
    18
100
AcDbTrace
 10
156.6850079902
 20
38.4602342313
 30
0.0
 11
154.1850079902
 21
38.7602342313
 31
0.0
 12
154.1850079902
 22
38.1602342313
 32
0.0
 13
154.1850079902
 23
38.1602342313
 33
0.0
  0
LINE
  5
88
330
83
100
AcDbEntity
  8
0
  6
Continuous
 62
     7
370
     0
100
AcDbLine
 10
56.6850079902
 20
52.0299240879
 30
0.0
 11
56.6850079902
 21
37.4602342313
 31
0.0
  0
LINE
  5
89
330
83
100
AcDbEntity
  8
0
  6
Continuous
 62
     7
370
     0
100
AcDbLine
 10
156.6850079902
 20
52.0299240879
 30
0.0
 11
156.6850079902
 21
37.4602342313
 31
0.0
  0
LINE
  5
8A
330
83
100
AcDbEntity
  8
0
  6
Continuous
 62
     7
370
     0
100
AcDbLine
 10
56.6850079902
 20
38.4602342313
 30
0.0
 11
156.6850079902
 21
38.4602342313
 31
0.0
  0
MTEXT
  5
8B
330
83
100
AcDbEntity
  8
0
  6
Continuous
 62
     7
370
    18
100
AcDbMText
 10
93.9626484861
 20
46.1946404371
 30
0.0
 40
6.0
 41
0.0
 71
     1
 72
     1
  1
100
  7
SLDTEXTSTYLE0
 73
     1
 44
1.0
  0
MTEXT
  5
8C
330
83
100
AcDbEntity
  8
0
  6
Continuous
 62
     7
370
    18
100
AcDbMText
 10
105.3376491864
 20
46.1946404371
 30
0.0
 40
6.0
 41
0.0
 71
     1
 72
     1
  1
mm
  7
SLDTEXTSTYLE0
 73
     1
 44
1.0
  0
ENDBLK
  5
85
330
83
100
AcDbEntity
  8
0
100
AcDbBlockEnd
  0
ENDSEC
  0
SECTION
  2
ENTITIES
  0
LINE
  5
73
330
1F
100
AcDbEntity
  8
0
  6
Continuous
 62
     7
370
    18
100
AcDbLine
 10
56.6850079902
 20
152.0299240879
 30
0.0
 11
56.6850079902
 21
52.0299240879
 31
0.0
  0
LINE
  5
74
330
1F
100
AcDbEntity
  8
0
  6
Continuous
 62
     7
370
    18
100
AcDbLine
 10
56.6850079902
 20
52.0299240879
 30
0.0
 11
156.6850079902
 21
52.0299240879
 31
0.0
  0
DIMENSION
  5
75
330
1F
100
AcDbEntity
  8
0
  6
Continuous
 62
     7
370
    18
100
AcDbDimension
  2
_D
 10
42.7614395004
 20
52.0299240879
 30
0.0
 11
42.7614395004
 21
105.4472211621
 31
0.0
 70
   160
  1
<>mm
 71
     2
 42
-1.0
  3
SLDDIMSTYLE0
100
AcDbAlignedDimension
 13
56.6850079902
 23
152.0299240879
 33
0.0
 14
56.6850079902
 24
52.0299240879
 34
0.0
 50
90.0
100
AcDbRotatedDimension
  0
DIMENSION
  5
82
330
1F
100
AcDbEntity
  8
0
  6
Continuous
 62
     7
370
    18
100
AcDbDimension
  2
_D_1
 10
156.6850079902
 20
38.4602342313
 30
0.0
 11
105.0418155019
 21
38.4602342313
 31
0.0
 70
   160
  1
<>mm
 71
     2
 42
-1.0
  3
SLDDIMSTYLE0
100
AcDbAlignedDimension
 13
56.6850079902
 23
52.0299240879
 33
0.0
 14
156.6850079902
 24
52.0299240879
 34
0.0
100
AcDbRotatedDimension
  0
MTEXT
  5
8E
330
1F
100
AcDbEntity
  8
0
  6
Continuous
 62
     7
370
     0
100
AcDbMText
 10
412.8252631579
 20
48.4342449499
 30
0.0
 40
10.0
 41
0.0
 71
     1
 72
     1
  1
KLUDI GmbH & Co KG
  7
SLDTEXTSTYLE1
 73
     1
 44
1.0
  0
MTEXT
  5
8F
330
1F
100
AcDbEntity
  8
0
  6
Continuous
 62
     7
370
     0
100
AcDbMText
 10
210.0873490389
 20
48.4342449499
 30
0.0
 40
10.0
 41
0.0
 71
     1
 72
     1
  1
48 244 05 65
  7
SLDTEXTSTYLE1
 73
     1
 44
1.0
  0
LINE
  5
90
330
1F
100
AcDbEntity
  8
0
  6
Continuous
 62
     7
370
    25
100
AcDbLine
 10
141.7442657409
 20
435.7686485579
 30
0.0
 11
141.7442657409
 21
438.9696352727
 31
0.0
  0
LINE
  5
91
330
1F
100
AcDbEntity
  8
0
  6
Continuous
 62
     7
370
    25
100
AcDbLine
 10
117.7442657409
 20
438.9696352727
 30
0.0
 11
117.7442657409
 21
435.7686485579
 31
0.0
  0
LINE
  5
92
330
1F
100
AcDbEntity
  8
0
  6
Continuous
 62
     7
370
    25
100
AcDbLine
 10
118.7442657409
 20
431.5305951443
 30
0.0
 11
119.2698257605
 21
431.2460499342
 31
0.0
  0
LINE
  5
93
330
1F
100
AcDbEntity
  8
0
  6
Continuous
 62
     7
370
    25
100
AcDbLine
 10
140.2187057213
 20
431.2460499342
 30
0.0
 11
140.7442657409
 21
431.5305951443
 31
0.0
  0
SPLINE
  5
94
330
1F
100
AcDbEntity
  8
0
  6
Continuous
 62
     7
370
    25
100
AcDbSpline
210
0.0
220
0.0
230
1.0
 70
     8
 71
     3
 72
    16
 73
    12
 74
     0
 42
0.000000001
 43
0.00000001
 40
0.0
 40
0.0
 40
0.0
 40
0.0
 40
0.0011893801013674
 40
0.1170980736381077
 40
0.2408900718517321
 40
0.4605144508934362
 40
0.6488694324160256
 40
0.7401812543389875
 40
0.8342727075593025
 40
0.9307861004937165
 40
1.0
 40
1.0
 40
1.0
 40
1.0
 10
110.6877571883178
 20
442.4998497687549
 30
0.0
 10
110.6868247259514
 20
442.500264926084
 30
0.0
 10
110.595020981531
 20
442.5411384226471
 30
0.0
 10
110.8057184562817
 20
442.4030093301518
 30
0.0
 10
111.1690036394845
 20
442.1465532674892
 30
0.0
 10
112.0044060346407
 20
441.5988424340505
 30
0.0
 10
113.3753072529919
 20
440.7427947866943
 30
0.0
 10
114.6983944274231
 20
439.9551214996219
 30
0.0
 10
115.7900284674551
 20
439.3347687327465
 30
0.0
 10
116.8656233322271
 20
438.7541717740983
 30
0.0
 10
117.5499318517537
 20
438.4550619786555
 30
0.0
 10
117.8357246165076
 20
438.3301425702816
 30
0.0
  0
SPLINE
  5
95
330
1F
100
AcDbEntity
  8
0
  6
Continuous
 62
     7
370
    25
100
AcDbSpline
210
0.0
220
0.0
230
1.0
 70
     8
 71
     3
 72
    16
 73
    12
 74
     0
 42
0.000000001
 43
0.00000001
 40
0.0
 40
0.0
 40
0.0
 40
0.0
 40
0.0692138995062768
 40
0.1657272924406929
 40
0.2598187456610091
 40
0.351130567583983
 40
0.5394855491065649
 40
0.7591099281482793
 40
0.8829019263618989
 40
0.9988106198986367
 40
1.0
 40
1.0
 40
1.0
 40
1.0
 10
141.6528068653262
 20
438.3301425702816
 30
0.0
 10
141.93859963008
 20
438.4550619786556
 30
0.0
 10
142.6229081496065
 20
438.7541717740983
 30
0.0
 10
143.6985030143785
 20
439.3347687327465
 30
0.0
 10
144.7901370544105
 20
439.955121499622
 30
0.0
 10
146.1132242288415
 20
440.7427947866942
 30
0.0
 10
147.4841254471931
 20
441.5988424340505
 30
0.0
 10
148.3195278423491
 20
442.1465532674892
 30
0.0
 10
148.682813025552
 20
442.4030093301518
 30
0.0
 10
148.8935105003025
 20
442.5411384226471
 30
0.0
 10
148.8017067558822
 20
442.500264926084
 30
0.0
 10
148.8007742935158
 20
442.4998497687549
 30
0.0
  0
SPLINE
  5
96
330
1F
100
AcDbEntity
  8
0
  6
Continuous
 62
     7
370
    25
100
AcDbSpline
210
0.0
220
0.0
230
1.0
 70
     8
 71
     3
 72
    26
 73
    22
 74
     0
 42
0.000000001
 43
0.00000001
 40
0.0
 40
0.0
 40
0.0
 40
0.0
 40
0.0625000000000001
 40
0.0625000000000001
 40
0.1250000000000002
 40
0.1250000000000002
 40
0.1875000000000004
 40
0.1875000000000004
 40
0.2500000000000007
 40
0.2500000000000007
 40
0.3750000000000008
 40
0.3750000000000008
 40
0.5000000000000009
 40
0.5000000000000009
 40
0.5625000000000009
 40
0.5625000000000009
 40
0.6250000000000009
 40
0.6250000000000009
 40
0.7500000000000007
 40
0.7500000000000007
 40
1.0
 40
1.0
 40
1.0
 40
1.0
 10
218.0024110350206
 20
436.4433347437756
 30
0.0
 10
218.1003862128359
 20
436.1594184879143
 30
0.0
 10
218.212889909373
 20
435.851215774013
 30
0.0
 10
218.469252893976
 20
435.1511783242164
 30
0.0
 10
218.6130671064075
 20
434.7594817280485
 30
0.0
 10
218.9289649803922
 20
433.8781605756176
 30
0.0
 10
219.1010035663111
 20
433.3886741590819
 30
0.0
 10
219.4663217686694
 20
432.3138201243542
 30
0.0
 10
219.6595563094745
 20
431.7285906458895
 30
0.0
 10
220.256693839021
 20
429.8504483027523
 30
0.0
 10
220.6778382425441
 20
428.4335408889755
 30
0.0
 10
221.4800215988008
 20
425.4635855586682
 30
0.0
 10
221.8596181312367
 20
423.9149581134104
 30
0.0
 10
222.3497136465916
 20
421.6388468270424
 30
0.0
 10
222.5001808480532
 20
420.8875043671495
 30
0.0
 10
222.7731250354449
 20
419.4123406818676
 30
0.0
 10
222.8956488561701
 20
418.6884724489873
 30
0.0
 10
223.2253672365761
 20
416.5602232694069
 30
0.0
 10
223.3950205189414
 20
415.1994089350147
 30
0.0
 10
223.7906622847151
 20
411.2611998553616
 30
0.0
 10
223.9040773359234
 20
408.8265244076923
 30
0.0
 10
223.9592598251259
 20
406.4293637299391
 30
0.0
  0
SPLINE
  5
97
330
1F
100
AcDbEntity
  8
0
  6
Continuous
 62
     7
370
    25
100
AcDbSpline
210
0.0
220
0.0
230
1.0
 70
     8
 71
     3
 72
    26
 73
    22
 74
     0
 42
0.000000001
 43
0.00000001
 40
0.0
 40
0.0
 40
0.0
 40
0.0
 40
0.0624999999999999
 40
0.0624999999999999
 40
0.125
 40
0.125
 40
0.1875
 40
0.1875
 40
0.2500000000000001
 40
0.2500000000000001
 40
0.375
 40
0.375
 40
0.5
 40
0.5
 40
0.5624999999999999
 40
0.5624999999999999
 40
0.6249999999999998
 40
0.6249999999999998
 40
0.7499999999999998
 40
0.7499999999999998
 40
1.0
 40
1.0
 40
1.0
 40
1.0
 10
261.486120446813
 20
436.4433347437756
 30
0.0
 10
261.3881452689977
 20
436.1594184879143
 30
0.0
 10
261.2756415724605
 20
435.851215774013
 30
0.0
 10
261.0192785878576
 20
435.1511783242164
 30
0.0
 10
260.8754643754261
 20
434.7594817280485
 30
0.0
 10
260.5595665014414
 20
433.8781605756176
 30
0.0
 10
260.3875279155225
 20
433.3886741590819
 30
0.0
 10
260.0222097131642
 20
432.3138201243542
 30
0.0
 10
259.8289751723592
 20
431.7285906458895
 30
0.0
 10
259.2318376428126
 20
429.8504483027523
 30
0.0
 10
258.8106932392895
 20
428.4335408889755
 30
0.0
 10
258.0085098830328
 20
425.4635855586682
 30
0.0
 10
257.6289133505969
 20
423.9149581134104
 30
0.0
 10
257.138817835242
 20
421.6388468270424
 30
0.0
 10
256.9883506337803
 20
420.8875043671495
 30
0.0
 10
256.7154064463887
 20
419.4123406818676
 30
0.0
 10
256.5928826256636
 20
418.6884724489873
 30
0.0
 10
256.2631642452575
 20
416.5602232694069
 30
0.0
 10
256.0935109628923
 20
415.1994089350147
 30
0.0
 10
255.6978691971185
 20
411.2611998553616
 30
0.0
 10
255.5844541459103
 20
408.8265244076923
 30
0.0
 10
255.5292716567077
 20
406.4293637299391
 30
0.0
  0
SPLINE
  5
98
330
1F
100
AcDbEntity
  8
0
  6
Continuous
 62
     7
370
    25
100
AcDbSpline
210
0.0
220
0.0
230
1.0
 70
     8
 71
     3
 72
    22
 73
    18
 74
     0
 42
0.000000001
 43
0.00000001
 40
0.0
 40
0.0
 40
0.0
 40
0.0
 40
0.125
 40
0.125
 40
0.25
 40
0.25
 40
0.375
 40
0.375
 40
0.5
 40
0.5
 40
0.625
 40
0.625
 40
0.75
 40
0.75
 40
0.875
 40
0.875
 40
1.0
 40
1.0
 40
1.0
 40
1.0
 10
255.2583290146809
 20
360.631980721575
 30
0.0
 10
255.2573425894876
 20
360.443589108596
 30
0.0
 10
255.2558118032957
 20
360.2541679296916
 30
0.0
 10
255.2282983572761
 20
359.8719874475537
 30
0.0
 10
255.2024312693978
 20
359.6796684778873
 30
0.0
 10
255.1140975811375
 20
359.308077666881
 30
0.0
 10
255.0517465527048
 20
359.1292461591081
 30
0.0
 10
254.8858145548542
 20
358.8045890955273
 30
0.0
 10
254.7823491573856
 20
358.6592038732865
 30
0.0
 10
254.5336080448818
 20
358.411761768376
 30
0.0
 10
254.3876830744666
 20
358.3090590209507
 30
0.0
 10
254.0621616472652
 20
358.1448291902973
 30
0.0
 10
253.8830061231407
 20
358.0834153718639
 30
0.0
 10
253.5109578938124
 20
357.9970285305063
 30
0.0
 10
253.3185061212705
 20
357.9721687723769
 30
0.0
 10
252.9361868185598
 20
357.9466567866863
 30
0.0
 10
252.746760221053
 20
357.9461178239198
 30
0.0
 10
252.5583660256129
 20
357.9461178239198
 30
0.0
  0
SPLINE
  5
99
330
1F
100
AcDbEntity
  8
0
  6
Continuous
 62
     7
370
    25
100
AcDbSpline
210
0.0
220
0.0
230
1.0
 70
     8
 71
     3
 72
    22
 73
    18
 74
     0
 42
0.000000001
 43
0.00000001
 40
0.0
 40
0.0
 40
0.0
 40
0.0
 40
0.125
 40
0.125
 40
0.25
 40
0.25
 40
0.375
 40
0.375
 40
0.5
 40
0.5
 40
0.625
 40
0.625
 40
0.75
 40
0.75
 40
0.875
 40
0.875
 40
1.0
 40
1.0
 40
1.0
 40
1.0
 10
224.2302024671527
 20
360.631980721575
 30
0.0
 10
224.2311888923461
 20
360.443589108596
 30
0.0
 10
224.2327196785379
 20
360.2541679296916
 30
0.0
 10
224.2602331245575
 20
359.8719874475537
 30
0.0
 10
224.2861002124358
 20
359.6796684778873
 30
0.0
 10
224.3744339006962
 20
359.308077666881
 30
0.0
 10
224.4367849291288
 20
359.1292461591081
 30
0.0
 10
224.6027169269795
 20
358.8045890955273
 30
0.0
 10
224.7061823244481
 20
358.6592038732865
 30
0.0
 10
224.9549234369519
 20
358.411761768376
 30
0.0
 10
225.100848407367
 20
358.3090590209507
 30
0.0
 10
225.4263698345684
 20
358.1448291902973
 30
0.0
 10
225.6055253586929
 20
358.0834153718639
 30
0.0
 10
225.9775735880212
 20
357.9970285305063
 30
0.0
 10
226.1700253605632
 20
357.9721687723769
 30
0.0
 10
226.5523446632738
 20
357.9466567866863
 30
0.0
 10
226.7417712607807
 20
357.9461178239198
 30
0.0
 10
226.9301654562207
 20
357.9461178239198
 30
0.0
  0
SPLINE
  5
9A
330
1F
100
AcDbEntity
  8
0
  6
Continuous
 62
     7
370
    25
100
AcDbSpline
210
0.0
220
0.0
230
1.0
 70
     8
 71
     3
 72
    10
 73
     6
 74
     0
 42
0.000000001
 43
0.00000001
 40
0.0
 40
0.0
 40
0.0
 40
0.0
 40
0.5
 40
0.5
 40
1.0
 40
1.0
 40
1.0
 40
1.0
 10
223.9592598251259
 20
406.4293637299391
 30
0.0
 10
223.9796677832161
 20
405.5428296979626
 30
0.0
 10
223.9919989048259
 20
404.6614323910224
 30
0.0
 10
224.0089156524625
 20
402.8990651652814
 30
0.0
 10
224.0135039557483
 20
402.0179696135855
 30
0.0
 10
224.0181198062208
 20
401.1364151645164
 30
0.0
  0
SPLINE
  5
9B
330
1F
100
AcDbEntity
  8
0
  6
Continuous
 62
     7
370
    25
100
AcDbSpline
210
0.0
220
0.0
230
1.0
 70
     8
 71
     3
 72
    10
 73
     6
 74
     0
 42
0.000000001
 43
0.00000001
 40
0.0
 40
0.0
 40
0.0
 40
0.0
 40
0.5
 40
0.5
 40
1.0
 40
1.0
 40
1.0
 40
1.0
 10
255.5292716567077
 20
406.4293637299391
 30
0.0
 10
255.5088636986175
 20
405.5428296979626
 30
0.0
 10
255.4965325770077
 20
404.6614323910225
 30
0.0
 10
255.4796158293711
 20
402.8990651652815
 30
0.0
 10
255.4750275260854
 20
402.0179696135855
 30
0.0
 10
255.4704116756129
 20
401.1364151645164
 30
0.0
  0
LINE
  5
9C
330
1F
100
AcDbEntity
  8
0
  6
Continuous
 62
     7
370
    25
100
AcDbLine
 10
255.4704116756
 20
401.1364151645
 30
0.0
 11
255.2583290147
 21
360.6319807216
 31
0.0
  0
LINE
  5
9D
330
1F
100
AcDbEntity
  8
0
  6
Continuous
 62
     7
370
    25
100
AcDbLine
 10
224.0181198062
 20
401.1364151645
 30
0.0
 11
224.2302024672
 21
360.6319807216
 31
0.0
  0
LINE
  5
9E
330
1F
100
AcDbEntity
  8
0
  6
Continuous
 62
     7
370
    25
100
AcDbLine
 10
252.5583660256
 20
357.9461178239
 30
0.0
 11
226.9301654562
 21
357.9461178239
 31
0.0
  0
ARC
  5
9F
330
1F
100
AcDbEntity
  8
0
  6
Continuous
 62
     7
370
    25
100
AcDbCircle
 10
239.7442657409
 20
443.9461178239
 30
0.0
 40
22.99999999999999
100
AcDbArc
 50
340.9612250536
 51
199.0387749464
  0
ELLIPSE
  5
A0
330
1F
100
AcDbEntity
  8
0
  6
Continuous
 62
     7
370
    25
100
AcDbEllipse
 10
271.9913516791
 20
476.1932037621
 30
0.0
 11
-1.979953267625262
 21
-1.979953267625262
 31
0.0
210
0.0
220
0.0
230
1.0
 40
0.9999725851
 41
2.356208197850956
 42
3.926977109328624
  0
ELLIPSE
  5
A1
330
1F
100
AcDbEntity
  8
0
  6
Continuous
 62
     7
370
    25
100
AcDbEllipse
 10
207.4971798027
 20
476.1932037621
 30
0.0
 11
1.979953267625262
 21
-1.979953267625262
 31
0.0
210
0.0
220
0.0
230
1.0
 40
0.9999725851
 41
2.356208197850959
 42
3.926977109328651
  0
ELLIPSE
  5
A2
330
1F
100
AcDbEntity
  8
0
  6
Continuous
 62
     7
370
    25
100
AcDbEllipse
 10
271.9913516791
 20
411.6990318857
 30
0.0
 11
-1.979953267625262
 21
1.979953267625262
 31
0.0
210
0.0
220
0.0
230
1.0
 40
0.9999725851
 41
2.356208197850977
 42
3.926977109328624
  0
ELLIPSE
  5
A3
330
1F
100
AcDbEntity
  8
0
  6
Continuous
 62
     7
370
    25
100
AcDbEllipse
 10
207.4971798027
 20
411.6990318857
 30
0.0
 11
1.979953267625262
 21
1.979953267625262
 31
0.0
210
0.0
220
0.0
230
1.0
 40
0.9999725851
 41
2.35620819785098
 42
3.926977109328631
  0
LINE
  5
A4
330
1F
100
AcDbEntity
  8
0
  6
Continuous
 62
     7
370
    25
100
AcDbLine
 10
207.4971030388
 20
478.9932421444
 30
0.0
 11
271.9914284431
 21
478.9932421444
 31
0.0
  0
LINE
  5
A5
330
1F
100
AcDbEntity
  8
0
  6
Continuous
 62
     7
370
    25
100
AcDbLine
 10
274.7913900614
 20
476.1932805261
 30
0.0
 11
274.7913900614
 21
411.6989551218
 31
0.0
  0
LINE
  5
A6
330
1F
100
AcDbEntity
  8
0
  6
Continuous
 62
     7
370
    25
100
AcDbLine
 10
271.9914284431
 20
408.8989935035
 30
0.0
 11
255.640433013
 21
408.8989935035
 31
0.0
  0
LINE
  5
A7
330
1F
100
AcDbEntity
  8
0
  6
Continuous
 62
     7
370
    25
100
AcDbLine
 10
223.8480984688
 20
408.8989935035
 30
0.0
 11
207.4971030388
 21
408.8989935035
 31
0.0
  0
LINE
  5
A8
330
1F
100
AcDbEntity
  8
0
  6
Continuous
 62
     7
370
    25
100
AcDbLine
 10
204.6971414205
 20
411.6989551218
 30
0.0
 11
204.6971414205
 21
476.1932805261
 31
0.0
  0
SPLINE
  5
A9
330
1F
100
AcDbEntity
  8
0
  6
Continuous
 62
     7
370
    25
100
AcDbSpline
210
0.0
220
0.0
230
1.0
 70
     8
 71
     3
 72
    18
 73
    14
 74
     0
 42
0.000000001
 43
0.00000001
 40
-0.0000021263989224
 40
-0.0000021263989224
 40
-0.0000021263989224
 40
-0.0000021263989224
 40
0.0
 40
0.0
 40
0.0
 40
0.4275885759528201
 40
0.4413627440184678
 40
0.4674703602842568
 40
0.5038751990645237
 40
0.5336694441824861
 40
0.5666506397578235
 40
0.5795963365626782
 40
1.0
 40
1.0
 40
1.0
 40
1.0
 10
142.2442657409208
 20
438.9696276305141
 30
0.0
 10
142.2442657409208
 20
438.9696301779143
 30
0.0
 10
142.2442657409208
 20
438.9696327253146
 30
0.0
 10
142.2442657409208
 20
438.9696352727149
 30
0.0
 10
142.2442657409207
 20
439.4818812326613
 30
0.0
 10
141.1872239112751
 20
439.9680955848611
 30
0.0
 10
139.2916568924268
 20
440.3706477305547
 30
0.0
 10
138.9710562466072
 20
440.4346512325341
 30
0.0
 10
138.5624176742356
 20
440.5087792503089
 30
0.0
 10
138.1008115075212
 20
440.5844753863673
 30
0.0
 10
137.7326810931271
 20
440.6393002251929
 30
0.0
 10
135.397805532276
 20
440.9630450118344
 30
0.0
 10
132.6446043918895
 20
441.1402374935506
 30
0.0
 10
129.7442657409168
 20
441.1402374935506
 30
0.0
  0
SPLINE
  5
AA
330
1F
100
AcDbEntity
  8
0
  6
Continuous
 62
     7
370
    25
100
AcDbSpline
210
0.0
220
0.0
230
1.0
 70
     8
 71
     3
 72
    18
 73
    14
 74
     0
 42
0.000000001
 43
0.00000001
 40
-0.0000021263988989
 40
-0.0000021263988989
 40
-0.0000021263988989
 40
-0.0000021263988989
 40
0.0
 40
0.0
 40
0.0
 40
0.4275885759528201
 40
0.4413627440184678
 40
0.4674703602842568
 40
0.5038751990645237
 40
0.5336694441824861
 40
0.5666506397578235
 40
0.5795963365626782
 40
1.0
 40
1.0
 40
1.0
 40
1.0
 10
117.2442657409129
 20
438.9696276305142
 30
0.0
 10
117.2442657409129
 20
438.9696301779144
 30
0.0
 10
117.2442657409129
 20
438.9696327253146
 30
0.0
 10
117.2442657409129
 20
438.9696352727149
 30
0.0
 10
117.2442657409129
 20
439.4818812326612
 30
0.0
 10
118.3013075705586
 20
439.9680955848611
 30
0.0
 10
120.1968745894068
 20
440.3706477305547
 30
0.0
 10
120.5174752352265
 20
440.4346512325341
 30
0.0
 10
120.926113807598
 20
440.5087792503089
 30
0.0
 10
121.3877199743125
 20
440.5844753863673
 30
0.0
 10
121.7558503887065
 20
440.6393002251929
 30
0.0
 10
124.0907259495577
 20
440.9630450118344
 30
0.0
 10
126.8439270899441
 20
441.1402374935506
 30
0.0
 10
129.7442657409168
 20
441.1402374935506
 30
0.0
  0
SPLINE
  5
AB
330
1F
100
AcDbEntity
  8
0
  6
Continuous
 62
     7
370
    25
100
AcDbSpline
210
0.0
220
0.0
230
1.0
 70
     8
 71
     3
 72
     8
 73
     4
 74
     0
 42
0.000000001
 43
0.00000001
 40
0.0
 40
0.0
 40
0.0
 40
0.0
 40
1.0
 40
1.0
 40
1.0
 40
1.0
 10
129.7442657409168
 20
457.190997577459
 30
0.0
 10
122.850243341407
 20
457.1919266583374
 30
0.0
 10
115.9562342173381
 20
456.982748984263
 30
0.0
 10
109.0749977624922
 20
456.5632711835654
 30
0.0
  0
SPLINE
  5
AC
330
1F
100
AcDbEntity
  8
0
  6
Continuous
 62
     7
370
    25
100
AcDbSpline
210
0.0
220
0.0
230
1.0
 70
     8
 71
     3
 72
     8
 73
     4
 74
     0
 42
0.000000001
 43
0.00000001
 40
0.0
 40
0.0
 40
0.0
 40
0.0
 40
1.0
 40
1.0
 40
1.0
 40
1.0
 10
129.7442657409168
 20
457.190997577459
 30
0.0
 10
136.6383015292677
 20
457.1919266601417
 30
0.0
 10
143.5323243748121
 20
456.9827473316274
 30
0.0
 10
150.4135337193415
 20
456.5632711835654
 30
0.0
  0
LWPOLYLINE
  5
AD
330
1F
100
AcDbEntity
  8
0
  6
Continuous
 62
     7
370
    25
100
AcDbPolyline
 90
       10
 70
   128
 43
0.0
 10
129.7442657409
 20
441.0534134047
 10
131.8280438729
 20
441.0217561327
 10
133.8485074608
 20
440.9277462067
 10
135.7442657409
 20
440.7742400709
 10
137.4577170572
 20
440.5659019314
 10
138.9367990583
 20
440.3090620373
 10
140.1365705863
 20
440.0115243387
 10
141.0205771903
 20
439.6823293681
 10
141.5619587771
 20
439.331479548
 10
141.7442657409
 20
438.9696352727
  0
LWPOLYLINE
  5
AE
330
1F
100
AcDbEntity
  8
0
  6
Continuous
 62
     7
370
    25
100
AcDbPolyline
 90
       10
 70
   128
 43
0.0
 10
117.7442657409
 20
438.9696352727
 10
117.9265727048
 20
439.331479548
 10
118.4679542915
 20
439.6823293681
 10
119.3519608955
 20
440.0115243387
 10
120.5517324235
 20
440.3090620373
 10
122.0308144247
 20
440.5659019314
 10
123.7442657409
 20
440.7742400709
 10
125.640024021
 20
440.9277462067
 10
127.6604876089
 20
441.0217561327
 10
129.7442657409
 20
441.0534134047
  0
LWPOLYLINE
  5
AF
330
1F
100
AcDbEntity
  8
0
  6
Continuous
 62
     7
370
    25
100
AcDbPolyline
 90
       15
 70
   128
 43
0.0
 10
140.7442657409
 20
433.2307839716
 10
139.8027882606
 20
433.5343792808
 10
138.5858848531
 20
433.8068577673
 10
137.1268771864
 20
434.0407583312
 10
135.465716311
 20
434.2296762269
 10
133.6478887059
 20
434.3684384394
 10
131.7231707527
 20
434.453245334
 10
129.7442657409
 20
434.4817746992
 10
127.7653607292
 20
434.453245334
 10
125.8406427759
 20
434.3684384394
 10
124.0228151708
 20
434.2296762269
 10
122.3616542954
 20
434.0407583312
 10
120.9026466288
 20
433.8068577673
 10
119.6857432212
 20
433.5343792808
 10
118.7442657409
 20
433.2307839716
  0
SPLINE
  5
B0
330
1F
100
AcDbEntity
  8
0
  6
Continuous
 62
     7
370
    25
100
AcDbSpline
210
0.0
220
0.0
230
1.0
 70
    24
 71
     3
 72
    10
 73
     6
 74
     0
 42
0.000000001
 43
0.00000001
 40
0.0
 40
0.0
 40
0.0
 40
0.0
 40
0.5
 40
0.5
 40
1.0
 40
1.0
 40
1.0
 40
1.0
 10
140.7442657409168
 20
431.829417545852
 30
0.0
 10
140.7442657409168
 20
431.9696167174702
 30
0.0
 10
140.7442657409168
 20
432.1636178200686
 30
0.0
 10
140.7442657409168
 20
432.637736402725
 30
0.0
 10
140.7442657409168
 20
432.9177989120172
 30
0.0
 10
140.7442657409168
 20
433.2307839715745
 30
0.0
  0
LWPOLYLINE
  5
B1
330
1F
100
AcDbEntity
  8
0
  6
Continuous
 62
     7
370
    25
100
AcDbPolyline
 90
       20
 70
   128
 43
0.0
 10
140.7442657409
 20
431.8294175459
 10
140.5942400783
 20
432.1438146031
 10
140.1482553996
 20
432.4496357281
 10
139.4184770042
 20
432.738538918
 10
138.4248113443
 20
433.0026436467
 10
137.1943630288
 20
433.2347458258
 10
135.7606954803
 20
433.4285143127
 10
134.1629154121
 20
433.5786636085
 10
132.4446060995
 20
433.6810980316
 10
130.6526385411
 20
433.733023438
 10
128.8358929407
 20
433.733023438
 10
127.0439253824
 20
433.6810980316
 10
125.3256160697
 20
433.5786636085
 10
123.7278360016
 20
433.4285143127
 10
122.294168453
 20
433.2347458258
 10
121.0637201376
 20
433.0026436467
 10
120.0700544776
 20
432.738538918
 10
119.3402760822
 20
432.4496357281
 10
118.8942914035
 20
432.1438146031
 10
118.7442657409
 20
431.8294175459
  0
SPLINE
  5
B2
330
1F
100
AcDbEntity
  8
0
  6
Continuous
 62
     7
370
    25
100
AcDbSpline
210
0.0
220
0.0
230
1.0
 70
    24
 71
     3
 72
    10
 73
     6
 74
     0
 42
0.000000001
 43
0.00000001
 40
0.0
 40
0.0
 40
0.0
 40
0.0
 40
0.5
 40
0.5
 40
1.0
 40
1.0
 40
1.0
 40
1.0
 10
118.7442657409168
 20
431.829417545852
 30
0.0
 10
118.7442657409168
 20
431.9696167174702
 30
0.0
 10
118.7442657409168
 20
432.1636178200686
 30
0.0
 10
118.7442657409168
 20
432.637736402725
 30
0.0
 10
118.7442657409168
 20
432.9177989120172
 30
0.0
 10
118.7442657409168
 20
433.2307839715745
 30
0.0
  0
LINE
  5
B3
330
1F
100
AcDbEntity
  8
0
  6
Continuous
 62
     7
370
    25
100
AcDbLine
 10
140.7442657409
 20
433.2307839716
 30
0.0
 11
140.7442657409
 21
436.6014359623
 31
0.0
  0
LINE
  5
B4
330
1F
100
AcDbEntity
  8
0
  6
Continuous
 62
     7
370
    25
100
AcDbLine
 10
118.7442657409
 20
433.2307839716
 30
0.0
 11
118.7442657409
 21
436.6014359623
 31
0.0
  0
LWPOLYLINE
  5
B5
330
1F
100
AcDbEntity
  8
0
  6
Continuous
 62
     7
370
    25
100
AcDbPolyline
 90
        9
 70
   128
 43
0.0
 10
118.7442657409
 20
434.9358611535
 10
118.3102506709
 20
435.1362425075
 10
117.9969256164
 20
435.3432991279
 10
117.8075978329
 20
435.5548454598
 10
117.7442657409
 20
435.7686485579
 10
117.8075978329
 20
435.982451656
 10
117.9969256164
 20
436.1939979879
 10
118.3102506709
 20
436.4010546083
 10
118.7442657409
 20
436.6014359623
  0
LWPOLYLINE
  5
B6
330
1F
100
AcDbEntity
  8
0
  6
Continuous
 62
     7
370
    25
100
AcDbPolyline
 90
        9
 70
   128
 43
0.0
 10
140.7442657409
 20
436.6014359623
 10
141.178280811
 20
436.4010546083
 10
141.4916058654
 20
436.1939979879
 10
141.680933649
 20
435.982451656
 10
141.7442657409
 20
435.7686485579
 10
141.680933649
 20
435.5548454598
 10
141.4916058654
 20
435.3432991279
 10
141.178280811
 20
435.1362425075
 10
140.7442657409
 20
434.9358611535
  0
LWPOLYLINE
  5
B7
330
1F
100
AcDbEntity
  8
0
  6
Continuous
 62
     7
370
    25
100
AcDbPolyline
 90
       20
 70
   128
 43
0.0
 10
118.7442657409
 20
431.8294175459
 10
118.8942914035
 20
431.5150204886
 10
119.3402760822
 20
431.2091993636
 10
120.0700544776
 20
430.9202961737
 10
121.0637201376
 20
430.656191445
 10
122.294168453
 20
430.424089266
 10
123.7278360016
 20
430.230320779
 10
125.3256160697
 20
430.0801714832
 10
127.0439253824
 20
429.9777370601
 10
128.8358929407
 20
429.9258116537
 10
130.6526385411
 20
429.9258116537
 10
132.4446060995
 20
429.9777370601
 10
134.1629154121
 20
430.0801714832
 10
135.7606954803
 20
430.230320779
 10
137.1943630288
 20
430.424089266
 10
138.4248113443
 20
430.656191445
 10
139.4184770042
 20
430.9202961737
 10
140.1482553996
 20
431.2091993636
 10
140.5942400783
 20
431.5150204886
 10
140.7442657409
 20
431.8294175459
  0
SPLINE
  5
B8
330
1F
100
AcDbEntity
  8
0
  6
Continuous
 62
     7
370
    25
100
AcDbSpline
210
0.0
220
0.0
230
1.0
 70
     8
 71
     3
 72
     9
 73
     5
 74
     0
 42
0.000000001
 43
0.00000001
 40
0.0
 40
0.0
 40
0.0
 40
0.0
 40
0.6311139725179278
 40
1.0
 40
1.0
 40
1.0
 40
1.0
 10
142.2452863026509
 20
438.9696264359173
 30
0.0
 10
142.2194058227242
 20
438.8455720811556
 30
0.0
 10
142.1783982059487
 20
438.6490079736192
 30
0.0
 10
141.8612553201889
 20
438.4607307000942
 30
0.0
 10
141.7442657409168
 20
438.3912778445984
 30
0.0
  0
SPLINE
  5
B9
330
1F
100
AcDbEntity
  8
0
  6
Continuous
 62
     7
370
    25
100
AcDbSpline
210
0.0
220
0.0
230
1.0
 70
     8
 71
     3
 72
     9
 73
     5
 74
     0
 42
0.000000001
 43
0.00000001
 40
0.0
 40
0.0
 40
0.0
 40
0.0
 40
0.6311139725179641
 40
1.0
 40
1.0
 40
1.0
 40
1.0
 10
117.2432451791827
 20
438.9696264359173
 30
0.0
 10
117.2691256591094
 20
438.8455720811556
 30
0.0
 10
117.310133275885
 20
438.6490079736192
 30
0.0
 10
117.6272761616447
 20
438.4607307000942
 30
0.0
 10
117.7442657409168
 20
438.3912778445984
 30
0.0
  0
LINE
  5
BA
330
1F
100
AcDbEntity
  8
0
  6
Continuous
 62
     7
370
    25
100
AcDbLine
 10
151.4418021656
 20
455.4697234869
 30
0.0
 11
151.4418021656
 21
443.8457643128
 31
0.0
  0
LINE
  5
BB
330
1F
100
AcDbEntity
  8
0
  6
Continuous
 62
     7
370
    25
100
AcDbLine
 10
108.0467293163
 20
455.4697234869
 30
0.0
 11
108.0467293163
 21
443.8460918392
 31
0.0
  0
SPLINE
  5
BC
330
1F
100
AcDbEntity
  8
0
  6
Continuous
 62
     7
370
    25
100
AcDbSpline
210
0.0
220
0.0
230
1.0
 70
     8
 71
     3
 72
    10
 73
     6
 74
     0
 42
0.000000001
 43
0.00000001
 40
0.0
 40
0.0
 40
0.0
 40
0.0
 40
0.1083519438770877
 40
0.5772112749797995
 40
0.9999999999999999
 40
0.9999999999999999
 40
0.9999999999999999
 40
0.9999999999999999
 10
150.9398906388028
 20
442.7558512644517
 30
0.0
 10
150.5840284203637
 20
442.4521752070676
 30
0.0
 10
148.6882831529286
 20
440.834435478629
 30
0.0
 10
145.4141941874406
 20
438.0108996124945
 30
0.0
 10
142.2463487031147
 20
435.8182908170656
 30
0.0
 10
140.7442657409168
 20
434.7786314237414
 30
0.0
  0
SPLINE
  5
BD
330
1F
100
AcDbEntity
  8
0
  6
Continuous
 62
     7
370
    25
100
AcDbSpline
210
0.0
220
0.0
230
1.0
 70
     8
 71
     3
 72
    10
 73
     6
 74
     0
 42
0.000000001
 43
0.00000001
 40
0.0
 40
0.0
 40
0.0
 40
0.0
 40
0.1082749009506546
 40
0.5771747438840096
 40
0.9999999999999999
 40
0.9999999999999999
 40
0.9999999999999999
 40
0.9999999999999999
 10
108.5494912789733
 20
442.7551237065444
 30
0.0
 10
108.9050699432675
 20
442.4516899941975
 30
0.0
 10
110.8005325360998
 20
440.8341934767967
 30
0.0
 10
114.0743368574406
 20
438.0108989752785
 30
0.0
 10
117.2421826381733
 20
435.8182906121049
 30
0.0
 10
118.7442657409168
 20
434.7786314237415
 30
0.0
  0
SPLINE
  5
BE
330
1F
100
AcDbEntity
  8
0
  6
Continuous
 62
     7
370
    25
100
AcDbSpline
210
0.0
220
0.0
230
1.0
 70
     8
 71
     3
 72
    10
 73
     6
 74
     0
 42
0.000000001
 43
0.00000001
 40
0.0
 40
0.0
 40
0.0
 40
0.0
 40
0.5
 40
0.5
 40
1.0
 40
1.0
 40
1.0
 40
1.0
 10
108.0467293162586
 20
443.8460918391954
 30
0.0
 10
108.04672931626
 20
443.6390822779911
 30
0.0
 10
108.091774178999
 20
443.4331567788876
 30
0.0
 10
108.2654504575975
 20
443.0565441624444
 30
0.0
 10
108.3914121946955
 20
442.8901696834067
 30
0.0
 10
108.5493520827355
 20
442.754961108586
 30
0.0
  0
SPLINE
  5
BF
330
1F
100
AcDbEntity
  8
0
  6
Continuous
 62
     7
370
    25
100
AcDbSpline
210
0.0
220
0.0
230
1.0
 70
     8
 71
     3
 72
    10
 73
     6
 74
     0
 42
0.000000001
 43
0.00000001
 40
0.0
 40
0.0
 40
0.0
 40
0.0
 40
0.5
 40
0.5
 40
1.0
 40
1.0
 40
1.0
 40
1.0
 10
151.4418021655751
 20
443.8457643128214
 30
0.0
 10
151.4418021655737
 20
443.6389950525239
 30
0.0
 10
151.3967670814533
 20
443.4333139277387
 30
0.0
 10
151.2234011751215
 20
443.0571027157663
 30
0.0
 10
151.0977860922993
 20
442.890740517971
 30
0.0
 10
150.9400295450728
 20
442.755688898294
 30
0.0
  0
SPLINE
  5
C0
330
1F
100
AcDbEntity
  8
0
  6
Continuous
 62
     7
370
    25
100
AcDbSpline
210
0.0
220
0.0
230
1.0
 70
     8
 71
     3
 72
    14
 73
    10
 74
     0
 42
0.000000001
 43
0.00000001
 40
0.0
 40
0.0
 40
0.0
 40
0.0
 40
0.25
 40
0.25
 40
0.5
 40
0.5
 40
0.75
 40
0.75
 40
1.0
 40
1.0
 40
1.0
 40
1.0
 10
150.4135516254134
 20
456.5635635568032
 30
0.0
 10
150.5506695291795
 20
456.5551659241503
 30
0.0
 10
150.6873747803601
 20
456.5203499385761
 30
0.0
 10
150.9355670202419
 20
456.4040940205783
 30
0.0
 10
151.0498056878428
 20
456.3217194532267
 30
0.0
 10
151.2401386804053
 20
456.1191119247254
 30
0.0
 10
151.3142792081402
 20
456.0019730588633
 30
0.0
 10
151.4159096825838
 20
455.7449845834635
 30
0.0
 10
151.4418021655766
 20
455.6083444747187
 30
0.0
 10
151.4418021655751
 20
455.4697234868734
 30
0.0
  0
SPLINE
  5
C1
330
1F
100
AcDbEntity
  8
0
  6
Continuous
 62
     7
370
    25
100
AcDbSpline
210
0.0
220
0.0
230
1.0
 70
     8
 71
     3
 72
    12
 73
     8
 74
     0
 42
0.000000001
 43
0.00000001
 40
0.0
 40
0.0
 40
0.0
 40
0.0
 40
0.2499999999999994
 40
0.2499999999999994
 40
0.4999999999999989
 40
0.4999999999999989
 40
1.0
 40
1.0
 40
1.0
 40
1.0
 10
108.0467293162586
 20
455.4697234868734
 30
0.0
 10
108.0467293162576
 20
455.6087667447796
 30
0.0
 10
108.0726168590661
 20
455.7449980423704
 30
0.0
 10
108.1743128155696
 20
456.0021001835039
 30
0.0
 10
108.2493329141078
 20
456.1201185223599
 30
0.0
 10
108.5320775848374
 20
456.4210797655942
 30
0.0
 10
108.7973720351534
 20
456.5465617762791
 30
0.0
 10
109.0749798564202
 20
456.563563556803
 30
0.0
  0
ELLIPSE
  5
C2
330
1F
100
AcDbEntity
  8
0
  6
Continuous
 62
     7
370
    25
100
AcDbEllipse
 10
161.9913516791
 20
476.1932037621
 30
0.0
 11
-1.979953267625262
 21
-1.979953267625262
 31
0.0
210
0.0
220
0.0
230
1.0
 40
0.9999725851
 41
2.356208197850953
 42
3.926977109328648
  0
ELLIPSE
  5
C3
330
1F
100
AcDbEntity
  8
0
  6
Continuous
 62
     7
370
    25
100
AcDbEllipse
 10
161.9913516791
 20
411.6990318857
 30
0.0
 11
-1.979953267625234
 21
1.979953267625262
 31
0.0
210
0.0
220
0.0
230
1.0
 40
0.9999725851
 41
2.356208197850981
 42
3.926977109328644
  0
ELLIPSE
  5
C4
330
1F
100
AcDbEntity
  8
0
  6
Continuous
 62
     7
370
    25
100
AcDbEllipse
 10
97.4971798027
 20
411.6990318857
 30
0.0
 11
1.979953267625248
 21
1.979953267625319
 31
0.0
210
0.0
220
0.0
230
1.0
 40
0.9999725851
 41
2.356208197850927
 42
3.926977109328627
  0
ELLIPSE
  5
C5
330
1F
100
AcDbEntity
  8
0
  6
Continuous
 62
     7
370
    25
100
AcDbEllipse
 10
97.4971798027
 20
476.1932037621
 30
0.0
 11
1.979953267625248
 21
-1.979953267625262
 31
0.0
210
0.0
220
0.0
230
1.0
 40
0.9999725851
 41
2.356208197850971
 42
3.926977109328651
  0
LINE
  5
C6
330
1F
100
AcDbEntity
  8
0
  6
Continuous
 62
     7
370
    25
100
AcDbLine
 10
94.6971414205
 20
411.6989551218
 30
0.0
 11
94.6971414205
 21
476.1932805261
 31
0.0
  0
LINE
  5
C7
330
1F
100
AcDbEntity
  8
0
  6
Continuous
 62
     7
370
    25
100
AcDbLine
 10
97.4971030388
 20
478.9932421444
 30
0.0
 11
161.9914284431
 21
478.9932421444
 31
0.0
  0
LINE
  5
C8
330
1F
100
AcDbEntity
  8
0
  6
Continuous
 62
     7
370
    25
100
AcDbLine
 10
161.9914284431
 20
408.8989935035
 30
0.0
 11
97.4971030388
 21
408.8989935035
 31
0.0
  0
LINE
  5
C9
330
1F
100
AcDbEntity
  8
0
  6
Continuous
 62
     7
370
    25
100
AcDbLine
 10
164.7913900614
 20
476.1932805261
 30
0.0
 11
164.7913900614
 21
411.6989551218
 31
0.0
  0
SPLINE
  5
CA
330
1F
100
AcDbEntity
  8
0
  6
Continuous
 62
     8
370
    18
100
AcDbSpline
210
0.0
220
0.0
230
1.0
 70
     8
 71
     3
 72
    76
 73
    72
 74
     0
 42
0.000000001
 43
0.00000001
 40
0.0
 40
0.0
 40
0.0
 40
0.0
 40
0.0120137255661578
 40
0.024027725937446
 40
0.0300343904228082
 40
0.0420498371676559
 40
0.054064759679695
 40
0.0600733791260076
 40
0.0780941658162255
 40
0.090102999692217
 40
0.0961102773059122
 40
0.1087092377732807
 40
0.1276077746689156
 40
0.1339073816046854
 40
0.1465005898421415
 40
0.159102195064734
 40
0.1654035326445697
 40
0.1780018520198165
 40
0.1968999830487005
 40
0.2078067300648981
 40
0.2187136954720273
 40
0.2405294069174637
 40
0.2623435829657131
 40
0.2787016981524469
 40
0.2900033352183827
 40
0.295854455850479
 40
0.3075559011809381
 40
0.3309561238081252
 40
0.3426536216823234
 40
0.354344888776325
 40
0.3660385815696441
 40
0.3777358410754219
 40
0.414426043405323
 40
0.423599434077789
 40
0.4327735575432609
 40
0.4511220910984756
 40
0.4878051047194712
 40
0.4939166016495207
 40
0.506139016408888
 40
0.5244820808458683
 40
0.5305972805706993
 40
0.5428289106961525
 40
0.5581192824651171
 40
0.5672910282854918
 40
0.5764587307702457
 40
0.5856300548322508
 40
0.6039742507754924
 40
0.6477919239030928
 40
0.6668970248433727
 40
0.6732655489373384
 40
0.6987419355863562
 40
0.724211891251993
 40
0.7287254656271765
 40
0.7377495655678891
 40
0.7603296318139319
 40
0.769363629689331
 40
0.7829157840829024
 40
0.7919492438415423
 40
0.7964657257049621
 40
0.809295070190258
 40
0.8285388590445162
 40
0.8349533712100216
 40
0.8477842084535262
 40
0.8606150416291043
 40
0.8734446580063658
 40
0.892684964680219
 40
0.9075675926083083
 40
0.916035730421549
 40
0.9499083734471188
 40
0.9749541535259613
 40
1.0
 40
1.0
 40
1.0
 40
1.0
 10
219.373093234064
 20
436.9163361465637
 30
0.0
 10
219.4143826410553
 20
436.7983717668507
 30
0.0
 10
219.4969623995025
 20
436.5624403090763
 30
0.0
 10
219.6041045378329
 20
436.2689267874746
 30
0.0
 10
219.7115181901221
 20
435.975500705392
 30
0.0
 10
219.8190469033281
 20
435.682105263402
 30
0.0
 10
219.9262253038044
 20
435.3885601892033
 30
0.0
 10
220.0541507941165
 20
435.0360827916487
 30
0.0
 10
220.1809700197176
 20
434.6832711243835
 30
0.0
 10
220.3061107866707
 20
434.3298765476648
 30
0.0
 10
220.4115611918254
 20
434.0293474840541
 30
0.0
 10
220.5396126406097
 20
433.6607912163198
 30
0.0
 10
220.6667736656374
 20
433.2887091715324
 30
0.0
 10
220.7922603960537
 20
432.9161253877764
 30
0.0
 10
220.895794517899
 20
432.6052724052357
 30
0.0
 10
220.9980970194642
 20
432.2939930911417
 30
0.0
 10
221.0994323809385
 20
431.9823424570354
 30
0.0
 10
221.2198663006196
 20
431.6080236179789
 30
0.0
 10
221.3528296856216
 20
431.1874105778778
 30
0.0
 10
221.478569427121
 20
430.7829750528492
 30
0.0
 10
221.6118213211659
 20
430.3490928171586
 30
0.0
 10
221.7755929812175
 20
429.8058854159884
 30
0.0
 10
221.9517438240655
 20
429.2071944906201
 30
0.0
 10
222.0941534757506
 20
428.7126031315292
 30
0.0
 10
222.1892233575689
 20
428.3771980844119
 30
0.0
 10
222.2703137957345
 20
428.0881846429005
 30
0.0
 10
222.3842801447458
 20
427.6776730327269
 30
0.0
 10
222.5119448046869
 20
427.2078463617153
 30
0.0
 10
222.6369538183552
 20
426.737420229906
 30
0.0
 10
222.7293559158807
 20
426.384342984556
 30
0.0
 10
222.8203696561047
 20
426.0309076963425
 30
0.0
 10
222.9738820000525
 20
425.4250205418198
 30
0.0
 10
223.1162663805336
 20
424.8433610727433
 30
0.0
 10
223.2479669465858
 20
424.2861492590806
 30
0.0
 10
223.3345795033246
 20
423.9143500661389
 30
0.0
 10
223.4829795471649
 20
423.263101223222
 30
0.0
 10
223.6181756178225
 20
422.6415314314829
 30
0.0
 10
223.7353675164728
 20
422.0813099697659
 30
0.0
 10
223.8122392234027
 20
421.7075772854482
 30
0.0
 10
223.8868180311165
 20
421.3333382637438
 30
0.0
 10
223.9595827020925
 20
420.9586486208321
 30
0.0
 10
224.0250237677145
 20
420.6148887170295
 30
0.0
 10
224.0943509902598
 20
420.2395046095699
 30
0.0
 10
224.1561795515402
 20
419.8951554160957
 30
0.0
 10
224.205728458421
 20
419.6132785794132
 30
0.0
 10
224.270422728423
 20
419.2371811861821
 30
0.0
 10
224.3921926329637
 20
418.5051472018136
 30
0.0
 10
224.5204998040585
 20
417.6694559922206
 30
0.0
 10
224.6209075767082
 20
416.9556319768794
 30
0.0
 10
224.6920698262801
 20
416.4303911348813
 30
0.0
 10
224.7683650833947
 20
415.839027593928
 30
0.0
 10
224.8363738020684
 20
415.2660825308727
 30
0.0
 10
224.8818156662898
 20
414.8628335771216
 30
0.0
 10
224.9228719586883
 20
414.48934544974
 30
0.0
 10
224.9664187282886
 20
414.0688234091091
 30
0.0
 10
225.0119570212007
 20
413.6011650895684
 30
0.0
 10
225.0424160919974
 20
413.2736338587413
 30
0.0
 10
225.067322635874
 20
412.9927891475407
 30
0.0
 10
225.0908751949838
 20
412.7193746293262
 30
0.0
 10
225.1223226002708
 20
412.3400282175721
 30
0.0
 10
225.1530505823632
 20
411.9408134692196
 30
0.0
 10
225.1819518628869
 20
411.5414504616538
 30
0.0
 10
225.204907105878
 20
411.2085471853998
 30
0.0
 10
225.2306635234679
 20
410.8089454812085
 30
0.0
 10
225.2586687730211
 20
410.342676283098
 30
0.0
 10
225.2853322765424
 20
409.8549478328254
 30
0.0
 10
225.3071123077035
 20
409.4124017111238
 30
0.0
 10
225.3342875188618
 20
408.8177196670657
 30
0.0
 10
225.3618120970984
 20
408.1172179339789
 30
0.0
 10
225.3896606743366
 20
407.2441643620236
 30
0.0
 10
225.4024707867829
 20
406.7232109568796
 30
0.0
 10
225.4088758514958
 20
406.4627339090522
 30
0.0
  0
LINE
  5
CB
330
1F
100
AcDbEntity
  8
0
  6
Continuous
 62
     8
370
    18
100
AcDbLine
 10
225.4088757875
 20
406.4627337989
 30
0.0
 11
223.9592598251
 21
406.4293637299
 31
0.0
  0
LINE
  5
CC
330
1F
100
AcDbEntity
  8
0
  6
Continuous
 62
     8
370
    18
100
AcDbLine
 10
219.3730931795
 20
436.9163362858
 30
0.0
 11
218.002411035
 21
436.4433347438
 31
0.0
  0
LINE
  5
CD
330
1F
100
AcDbEntity
  8
0
  6
Continuous
 62
     8
370
    18
100
AcDbLine
 10
254.0796556943
 20
406.4627337989
 30
0.0
 11
255.5292716567
 21
406.4293637299
 31
0.0
  0
SPLINE
  5
CE
330
1F
100
AcDbEntity
  8
0
  6
Continuous
 62
     8
370
    18
100
AcDbSpline
210
0.0
220
0.0
230
1.0
 70
     8
 71
     3
 72
    26
 73
    22
 74
     0
 42
0.000000001
 43
0.00000001
 40
0.0
 40
0.0
 40
0.0
 40
0.0
 40
0.0312500000000002
 40
0.0312500000000002
 40
0.0625000000000004
 40
0.0625000000000004
 40
0.1250000000000003
 40
0.1250000000000003
 40
0.2500000000000003
 40
0.2500000000000003
 40
0.3750000000000002
 40
0.3750000000000002
 40
0.5
 40
0.5
 40
0.6249999999999999
 40
0.6249999999999999
 40
0.7499999999999997
 40
0.7499999999999997
 40
0.8749999999999999
 40
0.8749999999999999
 40
1.0
 40
1.0
 40
1.0
 40
1.0
 10
260.115438302324
 20
436.9163362858226
 30
0.0
 10
260.0091043533938
 20
436.6081976600562
 30
0.0
 10
259.8967790116775
 20
436.3026153586575
 30
0.0
 10
259.6729509716319
 20
435.6914309681553
 30
0.0
 10
259.5609965689865
 20
435.3860035142984
 30
0.0
 10
259.2294267841591
 20
434.468421450972
 30
0.0
 10
259.0139899327456
 20
433.8550157433915
 30
0.0
 10
258.388132010305
 20
432.0081642850333
 30
0.0
 10
257.9969195298889
 20
430.768554009718
 30
0.0
 10
257.261971457072
 20
428.2740953539174
 30
0.0
 10
256.9179438348845
 20
427.0183958351368
 30
0.0
 10
256.2814601207189
 20
424.4954922070856
 30
0.0
 10
255.9892527200972
 20
423.2288528187307
 30
0.0
 10
255.4657399163397
 20
420.6834657930683
 30
0.0
 10
255.2351548067628
 20
419.4045735860819
 30
0.0
 10
254.8396696377647
 20
416.8335269043347
 30
0.0
 10
254.6743823941717
 20
415.5413034296502
 30
0.0
 10
254.4074831804183
 20
412.9548255095953
 30
0.0
 10
254.3058600834169
 20
411.6592100300406
 30
0.0
 10
254.1569203737534
 20
409.0637900026462
 30
0.0
 10
254.1096103093574
 20
407.7639803790299
 30
0.0
 10
254.0796556942902
 20
406.4627337989279
 30
0.0
  0
LINE
  5
CF
330
1F
100
AcDbEntity
  8
0
  6
Continuous
 62
     8
370
    18
100
AcDbLine
 10
260.1154383023
 20
436.9163362858
 30
0.0
 11
261.4861204468
 21
436.4433347438
 31
0.0
  0
SPLINE
  5
D0
330
1F
100
AcDbEntity
  8
0
  6
Continuous
 62
     8
370
    18
100
AcDbSpline
210
0.0
220
0.0
230
1.0
 70
     8
 71
     3
 72
     8
 73
     4
 74
     0
 42
0.000000001
 43
0.00000001
 40
0.0
 40
0.0
 40
0.0
 40
0.0
 40
1.0
 40
1.0
 40
1.0
 40
1.0
 10
254.0796556942902
 20
406.4627337989279
 30
0.0
 10
254.0388556802224
 20
404.6903565323577
 30
0.0
 10
254.0297167269158
 20
402.9173289208899
 30
0.0
 10
254.020431551854
 20
401.1440073120535
 30
0.0
  0
LINE
  5
D1
330
1F
100
AcDbEntity
  8
0
  6
Continuous
 62
     8
370
    18
100
AcDbLine
 10
254.0204315519
 20
401.1440073121
 30
0.0
 11
253.8083488909
 21
360.6395728691
 31
0.0
  0
SPLINE
  5
D2
330
1F
100
AcDbEntity
  8
0
  6
Continuous
 62
     8
370
    18
100
AcDbSpline
210
0.0
220
0.0
230
1.0
 70
     8
 71
     3
 72
    32
 73
    28
 74
     0
 42
0.000000001
 43
0.00000001
 40
0.0
 40
0.0
 40
0.0
 40
0.0
 40
0.2500000000000492
 40
0.2500000000000492
 40
0.3750000000000738
 40
0.3750000000000738
 40
0.4375000000000931
 40
0.4375000000000931
 40
0.4687500000000909
 40
0.4687500000000909
 40
0.4843750000000899
 40
0.4843750000000899
 40
0.4921875000000868
 40
0.4921875000000868
 40
0.5000000000000837
 40
0.5000000000000837
 40
0.5156250000000854
 40
0.5156250000000854
 40
0.5312500000000869
 40
0.5312500000000869
 40
0.5625000000000743
 40
0.5625000000000743
 40
0.6250000000000661
 40
0.6250000000000661
 40
0.75000000000005
 40
0.75000000000005
 40
1.0
 40
1.0
 40
1.0
 40
1.0
 10
253.8083488909222
 20
360.6395728691305
 30
0.0
 10
253.8074153601152
 20
360.4612832475024
 30
0.0
 10
253.8073496835067
 20
360.281785222062
 30
0.0
 10
253.781789610223
 20
360.01044653148
 30
0.0
 10
253.7690566046655
 20
359.9198007210343
 30
0.0
 10
253.7371034708712
 20
359.7850587935514
 30
0.0
 10
253.7242900896602
 20
359.7401042545303
 30
0.0
 10
253.6992679791987
 20
359.6733896836471
 30
0.0
 10
253.6900161583748
 20
359.6513231171579
 30
0.0
 10
253.6732484382975
 20
359.6180890898558
 30
0.0
 10
253.6671955954058
 20
359.606991778321
 30
0.0
 10
253.6565440691507
 20
359.5900768301252
 30
0.0
 10
253.6527676375185
 20
359.5844158745975
 30
0.0
 10
253.6436388602395
 20
359.5723384516274
 30
0.0
 10
253.6369139066769
 20
359.5645377239672
 30
0.0
 10
253.6161761356793
 20
359.5463127021422
 30
0.0
 10
253.6057362074501
 20
359.5403436131957
 30
0.0
 10
253.5832973215495
 20
359.5272730138487
 30
0.0
 10
253.5721659392843
 20
359.5215496100423
 30
0.0
 10
253.538955873977
 20
359.5057252612411
 30
0.0
 10
253.5169225375115
 20
359.4969143538336
 30
0.0
 10
253.4504867088778
 20
359.4731387113878
 30
0.0
 10
253.4057710184833
 20
359.460925146111
 30
0.0
 10
253.2706665064316
 20
359.4303941871094
 30
0.0
 10
253.1811100848393
 20
359.4186338538635
 30
0.0
 10
252.9129219333865
 20
359.3953115951207
 30
0.0
 10
252.7350390548969
 20
359.3961178239198
 30
0.0
 10
252.5583660256129
 20
359.3961178239198
 30
0.0
  0
LINE
  5
D3
330
1F
100
AcDbEntity
  8
0
  6
Continuous
 62
     8
370
    18
100
AcDbLine
 10
252.5583660256
 20
359.3961178239
 30
0.0
 11
239.7442657409
 21
359.3961178239
 31
0.0
  0
SPLINE
  5
D4
330
1F
100
AcDbEntity
  8
0
  6
Continuous
 62
     8
370
    18
100
AcDbSpline
210
0.0
220
0.0
230
1.0
 70
     8
 71
     3
 72
    22
 73
    18
 74
     0
 42
0.000000001
 43
0.00000001
 40
0.0
 40
0.0
 40
0.0
 40
0.0
 40
0.1249999999999999
 40
0.1249999999999999
 40
0.2499999999999999
 40
0.2499999999999999
 40
0.3749999999999998
 40
0.3749999999999998
 40
0.4999999999999999
 40
0.4999999999999999
 40
0.6249999999999999
 40
0.6249999999999999
 40
0.75
 40
0.75
 40
0.875
 40
0.875
 40
1.0
 40
1.0
 40
1.0
 40
1.0
 10
239.7442657409168
 20
465.4961178239199
 30
0.0
 10
241.453078050817
 20
465.4961178239199
 30
0.0
 10
243.1617994016536
 20
465.2919137375933
 30
0.0
 10
246.4831781654824
 20
464.4865559605445
 30
0.0
 10
248.0956587834571
 20
463.885445138538
 30
0.0
 10
251.1337208583862
 20
462.3200899485754
 30
0.0
 10
252.5591406011022
 20
461.3559289035456
 30
0.0
 10
255.1427724697475
 20
459.1187421859947
 30
0.0
 10
256.300847070488
 20
457.8458355975928
 30
0.0
 10
258.28453019973
 20
455.0628229701284
 30
0.0
 10
259.1100331379573
 20
453.5528650691737
 30
0.0
 10
260.3820400550686
 20
450.380774836427
 30
0.0
 10
260.8284763257803
 20
448.7188113531127
 30
0.0
 10
261.3171634723492
 20
445.3363059333618
 30
0.0
 10
261.3593883356798
 20
443.6159440456783
 30
0.0
 10
261.0372312653691
 20
440.2135371235252
 30
0.0
 10
260.6728664799571
 20
438.531673197154
 30
0.0
 10
260.115438302311
 20
436.9163362857845
 30
0.0
  0
SPLINE
  5
D5
330
1F
100
AcDbEntity
  8
0
  6
Continuous
 62
     8
370
    18
100
AcDbSpline
210
0.0
220
0.0
230
1.0
 70
     8
 71
     3
 72
    10
 73
     6
 74
     0
 42
0.000000001
 43
0.00000001
 40
0.0
 40
0.0
 40
0.0
 40
0.0
 40
0.5
 40
0.5
 40
1.0
 40
1.0
 40
1.0
 40
1.0
 10
226.9301654616908
 20
359.3961180662916
 30
0.0
 10
229.0658487979791
 20
359.3961160948158
 30
0.0
 10
231.20153221547
 20
359.3961177212981
 30
0.0
 10
235.4728989752385
 20
359.39611764168
 30
0.0
 10
237.6085823580971
 20
359.3961177336586
 30
0.0
 10
239.7442657389152
 20
359.39611773523
 30
0.0
  0
SPLINE
  5
D6
330
1F
100
AcDbEntity
  8
0
  6
Continuous
 62
     8
370
    18
100
AcDbSpline
210
0.0
220
0.0
230
1.0
 70
     8
 71
     3
 72
    65
 73
    61
 74
     0
 42
0.000000001
 43
0.00000001
 40
0.0
 40
0.0
 40
0.0
 40
0.0
 40
0.0736009160735744
 40
0.1099455602700273
 40
0.121286254686788
 40
0.1447299607396408
 40
0.1775652142682182
 40
0.1887427763373247
 40
0.2113286728618445
 40
0.2453600237466637
 40
0.2578026137967949
 40
0.2781513789881151
 40
0.2982917346573004
 40
0.3047468673586623
 40
0.3176269717187044
 40
0.3308350742780738
 40
0.3374752025526531
 40
0.350833585856635
 40
0.369665756545727
 40
0.3758795492880245
 40
0.4144224610312758
 40
0.4336827036162434
 40
0.4400137021799715
 40
0.454288691518806
 40
0.4680724240113864
 40
0.4716378718618484
 40
0.4787792289382317
 40
0.4891332340738122
 40
0.4962812546286074
 40
0.5010230082992106
 40
0.5055238486451183
 40
0.51034255641822
 40
0.524285479771018
 40
0.5312951562265983
 40
0.533679461215255
 40
0.5427739517770064
 40
0.5524753330292492
 40
0.557152723599032
 40
0.5660635891302561
 40
0.5758355621288614
 40
0.5806196614422775
 40
0.594585828805987
 40
0.6042073919446748
 40
0.60919716069392
 40
0.6315105655733216
 40
0.6508302718292728
 40
0.6618527447002213
 40
0.6832316447832939
 40
0.7022493974557553
 40
0.7128992928249798
 40
0.7355657214714643
 40
0.756802980911045
 40
0.778000048090176
 40
0.8300077731965632
 40
0.8494456883823939
 40
0.8554657945140166
 40
0.880740237990681
 40
0.9326175262693045
 40
0.9588115888212793
 40
1.0
 40
1.0
 40
1.0
 40
1.0
 10
225.6801826600111
 20
360.6395732055466
 30
0.0
 10
225.680433886237
 20
360.5853254288861
 30
0.0
 10
225.6808091697203
 20
360.5042897228578
 30
0.0
 10
225.6821895183528
 20
360.4149039691791
 30
0.0
 10
225.6834047073773
 20
360.362491910093
 30
0.0
 10
225.6848733754518
 20
360.3126735955678
 30
0.0
 10
225.686941770733
 20
360.262994908768
 30
0.0
 10
225.6895717457755
 20
360.2139782553942
 30
0.0
 10
225.6927327068652
 20
360.1641084750826
 30
0.0
 10
225.6969113999017
 20
360.1133733548538
 30
0.0
 10
225.7018170591399
 20
360.0643657334121
 30
0.0
 10
225.7062335002803
 20
360.0256006996702
 30
0.0
 10
225.7108145963046
 20
359.9913020323393
 30
0.0
 10
225.7150775330068
 20
359.9625201820092
 30
0.0
 10
225.7188483794491
 20
359.9388312647586
 30
0.0
 10
225.7230109516285
 20
359.9150693763921
 30
0.0
 10
225.7275382842016
 20
359.8910164217288
 30
0.0
 10
225.7331976288511
 20
359.8629599148824
 30
0.0
 10
225.7394163959256
 20
359.8353407731944
 30
0.0
 10
225.7505646224078
 20
359.7898187496408
 30
0.0
 10
225.7634621777946
 20
359.7443778928051
 30
0.0
 10
225.7791850532567
 20
359.6997812875672
 30
0.0
 10
225.7899148207411
 20
359.6724258339312
 30
0.0
 10
225.7999368868776
 20
359.64913451377
 30
0.0
 10
225.8100972586491
 20
359.6281479740463
 30
0.0
 10
225.8184199396684
 20
359.6121302690273
 30
0.0
 10
225.8259253591945
 20
359.5985387865175
 30
0.0
 10
225.8358190825202
 20
359.5832657111611
 30
0.0
 10
225.8461455003534
 20
359.5704923304397
 30
0.0
 10
225.8546113721914
 20
359.5618600108141
 30
0.0
 10
225.8623001634674
 20
359.554902808677
 30
0.0
 10
225.8756533292301
 20
359.5441355625487
 30
0.0
 10
225.8916305171188
 20
359.5337399761982
 30
0.0
 10
225.9067682067465
 20
359.5255686398826
 30
0.0
 10
225.9189425043655
 20
359.5194454177735
 30
0.0
 10
225.9331222609018
 20
359.512902713625
 30
0.0
 10
225.9490762966856
 20
359.5062052159229
 30
0.0
 10
225.965013575052
 20
359.4998290828455
 30
0.0
 10
225.9810437962031
 20
359.493543482871
 30
0.0
 10
225.9973076809064
 20
359.4876506485494
 30
0.0
 10
226.0171935876126
 20
359.480832280524
 30
0.0
 10
226.0371219575462
 20
359.4744828654152
 30
0.0
 10
226.0573435861579
 20
359.4685852381247
 30
0.0
 10
226.0835718852015
 20
359.4613214468895
 30
0.0
 10
226.1169143651316
 20
359.4529681059859
 30
0.0
 10
226.1548489631077
 20
359.4447507475255
 30
0.0
 10
226.1922608214794
 20
359.4374256227576
 30
0.0
 10
226.2296058175884
 20
359.4309412841395
 30
0.0
 10
226.266821078974
 20
359.425390238331
 30
0.0
 10
226.305059725427
 20
359.4203172281455
 30
0.0
 10
226.3450049050174
 20
359.4156885580954
 30
0.0
 10
226.3927691038604
 20
359.4110892323136
 30
0.0
 10
226.4621571291836
 20
359.4055174783547
 30
0.0
 10
226.5303522420653
 20
359.4017918966926
 30
0.0
 10
226.5874102976206
 20
359.3996975140461
 30
0.0
 10
226.624785141423
 20
359.398542256293
 30
0.0
 10
226.6860715557024
 20
359.397098238031
 30
0.0
 10
226.7622420770166
 20
359.3963281812976
 30
0.0
 10
226.85014264007
 20
359.3960825251307
 30
0.0
 10
226.8998072963259
 20
359.3961046223648
 30
0.0
 10
226.930165461731
 20
359.3961181295858
 30
0.0
  0
LINE
  5
D7
330
1F
100
AcDbEntity
  8
0
  6
Continuous
 62
     8
370
    18
100
AcDbLine
 10
225.46809993
 20
401.1440073121
 30
0.0
 11
225.6801825909
 21
360.6395728691
 31
0.0
  0
SPLINE
  5
D8
330
1F
100
AcDbEntity
  8
0
  6
Continuous
 62
     8
370
    18
100
AcDbSpline
210
0.0
220
0.0
230
1.0
 70
     8
 71
     3
 72
    12
 73
     8
 74
     0
 42
0.000000001
 43
0.00000001
 40
0.0
 40
0.0
 40
0.0
 40
0.0
 40
0.1999975921096636
 40
0.3999984185790524
 40
0.6000006443274953
 40
0.8000011564866593
 40
0.9999999999999999
 40
0.9999999999999999
 40
0.9999999999999999
 40
0.9999999999999999
 10
225.4088758514958
 20
406.4627339090521
 30
0.0
 10
225.4163055540504
 20
406.1082063431074
 30
0.0
 10
225.4311650793126
 20
405.3991454778006
 30
0.0
 10
225.4453380044975
 20
404.3354049916169
 30
0.0
 10
225.4555143475243
 20
403.2716211527212
 30
0.0
 10
225.4625291256283
 20
402.2078147435312
 30
0.0
 10
225.4662430378738
 20
401.4986086483459
 30
0.0
 10
225.46809998625
 20
401.1440070800229
 30
0.0
  0
SPLINE
  5
D9
330
1F
100
AcDbEntity
  8
0
  6
Continuous
 62
     8
370
    18
100
AcDbSpline
210
0.0
220
0.0
230
1.0
 70
     8
 71
     3
 72
    51
 73
    47
 74
     0
 42
0.000000001
 43
0.00000001
 40
0.0
 40
0.0
 40
0.0
 40
0.0
 40
0.0111189929054469
 40
0.0222379110629578
 40
0.0333566993448641
 40
0.0444753232432006
 40
0.0555937678324518
 40
0.0667120362419597
 40
0.0778301476543849
 40
0.0889481348476442
 40
0.1000660412986684
 40
0.1111839178684138
 40
0.1223018190886817
 40
0.133419799072399
 40
0.144537907070201
 40
0.1556561826972786
 40
0.166774650855584
 40
0.1778933163776027
 40
0.1890121584205631
 40
0.2001311246373603
 40
0.211250139196201
 40
0.2223692413046239
 40
0.2334885228042464
 40
0.244608033134985
 40
0.2557277841561981
 40
0.2668477567524756
 40
0.2779679075661421
 40
0.2890881758063001
 40
0.3002084900842124
 40
0.3113287752249869
 40
0.3224489590057126
 40
0.333568978770492
 40
0.3446887878835551
 40
0.3558083619716392
 40
0.3669277047935796
 40
0.3780468538799339
 40
0.3891658858459656
 40
0.4817278577903993
 40
0.5742896888999819
 40
0.6668473400828266
 40
0.759404864150021
 40
0.8519911995756776
 40
0.9445774154399208
 40
0.9630484489867055
 40
0.9815289726764365
 40
1.0
 40
1.0
 40
1.0
 40
1.0
 10
239.7442657412985
 20
465.4961175720433
 30
0.0
 10
239.5923716512319
 20
465.495189284062
 30
0.0
 10
239.2885844922135
 20
465.49333271434
 30
0.0
 10
238.8331101060315
 20
465.478324192165
 30
0.0
 10
238.3780484197092
 20
465.4543807234938
 30
0.0
 10
237.9236041084934
 20
465.420638179492
 30
0.0
 10
237.4699806905557
 20
465.3773490303201
 30
0.0
 10
237.0173805866713
 20
465.3244706194447
 30
0.0
 10
236.5660051706502
 20
465.262043624344
 30
0.0
 10
236.116054822147
 20
465.190090847986
 30
0.0
 10
235.6677289787382
 20
465.1086445342759
 30
0.0
 10
235.2212261881055
 20
465.0177392462895
 30
0.0
 10
234.7767441600996
 20
464.9174139716554
 30
0.0
 10
234.3344798187807
 20
464.807711755406
 30
0.0
 10
233.8946293543051
 20
464.6886799954256
 30
0.0
 10
233.4573882751237
 20
464.5603705594651
 30
0.0
 10
233.0229514588019
 20
464.422839952732
 30
0.0
 10
232.5915132077845
 20
464.2761494610253
 30
0.0
 10
232.1632672864681
 20
464.1203653404839
 30
0.0
 10
231.7384068493645
 20
463.9555587743212
 30
0.0
 10
231.3171222900951
 20
463.7818056591033
 30
0.0
 10
230.8996012447748
 20
463.5991832855954
 30
0.0
 10
230.4860284201902
 20
463.4077715603933
 30
0.0
 10
230.0765869569459
 20
463.2076548502342
 30
0.0
 10
229.6714595385814
 20
462.9989220309653
 30
0.0
 10
229.2708280476899
 20
462.7816664236618
 30
0.0
 10
228.8748732484265
 20
462.5559856120725
 30
0.0
 10
228.4837744558824
 20
462.3219812889366
 30
0.0
 10
228.0977092111102
 20
462.0797590978245
 30
0.0
 10
227.7168529462374
 20
461.8294284651592
 30
0.0
 10
227.3413786830849
 20
461.5711024771073
 30
0.0
 10
226.971456607004
 20
461.3048975877842
 30
0.0
 10
226.6072541050433
 20
461.0309339577484
 30
0.0
 10
226.248934072833
 20
460.7493334383588
 30
0.0
 10
225.8966596865763
 20
460.460226344242
 30
0.0
 10
225.5505750273273
 20
460.1637254518246
 30
0.0
 10
224.3814871223406
 20
459.1185192180591
 30
0.0
 10
222.55767504275
 20
457.1318141730987
 30
0.0
 10
220.5124981958008
 20
453.9146869245221
 30
0.0
 10
219.0624616172849
 20
450.3881139596269
 30
0.0
 10
218.2532604442036
 20
446.6615513002566
 30
0.0
 10
218.1101134668024
 20
442.8514102717801
 30
0.0
 10
218.4966856246148
 20
440.0796955074611
 30
0.0
 10
218.9258254624201
 20
438.3629344483227
 30
0.0
 10
219.1333868849075
 20
437.6345648563848
 30
0.0
 10
219.2932049392255
 20
437.1557047443295
 30
0.0
 10
219.3730934301591
 20
436.9163362206441
 30
0.0
  0
LINE
  5
DA
330
1F
100
AcDbEntity
  8
0
  6
Continuous
 62
     8
370
    18
100
AcDbLine
 10
252.5583660256
 20
357.9461178239
 30
0.0
 11
252.5583660256
 21
359.3961178239
 31
0.0
  0
LINE
  5
DB
330
1F
100
AcDbEntity
  8
0
  6
Continuous
 62
     8
370
    18
100
AcDbLine
 10
255.2583290147
 20
360.6319807216
 30
0.0
 11
253.8083488909
 21
360.6395728691
 31
0.0
  0
LINE
  5
DC
330
1F
100
AcDbEntity
  8
0
  6
Continuous
 62
     8
370
    18
100
AcDbLine
 10
226.9301654562
 20
357.9461178239
 30
0.0
 11
226.9301654562
 21
359.3961178239
 31
0.0
  0
LINE
  5
DD
330
1F
100
AcDbEntity
  8
0
  6
Continuous
 62
     8
370
    18
100
AcDbLine
 10
224.2302024672
 20
360.6319807216
 30
0.0
 11
225.6801825909
 21
360.6395728691
 31
0.0
  0
LINE
  5
DE
330
1F
100
AcDbEntity
  8
0
  6
Continuous
 62
     8
370
    18
100
AcDbLine
 10
225.4680999302
 20
401.1440073121
 30
0.0
 11
224.0181198062
 21
401.1364151645
 31
0.0
  0
LINE
  5
DF
330
1F
100
AcDbEntity
  8
0
  6
Continuous
 62
     8
370
    18
100
AcDbLine
 10
254.0204315516
 20
401.1440073121
 30
0.0
 11
255.4704116756
 21
401.1364151645
 31
0.0
  0
LINE
  5
E0
330
1F
100
AcDbEntity
  8
0
  6
Continuous
 62
     8
370
    18
100
AcDbLine
 10
207.5374561533
 20
478.9528890298
 30
0.0
 11
271.9510753285
 21
478.9528890298
 31
0.0
  0
LINE
  5
E1
330
1F
100
AcDbEntity
  8
0
  6
Continuous
 62
     8
370
    18
100
AcDbLine
 10
271.9510753285
 20
477.6529068499
 30
0.0
 11
271.9510753285
 21
478.9528890298
 31
0.0
  0
LINE
  5
E2
330
1F
100
AcDbEntity
  8
0
  6
Continuous
 62
     8
370
    18
100
AcDbLine
 10
271.9510753285
 20
477.6529068499
 30
0.0
 11
207.5374561533
 21
477.6529068499
 31
0.0
  0
LINE
  5
E3
330
1F
100
AcDbEntity
  8
0
  6
Continuous
 62
     8
370
    18
100
AcDbLine
 10
207.5374561533
 20
477.6529068499
 30
0.0
 11
207.5374561533
 21
478.9528890298
 31
0.0
  0
LINE
  5
E4
330
1F
100
AcDbEntity
  8
0
  6
Continuous
 62
     8
370
    18
100
AcDbLine
 10
271.9510753285
 20
408.939346618
 30
0.0
 11
255.642249361
 21
408.939346618
 31
0.0
  0
LINE
  5
E5
330
1F
100
AcDbEntity
  8
0
  6
Continuous
 62
     8
370
    18
100
AcDbLine
 10
223.8462821209
 20
408.939346618
 30
0.0
 11
207.5374561533
 21
408.939346618
 31
0.0
  0
LINE
  5
E6
330
1F
100
AcDbEntity
  8
0
  6
Continuous
 62
     8
370
    18
100
AcDbLine
 10
207.5374561533
 20
410.239328798
 30
0.0
 11
207.5374561533
 21
408.939346618
 31
0.0
  0
LINE
  5
E7
330
1F
100
AcDbEntity
  8
0
  6
Continuous
 62
     8
370
    18
100
AcDbLine
 10
207.5374561533
 20
410.239328798
 30
0.0
 11
223.7877681752
 21
410.239328798
 31
0.0
  0
LINE
  5
E8
330
1F
100
AcDbEntity
  8
0
  6
Continuous
 62
     8
370
    18
100
AcDbLine
 10
255.7007633066
 20
410.239328798
 30
0.0
 11
271.9510753285
 21
410.239328798
 31
0.0
  0
LINE
  5
E9
330
1F
100
AcDbEntity
  8
0
  6
Continuous
 62
     8
370
    18
100
AcDbLine
 10
271.9510753285
 20
410.239328798
 30
0.0
 11
271.9510753285
 21
408.939346618
 31
0.0
  0
LINE
  5
EA
330
1F
100
AcDbEntity
  8
0
  6
Continuous
 62
     8
370
    18
100
AcDbLine
 10
204.737494535
 20
411.7393082363
 30
0.0
 11
204.737494535
 21
476.1529274115
 31
0.0
  0
LINE
  5
EB
330
1F
100
AcDbEntity
  8
0
  6
Continuous
 62
     8
370
    18
100
AcDbLine
 10
206.037476715
 20
476.1529274115
 30
0.0
 11
204.737494535
 21
476.1529274115
 31
0.0
  0
LINE
  5
EC
330
1F
100
AcDbEntity
  8
0
  6
Continuous
 62
     8
370
    18
100
AcDbLine
 10
206.037476715
 20
476.1529274115
 30
0.0
 11
206.037476715
 21
411.7393082363
 31
0.0
  0
LINE
  5
ED
330
1F
100
AcDbEntity
  8
0
  6
Continuous
 62
     8
370
    18
100
AcDbLine
 10
206.037476715
 20
411.7393082363
 30
0.0
 11
204.737494535
 21
411.7393082363
 31
0.0
  0
ARC
  5
EE
330
1F
100
AcDbEntity
  8
0
  6
Continuous
 62
     8
370
    18
100
AcDbCircle
 10
207.5374972769
 20
411.7393493599
 30
0.0
 40
2.800002742134391
100
AcDbArc
 50
180.0008415011
 51
269.9991584989
  0
ELLIPSE
  5
EF
330
1F
100
AcDbEntity
  8
0
  6
Continuous
 62
     8
370
    18
100
AcDbEllipse
 10
207.5374972769
 20
411.7393493599
 30
0.0
 11
1.060689250513491
 21
1.060689250513519
 31
0.0
210
0.0
220
0.0
230
1.0
 40
0.9999725851
 41
2.356208197850967
 42
3.926977109328587
  0
ARC
  5
F0
330
1F
100
AcDbEntity
  8
0
  6
Continuous
 62
     8
370
    18
100
AcDbCircle
 10
271.951034205
 20
476.152886288
 30
0.0
 40
2.800002742134363
100
AcDbArc
 50
0.0008415011
 51
89.9991584989
  0
LINE
  5
F1
330
1F
100
AcDbEntity
  8
0
  6
Continuous
 62
     8
370
    18
100
AcDbLine
 10
273.4510547669
 20
476.1529274115
 30
0.0
 11
274.7510369468
 21
476.1529274115
 31
0.0
  0
ELLIPSE
  5
F2
330
1F
100
AcDbEntity
  8
0
  6
Continuous
 62
     8
370
    18
100
AcDbEllipse
 10
271.951034205
 20
476.152886288
 30
0.0
 11
-1.060689250513519
 21
-1.060689250513519
 31
0.0
210
0.0
220
0.0
230
1.0
 40
0.9999725851
 41
2.356208197850961
 42
3.92697710932864
  0
ARC
  5
F3
330
1F
100
AcDbEntity
  8
0
  6
Continuous
 62
     8
370
    18
100
AcDbCircle
 10
207.5374972769
 20
476.152886288
 30
0.0
 40
2.800002742134391
100
AcDbArc
 50
90.0008415011
 51
179.9991584989
  0
ELLIPSE
  5
F4
330
1F
100
AcDbEntity
  8
0
  6
Continuous
 62
     8
370
    18
100
AcDbEllipse
 10
207.5374972769
 20
476.152886288
 30
0.0
 11
1.060689250513491
 21
-1.060689250513519
 31
0.0
210
0.0
220
0.0
230
1.0
 40
0.9999725851
 41
2.356208197850993
 42
3.926977109328653
  0
ARC
  5
F5
330
1F
100
AcDbEntity
  8
0
  6
Continuous
 62
     8
370
    18
100
AcDbCircle
 10
271.951034205
 20
411.7393493599
 30
0.0
 40
2.800002742134363
100
AcDbArc
 50
270.0008415011
 51
359.9991584989
  0
ELLIPSE
  5
F6
330
1F
100
AcDbEntity
  8
0
  6
Continuous
 62
     8
370
    18
100
AcDbEllipse
 10
271.951034205
 20
411.7393493599
 30
0.0
 11
-1.060689250513519
 21
1.060689250513519
 31
0.0
210
0.0
220
0.0
230
1.0
 40
0.9999725851
 41
2.356208197850961
 42
3.92697710932864
  0
LINE
  5
F7
330
1F
100
AcDbEntity
  8
0
  6
Continuous
 62
     8
370
    18
100
AcDbLine
 10
273.4510547669
 20
411.7393082363
 30
0.0
 11
274.7510369468
 21
411.7393082363
 31
0.0
  0
LINE
  5
F8
330
1F
100
AcDbEntity
  8
0
  6
Continuous
 62
     8
370
    18
100
AcDbLine
 10
273.4510547669
 20
411.7393082363
 30
0.0
 11
273.4510547669
 21
476.1529274115
 31
0.0
  0
LINE
  5
F9
330
1F
100
AcDbEntity
  8
0
  6
Continuous
 62
     8
370
    18
100
AcDbLine
 10
274.7510369468
 20
476.1529274115
 30
0.0
 11
274.7510369468
 21
411.7393082363
 31
0.0
  0
LINE
  5
FA
330
1F
100
AcDbEntity
  8
0
  6
Continuous
 62
     8
370
    18
100
AcDbLine
 10
274.7913900614
 20
476.1932805261
 30
0.0
 11
274.7510369468
 21
476.1529274115
 31
0.0
  0
LINE
  5
FB
330
1F
100
AcDbEntity
  8
0
  6
Continuous
 62
     8
370
    18
100
AcDbLine
 10
271.9510753285
 20
478.9528890298
 30
0.0
 11
271.9914284431
 21
478.9932421444
 31
0.0
  0
LINE
  5
FC
330
1F
100
AcDbEntity
  8
0
  6
Continuous
 62
     8
370
    18
100
AcDbLine
 10
207.4971030388
 20
478.9932421444
 30
0.0
 11
207.5374561533
 21
478.9528890298
 31
0.0
  0
LINE
  5
FD
330
1F
100
AcDbEntity
  8
0
  6
Continuous
 62
     8
370
    18
100
AcDbLine
 10
204.737494535
 20
476.1529274115
 30
0.0
 11
204.6971414205
 21
476.1932805261
 31
0.0
  0
LINE
  5
FE
330
1F
100
AcDbEntity
  8
0
  6
Continuous
 62
     8
370
    18
100
AcDbLine
 10
271.9914284431
 20
408.8989935035
 30
0.0
 11
271.9510753285
 21
408.939346618
 31
0.0
  0
LINE
  5
FF
330
1F
100
AcDbEntity
  8
0
  6
Continuous
 62
     8
370
    18
100
AcDbLine
 10
274.7510369468
 20
411.7393082363
 30
0.0
 11
274.7913900614
 21
411.6989551218
 31
0.0
  0
LINE
  5
100
330
1F
100
AcDbEntity
  8
0
  6
Continuous
 62
     8
370
    18
100
AcDbLine
 10
204.6971414205
 20
411.6989551218
 30
0.0
 11
204.737494535
 21
411.7393082363
 31
0.0
  0
LINE
  5
101
330
1F
100
AcDbEntity
  8
0
  6
Continuous
 62
     8
370
    18
100
AcDbLine
 10
207.5374561533
 20
408.939346618
 30
0.0
 11
207.4971030388
 21
408.8989935035
 31
0.0
  0
LINE
  5
102
330
1F
100
AcDbEntity
  8
0
  6
Continuous
 62
     8
370
    18
100
AcDbLine
 10
108.0964949599
 20
444.9164201991
 30
0.0
 11
108.0964949599
 21
455.4333710846
 31
0.0
  0
LINE
  5
103
330
1F
100
AcDbEntity
  8
0
  6
Continuous
 62
     8
370
    18
100
AcDbLine
 10
151.392036522
 20
444.9164201991
 30
0.0
 11
151.392036522
 21
455.4408582011
 31
0.0
  0
ARC
  5
104
330
1F
100
AcDbEntity
  8
0
  6
Continuous
 62
     8
370
    18
100
AcDbCircle
 10
109.1588556478
 20
455.440810615
 30
0.0
 40
1.062360687932079
100
AcDbArc
 50
90.1832736746
 51
179.9999132138
  0
SPLINE
  5
105
330
1F
100
AcDbEntity
  8
0
  6
Continuous
 62
     8
370
    18
100
AcDbSpline
210
0.0
220
0.0
230
1.0
 70
     8
 71
     3
 72
    17
 73
    13
 74
     0
 42
0.000000001
 43
0.00000001
 40
0.0
 40
0.0
 40
0.0
 40
0.0
 40
0.1013633771747023
 40
0.1844909747203452
 40
0.249577574254169
 40
0.3463583534454945
 40
0.4288178211139235
 40
0.5004888050303243
 40
0.6111399394795693
 40
0.7503099099639949
 40
0.854674389183966
 40
1.0
 40
1.0
 40
1.0
 40
1.0
 10
109.155457449589
 20
456.5031658679542
 30
0.0
 10
109.1565186949447
 20
456.5029008299642
 30
0.0
 10
109.1584502622972
 20
456.5024184356469
 30
0.0
 10
109.1755004126959
 20
456.5018453188886
 30
0.0
 10
109.2120365910711
 20
456.5013490269803
 30
0.0
 10
109.2863891075205
 20
456.5009581190749
 30
0.0
 10
109.4181737180302
 20
456.5006742901425
 30
0.0
 10
109.6366087783254
 20
456.5005337291034
 30
0.0
 10
110.0300400774319
 20
456.500683032266
 30
0.0
 10
110.510454987536
 20
456.5010319475285
 30
0.0
 10
111.0479869739201
 20
456.5015419500629
 30
0.0
 10
111.3940028042142
 20
456.5018991232069
 30
0.0
 10
111.5953923022205
 20
456.5021070065286
 30
0.0
  0
SPLINE
  5
106
330
1F
100
AcDbEntity
  8
0
  6
Continuous
 62
     8
370
    25
100
AcDbSpline
210
0.0
220
0.0
230
1.0
 70
     8
 71
     3
 72
    15
 73
    11
 74
     0
 42
0.000000001
 43
0.00000001
 40
0.0
 40
0.0
 40
0.0
 40
0.0
 40
0.1024824867629594
 40
0.238823676494409
 40
0.3951006587700908
 40
0.4976047488058852
 40
0.6038706316132196
 40
0.758190138468252
 40
0.9007298936204959
 40
1.0
 40
1.0
 40
1.0
 40
1.0
 10
111.5813178492827
 20
443.9754997731237
 30
0.0
 10
111.4236644488003
 20
443.9779545036024
 30
0.0
 10
111.0562712882292
 20
443.9836749713255
 30
0.0
 10
110.4498635441952
 20
443.9999152127893
 30
0.0
 10
109.860616653493
 20
444.014839608126
 30
0.0
 10
109.3774017493093
 20
444.0219982089955
 30
0.0
 10
109.0602577374649
 20
444.0078400382905
 30
0.0
 10
108.8807544197469
 20
443.984369826896
 30
0.0
 10
108.8162523115668
 20
443.9595074487887
 30
0.0
 10
108.8087055321232
 20
443.9485813253021
 30
0.0
 10
108.8056073557567
 20
443.9440958281683
 30
0.0
  0
ARC
  5
107
330
1F
100
AcDbEntity
  8
0
  6
Continuous
 62
     8
370
    25
100
AcDbCircle
 10
109.1114475017
 20
444.9118718825
 30
0.0
 40
1.01495255369909
100
AcDbArc
 50
180.0087420688
 51
252.4622304746
  0
ARC
  5
108
330
1F
100
AcDbEntity
  8
0
  6
Continuous
 62
     8
370
    25
100
AcDbCircle
 10
150.3770839801
 20
444.9118718825
 30
0.0
 40
1.01495255369892
100
AcDbArc
 50
287.5377695254
 51
359.9912579312
  0
SPLINE
  5
109
330
1F
100
AcDbEntity
  8
0
  6
Continuous
 62
     8
370
    25
100
AcDbSpline
210
0.0
220
0.0
230
1.0
 70
     8
 71
     3
 72
    18
 73
    14
 74
     0
 42
0.000000001
 43
0.00000001
 40
0.0
 40
0.0
 40
0.0
 40
0.0
 40
0.2499999999999989
 40
0.2499999999999989
 40
0.3749999999999983
 40
0.3749999999999983
 40
0.4999999999999978
 40
0.4999999999999978
 40
0.6249999999999972
 40
0.6249999999999972
 40
0.7499999999999967
 40
0.7499999999999967
 40
1.0
 40
1.0
 40
1.0
 40
1.0
 10
150.682924126077
 20
443.9440958281683
 30
0.0
 10
150.6753840295996
 20
443.9528028900867
 30
0.0
 10
150.6631257568528
 20
443.9679726482416
 30
0.0
 10
150.5539829543205
 20
443.9909930547732
 30
0.0
 10
150.5035996667209
 20
443.9986134417941
 30
0.0
 10
150.3466158464621
 20
444.0119587274176
 30
0.0
 10
150.2370830949998
 20
444.0175797815347
 30
0.0
 10
149.9298968524464
 20
444.0203702211482
 30
0.0
 10
149.7464860799826
 20
444.0174207582091
 30
0.0
 10
149.3807444265472
 20
444.0092376000296
 30
0.0
 10
149.1923950706726
 20
444.0039259009562
 30
0.0
 10
148.6311270550099
 20
443.9888004124318
 30
0.0
 10
148.2628834975362
 20
443.9795825601239
 30
0.0
 10
147.9072136325508
 20
443.9754997731238
 30
0.0
  0
SPLINE
  5
10A
330
1F
100
AcDbEntity
  8
0
  6
Continuous
 62
     8
370
    18
100
AcDbSpline
210
0.0
220
0.0
230
1.0
 70
     8
 71
     3
 72
     8
 73
     4
 74
     0
 42
0.000000001
 43
0.00000001
 40
0.0
 40
0.0
 40
0.0
 40
0.0
 40
1.0
 40
1.0
 40
1.0
 40
1.0
 10
111.5953923022205
 20
456.5021070065286
 30
0.0
 10
117.6450168092513
 20
456.5083823110954
 30
0.0
 10
123.694641316271
 20
456.5083100296108
 30
0.0
 10
129.7442658232908
 20
456.5083003308635
 30
0.0
  0
SPLINE
  5
10B
330
1F
100
AcDbEntity
  8
0
  6
Continuous
 62
     8
370
    18
100
AcDbSpline
210
0.0
220
0.0
230
1.0
 70
     8
 71
     3
 72
    17
 73
    13
 74
     0
 42
0.000000001
 43
0.00000001
 40
0.0
 40
0.0
 40
0.0
 40
0.0
 40
0.1014221813722762
 40
0.1845838270053712
 40
0.2496794023070958
 40
0.3464937167668059
 40
0.4289771292931697
 40
0.5006612644418041
 40
0.6112884877235225
 40
0.7504117062930349
 40
0.8547533127487653
 40
1.0
 40
1.0
 40
1.0
 40
1.0
 10
147.8931391105735
 20
456.502106572134
 30
0.0
 10
148.0336618315307
 20
456.5019617036288
 30
0.0
 10
148.2894068891162
 20
456.5016980494385
 30
0.0
 10
148.6350813557764
 20
456.5013545471215
 30
0.0
 10
148.9728848320829
 20
456.5010458041157
 30
0.0
 10
149.3046821216034
 20
456.5007956406087
 30
0.0
 10
149.6286899548146
 20
456.5006103731394
 30
0.0
 10
149.9303988020889
 20
456.500544160557
 30
0.0
 10
150.1651043720621
 20
456.5007864249882
 30
0.0
 10
150.2826465471878
 20
456.501323874399
 30
0.0
 10
150.3282576038301
 20
456.5021424327257
 30
0.0
 10
150.3313022262228
 20
456.5027888567714
 30
0.0
 10
150.3330740293387
 20
456.5031650400843
 30
0.0
  0
ARC
  5
10C
330
1F
100
AcDbEntity
  8
0
  6
Continuous
 62
     8
370
    18
100
AcDbCircle
 10
150.3296758369
 20
455.44080979
 30
0.0
 40
1.062360685034601
100
AcDbArc
 50
0.0000867825
 51
89.8167266379
  0
SPLINE
  5
10D
330
1F
100
AcDbEntity
  8
0
  6
Continuous
 62
     8
370
    18
100
AcDbSpline
210
0.0
220
0.0
230
1.0
 70
     8
 71
     3
 72
     8
 73
     4
 74
     0
 42
0.000000001
 43
0.00000001
 40
0.0
 40
0.0
 40
0.0
 40
0.0
 40
1.0
 40
1.0
 40
1.0
 40
1.0
 10
129.7442658232909
 20
456.5083003308635
 30
0.0
 10
135.7938902523887
 20
456.5083090948511
 30
0.0
 10
141.8435146814867
 20
456.5083814849745
 30
0.0
 10
147.8931391105735
 20
456.502106572134
 30
0.0
  0
SPLINE
  5
10E
330
1F
100
AcDbEntity
  8
0
  6
Continuous
 62
     8
370
    25
100
AcDbSpline
210
0.0
220
0.0
230
1.0
 70
     8
 71
     3
 72
    16
 73
    12
 74
     0
 42
0.000000001
 43
0.00000001
 40
0.0
 40
0.0
 40
0.0
 40
0.0
 40
0.237077181085075
 40
0.4996869929446803
 40
0.5946279517368557
 40
0.699540982840362
 40
0.8009646074506522
 40
0.8817948095758572
 40
0.9419599926250767
 40
0.9813843223822942
 40
1.0
 40
1.0
 40
1.0
 40
1.0
 10
129.7442657409168
 20
443.9489989440506
 30
0.0
 10
128.3089183129722
 20
443.9494230607385
 30
0.0
 10
125.2836400604729
 20
443.9503169704411
 30
0.0
 10
121.6835608238586
 20
443.9548421938367
 30
0.0
 10
118.8836511666663
 20
443.959349698137
 30
0.0
 10
117.0596156539684
 20
443.9625888658152
 30
0.0
 10
115.321017052799
 20
443.9658126189992
 30
0.0
 10
113.8533226003097
 20
443.9685498846607
 30
0.0
 10
112.7610267718541
 20
443.9712178742461
 30
0.0
 10
112.0453245909596
 20
443.9727942683753
 30
0.0
 10
111.6940009453425
 20
443.9748427467833
 30
0.0
 10
111.5813178492837
 20
443.9754997731238
 30
0.0
  0
SPLINE
  5
10F
330
1F
100
AcDbEntity
  8
0
  6
Continuous
 62
     8
370
    25
100
AcDbSpline
210
0.0
220
0.0
230
1.0
 70
     8
 71
     3
 72
    12
 73
     8
 74
     0
 42
0.000000001
 43
0.00000001
 40
0.0
 40
0.0
 40
0.0
 40
0.0
 40
0.2499999999999997
 40
0.2499999999999997
 40
0.4999999999999994
 40
0.4999999999999994
 40
1.0
 40
1.0
 40
1.0
 40
1.0
 10
147.9072136325499
 20
443.9754997731238
 30
0.0
 10
146.3732007690502
 20
443.9578906600553
 30
0.0
 10
144.8699051839106
 20
443.9671848937845
 30
0.0
 10
141.8450825477487
 20
443.9614893338098
 30
0.0
 10
140.3326198430788
 20
443.9588190799182
 30
0.0
 10
135.7950407906727
 20
443.9519526702339
 30
0.0
 10
132.7693162825832
 20
443.9489989193827
 30
0.0
 10
129.7442657409168
 20
443.9489989440506
 30
0.0
  0
SPLINE
  5
110
330
1F
100
AcDbEntity
  8
0
  6
Continuous
 62
     8
370
    18
100
AcDbSpline
210
0.0
220
0.0
230
1.0
 70
     8
 71
     3
 72
    12
 73
     8
 74
     0
 42
0.000000001
 43
0.00000001
 40
0.0
 40
0.0
 40
0.0
 40
0.0
 40
0.5000000000000022
 40
0.5000000000000022
 40
0.7500000000000011
 40
0.7500000000000011
 40
1.0
 40
1.0
 40
1.0
 40
1.0
 10
150.8092936685054
 20
443.7238454289226
 30
0.0
 10
150.7963314463412
 20
443.7506051515587
 30
0.0
 10
150.77531923424
 20
443.7847423279094
 30
0.0
 10
150.7420625724723
 20
443.8416264986902
 30
0.0
 10
150.730745409689
 20
443.8614446287325
 30
0.0
 10
150.7090684421735
 20
443.9013790592139
 30
0.0
 10
150.715541823422
 20
443.9064301942699
 30
0.0
 10
150.6829241260768
 20
443.9440958281684
 30
0.0
  0
SPLINE
  5
111
330
1F
100
AcDbEntity
  8
0
  6
Continuous
 62
     8
370
    18
100
AcDbSpline
210
0.0
220
0.0
230
1.0
 70
     8
 71
     3
 72
    16
 73
    12
 74
     0
 42
0.000000001
 43
0.00000001
 40
0.0
 40
0.0
 40
0.0
 40
0.0
 40
0.1116636678600935
 40
0.2231664293871219
 40
0.3345174844646762
 40
0.4457264132192127
 40
0.5568034000425819
 40
0.6677590547864268
 40
0.7786039559590059
 40
0.8893480445928372
 40
1.0
 40
1.0
 40
1.0
 40
1.0
 10
150.8058193161687
 20
443.7214440268574
 30
0.0
 10
150.4940532597882
 20
443.532468608963
 30
0.0
 10
149.8709703990879
 20
443.1547900850383
 30
0.0
 10
148.9305156675385
 20
442.5994637305333
 30
0.0
 10
147.9866724500984
 20
442.0528950559147
 30
0.0
 10
147.0389751745476
 20
441.5158406852796
 30
0.0
 10
146.0875631086243
 20
440.9880562255216
 30
0.0
 10
145.1324737392663
 20
440.4694377721044
 30
0.0
 10
144.1736596232674
 20
439.9600617228207
 30
0.0
 10
143.2115646127896
 20
439.4590298057971
 30
0.0
 10
142.5667233404966
 20
439.1324362290406
 30
0.0
 10
142.2444368786244
 20
438.9692073960771
 30
0.0
  0
SPLINE
  5
112
330
1F
100
AcDbEntity
  8
0
  6
Continuous
 62
     8
370
    18
100
AcDbSpline
210
0.0
220
0.0
230
1.0
 70
     8
 71
     3
 72
     8
 73
     4
 74
     0
 42
0.000000001
 43
0.00000001
 40
0.066051788496381
 40
0.066051788496381
 40
0.066051788496381
 40
0.066051788496381
 40
1.0
 40
1.0
 40
1.0
 40
1.0
 10
108.6827803161436
 20
443.7215557983262
 30
0.0
 10
111.4730026598713
 20
442.0203058438619
 30
0.0
 10
114.323096569796
 20
440.4384192915628
 30
0.0
 10
117.2442657409168
 20
438.9696352727129
 30
0.0
  0
SPLINE
  5
113
330
1F
100
AcDbEntity
  8
0
  6
Continuous
 62
     8
370
    18
100
AcDbSpline
210
0.0
220
0.0
230
1.0
 70
     8
 71
     3
 72
    17
 73
    13
 74
     0
 42
0.000000001
 43
0.00000001
 40
0.0
 40
0.0
 40
0.0
 40
0.0
 40
0.0117953204103762
 40
0.0430807758439759
 40
0.0938550550847704
 40
0.1640517278709982
 40
0.2266730900471727
 40
0.2862408455259112
 40
0.3959126070769388
 40
0.5003028279328438
 40
0.7502095136947017
 40
1.0
 40
1.0
 40
1.0
 40
1.0
 10
108.8056073557568
 20
443.9440958281684
 30
0.0
 10
108.8026077392479
 20
443.9430231560234
 30
0.0
 10
108.7916520549644
 20
443.9391053694245
 30
0.0
 10
108.7877068249303
 20
443.9316013916478
 30
0.0
 10
108.7836960357832
 20
443.9189440356968
 30
0.0
 10
108.7778432105462
 20
443.903641262632
 30
0.0
 10
108.7715956804279
 20
443.8875085635544
 30
0.0
 10
108.7619457015079
 20
443.8687822940084
 30
0.0
 10
108.7495325745398
 20
443.8471693133632
 30
0.0
 10
108.7289421251174
 20
443.8112729346396
 30
0.0
 10
108.7018065409914
 20
443.7671644890801
 30
0.0
 10
108.6867595562086
 20
443.7382828769342
 30
0.0
 10
108.6792378133283
 20
443.7238454289226
 30
0.0
  0
SPLINE
  5
114
330
1F
100
AcDbEntity
  8
0
  6
Continuous
 62
     8
370
    18
100
AcDbSpline
210
0.0
220
0.0
230
1.0
 70
     8
 71
     3
 72
    27
 73
    23
 74
     0
 42
0.000000001
 43
0.00000001
 40
0.0
 40
0.0
 40
0.0
 40
0.0
 40
0.0117653501344907
 40
0.0448758823004706
 40
0.0713443537434275
 40
0.1507419570816693
 40
0.2561962770531901
 40
0.3628621851138966
 40
0.4429086499397529
 40
0.522954372952944
 40
0.5763216849268463
 40
0.6031532128095802
 40
0.629983686396805
 40
0.6836430986591268
 40
0.7235500657906695
 40
0.7501548028434415
 40
0.763457131821508
 40
0.8429063662426735
 40
0.8693329470471918
 40
0.8957591861467001
 40
0.9478793308939382
 40
1.0
 40
1.0
 40
1.0
 40
1.0
 10
150.3339577957694
 20
456.5048820858195
 30
0.0
 10
150.2648492757081
 20
456.5052581814527
 30
0.0
 10
150.0012527165933
 20
456.5066927008829
 30
0.0
 10
149.5768900850617
 20
456.5091261915305
 30
0.0
 10
148.7391560273951
 20
456.5141359811504
 30
0.0
 10
147.4345716918797
 20
456.5224095568685
 30
0.0
 10
145.5665125465711
 20
456.5345961363804
 30
0.0
 10
143.6250419120032
 20
456.5467264637754
 30
0.0
 10
141.8043357312625
 20
456.5571215318333
 30
0.0
 10
140.3182108507451
 20
456.5647303482085
 30
0.0
 10
139.1869563270855
 20
456.5698740497361
 30
0.0
 10
138.4257822892177
 20
456.5730556130162
 30
0.0
 10
137.659015977088
 20
456.576068294569
 30
0.0
 10
136.7932037014329
 20
456.579136763351
 30
0.0
 10
135.9235223534694
 20
456.5818142053286
 30
0.0
 10
135.3436297470666
 20
456.5834047217253
 30
0.0
 10
134.4746229439379
 20
456.5856116244333
 30
0.0
 10
133.6025904638536
 20
456.5874115312507
 30
0.0
 10
132.6313543739127
 20
456.5888804377002
 30
0.0
 10
131.8595952014515
 20
456.5898294893002
 30
0.0
 10
130.8972077711835
 20
456.5906543220833
 30
0.0
 10
130.1285810407884
 20
456.5907755542981
 30
0.0
 10
129.7442657423931
 20
456.5908361707105
 30
0.0
  0
LINE
  5
115
330
1F
100
AcDbEntity
  8
0
  6
Continuous
 62
     8
370
    18
100
AcDbLine
 10
150.3330740293
 20
456.5031650401
 30
0.0
 11
150.3335948554
 21
456.5048840443
 31
0.0
  0
LINE
  5
116
330
1F
100
AcDbEntity
  8
0
  6
Continuous
 62
     8
370
    18
100
AcDbLine
 10
109.1549366142
 20
456.5048848764
 30
0.0
 11
109.1554574496
 21
456.503165868
 31
0.0
  0
SPLINE
  5
117
330
1F
100
AcDbEntity
  8
0
  6
Continuous
 62
     8
370
    18
100
AcDbSpline
210
0.0
220
0.0
230
1.0
 70
     8
 71
     3
 72
    29
 73
    25
 74
     0
 42
0.000000001
 43
0.00000001
 40
0.0
 40
0.0
 40
0.0
 40
0.0
 40
0.0123228845376739
 40
0.0457284022488467
 40
0.0723317643278583
 40
0.1521336915921097
 40
0.2306340341431054
 40
0.2568028195188877
 40
0.4156599515746461
 40
0.4687484369876255
 40
0.5218356448551658
 40
0.5882987451593775
 40
0.6150534766404507
 40
0.6284308080533739
 40
0.7086404725164192
 40
0.7353492548631443
 40
0.7487032994096531
 40
0.7887646392601713
 40
0.8550324919641641
 40
0.868287167615418
 40
0.9073522403979618
 40
0.9473970600018814
 40
0.9736984491244131
 40
1.0
 40
1.0
 40
1.0
 40
1.0
 10
109.1560547878555
 20
456.5048909109057
 30
0.0
 10
109.2284391915135
 20
456.5052850503423
 30
0.0
 10
109.4970470095044
 20
456.5067476435072
 30
0.0
 10
109.9274078024453
 20
456.5092191378528
 30
0.0
 10
110.7704534713732
 20
456.5142672574873
 30
0.0
 10
111.9124707164553
 20
456.5215162025158
 30
0.0
 10
113.0887699593325
 20
456.5291604732548
 30
0.0
 10
114.8004952460184
 20
456.5401440504031
 30
0.0
 10
116.3981419242185
 20
456.5500044397575
 30
0.0
 10
118.2246925671062
 20
456.559908351161
 30
0.0
 10
119.4295187774784
 20
456.5659462988591
 30
0.0
 10
120.4635219448402
 20
456.5706000463149
 30
0.0
 10
121.223112366596
 20
456.573690301059
 30
0.0
 10
122.0835092330894
 20
456.5770275934296
 30
0.0
 10
122.9503088894424
 20
456.5800025316213
 30
0.0
 10
123.8225329849359
 20
456.5825254091857
 30
0.0
 10
124.4049261145069
 20
456.5840917995037
 30
0.0
 10
125.2773632585439
 20
456.5862013372372
 30
0.0
 10
126.1534012600526
 20
456.5878386803387
 30
0.0
 10
127.0241298615378
 20
456.5891038200218
 30
0.0
 10
127.7033428133393
 20
456.5899063975872
 30
0.0
 10
128.4796986070248
 20
456.590496007941
 30
0.0
 10
129.1625419263763
 20
456.5907896194419
 30
0.0
 10
129.5503574052285
 20
456.5908206535892
 30
0.0
 10
129.7442657409172
 20
456.5908361707105
 30
0.0
  0
SPLINE
  5
118
330
1F
100
AcDbEntity
  8
0
  6
Continuous
 62
     8
370
    18
100
AcDbSpline
210
0.0
220
0.0
230
1.0
 70
     8
 71
     3
 72
    11
 73
     7
 74
     0
 42
0.000000001
 43
0.00000001
 40
0.0
 40
0.0
 40
0.0
 40
0.0
 40
0.4022371812388766
 40
0.7037011773803079
 40
0.903095142443507
 40
1.0
 40
1.0
 40
1.0
 40
1.0
 10
109.1463976401695
 20
456.5110793501302
 30
0.0
 10
109.1473958452367
 20
456.51036536367
 30
0.0
 10
109.1491421733084
 20
456.5091162670273
 30
0.0
 10
109.1433900289804
 20
456.5073711345021
 30
0.0
 10
109.1440196862933
 20
456.5060690115648
 30
0.0
 10
109.151704359669
 20
456.5049256539322
 30
0.0
 10
109.1542176405935
 20
456.5045517175541
 30
0.0
  0
SPLINE
  5
119
330
1F
100
AcDbEntity
  8
0
  6
Continuous
 62
     8
370
    18
100
AcDbSpline
210
0.0
220
0.0
230
1.0
 70
     8
 71
     3
 72
    10
 73
     6
 74
     0
 42
0.000000001
 43
0.00000001
 40
0.0
 40
0.0
 40
0.0
 40
0.0
 40
0.5
 40
0.5
 40
1.0
 40
1.0
 40
1.0
 40
1.0
 10
109.1347735993534
 20
456.5197539717772
 30
0.0
 10
109.1357998615944
 20
456.5182760128073
 30
0.0
 10
109.1370576733655
 20
456.5167954432638
 30
0.0
 10
109.1406306400136
 20
456.5138860809614
 30
0.0
 10
109.1431947130395
 20
456.5124679487694
 30
0.0
 10
109.1463976401695
 20
456.5110793501302
 30
0.0
  0
SPLINE
  5
11A
330
1F
100
AcDbEntity
  8
0
  6
Continuous
 62
     8
370
    18
100
AcDbSpline
210
0.0
220
0.0
230
1.0
 70
     8
 71
     3
 72
    16
 73
    12
 74
     0
 42
0.000000001
 43
0.00000001
 40
0.0
 40
0.0
 40
0.0
 40
0.0
 40
0.2499999999999999
 40
0.2499999999999999
 40
0.4999999999999998
 40
0.4999999999999998
 40
0.7499999999999999
 40
0.7499999999999999
 40
0.8749999999999999
 40
0.8749999999999999
 40
1.0
 40
1.0
 40
1.0
 40
1.0
 10
109.0749977624921
 20
456.5632711835654
 30
0.0
 10
109.0791846840831
 20
456.561412106183
 30
0.0
 10
109.0837549680795
 20
456.5564539544773
 30
0.0
 10
109.0927068494932
 20
456.5487092047283
 30
0.0
 10
109.0972582465324
 20
456.5454579486869
 30
0.0
 10
109.1066901334276
 20
456.5381554555037
 30
0.0
 10
109.1115557182361
 20
456.5343617529293
 30
0.0
 10
109.1194807812411
 20
456.5289286187723
 30
0.0
 10
109.1222297031804
 20
456.5271202139852
 30
0.0
 10
109.1281166476186
 20
456.5234620099886
 30
0.0
 10
109.1312477151441
 20
456.5216170598493
 30
0.0
 10
109.1347735993534
 20
456.5197539717772
 30
0.0
  0
SPLINE
  5
11B
330
1F
100
AcDbEntity
  8
0
  6
Continuous
 62
     8
370
    18
100
AcDbSpline
210
0.0
220
0.0
230
1.0
 70
     8
 71
     3
 72
    16
 73
    12
 74
     0
 42
0.000000001
 43
0.00000001
 40
0.0
 40
0.0
 40
0.0
 40
0.0
 40
0.125
 40
0.125
 40
0.2500000000000001
 40
0.2500000000000001
 40
0.5000000000000001
 40
0.5000000000000001
 40
0.75
 40
0.75
 40
1.0
 40
1.0
 40
1.0
 40
1.0
 10
150.3537578824802
 20
456.5197539717772
 30
0.0
 10
150.3572837666895
 20
456.5216170598493
 30
0.0
 10
150.360414834215
 20
456.5234620099886
 30
0.0
 10
150.3663017786533
 20
456.5271202139852
 30
0.0
 10
150.3690507005925
 20
456.5289286187723
 30
0.0
 10
150.3769757635976
 20
456.5343617529294
 30
0.0
 10
150.381841348406
 20
456.5381554555037
 30
0.0
 10
150.3912732353013
 20
456.5454579486869
 30
0.0
 10
150.3958246323405
 20
456.5487092047283
 30
0.0
 10
150.4047765137541
 20
456.5564539544773
 30
0.0
 10
150.4093467977504
 20
456.561412106183
 30
0.0
 10
150.4135337193415
 20
456.5632711835654
 30
0.0
  0
SPLINE
  5
11C
330
1F
100
AcDbEntity
  8
0
  6
Continuous
 62
     8
370
    18
100
AcDbSpline
210
0.0
220
0.0
230
1.0
 70
     8
 71
     3
 72
    10
 73
     6
 74
     0
 42
0.000000001
 43
0.00000001
 40
0.0
 40
0.0
 40
0.0
 40
0.0
 40
0.5
 40
0.5
 40
1.0
 40
1.0
 40
1.0
 40
1.0
 10
150.3421338416642
 20
456.5110793501302
 30
0.0
 10
150.3453367687941
 20
456.5124679487695
 30
0.0
 10
150.3479008418201
 20
456.5138860809614
 30
0.0
 10
150.3514738084681
 20
456.5167954432638
 30
0.0
 10
150.3527316202393
 20
456.5182760128073
 30
0.0
 10
150.3537578824803
 20
456.5197539717772
 30
0.0
  0
SPLINE
  5
11D
330
1F
100
AcDbEntity
  8
0
  6
Continuous
 62
     8
370
    18
100
AcDbSpline
210
0.0
220
0.0
230
1.0
 70
     8
 71
     3
 72
    11
 73
     7
 74
     0
 42
0.000000001
 43
0.00000001
 40
0.0
 40
0.0
 40
0.0
 40
0.0
 40
0.0969048698289253
 40
0.2962988390594264
 40
0.5977628312206787
 40
1.0
 40
1.0
 40
1.0
 40
1.0
 10
150.334313839935
 20
456.5045517159666
 30
0.0
 10
150.3368271223806
 20
456.5049256525703
 30
0.0
 10
150.3445117998606
 20
456.5060690108119
 30
0.0
 10
150.3451414588844
 20
456.5073711340865
 30
0.0
 10
150.3393893084101
 20
456.5091162668309
 30
0.0
 10
150.3411356365599
 20
456.5103653636021
 30
0.0
 10
150.3421338416642
 20
456.5110793501302
 30
0.0
  0
LINE
  5
11E
330
1F
100
AcDbEntity
  8
0
  6
Continuous
 62
     8
370
    18
100
AcDbLine
 10
108.0916745437
 20
444.770094647
 30
0.0
 11
108.0964949599
 21
444.9117170232
 31
0.0
  0
LINE
  5
11F
330
1F
100
AcDbEntity
  8
0
  6
Continuous
 62
     8
370
    18
100
AcDbLine
 10
108.0916745439
 20
455.4445151525
 30
0.0
 11
108.0916745437
 21
444.7726282335
 31
0.0
  0
LINE
  5
120
330
1F
100
AcDbEntity
  8
0
  6
Continuous
 62
     8
370
    18
100
AcDbLine
 10
108.0962748158
 20
455.4411812709
 30
0.0
 11
108.0916745439
 21
455.4445151525
 31
0.0
  0
LINE
  5
121
330
1F
100
AcDbEntity
  8
0
  6
Continuous
 62
     8
370
    18
100
AcDbLine
 10
108.0964949599
 20
455.4408122241
 30
0.0
 11
108.0962742872
 21
455.4422324956
 31
0.0
  0
LINE
  5
122
330
1F
100
AcDbEntity
  8
0
  6
Continuous
 62
     8
370
    18
100
AcDbLine
 10
151.396856939
 20
455.4445151531
 30
0.0
 11
151.3968569381
 21
444.7726282335
 31
0.0
  0
LINE
  5
123
330
1F
100
AcDbEntity
  8
0
  6
Continuous
 62
     8
370
    18
100
AcDbLine
 10
151.3968569381
 20
444.770094647
 30
0.0
 11
151.392036522
 21
444.9117170232
 31
0.0
  0
LINE
  5
124
330
1F
100
AcDbEntity
  8
0
  6
Continuous
 62
     8
370
    18
100
AcDbLine
 10
151.392257194
 20
455.4422316752
 30
0.0
 11
151.392036522
 21
455.4408113991
 31
0.0
  0
LINE
  5
125
330
1F
100
AcDbEntity
  8
0
  6
Continuous
 62
     8
370
    18
100
AcDbLine
 10
151.396856939
 20
455.4445151531
 30
0.0
 11
151.3922566655
 21
455.44118127
 31
0.0
  0
SPLINE
  5
126
330
1F
100
AcDbEntity
  8
0
  6
Continuous
 62
     8
370
    18
100
AcDbSpline
210
0.0
220
0.0
230
1.0
 70
     8
 71
     3
 72
    10
 73
     6
 74
     0
 42
0.000000001
 43
0.00000001
 40
0.0
 40
0.0
 40
0.0
 40
0.0
 40
0.5
 40
0.5
 40
1.0
 40
1.0
 40
1.0
 40
1.0
 10
108.0916745437112
 20
444.7700946470339
 30
0.0
 10
108.0916751263019
 20
444.5701070276784
 30
0.0
 10
108.143989025062
 20
444.3564368600398
 30
0.0
 10
108.3532432157663
 20
443.9838267178951
 30
0.0
 10
108.5084673770237
 20
443.827942585172
 30
0.0
 10
108.6792378133282
 20
443.7238454289226
 30
0.0
  0
SPLINE
  5
127
330
1F
100
AcDbEntity
  8
0
  6
Continuous
 62
     8
370
    18
100
AcDbSpline
210
0.0
220
0.0
230
1.0
 70
     8
 71
     3
 72
    10
 73
     6
 74
     0
 42
0.000000001
 43
0.00000001
 40
0.0
 40
0.0
 40
0.0
 40
0.0
 40
0.5
 40
0.5
 40
1.0
 40
1.0
 40
1.0
 40
1.0
 10
150.8093487453121
 20
443.7235961106473
 30
0.0
 10
150.980108792619
 20
443.8277113603882
 30
0.0
 10
151.135317790256
 20
443.9836065985816
 30
0.0
 10
151.3445506169586
 20
444.3562262353225
 30
0.0
 10
151.3968591433852
 20
444.5698958768499
 30
0.0
 10
151.396859674
 20
444.7698856067991
 30
0.0
  0
SPLINE
  5
128
330
1F
100
AcDbEntity
  8
0
  6
Continuous
 62
     8
370
    18
100
AcDbSpline
210
0.0
220
0.0
230
1.0
 70
     8
 71
     3
 72
    14
 73
    10
 74
     0
 42
0.000000001
 43
0.00000001
 40
0.0
 40
0.0
 40
0.0
 40
0.0
 40
0.25
 40
0.25
 40
0.5
 40
0.5
 40
0.75
 40
0.75
 40
1.0
 40
1.0
 40
1.0
 40
1.0
 10
109.1542162074979
 20
456.5048806559652
 30
0.0
 10
109.0291551807968
 20
456.5043250610187
 30
0.0
 10
108.8943835614201
 20
456.4809659680275
 30
0.0
 10
108.633692368034
 20
456.3766173037503
 30
0.0
 10
108.508577667262
 20
456.295286377167
 30
0.0
 10
108.3021789449363
 20
456.0877058530488
 30
0.0
 10
108.2215853881329
 20
455.9621532733428
 30
0.0
 10
108.118746043171
 20
455.7009799447868
 30
0.0
 10
108.0962745111923
 20
455.5662107973126
 30
0.0
 10
108.096274441094
 20
455.4411838400414
 30
0.0
  0
SPLINE
  5
129
330
1F
100
AcDbEntity
  8
0
  6
Continuous
 62
     8
370
    18
100
AcDbSpline
210
0.0
220
0.0
230
1.0
 70
     8
 71
     3
 72
    14
 73
    10
 74
     0
 42
0.000000001
 43
0.00000001
 40
0.0
 40
0.0
 40
0.0
 40
0.0
 40
0.25
 40
0.25
 40
0.5
 40
0.5
 40
0.75
 40
0.75
 40
1.0
 40
1.0
 40
1.0
 40
1.0
 10
150.3335930188942
 20
456.5045556218917
 30
0.0
 10
150.4585640110727
 20
456.5039160332556
 30
0.0
 10
150.5931585287578
 20
456.4807064279738
 30
0.0
 10
150.853658809273
 20
456.3766270033603
 30
0.0
 10
150.9787318336064
 20
456.295500182849
 30
0.0
 10
151.1852462575795
 20
456.0883302851531
 30
0.0
 10
151.2659979114615
 20
455.9629765614721
 30
0.0
 10
151.3692703254058
 20
455.7020390003321
 30
0.0
 10
151.3921327948324
 20
455.5672544088197
 30
0.0
 10
151.3922562226655
 20
455.4422309875848
 30
0.0
  0
ARC
  5
12A
330
1F
100
AcDbEntity
  8
0
  6
Continuous
 62
     8
370
    18
100
AcDbCircle
 10
109.1583053167
 20
455.444515047
 30
0.0
 40
1.066630772812066
100
AcDbArc
 50
90.6396531941
 51
179.9999943329
  0
ARC
  5
12B
330
1F
100
AcDbEntity
  8
0
  6
Continuous
 62
     8
370
    18
100
AcDbCircle
 10
150.330226164
 20
455.4445150448
 30
0.0
 40
1.066630775009938
100
AcDbArc
 50
0.0000058172
 51
89.3603467476
  0
LINE
  5
12C
330
1F
100
AcDbEntity
  8
0
  6
Continuous
 62
     8
370
    18
100
AcDbLine
 10
141.7442657409
 20
438.9696352727
 30
0.0
 11
142.2442657409
 21
438.9696352727
 31
0.0
  0
LINE
  5
12D
330
1F
100
AcDbEntity
  8
0
  6
Continuous
 62
     8
370
    18
100
AcDbLine
 10
117.7442657409
 20
438.9696352727
 30
0.0
 11
117.2442657409
 21
438.9696352727
 31
0.0
  0
LINE
  5
12E
330
1F
100
AcDbEntity
  8
0
  6
Continuous
 62
     8
370
    18
100
AcDbLine
 10
110.9589879312
 20
442.4581818451
 30
0.0
 11
108.7007157545
 21
443.6153142557
 31
0.0
  0
SPLINE
  5
12F
330
1F
100
AcDbEntity
  8
0
  6
Continuous
 62
     8
370
    18
100
AcDbSpline
210
0.0
220
0.0
230
1.0
 70
     8
 71
     3
 72
    13
 73
     9
 74
     0
 42
0.000000001
 43
0.00000001
 40
0.0
 40
0.0
 40
0.0
 40
0.0
 40
0.1073716779534747
 40
0.2265434756302794
 40
0.3575160807849833
 40
0.5002903411993
 40
0.8124436841281649
 40
1.0
 40
1.0
 40
1.0
 40
1.0
 10
108.6791827365216
 20
443.7235961106472
 30
0.0
 10
108.6749452619633
 20
443.7158496734058
 30
0.0
 10
108.6660046154855
 20
443.6995054674675
 30
0.0
 10
108.662686043207
 20
443.6816162203854
 30
0.0
 10
108.6657240694567
 20
443.6678639611821
 30
0.0
 10
108.6812699243049
 20
443.6563435000307
 30
0.0
 10
108.7031716476142
 20
443.6471563795996
 30
0.0
 10
108.7047619693183
 20
443.622134697742
 30
0.0
 10
108.7053588656853
 20
443.6127432953877
 30
0.0
  0
SPLINE
  5
130
330
1F
100
AcDbEntity
  8
0
  6
Continuous
 62
     8
370
    18
100
AcDbSpline
210
0.0
220
0.0
230
1.0
 70
     8
 71
     3
 72
     8
 73
     4
 74
     0
 42
0.000000001
 43
0.00000001
 40
0.0
 40
0.0
 40
0.0
 40
0.0
 40
1.0
 40
1.0
 40
1.0
 40
1.0
 10
150.7831726158668
 20
443.6127432959244
 30
0.0
 10
150.7735243875359
 20
443.6694260569702
 30
0.0
 10
150.8534507028097
 20
443.6549350356334
 30
0.0
 10
150.8093487453121
 20
443.7235961106473
 30
0.0
  0
LINE
  5
131
330
1F
100
AcDbEntity
  8
0
  6
Continuous
 62
     8
370
    18
100
AcDbLine
 10
148.7647660811
 20
442.5787092184
 30
0.0
 11
150.7878157273
 21
443.6153142557
 31
0.0
  0
SPLINE
  5
132
330
1F
100
AcDbEntity
  8
0
  6
Continuous
 62
     8
370
    18
100
AcDbSpline
210
0.0
220
0.0
230
1.0
 70
     8
 71
     3
 72
     8
 73
     4
 74
     0
 42
0.000000001
 43
0.00000001
 40
0.0
 40
0.0
 40
0.0
 40
0.0
 40
1.0
 40
1.0
 40
1.0
 40
1.0
 10
151.396859674
 20
444.7698856067991
 30
0.0
 10
151.3992869091
 20
444.7246808749063
 30
0.0
 10
151.4017143118879
 20
444.6919499348958
 30
0.0
 10
151.4041415747401
 20
444.6395674810278
 30
0.0
  0
LINE
  5
133
330
1F
100
AcDbEntity
  8
0
  6
Continuous
 62
     8
370
    18
100
AcDbLine
 10
151.4041563921
 20
455.4489304724
 30
0.0
 11
151.396856939
 21
455.4445151531
 31
0.0
  0
LINE
  5
134
330
1F
100
AcDbEntity
  8
0
  6
Continuous
 62
     8
370
    18
100
AcDbLine
 10
151.4041415748
 20
444.6396145943
 30
0.0
 11
151.4041563921
 21
455.4489304724
 31
0.0
  0
LINE
  5
135
330
1F
100
AcDbEntity
  8
0
  6
Continuous
 62
     8
370
    18
100
AcDbLine
 10
108.0843899071
 20
444.6395674811
 30
0.0
 11
108.0916718078
 21
444.7698856068
 31
0.0
  0
LINE
  5
136
330
1F
100
AcDbEntity
  8
0
  6
Continuous
 62
     8
370
    18
100
AcDbLine
 10
108.084389907
 20
444.6396145943
 30
0.0
 11
108.0843750898
 21
455.4488667439
 31
0.0
  0
LINE
  5
137
330
1F
100
AcDbEntity
  8
0
  6
Continuous
 62
     8
370
    18
100
AcDbLine
 10
108.0916745439
 20
455.4445151525
 30
0.0
 11
108.0843750897
 21
455.4489304724
 31
0.0
  0
SPLINE
  5
138
330
1F
100
AcDbEntity
  8
0
  6
Continuous
 62
     8
370
    18
100
AcDbSpline
210
0.0
220
0.0
230
1.0
 70
     8
 71
     3
 72
    10
 73
     6
 74
     0
 42
0.000000001
 43
0.00000001
 40
0.0
 40
0.0
 40
0.0
 40
0.0
 40
0.5
 40
0.5
 40
1.0
 40
1.0
 40
1.0
 40
1.0
 10
108.0843899126076
 20
444.6396618291334
 30
0.0
 10
108.0843902545168
 20
444.4396539375052
 30
0.0
 10
108.1401328291565
 20
444.2240947417156
 30
0.0
 10
108.3632123873172
 20
443.8551725804232
 30
0.0
 10
108.5282104146222
 20
443.7056562322759
 30
0.0
 10
108.7053412508701
 20
443.6127604573642
 30
0.0
  0
SPLINE
  5
139
330
1F
100
AcDbEntity
  8
0
  6
Continuous
 62
     8
370
    18
100
AcDbSpline
210
0.0
220
0.0
230
1.0
 70
     8
 71
     3
 72
    10
 73
     6
 74
     0
 42
0.000000001
 43
0.00000001
 40
0.0
 40
0.0
 40
0.0
 40
0.0
 40
0.5
 40
0.5
 40
1.0
 40
1.0
 40
1.0
 40
1.0
 10
150.7831334935761
 20
443.612870184975
 30
0.0
 10
150.960261208895
 20
443.7057433104009
 30
0.0
 10
151.1252638567703
 20
443.8552348610975
 30
0.0
 10
151.3483655629807
 20
444.2241172436007
 30
0.0
 10
151.4041412128026
 20
444.4396664890632
 30
0.0
 10
151.4041415748659
 20
444.6396617074203
 30
0.0
  0
ARC
  5
13A
330
1F
100
AcDbEntity
  8
0
  6
Continuous
 62
     8
370
    18
100
AcDbCircle
 10
109.155397286
 20
455.4489303596
 30
0.0
 40
1.071022196260301
100
AcDbArc
 50
91.1033601762
 51
179.999993964
  0
ARC
  5
13B
330
1F
100
AcDbEntity
  8
0
  6
Continuous
 62
     8
370
    18
100
AcDbCircle
 10
150.3331341959
 20
455.4489303596
 30
0.0
 40
1.071022196260663
100
AcDbArc
 50
0.000006036
 51
88.8966398238
  0
SPLINE
  5
13C
330
1F
100
AcDbEntity
  8
0
  6
Continuous
 62
     8
370
    18
100
AcDbSpline
210
0.0
220
0.0
230
1.0
 70
     8
 71
     3
 72
    10
 73
     6
 74
     0
 42
0.000000001
 43
0.00000001
 40
0.0
 40
0.0
 40
0.0
 40
0.0
 40
0.5
 40
0.5
 40
1.0
 40
1.0
 40
1.0
 40
1.0
 10
151.4041415748659
 20
444.6396617074203
 30
0.0
 10
151.4104183439619
 20
444.5033421650062
 30
0.0
 10
151.416695112551
 20
444.3689040215101
 30
0.0
 10
151.4292486498521
 20
444.1026290580822
 30
0.0
 10
151.4355253990148
 20
443.9703557782538
 30
0.0
 10
151.4418021655751
 20
443.8457643128214
 30
0.0
  0
LINE
  5
13D
330
1F
100
AcDbEntity
  8
0
  6
Continuous
 62
     8
370
    18
100
AcDbLine
 10
151.4418021656
 20
455.4697234869
 30
0.0
 11
151.4041563921
 21
455.4489304724
 31
0.0
  0
SPLINE
  5
13E
330
1F
100
AcDbEntity
  8
0
  6
Continuous
 62
     8
370
    18
100
AcDbSpline
210
0.0
220
0.0
230
1.0
 70
     8
 71
     3
 72
    10
 73
     6
 74
     0
 42
0.000000001
 43
0.00000001
 40
0.0
 40
0.0
 40
0.0
 40
0.0
 40
0.2871413152255032
 40
0.6204746464548497
 40
1.0
 40
1.0
 40
1.0
 40
1.0
 10
108.0467293162585
 20
443.8460918391954
 30
0.0
 10
108.0503339571916
 20
443.9194264843131
 30
0.0
 10
108.0581231125305
 20
444.0778930148666
 30
0.0
 10
108.0706766416792
 20
444.3432824817946
 30
0.0
 10
108.079625527707
 20
444.5366911160867
 30
0.0
 10
108.0843899069677
 20
444.6396617074202
 30
0.0
  0
LINE
  5
13F
330
1F
100
AcDbEntity
  8
0
  6
Continuous
 62
     8
370
    18
100
AcDbLine
 10
108.0843750897
 20
455.4489304724
 30
0.0
 11
108.0467293163
 21
455.4697234869
 31
0.0
  0
SPLINE
  5
140
330
1F
100
AcDbEntity
  8
0
  6
Continuous
 62
     8
370
    18
100
AcDbSpline
210
0.0
220
0.0
230
1.0
 70
     8
 71
     3
 72
    12
 73
     8
 74
     0
 42
0.000000001
 43
0.00000001
 40
0.0
 40
0.0
 40
0.0
 40
0.0
 40
0.25
 40
0.25
 40
0.5
 40
0.5
 40
1.0
 40
1.0
 40
1.0
 40
1.0
 10
150.9400295450728
 20
442.755688898294
 30
0.0
 10
150.9385570477762
 20
442.8172109099732
 30
0.0
 10
150.933687018751
 20
442.8811721476612
 30
0.0
 10
150.9077939906146
 20
443.0216693393773
 30
0.0
 10
150.8915047077908
 20
443.0947838120431
 30
0.0
 10
150.8467258410905
 20
443.3125794111918
 30
0.0
 10
150.8155145861263
 20
443.4607509474005
 30
0.0
 10
150.7831356078326
 20
443.6128602526664
 30
0.0
  0
SPLINE
  5
141
330
1F
100
AcDbEntity
  8
0
  6
Continuous
 62
     8
370
    18
100
AcDbSpline
210
0.0
220
0.0
230
1.0
 70
     8
 71
     3
 72
    17
 73
    13
 74
     0
 42
0.000000001
 43
0.00000001
 40
0.0
 40
0.0
 40
0.0
 40
0.0
 40
0.0241439538124504
 40
0.0894856071799601
 40
0.1960248896375272
 40
0.3437616127077728
 40
0.5326953633401181
 40
0.635014200203156
 40
0.7329040559548574
 40
0.8263641075261492
 40
0.9153949252126989
 40
1.0
 40
1.0
 40
1.0
 40
1.0
 10
108.7053973071841
 20
443.612859352258
 30
0.0
 10
108.7033541028596
 20
443.6057761860984
 30
0.0
 10
108.6957813009488
 20
443.5795235917855
 30
0.0
 10
108.6842305253236
 20
443.5197644003136
 30
0.0
 10
108.6639280142884
 20
443.4239789797535
 30
0.0
 10
108.6374985967027
 20
443.2920268164978
 30
0.0
 10
108.6109554940225
 20
443.1639027411896
 30
0.0
 10
108.588680218743
 20
443.0513068357719
 30
0.0
 10
108.574083662556
 20
442.9650441357662
 30
0.0
 10
108.5622577799547
 20
442.8830784022752
 30
0.0
 10
108.5539567582589
 20
442.8155618824284
 30
0.0
 10
108.5509542622208
 20
442.7749245013017
 30
0.0
 10
108.5494912789733
 20
442.7551237065444
 30
0.0
  0
ELLIPSE
  5
142
330
1F
100
AcDbEntity
  8
0
  6
Continuous
 62
     8
370
    18
100
AcDbEllipse
 10
97.5374972769
 20
476.152886288
 30
0.0
 11
1.060689250513533
 21
-1.060689250513519
 31
0.0
210
0.0
220
0.0
230
1.0
 40
0.9999725851
 41
2.356208197850957
 42
3.92697710932864
  0
LINE
  5
143
330
1F
100
AcDbEntity
  8
0
  6
Continuous
 62
     8
370
    18
100
AcDbLine
 10
161.9510753285
 20
477.6529068499
 30
0.0
 11
97.5374561533
 21
477.6529068499
 31
0.0
  0
ELLIPSE
  5
144
330
1F
100
AcDbEntity
  8
0
  6
Continuous
 62
     8
370
    18
100
AcDbEllipse
 10
161.951034205
 20
476.152886288
 30
0.0
 11
-1.060689250513519
 21
-1.060689250513576
 31
0.0
210
0.0
220
0.0
230
1.0
 40
0.9999725851
 41
2.356208197850934
 42
3.926977109328613
  0
LINE
  5
145
330
1F
100
AcDbEntity
  8
0
  6
Continuous
 62
     8
370
    18
100
AcDbLine
 10
163.4510547669
 20
411.7393082363
 30
0.0
 11
163.4510547669
 21
476.1529274115
 31
0.0
  0
ELLIPSE
  5
146
330
1F
100
AcDbEntity
  8
0
  6
Continuous
 62
     8
370
    18
100
AcDbEllipse
 10
161.951034205
 20
411.7393493599
 30
0.0
 11
-1.060689250513547
 21
1.060689250513576
 31
0.0
210
0.0
220
0.0
230
1.0
 40
0.9999725851
 41
2.356208197850934
 42
3.926977109328673
  0
LINE
  5
147
330
1F
100
AcDbEntity
  8
0
  6
Continuous
 62
     8
370
    18
100
AcDbLine
 10
97.5374561533
 20
410.239328798
 30
0.0
 11
161.9510753285
 21
410.239328798
 31
0.0
  0
ELLIPSE
  5
148
330
1F
100
AcDbEntity
  8
0
  6
Continuous
 62
     8
370
    18
100
AcDbEllipse
 10
97.5374972769
 20
411.7393493599
 30
0.0
 11
1.060689250513533
 21
1.060689250513519
 31
0.0
210
0.0
220
0.0
230
1.0
 40
0.9999725851
 41
2.356208197851012
 42
3.92697710932863
  0
LINE
  5
149
330
1F
100
AcDbEntity
  8
0
  6
Continuous
 62
     8
370
    18
100
AcDbLine
 10
96.037476715
 20
476.1529274115
 30
0.0
 11
96.037476715
 21
411.7393082363
 31
0.0
  0
LINE
  5
14A
330
1F
100
AcDbEntity
  8
0
  6
Continuous
 62
     8
370
    18
100
AcDbLine
 10
164.7510369468
 20
476.1529274115
 30
0.0
 11
164.7510369468
 21
411.7393082363
 31
0.0
  0
LINE
  5
14B
330
1F
100
AcDbEntity
  8
0
  6
Continuous
 62
     8
370
    18
100
AcDbLine
 10
163.4510547669
 20
411.7393082363
 30
0.0
 11
164.7510369468
 21
411.7393082363
 31
0.0
  0
LINE
  5
14C
330
1F
100
AcDbEntity
  8
0
  6
Continuous
 62
     8
370
    18
100
AcDbLine
 10
163.4510547669
 20
476.1529274115
 30
0.0
 11
164.7510369468
 21
476.1529274115
 31
0.0
  0
ARC
  5
14D
330
1F
100
AcDbEntity
  8
0
  6
Continuous
 62
     8
370
    18
100
AcDbCircle
 10
161.951034205
 20
411.7393493599
 30
0.0
 40
2.800002742134363
100
AcDbArc
 50
270.0008415011
 51
359.9991584989
  0
LINE
  5
14E
330
1F
100
AcDbEntity
  8
0
  6
Continuous
 62
     8
370
    18
100
AcDbLine
 10
161.9510753285
 20
410.239328798
 30
0.0
 11
161.9510753285
 21
408.939346618
 31
0.0
  0
LINE
  5
14F
330
1F
100
AcDbEntity
  8
0
  6
Continuous
 62
     8
370
    18
100
AcDbLine
 10
94.737494535
 20
411.7393082363
 30
0.0
 11
94.737494535
 21
476.1529274115
 31
0.0
  0
LINE
  5
150
330
1F
100
AcDbEntity
  8
0
  6
Continuous
 62
     8
370
    18
100
AcDbLine
 10
96.037476715
 20
476.1529274115
 30
0.0
 11
94.737494535
 21
476.1529274115
 31
0.0
  0
LINE
  5
151
330
1F
100
AcDbEntity
  8
0
  6
Continuous
 62
     8
370
    18
100
AcDbLine
 10
96.037476715
 20
411.7393082363
 30
0.0
 11
94.737494535
 21
411.7393082363
 31
0.0
  0
ARC
  5
152
330
1F
100
AcDbEntity
  8
0
  6
Continuous
 62
     8
370
    18
100
AcDbCircle
 10
97.5374972769
 20
476.152886288
 30
0.0
 40
2.800002742134363
100
AcDbArc
 50
90.0008415011
 51
179.9991584989
  0
LINE
  5
153
330
1F
100
AcDbEntity
  8
0
  6
Continuous
 62
     8
370
    18
100
AcDbLine
 10
97.5374561533
 20
477.6529068499
 30
0.0
 11
97.5374561533
 21
478.9528890298
 31
0.0
  0
LINE
  5
154
330
1F
100
AcDbEntity
  8
0
  6
Continuous
 62
     8
370
    18
100
AcDbLine
 10
97.5374561533
 20
478.9528890298
 30
0.0
 11
161.9510753285
 21
478.9528890298
 31
0.0
  0
LINE
  5
155
330
1F
100
AcDbEntity
  8
0
  6
Continuous
 62
     8
370
    18
100
AcDbLine
 10
161.9510753285
 20
477.6529068499
 30
0.0
 11
161.9510753285
 21
478.9528890298
 31
0.0
  0
ARC
  5
156
330
1F
100
AcDbEntity
  8
0
  6
Continuous
 62
     8
370
    18
100
AcDbCircle
 10
161.951034205
 20
476.152886288
 30
0.0
 40
2.800002742134363
100
AcDbArc
 50
0.0008415011
 51
89.9991584989
  0
LINE
  5
157
330
1F
100
AcDbEntity
  8
0
  6
Continuous
 62
     8
370
    18
100
AcDbLine
 10
97.5374561533
 20
410.239328798
 30
0.0
 11
97.5374561533
 21
408.939346618
 31
0.0
  0
ARC
  5
158
330
1F
100
AcDbEntity
  8
0
  6
Continuous
 62
     8
370
    18
100
AcDbCircle
 10
97.5374972769
 20
411.7393493599
 30
0.0
 40
2.800002742134363
100
AcDbArc
 50
180.0008415011
 51
269.9991584989
  0
LINE
  5
159
330
1F
100
AcDbEntity
  8
0
  6
Continuous
 62
     8
370
    18
100
AcDbLine
 10
161.9510753285
 20
408.939346618
 30
0.0
 11
97.5374561533
 21
408.939346618
 31
0.0
  0
LINE
  5
15A
330
1F
100
AcDbEntity
  8
0
  6
Continuous
 62
     8
370
    18
100
AcDbLine
 10
164.7913900614
 20
476.1932805261
 30
0.0
 11
164.7510369468
 21
476.1529274115
 31
0.0
  0
LINE
  5
15B
330
1F
100
AcDbEntity
  8
0
  6
Continuous
 62
     8
370
    18
100
AcDbLine
 10
161.9510753285
 20
478.9528890298
 30
0.0
 11
161.9914284431
 21
478.9932421444
 31
0.0
  0
LINE
  5
15C
330
1F
100
AcDbEntity
  8
0
  6
Continuous
 62
     8
370
    18
100
AcDbLine
 10
161.9914284431
 20
408.8989935035
 30
0.0
 11
161.9510753285
 21
408.939346618
 31
0.0
  0
LINE
  5
15D
330
1F
100
AcDbEntity
  8
0
  6
Continuous
 62
     8
370
    18
100
AcDbLine
 10
164.7510369468
 20
411.7393082363
 30
0.0
 11
164.7913900614
 21
411.6989551218
 31
0.0
  0
LINE
  5
15E
330
1F
100
AcDbEntity
  8
0
  6
Continuous
 62
     8
370
    18
100
AcDbLine
 10
94.6971414205
 20
411.6989551218
 30
0.0
 11
94.737494535
 21
411.7393082363
 31
0.0
  0
LINE
  5
15F
330
1F
100
AcDbEntity
  8
0
  6
Continuous
 62
     8
370
    18
100
AcDbLine
 10
97.5374561533
 20
408.939346618
 30
0.0
 11
97.4971030388
 21
408.8989935035
 31
0.0
  0
LINE
  5
160
330
1F
100
AcDbEntity
  8
0
  6
Continuous
 62
     8
370
    18
100
AcDbLine
 10
97.4971030388
 20
478.9932421444
 30
0.0
 11
97.5374561533
 21
478.9528890298
 31
0.0
  0
LINE
  5
161
330
1F
100
AcDbEntity
  8
0
  6
Continuous
 62
     8
370
    18
100
AcDbLine
 10
94.737494535
 20
476.1529274115
 30
0.0
 11
94.6971414205
 21
476.1932805261
 31
0.0
  0
LINE
  5
162
330
1F
100
AcDbEntity
  8
0
  6
Continuous
 62
     7
370
    25
100
AcDbLine
 10
415.5563074055
 20
466.9461178239
 30
0.0
 11
392.436105294
 21
466.9461178239
 31
0.0
  0
ARC
  5
163
330
1F
100
AcDbEntity
  8
0
  6
Continuous
 62
     7
370
    25
100
AcDbCircle
 10
415.5563074055
 20
465.4461178239
 30
0.0
 40
1.5
100
AcDbArc
 50
360.0
 51
90.0
  0
ARC
  5
164
330
1F
100
AcDbEntity
  8
0
  6
Continuous
 62
     7
370
    25
100
AcDbCircle
 10
376.6795868272
 20
465.7961178239
 30
0.0
 40
0.6999999999999886
100
AcDbArc
 50
41.0
 51
90.0
  0
ARC
  5
165
330
1F
100
AcDbEntity
  8
0
  6
Continuous
 62
     7
370
    25
100
AcDbCircle
 10
376.6795868272
 20
422.0961178239
 30
0.0
 40
0.6999999999999446
100
AcDbArc
 50
270.0
 51
319.0
  0
LINE
  5
166
330
1F
100
AcDbEntity
  8
0
  6
Continuous
 62
     7
370
    25
100
AcDbLine
 10
376.6795868272
 20
466.4961178239
 30
0.0
 11
350.1563074055
 21
466.4961178239
 31
0.0
  0
LINE
  5
167
330
1F
100
AcDbEntity
  8
0
  6
Continuous
 62
     7
370
    25
100
AcDbLine
 10
350.1563074055
 20
421.3961178239
 30
0.0
 11
376.6795868272
 21
421.3961178239
 31
0.0
  0
LINE
  5
168
330
1F
100
AcDbEntity
  8
0
  6
Continuous
 62
     7
370
    25
100
AcDbLine
 10
377.2078835334
 20
421.6368765036
 30
0.0
 11
377.2693874075
 21
421.7076286174
 31
0.0
  0
LINE
  5
169
330
1F
100
AcDbEntity
  8
0
  6
Continuous
 62
     7
370
    25
100
AcDbLine
 10
377.2693874075
 20
466.1846070304
 30
0.0
 11
377.2078835334
 21
466.2553591442
 31
0.0
  0
ARC
  5
16A
330
1F
100
AcDbEntity
  8
0
  6
Continuous
 62
     7
370
    25
100
AcDbCircle
 10
377.7976841137
 20
466.6438483507
 30
0.0
 40
0.7000000000000677
100
AcDbArc
 50
221.0
 51
269.1898025957
  0
ARC
  5
16B
330
1F
100
AcDbEntity
  8
0
  6
Continuous
 62
     7
370
    25
100
AcDbCircle
 10
377.7976841137
 20
421.2483872971
 30
0.0
 40
0.7000000000000677
100
AcDbArc
 50
90.8101974043
 51
139.0
  0
ARC
  5
16C
330
1F
100
AcDbEntity
  8
0
  6
Continuous
 62
     7
370
    25
100
AcDbCircle
 10
377.4767029119
 20
443.9461178239
 30
0.0
 40
22.00000000000007
100
AcDbArc
 50
270.8101974043
 51
290.7087921947
  0
ARC
  5
16D
330
1F
100
AcDbEntity
  8
0
  6
Continuous
 62
     7
370
    25
100
AcDbCircle
 10
377.4767029119
 20
443.9461178239
 30
0.0
 40
22.00000000000001
100
AcDbArc
 50
53.2347662918
 51
89.1898025957
  0
SPLINE
  5
16E
330
1F
100
AcDbEntity
  8
0
  6
Continuous
 62
     7
370
    25
100
AcDbSpline
210
0.0
220
0.0
230
1.0
 70
     8
 71
     3
 72
    12
 73
     8
 74
     0
 42
0.000000001
 43
0.00000001
 40
0.0
 40
0.0
 40
0.0
 40
0.0
 40
0.1776871772199345
 40
0.3791779103068695
 40
0.5748132702201623
 40
0.7645962442508567
 40
1.0
 40
1.0
 40
1.0
 40
1.0
 10
417.0554738405393
 20
360.8897144101386
 30
0.0
 10
417.1074660609512
 20
365.1426864911139
 30
0.0
 10
417.2184155498024
 20
374.2183727138827
 30
0.0
 10
417.2437802290032
 20
387.9790164195218
 30
0.0
 10
417.2828117822764
 20
402.0299050258426
 30
0.0
 10
417.2799131408775
 20
416.8937784703191
 30
0.0
 10
417.34908971009
 20
427.0742850057197
 30
0.0
 10
417.3873891749179
 20
432.7107014458635
 30
0.0
  0
LINE
  5
16F
330
1F
100
AcDbEntity
  8
0
  6
Continuous
 62
     7
370
    25
100
AcDbLine
 10
417.238258686
 20
456.9722502853
 30
0.0
 11
417.0554738405
 21
464.9425591321
 31
0.0
  0
LINE
  5
170
330
1F
100
AcDbEntity
  8
0
  6
Continuous
 62
     7
370
    25
100
AcDbLine
 10
385.4563074055
 20
420.9461178239
 30
0.0
 11
389.7203481848
 21
420.9461178239
 31
0.0
  0
ARC
  5
171
330
1F
100
AcDbEntity
  8
0
  6
Continuous
 62
     7
370
    25
100
AcDbCircle
 10
385.4563074055
 20
421.1461178239
 30
0.0
 40
0.1999999999999886
100
AcDbArc
 50
180.0
 51
270.0
  0
LINE
  5
172
330
1F
100
AcDbEntity
  8
0
  6
Continuous
 62
     7
370
    25
100
AcDbLine
 10
392.2563074055
 20
420.9474368529
 30
0.0
 11
392.2563074055
 21
420.7961178239
 31
0.0
  0
LINE
  5
173
330
1F
100
AcDbEntity
  8
0
  6
Continuous
 62
     7
370
    25
100
AcDbLine
 10
392.2563074055
 20
420.7961178239
 30
0.0
 11
392.4748887724
 21
420.195570454
 31
0.0
  0
ARC
  5
174
330
1F
100
AcDbEntity
  8
0
  6
Continuous
 62
     7
370
    25
100
AcDbCircle
 10
392.6628272966
 20
420.2639744827
 30
0.0
 40
0.1999999999999485
100
AcDbArc
 50
200.0
 51
270.0
  0
LINE
  5
175
330
1F
100
AcDbEntity
  8
0
  6
Continuous
 62
     7
370
    25
100
AcDbLine
 10
392.6628272966
 20
420.0639744827
 30
0.0
 11
399.6922119512
 21
420.0639744827
 31
0.0
  0
SPLINE
  5
176
330
1F
100
AcDbEntity
  8
0
  6
Continuous
 62
     7
370
    25
100
AcDbSpline
210
0.0
220
0.0
230
1.0
 70
     8
 71
     3
 72
    15
 73
    11
 74
     0
 42
0.000000001
 43
0.00000001
 40
0.0
 40
0.0
 40
0.0
 40
0.0
 40
0.0793589641735473
 40
0.224094043966373
 40
0.3581874627193059
 40
0.4861522240797716
 40
0.6115788870476275
 40
0.737302668459183
 40
0.8659045676110817
 40
1.0
 40
1.0
 40
1.0
 40
1.0
 10
399.5923720931766
 20
419.9824294009586
 30
0.0
 10
400.1488150490294
 20
419.8348717551469
 30
0.0
 10
401.7201000766535
 20
419.4181981012951
 30
0.0
 10
404.0279403694919
 20
418.1750543431824
 30
0.0
 10
406.3983102506026
 20
416.413026693775
 30
0.0
 10
408.3178027038961
 20
414.3440858173724
 30
0.0
 10
409.8284128307478
 20
412.037733763509
 30
0.0
 10
410.9575374041872
 20
409.5208538769224
 30
0.0
 10
411.7471767825637
 20
406.8075008209366
 30
0.0
 10
411.960705316341
 20
404.9145150901514
 30
0.0
 10
412.0697022402774
 20
403.9482291420344
 30
0.0
  0
SPLINE
  5
177
330
1F
100
AcDbEntity
  8
0
  6
Continuous
 62
     7
370
    25
100
AcDbSpline
210
0.0
220
0.0
230
1.0
 70
     8
 71
     3
 72
     9
 73
     5
 74
     0
 42
0.000000001
 43
0.00000001
 40
0.0
 40
0.0
 40
0.0
 40
0.0
 40
0.5000062447868161
 40
1.0
 40
1.0
 40
1.0
 40
1.0
 10
412.1204045009179
 20
403.1410892471118
 30
0.0
 10
412.1217598353335
 20
403.1328875517494
 30
0.0
 10
412.1244704703103
 20
403.1164843658933
 30
0.0
 10
412.1292974672367
 20
403.1024482452517
 30
0.0
 10
412.1317109355563
 20
403.0954302725835
 30
0.0
  0
SPLINE
  5
178
330
1F
100
AcDbEntity
  8
0
  6
Continuous
 62
     7
370
    25
100
AcDbSpline
210
0.0
220
0.0
230
1.0
 70
     8
 71
     3
 72
     9
 73
     5
 74
     0
 42
0.000000001
 43
0.00000001
 40
0.0
 40
0.0
 40
0.0
 40
0.0
 40
0.4926129366217993
 40
0.9999999999999999
 40
0.9999999999999999
 40
0.9999999999999999
 40
0.9999999999999999
 10
411.9770687890144
 20
404.9038404026741
 30
0.0
 10
412.0101516507145
 20
404.5938088148506
 30
0.0
 10
412.0773095737827
 20
403.9644473734934
 30
0.0
 10
412.1094704052726
 20
403.3264823663885
 30
0.0
 10
412.1257883951181
 20
403.0027871748954
 30
0.0
  0
LINE
  5
179
330
1F
100
AcDbEntity
  8
0
  6
Continuous
 62
     7
370
    25
100
AcDbLine
 10
399.5923720934
 20
419.982429401
 30
0.0
 11
401.2457208662
 21
419.49447368
 31
0.0
  0
LINE
  5
17A
330
1F
100
AcDbEntity
  8
0
  6
Continuous
 62
     7
370
    25
100
AcDbLine
 10
411.8480740788
 20
405.5051449685
 30
0.0
 11
412.0697022389
 21
403.9482291598
 31
0.0
  0
SPLINE
  5
17B
330
1F
100
AcDbEntity
  8
0
  6
Continuous
 62
     7
370
    25
100
AcDbSpline
210
0.0
220
0.0
230
1.0
 70
     8
 71
     3
 72
    10
 73
     6
 74
     0
 42
0.000000001
 43
0.00000001
 40
0.0
 40
0.0
 40
0.0
 40
0.0
 40
0.095943003034752
 40
0.7397741746209142
 40
1.0
 40
1.0
 40
1.0
 40
1.0
 10
504.1508654944247
 20
436.5610205689422
 30
0.0
 10
504.3352116483589
 20
436.5688753748598
 30
0.0
 10
505.756623523718
 20
436.6294403184272
 30
0.0
 10
507.5705746285968
 20
436.7377639882102
 30
0.0
 10
509.2237131178958
 20
436.7951544894807
 30
0.0
 10
509.6995562663786
 20
436.8116739020976
 30
0.0
  0
LINE
  5
17C
330
1F
100
AcDbEntity
  8
0
  6
Continuous
 62
     7
370
    25
100
AcDbLine
 10
542.7516937659
 20
456.50774732
 30
0.0
 11
532.3906598264
 21
456.5912641998
 31
0.0
  0
SPLINE
  5
17D
330
1F
100
AcDbEntity
  8
0
  6
Continuous
 62
     7
370
    25
100
AcDbSpline
210
0.0
220
0.0
230
1.0
 70
     8
 71
     3
 72
    13
 73
     9
 74
     0
 42
0.000000001
 43
0.00000001
 40
0.0
 40
0.0
 40
0.0
 40
0.0
 40
0.0409918628122045
 40
0.1643770180347707
 40
0.2816627927935075
 40
0.3979514054073606
 40
0.6966544001126587
 40
0.9999999999999999
 40
0.9999999999999999
 40
0.9999999999999999
 40
0.9999999999999999
 10
532.6698924825864
 20
456.5880828824626
 30
0.0
 10
532.1330901302522
 20
456.5901575829809
 30
0.0
 10
529.9805173048848
 20
456.5984771142511
 30
0.0
 10
526.2927032259606
 20
456.609996899789
 30
0.0
 10
521.6198862073568
 20
456.6254218847316
 30
0.0
 10
514.6519987834757
 20
456.6479876523811
 30
0.0
 10
505.246542675639
 20
456.679497056713
 30
0.0
 10
497.3632553535326
 20
456.7060670218631
 30
0.0
 10
493.3912163133507
 20
456.7194544495389
 30
0.0
  0
SPLINE
  5
17E
330
1F
100
AcDbEntity
  8
0
  6
Continuous
 62
     7
370
    25
100
AcDbSpline
210
0.0
220
0.0
230
1.0
 70
     8
 71
     3
 72
     9
 73
     5
 74
     0
 42
0.000000001
 43
0.00000001
 40
0.0
 40
0.0
 40
0.0
 40
0.0
 40
0.5421967750566516
 40
1.0
 40
1.0
 40
1.0
 40
1.0
 10
363.5904296735205
 20
457.1575376033043
 30
0.0
 10
361.1625229270611
 20
457.1645726489364
 30
0.0
 10
356.6846159048259
 20
457.1775477272766
 30
0.0
 10
352.2064417813045
 20
457.1805030468464
 30
0.0
 10
350.1563192256987
 20
457.1818560016764
 30
0.0
  0
LINE
  5
17F
330
1F
100
AcDbEntity
  8
0
  6
Continuous
 62
     7
370
    25
100
AcDbLine
 10
542.9850221405
 20
456.4639517776
 30
0.0
 11
542.6902535925
 21
456.5082997402
 31
0.0
  0
SPLINE
  5
180
330
1F
100
AcDbEntity
  8
0
  6
Continuous
 62
     7
370
    25
100
AcDbSpline
210
0.0
220
0.0
230
1.0
 70
     8
 71
     3
 72
    10
 73
     6
 74
     0
 42
0.000000001
 43
0.00000001
 40
0.0
 40
0.0
 40
0.0
 40
0.0
 40
0.2824779105155887
 40
0.6515666147236593
 40
1.0
 40
1.0
 40
1.0
 40
1.0
 10
543.746142980857
 20
455.4308615266673
 30
0.0
 10
543.734479575336
 20
455.5420118648268
 30
0.0
 10
543.7075766375534
 20
455.7983924413746
 30
0.0
 10
543.6251156206499
 20
455.9301071085062
 30
0.0
 10
543.6469890048608
 20
455.8866417373376
 30
0.0
 10
543.6576108622498
 20
455.8655346708925
 30
0.0
  0
LINE
  5
181
330
1F
100
AcDbEntity
  8
0
  6
Continuous
 62
     7
370
    25
100
AcDbLine
 10
534.8108765502
 20
434.4817746992
 30
0.0
 11
533.652119339
 21
441.0534134047
 31
0.0
  0
LINE
  5
182
330
1F
100
AcDbEntity
  8
0
  6
Continuous
 62
     7
370
    25
100
AcDbLine
 10
510.0167332667
 20
436.8858571407
 30
0.0
 11
511.1754904779
 21
430.3142184352
 31
0.0
  0
LINE
  5
183
330
1F
100
AcDbEntity
  8
0
  6
Continuous
 62
     7
370
    25
100
AcDbLine
 10
533.9263246193
 20
433.7395475002
 30
0.0
 11
534.8108765502
 21
434.4817746992
 31
0.0
  0
LINE
  5
184
330
1F
100
AcDbEntity
  8
0
  6
Continuous
 62
     7
370
    25
100
AcDbLine
 10
511.1754904779
 20
430.3142184352
 30
0.0
 11
512.2605540531
 21
429.9192875915
 31
0.0
  0
SPLINE
  5
185
330
1F
100
AcDbEntity
  8
0
  6
Continuous
 62
     7
370
    25
100
AcDbSpline
210
0.0
220
0.0
230
1.0
 70
    24
 71
     3
 72
    14
 73
    10
 74
     0
 42
0.000000001
 43
0.00000001
 40
0.0
 40
0.0
 40
0.0
 40
0.0
 40
0.1432776536724688
 40
0.2925335367576396
 40
0.4417894198428093
 40
0.5910453029279787
 40
0.7403011860131492
 40
0.8895570690983202
 40
1.0
 40
1.0
 40
1.0
 40
1.0
 10
417.0554738405397
 20
465.3256498752944
 30
0.0
 10
417.0554738405397
 20
465.1999403504126
 30
0.0
 10
417.0554738405397
 20
464.9432760976475
 30
0.0
 10
417.0554738405397
 20
464.1824159756421
 30
0.0
 10
417.0554738405397
 20
463.1487778470596
 30
0.0
 10
417.0554738405397
 20
461.8390778974596
 30
0.0
 10
417.0554738405397
 20
460.2719226219324
 30
0.0
 10
417.0554738405397
 20
458.6510757426283
 30
0.0
 10
417.0554738405397
 20
457.4735965885994
 30
0.0
 10
417.0554738405397
 20
456.9728463277486
 30
0.0
  0
LINE
  5
186
330
1F
100
AcDbEntity
  8
0
  6
Continuous
 62
     7
370
    25
100
AcDbLine
 10
389.2831894889
 20
457.1174556309
 30
0.0
 11
392.2448443424
 21
466.8045921635
 31
0.0
  0
LINE
  5
187
330
1F
100
AcDbEntity
  8
0
  6
Continuous
 62
     7
370
    25
100
AcDbLine
 10
385.2563074055
 20
431.3230292706
 30
0.0
 11
385.2563074055
 21
430.0678569544
 31
0.0
  0
SPLINE
  5
188
330
1F
100
AcDbEntity
  8
0
  6
Continuous
 62
     7
370
    18
100
AcDbSpline
210
0.0
220
0.0
230
1.0
 70
     8
 71
     3
 72
    12
 73
     8
 74
     0
 42
0.000000001
 43
0.00000001
 40
0.0
 40
0.0
 40
0.0
 40
0.0
 40
0.0275066497637511
 40
0.221862429640634
 40
0.418846402087968
 40
0.7109640872707351
 40
1.0
 40
1.0
 40
1.0
 40
1.0
 10
417.0553674901781
 20
432.6959688668954
 30
0.0
 10
417.0553706260762
 20
432.4648442590159
 30
0.0
 10
417.055395919522
 20
430.6006453291462
 30
0.0
 10
417.0555114324672
 20
427.0030058316871
 30
0.0
 10
417.0556170195829
 20
421.0836363866433
 30
0.0
 10
417.0552618310351
 20
414.214738541684
 30
0.0
 10
417.055477411275
 20
409.0375842227764
 30
0.0
 10
417.0555846297998
 20
406.4627339090522
 30
0.0
  0
SPLINE
  5
189
330
1F
100
AcDbEntity
  8
0
  6
Continuous
 62
     7
370
    25
100
AcDbSpline
210
0.0
220
0.0
230
1.0
 70
    24
 71
     3
 72
    10
 73
     6
 74
     0
 42
0.000000001
 43
0.00000001
 40
0.0
 40
0.0
 40
0.0
 40
0.0
 40
0.5
 40
0.5
 40
1.0
 40
1.0
 40
1.0
 40
1.0
 10
417.0557249563347
 20
359.3961180662916
 30
0.0
 10
417.0543754250436
 20
359.396116763752
 30
0.0
 10
417.0559113522109
 20
359.3961182461969
 30
0.0
 10
417.0555913850345
 20
359.3961179373713
 30
0.0
 10
417.0553695629245
 20
359.3961177232732
 30
0.0
 10
417.0554095955274
 20
359.3961177619119
 30
0.0
  0
SPLINE
  5
18A
330
1F
100
AcDbEntity
  8
0
  6
Continuous
 62
     7
370
    25
100
AcDbSpline
210
0.0
220
0.0
230
1.0
 70
     8
 71
     3
 72
     8
 73
     4
 74
     0
 42
0.000000001
 43
0.00000001
 40
0.0
 40
0.0
 40
0.0
 40
0.0
 40
1.0
 40
1.0
 40
1.0
 40
1.0
 10
398.2399580092836
 20
420.68612927277
 30
0.0
 10
398.1272782306451
 20
420.7235130224374
 30
0.0
 10
398.0101922693861
 20
420.7603023467137
 30
0.0
 10
397.8884262301355
 20
420.7961178239208
 30
0.0
  0
SPLINE
  5
18B
330
1F
100
AcDbEntity
  8
0
  6
Continuous
 62
     7
370
    25
100
AcDbSpline
210
0.0
220
0.0
230
1.0
 70
     8
 71
     3
 72
    17
 73
    13
 74
     0
 42
0.000000001
 43
0.00000001
 40
0.0
 40
0.0
 40
0.0
 40
0.0
 40
0.2499999999999958
 40
0.2499999999999958
 40
0.3749999999999962
 40
0.3749999999999962
 40
0.4999999999999967
 40
0.6249999999999971
 40
0.6249999999999971
 40
0.7499999999999976
 40
0.7499999999999976
 40
1.0
 40
1.0
 40
1.0
 40
1.0
 10
397.8884262301355
 20
420.7961178239208
 30
0.0
 10
397.5992574773667
 20
420.8753565021435
 30
0.0
 10
397.2987514160203
 20
420.9453426959229
 30
0.0
 10
396.8302237083172
 20
421.0332383436267
 30
0.0
 10
396.6699340434068
 20
421.0598458593233
 30
0.0
 10
396.3488674606321
 20
421.1060227393874
 30
0.0
 10
396.0284936569875
 20
421.1451067179798
 30
0.0
 10
395.7095195313682
 20
421.1705546007498
 30
0.0
 10
395.3913092887173
 20
421.1894394655078
 30
0.0
 10
395.2317878212085
 20
421.1955789432893
 30
0.0
 10
394.7676441319048
 20
421.204489179176
 30
0.0
 10
394.4733891262258
 20
421.1981511954112
 30
0.0
 10
394.1945063741751
 20
421.1832681309167
 30
0.0
  0
LINE
  5
18C
330
1F
100
AcDbEntity
  8
0
  6
Continuous
 62
     7
370
    25
100
AcDbLine
 10
385.2563074055
 20
421.1461178239
 30
0.0
 11
385.2563074055
 21
430.0678569544
 31
0.0
  0
SPLINE
  5
18D
330
1F
100
AcDbEntity
  8
0
  6
Continuous
 62
     7
370
    25
100
AcDbSpline
210
0.0
220
0.0
230
1.0
 70
    24
 71
     3
 72
     8
 73
     4
 74
     0
 42
0.000000001
 43
0.00000001
 40
0.0
 40
0.0
 40
0.0
 40
0.0
 40
1.0
 40
1.0
 40
1.0
 40
1.0
 10
412.1547956263265
 20
401.1337972197879
 30
0.0
 10
412.1441821207543
 20
402.6540452087712
 30
0.0
 10
412.1335685955064
 20
404.1742960160474
 30
0.0
 10
412.1229585265714
 20
405.6940517510149
 30
0.0
  0
LINE
  5
18E
330
1F
100
AcDbEntity
  8
0
  6
Continuous
 62
     7
370
    25
100
AcDbLine
 10
412.4375745175
 20
360.6293627769
 30
0.0
 11
412.1547956263
 21
401.1337972198
 31
0.0
  0
LINE
  5
18F
330
1F
100
AcDbEntity
  8
0
  6
Continuous
 62
     7
370
    25
100
AcDbLine
 10
415.5563074055
 20
357.9461178239
 30
0.0
 11
413.9458718147
 21
357.9461178239
 31
0.0
  0
ARC
  5
190
330
1F
100
AcDbEntity
  8
0
  6
Continuous
 62
     7
370
    25
100
AcDbCircle
 10
413.9458718147
 20
359.4461178239
 30
0.0
 40
1.5
100
AcDbArc
 50
180.4
 51
270.0
  0
SPLINE
  5
191
330
1F
100
AcDbEntity
  8
0
  6
Continuous
 62
     7
370
    25
100
AcDbSpline
210
0.0
220
0.0
230
1.0
 70
    24
 71
     3
 72
    26
 73
    22
 74
     0
 42
0.000000001
 43
0.00000001
 40
0.0
 40
0.0
 40
0.0
 40
0.0
 40
0.2500000000000057
 40
0.2500000000000057
 40
0.3750000000000037
 40
0.3750000000000037
 40
0.4375000000000053
 40
0.4375000000000053
 40
0.4687500000000061
 40
0.4687500000000061
 40
0.5000000000000068
 40
0.5000000000000068
 40
0.5312500000000075
 40
0.5312500000000075
 40
0.5625000000000084
 40
0.5625000000000084
 40
0.6250000000000101
 40
0.6250000000000101
 40
0.7500000000000132
 40
0.7500000000000132
 40
1.0
 40
1.0
 40
1.0
 40
1.0
 10
412.4459083686117
 20
359.4356459334729
 30
0.0
 10
412.4459083686118
 20
359.4356459334729
 30
0.0
 10
412.4459138245127
 20
359.4348644459312
 30
0.0
 10
412.4457483221999
 20
359.4585705208435
 30
0.0
 10
412.4456642642842
 20
359.4706107347284
 30
0.0
 10
412.4454537499661
 20
359.5007641997278
 30
0.0
 10
412.445369185205
 20
359.5128770127117
 30
0.0
 10
412.4452071199299
 20
359.536090776233
 30
0.0
 10
412.4451473960475
 20
359.5446454532404
 30
0.0
 10
412.4450080190675
 20
359.5646094106811
 30
0.0
 10
412.4449377198475
 20
359.5746788686054
 30
0.0
 10
412.4447022604418
 20
359.6084053961616
 30
0.0
 10
412.4445608145933
 20
359.6286656923692
 30
0.0
 10
412.4442801286439
 20
359.6688703398581
 30
0.0
 10
412.4441365090448
 20
359.6894419978468
 30
0.0
 10
412.4436998103544
 20
359.7519934613036
 30
0.0
 10
412.443400437578
 20
359.7948747560923
 30
0.0
 10
412.4424906482974
 20
359.9251903539698
 30
0.0
 10
412.4418799288551
 20
360.0126680490326
 30
0.0
 10
412.4400416871042
 20
360.2759725063788
 30
0.0
 10
412.4388079163959
 20
360.4526942714227
 30
0.0
 10
412.4375745175158
 20
360.6293627768752
 30
0.0
  0
ARC
  5
192
330
1F
100
AcDbEntity
  8
0
  6
Continuous
 62
     7
370
    25
100
AcDbCircle
 10
415.5563074055
 20
359.4461178239
 30
0.0
 40
1.500000000000073
100
AcDbArc
 50
270.0
 51
358.0897868283
  0
SPLINE
  5
193
330
1F
100
AcDbEntity
  8
0
  6
Continuous
 62
     7
370
    25
100
AcDbSpline
210
0.0
220
0.0
230
1.0
 70
     8
 71
     3
 72
    16
 73
    12
 74
     0
 42
0.000000001
 43
0.00000001
 40
0.0
 40
0.0
 40
0.0
 40
0.0
 40
0.2499999999999963
 40
0.2499999999999963
 40
0.3749999999999963
 40
0.3749999999999963
 40
0.4999999999999962
 40
0.4999999999999962
 40
0.7499999999999981
 40
0.7499999999999981
 40
1.0
 40
1.0
 40
1.0
 40
1.0
 10
392.2563074054831
 20
420.9474368528905
 30
0.0
 10
392.2563074054831
 20
420.9474365483143
 30
0.0
 10
392.3006486446228
 20
420.9553553271246
 30
0.0
 10
392.4317753722831
 20
420.9774067922195
 30
0.0
 10
392.4869074109275
 20
420.9865294998972
 30
0.0
 10
392.6165140662742
 20
421.0072163596734
 30
0.0
 10
392.6910398500198
 20
421.0187928055125
 30
0.0
 10
392.9432411861819
 20
421.0561695256864
 30
0.0
 10
393.1528337287556
 20
421.0852163367249
 30
0.0
 10
393.6296260213171
 20
421.1400959626915
 30
0.0
 10
393.8986027747275
 20
421.1662313540419
 30
0.0
 10
394.1956996657287
 20
421.1830716768365
 30
0.0
  0
LINE
  5
194
330
1F
100
AcDbEntity
  8
0
  6
Continuous
 62
     7
370
    25
100
AcDbLine
 10
392.2563074055
 20
420.7961178239
 30
0.0
 11
397.8884262301
 21
420.7961178239
 31
0.0
  0
SPLINE
  5
195
330
1F
100
AcDbEntity
  8
0
  6
Continuous
 62
     7
370
    25
100
AcDbSpline
210
0.0
220
0.0
230
1.0
 70
     8
 71
     3
 72
    10
 73
     6
 74
     0
 42
0.000000001
 43
0.00000001
 40
0.0
 40
0.0
 40
0.0
 40
0.0
 40
0.5
 40
0.5
 40
1.0
 40
1.0
 40
1.0
 40
1.0
 10
398.2385712365692
 20
420.6867426575929
 30
0.0
 10
398.4971740197464
 20
420.6011238950134
 30
0.0
 10
398.7273272943169
 20
420.5141258820119
 30
0.0
 10
399.1370780156484
 20
420.3465889296588
 30
0.0
 10
399.3173632926581
 20
420.265557375079
 30
0.0
 10
399.4657227483358
 20
420.1955704539996
 30
0.0
  0
SPLINE
  5
196
330
1F
100
AcDbEntity
  8
0
  6
Continuous
 62
     7
370
    25
100
AcDbSpline
210
0.0
220
0.0
230
1.0
 70
     8
 71
     3
 72
    16
 73
    12
 74
     0
 42
0.000000001
 43
0.00000001
 40
0.0
 40
0.0
 40
0.0
 40
0.0
 40
0.4999999999999902
 40
0.4999999999999902
 40
0.749999999999986
 40
0.749999999999986
 40
0.8749999999999931
 40
0.8749999999999931
 40
0.9374999999999966
 40
0.9374999999999966
 40
1.0
 40
1.0
 40
1.0
 40
1.0
 10
399.4657227483357
 20
420.1955704539996
 30
0.0
 10
399.5412594175305
 20
420.1599368714862
 30
0.0
 10
399.5993315019601
 20
420.1294177638533
 30
0.0
 10
399.6586067367689
 20
420.0938310199572
 30
0.0
 10
399.6737990597128
 20
420.0836270766983
 30
0.0
 10
399.6864564584301
 20
420.072045193129
 30
0.0
 10
399.6890417067332
 20
420.0687907656916
 30
0.0
 10
399.688425117921
 20
420.0654335915181
 30
0.0
 10
399.6874878796252
 20
420.0645634844992
 30
0.0
 10
399.6825961243239
 20
420.0637828779446
 30
0.0
 10
399.6792297253177
 20
420.0636760940677
 30
0.0
 10
399.670176859563
 20
420.0653953779346
 30
0.0
  0
LINE
  5
197
330
1F
100
AcDbEntity
  8
0
  6
Continuous
 62
     7
370
    25
100
AcDbLine
 10
399.5811611362
 20
420.0653953779
 30
0.0
 11
400.6990791479
 21
419.6558050084
 31
0.0
  0
LINE
  5
198
330
1F
100
AcDbEntity
  8
0
  6
Continuous
 62
     7
370
    25
100
AcDbLine
 10
411.8853109325
 20
405.24355977
 30
0.0
 11
412.09533063
 21
403.5118928065
 31
0.0
  0
SPLINE
  5
199
330
1F
100
AcDbEntity
  8
0
  6
Continuous
 62
     7
370
    25
100
AcDbSpline
210
0.0
220
0.0
230
1.0
 70
     8
 71
     3
 72
     8
 73
     4
 74
     0
 42
0.000000001
 43
0.00000001
 40
0.0
 40
0.0
 40
0.0
 40
0.0
 40
1.0
 40
1.0
 40
1.0
 40
1.0
 10
389.7200627261419
 20
420.9462127891896
 30
0.0
 10
390.5655803989849
 20
420.9481201970576
 30
0.0
 10
391.4112582945177
 20
420.9523649895585
 30
0.0
 10
392.2563074054831
 20
420.9474368528905
 30
0.0
  0
LINE
  5
19A
330
1F
100
AcDbEntity
  8
0
  6
Continuous
 62
     7
370
    25
100
AcDbLine
 10
341.1563074055
 20
476.1932805261
 30
0.0
 11
341.1563074055
 21
478.9932421444
 31
0.0
  0
LINE
  5
19B
330
1F
100
AcDbEntity
  8
0
  6
Continuous
 62
     7
370
    25
100
AcDbLine
 10
341.1563074055
 20
478.9932421444
 30
0.0
 11
348.8631141585
 21
478.9528890298
 31
0.0
  0
LINE
  5
19C
330
1F
100
AcDbEntity
  8
0
  6
Continuous
 62
     7
370
    25
100
AcDbLine
 10
341.1563074055
 20
411.6989551218
 30
0.0
 11
341.1563074055
 21
476.1932805261
 31
0.0
  0
LINE
  5
19D
330
1F
100
AcDbEntity
  8
0
  6
Continuous
 62
     7
370
    25
100
AcDbLine
 10
348.8631141585
 20
408.939346618
 30
0.0
 11
341.1563074055
 21
408.8989935035
 31
0.0
  0
LINE
  5
19E
330
1F
100
AcDbEntity
  8
0
  6
Continuous
 62
     7
370
    25
100
AcDbLine
 10
341.1563074055
 20
408.8989935035
 30
0.0
 11
341.1563074055
 21
411.6989551218
 31
0.0
  0
ARC
  5
19F
330
1F
100
AcDbEntity
  8
0
  6
Continuous
 62
     7
370
    25
100
AcDbCircle
 10
348.8563074055
 20
410.239328798
 30
0.0
 40
1.300000000000011
100
AcDbArc
 50
270.3
 51
0.0
  0
LINE
  5
1A0
330
1F
100
AcDbEntity
  8
0
  6
Continuous
 62
     7
370
    25
100
AcDbLine
 10
350.1563074055
 20
411.7393082363
 30
0.0
 11
350.1563074055
 21
410.239328798
 31
0.0
  0
LINE
  5
1A1
330
1F
100
AcDbEntity
  8
0
  6
Continuous
 62
     7
370
    25
100
AcDbLine
 10
350.1563074055
 20
476.1529274115
 30
0.0
 11
350.1563074055
 21
411.7393082363
 31
0.0
  0
ARC
  5
1A2
330
1F
100
AcDbEntity
  8
0
  6
Continuous
 62
     7
370
    25
100
AcDbCircle
 10
348.8563074055
 20
477.6529068499
 30
0.0
 40
1.300000000000011
100
AcDbArc
 50
0.0
 51
89.7
  0
LINE
  5
1A3
330
1F
100
AcDbEntity
  8
0
  6
Continuous
 62
     7
370
    25
100
AcDbLine
 10
350.1563074055
 20
477.6529068499
 30
0.0
 11
350.1563074055
 21
476.1529274115
 31
0.0
  0
LINE
  5
1A4
330
1F
100
AcDbEntity
  8
0
  6
Continuous
 62
     7
370
    25
100
AcDbLine
 10
543.7461429809
 20
455.4351416447
 30
0.0
 11
543.7461429809
 21
444.9392613794
 31
0.0
  0
SPLINE
  5
1A5
330
1F
100
AcDbEntity
  8
0
  6
Continuous
 62
     7
370
    25
100
AcDbSpline
210
0.0
220
0.0
230
1.0
 70
     8
 71
     3
 72
    19
 73
    15
 74
     0
 42
0.000000001
 43
0.00000001
 40
0.0613356081819147
 40
0.0613356081819147
 40
0.0613356081819147
 40
0.0613356081819147
 40
0.0879924432692718
 40
0.1173232576923624
 40
0.1173232576923624
 40
0.1606756052632727
 40
0.2040279528341829
 40
0.2473803004050932
 40
0.2907326479760034
 40
0.2907326479760034
 40
0.4680494859820026
 40
0.6453663239880018
 40
0.8226831619940008
 40
1.0
 40
1.0
 40
1.0
 40
1.0
 10
350.1563074054831
 20
430.6990330518764
 30
0.0
 10
351.5195550836766
 20
430.6990330518764
 30
0.0
 10
354.3828119266992
 20
430.6990330518765
 30
0.0
 10
357.2461063291575
 20
430.6990330518764
 30
0.0
 10
360.9632689479511
 20
430.6990330518765
 30
0.0
 10
365.3975943220307
 20
430.7236116501437
 30
0.0
 10
372.0483615123708
 20
430.8342156379326
 30
0.0
 10
378.6974636434344
 20
431.0185409240476
 30
0.0
 10
383.1284657071213
 20
431.1905528575322
 30
0.0
 10
394.4026518895328
 20
431.690814876153
 30
0.0
 10
412.5211490988115
 20
432.4947749883634
 30
0.0
 10
439.6987718780629
 20
433.7007096973423
 30
0.0
 10
466.8763126352185
 20
434.9066407668096
 30
0.0
 10
484.9946457994986
 20
435.7105935999593
 30
0.0
 10
494.0538123816399
 20
436.1125700165343
 30
0.0
  0
SPLINE
  5
1A6
330
1F
100
AcDbEntity
  8
0
  6
Continuous
 62
     7
370
    25
100
AcDbSpline
210
0.0
220
0.0
230
1.0
 70
     8
 71
     3
 72
     8
 73
     4
 74
     0
 42
0.000000001
 43
0.00000001
 40
0.0727793026364925
 40
0.0727793026364925
 40
0.0727793026364925
 40
0.0727793026364925
 40
1.0
 40
1.0
 40
1.0
 40
1.0
 10
543.0555165635022
 20
443.9489989440506
 30
0.0
 10
540.1202617547839
 20
442.8964297757666
 30
0.0
 10
537.1546292091527
 20
441.9616727861937
 30
0.0
 10
534.1445232154651
 20
441.1402374935495
 30
0.0
  0
SPLINE
  5
1A7
330
1F
100
AcDbEntity
  8
0
  6
Continuous
 62
     7
370
    25
100
AcDbSpline
210
0.0
220
0.0
230
1.0
 70
    24
 71
     3
 72
    18
 73
    14
 74
     0
 42
0.000000001
 43
0.00000001
 40
-0.0000021263988989
 40
-0.0000021263988989
 40
-0.0000021263988989
 40
-0.0000021263988989
 40
0.0
 40
0.0
 40
0.0
 40
0.4275885759528201
 40
0.4413627440184678
 40
0.4674703602842568
 40
0.5038751990645237
 40
0.5336694441824861
 40
0.5666506397578235
 40
0.5795963365626782
 40
1.0
 40
1.0
 40
1.0
 40
1.0
 10
521.8343829617384
 20
438.9696276305142
 30
0.0
 10
521.834397408763
 20
438.9696301779144
 30
0.0
 10
521.8344118557877
 20
438.9696327253146
 30
0.0
 10
521.8344263028125
 20
438.9696352727149
 30
0.0
 10
524.7395175026315
 20
439.4818812326612
 30
0.0
 10
527.4969761187035
 20
439.9680955848611
 30
0.0
 10
529.7799627840252
 20
440.3706477305547
 30
0.0
 10
530.1429446811933
 20
440.4346512325341
 30
0.0
 10
530.5633455607239
 20
440.5087792503089
 30
0.0
 10
530.9926396809682
 20
440.5844753863673
 30
0.0
 10
531.3035667926633
 20
440.6393002251929
 30
0.0
 10
533.1396147153406
 20
440.9630450118344
 30
0.0
 10
534.1445232154692
 20
441.1402374935506
 30
0.0
 10
534.1445232154692
 20
441.1402374935506
 30
0.0
  0
SPLINE
  5
1A8
330
1F
100
AcDbEntity
  8
0
  6
Continuous
 62
     7
370
    25
100
AcDbSpline
210
0.0
220
0.0
230
1.0
 70
    24
 71
     3
 72
    16
 73
    12
 74
     0
 42
0.000000001
 43
0.00000001
 40
0.0
 40
0.0
 40
0.0
 40
0.0
 40
0.1172327209136814
 40
0.2377991226779744
 40
0.3550940086637552
 40
0.4758799555913585
 40
0.5916202640953071
 40
0.7106888833694942
 40
0.8266531356862266
 40
0.9459728681515259
 40
0.9999999999999999
 40
0.9999999999999999
 40
0.9999999999999999
 40
0.9999999999999999
 10
521.8343761868545
 20
438.9696264359173
 30
0.0
 10
521.143451741851
 20
438.8477978146323
 30
0.0
 10
519.7419554225806
 20
438.6006762001813
 30
0.0
 10
517.7091282047783
 20
438.2422339145642
 30
0.0
 10
515.7771849227955
 20
437.9015801887522
 30
0.0
 10
514.0448156272232
 20
437.5961167413919
 30
0.0
 10
512.5330481908053
 20
437.329551353795
 30
0.0
 10
511.2932726798609
 20
437.1109454811939
 30
0.0
 10
510.374491407603
 20
436.9489395535252
 30
0.0
 10
509.8046553569171
 20
436.8484620832089
 30
0.0
 10
509.7240885050359
 20
436.8342559734716
 30
0.0
 10
509.698978181025
 20
436.8298283458541
 30
0.0
  0
LWPOLYLINE
  5
1A9
330
1F
100
AcDbEntity
  8
0
  6
Continuous
 62
     7
370
    25
100
AcDbPolyline
 90
        3
 70
   128
 43
0.0
 10
494.0538116683
 20
436.1123762976
 10
501.7890709814
 20
436.4558274778
 10
504.5102791596
 20
436.5765863873
  0
LINE
  5
1AA
330
1F
100
AcDbEntity
  8
0
  6
Continuous
 62
     7
370
    25
100
AcDbLine
 10
504.7502061587
 20
436.5872336149
 30
0.0
 11
509.5243296164
 21
436.7990946359
 31
0.0
  0
LINE
  5
1AB
330
1F
100
AcDbEntity
  8
0
  6
Continuous
 62
     7
370
    25
100
AcDbLine
 10
532.4521005664
 20
456.5905655506
 30
0.0
 11
532.6698891101
 21
456.5871813192
 31
0.0
  0
SPLINE
  5
1AC
330
1F
100
AcDbEntity
  8
0
  6
Continuous
 62
     7
370
    25
100
AcDbSpline
210
0.0
220
0.0
230
1.0
 70
     8
 71
     3
 72
    39
 73
    35
 74
     0
 42
0.000000001
 43
0.00000001
 40
0.0462470465041726
 40
0.0462470465041726
 40
0.0462470465041726
 40
0.0462470465041726
 40
0.0481741340635758
 40
0.0963483740612343
 40
0.1445226140588927
 40
0.1926968540565511
 40
0.2305480426261396
 40
0.25
 40
0.2683992311957285
 40
0.3062504197653171
 40
0.3441016083349058
 40
0.3623238524467841
 40
0.375
 40
0.3766413299632599
 40
0.4147073587227028
 40
0.4527733874821455
 40
0.4908394162415882
 40
0.5
 40
0.5289054450010311
 40
0.5887234901944411
 40
0.625
 40
0.6485415353878514
 40
0.7071966244525918
 40
0.75
 40
0.7532827658606023
 40
0.7916766553444979
 40
0.8218432827961301
 40
0.8602371722800255
 40
0.875
 40
0.8904037997316577
 40
0.9157533717971742
 40
0.9356708927057946
 40
0.9375
 40
0.9422829626682729
 40
0.9422829626682729
 40
0.9422829626682729
 40
0.9422829626682729
 10
350.1563074054831
 20
457.190997577459
 30
0.0
 10
350.286959591691
 20
457.1907840844747
 30
0.0
 10
353.6836677445609
 20
457.1851337610823
 30
0.0
 10
360.344003881463
 20
457.1690264894673
 30
0.0
 10
370.135722405237
 20
457.1358818093046
 30
0.0
 10
379.2290616673748
 20
457.1007337146351
 30
0.0
 10
386.3795078636039
 20
457.0731364693758
 30
0.0
 10
391.5140333473973
 20
457.05450589089
 30
0.0
 10
396.6505846758408
 20
457.0370470249741
 30
0.0
 10
403.0374787000308
 20
457.0170099976311
 30
0.0
 10
409.4099018840916
 20
456.9978675948241
 30
0.0
 10
414.0702319628143
 20
456.983572514311
 30
0.0
 10
416.2746004219659
 20
456.9766386677903
 30
0.0
 10
419.8220404399204
 20
456.9653023684874
 30
0.0
 10
425.0840521908364
 20
456.9477691912143
 30
0.0
 10
432.8096571774181
 20
456.9209653444974
 30
0.0
 10
438.5887177778799
 20
456.9008405785706
 30
0.0
 10
443.757338616687
 20
456.8831985008712
 30
0.0
 10
450.414642405716
 20
456.8609434252172
 30
0.0
 10
458.9275873759703
 20
456.8334178541949
 30
0.0
 10
467.0353970978873
 20
456.8071897270459
 30
0.0
 10
475.0205167232397
 20
456.7809850271035
 30
0.0
 10
483.4182927015185
 20
456.7529826472257
 30
0.0
 10
490.5205374863453
 20
456.7291051753286
 30
0.0
 10
496.297964732911
 20
456.7096824614785
 30
0.0
 10
501.245247923487
 20
456.6930570732689
 30
0.0
 10
508.5889726061699
 20
456.668564431718
 30
0.0
 10
514.22932773612
 20
456.6500039372833
 30
0.0
 10
518.7667147473019
 20
456.6353236233512
 30
0.0
 10
522.3839914344861
 20
456.6237541668913
 30
0.0
 10
526.3708362341577
 20
456.610973899784
 30
0.0
 10
529.661583289206
 20
456.6000758320949
 30
0.0
 10
531.6037857029764
 20
456.5934896489604
 30
0.0
 10
532.0948018186689
 20
456.5918129867933
 30
0.0
 10
532.4521009852358
 20
456.5905655491717
 30
0.0
  0
ARC
  5
1AD
330
1F
100
AcDbEntity
  8
0
  6
Continuous
 62
     7
370
    25
100
AcDbCircle
 10
542.7036111838
 20
444.9303424882
 30
0.0
 40
1.042531797086177
100
AcDbArc
 50
289.7276052245
 51
0.0000000685
  0
ARC
  5
1AE
330
1F
100
AcDbEntity
  8
0
  6
Continuous
 62
     7
370
    25
100
AcDbCircle
 10
542.6806788003
 20
455.4428792771
 30
0.0
 40
1.06546418057584
100
AcDbArc
 50
19.848373215
 51
73.3806363582
  0
LINE
  5
1AF
330
1F
100
AcDbEntity
  8
0
  6
Continuous
 62
     7
370
    25
100
AcDbLine
 10
543.7461429809
 20
455.4421097243
 30
0.0
 11
543.7461429809
 21
455.4397864352
 31
0.0
  0
LINE
  5
1B0
330
1F
100
AcDbEntity
  8
0
  6
Continuous
 62
     7
370
    25
100
AcDbLine
 10
534.8108765502
 20
434.4817746992
 30
0.0
 11
527.7161555804
 21
433.2307839716
 31
0.0
  0
LINE
  5
1B1
330
1F
100
AcDbEntity
  8
0
  6
Continuous
 62
     7
370
    25
100
AcDbLine
 10
527.7161555804
 20
433.2307839716
 30
0.0
 11
527.1218186918
 21
436.6014359623
 31
0.0
  0
LINE
  5
1B2
330
1F
100
AcDbEntity
  8
0
  6
Continuous
 62
     7
370
    25
100
AcDbLine
 10
517.6758745592
 20
434.9358611535
 30
0.0
 11
518.2702114478
 21
431.5652091627
 31
0.0
  0
LINE
  5
1B3
330
1F
100
AcDbEntity
  8
0
  6
Continuous
 62
     7
370
    25
100
AcDbLine
 10
518.2702114478
 20
431.5652091627
 30
0.0
 11
511.1754904779
 21
430.3142184352
 31
0.0
  0
LINE
  5
1B4
330
1F
100
AcDbEntity
  8
0
  6
Continuous
 62
     7
370
    25
100
AcDbLine
 10
517.6758745592
 20
434.9358611535
 30
0.0
 11
527.1218186918
 21
436.6014359623
 31
0.0
  0
SPLINE
  5
1B5
330
1F
100
AcDbEntity
  8
0
  6
Continuous
 62
     7
370
    25
100
AcDbSpline
210
0.0
220
0.0
230
1.0
 70
     8
 71
     3
 72
    10
 73
     6
 74
     0
 42
0.000000001
 43
0.00000001
 40
0.0
 40
0.0
 40
0.0
 40
0.0
 40
0.5
 40
0.5
 40
1.0
 40
1.0
 40
1.0
 40
1.0
 10
523.0934393361908
 20
431.829417545852
 30
0.0
 10
523.8885483493143
 20
431.9696167174702
 30
0.0
 10
524.6837778715402
 20
432.1636178200686
 30
0.0
 10
526.2263528148465
 20
432.637736402725
 30
0.0
 10
526.9785585341338
 20
432.9177989120172
 30
0.0
 10
527.7161555803692
 20
433.2307839715745
 30
0.0
  0
SPLINE
  5
1B6
330
1F
100
AcDbEntity
  8
0
  6
Continuous
 62
     7
370
    25
100
AcDbSpline
210
0.0
220
0.0
230
1.0
 70
     8
 71
     3
 72
     8
 73
     4
 74
     0
 42
0.000000001
 43
0.00000001
 40
0.0
 40
0.0
 40
0.0
 40
0.0
 40
1.0
 40
1.0
 40
1.0
 40
1.0
 10
518.2702114477718
 20
431.5652091627329
 30
0.0
 10
519.8903203489356
 20
431.4805012644427
 30
0.0
 10
521.4995091964516
 20
431.5483646568516
 30
0.0
 10
523.0934393361908
 20
431.829417545852
 30
0.0
  0
LINE
  5
1B7
330
1F
100
AcDbEntity
  8
0
  6
Continuous
 62
     7
370
    25
100
AcDbLine
 10
533.9263246193
 20
433.7395475002
 30
0.0
 11
523.0934393362
 21
431.8294175459
 31
0.0
  0
LINE
  5
1B8
330
1F
100
AcDbEntity
  8
0
  6
Continuous
 62
     7
370
    25
100
AcDbLine
 10
523.0934393362
 20
431.8294175459
 30
0.0
 11
512.2605540531
 21
429.9192875915
 31
0.0
  0
LINE
  5
1B9
330
1F
100
AcDbEntity
  8
0
  6
Continuous
 62
     7
370
    25
100
AcDbLine
 10
543.7461429809
 20
455.4421031679
 30
0.0
 11
543.7461429809
 21
455.4428792771
 31
0.0
  0
LINE
  5
1BA
330
1F
100
AcDbEntity
  8
0
  6
Continuous
 62
     8
370
    18
100
AcDbLine
 10
415.5563074055
 20
457.0160333353
 30
0.0
 11
415.5563074055
 21
466.9461178239
 31
0.0
  0
LINE
  5
1BB
330
1F
100
AcDbEntity
  8
0
  6
Continuous
 62
     8
370
    18
100
AcDbLine
 10
385.4563074055
 20
429.9461178239
 30
0.0
 11
385.4563074055
 21
431.2664436058
 31
0.0
  0
LWPOLYLINE
  5
1BC
330
1F
100
AcDbEntity
  8
0
  6
Continuous
 62
     8
370
    18
100
AcDbPolyline
 90
        9
 70
   128
 43
0.0
 10
385.2563074055
 20
430.0678569544
 10
385.2601503494
 20
430.0441068282
 10
385.271531499
 20
430.0212694061
 10
385.290013483
 20
430.0002223173
 10
385.3148860492
 20
429.9817743897
 10
385.3451933589
 20
429.9666345668
 10
385.379770719
 20
429.9553846634
 10
385.4172893411
 20
429.9484570072
 10
385.4563074055
 20
429.9461178239
  0
LINE
  5
1BD
330
1F
100
AcDbEntity
  8
0
  6
Continuous
 62
     8
370
    18
100
AcDbLine
 10
377.2078835334
 20
466.2553591442
 30
0.0
 11
377.2078835334
 21
457.1893420796
 31
0.0
  0
LINE
  5
1BE
330
1F
100
AcDbEntity
  8
0
  6
Continuous
 62
     8
370
    18
100
AcDbLine
 10
377.2078835334
 20
430.956203302
 30
0.0
 11
377.2078835334
 21
421.6368765036
 31
0.0
  0
SPLINE
  5
1BF
330
1F
100
AcDbEntity
  8
0
  6
Continuous
 62
     8
370
    18
100
AcDbSpline
210
0.0
220
0.0
230
1.0
 70
    24
 71
     3
 72
    13
 73
     9
 74
     0
 42
0.000000001
 43
0.00000001
 40
0.0
 40
0.0
 40
0.0
 40
0.0
 40
0.0478638701012023
 40
0.2471642593755707
 40
0.4334337390948506
 40
0.6203808519056203
 40
0.8098588143778199
 40
1.0
 40
1.0
 40
1.0
 40
1.0
 10
415.5563074054712
 20
432.6294520636533
 30
0.0
 10
415.5563074054699
 20
432.227628234752
 30
0.0
 10
415.5563074054627
 20
430.1526499920848
 30
0.0
 10
415.5563074054666
 20
426.4306334186634
 30
0.0
 10
415.5563074054623
 20
421.4707701193694
 30
0.0
 10
415.5563074054611
 20
416.5250187685662
 30
0.0
 10
415.5563074054638
 20
411.5018693373549
 30
0.0
 10
415.556307405468
 20
408.1221671302351
 30
0.0
 10
415.5563074054701
 20
406.4293637299391
 30
0.0
  0
LINE
  5
1C0
330
1F
100
AcDbEntity
  8
0
  6
Continuous
 62
     8
370
    18
100
AcDbLine
 10
377.2693874075
 20
466.1846070304
 30
0.0
 11
377.2693874075
 21
457.1882507326
 31
0.0
  0
LINE
  5
1C1
330
1F
100
AcDbEntity
  8
0
  6
Continuous
 62
     8
370
    18
100
AcDbLine
 10
377.2693874075
 20
430.9563674225
 30
0.0
 11
377.2693874075
 21
421.7076286174
 31
0.0
  0
SPLINE
  5
1C2
330
1F
100
AcDbEntity
  8
0
  6
Continuous
 62
     8
370
    25
100
AcDbSpline
210
0.0
220
0.0
230
1.0
 70
     8
 71
     3
 72
    65
 73
    61
 74
     0
 42
0.000000001
 43
0.00000001
 40
0.0
 40
0.0
 40
0.0
 40
0.0
 40
0.0736009160735744
 40
0.1099455602700273
 40
0.121286254686788
 40
0.1447299607396408
 40
0.1775652142682182
 40
0.1887427763373247
 40
0.2113286728618445
 40
0.2453600237466637
 40
0.2578026137967949
 40
0.2781513789881151
 40
0.2982917346573004
 40
0.3047468673586623
 40
0.3176269717187044
 40
0.3308350742780738
 40
0.3374752025526531
 40
0.350833585856635
 40
0.369665756545727
 40
0.3758795492880245
 40
0.4144224610312758
 40
0.4336827036162434
 40
0.4400137021799715
 40
0.454288691518806
 40
0.4680724240113864
 40
0.4716378718618484
 40
0.4787792289382317
 40
0.4891332340738122
 40
0.4962812546286074
 40
0.5010230082992106
 40
0.5055238486451183
 40
0.51034255641822
 40
0.524285479771018
 40
0.5312951562265983
 40
0.533679461215255
 40
0.5427739517770064
 40
0.5524753330292492
 40
0.557152723599032
 40
0.5660635891302561
 40
0.5758355621288614
 40
0.5806196614422775
 40
0.594585828805987
 40
0.6042073919446748
 40
0.60919716069392
 40
0.6315105655733216
 40
0.6508302718292728
 40
0.6618527447002213
 40
0.6832316447832939
 40
0.7022493974557553
 40
0.7128992928249798
 40
0.7355657214714643
 40
0.756802980911045
 40
0.778000048090176
 40
0.8300077731965632
 40
0.8494456883823939
 40
0.8554657945140166
 40
0.880740237990681
 40
0.9326175262693045
 40
0.9588115888212793
 40
1.0
 40
1.0
 40
1.0
 40
1.0
 10
417.0558202185766
 20
360.6395732055466
 30
0.0
 10
417.0558314304036
 20
360.5853254288861
 30
0.0
 10
417.0558481787089
 20
360.5042897228578
 30
0.0
 10
417.0559102762506
 20
360.4149039691791
 30
0.0
 10
417.0559546670312
 20
360.362491910093
 30
0.0
 10
417.0560019776565
 20
360.3126735955678
 30
0.0
 10
417.0560534839791
 20
360.262994908768
 30
0.0
 10
417.0561023003035
 20
360.2139782553942
 30
0.0
 10
417.0561483555362
 20
360.1641084750826
 30
0.0
 10
417.0561832452156
 20
360.1133733548538
 30
0.0
 10
417.0561974805491
 20
360.0643657334121
 30
0.0
 10
417.0561965304745
 20
360.0256006996702
 30
0.0
 10
417.0561797611825
 20
359.9913020323393
 30
0.0
 10
417.056155354858
 20
359.9625201820092
 30
0.0
 10
417.0561288210332
 20
359.9388312647586
 30
0.0
 10
417.0560926188501
 20
359.9150693763921
 30
0.0
 10
417.056047918161
 20
359.8910164217288
 30
0.0
 10
417.0559857798796
 20
359.8629599148824
 30
0.0
 10
417.0559076250655
 20
359.8353407731944
 30
0.0
 10
417.0557544982765
 20
359.7898187496408
 30
0.0
 10
417.0555592864224
 20
359.7443778928051
 30
0.0
 10
417.0553148220717
 20
359.6997812875672
 30
0.0
 10
417.0551536204698
 20
359.6724258339312
 30
0.0
 10
417.0550110261472
 20
359.64913451377
 30
0.0
 10
417.0548745192914
 20
359.6281479740463
 30
0.0
 10
417.0547662763141
 20
359.6121302690273
 30
0.0
 10
417.0546754213312
 20
359.5985387865175
 30
0.0
 10
417.0545887679476
 20
359.5832657111611
 30
0.0
 10
417.0545456480979
 20
359.5704923304397
 30
0.0
 10
417.0545405799678
 20
359.5618600108141
 30
0.0
 10
417.0545493949377
 20
359.554902808677
 30
0.0
 10
417.0545842656803
 20
359.5441355625487
 30
0.0
 10
417.0546608574331
 20
359.5337399761982
 30
0.0
 10
417.0547520526198
 20
359.5255686398826
 30
0.0
 10
417.0548290691578
 20
359.5194454177735
 30
0.0
 10
417.054923209451
 20
359.512902713625
 30
0.0
 10
417.0550281319577
 20
359.5062052159229
 30
0.0
 10
417.0551280267733
 20
359.4998290828455
 30
0.0
 10
417.0552197152312
 20
359.493543482871
 30
0.0
 10
417.0553090049148
 20
359.4876506485494
 30
0.0
 10
417.055413424411
 20
359.480832280524
 30
0.0
 10
417.0555120716767
 20
359.4744828654152
 30
0.0
 10
417.0556041012082
 20
359.4685852381247
 30
0.0
 10
417.0557163922098
 20
359.4613214468895
 30
0.0
 10
417.0558425668256
 20
359.4529681059859
 30
0.0
 10
417.0559575533749
 20
359.4447507475255
 30
0.0
 10
417.0560504131305
 20
359.4374256227576
 30
0.0
 10
417.0561237512727
 20
359.4309412841395
 30
0.0
 10
417.0561750245271
 20
359.425390238331
 30
0.0
 10
417.0562132668209
 20
359.4203172281455
 30
0.0
 10
417.0562365629669
 20
359.4156885580954
 30
0.0
 10
417.0562420370075
 20
359.4110892323136
 30
0.0
 10
417.0562216424714
 20
359.4055174783547
 30
0.0
 10
417.0561653233572
 20
359.4017918966926
 30
0.0
 10
417.056103669546
 20
359.3996975140461
 30
0.0
 10
417.0560613059252
 20
359.398542256293
 30
0.0
 10
417.0559896217496
 20
359.397098238031
 30
0.0
 10
417.055898677084
 20
359.3963281812976
 30
0.0
 10
417.0558026651818
 20
359.3960825251307
 30
0.0
 10
417.0557544380065
 20
359.3961046223648
 30
0.0
 10
417.0557249585198
 20
359.3961181295858
 30
0.0
  0
LINE
  5
1C3
330
1F
100
AcDbEntity
  8
0
  6
Continuous
 62
     8
370
    25
100
AcDbLine
 10
417.0554738405
 20
401.1440073121
 30
0.0
 11
417.0554738405
 21
360.6395728691
 31
0.0
  0
SPLINE
  5
1C4
330
1F
100
AcDbEntity
  8
0
  6
Continuous
 62
     8
370
    18
100
AcDbSpline
210
0.0
220
0.0
230
1.0
 70
     8
 71
     3
 72
    12
 73
     8
 74
     0
 42
0.000000001
 43
0.00000001
 40
0.0
 40
0.0
 40
0.0
 40
0.0
 40
0.1999975921096636
 40
0.3999984185790524
 40
0.6000006443274953
 40
0.8000011564866593
 40
0.9999999999999999
 40
0.9999999999999999
 40
0.9999999999999999
 40
0.9999999999999999
 10
417.0555846297999
 20
406.4627339090521
 30
0.0
 10
417.0555563904217
 20
406.1082063431074
 30
0.0
 10
417.0554999112085
 20
405.3991454778006
 30
0.0
 10
417.0553972308241
 20
404.3354049916169
 30
0.0
 10
417.0553048973262
 20
403.2716211527212
 30
0.0
 10
417.0552337976791
 20
402.2078147435312
 30
0.0
 10
417.0552321085715
 20
401.4986086483459
 30
0.0
 10
417.0552312640213
 20
401.1440070800229
 30
0.0
  0
LINE
  5
1C5
330
1F
100
AcDbEntity
  8
0
  6
Continuous
 62
     8
370
    18
100
AcDbLine
 10
385.4563074055
 20
429.9461178239
 30
0.0
 11
385.4563074055
 21
420.9461178239
 31
0.0
  0
SPLINE
  5
1C6
330
1F
100
AcDbEntity
  8
0
  6
Continuous
 62
     8
370
    18
100
AcDbSpline
210
0.0
220
0.0
230
1.0
 70
     8
 71
     3
 72
     8
 73
     4
 74
     0
 42
0.000000001
 43
0.00000001
 40
0.0
 40
0.0
 40
0.0
 40
0.0
 40
1.0
 40
1.0
 40
1.0
 40
1.0
 10
393.184135103644
 20
421.2028435003179
 30
0.0
 10
393.1722963271273
 20
421.2029065465819
 30
0.0
 10
393.1604539206534
 20
421.2029655316366
 30
0.0
 10
393.148608101294
 20
421.2030206983425
 30
0.0
  0
SPLINE
  5
1C7
330
1F
100
AcDbEntity
  8
0
  6
Continuous
 62
     8
370
    18
100
AcDbSpline
210
0.0
220
0.0
230
1.0
 70
     8
 71
     3
 72
    25
 73
    21
 74
     0
 42
0.000000001
 43
0.00000001
 40
0.0
 40
0.0
 40
0.0
 40
0.0
 40
0.034481623421042
 40
0.0692254048785972
 40
0.1040273775755005
 40
0.1388487605605633
 40
0.190785895883083
 40
0.2420409700568472
 40
0.2676656901353697
 40
0.396873640323636
 40
0.4997240909487092
 40
0.5491753706665116
 40
0.6471296674238528
 40
0.695825945049366
 40
0.7454179200298466
 40
0.8191125742051519
 40
0.8562646581800986
 40
0.8931431689269478
 40
0.9466799412860348
 40
1.0
 40
1.0
 40
1.0
 40
1.0
 10
393.1486081039246
 20
421.2030208111989
 30
0.0
 10
393.0866529469151
 20
421.2031029542144
 30
0.0
 10
392.9622715981622
 20
421.2032678647652
 30
0.0
 10
392.7759219832234
 20
421.201008530224
 30
0.0
 10
392.5901130321131
 20
421.197147071192
 30
0.0
 10
392.3756857565488
 20
421.1907793893812
 30
0.0
 10
392.1359062169633
 20
421.1812204406347
 30
0.0
 10
391.9177141154518
 20
421.1700339469381
 30
0.0
 10
391.5772127785289
 20
421.1498457829091
 30
0.0
 10
391.1735655622904
 20
421.1191006164147
 30
0.0
 10
390.7877219795556
 20
421.0813794295239
 30
0.0
 10
390.4829621016008
 20
421.047918904887
 30
0.0
 10
390.2746118423764
 20
421.0225913032031
 30
0.0
 10
390.1008563671998
 20
420.9999698571544
 30
0.0
 10
389.9695818417154
 20
420.9821759862237
 30
0.0
 10
389.8727182248487
 20
420.9684765935363
 30
0.0
 10
389.8056799318909
 20
420.9587808034937
 30
0.0
 10
389.7610408107703
 20
420.9522453326859
 30
0.0
 10
389.7272544709013
 20
420.9472463189487
 30
0.0
 10
389.7226471646794
 20
420.9465572626115
 30
0.0
 10
389.7203481835492
 20
420.9462134331719
 30
0.0
  0
SPLINE
  5
1C8
330
1F
100
AcDbEntity
  8
0
  6
Continuous
 62
     8
370
    18
100
AcDbSpline
210
0.0
220
0.0
230
1.0
 70
     8
 71
     3
 72
     9
 73
     5
 74
     0
 42
0.000000001
 43
0.00000001
 40
0.0
 40
0.0
 40
0.0
 40
0.0
 40
0.499865318376585
 40
1.0
 40
1.0
 40
1.0
 40
1.0
 10
393.1826445563281
 20
421.2025331447077
 30
0.0
 10
393.3513883453679
 20
421.2017196904094
 30
0.0
 10
393.6889668546909
 20
421.2000923434653
 30
0.0
 10
394.0263624557396
 20
421.1888619520919
 30
0.0
 10
394.1951056972512
 20
421.1832452438778
 30
0.0
  0
SPLINE
  5
1C9
330
1F
100
AcDbEntity
  8
0
  6
Continuous
 62
     8
370
    18
100
AcDbSpline
210
0.0
220
0.0
230
1.0
 70
     8
 71
     3
 72
    29
 73
    25
 74
     0
 42
0.000000001
 43
0.00000001
 40
0.0
 40
0.0
 40
0.0
 40
0.0
 40
0.0386096738297671
 40
0.0772449033380911
 40
0.1159263288329406
 40
0.2507754130450363
 40
0.3301220216774727
 40
0.3660525844535506
 40
0.382078917469146
 40
0.3891744605374794
 40
0.3919694974868213
 40
0.3947688064725992
 40
0.3948447481853845
 40
0.3954718233264271
 40
0.3972393824656678
 40
0.4039665582008074
 40
0.4301734128702364
 40
0.5014098764600411
 40
0.5769328768292509
 40
0.6341677246517752
 40
0.6822747630767346
 40
0.7925675367916752
 40
0.9051383359171378
 40
0.9999999999999999
 40
0.9999999999999999
 40
0.9999999999999999
 40
0.9999999999999999
 10
398.2392324508362
 20
420.68628566174
 30
0.0
 10
398.5445337453077
 20
420.6163912466812
 30
0.0
 10
399.155338412667
 20
420.4765561535671
 30
0.0
 10
400.0587014666246
 20
420.2136891795417
 30
0.0
 10
401.6876317182229
 20
419.658754821153
 30
0.0
 10
403.5546235948002
 20
418.775215196086
 30
0.0
 10
405.2351517127089
 20
417.6310583484929
 30
0.0
 10
406.0604236712543
 20
416.957117008206
 30
0.0
 10
406.4191486311195
 20
416.6396943258273
 30
0.0
 10
406.5740844610135
 20
416.4976298957262
 30
0.0
 10
406.6494219703171
 20
416.4275042881507
 30
0.0
 10
406.6829428288891
 20
416.3960170772363
 30
0.0
 10
406.703614494221
 20
416.3765338661802
 30
0.0
 10
406.718194206515
 20
416.3627879716832
 30
0.0
 10
406.771927352752
 20
416.3119319817176
 30
0.0
 10
406.9750764229796
 20
416.117128041553
 30
0.0
 10
407.5698681463731
 20
415.5168067914563
 30
0.0
 10
408.4810128787005
 20
414.4460611290147
 30
0.0
 10
409.4080375021288
 20
413.0712337895143
 30
0.0
 10
410.1060535299907
 20
411.7792217580487
 30
0.0
 10
410.822752959015
 20
410.1823937237502
 30
0.0
 10
411.4989639380839
 20
408.0846971962644
 30
0.0
 10
411.997159799063
 20
405.5459938025615
 30
0.0
 10
412.0676363624847
 20
403.863275380148
 30
0.0
 10
412.0998662458
 20
403.0937455425126
 30
0.0
  0
SPLINE
  5
1CA
330
1F
100
AcDbEntity
  8
0
  6
Continuous
 62
     8
370
    18
100
AcDbSpline
210
0.0
220
0.0
230
1.0
 70
    24
 71
     3
 72
    10
 73
     6
 74
     0
 42
0.000000001
 43
0.00000001
 40
0.0
 40
0.0
 40
0.0
 40
0.0
 40
0.5
 40
0.5
 40
1.0
 40
1.0
 40
1.0
 40
1.0
 10
415.5563074054765
 20
406.4293637299391
 30
0.0
 10
415.5563074054766
 20
405.5428296979626
 30
0.0
 10
415.5563074054764
 20
404.6614323910224
 30
0.0
 10
415.5563074054766
 20
402.8990651652814
 30
0.0
 10
415.5563074054765
 20
402.0179696135855
 30
0.0
 10
415.5563074054765
 20
401.1364151645164
 30
0.0
  0
ARC
  5
1CB
330
1F
100
AcDbEntity
  8
0
  6
Continuous
 62
     8
370
    18
100
AcDbCircle
 10
415.914554072
 20
437.9101735011
 30
0.0
 40
77.27902315601577
100
AcDbArc
 50
269.7343898163
 51
270.845925062
  0
LINE
  5
1CC
330
1F
100
AcDbEntity
  8
0
  6
Continuous
 62
     8
370
    18
100
AcDbLine
 10
415.5563074055
 20
401.1364151645
 30
0.0
 11
415.5563074055
 21
360.6319807216
 31
0.0
  0
SPLINE
  5
1CD
330
1F
100
AcDbEntity
  8
0
  6
Continuous
 62
     8
370
    18
100
AcDbSpline
210
0.0
220
0.0
230
1.0
 70
    24
 71
     3
 72
    22
 73
    18
 74
     0
 42
0.000000001
 43
0.00000001
 40
0.0
 40
0.0
 40
0.0
 40
0.0
 40
0.125
 40
0.125
 40
0.25
 40
0.25
 40
0.375
 40
0.375
 40
0.5
 40
0.5
 40
0.625
 40
0.625
 40
0.75
 40
0.75
 40
0.875
 40
0.875
 40
1.0
 40
1.0
 40
1.0
 40
1.0
 10
415.5563074054829
 20
360.631980721575
 30
0.0
 10
415.5563074054829
 20
360.443589108596
 30
0.0
 10
415.5563074054829
 20
360.2541679296916
 30
0.0
 10
415.5563074054828
 20
359.8719874475537
 30
0.0
 10
415.5563074054828
 20
359.6796684778873
 30
0.0
 10
415.5563074054828
 20
359.308077666881
 30
0.0
 10
415.5563074054828
 20
359.1292461591081
 30
0.0
 10
415.5563074054828
 20
358.8045890955273
 30
0.0
 10
415.5563074054828
 20
358.6592038732865
 30
0.0
 10
415.5563074054828
 20
358.411761768376
 30
0.0
 10
415.5563074054828
 20
358.3090590209507
 30
0.0
 10
415.5563074054828
 20
358.1448291902973
 30
0.0
 10
415.5563074054828
 20
358.0834153718639
 30
0.0
 10
415.5563074054828
 20
357.9970285305063
 30
0.0
 10
415.5563074054828
 20
357.9721687723769
 30
0.0
 10
415.5563074054828
 20
357.9466567866863
 30
0.0
 10
415.5563074054828
 20
357.9461178239198
 30
0.0
 10
415.5563074054828
 20
357.9461178239198
 30
0.0
  0
LINE
  5
1CE
330
1F
100
AcDbEntity
  8
0
  6
Continuous
 62
     8
370
    18
100
AcDbLine
 10
392.4748887724
 20
420.195570454
 30
0.0
 11
399.4657227483
 21
420.195570454
 31
0.0
  0
SPLINE
  5
1CF
330
1F
100
AcDbEntity
  8
0
  6
Continuous
 62
     8
370
    18
100
AcDbSpline
210
0.0
220
0.0
230
1.0
 70
     8
 71
     3
 72
    10
 73
     6
 74
     0
 42
0.000000001
 43
0.00000001
 40
0.0
 40
0.0
 40
0.0
 40
0.0
 40
0.2871413152255032
 40
0.6204746464548497
 40
1.0
 40
1.0
 40
1.0
 40
1.0
 10
350.1563074054831
 20
443.8460918391954
 30
0.0
 10
363.9250212323793
 20
443.9194264843131
 30
0.0
 10
393.6774023453938
 20
444.0778930148666
 30
0.0
 10
441.6283504641597
 20
444.3432824817946
 30
0.0
 10
475.8105763991652
 20
444.5366911160867
 30
0.0
 10
494.0091642259334
 20
444.6396617074202
 30
0.0
  0
LINE
  5
1D0
330
1F
100
AcDbEntity
  8
0
  6
Continuous
 62
     8
370
    18
100
AcDbLine
 10
493.9525665098
 20
455.4489304724
 30
0.0
 11
350.1563074055
 21
455.4697234869
 31
0.0
  0
LINE
  5
1D1
330
1F
100
AcDbEntity
  8
0
  6
Continuous
 62
     8
370
    18
100
AcDbLine
 10
521.8344263028
 20
444.770094647
 30
0.0
 11
540.2470592787
 21
444.9117170232
 31
0.0
  0
LINE
  5
1D2
330
1F
100
AcDbEntity
  8
0
  6
Continuous
 62
     8
370
    18
100
AcDbLine
 10
539.406170936
 20
455.4411812709
 30
0.0
 11
521.8344269254
 21
455.4445151525
 31
0.0
  0
LINE
  5
1D3
330
1F
100
AcDbEntity
  8
0
  6
Continuous
 62
     8
370
    18
100
AcDbLine
 10
540.2470592787
 20
455.4408122241
 30
0.0
 11
539.4041517204
 21
455.4422324956
 31
0.0
  0
SPLINE
  5
1D4
330
1F
100
AcDbEntity
  8
0
  6
Continuous
 62
     8
370
    18
100
AcDbSpline
210
0.0
220
0.0
230
1.0
 70
     8
 71
     3
 72
    16
 73
    12
 74
     0
 42
0.000000001
 43
0.00000001
 40
0.0
 40
0.0
 40
0.0
 40
0.0
 40
0.0921333324255481
 40
0.2088699081380328
 40
0.3286952260889076
 40
0.4260794043084306
 40
0.5031619528113247
 40
0.6144194675182144
 40
0.7938082844378717
 40
0.9056699020004794
 40
1.0
 40
1.0
 40
1.0
 40
1.0
 10
540.2470592787039
 20
444.9117170231996
 30
0.0
 10
540.4257841928445
 20
444.9137812898005
 30
0.0
 10
540.8309606411044
 20
444.9184610638186
 30
0.0
 10
541.4677659382619
 20
444.9320732053505
 30
0.0
 10
542.1008987408778
 20
444.945703220752
 30
0.0
 10
542.6188376400235
 20
444.955237087532
 30
0.0
 10
543.0532690975217
 20
444.9613915198904
 30
0.0
 10
543.4696763676707
 20
444.9574408609334
 30
0.0
 10
543.6837745964068
 20
444.9489277480527
 30
0.0
 10
543.7456172761696
 20
444.9409042222227
 30
0.0
 10
543.7459779686268
 20
444.9397770475389
 30
0.0
 10
543.7461429808571
 20
444.9392613793993
 30
0.0
  0
SPLINE
  5
1D5
330
1F
100
AcDbEntity
  8
0
  6
Continuous
 62
     8
370
    18
100
AcDbSpline
210
0.0
220
0.0
230
1.0
 70
     8
 71
     3
 72
    22
 73
    18
 74
     0
 42
0.000000001
 43
0.00000001
 40
0.0
 40
0.0
 40
0.0
 40
0.0
 40
0.125
 40
0.125
 40
0.25
 40
0.25
 40
0.375
 40
0.375
 40
0.5
 40
0.5
 40
0.625
 40
0.625
 40
0.75
 40
0.75
 40
0.875
 40
0.875
 40
1.0
 40
1.0
 40
1.0
 40
1.0
 10
543.746142980857
 20
455.439786435191
 30
0.0
 10
543.7461429808569
 20
455.4398291763976
 30
0.0
 10
543.7454362038153
 20
455.4398719176041
 30
0.0
 10
543.712124152299
 20
455.4399574000171
 30
0.0
 10
543.6796681508381
 20
455.4400001412237
 30
0.0
 10
543.5669469879125
 20
455.4400856236367
 30
0.0
 10
543.4868310994618
 20
455.4401283648432
 30
0.0
 10
543.2726770443293
 20
455.4402138472562
 30
0.0
 10
543.1387881506608
 20
455.4402565884628
 30
0.0
 10
542.8162943207979
 20
455.4403420708758
 30
0.0
 10
542.626844366441
 20
455.4403848120823
 30
0.0
 10
542.2038573590653
 20
455.4404702944953
 30
0.0
 10
541.9708953343143
 20
455.4405130357018
 30
0.0
 10
541.4869155896234
 20
455.4405985181149
 30
0.0
 10
541.2364728979517
 20
455.4406412593214
 30
0.0
 10
540.7388747416013
 20
455.4407267417344
 30
0.0
 10
540.4922943051912
 20
455.4407694829409
 30
0.0
 10
540.2470592787039
 20
455.4408122241475
 30
0.0
  0
LINE
  5
1D6
330
1F
100
AcDbEntity
  8
0
  6
Continuous
 62
     8
370
    18
100
AcDbLine
 10
494.0091647193
 20
444.6395674811
 30
0.0
 11
521.8239760205
 21
444.7698856068
 31
0.0
  0
LINE
  5
1D7
330
1F
100
AcDbEntity
  8
0
  6
Continuous
 62
     8
370
    18
100
AcDbLine
 10
521.8344269254
 20
455.4445151525
 30
0.0
 11
493.9525665098
 21
455.4489304724
 31
0.0
  0
SPLINE
  5
1D8
330
1F
100
AcDbEntity
  8
0
  6
Continuous
 62
     8
370
    18
100
AcDbSpline
210
0.0
220
0.0
230
1.0
 70
     8
 71
     3
 72
    17
 73
    13
 74
     0
 42
0.000000001
 43
0.00000001
 40
0.0
 40
0.0
 40
0.0
 40
0.0
 40
0.0241439538124504
 40
0.0894856071799601
 40
0.1960248896375272
 40
0.3437616127077728
 40
0.5326953633401181
 40
0.635014200203156
 40
0.7329040559548574
 40
0.8263641075261492
 40
0.9153949252126989
 40
1.0
 40
1.0
 40
1.0
 40
1.0
 10
494.014515293975
 20
443.612859352258
 30
0.0
 10
492.8567487078747
 20
443.6057761860984
 30
0.0
 10
488.5656766351463
 20
443.5795235917855
 30
0.0
 10
479.165769715815
 20
443.5197644003136
 30
0.0
 10
463.8392581570959
 20
443.4239789797535
 30
0.0
 10
442.5861707911172
 20
443.2920268164978
 30
0.0
 10
421.5354498351338
 20
443.1639027411896
 30
0.0
 10
402.8750129358684
 20
443.0513068357719
 30
0.0
 10
388.7928047851449
 20
442.9650441357662
 30
0.0
 10
375.3477876272765
 20
442.8830784022752
 30
0.0
 10
362.5397489293912
 20
442.8155618824284
 30
0.0
 10
354.2133786260804
 20
442.7749245013017
 30
0.0
 10
350.1563074054831
 20
442.7551237065444
 30
0.0
  0
SPLINE
  5
1D9
330
1F
100
AcDbEntity
  8
0
  6
Continuous
 62
     8
370
    18
100
AcDbSpline
210
0.0
220
0.0
230
1.0
 70
     8
 71
     3
 72
    16
 73
    12
 74
     0
 42
0.000000001
 43
0.00000001
 40
0.0
 40
0.0
 40
0.0
 40
0.0
 40
0.2499999999999999
 40
0.2499999999999999
 40
0.4999999999999998
 40
0.4999999999999998
 40
0.7499999999999999
 40
0.7499999999999999
 40
0.8749999999999999
 40
0.8749999999999999
 40
1.0
 40
1.0
 40
1.0
 40
1.0
 10
350.1563074054831
 20
456.5632711835654
 30
0.0
 10
362.139615056064
 20
456.561412106183
 30
0.0
 10
374.1221504752234
 20
456.5564539544773
 30
0.0
 10
398.0888448955832
 20
456.5487092047283
 30
0.0
 10
410.0734665448939
 20
456.5454579486869
 30
0.0
 10
434.0378328687709
 20
456.5381554555037
 30
0.0
 10
446.0221962535513
 20
456.5343617529293
 30
0.0
 10
463.999308872571
 20
456.5289286187723
 30
0.0
 10
469.989898227745
 20
456.5271202139852
 30
0.0
 10
481.9689026077525
 20
456.5234620099886
 30
0.0
 10
487.9583478468242
 20
456.5216170598493
 30
0.0
 10
493.9526310713567
 20
456.5197539717772
 30
0.0
  0
SPLINE
  5
1DA
330
1F
100
AcDbEntity
  8
0
  6
Continuous
 62
     8
370
    18
100
AcDbSpline
210
0.0
220
0.0
230
1.0
 70
     8
 71
     3
 72
    13
 73
     9
 74
     0
 42
0.000000001
 43
0.00000001
 40
0.0
 40
0.0
 40
0.0
 40
0.0
 40
0.1073716779534747
 40
0.2265434756302794
 40
0.3575160807849833
 40
0.5002903411993
 40
0.8124436841281649
 40
1.0
 40
1.0
 40
1.0
 40
1.0
 10
521.834425849009
 20
443.7235961106472
 30
0.0
 10
520.8387629456213
 20
443.7158496734058
 30
0.0
 10
518.7380140424764
 20
443.6995054674675
 30
0.0
 10
515.4226643290092
 20
443.6816162203854
 30
0.0
 10
511.778993584996
 20
443.6678639611821
 30
0.0
 10
506.3457365263847
 20
443.6563435000307
 30
0.0
 10
500.3877512070067
 20
443.6471563795996
 30
0.0
 10
495.7538027560839
 20
443.622134697742
 30
0.0
 10
494.0145401981399
 20
443.6127432953877
 30
0.0
  0
SPLINE
  5
1DB
330
1F
100
AcDbEntity
  8
0
  6
Continuous
 62
     8
370
    18
100
AcDbSpline
210
0.0
220
0.0
230
1.0
 70
     8
 71
     3
 72
    10
 73
     6
 74
     0
 42
0.000000001
 43
0.00000001
 40
0.0
 40
0.0
 40
0.0
 40
0.0
 40
0.5
 40
0.5
 40
1.0
 40
1.0
 40
1.0
 40
1.0
 10
493.9526310713567
 20
456.5197539717772
 30
0.0
 10
498.6019354833318
 20
456.5182760128073
 30
0.0
 10
503.2537770518024
 20
456.5167954432638
 30
0.0
 10
512.5512729033233
 20
456.5138860809614
 30
0.0
 10
517.1951017811574
 20
456.5124679487694
 30
0.0
 10
521.8344745108652
 20
456.5110793501302
 30
0.0
  0
SPLINE
  5
1DC
330
1F
100
AcDbEntity
  8
0
  6
Continuous
 62
     8
370
    18
100
AcDbSpline
210
0.0
220
0.0
230
1.0
 70
     8
 71
     3
 72
    17
 73
    13
 74
     0
 42
0.000000001
 43
0.00000001
 40
0.0
 40
0.0
 40
0.0
 40
0.0
 40
0.1013633771747023
 40
0.1844909747203452
 40
0.249577574254169
 40
0.3463583534454945
 40
0.4288178211139235
 40
0.5004888050303243
 40
0.6111399394795693
 40
0.7503099099639949
 40
0.854674389183966
 40
1.0
 40
1.0
 40
1.0
 40
1.0
 10
540.2488427702212
 20
456.5031658679542
 30
0.0
 10
540.38928360881
 20
456.5029008299642
 30
0.0
 10
540.6448992751776
 20
456.5024184356469
 30
0.0
 10
540.9904270311486
 20
456.5018453188886
 30
0.0
 10
541.3281106160465
 20
456.5013490269803
 30
0.0
 10
541.6597857311805
 20
456.5009581190749
 30
0.0
 10
541.9836368296009
 20
456.5006742901425
 30
0.0
 10
542.2852001890634
 20
456.5005337291034
 30
0.0
 10
542.5197108087449
 20
456.500683032266
 30
0.0
 10
542.6370678299928
 20
456.5010319475285
 30
0.0
 10
542.6824856886234
 20
456.5015419500629
 30
0.0
 10
542.6854317232263
 20
456.5018991232069
 30
0.0
 10
542.6871463859032
 20
456.5021070065286
 30
0.0
  0
ARC
  5
1DD
330
1F
100
AcDbEntity
  8
0
  6
Continuous
 62
     8
370
    18
100
AcDbCircle
 10
542.6838169071
 20
455.4397861503
 30
0.0
 40
1.062326073744468
100
AcDbArc
 50
0.0000153641
 51
89.8204267035
  0
SPLINE
  5
1DE
330
1F
100
AcDbEntity
  8
0
  6
Continuous
 62
     8
370
    18
100
AcDbSpline
210
0.0
220
0.0
230
1.0
 70
     8
 71
     3
 72
    17
 73
    13
 74
     0
 42
0.000000001
 43
0.00000001
 40
0.0
 40
0.0
 40
0.0
 40
0.0
 40
0.0117953204103762
 40
0.0430807758439759
 40
0.0938550550847704
 40
0.1640517278709982
 40
0.2266730900471727
 40
0.2862408455259112
 40
0.3959126070769388
 40
0.5003028279328438
 40
0.7502095136947017
 40
1.0
 40
1.0
 40
1.0
 40
1.0
 10
540.2765352505252
 20
443.9440958281684
 30
0.0
 10
540.2041301100882
 20
443.9430231560234
 30
0.0
 10
539.9396803523367
 20
443.9391053694245
 30
0.0
 10
539.3629788569191
 20
443.9316013916478
 30
0.0
 10
538.4276383904377
 20
443.9189440356968
 30
0.0
 10
537.2997120265264
 20
443.903641262632
 30
0.0
 10
536.1177921940958
 20
443.8875085635544
 30
0.0
 10
534.6933521443501
 20
443.8687822940084
 30
0.0
 10
533.01230861242
 20
443.8471693133632
 30
0.0
 10
530.1619044701038
 20
443.8112729346396
 30
0.0
 10
526.4506420049862
 20
443.7671644890801
 30
0.0
 10
523.3805856728609
 20
443.7382828769342
 30
0.0
 10
521.8459144618674
 20
443.7238454289226
 30
0.0
  0
SPLINE
  5
1DF
330
1F
100
AcDbEntity
  8
0
  6
Continuous
 62
     8
370
    18
100
AcDbSpline
210
0.0
220
0.0
230
1.0
 70
     8
 71
     3
 72
    15
 73
    11
 74
     0
 42
0.000000001
 43
0.00000001
 40
0.0
 40
0.0
 40
0.0
 40
0.0
 40
0.1024824867629594
 40
0.238823676494409
 40
0.3951006587700908
 40
0.4976047488058852
 40
0.6038706316132196
 40
0.758190138468252
 40
0.9007298936204959
 40
1.0
 40
1.0
 40
1.0
 40
1.0
 10
543.0313470482824
 20
443.9754997731237
 30
0.0
 10
543.0288118388826
 20
443.9779545036024
 30
0.0
 10
543.0229038242675
 20
443.9836749713255
 30
0.0
 10
542.9639159320361
 20
443.9999152127893
 30
0.0
 10
542.790835160211
 20
444.014839608126
 30
0.0
 10
542.4832088139406
 20
444.0219982089955
 30
0.0
 10
542.0083015899365
 20
444.0078400382905
 30
0.0
 10
541.4082487928683
 20
443.984369826896
 30
0.0
 10
540.8010531217625
 20
443.9595074487887
 30
0.0
 10
540.4291943034528
 20
443.9485813253021
 30
0.0
 10
540.2765352505179
 20
443.9440958281683
 30
0.0
  0
ARC
  5
1E0
330
1F
100
AcDbEntity
  8
0
  6
Continuous
 62
     8
370
    18
100
AcDbCircle
 10
542.7389711922
 20
444.9393002567
 30
0.0
 40
1.007171789395689
100
AcDbArc
 50
286.8755539481
 51
359.9977883562
  0
LINE
  5
1E1
330
1F
100
AcDbEntity
  8
0
  6
Continuous
 62
     8
370
    18
100
AcDbLine
 10
539.4061504696
 20
456.5048848764
 30
0.0
 11
540.2488427702
 21
456.503165868
 31
0.0
  0
SPLINE
  5
1E2
330
1F
100
AcDbEntity
  8
0
  6
Continuous
 62
     8
370
    18
100
AcDbSpline
210
0.0
220
0.0
230
1.0
 70
     8
 71
     3
 72
    11
 73
     7
 74
     0
 42
0.000000001
 43
0.00000001
 40
0.0
 40
0.0
 40
0.0
 40
0.0
 40
0.4022371812388766
 40
0.7037011773803079
 40
0.903095142443507
 40
1.0
 40
1.0
 40
1.0
 40
1.0
 10
521.8344745108652
 20
456.5110793501302
 30
0.0
 10
524.1905439165163
 20
456.51036536367
 30
0.0
 10
528.3124125355234
 20
456.5091162670273
 30
0.0
 10
533.6022063143414
 20
456.5073711345021
 30
0.0
 10
537.1035587086476
 20
456.5060690115648
 30
0.0
 10
538.8390867263539
 20
456.5049256539322
 30
0.0
 10
539.4066930835247
 20
456.5045517175541
 30
0.0
  0
SPLINE
  5
1E3
330
1F
100
AcDbEntity
  8
0
  6
Continuous
 62
     8
370
    18
100
AcDbSpline
210
0.0
220
0.0
230
1.0
 70
     8
 71
     3
 72
    16
 73
    12
 74
     0
 42
0.000000001
 43
0.00000001
 40
0.0
 40
0.0
 40
0.0
 40
0.0
 40
0.237077181085075
 40
0.4996869929446803
 40
0.5946279517368557
 40
0.699540982840362
 40
0.8009646074506522
 40
0.8817948095758572
 40
0.9419599926250767
 40
0.9813843223822942
 40
1.0
 40
1.0
 40
1.0
 40
1.0
 10
543.0555165635022
 20
443.9489989440506
 30
0.0
 10
543.0553372354213
 20
443.9494230607385
 30
0.0
 10
543.054959266065
 20
443.9503169704411
 30
0.0
 10
543.0505428587105
 20
443.9548421938367
 30
0.0
 10
543.0469533656936
 20
443.959349698137
 30
0.0
 10
543.0444956673927
 20
443.9625888658152
 30
0.0
 10
543.0414831667382
 20
443.9658126189992
 30
0.0
 10
543.0396497250754
 20
443.9685498846607
 30
0.0
 10
543.037647212616
 20
443.9712178742461
 30
0.0
 10
543.0408235127707
 20
443.9727942683753
 30
0.0
 10
543.0336483884623
 20
443.9748427467833
 30
0.0
 10
543.0313470482828
 20
443.9754997731238
 30
0.0
  0
LINE
  5
1E4
330
1F
100
AcDbEntity
  8
0
  6
Continuous
 62
     8
370
    18
100
AcDbLine
 10
542.6871463859
 20
456.5021070065
 30
0.0
 11
542.6901251127
 21
456.5080222272
 31
0.0
  0
SPLINE
  5
1E5
330
1F
100
AcDbEntity
  8
0
  6
Continuous
 62
     8
370
    18
100
AcDbSpline
210
0.0
220
0.0
230
1.0
 70
     8
 71
     3
 72
    12
 73
     8
 74
     0
 42
0.000000001
 43
0.00000001
 40
0.0
 40
0.0
 40
0.0
 40
0.0
 40
0.1707827196460624
 40
0.4705503103530848
 40
0.6473164115114415
 40
0.8221011370486518
 40
0.9999999999999999
 40
0.9999999999999999
 40
0.9999999999999999
 40
0.9999999999999999
 10
532.6698891100733
 20
456.5871813191931
 30
0.0
 10
532.7360003248641
 20
456.5861548292092
 30
0.0
 10
532.91815372248
 20
456.5833265853361
 30
0.0
 10
534.1133550394203
 20
456.564731773722
 30
0.0
 10
535.7444746794282
 20
456.5423999897083
 30
0.0
 10
537.3873014753577
 20
456.5220466394678
 30
0.0
 10
538.7286821241929
 20
456.5104245311903
 30
0.0
 10
539.4052945325996
 20
456.5045621664102
 30
0.0
  0
LINE
  5
1E6
330
1F
100
AcDbEntity
  8
0
  6
Continuous
 62
     7
370
    25
100
AcDbLine
 10
216.7442657409
 20
251.3017992388
 30
0.0
 11
216.7442657409
 21
221.3808154783
 31
0.0
  0
LINE
  5
1E7
330
1F
100
AcDbEntity
  8
0
  6
Continuous
 62
     7
370
    25
100
AcDbLine
 10
262.7442657409
 20
221.3808154783
 30
0.0
 11
262.7442657409
 21
251.3017992388
 31
0.0
  0
ARC
  5
1E8
330
1F
100
AcDbEntity
  8
0
  6
Continuous
 62
     7
370
    25
100
AcDbCircle
 10
261.2442657409
 20
221.3808154783
 30
0.0
 40
1.5
100
AcDbArc
 50
270.0
 51
0.0
  0
ARC
  5
1E9
330
1F
100
AcDbEntity
  8
0
  6
Continuous
 62
     7
370
    25
100
AcDbCircle
 10
218.2442657409
 20
221.3808154783
 30
0.0
 40
1.5
100
AcDbArc
 50
180.0
 51
270.0
  0
LINE
  5
1EA
330
1F
100
AcDbEntity
  8
0
  6
Continuous
 62
     7
370
    25
100
AcDbLine
 10
262.2942657409
 20
260.2575360566
 30
0.0
 11
262.2942657409
 21
286.7808154783
 31
0.0
  0
LINE
  5
1EB
330
1F
100
AcDbEntity
  8
0
  6
Continuous
 62
     7
370
    25
100
AcDbLine
 10
217.1942657409
 20
286.7808154783
 30
0.0
 11
217.1942657409
 21
260.2575360566
 31
0.0
  0
ARC
  5
1EC
330
1F
100
AcDbEntity
  8
0
  6
Continuous
 62
     7
370
    25
100
AcDbCircle
 10
261.5942657409
 20
260.2575360566
 30
0.0
 40
0.7000000000000455
100
AcDbArc
 50
311.0
 51
0.0
  0
ARC
  5
1ED
330
1F
100
AcDbEntity
  8
0
  6
Continuous
 62
     7
370
    25
100
AcDbCircle
 10
217.8942657409
 20
260.2575360566
 30
0.0
 40
0.7000000000000434
100
AcDbArc
 50
180.0
 51
229.0
  0
LINE
  5
1EE
330
1F
100
AcDbEntity
  8
0
  6
Continuous
 62
     7
370
    25
100
AcDbLine
 10
217.4350244206
 20
259.7292393504
 30
0.0
 11
217.5057765344
 21
259.6677354762
 31
0.0
  0
LINE
  5
1EF
330
1F
100
AcDbEntity
  8
0
  6
Continuous
 62
     7
370
    25
100
AcDbLine
 10
261.9827549474
 20
259.6677354762
 30
0.0
 11
262.0535070612
 21
259.7292393504
 31
0.0
  0
SPLINE
  5
1F0
330
1F
100
AcDbEntity
  8
0
  6
Continuous
 62
     7
370
    25
100
AcDbSpline
210
0.0
220
0.0
230
1.0
 70
     8
 71
     3
 72
     9
 73
     5
 74
     0
 42
0.000000001
 43
0.00000001
 40
0.0
 40
0.0
 40
0.0
 40
0.0
 40
0.5058559992417176
 40
1.0
 40
1.0
 40
1.0
 40
1.0
 10
239.6109618731832
 20
219.4978000247004
 30
0.0
 10
243.2597643445158
 20
219.5165023317696
 30
0.0
 10
250.4728891800465
 20
219.5534739345523
 30
0.0
 10
257.6827709362433
 20
219.7736494729321
 30
0.0
 10
261.2454907522447
 20
219.8824478943362
 30
0.0
  0
SPLINE
  5
1F1
330
1F
100
AcDbEntity
  8
0
  6
Continuous
 62
     7
370
    25
100
AcDbSpline
210
0.0
220
0.0
230
1.0
 70
     8
 71
     3
 72
     9
 73
     5
 74
     0
 42
0.000000001
 43
0.00000001
 40
0.0
 40
0.0
 40
0.0
 40
0.0
 40
0.4941440007582835
 40
0.9999999999999999
 40
0.9999999999999999
 40
0.9999999999999999
 40
0.9999999999999999
 10
218.2430407295889
 20
219.8824478943361
 30
0.0
 10
221.8057605455902
 20
219.773649472932
 30
0.0
 10
229.0156423017872
 20
219.5534739345523
 30
0.0
 10
236.2287671373178
 20
219.5165023317696
 30
0.0
 10
239.8775696086504
 20
219.4978000247004
 30
0.0
  0
ARC
  5
1F2
330
1F
100
AcDbEntity
  8
0
  6
Continuous
 62
     7
370
    25
100
AcDbCircle
 10
262.4419962677
 20
259.1394387701
 30
0.0
 40
0.7000000000000447
100
AcDbArc
 50
131.0
 51
179.1898025957
  0
ARC
  5
1F3
330
1F
100
AcDbEntity
  8
0
  6
Continuous
 62
     7
370
    25
100
AcDbCircle
 10
217.0465352141
 20
259.1394387701
 30
0.0
 40
0.6999999999999594
100
AcDbArc
 50
0.8101974043
 51
49.0
  0
ARC
  5
1F4
330
1F
100
AcDbEntity
  8
0
  6
Continuous
 62
     7
370
    25
100
AcDbCircle
 10
239.7442657409
 20
259.4604199719
 30
0.0
 40
21.99999999999999
100
AcDbArc
 50
338.8068160418
 51
359.1898025957
  0
ARC
  5
1F5
330
1F
100
AcDbEntity
  8
0
  6
Continuous
 62
     7
370
    25
100
AcDbCircle
 10
239.7442657409
 20
259.4604199719
 30
0.0
 40
22.00000000000001
100
AcDbArc
 50
180.8101974043
 51
201.1987999193
  0
LINE
  5
1F6
330
1F
100
AcDbEntity
  8
0
  6
Continuous
 62
     7
370
    25
100
AcDbLine
 10
271.9914284431
 20
295.7808154783
 30
0.0
 11
274.7913900614
 21
295.7808154783
 31
0.0
  0
LINE
  5
1F7
330
1F
100
AcDbEntity
  8
0
  6
Continuous
 62
     7
370
    25
100
AcDbLine
 10
274.7913900614
 20
295.7808154783
 30
0.0
 11
274.7510369468
 21
288.0740087253
 31
0.0
  0
LINE
  5
1F8
330
1F
100
AcDbEntity
  8
0
  6
Continuous
 62
     7
370
    25
100
AcDbLine
 10
204.737494535
 20
288.0740087253
 30
0.0
 11
204.6971414205
 21
295.7808154783
 31
0.0
  0
LINE
  5
1F9
330
1F
100
AcDbEntity
  8
0
  6
Continuous
 62
     7
370
    25
100
AcDbLine
 10
204.6971414205
 20
295.7808154783
 30
0.0
 11
207.4971030388
 21
295.7808154783
 31
0.0
  0
LINE
  5
1FA
330
1F
100
AcDbEntity
  8
0
  6
Continuous
 62
     7
370
    25
100
AcDbLine
 10
207.4971030388
 20
295.7808154783
 30
0.0
 11
271.9914284431
 21
295.7808154783
 31
0.0
  0
LINE
  5
1FB
330
1F
100
AcDbEntity
  8
0
  6
Continuous
 62
     7
370
    25
100
AcDbLine
 10
271.9510753285
 20
286.7808154783
 30
0.0
 11
207.5374561533
 21
286.7808154783
 31
0.0
  0
ARC
  5
1FC
330
1F
100
AcDbEntity
  8
0
  6
Continuous
 62
     7
370
    25
100
AcDbCircle
 10
206.037476715
 20
288.0808154783
 30
0.0
 40
1.300000000000016
100
AcDbArc
 50
180.3
 51
270.0
  0
LINE
  5
1FD
330
1F
100
AcDbEntity
  8
0
  6
Continuous
 62
     7
370
    25
100
AcDbLine
 10
207.5374561533
 20
286.7808154783
 30
0.0
 11
206.037476715
 21
286.7808154783
 31
0.0
  0
ARC
  5
1FE
330
1F
100
AcDbEntity
  8
0
  6
Continuous
 62
     7
370
    25
100
AcDbCircle
 10
273.4510547669
 20
288.0808154783
 30
0.0
 40
1.300000000000011
100
AcDbArc
 50
270.0
 51
359.7
  0
LINE
  5
1FF
330
1F
100
AcDbEntity
  8
0
  6
Continuous
 62
     7
370
    25
100
AcDbLine
 10
273.4510547669
 20
286.7808154783
 30
0.0
 11
271.9510753285
 21
286.7808154783
 31
0.0
  0
SPLINE
  5
200
330
1F
100
AcDbEntity
  8
0
  6
Continuous
 62
     7
370
    25
100
AcDbSpline
210
0.0
220
0.0
230
1.0
 70
     8
 71
     3
 72
    14
 73
    10
 74
     0
 42
0.000000001
 43
0.00000001
 40
0.0
 40
0.0
 40
0.0
 40
0.0
 40
0.25
 40
0.25
 40
0.5
 40
0.5
 40
0.75
 40
0.75
 40
1.0
 40
1.0
 40
1.0
 40
1.0
 10
216.9427673087481
 20
251.4808154782908
 30
0.0
 10
216.8776477866021
 20
251.4808154782908
 30
0.0
 10
216.8285481265028
 20
251.4794954098261
 30
0.0
 10
216.7623670168233
 20
251.4342277108584
 30
0.0
 10
216.7454637746227
 20
251.3908592589087
 30
0.0
 10
216.7431908437625
 20
251.2452134561297
 30
0.0
 10
216.7578161531808
 20
251.1432469387335
 30
0.0
 10
216.8162717361845
 20
250.9002660532207
 30
0.0
 10
216.860035424732
 20
250.7584889129634
 30
0.0
 10
216.9183551051256
 20
250.6156496463585
 30
0.0
  0
SPLINE
  5
201
330
1F
100
AcDbEntity
  8
0
  6
Continuous
 62
     7
370
    25
100
AcDbSpline
210
0.0
220
0.0
230
1.0
 70
     8
 71
     3
 72
    14
 73
    10
 74
     0
 42
0.000000001
 43
0.00000001
 40
0.0
 40
0.0
 40
0.0
 40
0.0
 40
0.25
 40
0.25
 40
0.5
 40
0.5
 40
0.75
 40
0.75
 40
1.0
 40
1.0
 40
1.0
 40
1.0
 10
262.5457641730855
 20
251.4808154782908
 30
0.0
 10
262.6108836952316
 20
251.4808154782908
 30
0.0
 10
262.6599833553308
 20
251.4794954098261
 30
0.0
 10
262.7261644650103
 20
251.4342277108584
 30
0.0
 10
262.743067707211
 20
251.3908592589087
 30
0.0
 10
262.7453406380711
 20
251.2452134561297
 30
0.0
 10
262.7307153286528
 20
251.1432469387335
 30
0.0
 10
262.6722597456491
 20
250.9002660532207
 30
0.0
 10
262.6284960571016
 20
250.7584889129634
 30
0.0
 10
262.570176376708
 20
250.6156496463585
 30
0.0
  0
SPLINE
  5
202
330
1F
100
AcDbEntity
  8
0
  6
Continuous
 62
     7
370
    25
100
AcDbSpline
210
0.0
220
0.0
230
1.0
 70
    24
 71
     3
 72
    21
 73
    17
 74
     0
 42
0.000000001
 43
0.00000001
 40
0.0
 40
0.0
 40
0.0
 40
0.0
 40
0.0757181134821023
 40
0.1514362269642051
 40
0.2271543404463081
 40
0.3028724539284101
 40
0.3785905674105123
 40
0.4543086808926154
 40
0.530026794374718
 40
0.6057449078568204
 40
0.6814630213389228
 40
0.7571811348210257
 40
0.832899248303128
 40
0.9086173617852306
 40
0.984335475267333
 40
1.0
 40
1.0
 40
1.0
 40
1.0
 10
239.7442657409168
 20
219.8816490432342
 30
0.0
 10
240.5986709468116
 20
219.8816490432343
 30
0.0
 10
242.3074813586013
 20
219.8816490432343
 30
0.0
 10
244.8344768196571
 20
219.8816490432342
 30
0.0
 10
247.2895440641784
 20
219.8816490432343
 30
0.0
 10
249.6379903127792
 20
219.8816490432342
 30
0.0
 10
251.8466336102347
 20
219.8816490432343
 30
0.0
 10
253.8842518706966
 20
219.8816490432343
 30
0.0
 10
255.7220981195279
 20
219.8816490432343
 30
0.0
 10
257.3340303453574
 20
219.8816490432343
 30
0.0
 10
258.6979123096967
 20
219.8816490432343
 30
0.0
 10
259.7920770963136
 20
219.8816490432343
 30
0.0
 10
260.6099988841267
 20
219.8816490432343
 30
0.0
 10
261.1067719995513
 20
219.8816490432343
 30
0.0
 10
261.3223550777178
 20
219.8816490432343
 30
0.0
 10
261.2770368777217
 20
219.8816490432343
 30
0.0
 10
261.2692685742613
 20
219.8816490432343
 30
0.0
  0
SPLINE
  5
203
330
1F
100
AcDbEntity
  8
0
  6
Continuous
 62
     7
370
    25
100
AcDbSpline
210
0.0
220
0.0
230
1.0
 70
    24
 71
     3
 72
    21
 73
    17
 74
     0
 42
0.000000001
 43
0.00000001
 40
0.0
 40
0.0
 40
0.0
 40
0.0
 40
0.0757181134821025
 40
0.1514362269642047
 40
0.2271543404463076
 40
0.3028724539284099
 40
0.3785905674105122
 40
0.4543086808926149
 40
0.5300267943747179
 40
0.6057449078568201
 40
0.6814630213389223
 40
0.7571811348210252
 40
0.8328992483031281
 40
0.9086173617852304
 40
0.9843354752673328
 40
1.0
 40
1.0
 40
1.0
 40
1.0
 10
239.7442657409168
 20
219.8816490432342
 30
0.0
 10
238.889860535022
 20
219.8816490432343
 30
0.0
 10
237.1810501232323
 20
219.8816490432343
 30
0.0
 10
234.6540546621765
 20
219.8816490432343
 30
0.0
 10
232.1989874176552
 20
219.8816490432343
 30
0.0
 10
229.8505411690544
 20
219.8816490432342
 30
0.0
 10
227.6418978715989
 20
219.8816490432343
 30
0.0
 10
225.6042796111371
 20
219.8816490432343
 30
0.0
 10
223.7664333623057
 20
219.8816490432343
 30
0.0
 10
222.1545011364762
 20
219.8816490432343
 30
0.0
 10
220.7906191721369
 20
219.8816490432343
 30
0.0
 10
219.69645438552
 20
219.8816490432343
 30
0.0
 10
218.878532597707
 20
219.8816490432343
 30
0.0
 10
218.3817594822823
 20
219.8816490432343
 30
0.0
 10
218.1661764041158
 20
219.8816490432343
 30
0.0
 10
218.2114946041118
 20
219.8816490432343
 30
0.0
 10
218.2192629075724
 20
219.8816490432343
 30
0.0
  0
LWPOLYLINE
  5
204
330
1F
100
AcDbEntity
  8
0
  6
Continuous
 62
     7
370
    25
100
AcDbPolyline
 90
       22
 70
   128
 43
0.0
 10
259.7679078803
 20
250.8069105976
 10
258.9545291919
 20
250.0883628782
 10
257.8408127099
 20
249.4051088625
 10
256.4441705408
 20
248.7678307051
 10
254.7864381179
 20
248.1864917632
 10
252.8935328212
 20
247.6701808269
 10
250.795048779
 20
247.2269700234
 10
248.5237941862
 20
246.863788615
 10
246.1152783731
 20
246.5863146654
 10
243.6071566446
 20
246.3988862681
 10
241.0386415679
 20
246.3044337227
 10
238.4498899139
 20
246.3044337227
 10
235.8813748372
 20
246.3988862681
 10
233.3732531087
 20
246.5863146654
 10
230.9647372957
 20
246.863788615
 10
228.6934827028
 20
247.2269700234
 10
226.5949986606
 20
247.6701808269
 10
224.7020933639
 20
248.1864917632
 10
223.044360941
 20
248.7678307051
 10
221.6477187719
 20
249.4051088625
 10
220.5340022899
 20
250.0883628782
 10
219.7206236015
 20
250.8069105975
  0
SPLINE
  5
205
330
1F
100
AcDbEntity
  8
0
  6
Continuous
 62
     7
370
    25
100
AcDbSpline
210
0.0
220
0.0
230
1.0
 70
     8
 71
     3
 72
     9
 73
     5
 74
     0
 42
0.000000001
 43
0.00000001
 40
0.0
 40
0.0
 40
0.0
 40
0.0
 40
0.5209223451546252
 40
1.0
 40
1.0
 40
1.0
 40
1.0
 10
219.7206236015088
 20
250.8069105975499
 30
0.0
 10
219.5967548575239
 20
250.9567603535789
 30
0.0
 10
219.3589675075722
 20
251.2444227228797
 30
0.0
 10
219.2767568876256
 20
251.4207725657553
 30
0.0
 10
219.2373716166182
 20
251.5052578349125
 30
0.0
  0
SPLINE
  5
206
330
1F
100
AcDbEntity
  8
0
  6
Continuous
 62
     7
370
    25
100
AcDbSpline
210
0.0
220
0.0
230
1.0
 70
     8
 71
     3
 72
    10
 73
     6
 74
     0
 42
0.000000001
 43
0.00000001
 40
0.0
 40
0.0
 40
0.0
 40
0.0
 40
0.0378550128921878
 40
0.5150664581396531
 40
1.0
 40
1.0
 40
1.0
 40
1.0
 10
260.2522767660128
 20
251.5069503898966
 30
0.0
 10
260.2521680432951
 20
251.5032619465135
 30
0.0
 10
260.2506887299663
 20
251.4530758991648
 30
0.0
 10
260.0957709809624
 20
251.2056858582847
 30
0.0
 10
259.8777787763796
 20
250.9405450173312
 30
0.0
 10
259.7679078803268
 20
250.8069105975522
 30
0.0
  0
ARC
  5
207
330
1F
100
AcDbEntity
  8
0
  6
Continuous
 62
     7
370
    25
100
AcDbCircle
 10
217.1441222178
 20
251.4808619519
 30
0.0
 40
0.201354914367863
100
AcDbArc
 50
152.9001022702
 51
180.0132241327
  0
ARC
  5
208
330
1F
100
AcDbEntity
  8
0
  6
Continuous
 62
     7
370
    25
100
AcDbCircle
 10
262.3444092641
 20
251.4808619519
 30
0.0
 40
0.2013549143678124
100
AcDbArc
 50
359.9867758673
 51
27.0998977298
  0
LINE
  5
209
330
1F
100
AcDbEntity
  8
0
  6
Continuous
 62
     7
370
    25
100
AcDbLine
 10
260.3228408598
 20
251.6808154783
 30
0.0
 11
262.3474902737
 21
251.6808154783
 31
0.0
  0
LINE
  5
20A
330
1F
100
AcDbEntity
  8
0
  6
Continuous
 62
     7
370
    25
100
AcDbLine
 10
219.165690622
 20
251.6808154783
 30
0.0
 11
217.1410412082
 21
251.6808154783
 31
0.0
  0
LINE
  5
20B
330
1F
100
AcDbEntity
  8
0
  6
Continuous
 62
     7
370
    25
100
AcDbLine
 10
94.737494535
 20
288.0740087253
 30
0.0
 11
94.6971414205
 21
295.7808154783
 31
0.0
  0
LINE
  5
20C
330
1F
100
AcDbEntity
  8
0
  6
Continuous
 62
     7
370
    25
100
AcDbLine
 10
94.6971414205
 20
295.7808154783
 30
0.0
 11
97.4971030388
 21
295.7808154783
 31
0.0
  0
LINE
  5
20D
330
1F
100
AcDbEntity
  8
0
  6
Continuous
 62
     7
370
    25
100
AcDbLine
 10
97.4971030388
 20
295.7808154783
 30
0.0
 11
161.9914284431
 21
295.7808154783
 31
0.0
  0
LINE
  5
20E
330
1F
100
AcDbEntity
  8
0
  6
Continuous
 62
     7
370
    25
100
AcDbLine
 10
164.7913900614
 20
295.7808154783
 30
0.0
 11
164.7510369468
 21
288.0740087253
 31
0.0
  0
LINE
  5
20F
330
1F
100
AcDbEntity
  8
0
  6
Continuous
 62
     7
370
    25
100
AcDbLine
 10
161.9914284431
 20
295.7808154783
 30
0.0
 11
164.7913900614
 21
295.7808154783
 31
0.0
  0
LINE
  5
210
330
1F
100
AcDbEntity
  8
0
  6
Continuous
 62
     7
370
    25
100
AcDbLine
 10
161.9510753285
 20
286.7808154783
 30
0.0
 11
97.5374561533
 21
286.7808154783
 31
0.0
  0
LINE
  5
211
330
1F
100
AcDbEntity
  8
0
  6
Continuous
 62
     7
370
    25
100
AcDbLine
 10
97.5374561533
 20
286.7808154783
 30
0.0
 11
96.037476715
 21
286.7808154783
 31
0.0
  0
ARC
  5
212
330
1F
100
AcDbEntity
  8
0
  6
Continuous
 62
     7
370
    25
100
AcDbCircle
 10
96.037476715
 20
288.0808154783
 30
0.0
 40
1.300000000000011
100
AcDbArc
 50
180.3
 51
270.0
  0
ARC
  5
213
330
1F
100
AcDbEntity
  8
0
  6
Continuous
 62
     7
370
    25
100
AcDbCircle
 10
163.4510547669
 20
288.0808154783
 30
0.0
 40
1.300000000000011
100
AcDbArc
 50
270.0
 51
359.7
  0
LINE
  5
214
330
1F
100
AcDbEntity
  8
0
  6
Continuous
 62
     7
370
    25
100
AcDbLine
 10
163.4510547669
 20
286.7808154783
 30
0.0
 11
161.9510753285
 21
286.7808154783
 31
0.0
  0
LINE
  5
215
330
1F
100
AcDbEntity
  8
0
  6
Continuous
 62
     7
370
    25
100
AcDbLine
 10
151.4418021656
 20
286.7808154783
 30
0.0
 11
151.4041563921
 21
142.984556374
 31
0.0
  0
LINE
  5
216
330
1F
100
AcDbEntity
  8
0
  6
Continuous
 62
     7
370
    25
100
AcDbLine
 10
108.0843750897
 20
142.984556374
 30
0.0
 11
108.0467293163
 21
286.7808154783
 31
0.0
  0
LINE
  5
217
330
1F
100
AcDbEntity
  8
0
  6
Continuous
 62
     7
370
    25
100
AcDbLine
 10
108.0916745439
 20
115.1026959584
 30
0.0
 11
108.0843750897
 21
142.984556374
 31
0.0
  0
LINE
  5
218
330
1F
100
AcDbEntity
  8
0
  6
Continuous
 62
     7
370
    25
100
AcDbLine
 10
151.4041563921
 20
142.984556374
 30
0.0
 11
151.396856939
 21
115.1027001181
 31
0.0
  0
LINE
  5
219
330
1F
100
AcDbEntity
  8
0
  6
Continuous
 62
     7
370
    25
100
AcDbLine
 10
129.744265739
 20
93.1909799029
 30
0.0
 11
111.5964948399
 21
93.1909799029
 31
0.0
  0
LINE
  5
21A
330
1F
100
AcDbEntity
  8
0
  6
Continuous
 62
     7
370
    25
100
AcDbLine
 10
108.0962748158
 20
97.5309519477
 30
0.0
 11
108.0916745439
 21
115.1026959584
 31
0.0
  0
LINE
  5
21B
330
1F
100
AcDbEntity
  8
0
  6
Continuous
 62
     7
370
    25
100
AcDbLine
 10
108.0964949599
 20
96.6900636051
 30
0.0
 11
108.0962742872
 21
97.5329711634
 31
0.0
  0
LINE
  5
21C
330
1F
100
AcDbEntity
  8
0
  6
Continuous
 62
     7
370
    25
100
AcDbLine
 10
151.396856939
 20
115.1027001181
 30
0.0
 11
151.3922566655
 21
97.5309498304
 31
0.0
  0
SPLINE
  5
21D
330
1F
100
AcDbEntity
  8
0
  6
Continuous
 62
     7
370
    25
100
AcDbSpline
210
0.0
220
0.0
230
1.0
 70
     8
 71
     3
 72
    22
 73
    18
 74
     0
 42
0.000000001
 43
0.00000001
 40
0.0
 40
0.0
 40
0.0
 40
0.0
 40
0.125
 40
0.125
 40
0.25
 40
0.25
 40
0.375
 40
0.375
 40
0.5
 40
0.5
 40
0.625
 40
0.625
 40
0.75
 40
0.75
 40
0.875
 40
0.875
 40
1.0
 40
1.0
 40
1.0
 40
1.0
 10
111.5964948399191
 20
93.19097990291698
 30
0.0
 10
111.3512598050278
 20
93.19097990291704
 30
0.0
 10
111.1046791751335
 20
93.19168667995856
 30
0.0
 10
110.607072280656
 20
93.22499873147493
 30
0.0
 10
110.35662108344
 20
93.25745473293583
 30
0.0
 10
109.8726118118314
 20
93.37017589586137
 30
0.0
 10
109.6396288048059
 20
93.45029178431207
 30
0.0
 10
109.2165857175328
 20
93.66444583944471
 30
0.0
 10
109.0271007046525
 20
93.79833473311304
 30
0.0
 10
108.7045224350486
 20
94.12082856297614
 30
0.0
 10
108.5705839389088
 20
94.31027851733293
 30
0.0
 10
108.3563191386951
 20
94.73326552470863
 30
0.0
 10
108.2761422581819
 20
94.96622754945959
 30
0.0
 10
108.1632943857898
 20
95.45020729415047
 30
0.0
 10
108.1307728174716
 20
95.70064998582235
 30
0.0
 10
108.0973304939181
 20
96.19824814217263
 30
0.0
 10
108.0965591622435
 20
96.44482857858276
 30
0.0
 10
108.0964949598622
 20
96.69006360507002
 30
0.0
  0
LINE
  5
21E
330
1F
100
AcDbEntity
  8
0
  6
Continuous
 62
     7
370
    25
100
AcDbLine
 10
147.8920366419
 20
93.1909799029
 30
0.0
 11
129.744265739
 21
93.1909799029
 31
0.0
  0
LINE
  5
21F
330
1F
100
AcDbEntity
  8
0
  6
Continuous
 62
     7
370
    25
100
AcDbLine
 10
151.392257194
 20
97.532968593
 30
0.0
 11
151.392036522
 21
96.6900636051
 31
0.0
  0
SPLINE
  5
220
330
1F
100
AcDbEntity
  8
0
  6
Continuous
 62
     7
370
    25
100
AcDbSpline
210
0.0
220
0.0
230
1.0
 70
     8
 71
     3
 72
    22
 73
    18
 74
     0
 42
0.000000001
 43
0.00000001
 40
0.0
 40
0.0
 40
0.0
 40
0.0
 40
0.125
 40
0.125
 40
0.25
 40
0.25
 40
0.375
 40
0.375
 40
0.5
 40
0.5
 40
0.625
 40
0.625
 40
0.75
 40
0.75
 40
0.875
 40
0.875
 40
1.0
 40
1.0
 40
1.0
 40
1.0
 10
151.3920365219714
 20
96.69006360507011
 30
0.0
 10
151.3919723195902
 20
96.4448285785829
 30
0.0
 10
151.3912009879156
 20
96.1982481421726
 30
0.0
 10
151.357758664362
 20
95.70064998582244
 30
0.0
 10
151.3252370960438
 20
95.45020729415045
 30
0.0
 10
151.2123892236517
 20
94.96622754945962
 30
0.0
 10
151.1322123431386
 20
94.73326552470863
 30
0.0
 10
150.9179475429249
 20
94.31027851733288
 30
0.0
 10
150.7840090467851
 20
94.12082856297611
 30
0.0
 10
150.4614307771811
 20
93.79833473311304
 30
0.0
 10
150.2719457643008
 20
93.66444583944477
 30
0.0
 10
149.8489026770278
 20
93.4502917843122
 30
0.0
 10
149.6159196700023
 20
93.37017589586134
 30
0.0
 10
149.1319103983936
 20
93.25745473293583
 30
0.0
 10
148.8814592011776
 20
93.22499873147478
 30
0.0
 10
148.3838523067001
 20
93.19168667995847
 30
0.0
 10
148.1372716768058
 20
93.19097990291688
 30
0.0
 10
147.8920366419145
 20
93.19097990291692
 30
0.0
  0
ELLIPSE
  5
221
330
1F
100
AcDbEntity
  8
0
  6
Continuous
 62
     8
370
    25
100
AcDbEllipse
 10
239.7442657409
 20
251.471677127
 30
0.0
 11
23.00000000000002
 21
0.0
 31
0.0
210
0.0
220
0.0
230
1.0
 40
0.3030721538
 41
3.264707808340262
 42
6.160070152429208
  0
ARC
  5
222
330
1F
100
AcDbEntity
  8
0
  6
Continuous
 62
     8
370
    18
100
AcDbCircle
 10
262.366961268
 20
250.6033803719
 30
0.0
 40
0.2035851554431598
100
AcDbArc
 50
3.4550843051
 51
88.6689989206
  0
ARC
  5
223
330
1F
100
AcDbEntity
  8
0
  6
Continuous
 62
     8
370
    18
100
AcDbCircle
 10
217.1215702139
 20
250.6033803719
 30
0.0
 40
0.203585155443103
100
AcDbArc
 50
91.3310010792
 51
176.5449156949
  0
ELLIPSE
  5
224
330
1F
100
AcDbEntity
  8
0
  6
Continuous
 62
     8
370
    18
100
AcDbEllipse
 10
239.7442657409
 20
251.6629380782
 30
0.0
 11
22.80000000000004
 21
0.0
 31
0.0
210
0.0
220
0.0
230
1.0
 40
0.3057306815
 41
3.264707808340087
 42
6.160070152429377
  0
LINE
  5
225
330
1F
100
AcDbEntity
  8
0
  6
Continuous
 62
     8
370
    25
100
AcDbLine
 10
251.4981942551
 20
259.7292393504
 30
0.0
 11
217.4350244206
 21
259.7292393504
 31
0.0
  0
LINE
  5
226
330
1F
100
AcDbEntity
  8
0
  6
Continuous
 62
     8
370
    25
100
AcDbLine
 10
262.0535070612
 20
259.7292393504
 30
0.0
 11
251.4981942551
 21
259.7292393504
 31
0.0
  0
LINE
  5
227
330
1F
100
AcDbEntity
  8
0
  6
Continuous
 62
     8
370
    25
100
AcDbLine
 10
251.4609175376
 20
259.6677354762
 30
0.0
 11
217.5057765344
 21
259.6677354762
 31
0.0
  0
LINE
  5
228
330
1F
100
AcDbEntity
  8
0
  6
Continuous
 62
     8
370
    25
100
AcDbLine
 10
261.9827549474
 20
259.6677354762
 30
0.0
 11
251.4609175376
 21
259.6677354762
 31
0.0
  0
SPLINE
  5
229
330
1F
100
AcDbEntity
  8
0
  6
Continuous
 62
     8
370
    18
100
AcDbSpline
210
0.0
220
0.0
230
1.0
 70
    24
 71
     3
 72
     9
 73
     5
 74
     0
 42
0.000000001
 43
0.00000001
 40
0.0
 40
0.0
 40
0.0
 40
0.0
 40
0.9189376281108765
 40
0.9999999999999999
 40
0.9999999999999999
 40
0.9999999999999999
 40
0.9999999999999999
 10
239.7442657409168
 20
219.8816400993742
 30
0.0
 10
239.7442657409168
 20
219.6773029919558
 30
0.0
 10
239.7442657409167
 20
219.4549406670627
 30
0.0
 10
239.7442657409167
 20
219.5034474671417
 30
0.0
 10
239.7442657409168
 20
219.5073795434088
 30
0.0
  0
SPLINE
  5
22A
330
1F
100
AcDbEntity
  8
0
  6
Continuous
 62
     8
370
    18
100
AcDbSpline
210
0.0
220
0.0
230
1.0
 70
     8
 71
     3
 72
    14
 73
    10
 74
     0
 42
0.000000001
 43
0.00000001
 40
0.0
 40
0.0
 40
0.0
 40
0.0
 40
0.25
 40
0.25
 40
0.5
 40
0.5
 40
0.75
 40
0.75
 40
1.0
 40
1.0
 40
1.0
 40
1.0
 10
217.1168412845673
 20
250.8069105975523
 30
0.0
 10
217.0586319688382
 20
250.9507316876102
 30
0.0
 10
217.0152157926458
 20
251.0942048193949
 30
0.0
 10
216.9575377828126
 20
251.3393084164374
 30
0.0
 10
216.9432191020202
 20
251.4421469928511
 30
0.0
 10
216.9454313458382
 20
251.589320513935
 30
0.0
 10
216.9619632188571
 20
251.6333365734589
 30
0.0
 10
217.0272645479429
 20
251.6794027687621
 30
0.0
 10
217.076103596856
 20
251.6808154782908
 30
0.0
 10
217.1410412081582
 20
251.6808154782908
 30
0.0
  0
SPLINE
  5
22B
330
1F
100
AcDbEntity
  8
0
  6
Continuous
 62
     8
370
    18
100
AcDbSpline
210
0.0
220
0.0
230
1.0
 70
     8
 71
     3
 72
    14
 73
    10
 74
     0
 42
0.000000001
 43
0.00000001
 40
0.0
 40
0.0
 40
0.0
 40
0.0
 40
0.25
 40
0.25
 40
0.5
 40
0.5
 40
0.75
 40
0.75
 40
1.0
 40
1.0
 40
1.0
 40
1.0
 10
262.3716901972663
 20
250.8069105975523
 30
0.0
 10
262.4298995129955
 20
250.9507316876102
 30
0.0
 10
262.4733156891878
 20
251.0942048193949
 30
0.0
 10
262.5309936990209
 20
251.3393084164375
 30
0.0
 10
262.5453123798134
 20
251.4421469928511
 30
0.0
 10
262.5431001359955
 20
251.589320513935
 30
0.0
 10
262.5265682629765
 20
251.6333365734589
 30
0.0
 10
262.4612669338907
 20
251.6794027687621
 30
0.0
 10
262.4124278850339
 20
251.6808154782908
 30
0.0
 10
262.3474902736754
 20
251.6808154782908
 30
0.0
  0
SPLINE
  5
22C
330
1F
100
AcDbEntity
  8
0
  6
Continuous
 62
     8
370
    18
100
AcDbSpline
210
0.0
220
0.0
230
1.0
 70
     8
 71
     3
 72
    11
 73
     7
 74
     0
 42
0.000000001
 43
0.00000001
 40
0.0
 40
0.0
 40
0.0
 40
0.0
 40
0.4022371812388766
 40
0.7037011773803079
 40
0.903095142443507
 40
1.0
 40
1.0
 40
1.0
 40
1.0
 10
109.1463976401695
 20
115.1026483729087
 30
0.0
 10
109.1473958452367
 20
112.7465789672576
 30
0.0
 10
109.1491421733084
 20
108.6247103482505
 30
0.0
 10
109.1433900289804
 20
103.3349165694326
 30
0.0
 10
109.1440196862933
 20
99.83356417512633
 30
0.0
 10
109.151704359669
 20
98.09803615741998
 30
0.0
 10
109.1542176405935
 20
97.53042980024924
 30
0.0
  0
SPLINE
  5
22D
330
1F
100
AcDbEntity
  8
0
  6
Continuous
 62
     8
370
    18
100
AcDbSpline
210
0.0
220
0.0
230
1.0
 70
     8
 71
     3
 72
    10
 73
     6
 74
     0
 42
0.000000001
 43
0.00000001
 40
0.0
 40
0.0
 40
0.0
 40
0.0
 40
0.5
 40
0.5
 40
1.0
 40
1.0
 40
1.0
 40
1.0
 10
109.1347735993534
 20
142.9844918124172
 30
0.0
 10
109.1357998615944
 20
138.3351874004422
 30
0.0
 10
109.1370576733655
 20
133.6833458319716
 30
0.0
 10
109.1406306400136
 20
124.3858499804507
 30
0.0
 10
109.1431947130395
 20
119.7420211026166
 30
0.0
 10
109.1463976401695
 20
115.1026483729088
 30
0.0
  0
SPLINE
  5
22E
330
1F
100
AcDbEntity
  8
0
  6
Continuous
 62
     8
370
    18
100
AcDbSpline
210
0.0
220
0.0
230
1.0
 70
     8
 71
     3
 72
    16
 73
    12
 74
     0
 42
0.000000001
 43
0.00000001
 40
0.0
 40
0.0
 40
0.0
 40
0.0
 40
0.2499999999999999
 40
0.2499999999999999
 40
0.4999999999999998
 40
0.4999999999999998
 40
0.7499999999999999
 40
0.7499999999999999
 40
0.8749999999999999
 40
0.8749999999999999
 40
1.0
 40
1.0
 40
1.0
 40
1.0
 10
109.0749977624921
 20
286.7808154782908
 30
0.0
 10
109.0791846840831
 20
274.79750782771
 30
0.0
 10
109.0837549680795
 20
262.8149724085505
 30
0.0
 10
109.0927068494932
 20
238.8482779881908
 30
0.0
 10
109.0972582465324
 20
226.86365633888
 30
0.0
 10
109.1066901334276
 20
202.899290015003
 30
0.0
 10
109.1115557182361
 20
190.9149266302227
 30
0.0
 10
109.1194807812411
 20
172.937814011203
 30
0.0
 10
109.1222297031804
 20
166.947224656029
 30
0.0
 10
109.1281166476186
 20
154.9682202760215
 30
0.0
 10
109.1312477151441
 20
148.9787750369497
 30
0.0
 10
109.1347735993534
 20
142.9844918124172
 30
0.0
  0
SPLINE
  5
22F
330
1F
100
AcDbEntity
  8
0
  6
Continuous
 62
     8
370
    18
100
AcDbSpline
210
0.0
220
0.0
230
1.0
 70
     8
 71
     3
 72
    16
 73
    12
 74
     0
 42
0.000000001
 43
0.00000001
 40
0.0
 40
0.0
 40
0.0
 40
0.0
 40
0.125
 40
0.125
 40
0.2500000000000001
 40
0.2500000000000001
 40
0.5000000000000001
 40
0.5000000000000001
 40
0.75
 40
0.75
 40
1.0
 40
1.0
 40
1.0
 40
1.0
 10
150.3537578824802
 20
142.9844918124171
 30
0.0
 10
150.3572837666895
 20
148.9787750369496
 30
0.0
 10
150.360414834215
 20
154.9682202760214
 30
0.0
 10
150.3663017786533
 20
166.9472246560288
 30
0.0
 10
150.3690507005925
 20
172.9378140112029
 30
0.0
 10
150.3769757635976
 20
190.9149266302225
 30
0.0
 10
150.381841348406
 20
202.8992900150031
 30
0.0
 10
150.3912732353013
 20
226.8636563388799
 30
0.0
 10
150.3958246323405
 20
238.8482779881907
 30
0.0
 10
150.4047765137541
 20
262.8149724085505
 30
0.0
 10
150.4093467977504
 20
274.79750782771
 30
0.0
 10
150.4135337193415
 20
286.7808154782908
 30
0.0
  0
SPLINE
  5
230
330
1F
100
AcDbEntity
  8
0
  6
Continuous
 62
     8
370
    18
100
AcDbSpline
210
0.0
220
0.0
230
1.0
 70
     8
 71
     3
 72
    10
 73
     6
 74
     0
 42
0.000000001
 43
0.00000001
 40
0.0
 40
0.0
 40
0.0
 40
0.0
 40
0.5
 40
0.5
 40
1.0
 40
1.0
 40
1.0
 40
1.0
 10
150.3421338416642
 20
115.1026483729087
 30
0.0
 10
150.3453367687941
 20
119.7420211026164
 30
0.0
 10
150.3479008418201
 20
124.3858499804505
 30
0.0
 10
150.3514738084681
 20
133.6833458319715
 30
0.0
 10
150.3527316202393
 20
138.335187400442
 30
0.0
 10
150.3537578824803
 20
142.9844918124172
 30
0.0
  0
SPLINE
  5
231
330
1F
100
AcDbEntity
  8
0
  6
Continuous
 62
     8
370
    18
100
AcDbSpline
210
0.0
220
0.0
230
1.0
 70
     8
 71
     3
 72
    11
 73
     7
 74
     0
 42
0.000000001
 43
0.00000001
 40
0.0
 40
0.0
 40
0.0
 40
0.0
 40
0.0969048698289253
 40
0.2962988390594264
 40
0.5977628312206787
 40
1.0
 40
1.0
 40
1.0
 40
1.0
 10
150.334313839935
 20
97.53042768256536
 30
0.0
 10
150.3368271223806
 20
98.09803418002073
 30
0.0
 10
150.3445117998606
 20
99.83356250316409
 30
0.0
 10
150.3451414588844
 20
103.3349153924196
 30
0.0
 10
150.3393893084101
 20
108.624709736841
 30
0.0
 10
150.3411356365599
 20
112.7465787562981
 30
0.0
 10
150.3421338416642
 20
115.1026483729086
 30
0.0
  0
LINE
  5
232
330
1F
100
AcDbEntity
  8
0
  6
Continuous
 62
     8
370
    18
100
AcDbLine
 10
150.3330740293
 20
96.6882801648
 30
0.0
 11
150.3335948554
 21
97.530969788
 31
0.0
  0
SPLINE
  5
233
330
1F
100
AcDbEntity
  8
0
  6
Continuous
 62
     8
370
    18
100
AcDbSpline
210
0.0
220
0.0
230
1.0
 70
     8
 71
     3
 72
    17
 73
    13
 74
     0
 42
0.000000001
 43
0.00000001
 40
0.0
 40
0.0
 40
0.0
 40
0.0
 40
0.1014221813722762
 40
0.1845838270053712
 40
0.2496794023070958
 40
0.3464937167668059
 40
0.4289771292931697
 40
0.5006612644418041
 40
0.6112884877235225
 40
0.7504117062930349
 40
0.8547533127487653
 40
1.0
 40
1.0
 40
1.0
 40
1.0
 10
147.8931391105735
 20
94.2499767174786
 30
0.0
 10
148.0336618315307
 20
94.2509987159179
 30
0.0
 10
148.2894068891162
 20
94.25285870729823
 30
0.0
 10
148.6350813557764
 20
94.26979593727226
 30
0.0
 10
148.9728848320829
 20
94.30620882252148
 30
0.0
 10
149.3046821216034
 20
94.38043548551215
 30
0.0
 10
149.6286899548146
 20
94.51208929094084
 30
0.0
 10
149.9303988020889
 20
94.73035370293158
 30
0.0
 10
150.1651043720621
 20
95.12357659852489
 30
0.0
 10
150.2826465471878
 20
95.60381795154667
 30
0.0
 10
150.3282576038301
 20
96.14112670683218
 30
0.0
 10
150.3313022262228
 20
96.4870005644133
 30
0.0
 10
150.3330740293387
 20
96.6882801648077
 30
0.0
  0
SPLINE
  5
234
330
1F
100
AcDbEntity
  8
0
  6
Continuous
 62
     8
370
    18
100
AcDbSpline
210
0.0
220
0.0
230
1.0
 70
     8
 71
     3
 72
     8
 73
     4
 74
     0
 42
0.000000001
 43
0.00000001
 40
0.0
 40
0.0
 40
0.0
 40
0.0
 40
1.0
 40
1.0
 40
1.0
 40
1.0
 10
129.7442658232909
 20
94.24685772641362
 30
0.0
 10
135.7938902523887
 20
94.24788373337182
 30
0.0
 10
141.8435146814867
 20
94.24890932123787
 30
0.0
 10
147.8931391105735
 20
94.24997671747846
 30
0.0
  0
SPLINE
  5
235
330
1F
100
AcDbEntity
  8
0
  6
Continuous
 62
     8
370
    18
100
AcDbSpline
210
0.0
220
0.0
230
1.0
 70
     8
 71
     3
 72
     8
 73
     4
 74
     0
 42
0.000000001
 43
0.00000001
 40
0.0
 40
0.0
 40
0.0
 40
0.0
 40
1.0
 40
1.0
 40
1.0
 40
1.0
 10
111.5953923022205
 20
94.24997649787075
 30
0.0
 10
117.6450168092513
 20
94.24890917129876
 30
0.0
 10
123.694641316271
 20
94.24788365496588
 30
0.0
 10
129.7442658232908
 20
94.24685772641365
 30
0.0
  0
SPLINE
  5
236
330
1F
100
AcDbEntity
  8
0
  6
Continuous
 62
     8
370
    18
100
AcDbSpline
210
0.0
220
0.0
230
1.0
 70
     8
 71
     3
 72
    17
 73
    13
 74
     0
 42
0.000000001
 43
0.00000001
 40
0.0
 40
0.0
 40
0.0
 40
0.0
 40
0.1013633771747023
 40
0.1844909747203452
 40
0.249577574254169
 40
0.3463583534454945
 40
0.4288178211139235
 40
0.5004888050303243
 40
0.6111399394795693
 40
0.7503099099639949
 40
0.854674389183966
 40
1.0
 40
1.0
 40
1.0
 40
1.0
 10
109.155457449589
 20
96.6882801135527
 30
0.0
 10
109.1565186949447
 20
96.54783927496395
 30
0.0
 10
109.1584502622972
 20
96.2922236085963
 30
0.0
 10
109.1755004126959
 20
95.9466958526254
 30
0.0
 10
109.2120365910711
 20
95.60901226772751
 30
0.0
 10
109.2863891075205
 20
95.2773371525935
 30
0.0
 10
109.4181737180302
 20
94.9534860541731
 30
0.0
 10
109.6366087783254
 20
94.65192269471046
 30
0.0
 10
110.0300400774319
 20
94.41741207502906
 30
0.0
 10
110.510454987536
 20
94.30005505378121
 30
0.0
 10
111.0479869739201
 20
94.25463719515055
 30
0.0
 10
111.3940028042142
 20
94.25169116054757
 30
0.0
 10
111.5953923022205
 20
94.24997649787072
 30
0.0
  0
LINE
  5
237
330
1F
100
AcDbEntity
  8
0
  6
Continuous
 62
     8
370
    18
100
AcDbLine
 10
109.1549366142
 20
97.5309724142
 30
0.0
 11
109.1554574496
 21
96.6882801136
 31
0.0
  0
LWPOLYLINE
  5
238
330
1F
100
AcDbEntity
  8
0
  6
Continuous
 62
     8
370
    18
100
AcDbPolyline
 90
        9
 70
   128
 43
0.0
 10
150.3537578825
 20
142.9844918124
 10
150.559749822
 20
142.9844455102
 10
150.757244609
 20
142.9844138784
 10
150.9388369994
 20
142.9843981032
 10
151.0977180235
 20
142.9843987759
 10
151.227930295
 20
142.9844158715
 10
151.3245913879
 20
142.9844487489
 10
151.3840769079
 20
142.9844961753
 10
151.4041563921
 20
142.984556374
  0
LWPOLYLINE
  5
239
330
1F
100
AcDbEntity
  8
0
  6
Continuous
 62
     8
370
    18
100
AcDbPolyline
 90
        9
 70
   128
 43
0.0
 10
109.1347735994
 20
142.9844918124
 10
108.9287816598
 20
142.9844455102
 10
108.7312868728
 20
142.9844138785
 10
108.5496944825
 20
142.9843981034
 10
108.3908134583
 20
142.9843987764
 10
108.2606011868
 20
142.9844158722
 10
108.1639400939
 20
142.9844487498
 10
108.1044545739
 20
142.9844961765
 10
108.0843750897
 20
142.984556374
  0
LWPOLYLINE
  5
23A
330
1F
100
AcDbEntity
  8
0
  6
Continuous
 62
     8
370
    18
100
AcDbPolyline
 90
        9
 70
   128
 43
0.0
 10
109.1463976402
 20
115.1026483729
 10
108.9400068549
 20
115.1026011854
 10
108.7418867071
 20
115.1025681918
 10
108.5595433453
 20
115.102550642
 10
108.3998851848
 20
115.1025492011
 10
108.2689611706
 20
115.1025639236
 10
108.1717316011
 20
115.1025942517
 10
108.1118801984
 20
115.1026390364
 10
108.0916745439
 20
115.1026959584
  0
LWPOLYLINE
  5
23B
330
1F
100
AcDbEntity
  8
0
  6
Continuous
 62
     8
370
    18
100
AcDbPolyline
 90
        9
 70
   128
 43
0.0
 10
150.3421338417
 20
115.1026483729
 10
150.548524627
 20
115.1026011854
 10
150.7466447748
 20
115.1025681918
 10
150.9289881368
 20
115.102550642
 10
151.0886462972
 20
115.1025492011
 10
151.2195703114
 20
115.1025639236
 10
151.3167998809
 20
115.1025942517
 10
151.3766512835
 20
115.1026390364
 10
151.396856939
 20
115.1027001181
  0
ARC
  5
23C
330
1F
100
AcDbEntity
  8
0
  6
Continuous
 62
     8
370
    18
100
AcDbCircle
 10
366.4138225164
 20
93.9857730268
 30
0.0
 40
254.8185671812292
100
AcDbArc
 50
179.9405940207
 51
180.1787089768
  0
LWPOLYLINE
  5
23D
330
1F
100
AcDbEntity
  8
0
  6
Continuous
 62
     8
370
    18
100
AcDbPolyline
 90
        9
 70
   128
 43
0.0
 10
129.7442658233
 20
94.2468577264
 10
129.7442658216
 20
94.0403618609
 10
129.7442658168
 20
93.8420753588
 10
129.7442658092
 20
93.659531491
 10
129.7442657989
 20
93.4996654368
 10
129.7442657864
 20
93.3685508033
 10
129.7442657723
 20
93.2711688781
 10
129.7442657569
 20
93.2112193805
 10
129.744265739
 20
93.1909799029
  0
SPLINE
  5
23E
330
1F
100
AcDbEntity
  8
0
  6
Continuous
 62
     8
370
    18
100
AcDbSpline
210
0.0
220
0.0
230
1.0
 70
     8
 71
     3
 72
    14
 73
    10
 74
     0
 42
0.000000001
 43
0.00000001
 40
0.0
 40
0.0
 40
0.0
 40
0.0
 40
0.25
 40
0.25
 40
0.5
 40
0.5
 40
0.75
 40
0.75
 40
1.0
 40
1.0
 40
1.0
 40
1.0
 10
109.1542162074979
 20
97.53038220740136
 30
0.0
 10
109.0291551807968
 20
97.53035065635301
 30
0.0
 10
108.8943835614201
 20
97.5303653986601
 30
0.0
 10
108.633692368034
 20
97.53052062118397
 30
0.0
 10
108.508577667262
 20
97.53066204315695
 30
0.0
 10
108.3021789449363
 20
97.53105255900789
 30
0.0
 10
108.2215853881329
 20
97.53130034092773
 30
0.0
 10
108.118746043171
 20
97.53183274199718
 30
0.0
 10
108.0962745111923
 20
97.5321154782723
 30
0.0
 10
108.096274441094
 20
97.532383233854
 30
0.0
  0
ARC
  5
23F
330
1F
100
AcDbEntity
  8
0
  6
Continuous
 62
     8
370
    18
100
AcDbCircle
 10
108.8555827986
 20
233.0199409746
 30
0.0
 40
136.3319906623175
100
AcDbArc
 50
269.6809791014
 51
270.1260273958
  0
SPLINE
  5
240
330
1F
100
AcDbEntity
  8
0
  6
Continuous
 62
     8
370
    18
100
AcDbSpline
210
0.0
220
0.0
230
1.0
 70
     8
 71
     3
 72
    14
 73
    10
 74
     0
 42
0.000000001
 43
0.00000001
 40
0.0
 40
0.0
 40
0.0
 40
0.0
 40
0.25
 40
0.25
 40
0.5
 40
0.5
 40
0.75
 40
0.75
 40
1.0
 40
1.0
 40
1.0
 40
1.0
 10
150.3335930188942
 20
97.53071590100124
 30
0.0
 10
150.4585640110727
 20
97.53068366429389
 30
0.0
 10
150.5931585287578
 20
97.53066586860133
 30
0.0
 10
150.853658809273
 20
97.53067588122941
 30
0.0
 10
150.9787318336064
 20
97.53070410068622
 30
0.0
 10
151.1852462575795
 20
97.5308057150709
 30
0.0
 10
151.2659979114615
 20
97.5308787725527
 30
0.0
 10
151.3692703254058
 20
97.53104781984372
 30
0.0
 10
151.3921327948324
 20
97.53114311959293
 30
0.0
 10
151.3922562226655
 20
97.53123703728795
 30
0.0
  0
ARC
  5
241
330
1F
100
AcDbEntity
  8
0
  6
Continuous
 62
     8
370
    18
100
AcDbCircle
 10
-106.9407414126
 20
93.9857725537
 30
0.0
 40
254.8340174826058
100
AcDbArc
 50
359.8213019645
 51
0.0594025334
  0
ARC
  5
242
330
1F
100
AcDbEntity
  8
0
  6
Continuous
 62
     8
370
    18
100
AcDbCircle
 10
150.6329493028
 20
233.023490773
 30
0.0
 40
136.3355404021775
100
AcDbArc
 50
269.873975624
 51
270.3190123318
  0
ENDSEC
  0
SECTION
  2
OBJECTS
  0
DICTIONARY
  5
C
330
0
100
AcDbDictionary
281
     1
  3
ACAD_GROUP
350
D
  3
ACAD_LAYOUT
350
1A
  3
ACAD_MLINESTYLE
350
17
  3
ACAD_PLOTSETTINGS
350
19
  3
ACAD_PLOTSTYLENAME
350
E
  3
ACAD_SCALELIST
350
47
  0
DICTIONARY
  5
D
102
{ACAD_REACTORS
330
C
102
}
330
C
100
AcDbDictionary
281
     1
  0
DICTIONARY
  5
1A
102
{ACAD_REACTORS
330
C
102
}
330
C
100
AcDbDictionary
281
     1
  3
Layout1
350
1E
  3
Layout2
350
26
  3
Model
350
22
  0
DICTIONARY
  5
17
102
{ACAD_REACTORS
330
C
102
}
330
C
100
AcDbDictionary
281
     1
  3
Standard
350
18
  0
DICTIONARY
  5
19
102
{ACAD_REACTORS
330
C
102
}
330
C
100
AcDbDictionary
281
     1
  0
ACDBDICTIONARYWDFLT
  5
E
102
{ACAD_REACTORS
330
C
102
}
330
C
100
AcDbDictionary
281
     1
  3
Normal
350
F
100
AcDbDictionaryWithDefault
340
F
  0
DICTIONARY
  5
47
102
{ACAD_REACTORS
330
C
102
}
330
C
100
AcDbDictionary
281
     1
  3
A0
350
48
  3
A1
350
49
  3
A2
350
4A
  3
A3
350
4B
  3
A4
350
4C
  3
A5
350
4D
  3
A6
350
4E
  3
A7
350
4F
  3
A8
350
50
  3
A9
350
51
  3
B0
350
52
  3
B1
350
53
  3
B2
350
54
  3
B3
350
55
  3
B4
350
56
  3
B5
350
57
  3
B6
350
58
  3
B7
350
59
  3
B8
350
5A
  3
B9
350
5B
  3
C0
350
5C
  3
C1
350
5D
  3
C2
350
5E
  3
C3
350
5F
  3
C4
350
60
  3
C5
350
61
  3
C6
350
62
  3
C7
350
63
  3
C8
350
64
  3
C9
350
65
  3
D0
350
66
  3
D1
350
67
  3
D2
350
68
  0
LAYOUT
  5
1E
102
{ACAD_REACTORS
330
1A
102
}
330
1A
100
AcDbPlotSettings
  1

  2
none_device
  4

  6

 40
0.0
 41
0.0
 42
0.0
 43
0.0
 44
0.0
 45
0.0
 46
0.0
 47
0.0
 48
0.0
 49
0.0
140
0.0
141
0.0
142
1.0
143
1.0
 70
   688
 72
     1
 73
     0
 74
     5
  7

 75
    16
147
1.0
148
0.0
149
0.0
100
AcDbLayout
  1
Layout1
 70
     1
 71
     1
 10
0.0
 20
0.0
 11
420.0
 21
297.0
 12
0.0
 22
0.0
 32
0.0
 14
1.0000000000E+20
 24
1.0000000000E+20
 34
1.0000000000E+20
 15
-1.0000000000E+20
 25
-1.0000000000E+20
 35
-1.0000000000E+20
146
0.0
 13
0.0
 23
0.0
 33
0.0
 16
1.0
 26
0.0
 36
0.0
 17
0.0
 27
1.0
 37
0.0
 76
     0
330
1B
  0
LAYOUT
  5
26
102
{ACAD_REACTORS
330
1A
102
}
330
1A
100
AcDbPlotSettings
  1

  2
none_device
  4

  6

 40
0.0
 41
0.0
 42
0.0
 43
0.0
 44
0.0
 45
0.0
 46
0.0
 47
0.0
 48
0.0
 49
0.0
140
0.0
141
0.0
142
1.0
143
1.0
 70
   688
 72
     1
 73
     0
 74
     5
  7

 75
    16
147
1.0
148
0.0
149
0.0
100
AcDbLayout
  1
Layout2
 70
     1
 71
     2
 10
0.0
 20
0.0
 11
0.0
 21
0.0
 12
0.0
 22
0.0
 32
0.0
 14
0.0
 24
0.0
 34
0.0
 15
0.0
 25
0.0
 35
0.0
146
0.0
 13
0.0
 23
0.0
 33
0.0
 16
1.0
 26
0.0
 36
0.0
 17
0.0
 27
1.0
 37
0.0
 76
     0
330
23
  0
LAYOUT
  5
22
102
{ACAD_REACTORS
330
1A
102
}
330
1A
100
AcDbPlotSettings
  1

  2
none_device
  4
Letter_(8.50_x_11.00_Inches)
  6

 40
6.35
 41
6.35
 42
6.35000508
 43
6.35000508
 44
215.9
 45
279.4
 46
0.0
 47
0.0
 48
0.0
 49
0.0
140
0.0
141
0.0
142
1.0
143
1.0
 70
  1712
 72
     1
 73
     0
 74
     0
  7

 75
     0
147
1.0
148
0.0
149
0.0
100
AcDbLayout
  1
Model
 70
     1
 71
     0
 10
0.0
 20
0.0
 11
594.0
 21
841.0
 12
0.0
 22
0.0
 32
0.0
 14
0.0
 24
0.0
 34
0.0
 15
594.0
 25
841.0
 35
0.0
146
0.0
 13
0.0
 23
0.0
 33
0.0
 16
1.0
 26
0.0
 36
0.0
 17
0.0
 27
1.0
 37
0.0
 76
     0
330
1F
331
29
  0
MLINESTYLE
  5
18
102
{ACAD_REACTORS
330
17
102
}
330
17
100
AcDbMlineStyle
  2
Standard
 70
     0
  3

 62
   256
 51
90.0
 52
90.0
 71
     2
 49
0.5
 62
   256
  6
BYLAYER
 49
-0.5
 62
   256
  6
BYLAYER
  0
ACDBPLACEHOLDER
  5
F
102
{ACAD_REACTORS
330
E
102
}
330
E
  0
SCALE
  5
48
102
{ACAD_REACTORS
330
47
102
}
330
47
100
AcDbScale
 70
     0
300
1:1
140
1.0
141
1.0
290
     1
  0
SCALE
  5
49
102
{ACAD_REACTORS
330
47
102
}
330
47
100
AcDbScale
 70
     0
300
1:2
140
1.0
141
2.0
290
     0
  0
SCALE
  5
4A
102
{ACAD_REACTORS
330
47
102
}
330
47
100
AcDbScale
 70
     0
300
1:4
140
1.0
141
4.0
290
     0
  0
SCALE
  5
4B
102
{ACAD_REACTORS
330
47
102
}
330
47
100
AcDbScale
 70
     0
300
1:5
140
1.0
141
5.0
290
     0
  0
SCALE
  5
4C
102
{ACAD_REACTORS
330
47
102
}
330
47
100
AcDbScale
 70
     0
300
1:8
140
1.0
141
8.0
290
     0
  0
SCALE
  5
4D
102
{ACAD_REACTORS
330
47
102
}
330
47
100
AcDbScale
 70
     0
300
1:10
140
1.0
141
10.0
290
     0
  0
SCALE
  5
4E
102
{ACAD_REACTORS
330
47
102
}
330
47
100
AcDbScale
 70
     0
300
1:16
140
1.0
141
16.0
290
     0
  0
SCALE
  5
4F
102
{ACAD_REACTORS
330
47
102
}
330
47
100
AcDbScale
 70
     0
300
1:20
140
1.0
141
20.0
290
     0
  0
SCALE
  5
50
102
{ACAD_REACTORS
330
47
102
}
330
47
100
AcDbScale
 70
     0
300
1:30
140
1.0
141
30.0
290
     0
  0
SCALE
  5
51
102
{ACAD_REACTORS
330
47
102
}
330
47
100
AcDbScale
 70
     0
300
1:40
140
1.0
141
40.0
290
     0
  0
SCALE
  5
52
102
{ACAD_REACTORS
330
47
102
}
330
47
100
AcDbScale
 70
     0
300
1:50
140
1.0
141
50.0
290
     0
  0
SCALE
  5
53
102
{ACAD_REACTORS
330
47
102
}
330
47
100
AcDbScale
 70
     0
300
1:100
140
1.0
141
100.0
290
     0
  0
SCALE
  5
54
102
{ACAD_REACTORS
330
47
102
}
330
47
100
AcDbScale
 70
     0
300
2:1
140
2.0
141
1.0
290
     0
  0
SCALE
  5
55
102
{ACAD_REACTORS
330
47
102
}
330
47
100
AcDbScale
 70
     0
300
4:1
140
4.0
141
1.0
290
     0
  0
SCALE
  5
56
102
{ACAD_REACTORS
330
47
102
}
330
47
100
AcDbScale
 70
     0
300
8:1
140
8.0
141
1.0
290
     0
  0
SCALE
  5
57
102
{ACAD_REACTORS
330
47
102
}
330
47
100
AcDbScale
 70
     0
300
10:1
140
10.0
141
1.0
290
     0
  0
SCALE
  5
58
102
{ACAD_REACTORS
330
47
102
}
330
47
100
AcDbScale
 70
     0
300
100:1
140
100.0
141
1.0
290
     0
  0
SCALE
  5
59
102
{ACAD_REACTORS
330
47
102
}
330
47
100
AcDbScale
 70
     0
300
1/128" = 1'-0"
140
0.0078125
141
12.0
290
     0
  0
SCALE
  5
5A
102
{ACAD_REACTORS
330
47
102
}
330
47
100
AcDbScale
 70
     0
300
1/64" = 1'-0"
140
0.015625
141
12.0
290
     0
  0
SCALE
  5
5B
102
{ACAD_REACTORS
330
47
102
}
330
47
100
AcDbScale
 70
     0
300
1/32" = 1'-0"
140
0.03125
141
12.0
290
     0
  0
SCALE
  5
5C
102
{ACAD_REACTORS
330
47
102
}
330
47
100
AcDbScale
 70
     0
300
1/16" = 1'-0"
140
0.0625
141
12.0
290
     0
  0
SCALE
  5
5D
102
{ACAD_REACTORS
330
47
102
}
330
47
100
AcDbScale
 70
     0
300
3/32" = 1'-0"
140
0.09375
141
12.0
290
     0
  0
SCALE
  5
5E
102
{ACAD_REACTORS
330
47
102
}
330
47
100
AcDbScale
 70
     0
300
1/8" = 1'-0"
140
0.125
141
12.0
290
     0
  0
SCALE
  5
5F
102
{ACAD_REACTORS
330
47
102
}
330
47
100
AcDbScale
 70
     0
300
3/16" = 1'-0"
140
0.1875
141
12.0
290
     0
  0
SCALE
  5
60
102
{ACAD_REACTORS
330
47
102
}
330
47
100
AcDbScale
 70
     0
300
1/4" = 1'-0"
140
0.25
141
12.0
290
     0
  0
SCALE
  5
61
102
{ACAD_REACTORS
330
47
102
}
330
47
100
AcDbScale
 70
     0
300
3/8" = 1'-0"
140
0.375
141
12.0
290
     0
  0
SCALE
  5
62
102
{ACAD_REACTORS
330
47
102
}
330
47
100
AcDbScale
 70
     0
300
1/2" = 1'-0"
140
0.5
141
12.0
290
     0
  0
SCALE
  5
63
102
{ACAD_REACTORS
330
47
102
}
330
47
100
AcDbScale
 70
     0
300
3/4" = 1'-0"
140
0.75
141
12.0
290
     0
  0
SCALE
  5
64
102
{ACAD_REACTORS
330
47
102
}
330
47
100
AcDbScale
 70
     0
300
1" = 1'-0"
140
1.0
141
12.0
290
     0
  0
SCALE
  5
65
102
{ACAD_REACTORS
330
47
102
}
330
47
100
AcDbScale
 70
     0
300
1-1/2" = 1'-0"
140
1.5
141
12.0
290
     0
  0
SCALE
  5
66
102
{ACAD_REACTORS
330
47
102
}
330
47
100
AcDbScale
 70
     0
300
3" = 1'-0"
140
3.0
141
12.0
290
     0
  0
SCALE
  5
67
102
{ACAD_REACTORS
330
47
102
}
330
47
100
AcDbScale
 70
     0
300
6" = 1'-0"
140
6.0
141
12.0
290
     0
  0
SCALE
  5
68
102
{ACAD_REACTORS
330
47
102
}
330
47
100
AcDbScale
 70
     0
300
1'-0" = 1'-0"
140
12.0
141
12.0
290
     0
  0
ENDSEC
  0
EOF
