  0
SECTION
  2
HEADER
  9
$ACADVER
  1
AC1015
  9
$ACADMAINTVER
 70
     6
  9
$DWGCODEPAGE
  3
ANSI_1252
  9
$INSBASE
 10
0.0
 20
0.0
 30
0.0
  9
$EXTMIN
 10
0.0
 20
0.0
 30
0.0
  9
$EXTMAX
 10
594.0
 20
841.0
 30
0.0
  9
$LIMMIN
 10
0.0
 20
0.0
  9
$LIMMAX
 10
594.0
 20
841.0
  9
$ORTHOMODE
 70
     0
  9
$REGENMODE
 70
     1
  9
$FILLMODE
 70
     1
  9
$QTEXTMODE
 70
     0
  9
$MIRRTEXT
 70
     1
  9
$LTSCALE
 40
1.0
  9
$ATTMODE
 70
     1
  9
$TEXTSIZE
 40
10.0
  9
$TRACEWID
 40
1.0
  9
$TEXTSTYLE
  7
Standard
  9
$CLAYER
  8
0
  9
$CELTYPE
  6
ByLayer
  9
$CECOLOR
 62
   256
  9
$CELTSCALE
 40
1.0
  9
$DISPSILH
 70
     0
  9
$DIMSCALE
 40
1.0
  9
$DIMASZ
 40
2.5
  9
$DIMEXO
 40
0.0
  9
$DIMDLI
 40
3.75
  9
$DIMRND
 40
0.0
  9
$DIMDLE
 40
0.0
  9
$DIMEXE
 40
1.0
  9
$DIMTP
 40
0.0
  9
$DIMTM
 40
0.0
  9
$DIMTXT
 40
3.5
  9
$DIMCEN
 40
2.5
  9
$DIMTSZ
 40
0.0
  9
$DIMTOL
 70
     0
  9
$DIMLIM
 70
     0
  9
$DIMTIH
 70
     1
  9
$DIMTOH
 70
     1
  9
$DIMSE1
 70
     0
  9
$DIMSE2
 70
     0
  9
$DIMTAD
 70
     1
  9
$DIMZIN
 70
     0
  9
$DIMBLK
  1

  9
$DIMASO
 70
     1
  9
$DIMSHO
 70
     1
  9
$DIMPOST
  1

  9
$DIMAPOST
  1

  9
$DIMALT
 70
     0
  9
$DIMALTD
 70
     3
  9
$DIMALTF
 40
0.0393700787
  9
$DIMLFAC
 40
1.0
  9
$DIMTOFL
 70
     1
  9
$DIMTVP
 40
0.0
  9
$DIMTIX
 70
     0
  9
$DIMSOXD
 70
     0
  9
$DIMSAH
 70
     0
  9
$DIMBLK1
  1

  9
$DIMBLK2
  1

  9
$DIMSTYLE
  2
ISO-25
  9
$DIMCLRD
 70
     0
  9
$DIMCLRE
 70
     0
  9
$DIMCLRT
 70
     0
  9
$DIMTFAC
 40
1.0
  9
$DIMGAP
 40
1.5
  9
$DIMJUST
 70
     0
  9
$DIMSD1
 70
     0
  9
$DIMSD2
 70
     0
  9
$DIMTOLJ
 70
     0
  9
$DIMTZIN
 70
     0
  9
$DIMALTZ
 70
     0
  9
$DIMALTTZ
 70
     0
  9
$DIMUPT
 70
     0
  9
$DIMDEC
 70
     2
  9
$DIMTDEC
 70
     2
  9
$DIMALTU
 70
     2
  9
$DIMALTTD
 70
     3
  9
$DIMTXSTY
  7
Standard
  9
$DIMAUNIT
 70
     0
  9
$DIMADEC
 70
     2
  9
$DIMALTRND
 40
0.0
  9
$DIMAZIN
 70
     0
  9
$DIMDSEP
 70
    44
  9
$DIMATFIT
 70
     3
  9
$DIMFRAC
 70
     0
  9
$DIMLDRBLK
  1

  9
$DIMLUNIT
 70
     2
  9
$DIMLWD
 70
    -2
  9
$DIMLWE
 70
    -2
  9
$DIMTMOVE
 70
     0
  9
$LUNITS
 70
     2
  9
$LUPREC
 70
     2
  9
$SKETCHINC
 40
1.0
  9
$FILLETRAD
 40
0.0
  9
$AUNITS
 70
     0
  9
$AUPREC
 70
     2
  9
$MENU
  1
.
  9
$ELEVATION
 40
0.0
  9
$PELEVATION
 40
0.0
  9
$THICKNESS
 40
0.0
  9
$LIMCHECK
 70
     0
  9
$CHAMFERA
 40
0.0
  9
$CHAMFERB
 40
0.0
  9
$CHAMFERC
 40
0.0
  9
$CHAMFERD
 40
0.0
  9
$SKPOLY
 70
     0
  9
$TDCREATE
 40
2460334.594839375
  9
$TDUCREATE
 40
2460334.553172708
  9
$TDUPDATE
 40
2460334.594841192
  9
$TDUUPDATE
 40
2460334.553174525
  9
$TDINDWG
 40
0.0000000116
  9
$TDUSRTIMER
 40
0.0000000116
  9
$USRTIMER
 70
     1
  9
$ANGBASE
 50
0.0
  9
$ANGDIR
 70
     0
  9
$PDMODE
 70
     0
  9
$PDSIZE
 40
-1.0
  9
$PLINEWID
 40
0.0
  9
$SPLFRAME
 70
     0
  9
$SPLINETYPE
 70
     6
  9
$SPLINESEGS
 70
     8
  9
$HANDSEED
  5
18B
  9
$SURFTAB1
 70
     6
  9
$SURFTAB2
 70
     6
  9
$SURFTYPE
 70
     6
  9
$SURFU
 70
     6
  9
$SURFV
 70
     6
  9
$UCSBASE
  2

  9
$UCSNAME
  2

  9
$UCSORG
 10
0.0
 20
0.0
 30
0.0
  9
$UCSXDIR
 10
1.0
 20
0.0
 30
0.0
  9
$UCSYDIR
 10
0.0
 20
1.0
 30
0.0
  9
$UCSORTHOREF
  2

  9
$UCSORTHOVIEW
 70
     0
  9
$UCSORGTOP
 10
0.0
 20
0.0
 30
0.0
  9
$UCSORGBOTTOM
 10
0.0
 20
0.0
 30
0.0
  9
$UCSORGLEFT
 10
0.0
 20
0.0
 30
0.0
  9
$UCSORGRIGHT
 10
0.0
 20
0.0
 30
0.0
  9
$UCSORGFRONT
 10
0.0
 20
0.0
 30
0.0
  9
$UCSORGBACK
 10
0.0
 20
0.0
 30
0.0
  9
$PUCSBASE
  2

  9
$PUCSNAME
  2

  9
$PUCSORG
 10
0.0
 20
0.0
 30
0.0
  9
$PUCSXDIR
 10
1.0
 20
0.0
 30
0.0
  9
$PUCSYDIR
 10
0.0
 20
1.0
 30
0.0
  9
$PUCSORTHOREF
  2

  9
$PUCSORTHOVIEW
 70
     0
  9
$PUCSORGTOP
 10
0.0
 20
0.0
 30
0.0
  9
$PUCSORGBOTTOM
 10
0.0
 20
0.0
 30
0.0
  9
$PUCSORGLEFT
 10
0.0
 20
0.0
 30
0.0
  9
$PUCSORGRIGHT
 10
0.0
 20
0.0
 30
0.0
  9
$PUCSORGFRONT
 10
0.0
 20
0.0
 30
0.0
  9
$PUCSORGBACK
 10
0.0
 20
0.0
 30
0.0
  9
$USERI1
 70
     0
  9
$USERI2
 70
     0
  9
$USERI3
 70
     0
  9
$USERI4
 70
     0
  9
$USERI5
 70
     0
  9
$USERR1
 40
0.0
  9
$USERR2
 40
0.0
  9
$USERR3
 40
0.0
  9
$USERR4
 40
0.0
  9
$USERR5
 40
0.0
  9
$WORLDVIEW
 70
     1
  9
$SHADEDGE
 70
     3
  9
$SHADEDIF
 70
    70
  9
$TILEMODE
 70
     1
  9
$MAXACTVP
 70
    64
  9
$PINSBASE
 10
0.0
 20
0.0
 30
0.0
  9
$PLIMCHECK
 70
     0
  9
$PEXTMIN
 10
1.0000000000E+20
 20
1.0000000000E+20
 30
1.0000000000E+20
  9
$PEXTMAX
 10
-1.0000000000E+20
 20
-1.0000000000E+20
 30
-1.0000000000E+20
  9
$PLIMMIN
 10
0.0
 20
0.0
  9
$PLIMMAX
 10
420.0
 20
297.0
  9
$UNITMODE
 70
     0
  9
$VISRETAIN
 70
     1
  9
$PLINEGEN
 70
     0
  9
$PSLTSCALE
 70
     1
  9
$TREEDEPTH
 70
  3020
  9
$CMLSTYLE
  2
Standard
  9
$CMLJUST
 70
     0
  9
$CMLSCALE
 40
20.0
  9
$PROXYGRAPHICS
 70
     1
  9
$MEASUREMENT
 70
     1
  9
$CELWEIGHT
370
    -1
  9
$ENDCAPS
280
     0
  9
$JOINSTYLE
280
     0
  9
$LWDISPLAY
290
     1
  9
$INSUNITS
 70
     4
  9
$HYPERLINKBASE
  1

  9
$STYLESHEET
  1

  9
$XEDIT
290
     1
  9
$CEPSNTYPE
380
     0
  9
$PSTYLEMODE
290
     1
  9
$FINGERPRINTGUID
  2
{5aa05341-d7f0-49ad-b8ba-40fc6d7cce9e}
  9
$VERSIONGUID
  2
{FAEB1C32-E019-11D5-929B-00C0DF256EC4}
  9
$EXTNAMES
290
     1
  9
$PSVPSCALE
 40
0.0
  9
$OLESTARTUP
290
     0
  0
ENDSEC
  0
SECTION
  2
CLASSES
  0
CLASS
  1
ACDBDICTIONARYWDFLT
  2
AcDbDictionaryWithDefault
  3
ObjectDBX Classes
 90
        0
280
     0
281
     0
  0
CLASS
  1
VISUALSTYLE
  2
AcDbVisualStyle
  3
ObjectDBX Classes
 90
     4095
280
     0
281
     0
  0
CLASS
  1
MATERIAL
  2
AcDbMaterial
  3
ObjectDBX Classes
 90
     1153
280
     0
281
     0
  0
CLASS
  1
SCALE
  2
AcDbScale
  3
ObjectDBX Classes
 90
     1153
280
     0
281
     0
  0
CLASS
  1
TABLESTYLE
  2
AcDbTableStyle
  3
ObjectDBX Classes
 90
     4095
280
     0
281
     0
  0
CLASS
  1
MLEADERSTYLE
  2
AcDbMLeaderStyle
  3
ACDB_MLEADERSTYLE_CLASS
 90
     4095
280
     0
281
     0
  0
CLASS
  1
SUN
  2
AcDbSun
  3
SCENEOE
 90
     1153
280
     0
281
     0
  0
CLASS
  1
ACDBPLACEHOLDER
  2
AcDbPlaceHolder
  3
ObjectDBX Classes
 90
        0
280
     0
281
     0
  0
CLASS
  1
LAYOUT
  2
AcDbLayout
  3
ObjectDBX Classes
 90
        0
280
     0
281
     0
  0
ENDSEC
  0
SECTION
  2
TABLES
  0
TABLE
  2
VPORT
  5
8
330
0
100
AcDbSymbolTable
 70
     1
  0
VPORT
  5
29
330
8
100
AcDbSymbolTableRecord
100
AcDbViewportTableRecord
  2
*Active
 70
     0
 10
0.0
 20
0.0
 11
1.0
 21
1.0
 12
297.0
 22
420.5
 13
0.0
 23
0.0
 14
10.0
 24
10.0
 15
10.0
 25
10.0
 16
0.0
 26
0.0
 36
1.0
 17
0.0
 27
0.0
 37
0.0
 40
841.0
 41
0.7063020214
 42
50.0
 43
0.0
 44
0.0
 50
0.0
 51
0.0
 71
     0
 72
  2000
 73
     1
 74
     3
 75
     0
 76
     0
 77
     0
 78
     0
281
     0
 65
     1
110
0.0
120
0.0
130
0.0
111
1.0
121
0.0
131
0.0
112
0.0
122
1.0
132
0.0
 79
     0
146
0.0
  0
ENDTAB
  0
TABLE
  2
LTYPE
  5
5
330
0
100
AcDbSymbolTable
 70
     6
  0
LTYPE
  5
14
330
5
100
AcDbSymbolTableRecord
100
AcDbLinetypeTableRecord
  2
ByBlock
 70
     0
  3

 72
    65
 73
     0
 40
0.0
  0
LTYPE
  5
15
330
5
100
AcDbSymbolTableRecord
100
AcDbLinetypeTableRecord
  2
ByLayer
 70
     0
  3

 72
    65
 73
     0
 40
0.0
  0
LTYPE
  5
16
330
5
100
AcDbSymbolTableRecord
100
AcDbLinetypeTableRecord
  2
Continuous
 70
     0
  3
Solid line
 72
    65
 73
     0
 40
0.0
  0
LTYPE
  5
5E
330
5
100
AcDbSymbolTableRecord
100
AcDbLinetypeTableRecord
  2
HIDDEN
 70
     0
  3
Hidden __ __ __ __ __ __ __ __ __ __ __ __ __ __
 72
    65
 73
     2
 40
1.905
 49
1.27
 74
     0
 49
-0.635
 74
     0
  0
LTYPE
  5
5F
330
5
100
AcDbSymbolTableRecord
100
AcDbLinetypeTableRecord
  2
PHANTOM
 70
     0
  3
Phantom ______  __  __  ______  __  __  ______
 72
    65
 73
     6
 40
12.7
 49
6.35
 74
     0
 49
-1.27
 74
     0
 49
1.27
 74
     0
 49
-1.27
 74
     0
 49
1.27
 74
     0
 49
-1.27
 74
     0
  0
LTYPE
  5
60
330
5
100
AcDbSymbolTableRecord
100
AcDbLinetypeTableRecord
  2
CENTER
 70
     0
  3
Center ____ _ ____ _ ____ _ ____ _ ____ _ ____
 72
    65
 73
     4
 40
10.16
 49
6.35
 74
     0
 49
-1.27
 74
     0
 49
1.27
 74
     0
 49
-1.27
 74
     0
  0
LTYPE
  5
61
330
5
100
AcDbSymbolTableRecord
100
AcDbLinetypeTableRecord
  2
CENTERX2
 70
     0
  3
Center (2x) ________  __  ________  __  _____
 72
    65
 73
     4
 40
20.32
 49
12.7
 74
     0
 49
-2.54
 74
     0
 49
2.54
 74
     0
 49
-2.54
 74
     0
  0
LTYPE
  5
62
330
5
100
AcDbSymbolTableRecord
100
AcDbLinetypeTableRecord
  2
DOT2
 70
     0
  3
Dot (.5x) ........................................
 72
    65
 73
     2
 40
0.635
 49
0.0
 74
     0
 49
-0.635
 74
     0
  0
ENDTAB
  0
TABLE
  2
LAYER
  5
2
330
0
100
AcDbSymbolTable
 70
     1
  0
LAYER
  5
10
330
2
100
AcDbSymbolTableRecord
100
AcDbLayerTableRecord
  2
0
 70
     0
 62
     7
  6
Continuous
370
    -3
390
F
  0
ENDTAB
  0
TABLE
  2
STYLE
  5
3
330
0
100
AcDbSymbolTable
 70
     3
  0
STYLE
  5
11
330
3
100
AcDbSymbolTableRecord
100
AcDbTextStyleTableRecord
  2
Standard
 70
     0
 40
0.0
 41
1.0
 50
0.0
 71
     0
 42
10.0
  3
txt
  4

  0
STYLE
  5
66
330
3
100
AcDbSymbolTableRecord
100
AcDbTextStyleTableRecord
  2
SLDTEXTSTYLE0
 70
     0
 40
0.0
 41
0.96
 50
0.0
 71
     0
 42
10.0
  3
ISOCP3
  4

  0
STYLE
  5
7D
330
3
100
AcDbSymbolTableRecord
100
AcDbTextStyleTableRecord
  2
SLDTEXTSTYLE1
 70
     0
 40
0.0
 41
0.605
 50
0.0
 71
     0
 42
10.0
  3
TXT
  4

  0
ENDTAB
  0
TABLE
  2
VIEW
  5
6
330
0
100
AcDbSymbolTable
 70
     0
  0
ENDTAB
  0
TABLE
  2
UCS
  5
7
330
0
100
AcDbSymbolTable
 70
     0
  0
ENDTAB
  0
TABLE
  2
APPID
  5
9
330
0
100
AcDbSymbolTable
 70
     1
  0
APPID
  5
12
330
9
100
AcDbSymbolTableRecord
100
AcDbRegAppTableRecord
  2
ACAD
 70
     0
  0
ENDTAB
  0
TABLE
  2
DIMSTYLE
  5
A
330
0
100
AcDbSymbolTable
 70
     2
100
AcDbDimStyleTable
  0
DIMSTYLE
105
27
330
A
100
AcDbSymbolTableRecord
100
AcDbDimStyleTableRecord
  2
ISO-25
 70
     0
 41
2.5
 42
0.625
 43
3.75
 44
1.25
 73
     0
 74
     0
 77
     1
 78
     8
140
2.5
141
2.5
143
0.0393700787
147
0.625
171
     3
172
     1
178
     0
271
     2
272
     2
274
     3
278
    44
283
     0
284
     8
340
11
  0
DIMSTYLE
105
67
102
{ACAD_REACTORS
330
65
330
72
102
}
330
A
100
AcDbSymbolTableRecord
100
AcDbDimStyleTableRecord
  2
SLDDIMSTYLE0
 70
     0
 41
2.5
 44
0.0
 45
0.000000001
 73
     0
 74
     0
 77
     1
 78
    12
 79
     3
140
6.0
147
1.5
173
     1
178
     0
271
     2
272
     2
276
     2
284
    12
340
66
  0
ENDTAB
  0
TABLE
  2
BLOCK_RECORD
  5
1
330
0
100
AcDbSymbolTable
 70
     3
  0
BLOCK_RECORD
  5
1F
330
1
100
AcDbSymbolTableRecord
100
AcDbBlockTableRecord
  2
*Model_Space
340
22
  0
BLOCK_RECORD
  5
1B
330
1
100
AcDbSymbolTableRecord
100
AcDbBlockTableRecord
  2
*Paper_Space
340
1E
  0
BLOCK_RECORD
  5
23
330
1
100
AcDbSymbolTableRecord
100
AcDbBlockTableRecord
  2
*Paper_Space0
340
26
  0
BLOCK_RECORD
  5
68
330
1
100
AcDbSymbolTableRecord
100
AcDbBlockTableRecord
  2
_D
340
0
  0
BLOCK_RECORD
  5
73
330
1
100
AcDbSymbolTableRecord
100
AcDbBlockTableRecord
  2
_D_1
340
0
  0
ENDTAB
  0
ENDSEC
  0
SECTION
  2
BLOCKS
  0
BLOCK
  5
20
330
1F
100
AcDbEntity
  8
0
100
AcDbBlockBegin
  2
*Model_Space
 70
     0
 10
0.0
 20
0.0
 30
0.0
  3
*Model_Space
  1

  0
ENDBLK
  5
21
330
1F
100
AcDbEntity
  8
0
100
AcDbBlockEnd
  0
BLOCK
  5
1C
330
1B
100
AcDbEntity
 67
     1
  8
0
100
AcDbBlockBegin
  2
*Paper_Space
 70
     0
 10
0.0
 20
0.0
 30
0.0
  3
*Paper_Space
  1

  0
ENDBLK
  5
1D
330
1B
100
AcDbEntity
 67
     1
  8
0
100
AcDbBlockEnd
  0
BLOCK
  5
24
330
23
100
AcDbEntity
  8
0
100
AcDbBlockBegin
  2
*Paper_Space0
 70
     0
 10
0.0
 20
0.0
 30
0.0
  3
*Paper_Space0
  1

  0
ENDBLK
  5
25
330
23
100
AcDbEntity
  8
0
100
AcDbBlockEnd
  0
BLOCK
  5
69
330
68
100
AcDbEntity
  8
0
100
AcDbBlockBegin
  2
_D
 70
     0
 10
0.0
 20
0.0
 30
0.0
  3
_D
  1

  0
SOLID
  5
6B
330
68
100
AcDbEntity
  8
0
  6
Continuous
 62
     7
370
    18
100
AcDbTrace
 10
42.7614395004
 20
152.0299240879
 30
0.0
 11
42.4614395004
 21
149.5299240879
 31
0.0
 12
43.0614395004
 22
149.5299240879
 32
0.0
 13
43.0614395004
 23
149.5299240879
 33
0.0
  0
SOLID
  5
6C
330
68
100
AcDbEntity
  8
0
  6
Continuous
 62
     7
370
    18
100
AcDbTrace
 10
42.7614395004
 20
52.0299240879
 30
0.0
 11
43.0614395004
 21
54.5299240879
 31
0.0
 12
42.4614395004
 22
54.5299240879
 32
0.0
 13
42.4614395004
 23
54.5299240879
 33
0.0
  0
LINE
  5
6D
330
68
100
AcDbEntity
  8
0
  6
Continuous
 62
     7
370
     0
100
AcDbLine
 10
56.6850079902
 20
152.0299240879
 30
0.0
 11
41.7614395004
 21
152.0299240879
 31
0.0
  0
LINE
  5
6E
330
68
100
AcDbEntity
  8
0
  6
Continuous
 62
     7
370
     0
100
AcDbLine
 10
56.6850079902
 20
52.0299240879
 30
0.0
 11
41.7614395004
 21
52.0299240879
 31
0.0
  0
LINE
  5
6F
330
68
100
AcDbEntity
  8
0
  6
Continuous
 62
     7
370
     0
100
AcDbLine
 10
42.7614395004
 20
152.0299240879
 30
0.0
 11
42.7614395004
 21
52.0299240879
 31
0.0
  0
MTEXT
  5
70
330
68
100
AcDbEntity
  8
0
  6
Continuous
 62
     7
370
    18
100
AcDbMText
 10
35.0270332946
 20
94.3680541463
 30
0.0
 40
6.0
 41
0.0
 71
     1
 72
     1
  1
100
  7
SLDTEXTSTYLE0
 11
-7.044195017643634E-15
 21
1.0
 31
0.0
 73
     1
 44
1.0
  0
MTEXT
  5
71
330
68
100
AcDbEntity
  8
0
  6
Continuous
 62
     7
370
    18
100
AcDbMText
 10
35.0270332946
 20
105.7430548466
 30
0.0
 40
6.0
 41
0.0
 71
     1
 72
     1
  1
mm
  7
SLDTEXTSTYLE0
 11
-7.044195017643634E-15
 21
1.0
 31
0.0
 73
     1
 44
1.0
  0
ENDBLK
  5
6A
330
68
100
AcDbEntity
  8
0
100
AcDbBlockEnd
  0
BLOCK
  5
74
330
73
100
AcDbEntity
  8
0
100
AcDbBlockBegin
  2
_D_1
 70
     0
 10
0.0
 20
0.0
 30
0.0
  3
_D_1
  1

  0
SOLID
  5
76
330
73
100
AcDbEntity
  8
0
  6
Continuous
 62
     7
370
    18
100
AcDbTrace
 10
56.6850079902
 20
38.4602342313
 30
0.0
 11
59.1850079902
 21
38.1602342313
 31
0.0
 12
59.1850079902
 22
38.7602342313
 32
0.0
 13
59.1850079902
 23
38.7602342313
 33
0.0
  0
SOLID
  5
77
330
73
100
AcDbEntity
  8
0
  6
Continuous
 62
     7
370
    18
100
AcDbTrace
 10
156.6850079902
 20
38.4602342313
 30
0.0
 11
154.1850079902
 21
38.7602342313
 31
0.0
 12
154.1850079902
 22
38.1602342313
 32
0.0
 13
154.1850079902
 23
38.1602342313
 33
0.0
  0
LINE
  5
78
330
73
100
AcDbEntity
  8
0
  6
Continuous
 62
     7
370
     0
100
AcDbLine
 10
56.6850079902
 20
52.0299240879
 30
0.0
 11
56.6850079902
 21
37.4602342313
 31
0.0
  0
LINE
  5
79
330
73
100
AcDbEntity
  8
0
  6
Continuous
 62
     7
370
     0
100
AcDbLine
 10
156.6850079902
 20
52.0299240879
 30
0.0
 11
156.6850079902
 21
37.4602342313
 31
0.0
  0
LINE
  5
7A
330
73
100
AcDbEntity
  8
0
  6
Continuous
 62
     7
370
     0
100
AcDbLine
 10
56.6850079902
 20
38.4602342313
 30
0.0
 11
156.6850079902
 21
38.4602342313
 31
0.0
  0
MTEXT
  5
7B
330
73
100
AcDbEntity
  8
0
  6
Continuous
 62
     7
370
    18
100
AcDbMText
 10
93.9626484861
 20
46.1946404371
 30
0.0
 40
6.0
 41
0.0
 71
     1
 72
     1
  1
100
  7
SLDTEXTSTYLE0
 73
     1
 44
1.0
  0
MTEXT
  5
7C
330
73
100
AcDbEntity
  8
0
  6
Continuous
 62
     7
370
    18
100
AcDbMText
 10
105.3376491864
 20
46.1946404371
 30
0.0
 40
6.0
 41
0.0
 71
     1
 72
     1
  1
mm
  7
SLDTEXTSTYLE0
 73
     1
 44
1.0
  0
ENDBLK
  5
75
330
73
100
AcDbEntity
  8
0
100
AcDbBlockEnd
  0
ENDSEC
  0
SECTION
  2
ENTITIES
  0
LINE
  5
63
330
1F
100
AcDbEntity
  8
0
  6
Continuous
 62
     7
370
    18
100
AcDbLine
 10
56.6850079902
 20
152.0299240879
 30
0.0
 11
56.6850079902
 21
52.0299240879
 31
0.0
  0
LINE
  5
64
330
1F
100
AcDbEntity
  8
0
  6
Continuous
 62
     7
370
    18
100
AcDbLine
 10
56.6850079902
 20
52.0299240879
 30
0.0
 11
156.6850079902
 21
52.0299240879
 31
0.0
  0
DIMENSION
  5
65
330
1F
100
AcDbEntity
  8
0
  6
Continuous
 62
     7
370
    18
100
AcDbDimension
  2
_D
 10
42.7614395004
 20
52.0299240879
 30
0.0
 11
42.7614395004
 21
105.4472211621
 31
0.0
 70
   160
  1
<>mm
 71
     2
 42
-1.0
  3
SLDDIMSTYLE0
100
AcDbAlignedDimension
 13
56.6850079902
 23
152.0299240879
 33
0.0
 14
56.6850079902
 24
52.0299240879
 34
0.0
 50
90.0
100
AcDbRotatedDimension
  0
DIMENSION
  5
72
330
1F
100
AcDbEntity
  8
0
  6
Continuous
 62
     7
370
    18
100
AcDbDimension
  2
_D_1
 10
156.6850079902
 20
38.4602342313
 30
0.0
 11
105.0418155019
 21
38.4602342313
 31
0.0
 70
   160
  1
<>mm
 71
     2
 42
-1.0
  3
SLDDIMSTYLE0
100
AcDbAlignedDimension
 13
56.6850079902
 23
52.0299240879
 33
0.0
 14
156.6850079902
 24
52.0299240879
 34
0.0
100
AcDbRotatedDimension
  0
MTEXT
  5
7E
330
1F
100
AcDbEntity
  8
0
  6
Continuous
 62
     7
370
     0
100
AcDbMText
 10
412.8252631579
 20
48.4342449499
 30
0.0
 40
10.0
 41
0.0
 71
     1
 72
     1
  1
KLUDI GmbH & Co KG
  7
SLDTEXTSTYLE1
 73
     1
 44
1.0
  0
MTEXT
  5
7F
330
1F
100
AcDbEntity
  8
0
  6
Continuous
 62
     7
370
     0
100
AcDbMText
 10
210.0873490389
 20
48.4342449499
 30
0.0
 40
10.0
 41
0.0
 71
     1
 72
     1
  1
42 755 .. 75
  7
SLDTEXTSTYLE1
 73
     1
 44
1.0
  0
SPLINE
  5
80
330
1F
100
AcDbEntity
  8
0
  6
Continuous
 62
     7
370
    25
100
AcDbSpline
210
0.0
220
0.0
230
1.0
 70
     8
 71
     3
 72
    26
 73
    22
 74
     0
 42
0.00000001
 43
0.00000001
 40
0.0
 40
0.0
 40
0.0
 40
0.0
 40
0.0624999999999999
 40
0.0624999999999999
 40
0.1249999999999997
 40
0.1249999999999997
 40
0.2499999999999997
 40
0.2499999999999997
 40
0.3749999999999997
 40
0.3749999999999997
 40
0.4999999999999998
 40
0.4999999999999998
 40
0.6249999999999998
 40
0.6249999999999998
 40
0.7499999999999999
 40
0.7499999999999999
 40
0.8749999999999999
 40
0.8749999999999999
 40
0.9374999999999999
 40
0.9374999999999999
 40
1.0
 40
1.0
 40
1.0
 40
1.0
 10
197.3118308172608
 20
371.8345967081421
 30
0.0
 10
196.7536257937348
 20
371.8345967081418
 30
0.0
 10
196.1949975719745
 20
371.8348068114621
 30
0.0
 10
195.0713907570108
 20
371.8553119928366
 30
0.0
 10
194.506493818004
 20
371.8755860959288
 30
0.0
 10
192.8072969170678
 20
371.9889726989973
 30
0.0
 10
191.6668419686708
 20
372.1362897842079
 30
0.0
 10
189.4621117207993
 20
372.6482118070663
 30
0.0
 10
188.4004493556167
 20
373.012145545931
 30
0.0
 10
186.4714334907192
 20
373.9853593572096
 30
0.0
 10
185.6066929252962
 20
374.5939682308402
 30
0.0
 10
184.1326715178654
 20
376.0602918154946
 30
0.0
 10
183.5195432365698
 20
376.9218338732175
 30
0.0
 10
182.5362425085649
 20
378.8457275833259
 30
0.0
 10
182.1667549326676
 20
379.9054698516094
 30
0.0
 10
181.6432960392717
 20
382.1074894723875
 30
0.0
 10
181.4900095925852
 20
383.2471574407802
 30
0.0
 10
181.3677276102749
 20
384.9457373613929
 30
0.0
 10
181.3444960051534
 20
385.5105204024617
 30
0.0
 10
181.318107940214
 20
386.6340044509132
 30
0.0
 10
181.314972882609
 20
387.1926239150426
 30
0.0
 10
181.3120501412951
 20
387.7508212868324
 30
0.0
  0
SPLINE
  5
81
330
1F
100
AcDbEntity
  8
0
  6
Continuous
 62
     7
370
    25
100
AcDbSpline
210
0.0
220
0.0
230
1.0
 70
     8
 71
     3
 72
    26
 73
    22
 74
     0
 42
0.00000001
 43
0.00000001
 40
0.0
 40
0.0
 40
0.0
 40
0.0
 40
0.0625
 40
0.0625
 40
0.1249999999999999
 40
0.1249999999999999
 40
0.2499999999999998
 40
0.2499999999999998
 40
0.3749999999999999
 40
0.3749999999999999
 40
0.5
 40
0.5
 40
0.625
 40
0.625
 40
0.7500000000000002
 40
0.7500000000000002
 40
0.8749999999999999
 40
0.8749999999999999
 40
0.9375
 40
0.9375
 40
1.0
 40
1.0
 40
1.0
 40
1.0
 10
214.0407542692575
 20
474.8345967081496
 30
0.0
 10
214.6005588204777
 20
474.8345967081499
 30
0.0
 10
215.1607894038649
 20
474.8343846386175
 30
0.0
 10
216.2876231670759
 20
474.8137616500899
 30
0.0
 10
216.8541440761267
 20
474.7933719415353
 30
0.0
 10
218.5581838366316
 20
474.6793679286865
 30
0.0
 10
219.7018367349739
 20
474.5312647413144
 30
0.0
 10
221.9121843311036
 20
474.0168907900958
 30
0.0
 10
222.9762463641538
 20
473.6512987603438
 30
0.0
 10
224.9085034606929
 20
472.6741210997986
 30
0.0
 10
225.7740658594446
 20
472.0632142030999
 30
0.0
 10
227.2479624041949
 20
470.5920018206985
 30
0.0
 10
227.8601737482999
 20
469.7278930247558
 30
0.0
 10
228.8403712965452
 20
467.7986283750845
 30
0.0
 10
229.2076819002746
 20
466.7360692968285
 30
0.0
 10
229.7260189874418
 20
464.5277970953329
 30
0.0
 10
229.8763698704687
 20
463.3846807475657
 30
0.0
 10
229.9938725067278
 20
461.6801889862671
 30
0.0
 10
230.0154456253598
 20
461.1133134170934
 30
0.0
 10
230.0383727880206
 20
459.9853893201915
 30
0.0
 10
230.0397057195366
 20
459.4244219416968
 30
0.0
 10
230.0407276886846
 20
458.8637613760511
 30
0.0
  0
SPLINE
  5
82
330
1F
100
AcDbEntity
  8
0
  6
Continuous
 62
     7
370
    25
100
AcDbSpline
210
0.0
220
0.0
230
1.0
 70
     8
 71
     3
 72
    26
 73
    22
 74
     0
 42
0.00000001
 43
0.00000001
 40
0.0
 40
0.0
 40
0.0
 40
0.0
 40
0.0625000000000002
 40
0.0625000000000002
 40
0.1250000000000004
 40
0.1250000000000004
 40
0.2500000000000004
 40
0.2500000000000004
 40
0.3750000000000005
 40
0.3750000000000005
 40
0.5000000000000006
 40
0.5000000000000006
 40
0.6250000000000006
 40
0.6250000000000006
 40
0.7500000000000006
 40
0.7500000000000006
 40
0.8750000000000002
 40
0.8750000000000002
 40
0.9375000000000001
 40
0.9375000000000001
 40
1.0
 40
1.0
 40
1.0
 40
1.0
 10
181.0562745925331
 20
458.8637613760295
 30
0.0
 10
181.0572965616805
 20
459.4244219416752
 30
0.0
 10
181.058629493196
 20
459.9853893201699
 30
0.0
 10
181.0815566558558
 20
461.1133134170717
 30
0.0
 10
181.1031297744873
 20
461.6801889862455
 30
0.0
 10
181.220632410745
 20
463.3846807475441
 30
0.0
 10
181.3709832937709
 20
464.5277970953115
 30
0.0
 10
181.8893203809362
 20
466.7360692968076
 30
0.0
 10
182.2566309846647
 20
467.798628375064
 30
0.0
 10
183.2368285329082
 20
469.727893024736
 30
0.0
 10
183.8490398770125
 20
470.5920018206793
 30
0.0
 10
185.3229364217614
 20
472.063214203082
 30
0.0
 10
186.1884988205126
 20
472.6741210997815
 30
0.0
 10
188.1207559170508
 20
473.6512987603284
 30
0.0
 10
189.1848179501007
 20
474.0168907900813
 30
0.0
 10
191.3951655462299
 20
474.5312647413019
 30
0.0
 10
192.5388184445721
 20
474.679367928675
 30
0.0
 10
194.2428582050769
 20
474.7933719415253
 30
0.0
 10
194.8093791141277
 20
474.8137616500804
 30
0.0
 10
195.9362128773386
 20
474.8343846386089
 30
0.0
 10
196.4964434607257
 20
474.8345967081418
 30
0.0
 10
197.0562480119459
 20
474.8345967081421
 30
0.0
  0
SPLINE
  5
83
330
1F
100
AcDbEntity
  8
0
  6
Continuous
 62
     7
370
    25
100
AcDbSpline
210
0.0
220
0.0
230
1.0
 70
     8
 71
     3
 72
    26
 73
    22
 74
     0
 42
0.00000001
 43
0.00000001
 40
0.0
 40
0.0
 40
0.0
 40
0.0
 40
0.0625
 40
0.0625
 40
0.125
 40
0.125
 40
0.2499999999999999
 40
0.2499999999999999
 40
0.3749999999999999
 40
0.3749999999999999
 40
0.4999999999999998
 40
0.4999999999999998
 40
0.6249999999999998
 40
0.6249999999999998
 40
0.7499999999999997
 40
0.7499999999999997
 40
0.8749999999999998
 40
0.8749999999999998
 40
0.9374999999999999
 40
0.9374999999999999
 40
1.0
 40
1.0
 40
1.0
 40
1.0
 10
229.7849521399854
 20
387.7508212868538
 30
0.0
 10
229.782029398672
 20
387.192623915064
 30
0.0
 10
229.7788943410674
 20
386.6340044509346
 30
0.0
 10
229.7525062761291
 20
385.5105204024831
 30
0.0
 10
229.7292746710081
 20
384.9457373614143
 30
0.0
 10
229.6069926886993
 20
383.2471574408015
 30
0.0
 10
229.4537062420138
 20
382.1074894724086
 30
0.0
 10
228.9302473486199
 20
379.90546985163
 30
0.0
 10
228.5607597727235
 20
378.8457275833462
 30
0.0
 10
227.5774590447203
 20
376.9218338732369
 30
0.0
 10
226.9643307634254
 20
376.0602918155134
 30
0.0
 10
225.4903093559959
 20
374.5939682308579
 30
0.0
 10
224.6255687905734
 20
373.9853593572265
 30
0.0
 10
222.6965529256767
 20
373.0121455459462
 30
0.0
 10
221.6348905604945
 20
372.6482118070805
 30
0.0
 10
219.4301603126234
 20
372.1362897842201
 30
0.0
 10
218.2897053642265
 20
371.9889726990086
 30
0.0
 10
216.5905084632905
 20
371.8755860959385
 30
0.0
 10
216.0256115242836
 20
371.8553119928458
 30
0.0
 10
214.90200470932
 20
371.8348068114703
 30
0.0
 10
214.3433764875597
 20
371.8345967081497
 30
0.0
 10
213.7851714640336
 20
371.8345967081494
 30
0.0
  0
ARC
  5
84
330
1F
100
AcDbEntity
  8
0
  6
Continuous
 62
     7
370
    25
100
AcDbCircle
 10
-4449.1282061129
 20
450.3345967061
 30
0.0
 40
4679.176707253516
100
AcDbArc
 50
359.7
 51
0.1044383317
  0
LINE
  5
85
330
1F
100
AcDbEntity
  8
0
  6
Continuous
 62
     7
370
    25
100
AcDbLine
 10
229.9843601441
 20
425.8345967082
 30
0.0
 11
229.78495214
 21
387.7508212869
 31
0.0
  0
LINE
  5
86
330
1F
100
AcDbEntity
  8
0
  6
Continuous
 62
     7
370
    25
100
AcDbLine
 10
197.0562480119
 20
474.8345967081
 30
0.0
 11
214.0407542693
 21
474.8345967081
 31
0.0
  0
LINE
  5
87
330
1F
100
AcDbEntity
  8
0
  6
Continuous
 62
     7
370
    25
100
AcDbLine
 10
213.785171464
 20
371.8345967081
 30
0.0
 11
197.3118308173
 21
371.8345967081
 31
0.0
  0
LINE
  5
88
330
1F
100
AcDbEntity
  8
0
  6
Continuous
 62
     7
370
    25
100
AcDbLine
 10
181.3120501413
 20
387.7508212868
 30
0.0
 11
181.1126421372
 21
425.8345967081
 31
0.0
  0
ARC
  5
89
330
1F
100
AcDbEntity
  8
0
  6
Continuous
 62
     7
370
    25
100
AcDbCircle
 10
4860.2252083941
 20
450.3345967102
 30
0.0
 40
4679.176707253523
100
AcDbArc
 50
179.8955616684
 51
180.3
  0
LWPOLYLINE
  5
8A
330
1F
100
AcDbEntity
  8
0
  6
Continuous
 62
     7
370
    25
100
AcDbPolyline
 90
        3
 70
   128
 43
0.0
 10
207.0063439234
 20
474.8345967081
 10
205.5485011406
 20
474.8780087527
 10
204.0906583578
 20
474.8345967081
  0
SPLINE
  5
8B
330
1F
100
AcDbEntity
  8
0
  6
Continuous
 62
     7
370
    25
100
AcDbSpline
210
0.0
220
0.0
230
1.0
 70
     8
 71
     3
 72
    18
 73
    14
 74
     0
 42
0.00000001
 43
0.00000001
 40
0.0
 40
0.0
 40
0.0
 40
0.0
 40
0.25
 40
0.25
 40
0.5
 40
0.5
 40
0.625
 40
0.625
 40
0.75
 40
0.75
 40
0.875
 40
0.875
 40
1.0
 40
1.0
 40
1.0
 40
1.0
 10
257.5254329600388
 20
509.5709686208813
 30
0.0
 10
259.097145434812
 20
509.55462918228
 30
0.0
 10
260.671131898819
 20
509.4968284340112
 30
0.0
 10
263.8040163795126
 20
509.1778209432632
 30
0.0
 10
265.3498007341912
 20
508.9201898109269
 30
0.0
 10
267.6144381519131
 20
508.3242155379796
 30
0.0
 10
268.3606572733437
 20
508.0904353420224
 30
0.0
 10
269.8320785231239
 20
507.5376371303724
 30
0.0
 10
270.559987885324
 20
507.2165368539291
 30
0.0
 10
271.9522815433084
 20
506.4882958724151
 30
0.0
 10
272.6207019842523
 20
506.0798249724625
 30
0.0
 10
273.8938877541933
 20
505.1610621110653
 30
0.0
 10
274.5012967235018
 20
504.6470247423546
 30
0.0
 10
275.0594139674072
 20
504.0889215795399
 30
0.0
  0
SPLINE
  5
8C
330
1F
100
AcDbEntity
  8
0
  6
Continuous
 62
     7
370
    25
100
AcDbSpline
210
0.0
220
0.0
230
1.0
 70
     8
 71
     3
 72
    18
 73
    14
 74
     0
 42
0.00000001
 43
0.00000001
 40
0.0
 40
0.0
 40
0.0
 40
0.0
 40
0.25
 40
0.25
 40
0.5
 40
0.5
 40
0.625
 40
0.625
 40
0.75
 40
0.75
 40
0.875
 40
0.875
 40
1.0
 40
1.0
 40
1.0
 40
1.0
 10
130.5555412724705
 20
486.5549405721575
 30
0.0
 10
130.5718807110718
 20
488.1266530469348
 30
0.0
 10
130.6296814593404
 20
489.7006395109322
 30
0.0
 10
130.9486889500884
 20
492.8335239916368
 30
0.0
 10
131.2063200824356
 20
494.3793083463046
 30
0.0
 10
131.8022943553667
 20
496.6439457640345
 30
0.0
 10
132.0360745513293
 20
497.3901648854624
 30
0.0
 10
132.5888727629793
 20
498.8615861352426
 30
0.0
 10
132.9099730394225
 20
499.5894954974427
 30
0.0
 10
133.6382140209366
 20
500.9817891554271
 30
0.0
 10
134.0466849209
 20
501.6502095963656
 30
0.0
 10
134.9654477822753
 20
502.9233953663175
 30
0.0
 10
135.4794851509964
 20
503.5308043356252
 30
0.0
 10
136.0375883138118
 20
504.088921579526
 30
0.0
  0
SPLINE
  5
8D
330
1F
100
AcDbEntity
  8
0
  6
Continuous
 62
     7
370
    25
100
AcDbSpline
210
0.0
220
0.0
230
1.0
 70
     8
 71
     3
 72
    18
 73
    14
 74
     0
 42
0.00000001
 43
0.00000001
 40
0.0
 40
0.0
 40
0.0
 40
0.0
 40
0.25
 40
0.25
 40
0.5
 40
0.5
 40
0.625
 40
0.625
 40
0.75
 40
0.75
 40
0.875
 40
0.875
 40
1.0
 40
1.0
 40
1.0
 40
1.0
 10
153.5715693211946
 20
509.5709686208816
 30
0.0
 10
151.999856846426
 20
509.554629182237
 30
0.0
 10
150.425870382409
 20
509.4968284340226
 30
0.0
 10
147.2929859017264
 20
509.1778209432527
 30
0.0
 10
145.7472015470476
 20
508.9201898109166
 30
0.0
 10
143.4825641293177
 20
508.3242155379854
 30
0.0
 10
142.7363450078952
 20
508.0904353420228
 30
0.0
 10
141.2649237581042
 20
507.5376371303728
 30
0.0
 10
140.5370143959094
 20
507.216536853935
 30
0.0
 10
139.144720737925
 20
506.48829587241
 30
0.0
 10
138.4763002969811
 20
506.0798249724575
 30
0.0
 10
137.2031145270401
 20
505.1610621110714
 30
0.0
 10
136.5957055577625
 20
504.6470247423201
 30
0.0
 10
136.0375883138262
 20
504.0889215795403
 30
0.0
  0
SPLINE
  5
8E
330
1F
100
AcDbEntity
  8
0
  6
Continuous
 62
     7
370
    25
100
AcDbSpline
210
0.0
220
0.0
230
1.0
 70
     8
 71
     3
 72
    18
 73
    14
 74
     0
 42
0.00000001
 43
0.00000001
 40
0.0
 40
0.0
 40
0.0
 40
0.0
 40
0.25
 40
0.25
 40
0.5
 40
0.5
 40
0.625
 40
0.625
 40
0.75
 40
0.75
 40
0.875
 40
0.875
 40
1.0
 40
1.0
 40
1.0
 40
1.0
 10
280.5414610087629
 20
486.554940572157
 30
0.0
 10
280.525121570085
 20
488.1266530469294
 30
0.0
 10
280.4673208219039
 20
489.7006395109372
 30
0.0
 10
280.148313331134
 20
492.8335239916307
 30
0.0
 10
279.8906821988086
 20
494.379308346304
 30
0.0
 10
279.2947079258612
 20
496.6439457640339
 30
0.0
 10
279.0609277298986
 20
497.3901648854455
 30
0.0
 10
278.5081295182595
 20
498.8615861352583
 30
0.0
 10
278.1870292418163
 20
499.5894954974422
 30
0.0
 10
277.4587882602913
 20
500.9817891554266
 30
0.0
 10
277.0503173603389
 20
501.650209596376
 30
0.0
 10
276.1315544989527
 20
502.923395366306
 30
0.0
 10
275.6175171302158
 20
503.5308043356076
 30
0.0
 10
275.0594139674217
 20
504.0889215795254
 30
0.0
  0
SPLINE
  5
8F
330
1F
100
AcDbEntity
  8
0
  6
Continuous
 62
     7
370
    25
100
AcDbSpline
210
0.0
220
0.0
230
1.0
 70
     8
 71
     3
 72
    18
 73
    14
 74
     0
 42
0.00000001
 43
0.00000001
 40
0.0
 40
0.0
 40
0.0
 40
0.0
 40
0.25
 40
0.25
 40
0.5
 40
0.5
 40
0.625
 40
0.625
 40
0.75
 40
0.75
 40
0.875
 40
0.875
 40
1.0
 40
1.0
 40
1.0
 40
1.0
 10
257.5254329600388
 20
359.5850488845896
 30
0.0
 10
259.097145434812
 20
359.6013883231908
 30
0.0
 10
260.671131898819
 20
359.6591890714596
 30
0.0
 10
263.8040163795126
 20
359.9781965622076
 30
0.0
 10
265.3498007341912
 20
360.2358276945439
 30
0.0
 10
267.6144381519131
 20
360.8318019674913
 30
0.0
 10
268.3606572733437
 20
361.0655821634485
 30
0.0
 10
269.8320785231239
 20
361.6183803750985
 30
0.0
 10
270.559987885324
 20
361.9394806515418
 30
0.0
 10
271.9522815433084
 20
362.6677216330557
 30
0.0
 10
272.6207019842523
 20
363.0761925330083
 30
0.0
 10
273.8938877541933
 20
363.9949553944054
 30
0.0
 10
274.5012967235018
 20
364.5089927631163
 30
0.0
 10
275.0594139674072
 20
365.067095925931
 30
0.0
  0
SPLINE
  5
90
330
1F
100
AcDbEntity
  8
0
  6
Continuous
 62
     7
370
    25
100
AcDbSpline
210
0.0
220
0.0
230
1.0
 70
     8
 71
     3
 72
    18
 73
    14
 74
     0
 42
0.00000001
 43
0.00000001
 40
0.0
 40
0.0
 40
0.0
 40
0.0
 40
0.25
 40
0.25
 40
0.5
 40
0.5
 40
0.625
 40
0.625
 40
0.75
 40
0.75
 40
0.875
 40
0.875
 40
1.0
 40
1.0
 40
1.0
 40
1.0
 10
130.5555412724705
 20
382.6010769333133
 30
0.0
 10
130.5718807110718
 20
381.029364458536
 30
0.0
 10
130.6296814593404
 20
379.4553779945385
 30
0.0
 10
130.9486889500884
 20
376.322493513834
 30
0.0
 10
131.2063200824356
 20
374.7767091591663
 30
0.0
 10
131.8022943553667
 20
372.5120717414363
 30
0.0
 10
132.0360745513293
 20
371.7658526200084
 30
0.0
 10
132.5888727629793
 20
370.2944313702283
 30
0.0
 10
132.9099730394225
 20
369.5665220080281
 30
0.0
 10
133.6382140209366
 20
368.1742283500437
 30
0.0
 10
134.0466849209
 20
367.5058079091052
 30
0.0
 10
134.9654477822753
 20
366.2326221391534
 30
0.0
 10
135.4794851509964
 20
365.6252131698456
 30
0.0
 10
136.0375883138118
 20
365.0670959259448
 30
0.0
  0
SPLINE
  5
91
330
1F
100
AcDbEntity
  8
0
  6
Continuous
 62
     7
370
    25
100
AcDbSpline
210
0.0
220
0.0
230
1.0
 70
     8
 71
     3
 72
    18
 73
    14
 74
     0
 42
0.00000001
 43
0.00000001
 40
0.0
 40
0.0
 40
0.0
 40
0.0
 40
0.25
 40
0.25
 40
0.5
 40
0.5
 40
0.625
 40
0.625
 40
0.75
 40
0.75
 40
0.875
 40
0.875
 40
1.0
 40
1.0
 40
1.0
 40
1.0
 10
280.5414610087629
 20
382.6010769333138
 30
0.0
 10
280.525121570085
 20
381.0293644585414
 30
0.0
 10
280.4673208219039
 20
379.4553779945336
 30
0.0
 10
280.148313331134
 20
376.3224935138401
 30
0.0
 10
279.8906821988086
 20
374.7767091591668
 30
0.0
 10
279.2947079258612
 20
372.5120717414368
 30
0.0
 10
279.0609277298986
 20
371.7658526200253
 30
0.0
 10
278.5081295182595
 20
370.2944313702125
 30
0.0
 10
278.1870292418163
 20
369.5665220080286
 30
0.0
 10
277.4587882602913
 20
368.1742283500442
 30
0.0
 10
277.0503173603389
 20
367.5058079090948
 30
0.0
 10
276.1315544989527
 20
366.2326221391647
 30
0.0
 10
275.6175171302158
 20
365.6252131698632
 30
0.0
 10
275.0594139674217
 20
365.0670959259454
 30
0.0
  0
SPLINE
  5
92
330
1F
100
AcDbEntity
  8
0
  6
Continuous
 62
     7
370
    25
100
AcDbSpline
210
0.0
220
0.0
230
1.0
 70
     8
 71
     3
 72
    18
 73
    14
 74
     0
 42
0.00000001
 43
0.00000001
 40
0.0
 40
0.0
 40
0.0
 40
0.0
 40
0.25
 40
0.25
 40
0.5
 40
0.5
 40
0.625
 40
0.625
 40
0.75
 40
0.75
 40
0.875
 40
0.875
 40
1.0
 40
1.0
 40
1.0
 40
1.0
 10
153.5715693211946
 20
359.5850488845892
 30
0.0
 10
151.999856846426
 20
359.6013883232337
 30
0.0
 10
150.425870382409
 20
359.6591890714482
 30
0.0
 10
147.2929859017264
 20
359.9781965622181
 30
0.0
 10
145.7472015470476
 20
360.2358276945542
 30
0.0
 10
143.4825641293177
 20
360.8318019674854
 30
0.0
 10
142.7363450078952
 20
361.065582163448
 30
0.0
 10
141.2649237581042
 20
361.618380375098
 30
0.0
 10
140.5370143959094
 20
361.9394806515358
 30
0.0
 10
139.144720737925
 20
362.6677216330607
 30
0.0
 10
138.4763002969811
 20
363.0761925330133
 30
0.0
 10
137.2031145270401
 20
363.9949553943995
 30
0.0
 10
136.5957055577625
 20
364.5089927631507
 30
0.0
 10
136.0375883138262
 20
365.0670959259305
 30
0.0
  0
ARC
  5
93
330
1F
100
AcDbEntity
  8
0
  6
Continuous
 62
     7
370
    25
100
AcDbCircle
 10
5130.2853738293
 20
434.5780087527
 30
0.0
 40
5000.0
100
AcDbArc
 50
179.404377507
 51
180.595622493
  0
ARC
  5
94
330
1F
100
AcDbEntity
  8
0
  6
Continuous
 62
     7
370
    25
100
AcDbCircle
 10
-4719.1883715481
 20
434.5780087528
 30
0.0
 40
5000.0
100
AcDbArc
 50
359.404377507
 51
0.595622493
  0
ARC
  5
95
330
1F
100
AcDbEntity
  8
0
  6
Continuous
 62
     7
370
    25
100
AcDbCircle
 10
205.5485011406
 20
-4490.1588639359
 30
0.0
 40
5000.0
100
AcDbArc
 50
89.404377507
 51
90.595622493
  0
ARC
  5
96
330
1F
100
AcDbEntity
  8
0
  6
Continuous
 62
     7
370
    25
100
AcDbCircle
 10
205.5485011406
 20
5359.3148814414
 30
0.0
 40
5000.0
100
AcDbArc
 50
269.4043775071
 51
270.595622493
  0
LINE
  5
97
330
1F
100
AcDbEntity
  8
0
  6
Continuous
 62
     8
370
    18
100
AcDbLine
 10
181.3120501413
 20
387.7508212868
 30
0.0
 11
182.3120364335
 21
387.7560572507
 31
0.0
  0
SPLINE
  5
98
330
1F
100
AcDbEntity
  8
0
  6
Continuous
 62
     8
370
    18
100
AcDbSpline
210
0.0
220
0.0
230
1.0
 70
     8
 71
     3
 72
    30
 73
    26
 74
     0
 42
0.00000001
 43
0.00000001
 40
0.0
 40
0.0
 40
0.0
 40
0.0
 40
0.1249999999999987
 40
0.1249999999999987
 40
0.2499999999999974
 40
0.2499999999999974
 40
0.3749999999999961
 40
0.3749999999999961
 40
0.4374999999999958
 40
0.4374999999999958
 40
0.4999999999999956
 40
0.4999999999999956
 40
0.5312499999999959
 40
0.5312499999999959
 40
0.5624999999999962
 40
0.5624999999999962
 40
0.6249999999999967
 40
0.6249999999999967
 40
0.6874999999999971
 40
0.6874999999999971
 40
0.7499999999999976
 40
0.7499999999999976
 40
0.8749999999999988
 40
0.8749999999999988
 40
1.0
 40
1.0
 40
1.0
 40
1.0
 10
182.3120364335423
 20
387.7560572506643
 30
0.0
 10
182.3174811429055
 20
386.7162038629619
 30
0.0
 10
182.3255310225096
 20
385.6765534779191
 30
0.0
 10
182.4602277871537
 20
383.6064941413247
 30
0.0
 10
182.5846322659316
 20
382.5745756453307
 30
0.0
 10
183.0279402619305
 20
380.5313420008447
 30
0.0
 10
183.3397217659807
 20
379.5428100720829
 30
0.0
 10
184.0111705909623
 20
378.1348164908716
 30
0.0
 10
184.2725240796084
 20
377.6747564348337
 30
0.0
 10
184.8613785805444
 20
376.8196676806485
 30
0.0
 10
185.1899062006254
 20
376.4215986892192
 30
0.0
 10
185.738228692464
 20
375.8724946659807
 30
0.0
 10
185.9302307734002
 20
375.6974363394855
 30
0.0
 10
186.3328782658732
 20
375.3634344490544
 30
0.0
 10
186.543794642832
 20
375.2044884443462
 30
0.0
 10
187.1891412879673
 20
374.7609180789714
 30
0.0
 10
187.6406094789899
 20
374.505331232764
 30
0.0
 10
188.5780285058055
 20
374.059311265408
 30
0.0
 10
189.0660688603355
 20
373.8682757802668
 30
0.0
 10
190.0613225842177
 20
373.5441800338165
 30
0.0
 10
190.5658290168549
 20
373.4116690377528
 30
0.0
 10
192.0958790724672
 20
373.0851095130487
 30
0.0
 10
193.1397255774535
 20
372.9629484378519
 30
0.0
 10
195.2228238941148
 20
372.8371934195518
 30
0.0
 10
196.2672650661584
 20
372.8345967081416
 30
0.0
 10
197.3118308172602
 20
372.8345967081421
 30
0.0
  0
LINE
  5
99
330
1F
100
AcDbEntity
  8
0
  6
Continuous
 62
     8
370
    18
100
AcDbLine
 10
197.3118308173
 20
371.8345967081
 30
0.0
 11
197.3118308173
 21
372.8345967081
 31
0.0
  0
SPLINE
  5
9A
330
1F
100
AcDbEntity
  8
0
  6
Continuous
 62
     8
370
    18
100
AcDbSpline
210
0.0
220
0.0
230
1.0
 70
     8
 71
     3
 72
    34
 73
    30
 74
     0
 42
0.00000001
 43
0.00000001
 40
0.0
 40
0.0
 40
0.0
 40
0.0
 40
0.1250000000000003
 40
0.1250000000000003
 40
0.2500000000000007
 40
0.2500000000000007
 40
0.3125000000000006
 40
0.3125000000000006
 40
0.3750000000000006
 40
0.3750000000000006
 40
0.4062500000000008
 40
0.4062500000000008
 40
0.4375000000000012
 40
0.4375000000000012
 40
0.5000000000000016
 40
0.5000000000000016
 40
0.5312500000000013
 40
0.5312500000000013
 40
0.562500000000001
 40
0.562500000000001
 40
0.6250000000000009
 40
0.6250000000000009
 40
0.6875000000000007
 40
0.6875000000000007
 40
0.7500000000000006
 40
0.7500000000000006
 40
0.8750000000000003
 40
0.8750000000000003
 40
1.0
 40
1.0
 40
1.0
 40
1.0
 10
229.0407293499709
 20
458.8619385843072
 30
0.0
 10
229.0388292933505
 20
459.9043250611233
 30
0.0
 10
229.033968322444
 20
460.9464156777364
 30
0.0
 10
228.9059170618792
 20
463.0187732197377
 30
0.0
 10
228.78517733101
 20
464.0492850096342
 30
0.0
 10
228.4592013669081
 20
465.5805773706981
 30
0.0
 10
228.3253675821162
 20
466.0915356166857
 30
0.0
 10
228.0012033849844
 20
467.0893410946807
 30
0.0
 10
227.8113201099473
 20
467.5762190958777
 30
0.0
 10
227.4753725887276
 20
468.2844242289362
 30
0.0
 10
227.3548297589471
 20
468.5167900425906
 30
0.0
 10
227.0944532759706
 20
468.9731778829461
 30
0.0
 10
226.9539212435499
 20
469.1980829190174
 30
0.0
 10
226.5080640468616
 20
469.8467503246816
 30
0.0
 10
226.1770259216104
 20
470.2473481905503
 30
0.0
 10
225.6267777451741
 20
470.7976562013411
 30
0.0
 10
225.4344447312877
 20
470.9726904607706
 30
0.0
 10
225.0319993802986
 20
471.3060069242602
 30
0.0
 10
224.8209202364692
 20
471.464947524576
 30
0.0
 10
224.1684816018513
 20
471.9124625755365
 30
0.0
 10
223.7135873575755
 20
472.1688152716893
 30
0.0
 10
222.7721624678701
 20
472.6148829203392
 30
0.0
 10
222.2856016806802
 20
472.8045343833483
 30
0.0
 10
221.286251124762
 20
473.1285895541114
 30
0.0
 10
220.7771524989826
 20
473.2615336492614
 30
0.0
 10
219.2473259109363
 20
473.5861202037181
 30
0.0
 10
218.2148465055236
 20
473.7063375422706
 30
0.0
 10
216.1348347258871
 20
473.8318299300098
 30
0.0
 10
215.0869142617352
 20
473.8345967081501
 30
0.0
 10
214.0407542692578
 20
473.8345967081495
 30
0.0
  0
LINE
  5
9B
330
1F
100
AcDbEntity
  8
0
  6
Continuous
 62
     8
370
    18
100
AcDbLine
 10
214.0407542693
 20
473.8345967081
 30
0.0
 11
214.0407542693
 21
474.8345967081
 31
0.0
  0
LINE
  5
9C
330
1F
100
AcDbEntity
  8
0
  6
Continuous
 62
     8
370
    18
100
AcDbLine
 10
229.04072935
 20
458.8619385843
 30
0.0
 11
230.0407276887
 21
458.8637613761
 31
0.0
  0
SPLINE
  5
9D
330
1F
100
AcDbEntity
  8
0
  6
Continuous
 62
     8
370
    18
100
AcDbSpline
210
0.0
220
0.0
230
1.0
 70
     8
 71
     3
 72
    34
 73
    30
 74
     0
 42
0.00000001
 43
0.00000001
 40
0.0
 40
0.0
 40
0.0
 40
0.0
 40
0.1249999999999998
 40
0.1249999999999998
 40
0.2499999999999995
 40
0.2499999999999995
 40
0.3124999999999995
 40
0.3124999999999995
 40
0.3749999999999994
 40
0.3749999999999994
 40
0.4374999999999994
 40
0.4374999999999994
 40
0.4687499999999993
 40
0.4687499999999993
 40
0.4999999999999991
 40
0.4999999999999991
 40
0.562499999999999
 40
0.562499999999999
 40
0.5937499999999989
 40
0.5937499999999989
 40
0.6249999999999989
 40
0.6249999999999989
 40
0.6874999999999993
 40
0.6874999999999993
 40
0.7499999999999997
 40
0.7499999999999997
 40
0.8749999999999998
 40
0.8749999999999998
 40
1.0
 40
1.0
 40
1.0
 40
1.0
 10
197.0562480119462
 20
473.8345967081421
 30
0.0
 10
196.0100880194688
 20
473.8345967081416
 30
0.0
 10
194.9621675553167
 20
473.8318299300005
 30
0.0
 10
192.8821557756804
 20
473.7063375422593
 30
0.0
 10
191.8496763702677
 20
473.5861202037059
 30
0.0
 10
190.3198497822216
 20
473.2615336492478
 30
0.0
 10
189.8107511564423
 20
473.1285895540973
 30
0.0
 10
188.8114006005244
 20
472.8045343833332
 30
0.0
 10
188.3248398133345
 20
472.6148829203237
 30
0.0
 10
187.3834149236296
 20
472.168815271673
 30
0.0
 10
186.9285206793539
 20
471.9124625755197
 30
0.0
 10
186.2760820447365
 20
471.4649475245586
 30
0.0
 10
186.0650029009073
 20
471.3060069242426
 30
0.0
 10
185.6625575499185
 20
470.9726904607526
 30
0.0
 10
185.4702245360322
 20
470.7976562013229
 30
0.0
 10
184.9199763595965
 20
470.2473481905315
 30
0.0
 10
184.5889382343456
 20
469.8467503246624
 30
0.0
 10
184.1430810376579
 20
469.1980829189978
 30
0.0
 10
184.0025490052375
 20
468.9731778829263
 30
0.0
 10
183.7421725222614
 20
468.5167900425705
 30
0.0
 10
183.621629692481
 20
468.284424228916
 30
0.0
 10
183.285682171262
 20
467.5762190958571
 30
0.0
 10
183.0957988962255
 20
467.0893410946599
 30
0.0
 10
182.7716346990945
 20
466.0915356166646
 30
0.0
 10
182.6378009143031
 20
465.5805773706767
 30
0.0
 10
182.3118249502027
 20
464.0492850096125
 30
0.0
 10
182.1910852193344
 20
463.0187732197159
 30
0.0
 10
182.0630339587715
 20
460.9464156777144
 30
0.0
 10
182.0581729878661
 20
459.9043250611047
 30
0.0
 10
182.0562729312467
 20
458.8619385842886
 30
0.0
  0
LINE
  5
9E
330
1F
100
AcDbEntity
  8
0
  6
Continuous
 62
     8
370
    18
100
AcDbLine
 10
182.0562729312
 20
458.8619385843
 30
0.0
 11
181.0562745925
 21
458.863761376
 31
0.0
  0
LINE
  5
9F
330
1F
100
AcDbEntity
  8
0
  6
Continuous
 62
     8
370
    18
100
AcDbLine
 10
197.0562480119
 20
473.8345967081
 30
0.0
 11
197.0562480119
 21
474.8345967081
 31
0.0
  0
LINE
  5
A0
330
1F
100
AcDbEntity
  8
0
  6
Continuous
 62
     8
370
    18
100
AcDbLine
 10
213.785171464
 20
371.8345967081
 30
0.0
 11
213.785171464
 21
372.8345967081
 31
0.0
  0
SPLINE
  5
A1
330
1F
100
AcDbEntity
  8
0
  6
Continuous
 62
     8
370
    18
100
AcDbSpline
210
0.0
220
0.0
230
1.0
 70
     8
 71
     3
 72
    32
 73
    28
 74
     0
 42
0.00000001
 43
0.00000001
 40
0.0
 40
0.0
 40
0.0
 40
0.0
 40
0.1249999999999987
 40
0.1249999999999987
 40
0.2499999999999974
 40
0.2499999999999974
 40
0.3124999999999969
 40
0.3124999999999969
 40
0.3437499999999966
 40
0.3437499999999966
 40
0.3749999999999962
 40
0.3749999999999962
 40
0.4374999999999959
 40
0.4374999999999959
 40
0.468749999999996
 40
0.468749999999996
 40
0.4999999999999961
 40
0.4999999999999961
 40
0.5624999999999962
 40
0.5624999999999962
 40
0.6249999999999963
 40
0.6249999999999963
 40
0.7499999999999976
 40
0.7499999999999976
 40
0.8749999999999989
 40
0.8749999999999989
 40
1.0
 40
1.0
 40
1.0
 40
1.0
 10
213.785171464033
 20
372.8345967081494
 30
0.0
 10
214.8203886870828
 20
372.8345967081498
 30
0.0
 10
215.8552857047652
 20
372.8372595093654
 30
0.0
 10
217.9110818118426
 20
372.9589907196897
 30
0.0
 10
218.9322656461487
 20
373.0756912137922
 30
0.0
 10
220.4471281830141
 20
373.3913908413977
 30
0.0
 10
220.9492721099423
 20
373.5199938728198
 30
0.0
 10
221.6970589280478
 20
373.7580461337343
 30
0.0
 10
221.9460895151771
 20
373.8452788287846
 30
0.0
 10
222.4348088882359
 20
374.0342799993034
 30
0.0
 10
222.6752230843231
 20
374.1362354477615
 30
0.0
 10
223.3835136013409
 20
374.4665742689098
 30
0.0
 10
223.8385274357222
 20
374.7192608502947
 30
0.0
 10
224.4893305550541
 20
375.1582200550623
 30
0.0
 10
224.7020727456114
 20
375.3155210903877
 30
0.0
 10
225.1097647843264
 20
375.6474998810591
 30
0.0
 10
225.3042262428476
 20
375.8216010227796
 30
0.0
 10
225.8596837866178
 20
376.3680436038158
 30
0.0
 10
226.1926235387531
 20
376.7646361362488
 30
0.0
 10
226.7894996611916
 20
377.6174657537883
 30
0.0
 10
227.0548585903056
 20
378.0773040845731
 30
0.0
 10
227.7371465923414
 20
379.4869883948804
 30
0.0
 10
228.0538984656276
 20
380.4774755388813
 30
0.0
 10
228.5050078578773
 20
382.5254049446797
 30
0.0
 10
228.6334367360355
 20
383.5703124363741
 30
0.0
 10
228.7713935937033
 20
385.6606177528141
 30
0.0
 10
228.7794796688754
 20
386.7082838442269
 30
0.0
 10
228.7849658477379
 20
387.7560572506848
 30
0.0
  0
LINE
  5
A2
330
1F
100
AcDbEntity
  8
0
  6
Continuous
 62
     8
370
    18
100
AcDbLine
 10
229.78495214
 20
387.7508212869
 30
0.0
 11
228.7849658477
 21
387.7560572507
 31
0.0
  0
ARC
  5
A3
330
1F
100
AcDbEntity
  8
0
  6
Continuous
 62
     8
370
    18
100
AcDbCircle
 10
-4449.1282061129
 20
450.3345967061
 30
0.0
 40
4678.176707253515
100
AcDbArc
 50
359.7
 51
0.1044383317
  0
LINE
  5
A4
330
1F
100
AcDbEntity
  8
0
  6
Continuous
 62
     8
370
    18
100
AcDbLine
 10
228.9843738518
 20
425.839832672
 30
0.0
 11
229.9843601441
 21
425.8345967082
 31
0.0
  0
LINE
  5
A5
330
1F
100
AcDbEntity
  8
0
  6
Continuous
 62
     8
370
    18
100
AcDbLine
 10
228.7849658477
 20
387.7560572507
 30
0.0
 11
228.9843738518
 21
425.839832672
 31
0.0
  0
LINE
  5
A6
330
1F
100
AcDbEntity
  8
0
  6
Continuous
 62
     8
370
    18
100
AcDbLine
 10
214.0407542693
 20
473.8345967081
 30
0.0
 11
197.0562480119
 21
473.8345967081
 31
0.0
  0
LINE
  5
A7
330
1F
100
AcDbEntity
  8
0
  6
Continuous
 62
     8
370
    18
100
AcDbLine
 10
197.3118308173
 20
372.8345967081
 30
0.0
 11
213.785171464
 21
372.8345967081
 31
0.0
  0
LINE
  5
A8
330
1F
100
AcDbEntity
  8
0
  6
Continuous
 62
     8
370
    18
100
AcDbLine
 10
182.1126284294
 20
425.839832672
 30
0.0
 11
182.3120364335
 21
387.7560572507
 31
0.0
  0
ARC
  5
A9
330
1F
100
AcDbEntity
  8
0
  6
Continuous
 62
     8
370
    18
100
AcDbCircle
 10
4860.2252083941
 20
450.3345967102
 30
0.0
 40
4678.176707253523
100
AcDbArc
 50
179.8955616684
 51
180.3
  0
LINE
  5
AA
330
1F
100
AcDbEntity
  8
0
  6
Continuous
 62
     8
370
    18
100
AcDbLine
 10
181.1126421372
 20
425.8345967081
 30
0.0
 11
182.1126284294
 21
425.839832672
 31
0.0
  0
SPLINE
  5
AB
330
1F
100
AcDbEntity
  8
0
  6
Continuous
 62
     8
370
    18
100
AcDbSpline
210
0.0
220
0.0
230
1.0
 70
     8
 71
     3
 72
    20
 73
    16
 74
     0
 42
0.00000001
 43
0.00000001
 40
0.0
 40
0.0
 40
0.0
 40
0.0
 40
0.0624999999999991
 40
0.0624999999999991
 40
0.1249999999999983
 40
0.1249999999999983
 40
0.2499999999999984
 40
0.2499999999999984
 40
0.3749999999999985
 40
0.3749999999999985
 40
0.4999999999999997
 40
0.4999999999999997
 40
0.7499999999999998
 40
0.7499999999999998
 40
1.0
 40
1.0
 40
1.0
 40
1.0
 10
136.8419395994143
 20
365.8714696137737
 30
0.0
 10
137.109232185821
 20
365.6042120099516
 30
0.0
 10
137.3872166144455
 20
365.349400338425
 30
0.0
 10
137.9632880041938
 20
364.8631775227643
 30
0.0
 10
138.2623698155725
 20
364.6311441891362
 30
0.0
 10
139.1825388290489
 20
363.9747442758489
 30
0.0
 10
139.8215082522095
 20
363.5915799824793
 30
0.0
 10
141.1411624835006
 20
362.9142208394745
 30
0.0
 10
141.8217152815281
 20
362.6197444406641
 30
0.0
 10
143.2177336155319
 20
362.1052525820302
 30
0.0
 10
143.9358202359974
 20
361.8846742637245
 30
0.0
 10
146.1160679407084
 20
361.3243675575775
 30
0.0
 10
147.5963314933706
 20
361.0860591466061
 30
0.0
 10
150.5840132487643
 20
360.7917648862116
 30
0.0
 10
152.0826988561716
 20
360.7382851935965
 30
0.0
 10
153.5833420934307
 20
360.7226541028897
 30
0.0
  0
LWPOLYLINE
  5
AC
330
1F
100
AcDbEntity
  8
0
  6
Continuous
 62
     8
370
    18
100
AcDbPolyline
 90
        9
 70
   128
 43
0.0
 10
153.5833420934
 20
360.7226541029
 10
153.5813782284
 20
360.5336087324
 10
153.5794948907
 20
360.352127272
 10
153.5777602942
 20
360.1847829215
 10
153.5762372653
 20
360.0376368394
 10
153.5749809677
 20
359.9160186093
 10
153.5740369042
 20
359.8243332043
 10
153.5734392683
 20
359.7659014401
 10
153.5732097063
 20
359.7428396964
  0
SPLINE
  5
AD
330
1F
100
AcDbEntity
  8
0
  6
Continuous
 62
     8
370
    18
100
AcDbSpline
210
0.0
220
0.0
230
1.0
 70
     8
 71
     3
 72
    18
 73
    14
 74
     0
 42
0.00000001
 43
0.00000001
 40
0.0
 40
0.0
 40
0.0
 40
0.0
 40
0.25
 40
0.25
 40
0.5
 40
0.5
 40
0.625
 40
0.625
 40
0.75
 40
0.75
 40
0.875
 40
0.875
 40
1.0
 40
1.0
 40
1.0
 40
1.0
 10
153.5732097062837
 20
359.7428396963953
 30
0.0
 10
152.0089614058484
 20
359.7590993607271
 30
0.0
 10
150.4468364445437
 20
359.8162997751658
 30
0.0
 10
147.3330316642912
 20
360.1320965172781
 30
0.0
 10
145.7918204421776
 20
360.3873004719
 30
0.0
 10
143.5217332831065
 20
360.9846206808922
 30
0.0
 10
142.7758994386778
 20
361.219031618262
 30
0.0
 10
141.3252122102109
 20
361.764513709179
 30
0.0
 10
140.6181504070864
 20
362.0761654816854
 30
0.0
 10
139.2471128750585
 20
362.7911727697517
 30
0.0
 10
138.5832024298454
 20
363.1946672349152
 30
0.0
 10
137.3076963613124
 20
364.1130022405433
 30
0.0
 10
136.7061647737864
 20
364.6216465729667
 30
0.0
 10
136.1491434131414
 20
365.1786538397284
 30
0.0
  0
LWPOLYLINE
  5
AE
330
1F
100
AcDbEntity
  8
0
  6
Continuous
 62
     8
370
    18
100
AcDbPolyline
 90
        9
 70
   128
 43
0.0
 10
136.8419395997
 20
365.8714696141
 10
136.7082681311
 20
365.7377947163
 10
136.5799467877
 20
365.6094700044
 10
136.4616227729
 20
365.4911428038
 10
136.3575812333
 20
365.3870983765
 10
136.2715900706
 20
365.3011047286
 10
136.2067634854
 20
365.2362761509
 10
136.1654491957
 20
365.1949604335
 10
136.1491434131
 20
365.1786538398
  0
SPLINE
  5
AF
330
1F
100
AcDbEntity
  8
0
  6
Continuous
 62
     8
370
    18
100
AcDbSpline
210
0.0
220
0.0
230
1.0
 70
     8
 71
     3
 72
    20
 73
    16
 74
     0
 42
0.00000001
 43
0.00000001
 40
0.0
 40
0.0
 40
0.0
 40
0.0
 40
0.2499999999999989
 40
0.2499999999999989
 40
0.4999999999999978
 40
0.4999999999999978
 40
0.6249999999999983
 40
0.6249999999999983
 40
0.7499999999999989
 40
0.7499999999999989
 40
0.8749999999999994
 40
0.8749999999999994
 40
0.9374999999999997
 40
0.9374999999999997
 40
1.0
 40
1.0
 40
1.0
 40
1.0
 10
131.6931647921797
 20
382.6128745494722
 30
0.0
 10
131.7087925290984
 20
381.1122103120661
 30
0.0
 10
131.7622019028993
 20
379.6134985979131
 30
0.0
 10
132.0562807422575
 20
376.6257526126757
 30
0.0
 10
132.2944625209333
 20
375.1454489097539
 30
0.0
 10
132.8547038915948
 20
372.965150257737
 30
0.0
 10
133.0752797092919
 20
372.247051242943
 30
0.0
 10
133.5897979531795
 20
370.851031576669
 30
0.0
 10
133.8843030699537
 20
370.1704872255997
 30
0.0
 10
134.5617417471981
 20
368.8508646044301
 30
0.0
 10
134.944956686239
 20
368.2119182783661
 30
0.0
 10
135.601449745595
 20
367.291795987374
 30
0.0
 10
135.8335172317834
 20
366.9927324807646
 30
0.0
 10
136.3198059307162
 20
366.4167013329028
 30
0.0
 10
136.5746501594499
 20
366.1387387624075
 30
0.0
 10
136.8419395996985
 20
365.871469614058
 30
0.0
  0
SPLINE
  5
B0
330
1F
100
AcDbEntity
  8
0
  6
Continuous
 62
     8
370
    18
100
AcDbSpline
210
0.0
220
0.0
230
1.0
 70
     8
 71
     3
 72
    18
 73
    14
 74
     0
 42
0.00000001
 43
0.00000001
 40
0.0
 40
0.0
 40
0.0
 40
0.0
 40
0.1249999999999998
 40
0.1249999999999998
 40
0.2499999999999997
 40
0.2499999999999997
 40
0.3749999999999995
 40
0.3749999999999995
 40
0.4999999999999993
 40
0.4999999999999993
 40
0.7499999999999997
 40
0.7499999999999997
 40
1.0
 40
1.0
 40
1.0
 40
1.0
 10
136.1491462276104
 20
365.1786510252608
 30
0.0
 10
135.5937289626974
 20
365.7340822795501
 30
0.0
 10
135.0834946127433
 20
366.3372037962889
 30
0.0
 10
134.1651590570436
 20
367.6127098674217
 30
0.0
 10
133.761664279231
 20
368.2766202451282
 30
0.0
 10
133.0466563395315
 20
369.6476575447521
 30
0.0
 10
132.7350042131148
 20
370.3547191760919
 30
0.0
 10
132.1895216146552
 20
371.8054060820297
 30
0.0
 10
131.955110559089
 20
372.5512397001897
 30
0.0
 10
131.3577906283247
 20
374.8213272122251
 30
0.0
 10
131.1025883353084
 20
376.3625387651306
 30
0.0
 10
130.7867939559076
 20
379.4763438983908
 30
0.0
 10
130.7295935604142
 20
381.0384689699693
 30
0.0
 10
130.7133328961537
 20
382.6027173265712
 30
0.0
  0
LWPOLYLINE
  5
B1
330
1F
100
AcDbEntity
  8
0
  6
Continuous
 62
     8
370
    18
100
AcDbPolyline
 90
        9
 70
   128
 43
0.0
 10
131.6931647922
 20
382.6128745495
 10
131.504116871
 20
382.6109099968
 10
131.3226324942
 20
382.6090250986
 10
131.1552851202
 20
382.6072881267
 10
131.0081361574
 20
382.6057619954
 10
130.8865154175
 20
382.6045019817
 10
130.7948280667
 20
382.6035537241
 10
130.7363950685
 20
382.6029515689
 10
130.7133328962
 20
382.6027173266
  0
SPLINE
  5
B2
330
1F
100
AcDbEntity
  8
0
  6
Continuous
 62
     8
370
    18
100
AcDbSpline
210
0.0
220
0.0
230
1.0
 70
     8
 71
     3
 72
    18
 73
    14
 74
     0
 42
0.00000001
 43
0.00000001
 40
0.0
 40
0.0
 40
0.0
 40
0.0
 40
0.1250000000000001
 40
0.1250000000000001
 40
0.2500000000000003
 40
0.2500000000000003
 40
0.3750000000000004
 40
0.3750000000000004
 40
0.5000000000000006
 40
0.5000000000000006
 40
0.7500000000000002
 40
0.7500000000000002
 40
1.0
 40
1.0
 40
1.0
 40
1.0
 10
274.947858988291
 20
365.1786537195268
 30
0.0
 10
274.3924276987247
 20
364.6232365076325
 30
0.0
 10
273.7893060715419
 20
364.1130022272283
 30
0.0
 10
272.513799918967
 20
363.19466702732
 30
0.0
 10
271.8498894934638
 20
362.7911724163964
 30
0.0
 10
270.4788521263894
 20
362.0761647064894
 30
0.0
 10
269.771790469902
 20
361.7645126547781
 30
0.0
 10
268.3211035080429
 20
361.2190301808295
 30
0.0
 10
267.5752698301355
 20
360.984619172297
 30
0.0
 10
265.3051823922674
 20
360.387299359859
 30
0.0
 10
263.7639709003518
 20
360.132096925443
 30
0.0
 10
260.6501659011549
 20
359.8163020088523
 30
0.0
 10
259.0880408833737
 20
359.7591013668491
 30
0.0
 10
257.5237925651236
 20
359.7428406676918
 30
0.0
  0
LWPOLYLINE
  5
B3
330
1F
100
AcDbEntity
  8
0
  6
Continuous
 62
     8
370
    18
100
AcDbPolyline
 90
        9
 70
   128
 43
0.0
 10
257.5237925651
 20
359.7428406677
 10
257.5235581492
 20
359.7659036589
 10
257.5229558121
 20
359.8243388581
 10
257.5220073716
 20
359.9160296277
 10
257.5207471821
 20
360.037654748
 10
257.5192208902
 20
360.1848087182
 10
257.517483781
 20
360.3521613325
 10
257.5155987762
 20
360.5336507507
 10
257.5136341544
 20
360.7227030695
  0
SPLINE
  5
B4
330
1F
100
AcDbEntity
  8
0
  6
Continuous
 62
     8
370
    18
100
AcDbSpline
210
0.0
220
0.0
230
1.0
 70
     8
 71
     3
 72
    20
 73
    16
 74
     0
 42
0.00000001
 43
0.00000001
 40
0.0
 40
0.0
 40
0.0
 40
0.0
 40
0.2499999999999999
 40
0.2499999999999999
 40
0.4999999999999998
 40
0.4999999999999998
 40
0.6249999999999989
 40
0.6249999999999989
 40
0.749999999999999
 40
0.749999999999999
 40
0.8749999999999992
 40
0.8749999999999992
 40
0.9374999999999996
 40
0.9374999999999996
 40
1.0
 40
1.0
 40
1.0
 40
1.0
 10
257.513634154359
 20
360.7227030695402
 30
0.0
 10
259.014293033491
 20
360.7383334230148
 30
0.0
 10
260.5129977910309
 20
360.7917670708407
 30
0.0
 10
263.5007272139641
 20
361.0858997540646
 30
0.0
 10
264.9810224042662
 20
361.3241041839008
 30
0.0
 10
267.1613124783564
 20
361.8843454243207
 30
0.0
 10
267.8794099134052
 20
362.10491663017
 30
0.0
 10
269.275431279807
 20
362.6194207731247
 30
0.0
 10
269.9559782874529
 20
362.9139164231702
 30
0.0
 10
271.2756104628497
 20
363.591330531931
 30
0.0
 10
271.9145638365115
 20
363.9745300602762
 30
0.0
 10
272.834701356825
 20
364.6309932199039
 30
0.0
 10
273.1337710216991
 20
364.8630496082265
 30
0.0
 10
273.7098150911631
 20
365.3493174352213
 30
0.0
 10
273.9877844740019
 20
365.6041515721508
 30
0.0
 10
274.2550607212047
 20
365.8714313885567
 30
0.0
  0
LWPOLYLINE
  5
B5
330
1F
100
AcDbEntity
  8
0
  6
Continuous
 62
     8
370
    18
100
AcDbPolyline
 90
        9
 70
   128
 43
0.0
 10
274.9478561738
 20
365.178650905
 10
274.9315505025
 20
365.1949566409
 10
274.8902365073
 20
365.2362700525
 10
274.8254103393
 20
365.3010950098
 10
274.7394196233
 20
365.387083932
 10
274.6353784401
 20
365.4911228031
 10
274.5170545528
 20
365.6094439437
 10
274.3887329607
 20
365.7377624542
 10
274.2550607212
 20
365.8714313886
  0
SPLINE
  5
B6
330
1F
100
AcDbEntity
  8
0
  6
Continuous
 62
     8
370
    18
100
AcDbSpline
210
0.0
220
0.0
230
1.0
 70
     8
 71
     3
 72
    18
 73
    14
 74
     0
 42
0.00000001
 43
0.00000001
 40
0.0
 40
0.0
 40
0.0
 40
0.0
 40
0.2500000000000006
 40
0.2500000000000006
 40
0.5000000000000011
 40
0.5000000000000011
 40
0.6250000000000008
 40
0.6250000000000008
 40
0.7500000000000006
 40
0.7500000000000006
 40
0.8750000000000002
 40
0.8750000000000002
 40
1.0
 40
1.0
 40
1.0
 40
1.0
 10
280.383669483637
 20
382.6027173258186
 30
0.0
 10
280.3674089758244
 20
381.0384689723325
 30
0.0
 10
280.3102087637998
 20
379.4763439018915
 30
0.0
 10
279.994413936161
 20
376.3625388082331
 30
0.0
 10
279.7392111173924
 20
374.8213273419295
 30
0.0
 10
279.1418908756799
 20
372.5512399345931
 30
0.0
 10
278.9074797872102
 20
371.8054063132521
 30
0.0
 10
278.3619972676194
 20
370.3547193626345
 30
0.0
 10
278.0503452497651
 20
369.6476576873133
 30
0.0
 10
277.3353376001037
 20
368.2766202906533
 30
0.0
 10
276.9318430122472
 20
367.6127098559528
 30
0.0
 10
276.013507782058
 20
366.3372037261925
 30
0.0
 10
275.50486349314
 20
365.735672229703
 30
0.0
 10
274.9478561738247
 20
365.1786509050626
 30
0.0
  0
SPLINE
  5
B7
330
1F
100
AcDbEntity
  8
0
  6
Continuous
 62
     8
370
    18
100
AcDbSpline
210
0.0
220
0.0
230
1.0
 70
     8
 71
     3
 72
    20
 73
    16
 74
     0
 42
0.00000001
 43
0.00000001
 40
0.0
 40
0.0
 40
0.0
 40
0.0
 40
0.0625000000000009
 40
0.0625000000000009
 40
0.1250000000000017
 40
0.1250000000000017
 40
0.2500000000000021
 40
0.2500000000000021
 40
0.3750000000000025
 40
0.3750000000000025
 40
0.5000000000000029
 40
0.5000000000000029
 40
0.7500000000000014
 40
0.7500000000000014
 40
1.0
 40
1.0
 40
1.0
 40
1.0
 10
274.2550607214889
 20
365.8714313882725
 30
0.0
 10
274.52232832787
 20
366.1387172548916
 30
0.0
 10
274.7771499193252
 20
366.4166956684679
 30
0.0
 10
275.2633924973647
 20
366.9927562862002
 30
0.0
 10
275.4954359340082
 20
367.2918332995417
 30
0.0
 10
276.1518636406532
 20
368.2119905811168
 30
0.0
 10
276.5350435334904
 20
368.8509544575829
 30
0.0
 10
277.2124311559988
 20
370.1706003433102
 30
0.0
 10
277.5069203240193
 20
370.8511503897189
 30
0.0
 10
278.0214275934157
 20
372.2471692007853
 30
0.0
 10
278.242008251152
 20
372.9652602807711
 30
0.0
 10
278.8022934502713
 20
375.1455287330695
 30
0.0
 10
279.0405436305346
 20
376.6258102970189
 30
0.0
 10
279.3347388386994
 20
379.6135209189001
 30
0.0
 10
279.3881911747316
 20
381.1122183520803
 30
0.0
 10
279.4038358836603
 20
382.6128707074573
 30
0.0
  0
LWPOLYLINE
  5
B8
330
1F
100
AcDbEntity
  8
0
  6
Continuous
 62
     8
370
    18
100
AcDbPolyline
 90
        9
 70
   128
 43
0.0
 10
280.3836694836
 20
382.6027173258
 10
280.360607259
 20
382.6029508366
 10
280.3021741333
 20
382.6035522875
 10
280.2104865892
 20
382.6044998937
 10
280.0888656044
 20
382.6057593323
 10
279.9417163635
 20
382.6072849856
 10
279.7743686999
 20
382.6090215937
 10
279.5928840458
 20
382.6109062555
 10
279.4038358837
 20
382.6128707075
  0
SPLINE
  5
B9
330
1F
100
AcDbEntity
  8
0
  6
Continuous
 62
     8
370
    18
100
AcDbSpline
210
0.0
220
0.0
230
1.0
 70
     8
 71
     3
 72
    20
 73
    16
 74
     0
 42
0.00000001
 43
0.00000001
 40
0.0
 40
0.0
 40
0.0
 40
0.0
 40
0.2499999999999991
 40
0.2499999999999991
 40
0.3749999999999988
 40
0.3749999999999988
 40
0.4999999999999984
 40
0.4999999999999984
 40
0.7499999999999978
 40
0.7499999999999978
 40
0.8124999999999991
 40
0.8124999999999991
 40
0.8750000000000004
 40
0.8750000000000004
 40
1.0
 40
1.0
 40
1.0
 40
1.0
 10
153.5833681658538
 20
508.4333137236815
 30
0.0
 10
152.0826374867796
 20
508.4176826156375
 30
0.0
 10
150.5845444703052
 20
508.3641847753123
 30
0.0
 10
148.3471457307182
 20
508.1440976619375
 30
0.0
 10
147.6009849949008
 20
508.0474019703212
 30
0.0
 10
146.1223265469443
 20
507.797925939318
 30
0.0
 10
145.3919326702607
 20
507.6455538689616
 30
0.0
 10
143.2320965925034
 20
507.0914962954377
 30
0.0
 10
141.8330714199348
 20
506.5957410408226
 30
0.0
 10
140.1608319475923
 20
505.7393280744673
 30
0.0
 10
139.8291170192813
 20
505.55506063472
 30
0.0
 10
139.1837209460959
 20
505.1647004688357
 30
0.0
 10
138.869417781135
 20
504.9583645374092
 30
0.0
 10
137.9530947455635
 20
504.304026302524
 30
0.0
 10
137.3778240390406
 20
503.8204773417516
 30
0.0
 10
136.8419407578236
 20
503.2845868816033
 30
0.0
  0
LWPOLYLINE
  5
BA
330
1F
100
AcDbEntity
  8
0
  6
Continuous
 62
     8
370
    18
100
AcDbPolyline
 90
        9
 70
   128
 43
0.0
 10
136.8419407578
 20
503.2845868816
 10
136.7082686345
 20
503.4182557008
 10
136.5799471762
 20
503.5465740798
 10
136.4616234285
 20
503.6648950844
 10
136.3575823793
 20
503.7689338262
 10
136.2715917813
 20
503.8549226359
 10
136.2067657065
 20
503.9197475064
 10
136.1654517726
 20
503.9610608636
 10
136.1491461262
 20
503.9773665817
  0
SPLINE
  5
BB
330
1F
100
AcDbEntity
  8
0
  6
Continuous
 62
     8
370
    18
100
AcDbSpline
210
0.0
220
0.0
230
1.0
 70
     8
 71
     3
 72
    24
 73
    20
 74
     0
 42
0.00000001
 43
0.00000001
 40
0.0
 40
0.0
 40
0.0
 40
0.0
 40
0.0312500000000008
 40
0.0312500000000008
 40
0.0625000000000017
 40
0.0625000000000017
 40
0.1250000000000016
 40
0.1250000000000016
 40
0.1875000000000016
 40
0.1875000000000016
 40
0.2500000000000015
 40
0.2500000000000015
 40
0.5000000000000013
 40
0.5000000000000013
 40
0.6250000000000013
 40
0.6250000000000013
 40
0.7500000000000012
 40
0.7500000000000012
 40
1.0
 40
1.0
 40
1.0
 40
1.0
 10
136.149143311677
 20
503.9773637672093
 30
0.0
 10
136.2873716242543
 20
504.1155885761304
 30
0.0
 10
136.43086637586
 20
504.2531840334582
 30
0.0
 10
136.719971102365
 20
504.5191999873542
 30
0.0
 10
136.8669482948402
 20
504.6489869889902
 30
0.0
 10
137.314941799513
 20
505.0289674187056
 30
0.0
 10
137.6229921214099
 20
505.2698173554148
 30
0.0
 10
138.2575066922545
 20
505.7270574422969
 30
0.0
 10
138.5837977055446
 20
505.9436777071347
 30
0.0
 10
139.2535930705236
 20
506.3540532300177
 30
0.0
 10
139.5981644664716
 20
506.5482937806689
 30
0.0
 10
141.3367867274352
 20
507.4531026907999
 30
0.0
 10
142.7915529064044
 20
507.980000379218
 30
0.0
 10
145.0386199138416
 20
508.5701615409793
 30
0.0
 10
145.7986735201275
 20
508.7328650485255
 30
0.0
 10
147.3377950316015
 20
508.9996381010461
 30
0.0
 10
148.1156296725318
 20
509.103353474392
 30
0.0
 10
150.4473522579198
 20
509.3396403429736
 30
0.0
 10
152.0088465495616
 20
509.3969149668768
 30
0.0
 10
153.5732097158704
 20
509.4131768612265
 30
0.0
  0
LWPOLYLINE
  5
BC
330
1F
100
AcDbEntity
  8
0
  6
Continuous
 62
     8
370
    18
100
AcDbPolyline
 90
        9
 70
   128
 43
0.0
 10
153.5833681659
 20
508.4333137237
 10
153.581403542
 20
508.6223661486
 10
153.579518534
 20
508.8038556884
 10
153.5777814205
 20
508.9712084291
 10
153.5762551234
 20
509.11836252
 10
153.5749949281
 20
509.2399877459
 10
153.5740464814
 20
509.331678598
 10
153.573444138
 20
509.3901138503
 10
153.5732097159
 20
509.4131768612
  0
SPLINE
  5
BD
330
1F
100
AcDbEntity
  8
0
  6
Continuous
 62
     8
370
    18
100
AcDbSpline
210
0.0
220
0.0
230
1.0
 70
     8
 71
     3
 72
    16
 73
    12
 74
     0
 42
0.00000001
 43
0.00000001
 40
0.0
 40
0.0
 40
0.0
 40
0.0
 40
0.1249999999999988
 40
0.1249999999999988
 40
0.2499999999999977
 40
0.2499999999999977
 40
0.4999999999999984
 40
0.4999999999999984
 40
0.7499999999999992
 40
0.7499999999999992
 40
1.0
 40
1.0
 40
1.0
 40
1.0
 10
274.9478560989531
 20
503.9773665255384
 30
0.0
 10
275.5032675497255
 20
503.4219410459507
 30
0.0
 10
276.0126781395387
 20
502.8199839902413
 30
0.0
 10
276.9329128057239
 20
501.5418038607752
 30
0.0
 10
277.3366736133642
 20
500.8771066644649
 30
0.0
 10
278.409091315342
 20
498.8199180826128
 30
0.0
 10
278.9415616942068
 20
497.3655237900665
 30
0.0
 10
279.7391911668448
 20
494.3353663303605
 30
0.0
 10
279.9942011171577
 20
492.7950698586228
 30
0.0
 10
280.3101810363674
 20
489.6804498701599
 30
0.0
 10
280.3674064352343
 20
488.1177692761973
 30
0.0
 10
280.3836693959553
 20
486.5533001790045
 30
0.0
  0
LWPOLYLINE
  5
BE
330
1F
100
AcDbEntity
  8
0
  6
Continuous
 62
     8
370
    18
100
AcDbPolyline
 90
        9
 70
   128
 43
0.0
 10
280.383669396
 20
486.553300179
 10
280.3606072105
 20
486.5530659284
 10
280.3021741769
 20
486.552463765
 10
280.2104867713
 20
486.5515154995
 10
280.088865961
 20
486.5502554787
 10
279.9417169178
 20
486.5487293411
 10
279.7743694595
 20
486.5469923643
 10
279.5928850018
 20
486.5451074625
 10
279.4038370099
 20
486.543142908
  0
SPLINE
  5
BF
330
1F
100
AcDbEntity
  8
0
  6
Continuous
 62
     8
370
    18
100
AcDbSpline
210
0.0
220
0.0
230
1.0
 70
     8
 71
     3
 72
    16
 73
    12
 74
     0
 42
0.00000001
 43
0.00000001
 40
0.0
 40
0.0
 40
0.0
 40
0.0
 40
0.2500000000000005
 40
0.2500000000000005
 40
0.500000000000001
 40
0.500000000000001
 40
0.7500000000000016
 40
0.7500000000000016
 40
0.8750000000000008
 40
0.8750000000000008
 40
1.0
 40
1.0
 40
1.0
 40
1.0
 10
279.4038370098509
 20
486.54314290797
 30
0.0
 10
279.3882071511169
 20
488.0440142628724
 30
0.0
 10
279.3347952073912
 20
489.543042022441
 30
0.0
 10
279.0405091203444
 20
492.5319502329389
 30
0.0
 10
278.8025286566176
 20
494.0111509859934
 30
0.0
 10
278.0544801922518
 20
496.921268882615
 30
0.0
 10
277.5525415106193
 20
498.3230070966193
 30
0.0
 10
276.5365561774485
 20
500.3029027206044
 30
0.0
 10
276.1531237307394
 20
500.9425676543806
 30
0.0
 10
275.2760449193638
 20
502.171923448465
 30
0.0
 10
274.7898404735598
 20
502.7498269061396
 30
0.0
 10
274.2550710538389
 20
503.2845583327179
 30
0.0
  0
LINE
  5
C0
330
1F
100
AcDbEntity
  8
0
  6
Continuous
 62
     8
370
    18
100
AcDbLine
 10
274.9478589135
 20
503.977363711
 30
0.0
 11
274.2550710538
 21
503.2845583327
 31
0.0
  0
SPLINE
  5
C1
330
1F
100
AcDbEntity
  8
0
  6
Continuous
 62
     8
370
    18
100
AcDbSpline
210
0.0
220
0.0
230
1.0
 70
     8
 71
     3
 72
    20
 73
    16
 74
     0
 42
0.00000001
 43
0.00000001
 40
0.0
 40
0.0
 40
0.0
 40
0.0
 40
0.2499999999999996
 40
0.2499999999999996
 40
0.3750000000000001
 40
0.3750000000000001
 40
0.5000000000000006
 40
0.5000000000000006
 40
0.7499999999999999
 40
0.7499999999999999
 40
0.8124999999999996
 40
0.8124999999999996
 40
0.8749999999999991
 40
0.8749999999999991
 40
1.0
 40
1.0
 40
1.0
 40
1.0
 10
257.5237925750591
 20
509.4131778195947
 30
0.0
 10
259.0882499303324
 20
509.396915970317
 30
0.0
 10
260.6498866923704
 20
509.3396399906053
 30
0.0
 10
262.981995501824
 20
509.1032804487202
 30
0.0
 10
263.7600600278856
 20
508.9995038987603
 30
0.0
 10
265.2984794877481
 20
508.7328245203025
 30
0.0
 10
266.0582449371243
 20
508.5701845243041
 30
0.0
 10
268.3046531366282
 20
507.9802310539349
 30
0.0
 10
269.759254413902
 20
507.4535108553115
 30
0.0
 10
271.498083937991
 20
506.5487084421147
 30
0.0
 10
271.8427352588416
 20
506.3544461016309
 30
0.0
 10
272.5126890984127
 20
505.9440132050974
 30
0.0
 10
272.8390550953781
 20
505.7273604438371
 30
0.0
 10
273.7910386425264
 20
505.0413910062609
 30
0.0
 10
274.3893714862949
 20
504.5358370470394
 30
0.0
 10
274.9478589134201
 20
503.9773637110711
 30
0.0
  0
SPLINE
  5
C2
330
1F
100
AcDbEntity
  8
0
  6
Continuous
 62
     8
370
    18
100
AcDbSpline
210
0.0
220
0.0
230
1.0
 70
     8
 71
     3
 72
    20
 73
    16
 74
     0
 42
0.00000001
 43
0.00000001
 40
0.0
 40
0.0
 40
0.0
 40
0.0
 40
0.1249999999999993
 40
0.1249999999999993
 40
0.1874999999999989
 40
0.1874999999999989
 40
0.2499999999999986
 40
0.2499999999999986
 40
0.4999999999999982
 40
0.4999999999999982
 40
0.6249999999999986
 40
0.6249999999999986
 40
0.749999999999999
 40
0.749999999999999
 40
1.0
 40
1.0
 40
1.0
 40
1.0
 10
274.255071054123
 20
503.284558333002
 30
0.0
 10
273.7192703197882
 20
503.8202915531157
 30
0.0
 10
273.1440994570047
 20
504.303707779253
 30
0.0
 10
272.2279511794848
 20
504.9578821844273
 30
0.0
 10
271.9137105506757
 20
505.1641695400202
 30
0.0
 10
271.2684475689586
 20
505.554443858377
 30
0.0
 10
270.9368072878426
 20
505.7386707902525
 30
0.0
 10
269.2651041736832
 20
506.5948477178336
 30
0.0
 10
267.8668797834959
 20
507.0904120995436
 30
0.0
 10
265.708696287324
 20
507.6444281528786
 30
0.0
 10
264.9789288646855
 20
507.7968239054238
 30
0.0
 10
263.5016538966529
 20
508.0464154569942
 30
0.0
 10
262.7554073920091
 20
508.1433269563647
 30
0.0
 10
260.5166417841638
 20
508.3639936773071
 30
0.0
 10
259.0151572350047
 20
508.4177243726456
 30
0.0
 10
257.513659894775
 20
508.4333635887845
 30
0.0
  0
LWPOLYLINE
  5
C3
330
1F
100
AcDbEntity
  8
0
  6
Continuous
 62
     8
370
    18
100
AcDbPolyline
 90
        9
 70
   128
 43
0.0
 10
257.5237925751
 20
509.4131778196
 10
257.5235629571
 20
509.3901160811
 10
257.5229652675
 20
509.3316843299
 10
257.5220211542
 20
509.2399989448
 10
257.5207648128
 20
509.1183807399
 10
257.5192417474
 20
508.9712346865
 10
257.5175071232
 20
508.803890366
 10
257.5156237674
 20
508.6224089343
 10
257.5136598948
 20
508.4333635888
  0
SPLINE
  5
C4
330
1F
100
AcDbEntity
  8
0
  6
Continuous
 62
     8
370
    18
100
AcDbSpline
210
0.0
220
0.0
230
1.0
 70
     8
 71
     3
 72
    20
 73
    16
 74
     0
 42
0.00000001
 43
0.00000001
 40
0.0
 40
0.0
 40
0.0
 40
0.0
 40
0.1249999999999994
 40
0.1249999999999994
 40
0.1874999999999988
 40
0.1874999999999988
 40
0.2499999999999982
 40
0.2499999999999982
 40
0.5
 40
0.5
 40
0.625
 40
0.625
 40
0.75
 40
0.75
 40
1.0
 40
1.0
 40
1.0
 40
1.0
 10
136.8419407575395
 20
503.2845868818874
 30
0.0
 10
136.306320715344
 20
502.748930222327
 30
0.0
 10
135.8229949989489
 20
502.173923921983
 30
0.0
 10
135.1689269801979
 20
501.2580492463299
 30
0.0
 10
134.9626702264515
 20
500.9439042471574
 30
0.0
 10
134.5724477831515
 20
500.298841006393
 30
0.0
 10
134.3882346175812
 20
499.9672931665822
 30
0.0
 10
133.5320368778245
 20
498.2959046869077
 30
0.0
 10
133.0363050447719
 20
496.8976607496241
 30
0.0
 10
132.4821218233547
 20
494.7391009033531
 30
0.0
 10
132.3296805152968
 20
494.0091502126965
 30
0.0
 10
132.080031368904
 20
492.5314046156769
 30
0.0
 10
131.9831757375851
 20
491.7853892006367
 30
0.0
 10
131.7625465702363
 20
489.5465487791082
 30
0.0
 10
131.7088204657147
 20
488.0446670040215
 30
0.0
 10
131.6931663902893
 20
486.5431467812613
 30
0.0
  0
LWPOLYLINE
  5
C5
330
1F
100
AcDbEntity
  8
0
  6
Continuous
 62
     8
370
    18
100
AcDbPolyline
 90
        9
 70
   128
 43
0.0
 10
131.6931663903
 20
486.5431467813
 10
131.504118229
 20
486.5451112337
 10
131.3226335758
 20
486.5469958965
 10
131.1552859131
 20
486.5487325062
 10
131.0081366731
 20
486.5502581616
 10
130.8865156891
 20
486.5515176027
 10
130.7948281457
 20
486.5524652117
 10
130.7363950205
 20
486.5530666657
 10
130.713332796
 20
486.5533001797
  0
SPLINE
  5
C6
330
1F
100
AcDbEntity
  8
0
  6
Continuous
 62
     8
370
    18
100
AcDbSpline
210
0.0
220
0.0
230
1.0
 70
     8
 71
     3
 72
    20
 73
    16
 74
     0
 42
0.00000001
 43
0.00000001
 40
0.0
 40
0.0
 40
0.0
 40
0.0
 40
0.2500000000000009
 40
0.2500000000000009
 40
0.3750000000000021
 40
0.3750000000000021
 40
0.5000000000000032
 40
0.5000000000000032
 40
0.7500000000000049
 40
0.7500000000000049
 40
0.8125000000000038
 40
0.8125000000000038
 40
0.8750000000000027
 40
0.8750000000000027
 40
1.0
 40
1.0
 40
1.0
 40
1.0
 10
130.7133327959655
 20
486.5533001796697
 30
0.0
 10
130.729594638931
 20
488.1176769155905
 30
0.0
 10
130.7868690555405
 20
489.6791917392541
 30
0.0
 10
131.0231660961618
 20
492.0109698829144
 30
0.0
 10
131.1268908436896
 20
492.7888416877014
 30
0.0
 10
131.3936506856731
 20
494.3278619577032
 30
0.0
 10
131.5563452615716
 20
495.087874000822
 30
0.0
 10
132.1464771985039
 20
497.3348460100277
 30
0.0
 10
132.6733497237806
 20
498.7895884958824
 30
0.0
 10
133.5781583263942
 20
500.5282407776747
 30
0.0
 10
133.7724020060627
 20
500.8728234420947
 30
0.0
 10
134.1827854341663
 20
501.542640699891
 30
0.0
 10
134.3994101803723
 20
501.868942070482
 30
0.0
 10
135.08528540221
 20
502.8207431568801
 30
0.0
 10
135.5907631052358
 20
503.4189695216053
 30
0.0
 10
136.1491461261438
 20
503.977366581674
 30
0.0
  0
LINE
  5
C7
330
1F
100
AcDbEntity
  8
0
  6
Continuous
 62
     8
370
    18
100
AcDbLine
 10
274.9478589135
 20
503.977363711
 30
0.0
 11
275.0594139674
 21
504.0889215795
 31
0.0
  0
LINE
  5
C8
330
1F
100
AcDbEntity
  8
0
  6
Continuous
 62
     8
370
    18
100
AcDbLine
 10
257.5237925751
 20
509.4131778196
 30
0.0
 11
257.52543296
 21
509.5709686209
 31
0.0
  0
LINE
  5
C9
330
1F
100
AcDbEntity
  8
0
  6
Continuous
 62
     8
370
    18
100
AcDbLine
 10
136.1491461262
 20
503.9773665817
 30
0.0
 11
136.0375883138
 21
504.0889215795
 31
0.0
  0
LINE
  5
CA
330
1F
100
AcDbEntity
  8
0
  6
Continuous
 62
     8
370
    18
100
AcDbLine
 10
130.713332796
 20
486.5533001797
 30
0.0
 11
130.5555412725
 21
486.5549405722
 31
0.0
  0
LINE
  5
CB
330
1F
100
AcDbEntity
  8
0
  6
Continuous
 62
     8
370
    18
100
AcDbLine
 10
153.5732097159
 20
509.4131768612
 30
0.0
 11
153.5715693212
 21
509.5709686209
 31
0.0
  0
SPLINE
  5
CC
330
1F
100
AcDbEntity
  8
0
  6
Continuous
 62
     8
370
    18
100
AcDbSpline
210
0.0
220
0.0
230
1.0
 70
     8
 71
     3
 72
    12
 73
     8
 74
     0
 42
0.00000001
 43
0.00000001
 40
0.0
 40
0.0
 40
0.0
 40
0.0
 40
0.5
 40
0.5
 40
0.75
 40
0.75
 40
1.0
 40
1.0
 40
1.0
 40
1.0
 10
131.5502647822814
 20
470.2953919066985
 30
0.0
 10
131.4457964241466
 20
455.6817228878018
 30
0.0
 10
131.4054151621556
 20
441.0676312974032
 30
0.0
 10
131.4410220928964
 20
419.1468836754406
 30
0.0
 10
131.4690064425214
 20
411.8400002306675
 30
0.0
 10
131.5568738723006
 20
397.2262975257854
 30
0.0
 10
131.617074468293
 20
389.9194992819616
 30
0.0
 10
131.6931647921808
 20
382.6128745494722
 30
0.0
  0
SPLINE
  5
CD
330
1F
100
AcDbEntity
  8
0
  6
Continuous
 62
     8
370
    18
100
AcDbSpline
210
0.0
220
0.0
230
1.0
 70
     8
 71
     3
 72
     8
 73
     4
 74
     0
 42
0.00000001
 43
0.00000001
 40
0.0
 40
0.0
 40
0.0
 40
0.0
 40
1.0
 40
1.0
 40
1.0
 40
1.0
 10
131.6931663902894
 20
486.5431467812613
 30
0.0
 10
131.6367036178767
 20
481.1273059634159
 30
0.0
 10
131.5889819782105
 20
475.7113886423816
 30
0.0
 10
131.5502647822818
 20
470.2953919066985
 30
0.0
  0
SPLINE
  5
CE
330
1F
100
AcDbEntity
  8
0
  6
Continuous
 62
     8
370
    18
100
AcDbSpline
210
0.0
220
0.0
230
1.0
 70
     8
 71
     3
 72
    14
 73
    10
 74
     0
 42
0.00000001
 43
0.00000001
 40
0.0
 40
0.0
 40
0.0
 40
0.0
 40
0.2500000000000001
 40
0.2500000000000001
 40
0.5000000000000001
 40
0.5000000000000001
 40
0.75
 40
0.75
 40
1.0
 40
1.0
 40
1.0
 40
1.0
 10
257.513659894775
 20
508.4333635887847
 30
0.0
 10
248.8530730887399
 20
508.5235700830869
 30
0.0
 10
240.1922389723803
 20
508.5911964647872
 30
0.0
 10
222.870492821297
 20
508.6814307638611
 30
0.0
 10
214.2095776851529
 20
508.7039454514309
 30
0.0
 10
196.8876636234823
 20
508.7039500673793
 30
0.0
 10
188.2266127413789
 20
508.6814380434524
 30
0.0
 10
170.904763936653
 20
508.5911749402375
 30
0.0
 10
162.243954999014
 20
508.5235195096432
 30
0.0
 10
153.5833681658538
 20
508.4333137236806
 30
0.0
  0
SPLINE
  5
CF
330
1F
100
AcDbEntity
  8
0
  6
Continuous
 62
     8
370
    18
100
AcDbSpline
210
0.0
220
0.0
230
1.0
 70
     8
 71
     3
 72
     8
 73
     4
 74
     0
 42
0.00000001
 43
0.00000001
 40
0.0
 40
0.0
 40
0.0
 40
0.0
 40
1.0
 40
1.0
 40
1.0
 40
1.0
 10
279.5477793721557
 20
470.1495031747564
 30
0.0
 10
279.5088771847366
 20
475.614129488031
 30
0.0
 10
279.4607432079092
 20
481.0786745219352
 30
0.0
 10
279.4038370098506
 20
486.54314290797
 30
0.0
  0
SPLINE
  5
D0
330
1F
100
AcDbEntity
  8
0
  6
Continuous
 62
     8
370
    18
100
AcDbSpline
210
0.0
220
0.0
230
1.0
 70
     8
 71
     3
 72
    12
 73
     8
 74
     0
 42
0.00000001
 43
0.00000001
 40
0.0
 40
0.0
 40
0.0
 40
0.0
 40
0.25
 40
0.25
 40
0.5
 40
0.5
 40
1.0
 40
1.0
 40
1.0
 40
1.0
 10
279.4038358836586
 20
382.6128707074573
 30
0.0
 10
279.4798824347722
 20
389.9073124459949
 30
0.0
 10
279.5399262990999
 20
397.2019188128986
 30
0.0
 10
279.6277665835602
 20
411.7912866423032
 30
0.0
 10
279.6557713314793
 20
419.0860300107466
 30
0.0
 10
279.6916514966344
 20
440.9704399377731
 30
0.0
 10
279.6516393466696
 20
455.5601963190661
 30
0.0
 10
279.5477793721575
 20
470.1495031747564
 30
0.0
  0
SPLINE
  5
D1
330
1F
100
AcDbEntity
  8
0
  6
Continuous
 62
     8
370
    18
100
AcDbSpline
210
0.0
220
0.0
230
1.0
 70
     8
 71
     3
 72
    14
 73
    10
 74
     0
 42
0.00000001
 43
0.00000001
 40
0.0
 40
0.0
 40
0.0
 40
0.0
 40
0.2500000000000001
 40
0.2500000000000001
 40
0.5
 40
0.5
 40
0.75
 40
0.75
 40
1.0
 40
1.0
 40
1.0
 40
1.0
 10
153.5833420934307
 20
360.7226541028894
 30
0.0
 10
162.2439243714821
 20
360.6324432081589
 30
0.0
 10
170.9047520036985
 20
360.5648213147322
 30
0.0
 10
188.2264982157565
 20
360.4745872167473
 30
0.0
 10
196.8874186591777
 20
360.4520717243579
 30
0.0
 10
214.2093538575336
 20
360.4520684329366
 30
0.0
 10
222.8704129417519
 20
360.4745809801587
 30
0.0
 10
240.1922463772999
 20
360.5648431598725
 30
0.0
 10
248.8530519043981
 20
360.6324973698867
 30
0.0
 10
257.5136341543591
 20
360.7227030695402
 30
0.0
  0
LINE
  5
D2
330
1F
100
AcDbEntity
  8
0
  6
Continuous
 62
     8
370
    18
100
AcDbLine
 10
280.383669396
 20
486.553300179
 30
0.0
 11
280.5414610088
 21
486.5549405722
 31
0.0
  0
LINE
  5
D3
330
1F
100
AcDbEntity
  8
0
  6
Continuous
 62
     8
370
    18
100
AcDbLine
 10
257.5237925651
 20
359.7428406677
 30
0.0
 11
257.52543296
 21
359.5850488846
 31
0.0
  0
LINE
  5
D4
330
1F
100
AcDbEntity
  8
0
  6
Continuous
 62
     8
370
    18
100
AcDbLine
 10
274.9478561738
 20
365.178650905
 30
0.0
 11
275.0594139674
 21
365.0670959259
 31
0.0
  0
LINE
  5
D5
330
1F
100
AcDbEntity
  8
0
  6
Continuous
 62
     8
370
    18
100
AcDbLine
 10
130.7133328962
 20
382.6027173266
 30
0.0
 11
130.5555412725
 21
382.6010769333
 31
0.0
  0
LINE
  5
D6
330
1F
100
AcDbEntity
  8
0
  6
Continuous
 62
     8
370
    18
100
AcDbLine
 10
136.1491434131
 20
365.1786538398
 30
0.0
 11
136.0375883138
 21
365.0670959259
 31
0.0
  0
LINE
  5
D7
330
1F
100
AcDbEntity
  8
0
  6
Continuous
 62
     8
370
    18
100
AcDbLine
 10
280.3836694836
 20
382.6027173258
 30
0.0
 11
280.5414610088
 21
382.6010769333
 31
0.0
  0
LINE
  5
D8
330
1F
100
AcDbEntity
  8
0
  6
Continuous
 62
     8
370
    18
100
AcDbLine
 10
153.5732097063
 20
359.7428396964
 30
0.0
 11
153.5715693212
 21
359.5850488846
 31
0.0
  0
SPLINE
  5
D9
330
1F
100
AcDbEntity
  8
0
  6
Continuous
 62
     8
370
    18
100
AcDbSpline
210
0.0
220
0.0
230
1.0
 70
     8
 71
     3
 72
    14
 73
    10
 74
     0
 42
0.00000001
 43
0.00000001
 40
0.0
 40
0.0
 40
0.0
 40
0.0
 40
0.2499999999999999
 40
0.2499999999999999
 40
0.4999999999999999
 40
0.4999999999999999
 40
0.7499999999999999
 40
0.7499999999999999
 40
1.0
 40
1.0
 40
1.0
 40
1.0
 10
153.5732097158704
 20
509.4131768612266
 30
0.0
 10
162.2355435363859
 20
509.5032236440219
 30
0.0
 10
170.8981366434669
 20
509.570848322378
 30
0.0
 10
188.2233208231698
 20
509.6609483402884
 30
0.0
 10
196.8859124152462
 20
509.6834734279871
 30
0.0
 10
214.2110946038155
 20
509.6834727602364
 30
0.0
 10
222.8736852003236
 20
509.6609475930475
 30
0.0
 10
240.198865397811
 20
509.570848222071
 30
0.0
 10
248.8614586749326
 20
509.5032188695183
 30
0.0
 10
257.5237925750568
 20
509.4131778195944
 30
0.0
  0
SPLINE
  5
DA
330
1F
100
AcDbEntity
  8
0
  6
Continuous
 62
     8
370
    18
100
AcDbSpline
210
0.0
220
0.0
230
1.0
 70
     8
 71
     3
 72
    12
 73
     8
 74
     0
 42
0.00000001
 43
0.00000001
 40
0.0
 40
0.0
 40
0.0
 40
0.0
 40
0.2500000000000001
 40
0.2500000000000001
 40
0.5000000000000001
 40
0.5000000000000001
 40
1.0
 40
1.0
 40
1.0
 40
1.0
 10
130.7133328961542
 20
382.6027173265712
 30
0.0
 10
130.6373635275268
 20
389.9108465831033
 30
0.0
 10
130.5773397647841
 20
397.2191596622507
 30
0.0
 10
130.4894421934338
 20
411.835834814439
 30
0.0
 10
130.4615256737034
 20
419.1441723288322
 30
0.0
 10
130.4258760243764
 20
441.0691846868651
 30
0.0
 10
130.4662379308519
 20
455.6858593453996
 30
0.0
 10
130.5707333255745
 20
470.3025337570908
 30
0.0
  0
LWPOLYLINE
  5
DB
330
1F
100
AcDbEntity
  8
0
  6
Continuous
 62
     8
370
    18
100
AcDbPolyline
 90
        9
 70
   128
 43
0.0
 10
131.5502647823
 20
470.2953919067
 10
131.3612586509
 20
470.2967462522
 10
131.1798232251
 20
470.2980515334
 10
131.0125273792
 20
470.2992604927
 10
130.8654280638
 20
470.3003293596
 10
130.7438510133
 20
470.3012194358
 10
130.6521979281
 20
470.3018984961
 10
130.5937871104
 20
470.302341955
 10
130.5707333256
 20
470.3025337571
  0
SPLINE
  5
DC
330
1F
100
AcDbEntity
  8
0
  6
Continuous
 62
     8
370
    18
100
AcDbSpline
210
0.0
220
0.0
230
1.0
 70
     8
 71
     3
 72
    14
 73
    10
 74
     0
 42
0.00000001
 43
0.00000001
 40
0.0
 40
0.0
 40
0.0
 40
0.0
 40
0.2499999999999999
 40
0.2499999999999999
 40
0.5
 40
0.5
 40
0.75
 40
0.75
 40
1.0
 40
1.0
 40
1.0
 40
1.0
 10
257.5237925651236
 20
359.7428406676929
 30
0.0
 10
248.8614602366898
 20
359.6527939075672
 30
0.0
 10
240.1988693772915
 20
359.5851692195085
 30
0.0
 10
222.8736817711686
 20
359.4950691991497
 30
0.0
 10
214.2110888769687
 20
359.4725440812571
 30
0.0
 10
196.8859049063914
 20
359.4725447509836
 30
0.0
 10
188.2233138299801
 20
359.4950699579545
 30
0.0
 10
170.8981334948326
 20
359.5851693212365
 30
0.0
 10
162.2355421166006
 20
359.6527987289018
 30
0.0
 10
153.573209706285
 20
359.7428396963952
 30
0.0
  0
SPLINE
  5
DD
330
1F
100
AcDbEntity
  8
0
  6
Continuous
 62
     8
370
    18
100
AcDbSpline
210
0.0
220
0.0
230
1.0
 70
     8
 71
     3
 72
     8
 73
     4
 74
     0
 42
0.00000001
 43
0.00000001
 40
0.0
 40
0.0
 40
0.0
 40
0.0
 40
1.0
 40
1.0
 40
1.0
 40
1.0
 10
280.3836693959552
 20
486.5533001790045
 30
0.0
 10
280.4404841238531
 20
481.087816686571
 30
0.0
 10
280.4883956359902
 20
475.6222555729801
 30
0.0
 10
280.5273101236336
 20
470.1566154228797
 30
0.0
  0
SPLINE
  5
DE
330
1F
100
AcDbEntity
  8
0
  6
Continuous
 62
     8
370
    18
100
AcDbSpline
210
0.0
220
0.0
230
1.0
 70
     8
 71
     3
 72
    12
 73
     8
 74
     0
 42
0.00000001
 43
0.00000001
 40
0.0
 40
0.0
 40
0.0
 40
0.0
 40
0.5
 40
0.5
 40
0.75
 40
0.75
 40
1.0
 40
1.0
 40
1.0
 40
1.0
 10
280.5273101236339
 20
470.1566154228797
 30
0.0
 10
280.6312053639365
 20
455.5642609762272
 30
0.0
 10
280.6711807798804
 20
440.9719055801669
 30
0.0
 10
280.6352706459248
 20
419.0833710620576
 30
0.0
 10
280.6073208225014
 20
411.7871926519986
 30
0.0
 10
280.5194626616713
 20
397.1948353572081
 30
0.0
 10
280.4595116968524
 20
389.8986854347379
 30
0.0
 10
280.3836694836355
 20
382.6027173258198
 30
0.0
  0
SPLINE
  5
DF
330
1F
100
AcDbEntity
  8
0
  6
Continuous
 62
     8
370
    18
100
AcDbSpline
210
0.0
220
0.0
230
1.0
 70
     8
 71
     3
 72
     8
 73
     4
 74
     0
 42
0.00000001
 43
0.00000001
 40
0.0
 40
0.0
 40
0.0
 40
0.0
 40
1.0
 40
1.0
 40
1.0
 40
1.0
 10
130.5707333255741
 20
470.3025337570908
 30
0.0
 10
130.6094597471053
 20
475.7195331966772
 30
0.0
 10
130.657024222707
 20
481.1364548648944
 30
0.0
 10
130.7133327959652
 20
486.5533001796685
 30
0.0
  0
SPLINE
  5
E0
330
1F
100
AcDbEntity
  8
0
  6
Continuous
 62
     7
370
    25
100
AcDbSpline
210
0.0
220
0.0
230
1.0
 70
     8
 71
     3
 72
    13
 73
     9
 74
     0
 42
0.00000001
 43
0.00000001
 40
0.0
 40
0.0
 40
0.0
 40
0.0
 40
0.0227675841706505
 40
0.3067039171178267
 40
0.4780047487661662
 40
0.65297941736041
 40
0.8328312103234129
 40
1.0
 40
1.0
 40
1.0
 40
1.0
 10
230.0485011406165
 20
212.417895523128
 30
0.0
 10
230.426361187582
 20
212.4183938148692
 30
0.0
 10
235.5165436003492
 20
212.4251063421075
 30
0.0
 10
243.4496296890583
 20
212.4541977048171
 30
0.0
 10
253.9088389718535
 20
212.5164964680515
 30
0.0
 10
262.6398658418041
 20
212.5974667537089
 30
0.0
 10
271.2678001272363
 20
212.7080886879471
 30
0.0
 10
276.9365666452051
 20
212.8164191291226
 30
0.0
 10
279.66735808864
 20
212.8686047043951
 30
0.0
  0
SPLINE
  5
E1
330
1F
100
AcDbEntity
  8
0
  6
Continuous
 62
     7
370
    25
100
AcDbSpline
210
0.0
220
0.0
230
1.0
 70
     8
 71
     3
 72
    14
 73
    10
 74
     0
 42
0.00000001
 43
0.00000001
 40
0.0
 40
0.0
 40
0.0
 40
0.0
 40
0.0941223383937733
 40
0.2034926438387314
 40
0.3106667878137171
 40
0.4202134318460847
 40
0.5985422232608966
 40
0.7844348577915172
 40
1.0
 40
1.0
 40
1.0
 40
1.0
 10
131.48269123204
 20
212.8666986816019
 30
0.0
 10
132.9568022915068
 20
212.8375897400807
 30
0.0
 10
136.1438327236224
 20
212.7746561626688
 30
0.0
 10
141.2843550656159
 20
212.6928685022218
 30
0.0
 10
146.7110222228414
 20
212.6205265735787
 30
0.0
 10
153.2756797027437
 20
212.5503109119138
 30
0.0
 10
161.1523108214376
 20
212.4895867929939
 30
0.0
 10
170.7906387123782
 20
212.4416597977487
 30
0.0
 10
177.4647808197087
 20
212.42603365936
 30
0.0
 10
181.0485011406165
 20
212.4176431113644
 30
0.0
  0
LINE
  5
E2
330
1F
100
AcDbEntity
  8
0
  6
Continuous
 62
     7
370
    25
100
AcDbLine
 10
280.6539654574
 20
213.8402838104
 30
0.0
 11
280.8116284519
 21
219.8611906607
 31
0.0
  0
LINE
  5
E3
330
1F
100
AcDbEntity
  8
0
  6
Continuous
 62
     7
370
    25
100
AcDbLine
 10
130.2853738293
 20
219.8611906607
 30
0.0
 11
130.4430365768
 21
213.8402932453
 31
0.0
  0
ARC
  5
E4
330
1F
100
AcDbEntity
  8
0
  6
Continuous
 62
     7
370
    25
100
AcDbCircle
 10
279.654308455
 20
213.8664730761
 30
0.0
 40
0.9999999999999594
100
AcDbArc
 50
271.1039505565
 51
358.50546626
  0
LINE
  5
E5
330
1F
100
AcDbEntity
  8
0
  6
Continuous
 62
     7
370
    25
100
AcDbLine
 10
230.0485011406
 20
184.8611906607
 30
0.0
 11
230.0485011406
 21
212.4237434426
 31
0.0
  0
LINE
  5
E6
330
1F
100
AcDbEntity
  8
0
  6
Continuous
 62
     7
370
    25
100
AcDbLine
 10
181.0485011406
 20
212.4237384589
 30
0.0
 11
181.0485011406
 21
184.8611906607
 31
0.0
  0
ARC
  5
E7
330
1F
100
AcDbEntity
  8
0
  6
Continuous
 62
     7
370
    25
100
AcDbCircle
 10
205.5485011406
 20
184.8611906607
 30
0.0
 40
24.50000000000002
100
AcDbArc
 50
180.0
 51
204.8436839269
  0
ARC
  5
E8
330
1F
100
AcDbEntity
  8
0
  6
Continuous
 62
     7
370
    25
100
AcDbCircle
 10
205.5485011406
 20
184.8611906607
 30
0.0
 40
24.50000000000003
100
AcDbArc
 50
335.1611188874
 51
0.0
  0
ARC
  5
E9
330
1F
100
AcDbEntity
  8
0
  6
Continuous
 62
     7
370
    25
100
AcDbCircle
 10
131.4426938229
 20
213.8664732042
 30
0.0
 40
1.000000000000031
100
AcDbArc
 50
181.4711148148
 51
268.8569595249
  0
LINE
  5
EA
330
1F
100
AcDbEntity
  8
0
  6
Continuous
 62
     7
370
    25
100
AcDbLine
 10
230.0485011406
 20
146.1611906607
 30
0.0
 11
230.0485011406
 21
174.0933165031
 31
0.0
  0
ARC
  5
EB
330
1F
100
AcDbEntity
  8
0
  6
Continuous
 62
     7
370
    25
100
AcDbCircle
 10
229.0485011406
 20
146.1611906607
 30
0.0
 40
1.0
100
AcDbArc
 50
270.0
 51
360.0
  0
LINE
  5
EC
330
1F
100
AcDbEntity
  8
0
  6
Continuous
 62
     7
370
    25
100
AcDbLine
 10
181.0485011406
 20
174.1008203199
 30
0.0
 11
181.0485011406
 21
146.1611906607
 31
0.0
  0
ARC
  5
ED
330
1F
100
AcDbEntity
  8
0
  6
Continuous
 62
     7
370
    25
100
AcDbCircle
 10
182.0485011406
 20
146.1611906607
 30
0.0
 40
1.0
100
AcDbArc
 50
180.0
 51
270.0
  0
SPLINE
  5
EE
330
1F
100
AcDbEntity
  8
0
  6
Continuous
 62
     7
370
    25
100
AcDbSpline
210
0.0
220
0.0
230
1.0
 70
    24
 71
     3
 72
    18
 73
    14
 74
     0
 42
0.00000001
 43
0.00000001
 40
0.0
 40
0.0
 40
0.0
 40
0.0
 40
0.25
 40
0.25
 40
0.5
 40
0.5
 40
0.625
 40
0.625
 40
0.75
 40
0.75
 40
0.875
 40
0.875
 40
1.0
 40
1.0
 40
1.0
 40
1.0
 10
257.5254329600388
 20
219.8611906607171
 30
0.0
 10
259.097145434812
 20
219.8611906607198
 30
0.0
 10
260.671131898819
 20
219.8611906607158
 30
0.0
 10
263.8040163795126
 20
219.8611906607185
 30
0.0
 10
265.3498007341912
 20
219.8611906607165
 30
0.0
 10
267.6144381519131
 20
219.8611906607175
 30
0.0
 10
268.3606572733437
 20
219.8611906607165
 30
0.0
 10
269.8320785231239
 20
219.8611906607178
 30
0.0
 10
270.559987885324
 20
219.8611906607178
 30
0.0
 10
271.9522815433084
 20
219.8611906607165
 30
0.0
 10
272.6207019842523
 20
219.8611906607171
 30
0.0
 10
273.8938877541933
 20
219.8611906607171
 30
0.0
 10
274.5012967235018
 20
219.8611906607165
 30
0.0
 10
275.0594139674072
 20
219.8611906607171
 30
0.0
  0
SPLINE
  5
EF
330
1F
100
AcDbEntity
  8
0
  6
Continuous
 62
     7
370
    25
100
AcDbSpline
210
0.0
220
0.0
230
1.0
 70
    24
 71
     3
 72
    18
 73
    14
 74
     0
 42
0.00000001
 43
0.00000001
 40
0.0
 40
0.0
 40
0.0
 40
0.0
 40
0.25
 40
0.25
 40
0.5
 40
0.5
 40
0.625
 40
0.625
 40
0.75
 40
0.75
 40
0.875
 40
0.875
 40
1.0
 40
1.0
 40
1.0
 40
1.0
 10
153.5715693211946
 20
219.8611906607171
 30
0.0
 10
151.999856846426
 20
219.8611906607198
 30
0.0
 10
150.425870382409
 20
219.8611906607158
 30
0.0
 10
147.2929859017264
 20
219.8611906607185
 30
0.0
 10
145.7472015470476
 20
219.8611906607165
 30
0.0
 10
143.4825641293177
 20
219.8611906607175
 30
0.0
 10
142.7363450078952
 20
219.8611906607165
 30
0.0
 10
141.2649237581042
 20
219.8611906607178
 30
0.0
 10
140.5370143959094
 20
219.8611906607178
 30
0.0
 10
139.144720737925
 20
219.8611906607165
 30
0.0
 10
138.4763002969811
 20
219.8611906607171
 30
0.0
 10
137.2031145270401
 20
219.8611906607171
 30
0.0
 10
136.5957055577625
 20
219.8611906607165
 30
0.0
 10
136.0375883138262
 20
219.8611906607171
 30
0.0
  0
SPLINE
  5
F0
330
1F
100
AcDbEntity
  8
0
  6
Continuous
 62
     7
370
    18
100
AcDbSpline
210
0.0
220
0.0
230
1.0
 70
     8
 71
     3
 72
    20
 73
    16
 74
     0
 42
0.00000001
 43
0.00000001
 40
0.0
 40
0.0
 40
0.0
 40
0.0
 40
0.2499999999999991
 40
0.2499999999999991
 40
0.3749999999999988
 40
0.3749999999999988
 40
0.4999999999999984
 40
0.4999999999999984
 40
0.7499999999999978
 40
0.7499999999999978
 40
0.8124999999999991
 40
0.8124999999999991
 40
0.8750000000000004
 40
0.8750000000000004
 40
1.0
 40
1.0
 40
1.0
 40
1.0
 10
153.5833681658538
 20
212.8614126876635
 30
0.0
 10
152.0826374867796
 20
212.8614543642248
 30
0.0
 10
150.5845444703052
 20
212.861518277109
 30
0.0
 10
148.3471457307182
 20
212.861710112756
 30
0.0
 10
147.6009849949008
 20
212.8617857004444
 30
0.0
 10
146.1223265469443
 20
212.8619439147469
 30
0.0
 10
145.3919326702607
 20
212.8620224224765
 30
0.0
 10
143.2320965925034
 20
212.8622453286751
 30
0.0
 10
141.8330714199348
 20
212.862364332393
 30
0.0
 10
140.1608319475923
 20
212.8625359747816
 30
0.0
 10
139.8291170192813
 20
212.8625695790222
 30
0.0
 10
139.1837209460959
 20
212.8626331928056
 30
0.0
 10
138.869417781135
 20
212.8626625999914
 30
0.0
 10
137.9530947455635
 20
212.8627410176261
 30
0.0
 10
137.3778240390406
 20
212.8627780621681
 30
0.0
 10
136.8419407578236
 20
212.8627795168047
 30
0.0
  0
LINE
  5
F1
330
1F
100
AcDbEntity
  8
0
  6
Continuous
 62
     7
370
    25
100
AcDbLine
 10
257.52543296
 20
219.8611906607
 30
0.0
 11
153.5715693212
 21
219.8611906607
 31
0.0
  0
SPLINE
  5
F2
330
1F
100
AcDbEntity
  8
0
  6
Continuous
 62
     7
370
    25
100
AcDbSpline
210
0.0
220
0.0
230
1.0
 70
     8
 71
     3
 72
    17
 73
    13
 74
     0
 42
0.00000001
 43
0.00000001
 40
0.0
 40
0.0
 40
0.0
 40
0.0
 40
0.1058540694771188
 40
0.2147779132030389
 40
0.3206320687640564
 40
0.4295559512824941
 40
0.5354109688013358
 40
0.6443357838084278
 40
0.750190863900425
 40
0.8591157575650531
 40
0.9649706918669879
 40
1.0
 40
1.0
 40
1.0
 40
1.0
 10
205.5485011406165
 20
212.4704455775722
 30
0.0
 10
206.9063092422797
 20
212.4701586210929
 30
0.0
 10
209.6613019605186
 20
212.4695763863793
 30
0.0
 10
213.6595671302591
 20
212.4651387683341
 30
0.0
 10
217.4630700421948
 20
212.4588733480822
 30
0.0
 10
220.8953107097643
 20
212.4516605627136
 30
0.0
 10
223.9221527912375
 20
212.4445033207943
 30
0.0
 10
226.3988891032259
 20
212.4382360755041
 30
0.0
 10
228.3169879942395
 20
212.4330229985331
 30
0.0
 10
229.5242948643576
 20
212.4287670874151
 30
0.0
 10
230.0806603535337
 20
212.4258175480587
 30
0.0
 10
229.992296047718
 20
212.4241564550195
 30
0.0
 10
229.9703252407428
 20
212.4237434426137
 30
0.0
  0
SPLINE
  5
F3
330
1F
100
AcDbEntity
  8
0
  6
Continuous
 62
     7
370
    25
100
AcDbSpline
210
0.0
220
0.0
230
1.0
 70
     8
 71
     3
 72
    18
 73
    14
 74
     0
 42
0.00000001
 43
0.00000001
 40
0.0
 40
0.0
 40
0.0
 40
0.0
 40
0.0068435120561053
 40
0.1126877355523672
 40
0.2216014488816076
 40
0.3274456656731888
 40
0.4363593728900362
 40
0.542203585395816
 40
0.6511172750588488
 40
0.756961689586493
 40
0.8658756192295874
 40
0.9325655156028886
 40
1.0
 40
1.0
 40
1.0
 40
1.0
 10
181.069576922
 20
212.4237384588765
 30
0.0
 10
181.0626188715812
 20
212.4238196557434
 30
0.0
 10
180.9480451060741
 20
212.425156672614
 30
0.0
 10
181.3732109360664
 20
212.4277314915215
 30
0.0
 10
182.382472605118
 20
212.4318300118557
 30
0.0
 10
184.1406954899568
 20
212.4367753629757
 30
0.0
 10
186.4672468395771
 20
212.4427662350241
 30
0.0
 10
189.3647466027329
 20
212.4497650317102
 30
0.0
 10
192.6920578609653
 20
212.4570289979972
 30
0.0
 10
196.4162518470367
 20
212.4637032952732
 30
0.0
 10
199.8840012007724
 20
212.4679485581468
 30
0.0
 10
202.9644042404742
 20
212.4701045910971
 30
0.0
 10
204.6839534961929
 20
212.4703314955292
 30
0.0
 10
205.5485011406165
 20
212.4704455775722
 30
0.0
  0
SPLINE
  5
F4
330
1F
100
AcDbEntity
  8
0
  6
Continuous
 62
     7
370
    25
100
AcDbSpline
210
0.0
220
0.0
230
1.0
 70
     8
 71
     3
 72
     9
 73
     5
 74
     0
 42
0.00000001
 43
0.00000001
 40
0.0
 40
0.0
 40
0.0
 40
0.0
 40
0.5670930113749287
 40
1.0
 40
1.0
 40
1.0
 40
1.0
 10
131.5502647822814
 20
212.8641164645597
 30
0.0
 10
131.5022000901703
 20
212.865081592296
 30
0.0
 10
131.4174438136037
 20
212.8667834784361
 30
0.0
 10
131.4595485664192
 20
212.8659393523734
 30
0.0
 10
131.4777760081673
 20
212.8655739243015
 30
0.0
  0
SPLINE
  5
F5
330
1F
100
AcDbEntity
  8
0
  6
Continuous
 62
     7
370
    25
100
AcDbSpline
210
0.0
220
0.0
230
1.0
 70
     8
 71
     3
 72
    20
 73
    16
 74
     0
 42
0.00000001
 43
0.00000001
 40
0.0
 40
0.0
 40
0.0
 40
0.0
 40
0.1249999999999994
 40
0.1249999999999994
 40
0.1874999999999988
 40
0.1874999999999988
 40
0.2499999999999982
 40
0.2499999999999982
 40
0.5
 40
0.5
 40
0.625
 40
0.625
 40
0.75
 40
0.75
 40
1.0
 40
1.0
 40
1.0
 40
1.0
 10
136.8419407575395
 20
212.8627795168127
 30
0.0
 10
136.306320715344
 20
212.8627805562317
 30
0.0
 10
135.8229949989489
 20
212.8627456897923
 30
0.0
 10
135.1689269801979
 20
212.8626674111561
 30
0.0
 10
134.9626702264515
 20
212.862637663085
 30
0.0
 10
134.5724477831515
 20
212.862572822573
 30
0.0
 10
134.3882346175812
 20
212.8625383108754
 30
0.0
 10
133.5320368778245
 20
212.8623622257276
 30
0.0
 10
133.0363050447719
 20
212.8622438509846
 30
0.0
 10
132.4821218233547
 20
212.8620383421539
 30
0.0
 10
132.3296805152968
 20
212.8619670463005
 30
0.0
 10
132.080031368904
 20
212.8618188769804
 30
0.0
 10
131.9831757375851
 20
212.8617457429637
 30
0.0
 10
131.7625465702363
 20
212.8615509472151
 30
0.0
 10
131.7088204657147
 20
212.8614708254676
 30
0.0
 10
131.6931663902893
 20
212.8614222915648
 30
0.0
  0
SPLINE
  5
F6
330
1F
100
AcDbEntity
  8
0
  6
Continuous
 62
     7
370
    25
100
AcDbSpline
210
0.0
220
0.0
230
1.0
 70
     8
 71
     3
 72
    16
 73
    12
 74
     0
 42
0.00000001
 43
0.00000001
 40
0.0
 40
0.0
 40
0.0
 40
0.0
 40
0.2500000000000005
 40
0.2500000000000005
 40
0.500000000000001
 40
0.500000000000001
 40
0.7500000000000016
 40
0.7500000000000016
 40
0.8750000000000008
 40
0.8750000000000008
 40
1.0
 40
1.0
 40
1.0
 40
1.0
 10
279.4038370098509
 20
212.861418903753
 30
0.0
 10
279.3882071511169
 20
212.861461926936
 30
0.0
 10
279.3347952073912
 20
212.8615354998644
 30
0.0
 10
279.0405091203444
 20
212.8618139334756
 30
0.0
 10
278.8025286566176
 20
212.8619937368288
 30
0.0
 10
278.0544801922518
 20
212.8622892182334
 30
0.0
 10
277.5525415106193
 20
212.8624025388671
 30
0.0
 10
276.5365561774485
 20
212.8625916761683
 30
0.0
 10
276.1531237307394
 20
212.8626504309887
 30
0.0
 10
275.2760449193638
 20
212.8627435518806
 30
0.0
 10
274.7898404735598
 20
212.8627765849034
 30
0.0
 10
274.2550710538389
 20
212.8627762189759
 30
0.0
  0
SPLINE
  5
F7
330
1F
100
AcDbEntity
  8
0
  6
Continuous
 62
     7
370
    25
100
AcDbSpline
210
0.0
220
0.0
230
1.0
 70
     8
 71
     3
 72
     8
 73
     4
 74
     0
 42
0.00000001
 43
0.00000001
 40
0.0
 40
0.0
 40
0.0
 40
0.0
 40
1.0
 40
1.0
 40
1.0
 40
1.0
 10
279.5477793721557
 20
212.8641418882913
 30
0.0
 10
279.5088771847366
 20
212.8633666297621
 30
0.0
 10
279.4607432079092
 20
212.8612622623777
 30
0.0
 10
279.4038370098506
 20
212.861418903753
 30
0.0
  0
SPLINE
  5
F8
330
1F
100
AcDbEntity
  8
0
  6
Continuous
 62
     7
370
    25
100
AcDbSpline
210
0.0
220
0.0
230
1.0
 70
     8
 71
     3
 72
     9
 73
     5
 74
     0
 42
0.00000001
 43
0.00000001
 40
0.0
 40
0.0
 40
0.0
 40
0.0
 40
0.4321727800606384
 40
1.0
 40
1.0
 40
1.0
 40
1.0
 10
279.667395501928
 20
212.8665366069378
 30
0.0
 10
279.6641311270255
 20
212.8664729756207
 30
0.0
 10
279.6565777246524
 20
212.8663257397926
 30
0.0
 10
279.5871833735968
 20
212.8649328238683
 30
0.0
 10
279.5477793721574
 20
212.8641418882913
 30
0.0
  0
SPLINE
  5
F9
330
1F
100
AcDbEntity
  8
0
  6
Continuous
 62
     7
370
    25
100
AcDbSpline
210
0.0
220
0.0
230
1.0
 70
    24
 71
     3
 72
    18
 73
    14
 74
     0
 42
0.00000001
 43
0.00000001
 40
0.0
 40
0.0
 40
0.0
 40
0.0
 40
0.25
 40
0.25
 40
0.5
 40
0.5
 40
0.625
 40
0.625
 40
0.75
 40
0.75
 40
0.875
 40
0.875
 40
1.0
 40
1.0
 40
1.0
 40
1.0
 10
280.5414610087629
 20
219.8611906607171
 30
0.0
 10
280.525121570085
 20
219.8611906607198
 30
0.0
 10
280.4673208219039
 20
219.8611906607158
 30
0.0
 10
280.148313331134
 20
219.8611906607185
 30
0.0
 10
279.8906821988086
 20
219.8611906607165
 30
0.0
 10
279.2947079258612
 20
219.8611906607175
 30
0.0
 10
279.0609277298986
 20
219.8611906607165
 30
0.0
 10
278.5081295182595
 20
219.8611906607178
 30
0.0
 10
278.1870292418163
 20
219.8611906607178
 30
0.0
 10
277.4587882602913
 20
219.8611906607165
 30
0.0
 10
277.0503173603389
 20
219.8611906607171
 30
0.0
 10
276.1315544989527
 20
219.8611906607171
 30
0.0
 10
275.6175171302158
 20
219.8611906607165
 30
0.0
 10
275.0594139674217
 20
219.8611906607171
 30
0.0
  0
SPLINE
  5
FA
330
1F
100
AcDbEntity
  8
0
  6
Continuous
 62
     7
370
    25
100
AcDbSpline
210
0.0
220
0.0
230
1.0
 70
    24
 71
     3
 72
    18
 73
    14
 74
     0
 42
0.00000001
 43
0.00000001
 40
0.0
 40
0.0
 40
0.0
 40
0.0
 40
0.25
 40
0.25
 40
0.5
 40
0.5
 40
0.625
 40
0.625
 40
0.75
 40
0.75
 40
0.875
 40
0.875
 40
1.0
 40
1.0
 40
1.0
 40
1.0
 10
130.5555412724705
 20
219.8611906607171
 30
0.0
 10
130.5718807110718
 20
219.8611906607198
 30
0.0
 10
130.6296814593404
 20
219.8611906607158
 30
0.0
 10
130.9486889500884
 20
219.8611906607185
 30
0.0
 10
131.2063200824356
 20
219.8611906607165
 30
0.0
 10
131.8022943553667
 20
219.8611906607175
 30
0.0
 10
132.0360745513293
 20
219.8611906607165
 30
0.0
 10
132.5888727629793
 20
219.8611906607178
 30
0.0
 10
132.9099730394225
 20
219.8611906607178
 30
0.0
 10
133.6382140209366
 20
219.8611906607165
 30
0.0
 10
134.0466849209
 20
219.8611906607171
 30
0.0
 10
134.9654477822753
 20
219.8611906607171
 30
0.0
 10
135.4794851509964
 20
219.8611906607165
 30
0.0
 10
136.0375883138118
 20
219.8611906607171
 30
0.0
  0
SPLINE
  5
FB
330
1F
100
AcDbEntity
  8
0
  6
Continuous
 62
     7
370
    25
100
AcDbSpline
210
0.0
220
0.0
230
1.0
 70
    24
 71
     3
 72
    34
 73
    30
 74
     0
 42
0.00000001
 43
0.00000001
 40
0.0
 40
0.0
 40
0.0
 40
0.0
 40
0.1250000000000003
 40
0.1250000000000003
 40
0.2500000000000007
 40
0.2500000000000007
 40
0.3125000000000006
 40
0.3125000000000006
 40
0.3750000000000006
 40
0.3750000000000006
 40
0.4062500000000008
 40
0.4062500000000008
 40
0.4375000000000012
 40
0.4375000000000012
 40
0.5000000000000016
 40
0.5000000000000016
 40
0.5312500000000013
 40
0.5312500000000013
 40
0.562500000000001
 40
0.562500000000001
 40
0.6250000000000009
 40
0.6250000000000009
 40
0.6875000000000007
 40
0.6875000000000007
 40
0.7500000000000006
 40
0.7500000000000006
 40
0.8750000000000003
 40
0.8750000000000003
 40
1.0
 40
1.0
 40
1.0
 40
1.0
 10
229.0407293499709
 20
145.1611906607148
 30
0.0
 10
229.0388292933505
 20
145.1611906607148
 30
0.0
 10
229.033968322444
 20
145.1611906607148
 30
0.0
 10
228.9059170618792
 20
145.1611906607149
 30
0.0
 10
228.78517733101
 20
145.1611906607148
 30
0.0
 10
228.4592013669081
 20
145.1611906607149
 30
0.0
 10
228.3253675821162
 20
145.1611906607149
 30
0.0
 10
228.0012033849844
 20
145.161190660715
 30
0.0
 10
227.8113201099473
 20
145.161190660715
 30
0.0
 10
227.4753725887276
 20
145.161190660715
 30
0.0
 10
227.3548297589471
 20
145.1611906607151
 30
0.0
 10
227.0944532759706
 20
145.1611906607151
 30
0.0
 10
226.9539212435499
 20
145.1611906607151
 30
0.0
 10
226.5080640468616
 20
145.1611906607152
 30
0.0
 10
226.1770259216104
 20
145.1611906607152
 30
0.0
 10
225.6267777451741
 20
145.1611906607153
 30
0.0
 10
225.4344447312877
 20
145.1611906607153
 30
0.0
 10
225.0319993802986
 20
145.1611906607153
 30
0.0
 10
224.8209202364692
 20
145.1611906607154
 30
0.0
 10
224.1684816018513
 20
145.1611906607155
 30
0.0
 10
223.7135873575755
 20
145.1611906607156
 30
0.0
 10
222.7721624678701
 20
145.1611906607158
 30
0.0
 10
222.2856016806802
 20
145.1611906607158
 30
0.0
 10
221.286251124762
 20
145.1611906607159
 30
0.0
 10
220.7771524989826
 20
145.161190660716
 30
0.0
 10
219.2473259109363
 20
145.1611906607163
 30
0.0
 10
218.2148465055236
 20
145.1611906607165
 30
0.0
 10
216.1348347258871
 20
145.1611906607168
 30
0.0
 10
215.0869142617352
 20
145.1611906607169
 30
0.0
 10
214.0407542692578
 20
145.1611906607171
 30
0.0
  0
SPLINE
  5
FC
330
1F
100
AcDbEntity
  8
0
  6
Continuous
 62
     7
370
    25
100
AcDbSpline
210
0.0
220
0.0
230
1.0
 70
    24
 71
     3
 72
    34
 73
    30
 74
     0
 42
0.00000001
 43
0.00000001
 40
0.0
 40
0.0
 40
0.0
 40
0.0
 40
0.1249999999999998
 40
0.1249999999999998
 40
0.2499999999999995
 40
0.2499999999999995
 40
0.3124999999999995
 40
0.3124999999999995
 40
0.3749999999999994
 40
0.3749999999999994
 40
0.4374999999999994
 40
0.4374999999999994
 40
0.4687499999999993
 40
0.4687499999999993
 40
0.4999999999999991
 40
0.4999999999999991
 40
0.562499999999999
 40
0.562499999999999
 40
0.5937499999999989
 40
0.5937499999999989
 40
0.6249999999999989
 40
0.6249999999999989
 40
0.6874999999999993
 40
0.6874999999999993
 40
0.7499999999999997
 40
0.7499999999999997
 40
0.8749999999999998
 40
0.8749999999999998
 40
1.0
 40
1.0
 40
1.0
 40
1.0
 10
197.0562480119462
 20
145.1611906607197
 30
0.0
 10
196.0100880194688
 20
145.1611906607199
 30
0.0
 10
194.9621675553167
 20
145.1611906607201
 30
0.0
 10
192.8821557756804
 20
145.1611906607205
 30
0.0
 10
191.8496763702677
 20
145.1611906607206
 30
0.0
 10
190.3198497822216
 20
145.1611906607209
 30
0.0
 10
189.8107511564423
 20
145.1611906607209
 30
0.0
 10
188.8114006005244
 20
145.1611906607211
 30
0.0
 10
188.3248398133345
 20
145.1611906607211
 30
0.0
 10
187.3834149236296
 20
145.1611906607213
 30
0.0
 10
186.9285206793539
 20
145.1611906607214
 30
0.0
 10
186.2760820447365
 20
145.1611906607215
 30
0.0
 10
186.0650029009073
 20
145.1611906607215
 30
0.0
 10
185.6625575499185
 20
145.1611906607216
 30
0.0
 10
185.4702245360322
 20
145.1611906607216
 30
0.0
 10
184.9199763595965
 20
145.1611906607217
 30
0.0
 10
184.5889382343456
 20
145.1611906607217
 30
0.0
 10
184.1430810376579
 20
145.1611906607218
 30
0.0
 10
184.0025490052375
 20
145.1611906607218
 30
0.0
 10
183.7421725222614
 20
145.1611906607218
 30
0.0
 10
183.621629692481
 20
145.1611906607219
 30
0.0
 10
183.285682171262
 20
145.1611906607219
 30
0.0
 10
183.0957988962255
 20
145.161190660722
 30
0.0
 10
182.7716346990945
 20
145.161190660722
 30
0.0
 10
182.6378009143031
 20
145.1611906607221
 30
0.0
 10
182.3118249502027
 20
145.1611906607222
 30
0.0
 10
182.1910852193344
 20
145.1611906607222
 30
0.0
 10
182.0630339587715
 20
145.1611906607222
 30
0.0
 10
182.0581729878661
 20
145.1611906607221
 30
0.0
 10
182.0562729312467
 20
145.1611906607221
 30
0.0
  0
LWPOLYLINE
  5
FD
330
1F
100
AcDbEntity
  8
0
  6
Continuous
 62
     7
370
    25
100
AcDbPolyline
 90
       23
 70
   128
 43
0.0
 10
226.2276257686
 20
173.0504323882
 10
225.1369133073
 20
172.3347427986
 10
223.8351807005
 20
171.661575006
 10
222.3364511269
 20
171.0381808472
 10
220.656869955
 20
170.4712759622
 10
218.8145308138
 20
169.966967449
 10
216.8292806756
 20
169.5306880734
 10
214.7225060505
 20
169.1671377435
 10
212.5169025956
 20
168.880232879
 10
210.2362306218
 20
168.6730642208
 10
207.9050591308
 20
168.5478635353
 10
205.5485011406
 20
168.5059795723
 10
203.1919431504
 20
168.5478635353
 10
200.8607716594
 20
168.6730642208
 10
198.5800996856
 20
168.880232879
 10
196.3744962308
 20
169.1671377435
 10
194.2677216056
 20
169.5306880734
 10
192.2824714674
 20
169.966967449
 10
190.4401323262
 20
170.4712759622
 10
188.7605511543
 20
171.0381808472
 10
187.2618215807
 20
171.661575006
 10
185.9600889739
 20
172.3347427986
 10
184.8693765126
 20
173.0504323882
  0
SPLINE
  5
FE
330
1F
100
AcDbEntity
  8
0
  6
Continuous
 62
     7
370
    25
100
AcDbSpline
210
0.0
220
0.0
230
1.0
 70
     8
 71
     3
 72
    10
 73
     6
 74
     0
 42
0.00000001
 43
0.00000001
 40
0.0
 40
0.0
 40
0.0
 40
0.0
 40
0.2713250843833016
 40
0.7105136173770541
 40
1.0
 40
1.0
 40
1.0
 40
1.0
 10
183.3456566344728
 20
174.5815586178927
 30
0.0
 10
183.3896675016352
 20
174.4832076399457
 30
0.0
 10
183.5049178866209
 20
174.2256578845572
 30
0.0
 10
184.0569367594905
 20
173.6846816847253
 30
0.0
 10
184.6383814378085
 20
173.2307638689491
 30
0.0
 10
184.8693765125863
 20
173.0504323882285
 30
0.0
  0
SPLINE
  5
FF
330
1F
100
AcDbEntity
  8
0
  6
Continuous
 62
     7
370
    25
100
AcDbSpline
210
0.0
220
0.0
230
1.0
 70
     8
 71
     3
 72
    10
 73
     6
 74
     0
 42
0.00000001
 43
0.00000001
 40
0.0
 40
0.0
 40
0.0
 40
0.0
 40
0.4274933415099611
 40
0.8667053568853657
 40
1.0
 40
1.0
 40
1.0
 40
1.0
 10
226.2276257686378
 20
173.050432388222
 30
0.0
 10
226.5562269750842
 20
173.3126150966723
 30
0.0
 10
227.2224371782658
 20
173.8441676048211
 30
0.0
 10
227.6990152212633
 20
174.355703320571
 30
0.0
 10
227.7441143738697
 20
174.5403440057822
 30
0.0
 10
227.7546146455474
 20
174.5833332249898
 30
0.0
  0
LINE
  5
100
330
1F
100
AcDbEntity
  8
0
  6
Continuous
 62
     7
370
    25
100
AcDbLine
 10
214.0407542693
 20
145.1611906607
 30
0.0
 11
197.0562480119
 21
145.1611906607
 31
0.0
  0
SPLINE
  5
101
330
1F
100
AcDbEntity
  8
0
  6
Continuous
 62
     7
370
    25
100
AcDbSpline
210
0.0
220
0.0
230
1.0
 70
     8
 71
     3
 72
    10
 73
     6
 74
     0
 42
0.00000001
 43
0.00000001
 40
0.0
 40
0.0
 40
0.0
 40
0.0
 40
0.4775932960632548
 40
0.955186586493401
 40
0.9999999999999999
 40
0.9999999999999999
 40
0.9999999999999999
 40
0.9999999999999999
 10
230.0444304584342
 20
174.6611906607146
 30
0.0
 10
230.0455149297567
 20
174.6315282612111
 30
0.0
 10
230.0476838723889
 20
174.5722034625542
 30
0.0
 10
230.0487490642249
 20
174.3487301679342
 30
0.0
 10
230.0484478977028
 20
174.1134955443952
 30
0.0
 10
230.0484220628508
 20
174.0933165030922
 30
0.0
  0
SPLINE
  5
102
330
1F
100
AcDbEntity
  8
0
  6
Continuous
 62
     7
370
    25
100
AcDbSpline
210
0.0
220
0.0
230
1.0
 70
     8
 71
     3
 72
    10
 73
     6
 74
     0
 42
0.00000001
 43
0.00000001
 40
0.0
 40
0.0
 40
0.0
 40
0.0
 40
0.0148080204895727
 40
0.5054681484304562
 40
1.0
 40
1.0
 40
1.0
 40
1.0
 10
181.0485280917742
 20
174.1008203198998
 30
0.0
 10
181.0485191595255
 20
174.1075453210742
 30
0.0
 10
181.0482142594066
 20
174.3371015871708
 30
0.0
 10
181.0492349317466
 20
174.5658082574577
 30
0.0
 10
181.051456615443
 20
174.6293133363845
 30
0.0
 10
181.0525718228085
 20
174.6611906607223
 30
0.0
  0
ARC
  5
103
330
1F
100
AcDbEntity
  8
0
  6
Continuous
 62
     7
370
    25
100
AcDbCircle
 10
229.5444306759
 20
174.6611908782
 30
0.0
 40
0.4999997825109024
100
AcDbArc
 50
359.9999750776
 51
89.9999750776
  0
ARC
  5
104
330
1F
100
AcDbEntity
  8
0
  6
Continuous
 62
     7
370
    25
100
AcDbCircle
 10
181.5525716053
 20
174.6611908782
 30
0.0
 40
0.4999997825121245
100
AcDbArc
 50
90.0000249225
 51
180.0000249223
  0
LINE
  5
105
330
1F
100
AcDbEntity
  8
0
  6
Continuous
 62
     7
370
    25
100
AcDbLine
 10
228.0465010517
 20
175.1611906607
 30
0.0
 11
229.5444308934
 21
175.1611906607
 31
0.0
  0
LINE
  5
106
330
1F
100
AcDbEntity
  8
0
  6
Continuous
 62
     7
370
    25
100
AcDbLine
 10
181.5525713878
 20
175.1611906607
 30
0.0
 11
183.0505012295
 21
175.1611906607
 31
0.0
  0
SPLINE
  5
107
330
1F
100
AcDbEntity
  8
0
  6
Continuous
 62
     8
370
    18
100
AcDbSpline
210
0.0
220
0.0
230
1.0
 70
     8
 71
     3
 72
    20
 73
    16
 74
     0
 42
0.00000001
 43
0.00000001
 40
0.0
 40
0.0
 40
0.0
 40
0.0
 40
0.2499999999999996
 40
0.2499999999999996
 40
0.3750000000000001
 40
0.3750000000000001
 40
0.5000000000000006
 40
0.5000000000000006
 40
0.7499999999999999
 40
0.7499999999999999
 40
0.8124999999999996
 40
0.8124999999999996
 40
0.8749999999999991
 40
0.8749999999999991
 40
1.0
 40
1.0
 40
1.0
 40
1.0
 10
257.5237925750591
 20
213.835077456425
 30
0.0
 10
259.0882499303324
 20
213.8351601490506
 30
0.0
 10
260.6498866923704
 20
213.8352362396603
 30
0.0
 10
262.981995501824
 20
213.8353746012735
 30
0.0
 10
263.7600600278856
 20
213.8354257835973
 30
0.0
 10
265.2984794877481
 20
213.8355409998147
 30
0.0
 10
266.0582449371243
 20
213.8356027257285
 30
0.0
 10
268.3046531366282
 20
213.8358059622489
 30
0.0
 10
269.759254413902
 20
213.8359582022597
 30
0.0
 10
271.498083937991
 20
213.8361518457882
 30
0.0
 10
271.8427352588416
 20
213.8361897381834
 30
0.0
 10
272.5126890984127
 20
213.8362583263864
 30
0.0
 10
272.8390550953781
 20
213.836288974367
 30
0.0
 10
273.7910386425264
 20
213.8363686179523
 30
0.0
 10
274.3893714862949
 20
213.836401326012
 30
0.0
 10
274.9478589134201
 20
213.8364013465556
 30
0.0
  0
SPLINE
  5
108
330
1F
100
AcDbEntity
  8
0
  6
Continuous
 62
     8
370
    18
100
AcDbSpline
210
0.0
220
0.0
230
1.0
 70
     8
 71
     3
 72
    24
 73
    20
 74
     0
 42
0.00000001
 43
0.00000001
 40
0.0
 40
0.0
 40
0.0
 40
0.0
 40
0.0312500000000008
 40
0.0312500000000008
 40
0.0625000000000017
 40
0.0625000000000017
 40
0.1250000000000016
 40
0.1250000000000016
 40
0.1875000000000016
 40
0.1875000000000016
 40
0.2500000000000015
 40
0.2500000000000015
 40
0.5000000000000013
 40
0.5000000000000013
 40
0.6250000000000013
 40
0.6250000000000013
 40
0.7500000000000012
 40
0.7500000000000012
 40
1.0
 40
1.0
 40
1.0
 40
1.0
 10
136.149143311677
 20
213.8364043783314
 30
0.0
 10
136.2873716242543
 20
213.8364039408635
 30
0.0
 10
136.43086637586
 20
213.8364002012893
 30
0.0
 10
136.719971102365
 20
213.8363895308062
 30
0.0
 10
136.8669482948402
 20
213.8363826036492
 30
0.0
 10
137.314941799513
 20
213.8363592964969
 30
0.0
 10
137.6229921214099
 20
213.8363413369659
 30
0.0
 10
138.2575066922545
 20
213.8362899251411
 30
0.0
 10
138.5837977055446
 20
213.8362610764025
 30
0.0
 10
139.2535930705236
 20
213.8361983074097
 30
0.0
 10
139.5981644664716
 20
213.836164482862
 30
0.0
 10
141.3367867274352
 20
213.8359952785021
 30
0.0
 10
142.7915529064044
 20
213.8358750598283
 30
0.0
 10
145.0386199138416
 20
213.8356542821487
 30
0.0
 10
145.7986735201275
 20
213.835576570768
 30
0.0
 10
147.3377950316015
 20
213.8354196890387
 30
0.0
 10
148.1156296725318
 20
213.8353436738306
 30
0.0
 10
150.4473522579198
 20
213.8351523716675
 30
0.0
 10
152.0088465495616
 20
213.8350844377753
 30
0.0
 10
153.5732097158704
 20
213.8350408559298
 30
0.0
  0
SPLINE
  5
109
330
1F
100
AcDbEntity
  8
0
  6
Continuous
 62
     8
370
    18
100
AcDbSpline
210
0.0
220
0.0
230
1.0
 70
     8
 71
     3
 72
    14
 73
    10
 74
     0
 42
0.00000001
 43
0.00000001
 40
0.0
 40
0.0
 40
0.0
 40
0.0
 40
0.2499999999999999
 40
0.2499999999999999
 40
0.4999999999999999
 40
0.4999999999999999
 40
0.7499999999999999
 40
0.7499999999999999
 40
1.0
 40
1.0
 40
1.0
 40
1.0
 10
153.5732097158704
 20
213.8350408559297
 30
0.0
 10
162.2355435363859
 20
213.8347968460249
 30
0.0
 10
170.8981366434669
 20
213.8380151730747
 30
0.0
 10
188.2233208231698
 20
213.839824234652
 30
0.0
 10
196.8859124152462
 20
213.8402973435611
 30
0.0
 10
214.2110946038155
 20
213.8402721566715
 30
0.0
 10
222.8736852003236
 20
213.8397963259131
 30
0.0
 10
240.198865397811
 20
213.8380114110001
 30
0.0
 10
248.8614586749326
 20
213.8346144972406
 30
0.0
 10
257.5237925750568
 20
213.8350774564252
 30
0.0
  0
SPLINE
  5
10A
330
1F
100
AcDbEntity
  8
0
  6
Continuous
 62
     8
370
    18
100
AcDbSpline
210
0.0
220
0.0
230
1.0
 70
     8
 71
     3
 72
    14
 73
    10
 74
     0
 42
0.00000001
 43
0.00000001
 40
0.0
 40
0.0
 40
0.0
 40
0.0
 40
0.2500000000000001
 40
0.2500000000000001
 40
0.5000000000000001
 40
0.5000000000000001
 40
0.75
 40
0.75
 40
1.0
 40
1.0
 40
1.0
 40
1.0
 10
257.513659894775
 20
212.8614502613183
 30
0.0
 10
248.8530730887399
 20
212.8609909370709
 30
0.0
 10
240.1922389723803
 20
212.8643880429173
 30
0.0
 10
222.870492821297
 20
212.8661760165103
 30
0.0
 10
214.2095776851529
 20
212.8666517345321
 30
0.0
 10
196.8876636234823
 20
212.8666770000805
 30
0.0
 10
188.2266127413789
 20
212.8662040591433
 30
0.0
 10
170.904763936653
 20
212.864391367539
 30
0.0
 10
162.243954999014
 20
212.8611721761241
 30
0.0
 10
153.5833681658538
 20
212.8614126876635
 30
0.0
  0
SPLINE
  5
10B
330
1F
100
AcDbEntity
  8
0
  6
Continuous
 62
     8
370
    18
100
AcDbSpline
210
0.0
220
0.0
230
1.0
 70
     8
 71
     3
 72
     8
 73
     4
 74
     0
 42
0.00000001
 43
0.00000001
 40
0.0
 40
0.0
 40
0.0
 40
0.0
 40
1.0
 40
1.0
 40
1.0
 40
1.0
 10
131.6931663902894
 20
212.8614222915648
 30
0.0
 10
131.6367036178767
 20
212.8612472345714
 30
0.0
 10
131.5889819782105
 20
212.8633425826873
 30
0.0
 10
131.5502647822818
 20
212.8641164645597
 30
0.0
  0
LINE
  5
10C
330
1F
100
AcDbEntity
  8
0
  6
Continuous
 62
     8
370
    18
100
AcDbLine
 10
280.383669396
 20
213.8350464641
 30
0.0
 11
280.5414610088
 21
219.8611906607
 31
0.0
  0
SPLINE
  5
10D
330
1F
100
AcDbEntity
  8
0
  6
Continuous
 62
     8
370
    18
100
AcDbSpline
210
0.0
220
0.0
230
1.0
 70
     8
 71
     3
 72
    16
 73
    12
 74
     0
 42
0.00000001
 43
0.00000001
 40
0.0
 40
0.0
 40
0.0
 40
0.0
 40
0.1249999999999988
 40
0.1249999999999988
 40
0.2499999999999977
 40
0.2499999999999977
 40
0.4999999999999984
 40
0.4999999999999984
 40
0.7499999999999992
 40
0.7499999999999992
 40
1.0
 40
1.0
 40
1.0
 40
1.0
 10
274.9478560989531
 20
213.8364013465627
 30
0.0
 10
275.5032675497255
 20
213.8364009241873
 30
0.0
 10
276.0126781395387
 20
213.8363687073336
 30
0.0
 10
276.9329128057239
 20
213.8362760028095
 30
0.0
 10
277.3366736133642
 20
213.8362169599528
 30
0.0
 10
278.409091315342
 20
213.8360303127821
 30
0.0
 10
278.9415616942068
 20
213.8359156797914
 30
0.0
 10
279.7391911668448
 20
213.8356236574698
 30
0.0
 10
279.9942011171577
 20
213.8354458021487
 30
0.0
 10
280.3101810363674
 20
213.8351691198335
 30
0.0
 10
280.3674064352343
 20
213.8350913791789
 30
0.0
 10
280.3836693959553
 20
213.8350464641133
 30
0.0
  0
SPLINE
  5
10E
330
1F
100
AcDbEntity
  8
0
  6
Continuous
 62
     8
370
    18
100
AcDbSpline
210
0.0
220
0.0
230
1.0
 70
     8
 71
     3
 72
    20
 73
    16
 74
     0
 42
0.00000001
 43
0.00000001
 40
0.0
 40
0.0
 40
0.0
 40
0.0
 40
0.2500000000000009
 40
0.2500000000000009
 40
0.3750000000000021
 40
0.3750000000000021
 40
0.5000000000000032
 40
0.5000000000000032
 40
0.7500000000000049
 40
0.7500000000000049
 40
0.8125000000000038
 40
0.8125000000000038
 40
0.8750000000000027
 40
0.8750000000000027
 40
1.0
 40
1.0
 40
1.0
 40
1.0
 10
130.7133327959655
 20
213.8350498749006
 30
0.0
 10
130.729594638931
 20
213.835100803997
 30
0.0
 10
130.7868690555405
 20
213.8351854192671
 30
0.0
 10
131.0231660961618
 20
213.8353797524642
 30
0.0
 10
131.1268908436896
 20
213.835453225808
 30
0.0
 10
131.3936506856731
 20
213.835600428353
 30
0.0
 10
131.5563452615716
 20
213.8356713425691
 30
0.0
 10
132.1464771985039
 20
213.8358762968974
 30
0.0
 10
132.6733497237806
 20
213.8359970489538
 30
0.0
 10
133.5781583263942
 20
213.8361699284656
 30
0.0
 10
133.7724020060627
 20
213.836204415164
 30
0.0
 10
134.1827854341663
 20
213.836267879661
 30
0.0
 10
134.3994101803723
 20
213.8362967754897
 30
0.0
 10
135.08528540221
 20
213.8363728463186
 30
0.0
 10
135.5907631052358
 20
213.8364057000953
 30
0.0
 10
136.1491461261438
 20
213.8364043782708
 30
0.0
  0
LINE
  5
10F
330
1F
100
AcDbEntity
  8
0
  6
Continuous
 62
     8
370
    18
100
AcDbLine
 10
130.713332796
 20
213.8350498749
 30
0.0
 11
130.5555412725
 21
219.8611906607
 31
0.0
  0
ARC
  5
110
330
1F
100
AcDbEntity
  8
0
  6
Continuous
 62
     8
370
    18
100
AcDbCircle
 10
131.7129638164
 20
213.8611992819
 30
0.0
 40
0.9999729838859441
100
AcDbArc
 50
181.4984619513
 51
268.8655862776
  0
ARC
  5
111
330
1F
100
AcDbEntity
  8
0
  6
Continuous
 62
     8
370
    18
100
AcDbCircle
 10
279.3840384227
 20
213.8611958227
 30
0.0
 40
0.9999729354466325
100
AcDbArc
 50
271.1344803143
 51
358.501540754
  0
SPLINE
  5
112
330
1F
100
AcDbEntity
  8
0
  6
Continuous
 62
     8
370
    18
100
AcDbSpline
210
0.0
220
0.0
230
1.0
 70
     8
 71
     3
 72
     9
 73
     5
 74
     0
 42
0.00000001
 43
0.00000001
 40
0.0
 40
0.0
 40
0.0
 40
0.0
 40
0.9978890321471402
 40
1.0
 40
1.0
 40
1.0
 40
1.0
 10
280.5273101236339
 20
213.837762889173
 30
0.0
 10
280.6114813166512
 20
213.8394471467517
 30
0.0
 10
280.6958305682272
 20
213.8411349672653
 30
0.0
 10
280.653788278405
 20
213.8402925522911
 30
0.0
 10
280.6536995284828
 20
213.8402907739801
 30
0.0
  0
SPLINE
  5
113
330
1F
100
AcDbEntity
  8
0
  6
Continuous
 62
     8
370
    18
100
AcDbSpline
210
0.0
220
0.0
230
1.0
 70
     8
 71
     3
 72
     8
 73
     4
 74
     0
 42
0.00000001
 43
0.00000001
 40
0.0
 40
0.0
 40
0.0
 40
0.0
 40
1.0
 40
1.0
 40
1.0
 40
1.0
 10
280.3836693959552
 20
213.8350464641133
 30
0.0
 10
280.4404841238531
 20
213.8348878075068
 30
0.0
 10
280.4883956359902
 20
213.8369875395917
 30
0.0
 10
280.5273101236336
 20
213.837762889173
 30
0.0
  0
SPLINE
  5
114
330
1F
100
AcDbEntity
  8
0
  6
Continuous
 62
     8
370
    18
100
AcDbSpline
210
0.0
220
0.0
230
1.0
 70
     8
 71
     3
 72
     8
 73
     4
 74
     0
 42
0.00000001
 43
0.00000001
 40
0.0
 40
0.0
 40
0.0
 40
0.0
 40
1.0
 40
1.0
 40
1.0
 40
1.0
 10
130.5707333255741
 20
213.837737483803
 30
0.0
 10
130.6094597471053
 20
213.8369635719728
 30
0.0
 10
130.657024222707
 20
213.8348715649326
 30
0.0
 10
130.7133327959652
 20
213.8350498749005
 30
0.0
  0
SPLINE
  5
115
330
1F
100
AcDbEntity
  8
0
  6
Continuous
 62
     8
370
    18
100
AcDbSpline
210
0.0
220
0.0
230
1.0
 70
     8
 71
     3
 72
     9
 73
     5
 74
     0
 42
0.00000001
 43
0.00000001
 40
0.0
 40
0.0
 40
0.0
 40
0.0
 40
0.0005121610423343
 40
1.0
 40
1.0
 40
1.0
 40
1.0
 10
130.4431018287739
 20
213.8402949539468
 30
0.0
 10
130.4430800518007
 20
213.8402953893959
 30
0.0
 10
130.4005602747902
 20
213.8411456085753
 30
0.0
 10
130.4856685947651
 20
213.8394411097001
 30
0.0
 10
130.5707333255741
 20
213.837737483803
 30
0.0
  0
ARC
  5
116
330
1F
100
AcDbEntity
  8
0
  6
Continuous
 62
     8
370
    18
100
AcDbCircle
 10
131.5703768428
 20
213.8639000134
 30
0.0
 40
0.9999858196064785
100
AcDbArc
 50
181.499194847
 51
268.847569773
  0
SPLINE
  5
117
330
1F
100
AcDbEntity
  8
0
  6
Continuous
 62
     8
370
    18
100
AcDbSpline
210
0.0
220
0.0
230
1.0
 70
     8
 71
     3
 72
    36
 73
    32
 74
     0
 42
0.00000001
 43
0.00000001
 40
0.0
 40
0.0
 40
0.0
 40
0.0
 40
0.0156249999999998
 40
0.0156249999999998
 40
0.0312499999999996
 40
0.0312499999999996
 40
0.0624999999999995
 40
0.0624999999999995
 40
0.1249999999999988
 40
0.1249999999999988
 40
0.2499999999999979
 40
0.2499999999999979
 40
0.3124999999999975
 40
0.3124999999999975
 40
0.3437499999999972
 40
0.3437499999999972
 40
0.3749999999999969
 40
0.3749999999999969
 40
0.4999999999999973
 40
0.4999999999999973
 40
0.6249999999999978
 40
0.6249999999999978
 40
0.6562499999999978
 40
0.6562499999999978
 40
0.6874999999999979
 40
0.6874999999999979
 40
0.7499999999999982
 40
0.7499999999999982
 40
0.8749999999999991
 40
0.8749999999999991
 40
1.0
 40
1.0
 40
1.0
 40
1.0
 10
230.0407276886885
 20
171.5250714331769
 30
0.0
 10
230.0404871388655
 20
171.4770444515654
 30
0.0
 10
230.0402356010862
 20
171.4281721783191
 30
0.0
 10
230.039435335456
 20
171.3314602396069
 30
0.0
 10
230.0388842724796
 20
171.2831678578998
 30
0.0
 10
230.0363734285456
 20
171.138489034584
 30
0.0
 10
230.033545725509
 20
171.0423012494316
 30
0.0
 10
230.0187275017575
 20
170.7545743665182
 30
0.0
 10
230.0002801915551
 20
170.5638704483244
 30
0.0
 10
229.9014835297116
 20
169.9953518511483
 30
0.0
 10
229.7779447728422
 20
169.6210217371724
 30
0.0
 10
229.452130431091
 20
169.0685932302323
 30
0.0
 10
229.320191848487
 20
168.8859826032652
 30
0.0
 10
229.078237320381
 20
168.6148967245933
 30
0.0
 10
228.9902129504255
 20
168.5250088426834
 30
0.0
 10
228.7973312955131
 20
168.3463025751485
 30
0.0
 10
228.6919565771693
 20
168.2571008540713
 30
0.0
 10
228.1237221933713
 20
167.8196606514427
 30
0.0
 10
227.5414139641445
 20
167.4979524199658
 30
0.0
 10
226.0146282617183
 20
166.9275358009572
 30
0.0
 10
225.1174414500217
 20
166.6974271527941
 30
0.0
 10
223.8582854362884
 20
166.4667406605044
 30
0.0
 10
223.5989275950101
 20
166.4233964893473
 30
0.0
 10
223.0760602018335
 20
166.3434738884953
 30
0.0
 10
222.8115206382285
 20
166.3066873761721
 30
0.0
 10
222.009560201048
 20
166.2049121374841
 30
0.0
 10
221.4638377027522
 20
166.1484710612983
 30
0.0
 10
219.7991642825396
 20
166.0078234042514
 30
0.0
 10
218.6479027681355
 20
165.9527223487229
 30
0.0
 10
216.3487259659421
 20
165.8954870903495
 30
0.0
 10
215.1945248510969
 20
165.8938161520901
 30
0.0
 10
214.0407542692606
 20
165.8938161520903
 30
0.0
  0
SPLINE
  5
118
330
1F
100
AcDbEntity
  8
0
  6
Continuous
 62
     8
370
    18
100
AcDbSpline
210
0.0
220
0.0
230
1.0
 70
     8
 71
     3
 72
    28
 73
    24
 74
     0
 42
0.00000001
 43
0.00000001
 40
0.0
 40
0.0
 40
0.0
 40
0.0
 40
0.1250000000000004
 40
0.1250000000000004
 40
0.1875000000000006
 40
0.1875000000000006
 40
0.2500000000000008
 40
0.2500000000000008
 40
0.3125000000000011
 40
0.3125000000000011
 40
0.3437500000000011
 40
0.3437500000000011
 40
0.375000000000001
 40
0.375000000000001
 40
0.5000000000000008
 40
0.5000000000000008
 40
0.6250000000000007
 40
0.6250000000000007
 40
0.7500000000000004
 40
0.7500000000000004
 40
0.8750000000000002
 40
0.8750000000000002
 40
1.0
 40
1.0
 40
1.0
 40
1.0
 10
214.0407542692609
 20
166.3636624624833
 30
0.0
 10
215.1536942568941
 20
166.3636624624831
 30
0.0
 10
216.266412345062
 20
166.364969161514
 30
0.0
 10
217.9289996935753
 20
166.4051455893361
 30
0.0
 10
218.4821609467596
 20
166.4246297650833
 30
0.0
 10
219.5856986340417
 20
166.4799970763452
 30
0.0
 10
220.1340962589516
 20
166.5158239037131
 30
0.0
 10
221.2099560490151
 20
166.6063956285861
 30
0.0
 10
221.739109510514
 20
166.6611773873296
 30
0.0
 10
222.5168521262159
 20
166.7606482102393
 30
0.0
 10
222.7734252240475
 20
166.7966988336839
 30
0.0
 10
223.280580336093
 20
166.8752822932611
 30
0.0
 10
223.5322760033631
 20
166.9180315449471
 30
0.0
 10
224.7581954391334
 20
167.1471643785564
 30
0.0
 10
225.6301826821198
 20
167.3784309731931
 30
0.0
 10
227.1127962087947
 20
167.9562299332406
 30
0.0
 10
227.6767024988959
 20
168.2826479906381
 30
0.0
 10
228.5553941275396
 20
168.9852179766423
 30
0.0
 10
228.863246911925
 20
169.3573892511631
 30
0.0
 10
229.2884282658961
 20
170.1037260085444
 30
0.0
 10
229.4073769882585
 20
170.4798226541127
 30
0.0
 10
229.5337941065451
 20
171.2355020338165
 30
0.0
 10
229.5388266640334
 20
171.6151609387777
 30
0.0
 10
229.5407285193317
 20
171.9949177435699
 30
0.0
  0
SPLINE
  5
119
330
1F
100
AcDbEntity
  8
0
  6
Continuous
 62
     8
370
    18
100
AcDbSpline
210
0.0
220
0.0
230
1.0
 70
    24
 71
     3
 72
    26
 73
    22
 74
     0
 42
0.00000001
 43
0.00000001
 40
0.0
 40
0.0
 40
0.0
 40
0.0
 40
0.0625
 40
0.0625
 40
0.1249999999999999
 40
0.1249999999999999
 40
0.2499999999999998
 40
0.2499999999999998
 40
0.3749999999999999
 40
0.3749999999999999
 40
0.5
 40
0.5
 40
0.625
 40
0.625
 40
0.7500000000000002
 40
0.7500000000000002
 40
0.8749999999999999
 40
0.8749999999999999
 40
0.9375
 40
0.9375
 40
1.0
 40
1.0
 40
1.0
 40
1.0
 10
214.0407542692575
 20
146.161190660717
 30
0.0
 10
214.6005588204777
 20
146.161190660717
 30
0.0
 10
215.1607894038649
 20
146.1611906607169
 30
0.0
 10
216.2876231670759
 20
146.1611906607168
 30
0.0
 10
216.8541440761267
 20
146.1611906607166
 30
0.0
 10
218.5581838366316
 20
146.1611906607163
 30
0.0
 10
219.7018367349739
 20
146.1611906607162
 30
0.0
 10
221.9121843311036
 20
146.1611906607159
 30
0.0
 10
222.9762463641538
 20
146.1611906607156
 30
0.0
 10
224.9085034606929
 20
146.1611906607153
 30
0.0
 10
225.7740658594446
 20
146.1611906607152
 30
0.0
 10
227.2479624041949
 20
146.1611906607149
 30
0.0
 10
227.8601737482999
 20
146.1611906607149
 30
0.0
 10
228.8403712965452
 20
146.1611906607147
 30
0.0
 10
229.2076819002746
 20
146.1611906607147
 30
0.0
 10
229.7260189874418
 20
146.1611906607146
 30
0.0
 10
229.8763698704687
 20
146.1611906607145
 30
0.0
 10
229.9938725067278
 20
146.1611906607145
 30
0.0
 10
230.0154456253598
 20
146.1611906607145
 30
0.0
 10
230.0383727880206
 20
146.1611906607145
 30
0.0
 10
230.0397057195366
 20
146.1611906607145
 30
0.0
 10
230.0407276886846
 20
146.1611906607145
 30
0.0
  0
LINE
  5
11A
330
1F
100
AcDbEntity
  8
0
  6
Continuous
 62
     8
370
    18
100
AcDbLine
 10
230.0407276887
 20
171.5250714332
 30
0.0
 11
230.0407276887
 21
146.1611906607
 31
0.0
  0
ARC
  5
11B
330
1F
100
AcDbEntity
  8
0
  6
Continuous
 62
     8
370
    18
100
AcDbCircle
 10
229.0407285193
 20
146.1611898301
 30
0.0
 40
0.9999991693577539
100
AcDbArc
 50
270.0000475924
 51
0.0000475923
  0
SPLINE
  5
11C
330
1F
100
AcDbEntity
  8
0
  6
Continuous
 62
     8
370
    18
100
AcDbSpline
210
0.0
220
0.0
230
1.0
 70
    24
 71
     3
 72
    26
 73
    22
 74
     0
 42
0.00000001
 43
0.00000001
 40
0.0
 40
0.0
 40
0.0
 40
0.0
 40
0.0625000000000002
 40
0.0625000000000002
 40
0.1250000000000004
 40
0.1250000000000004
 40
0.2500000000000004
 40
0.2500000000000004
 40
0.3750000000000005
 40
0.3750000000000005
 40
0.5000000000000006
 40
0.5000000000000006
 40
0.6250000000000006
 40
0.6250000000000006
 40
0.7500000000000006
 40
0.7500000000000006
 40
0.8750000000000002
 40
0.8750000000000002
 40
0.9375000000000001
 40
0.9375000000000001
 40
1.0
 40
1.0
 40
1.0
 40
1.0
 10
181.0562745925331
 20
146.1611906607223
 30
0.0
 10
181.0572965616805
 20
146.1611906607223
 30
0.0
 10
181.058629493196
 20
146.1611906607223
 30
0.0
 10
181.0815566558558
 20
146.1611906607223
 30
0.0
 10
181.1031297744873
 20
146.1611906607223
 30
0.0
 10
181.220632410745
 20
146.1611906607223
 30
0.0
 10
181.3709832937709
 20
146.1611906607222
 30
0.0
 10
181.8893203809362
 20
146.1611906607221
 30
0.0
 10
182.2566309846647
 20
146.1611906607221
 30
0.0
 10
183.2368285329082
 20
146.1611906607219
 30
0.0
 10
183.8490398770125
 20
146.1611906607218
 30
0.0
 10
185.3229364217614
 20
146.1611906607216
 30
0.0
 10
186.1884988205126
 20
146.1611906607214
 30
0.0
 10
188.1207559170508
 20
146.1611906607212
 30
0.0
 10
189.1848179501007
 20
146.161190660721
 30
0.0
 10
191.3951655462299
 20
146.1611906607206
 30
0.0
 10
192.5388184445721
 20
146.1611906607205
 30
0.0
 10
194.2428582050769
 20
146.1611906607202
 30
0.0
 10
194.8093791141277
 20
146.1611906607201
 30
0.0
 10
195.9362128773386
 20
146.1611906607199
 30
0.0
 10
196.4964434607257
 20
146.1611906607199
 30
0.0
 10
197.0562480119459
 20
146.1611906607198
 30
0.0
  0
LINE
  5
11D
330
1F
100
AcDbEntity
  8
0
  6
Continuous
 62
     8
370
    18
100
AcDbLine
 10
181.0562745925
 20
171.5250714332
 30
0.0
 11
181.0562745925
 21
146.1611906607
 31
0.0
  0
SPLINE
  5
11E
330
1F
100
AcDbEntity
  8
0
  6
Continuous
 62
     8
370
    18
100
AcDbSpline
210
0.0
220
0.0
230
1.0
 70
     8
 71
     3
 72
    38
 73
    34
 74
     0
 42
0.00000001
 43
0.00000001
 40
0.0
 40
0.0
 40
0.0
 40
0.0
 40
0.1250000000000001
 40
0.1250000000000001
 40
0.2500000000000001
 40
0.2500000000000001
 40
0.3125000000000001
 40
0.3125000000000001
 40
0.3750000000000002
 40
0.3750000000000002
 40
0.4062500000000002
 40
0.4062500000000002
 40
0.4375000000000002
 40
0.4375000000000002
 40
0.5000000000000002
 40
0.5000000000000002
 40
0.5625000000000002
 40
0.5625000000000002
 40
0.6250000000000002
 40
0.6250000000000002
 40
0.6875000000000003
 40
0.6875000000000003
 40
0.7500000000000003
 40
0.7500000000000003
 40
0.8750000000000007
 40
0.8750000000000007
 40
0.9375000000000006
 40
0.9375000000000006
 40
0.9687500000000002
 40
0.9687500000000002
 40
0.9843750000000001
 40
0.9843750000000001
 40
1.0
 40
1.0
 40
1.0
 40
1.0
 10
197.056248011949
 20
165.8938161520931
 30
0.0
 10
195.9146684493403
 20
165.8938161520933
 30
0.0
 10
194.7735131824122
 20
165.895465485983
 30
0.0
 10
192.5054789514365
 20
165.9507336871132
 30
0.0
 10
191.3782165290936
 20
166.0029440794069
 30
0.0
 10
189.7041928345788
 20
166.1416063697817
 30
0.0
 10
189.1549377891021
 20
166.1974999460743
 30
0.0
 10
188.0867168851485
 20
166.3308970846342
 30
0.0
 10
187.5663288220699
 20
166.4084806362619
 30
0.0
 10
186.810775143457
 20
166.5444475327865
 30
0.0
 10
186.5621860569184
 20
166.5932772919927
 30
0.0
 10
186.0826764823206
 20
166.6963569945155
 30
0.0
 10
185.8509637435284
 20
166.7507180920174
 30
0.0
 10
185.1806553043203
 20
166.9225273995788
 30
0.0
 10
184.7670079177784
 20
167.0487051737585
 30
0.0
 10
184.0084714233232
 20
167.3259650683636
 30
0.0
 10
183.6618644877448
 20
167.4783931697698
 30
0.0
 10
183.0558338927434
 20
167.7965268207938
 30
0.0
 10
182.792710900705
 20
167.963143854468
 30
0.0
 10
182.3324250700501
 20
168.3093136412879
 30
0.0
 10
182.1353323489279
 20
168.4892624212933
 30
0.0
 10
181.8034737381858
 20
168.8520043346681
 30
0.0
 10
181.6672065432677
 20
169.0358473208973
 30
0.0
 10
181.3299777850667
 20
169.5934407575221
 30
0.0
 10
181.2009854351487
 20
169.9733734727236
 30
0.0
 10
181.0980623053428
 20
170.5516973057945
 30
0.0
 10
181.0789657318618
 20
170.7452030614901
 30
0.0
 10
181.0636452484254
 20
171.0367197155302
 30
0.0
 10
181.0607322333874
 20
171.1340802196362
 30
0.0
 10
181.0581524641514
 20
171.2804467707045
 30
0.0
 10
181.0575883920999
 20
171.3292899610824
 30
0.0
 10
181.0567722425316
 20
171.4270922134521
 30
0.0
 10
181.0565179874064
 20
171.4764764254104
 30
0.0
 10
181.0562745925371
 20
171.5250714331847
 30
0.0
  0
ARC
  5
11F
330
1F
100
AcDbEntity
  8
0
  6
Continuous
 62
     8
370
    18
100
AcDbCircle
 10
182.0562737619
 20
146.1611898301
 30
0.0
 40
0.9999991693572992
100
AcDbArc
 50
179.9999524076
 51
269.9999524076
  0
SPLINE
  5
120
330
1F
100
AcDbEntity
  8
0
  6
Continuous
 62
     8
370
    18
100
AcDbSpline
210
0.0
220
0.0
230
1.0
 70
     8
 71
     3
 72
    32
 73
    28
 74
     0
 42
0.00000001
 43
0.00000001
 40
0.0
 40
0.0
 40
0.0
 40
0.0
 40
0.1250000000000001
 40
0.1250000000000001
 40
0.2500000000000002
 40
0.2500000000000002
 40
0.3125000000000003
 40
0.3125000000000003
 40
0.3750000000000003
 40
0.3750000000000003
 40
0.4375000000000004
 40
0.4375000000000004
 40
0.5000000000000004
 40
0.5000000000000004
 40
0.5625000000000004
 40
0.5625000000000004
 40
0.5937500000000007
 40
0.5937500000000007
 40
0.6250000000000008
 40
0.6250000000000008
 40
0.6875000000000007
 40
0.6875000000000007
 40
0.7500000000000004
 40
0.7500000000000004
 40
0.8750000000000002
 40
0.8750000000000002
 40
1.0
 40
1.0
 40
1.0
 40
1.0
 10
181.5562737618939
 20
171.9949177435738
 30
0.0
 10
181.5581826496446
 20
171.6137567193977
 30
0.0
 10
181.5631263499355
 20
171.2326198141452
 30
0.0
 10
181.6916254441894
 20
170.4712886603376
 30
0.0
 10
181.8129226906317
 20
170.0937365517481
 30
0.0
 10
182.1320960626672
 20
169.5370518829401
 30
0.0
 10
182.2612624054381
 20
169.3530085651001
 30
0.0
 10
182.5763963826528
 20
168.988708409136
 30
0.0
 10
182.7637771582355
 20
168.807336591793
 30
0.0
 10
183.203235992496
 20
168.4564502726716
 30
0.0
 10
183.454907145088
 20
168.2868291602913
 30
0.0
 10
184.0363580435228
 20
167.9618238549877
 30
0.0
 10
184.3700118025394
 20
167.8053541018429
 30
0.0
 10
185.1032331701466
 20
167.5206636216107
 30
0.0
 10
185.5041844172531
 20
167.3912517394303
 30
0.0
 10
186.1555021756644
 20
167.2159238440748
 30
0.0
 10
186.3808861485276
 20
167.1605988963706
 30
0.0
 10
186.8477025904297
 20
167.0559931925947
 30
0.0
 10
187.0897012939567
 20
167.0066464339963
 30
0.0
 10
187.824992764672
 20
166.8697435270153
 30
0.0
 10
188.331686657324
 20
166.7922206333181
 30
0.0
 10
189.3719760404375
 20
166.6595864232928
 30
0.0
 10
189.907499772958
 20
166.6043572108599
 30
0.0
 10
191.5356049543435
 20
166.4682666604209
 30
0.0
 10
192.631841255129
 20
166.4179237889195
 30
0.0
 10
194.8371234558928
 20
166.3649914161124
 30
0.0
 10
195.9465074913884
 20
166.3636624624862
 30
0.0
 10
197.0562480119494
 20
166.363662462486
 30
0.0
  0
ELLIPSE
  5
121
330
1F
100
AcDbEntity
  8
0
  6
Continuous
 62
     8
370
    18
100
AcDbEllipse
 10
-4449.1282061129
 20
175.0989480856
 30
0.0
 11
4678.67670725352
 21
1.122657522500958E-10
 31
0.0
210
0.0
220
0.0
230
1.0
 40
0.3639702343
 41
6.281362514426322
 42
6.281982349092986
  0
LINE
  5
122
330
1F
100
AcDbEntity
  8
0
  6
Continuous
 62
     8
370
    18
100
AcDbLine
 10
197.0562480119
 20
166.3636624625
 30
0.0
 11
214.0407542693
 21
166.3636624625
 31
0.0
  0
ELLIPSE
  5
123
330
1F
100
AcDbEntity
  8
0
  6
Continuous
 62
     8
370
    18
100
AcDbEllipse
 10
4860.2252083941
 20
175.0989480841
 30
0.0
 11
4678.67670725352
 21
1.122657522500958E-10
 31
0.0
210
0.0
220
0.0
230
1.0
 40
0.3639702343
 41
3.142795611675455
 42
3.14341544634212
  0
LINE
  5
124
330
1F
100
AcDbEntity
  8
0
  6
Continuous
 62
     8
370
    18
100
AcDbLine
 10
184.8693765126
 20
173.0504323882
 30
0.0
 11
181.5518864158
 21
173.0504323882
 31
0.0
  0
LINE
  5
125
330
1F
100
AcDbEntity
  8
0
  6
Continuous
 62
     8
370
    18
100
AcDbLine
 10
229.5451158654
 20
173.0504323882
 30
0.0
 11
226.2276257686
 21
173.0504323882
 31
0.0
  0
LINE
  5
126
330
1F
100
AcDbEntity
  8
0
  6
Continuous
 62
     8
370
    18
100
AcDbLine
 10
205.5485011406
 20
184.8611906607
 30
0.0
 11
181.0485011406
 21
184.8611906607
 31
0.0
  0
LINE
  5
127
330
1F
100
AcDbEntity
  8
0
  6
Continuous
 62
     8
370
    18
100
AcDbLine
 10
230.0485011406
 20
184.8611906607
 30
0.0
 11
205.5485011406
 21
184.8611906607
 31
0.0
  0
LINE
  5
128
330
1F
100
AcDbEntity
  8
0
  6
Continuous
 62
     8
370
    18
100
AcDbLine
 10
197.0562480119
 20
146.1611906607
 30
0.0
 11
214.0407542693
 21
146.1611906607
 31
0.0
  0
LINE
  5
129
330
1F
100
AcDbEntity
  8
0
  6
Continuous
 62
     8
370
    18
100
AcDbLine
 10
214.0407542693
 20
165.8938161521
 30
0.0
 11
197.0562480119
 21
165.8938161521
 31
0.0
  0
ELLIPSE
  5
12A
330
1F
100
AcDbEntity
  8
0
  6
Continuous
 62
     8
370
    18
100
AcDbEllipse
 10
-4449.1282061129
 20
174.6291017752
 30
0.0
 11
4679.17670725352
 21
1.121236437029438E-10
 31
0.0
210
0.0
220
0.0
230
1.0
 40
0.3639313417
 41
6.281362514426323
 42
6.281982349092985
  0
ARC
  5
12B
330
1F
100
AcDbEntity
  8
0
  6
Continuous
 62
     8
370
    18
100
AcDbCircle
 10
229.559510998
 20
172.564784144
 30
0.0
 40
0.4858615409640712
100
AcDbArc
 50
1.8637898541
 51
91.697810982
  0
ELLIPSE
  5
12C
330
1F
100
AcDbEntity
  8
0
  6
Continuous
 62
     8
370
    18
100
AcDbEllipse
 10
4860.2252083941
 20
174.6291017737
 30
0.0
 11
4679.17670725352
 21
1.121236437029438E-10
 31
0.0
210
0.0
220
0.0
230
1.0
 40
0.3639313417
 41
3.142795611675456
 42
3.143415446342121
  0
ARC
  5
12D
330
1F
100
AcDbEntity
  8
0
  6
Continuous
 62
     8
370
    18
100
AcDbCircle
 10
181.5374912832
 20
172.564784144
 30
0.0
 40
0.4858615409650895
100
AcDbArc
 50
88.3021890181
 51
178.1362101458
  0
LINE
  5
12E
330
1F
100
AcDbEntity
  8
0
  6
Continuous
 62
     8
370
    18
100
AcDbLine
 10
230.0407276887
 20
146.1611906607
 30
0.0
 11
230.0485011406
 21
146.1611906607
 31
0.0
  0
SPLINE
  5
12F
330
1F
100
AcDbEntity
  8
0
  6
Continuous
 62
     8
370
    18
100
AcDbSpline
210
0.0
220
0.0
230
1.0
 70
     8
 71
     3
 72
     9
 73
     5
 74
     0
 42
0.00000001
 43
0.00000001
 40
0.0
 40
0.0
 40
0.0
 40
0.0
 40
0.4761661282583117
 40
1.0
 40
1.0
 40
1.0
 40
1.0
 10
230.0484220628508
 20
174.0933165030922
 30
0.0
 10
230.0483157958685
 20
173.9134772990483
 30
0.0
 10
230.0480926237948
 20
173.5357956594454
 30
0.0
 10
230.0461389199057
 20
172.9089493874662
 30
0.0
 10
230.0451155036332
 20
172.5805860778285
 30
0.0
  0
LINE
  5
130
330
1F
100
AcDbEntity
  8
0
  6
Continuous
 62
     8
370
    18
100
AcDbLine
 10
181.0485011406
 20
146.1611906607
 30
0.0
 11
181.0562745925
 21
146.1611906607
 31
0.0
  0
SPLINE
  5
131
330
1F
100
AcDbEntity
  8
0
  6
Continuous
 62
     8
370
    18
100
AcDbSpline
210
0.0
220
0.0
230
1.0
 70
     8
 71
     3
 72
     9
 73
     5
 74
     0
 42
0.00000001
 43
0.00000001
 40
0.0
 40
0.0
 40
0.0
 40
0.0
 40
0.5059943505024341
 40
1.0
 40
1.0
 40
1.0
 40
1.0
 10
181.0518867775971
 20
172.5805860778362
 30
0.0
 10
181.050896669576
 20
172.8979760739569
 30
0.0
 10
181.0489399125092
 20
173.525236034084
 30
0.0
 10
181.0486642637958
 20
173.9104984900924
 30
0.0
 10
181.0485280917742
 20
174.1008203198998
 30
0.0
  0
SPLINE
  5
132
330
1F
100
AcDbEntity
  8
0
  6
Continuous
 62
     8
370
    18
100
AcDbSpline
210
0.0
220
0.0
230
1.0
 70
     8
 71
     3
 72
    10
 73
     6
 74
     0
 42
0.00000001
 43
0.00000001
 40
0.0
 40
0.0
 40
0.0
 40
0.0
 40
0.5000000000000002
 40
0.5000000000000002
 40
1.0
 40
1.0
 40
1.0
 40
1.0
 10
229.5451158654104
 20
173.0504323882215
 30
0.0
 10
229.5474080688631
 20
173.7540185261466
 30
0.0
 10
229.5485735609252
 20
174.2776690187585
 30
0.0
 10
229.5484217503931
 20
174.9812550864119
 30
0.0
 10
229.5471056282649
 20
175.1611906607147
 30
0.0
 10
229.5444308934126
 20
175.1611906607147
 30
0.0
  0
SPLINE
  5
133
330
1F
100
AcDbEntity
  8
0
  6
Continuous
 62
     8
370
    18
100
AcDbSpline
210
0.0
220
0.0
230
1.0
 70
     8
 71
     3
 72
    10
 73
     6
 74
     0
 42
0.00000001
 43
0.00000001
 40
0.0
 40
0.0
 40
0.0
 40
0.0
 40
0.5
 40
0.5
 40
1.0
 40
1.0
 40
1.0
 40
1.0
 10
181.5525713878307
 20
175.1611906607222
 30
0.0
 10
181.5498966529765
 20
175.1611906607222
 30
0.0
 10
181.5485805308459
 20
174.9812550864194
 30
0.0
 10
181.5484287203102
 20
174.277669018766
 30
0.0
 10
181.5495942123694
 20
173.7540185261542
 30
0.0
 10
181.5518864158201
 20
173.0504323882291
 30
0.0
  0
LWPOLYLINE
  5
134
330
1F
100
AcDbEntity
  8
0
  6
Continuous
 62
     7
370
    25
100
AcDbPolyline
 90
        3
 70
   128
 43
0.0
 10
376.5827176236
 20
360.6422903365
 10
376.5893320653
 20
360.9689240686
 10
376.617284434
 20
362.4060019154
  0
LWPOLYLINE
  5
135
330
1F
100
AcDbEntity
  8
0
  6
Continuous
 62
     7
370
    25
100
AcDbPolyline
 90
        3
 70
   128
 43
0.0
 10
376.5798989061
 20
360.4966067483
 10
376.5803296017
 20
360.5177891248
 10
376.586626938
 20
360.8353397301
  0
LINE
  5
136
330
1F
100
AcDbEntity
  8
0
  6
Continuous
 62
     7
370
    25
100
AcDbLine
 10
376.5921985571
 20
361.1162951883
 30
0.0
 11
376.5996952836
 21
361.4943264532
 31
0.0
  0
LINE
  5
137
330
1F
100
AcDbEntity
  8
0
  6
Continuous
 62
     7
370
    25
100
AcDbLine
 10
376.6170671027
 20
506.7614379661
 30
0.0
 11
376.5920639733
 21
508.0465154719
 31
0.0
  0
LINE
  5
138
330
1F
100
AcDbEntity
  8
0
  6
Continuous
 62
     7
370
    25
100
AcDbLine
 10
376.5865022106
 20
508.3269549353
 30
0.0
 11
376.5831183129
 21
508.4940394071
 31
0.0
  0
LINE
  5
139
330
1F
100
AcDbEntity
  8
0
  6
Continuous
 62
     7
370
    25
100
AcDbLine
 10
376.5996506438
 20
507.663974555
 30
0.0
 11
376.5817033956
 21
508.5689244685
 31
0.0
  0
SPLINE
  5
13A
330
1F
100
AcDbEntity
  8
0
  6
Continuous
 62
     7
370
    25
100
AcDbSpline
210
0.0
220
0.0
230
1.0
 70
     8
 71
     3
 72
    10
 73
     6
 74
     0
 42
0.00000001
 43
0.00000001
 40
0.0
 40
0.0
 40
0.0
 40
0.0
 40
0.2620773148250454
 40
0.6342573338426039
 40
1.0
 40
1.0
 40
1.0
 40
1.0
 10
376.9708963609755
 20
474.8114886413803
 30
0.0
 10
376.9561697861267
 20
477.664304130659
 30
0.0
 10
376.9205297762064
 20
484.5684467016507
 30
0.0
 10
376.8125683461383
 20
495.4091506482564
 30
0.0
 10
376.6752209238022
 20
503.3451344987483
 30
0.0
 10
376.6071462956002
 20
507.2785111930463
 30
0.0
  0
SPLINE
  5
13B
330
1F
100
AcDbEntity
  8
0
  6
Continuous
 62
     7
370
    25
100
AcDbSpline
210
0.0
220
0.0
230
1.0
 70
     8
 71
     3
 72
    19
 73
    15
 74
     0
 42
0.00000001
 43
0.00000001
 40
0.0
 40
0.0
 40
0.0
 40
0.0
 40
0.114638721476542
 40
0.2270630157981962
 40
0.3387937727082124
 40
0.4489669787744842
 40
0.5491822556589736
 40
0.6385923566150027
 40
0.7012632869521832
 40
0.7572640639812472
 40
0.8104197674974934
 40
0.8689554790445423
 40
0.933148882152867
 40
1.0
 40
1.0
 40
1.0
 40
1.0
 10
376.6072142536992
 20
361.8810301107533
 30
0.0
 10
376.6494010612022
 20
364.1964422970898
 30
0.0
 10
376.7329597716898
 20
368.7825408427983
 30
0.0
 10
376.8289542500983
 20
375.9411015782812
 30
0.0
 10
376.9025537810957
 20
383.1281095531503
 30
0.0
 10
376.9536998500502
 20
390.0824151772155
 30
0.0
 10
376.9876785637519
 20
396.5481838131689
 30
0.0
 10
377.0081479611852
 20
401.9909674600479
 30
0.0
 10
377.0208379682154
 20
406.4796282764215
 30
0.0
 10
377.0290728900741
 20
410.1862861918034
 30
0.0
 10
377.0354272698227
 20
413.8037303940858
 30
0.0
 10
377.040542119254
 20
417.5979111339801
 30
0.0
 10
377.0446373867138
 20
421.6875295422078
 30
0.0
 10
377.0462961272371
 20
424.514418620433
 30
0.0
 10
377.0471423179622
 20
425.9565292369726
 30
0.0
  0
LINE
  5
13C
330
1F
100
AcDbEntity
  8
0
  6
Continuous
 62
     7
370
    25
100
AcDbLine
 10
375.6054113849
 20
509.6834726293
 30
0.0
 11
369.5844877225
 21
509.8411360641
 31
0.0
  0
LINE
  5
13D
330
1F
100
AcDbEntity
  8
0
  6
Continuous
 62
     7
370
    25
100
AcDbLine
 10
369.5844877225
 20
359.3148814414
 30
0.0
 11
375.6054260546
 21
359.4725452603
 31
0.0
  0
ARC
  5
13E
330
1F
100
AcDbEntity
  8
0
  6
Continuous
 62
     7
370
    25
100
AcDbCircle
 10
375.5792168662
 20
360.4722017411
 30
0.0
 40
0.9999999999999529
100
AcDbArc
 50
271.4771488823
 51
358.8185554064
  0
ARC
  5
13F
330
1F
100
AcDbEntity
  8
0
  6
Continuous
 62
     7
370
    25
100
AcDbCircle
 10
375.5792166845
 20
508.6838157691
 30
0.0
 40
1.00000000000008
100
AcDbArc
 50
1.1843530835
 51
88.5051838403
  0
LINE
  5
140
330
1F
100
AcDbEntity
  8
0
  6
Continuous
 62
     7
370
    25
100
AcDbLine
 10
404.5844877225
 20
474.8780087527
 30
0.0
 11
376.9752328057
 21
474.8780087527
 31
0.0
  0
LINE
  5
141
330
1F
100
AcDbEntity
  8
0
  6
Continuous
 62
     7
370
    25
100
AcDbLine
 10
377.0470643198
 20
425.8780087527
 30
0.0
 11
404.5844877225
 21
425.8780087527
 31
0.0
  0
ARC
  5
142
330
1F
100
AcDbEntity
  8
0
  6
Continuous
 62
     7
370
    25
100
AcDbCircle
 10
404.5844877225
 20
450.3780087527
 30
0.0
 40
24.49999999999998
100
AcDbArc
 50
270.0
 51
293.3232625958
  0
ARC
  5
143
330
1F
100
AcDbEntity
  8
0
  6
Continuous
 62
     7
370
    25
100
AcDbCircle
 10
404.5844877225
 20
450.3780087527
 30
0.0
 40
24.50000000000006
100
AcDbArc
 50
48.1210053813
 51
90.0
  0
LINE
  5
144
330
1F
100
AcDbEntity
  8
0
  6
Continuous
 62
     7
370
    25
100
AcDbLine
 10
420.2844877225
 20
425.4845967081
 30
0.0
 11
420.5030690894
 21
424.8840493382
 31
0.0
  0
LINE
  5
145
330
1F
100
AcDbEntity
  8
0
  6
Continuous
 62
     7
370
    25
100
AcDbLine
 10
428.0659063556
 20
424.8840493382
 30
0.0
 11
428.2844877225
 21
425.4845967081
 31
0.0
  0
LINE
  5
146
330
1F
100
AcDbEntity
  8
0
  6
Continuous
 62
     7
370
    25
100
AcDbLine
 10
420.2844877225
 20
425.8345967081
 30
0.0
 11
420.2844877225
 21
425.4845967081
 31
0.0
  0
LINE
  5
147
330
1F
100
AcDbEntity
  8
0
  6
Continuous
 62
     7
370
    25
100
AcDbLine
 10
428.2844877225
 20
425.4845967081
 30
0.0
 11
428.2844877225
 21
425.8345243481
 31
0.0
  0
ARC
  5
148
330
1F
100
AcDbEntity
  8
0
  6
Continuous
 62
     7
370
    25
100
AcDbCircle
 10
427.8779678314
 20
424.9524533669
 30
0.0
 40
0.1999999999999886
100
AcDbArc
 50
270.0
 51
340.0
  0
ARC
  5
149
330
1F
100
AcDbEntity
  8
0
  6
Continuous
 62
     7
370
    25
100
AcDbCircle
 10
420.6910076136
 20
424.9524533669
 30
0.0
 40
0.2000000000000359
100
AcDbArc
 50
200.0
 51
270.0
  0
LINE
  5
14A
330
1F
100
AcDbEntity
  8
0
  6
Continuous
 62
     7
370
    25
100
AcDbLine
 10
420.6910076136
 20
424.7524533669
 30
0.0
 11
427.8779678314
 21
424.7524533669
 31
0.0
  0
SPLINE
  5
14B
330
1F
100
AcDbEntity
  8
0
  6
Continuous
 62
     7
370
    25
100
AcDbSpline
210
0.0
220
0.0
230
1.0
 70
    24
 71
     3
 72
    18
 73
    14
 74
     0
 42
0.00000001
 43
0.00000001
 40
0.0
 40
0.0
 40
0.0
 40
0.0
 40
0.25
 40
0.25
 40
0.5
 40
0.5
 40
0.625
 40
0.625
 40
0.75
 40
0.75
 40
0.875
 40
0.875
 40
1.0
 40
1.0
 40
1.0
 40
1.0
 10
369.584487722525
 20
382.6010769333132
 30
0.0
 10
369.5844877225222
 20
381.0293644585359
 30
0.0
 10
369.5844877225263
 20
379.4553779945385
 30
0.0
 10
369.5844877225235
 20
376.3224935138339
 30
0.0
 10
369.5844877225256
 20
374.7767091591662
 30
0.0
 10
369.5844877225246
 20
372.5120717414363
 30
0.0
 10
369.5844877225256
 20
371.7658526200084
 30
0.0
 10
369.5844877225243
 20
370.2944313702282
 30
0.0
 10
369.5844877225243
 20
369.566522008028
 30
0.0
 10
369.5844877225256
 20
368.1742283500437
 30
0.0
 10
369.584487722525
 20
367.5058079091052
 30
0.0
 10
369.584487722525
 20
366.2326221391533
 30
0.0
 10
369.5844877225256
 20
365.6252131698455
 30
0.0
 10
369.584487722525
 20
365.0670959259448
 30
0.0
  0
SPLINE
  5
14C
330
1F
100
AcDbEntity
  8
0
  6
Continuous
 62
     7
370
    25
100
AcDbSpline
210
0.0
220
0.0
230
1.0
 70
    24
 71
     3
 72
    18
 73
    14
 74
     0
 42
0.00000001
 43
0.00000001
 40
0.0
 40
0.0
 40
0.0
 40
0.0
 40
0.25
 40
0.25
 40
0.5
 40
0.5
 40
0.625
 40
0.625
 40
0.75
 40
0.75
 40
0.875
 40
0.875
 40
1.0
 40
1.0
 40
1.0
 40
1.0
 10
369.584487722525
 20
486.5549405721575
 30
0.0
 10
369.5844877225222
 20
488.1266530469348
 30
0.0
 10
369.5844877225263
 20
489.7006395109322
 30
0.0
 10
369.5844877225235
 20
492.8335239916367
 30
0.0
 10
369.5844877225256
 20
494.3793083463045
 30
0.0
 10
369.5844877225246
 20
496.6439457640344
 30
0.0
 10
369.5844877225256
 20
497.3901648854623
 30
0.0
 10
369.5844877225243
 20
498.8615861352425
 30
0.0
 10
369.5844877225243
 20
499.5894954974426
 30
0.0
 10
369.5844877225256
 20
500.981789155427
 30
0.0
 10
369.584487722525
 20
501.6502095963655
 30
0.0
 10
369.584487722525
 20
502.9233953663174
 30
0.0
 10
369.5844877225256
 20
503.5308043356252
 30
0.0
 10
369.584487722525
 20
504.0889215795259
 30
0.0
  0
SPLINE
  5
14D
330
1F
100
AcDbEntity
  8
0
  6
Continuous
 62
     7
370
    18
100
AcDbSpline
210
0.0
220
0.0
230
1.0
 70
     8
 71
     3
 72
    20
 73
    16
 74
     0
 42
0.00000001
 43
0.00000001
 40
0.0
 40
0.0
 40
0.0
 40
0.0
 40
0.1249999999999994
 40
0.1249999999999994
 40
0.1874999999999988
 40
0.1874999999999988
 40
0.2499999999999982
 40
0.2499999999999982
 40
0.5
 40
0.5
 40
0.625
 40
0.625
 40
0.75
 40
0.75
 40
1.0
 40
1.0
 40
1.0
 40
1.0
 10
376.5828988664294
 20
503.2845868818874
 30
0.0
 10
376.5828978270104
 20
502.748930222327
 30
0.0
 10
376.5829326934498
 20
502.1739239219829
 30
0.0
 10
376.583010972086
 20
501.2580492463299
 30
0.0
 10
376.5830407201571
 20
500.9439042471573
 30
0.0
 10
376.5831055606691
 20
500.2988410063929
 30
0.0
 10
376.5831400723667
 20
499.9672931665822
 30
0.0
 10
376.5833161575145
 20
498.2959046869076
 30
0.0
 10
376.5834345322575
 20
496.897660749624
 30
0.0
 10
376.5836400410881
 20
494.739100903353
 30
0.0
 10
376.5837113369416
 20
494.0091502126964
 30
0.0
 10
376.5838595062617
 20
492.5314046156769
 30
0.0
 10
376.5839326402784
 20
491.7853892006366
 30
0.0
 10
376.584127436027
 20
489.5465487791082
 30
0.0
 10
376.5842075577746
 20
488.0446670040214
 30
0.0
 10
376.5842560916773
 20
486.5431467812613
 30
0.0
  0
LINE
  5
14E
330
1F
100
AcDbEntity
  8
0
  6
Continuous
 62
     7
370
    25
100
AcDbLine
 10
369.5844877225
 20
382.6010769333
 30
0.0
 11
369.5844877225
 21
486.5549405722
 31
0.0
  0
SPLINE
  5
14F
330
1F
100
AcDbEntity
  8
0
  6
Continuous
 62
     7
370
    25
100
AcDbSpline
210
0.0
220
0.0
230
1.0
 70
     8
 71
     3
 72
    27
 73
    23
 74
     0
 42
0.00000001
 43
0.00000001
 40
0.0
 40
0.0
 40
0.0
 40
0.0
 40
0.0193671263950457
 40
0.0738284853376042
 40
0.1267549749560343
 40
0.1812163365316452
 40
0.2341428238432102
 40
0.2886041815410917
 40
0.3415306946407477
 40
0.3959920777502463
 40
0.4489186319414363
 40
0.5033800596987855
 40
0.5563066151732048
 40
0.6107680444324843
 40
0.6636945965542818
 40
0.7181560227571083
 40
0.7710825727358251
 40
0.8255439901610073
 40
0.878470641159138
 40
0.9329321785844262
 40
0.9662799266560009
 40
1.0
 40
1.0
 40
1.0
 40
1.0
 10
377.0470643783603
 20
425.9565292882017
 30
0.0
 10
377.0470818569219
 20
425.9359521356831
 30
0.0
 10
377.0471484861009
 20
425.8575109683143
 30
0.0
 10
377.0466565572686
 20
426.4405542571801
 30
0.0
 10
377.045514064886
 20
427.6966548569979
 30
0.0
 10
377.0435929407599
 20
429.627108181789
 30
0.0
 10
377.0408659690187
 20
432.1546153407895
 30
0.0
 10
377.037458804285
 20
435.1774941788604
 30
0.0
 10
377.0335454478821
 20
438.66046853347
 30
0.0
 10
377.0294975261419
 20
442.4433690858546
 30
0.0
 10
377.0255045784679
 20
446.486910895765
 30
0.0
 10
377.0217282330395
 20
450.6039443924791
 30
0.0
 10
377.0179412699341
 20
454.752015213734
 30
0.0
 10
377.0138498468496
 20
458.7390551647662
 30
0.0
 10
377.0089026167116
 20
462.5239866238895
 30
0.0
 10
377.0029122541333
 20
465.931489581038
 30
0.0
 10
376.9959133225608
 20
468.9266908309424
 30
0.0
 10
376.9886493928568
 20
471.3699875419184
 30
0.0
 10
376.9819750858569
 20
473.239632704635
 30
0.0
 10
376.977729825425
 20
474.2901161635336
 30
0.0
 10
376.9755737920789
 20
474.7987920533018
 30
0.0
 10
376.9753468876908
 20
474.8515056402203
 30
0.0
 10
376.9752328056699
 20
474.8780087527354
 30
0.0
  0
SPLINE
  5
150
330
1F
100
AcDbEntity
  8
0
  6
Continuous
 62
     7
370
    25
100
AcDbSpline
210
0.0
220
0.0
230
1.0
 70
     8
 71
     3
 72
    20
 73
    16
 74
     0
 42
0.00000001
 43
0.00000001
 40
0.0
 40
0.0
 40
0.0
 40
0.0
 40
0.2499999999999991
 40
0.2499999999999991
 40
0.3749999999999988
 40
0.3749999999999988
 40
0.4999999999999984
 40
0.4999999999999984
 40
0.7499999999999978
 40
0.7499999999999978
 40
0.8124999999999991
 40
0.8124999999999991
 40
0.8750000000000004
 40
0.8750000000000004
 40
1.0
 40
1.0
 40
1.0
 40
1.0
 10
376.5842656955786
 20
508.4333137236814
 30
0.0
 10
376.5842240190173
 20
508.4176826156375
 30
0.0
 10
376.584160106133
 20
508.3641847753122
 30
0.0
 10
376.5839682704861
 20
508.1440976619375
 30
0.0
 10
376.5838926827977
 20
508.0474019703211
 30
0.0
 10
376.5837344684952
 20
507.797925939318
 30
0.0
 10
376.5836559607656
 20
507.6455538689615
 30
0.0
 10
376.583433054567
 20
507.0914962954377
 30
0.0
 10
376.583314050849
 20
506.5957410408226
 30
0.0
 10
376.5831424084604
 20
505.7393280744672
 30
0.0
 10
376.5831088042199
 20
505.5550606347199
 30
0.0
 10
376.5830451904365
 20
505.1647004688357
 30
0.0
 10
376.5830157832507
 20
504.9583645374091
 30
0.0
 10
376.582937365616
 20
504.3040263025239
 30
0.0
 10
376.582900321074
 20
503.8204773417516
 30
0.0
 10
376.5828988664374
 20
503.2845868816032
 30
0.0
  0
SPLINE
  5
151
330
1F
100
AcDbEntity
  8
0
  6
Continuous
 62
     7
370
    25
100
AcDbSpline
210
0.0
220
0.0
230
1.0
 70
     8
 71
     3
 72
     9
 73
     5
 74
     0
 42
0.00000001
 43
0.00000001
 40
0.0
 40
0.0
 40
0.0
 40
0.0
 40
0.4745901796782553
 40
1.0
 40
1.0
 40
1.0
 40
1.0
 10
376.5798272843409
 20
508.6628800059931
 30
0.0
 10
376.580288353924
 20
508.6406794387494
 30
0.0
 10
376.5812598649305
 20
508.5939010429998
 30
0.0
 10
376.5832303718776
 20
508.4886261737948
 30
0.0
 10
376.5842656955786
 20
508.4333137236815
 30
0.0
  0
SPLINE
  5
152
330
1F
100
AcDbEntity
  8
0
  6
Continuous
 62
     7
370
    25
100
AcDbSpline
210
0.0
220
0.0
230
1.0
 70
     8
 71
     3
 72
     9
 73
     5
 74
     0
 42
0.00000001
 43
0.00000001
 40
0.0
 40
0.0
 40
0.0
 40
0.0
 40
0.4428892084728294
 40
1.0
 40
1.0
 40
1.0
 40
1.0
 10
376.5828152841861
 20
360.6474848266612
 30
0.0
 10
376.582276653334
 20
360.6187524231491
 30
0.0
 10
376.581060478178
 20
360.5538774996638
 30
0.0
 10
376.5810096769043
 20
360.5522581319952
 30
0.0
 10
376.5809813749665
 20
360.5513559647917
 30
0.0
  0
SPLINE
  5
153
330
1F
100
AcDbEntity
  8
0
  6
Continuous
 62
     7
370
    25
100
AcDbSpline
210
0.0
220
0.0
230
1.0
 70
    24
 71
     3
 72
    18
 73
    14
 74
     0
 42
0.00000001
 43
0.00000001
 40
0.0
 40
0.0
 40
0.0
 40
0.0
 40
0.25
 40
0.25
 40
0.5
 40
0.5
 40
0.625
 40
0.625
 40
0.75
 40
0.75
 40
0.875
 40
0.875
 40
1.0
 40
1.0
 40
1.0
 40
1.0
 10
369.584487722525
 20
509.5709686208816
 30
0.0
 10
369.5844877225222
 20
509.554629182237
 30
0.0
 10
369.5844877225263
 20
509.4968284340226
 30
0.0
 10
369.5844877225235
 20
509.1778209432527
 30
0.0
 10
369.5844877225256
 20
508.9201898109164
 30
0.0
 10
369.5844877225246
 20
508.3242155379854
 30
0.0
 10
369.5844877225256
 20
508.0904353420227
 30
0.0
 10
369.5844877225243
 20
507.5376371303728
 30
0.0
 10
369.5844877225243
 20
507.216536853935
 30
0.0
 10
369.5844877225256
 20
506.48829587241
 30
0.0
 10
369.584487722525
 20
506.0798249724575
 30
0.0
 10
369.584487722525
 20
505.1610621110713
 30
0.0
 10
369.5844877225256
 20
504.64702474232
 30
0.0
 10
369.584487722525
 20
504.0889215795403
 30
0.0
  0
SPLINE
  5
154
330
1F
100
AcDbEntity
  8
0
  6
Continuous
 62
     7
370
    25
100
AcDbSpline
210
0.0
220
0.0
230
1.0
 70
    24
 71
     3
 72
    18
 73
    14
 74
     0
 42
0.00000001
 43
0.00000001
 40
0.0
 40
0.0
 40
0.0
 40
0.0
 40
0.25
 40
0.25
 40
0.5
 40
0.5
 40
0.625
 40
0.625
 40
0.75
 40
0.75
 40
0.875
 40
0.875
 40
1.0
 40
1.0
 40
1.0
 40
1.0
 10
369.584487722525
 20
359.5850488845891
 30
0.0
 10
369.5844877225222
 20
359.6013883232337
 30
0.0
 10
369.5844877225263
 20
359.6591890714482
 30
0.0
 10
369.5844877225235
 20
359.9781965622181
 30
0.0
 10
369.5844877225256
 20
360.2358276945542
 30
0.0
 10
369.5844877225246
 20
360.8318019674854
 30
0.0
 10
369.5844877225256
 20
361.065582163448
 30
0.0
 10
369.5844877225243
 20
361.618380375098
 30
0.0
 10
369.5844877225243
 20
361.9394806515358
 30
0.0
 10
369.5844877225256
 20
362.6677216330606
 30
0.0
 10
369.584487722525
 20
363.0761925330132
 30
0.0
 10
369.584487722525
 20
363.9949553943994
 30
0.0
 10
369.5844877225256
 20
364.5089927631506
 30
0.0
 10
369.584487722525
 20
365.0670959259304
 30
0.0
  0
SPLINE
  5
155
330
1F
100
AcDbEntity
  8
0
  6
Continuous
 62
     7
370
    25
100
AcDbSpline
210
0.0
220
0.0
230
1.0
 70
     8
 71
     3
 72
    10
 73
     6
 74
     0
 42
0.00000001
 43
0.00000001
 40
0.0
 40
0.0
 40
0.0
 40
0.0
 40
0.5
 40
0.5
 40
1.0
 40
1.0
 40
1.0
 40
1.0
 10
414.2844877225199
 20
444.163152383339
 30
0.0
 10
414.2844877225199
 20
446.2203003450866
 30
0.0
 10
414.4644232968227
 20
448.2457208880362
 30
0.0
 10
415.1680093644761
 20
452.2359559019673
 30
0.0
 10
415.6916598570879
 20
454.2007703731466
 30
0.0
 10
416.395245995013
 20
456.1338573997372
 30
0.0
  0
LINE
  5
156
330
1F
100
AcDbEntity
  8
0
  6
Continuous
 62
     7
370
    25
100
AcDbLine
 10
441.7662095757
 20
371.8345967081
 30
0.0
 11
443.2844877225
 21
371.8345967081
 31
0.0
  0
SPLINE
  5
157
330
1F
100
AcDbEntity
  8
0
  6
Continuous
 62
     7
370
    25
100
AcDbSpline
210
0.0
220
0.0
230
1.0
 70
    24
 71
     3
 72
    30
 73
    26
 74
     0
 42
0.00000001
 43
0.00000001
 40
0.0
 40
0.0
 40
0.0
 40
0.0
 40
0.1249999999999987
 40
0.1249999999999987
 40
0.2499999999999974
 40
0.2499999999999974
 40
0.3749999999999961
 40
0.3749999999999961
 40
0.4374999999999958
 40
0.4374999999999958
 40
0.4999999999999956
 40
0.4999999999999956
 40
0.5312499999999959
 40
0.5312499999999959
 40
0.5624999999999962
 40
0.5624999999999962
 40
0.6249999999999967
 40
0.6249999999999967
 40
0.6874999999999971
 40
0.6874999999999971
 40
0.7499999999999976
 40
0.7499999999999976
 40
0.8749999999999988
 40
0.8749999999999988
 40
1.0
 40
1.0
 40
1.0
 40
1.0
 10
444.2844877225201
 20
387.7560572506642
 30
0.0
 10
444.2844877225201
 20
386.7162038629619
 30
0.0
 10
444.28448772252
 20
385.6765534779191
 30
0.0
 10
444.28448772252
 20
383.6064941413247
 30
0.0
 10
444.28448772252
 20
382.5745756453306
 30
0.0
 10
444.2844877225201
 20
380.5313420008447
 30
0.0
 10
444.2844877225202
 20
379.5428100720829
 30
0.0
 10
444.2844877225202
 20
378.1348164908715
 30
0.0
 10
444.2844877225203
 20
377.6747564348337
 30
0.0
 10
444.2844877225204
 20
376.8196676806485
 30
0.0
 10
444.2844877225205
 20
376.4215986892191
 30
0.0
 10
444.2844877225205
 20
375.8724946659806
 30
0.0
 10
444.2844877225206
 20
375.6974363394854
 30
0.0
 10
444.2844877225206
 20
375.3634344490544
 30
0.0
 10
444.2844877225207
 20
375.2044884443462
 30
0.0
 10
444.2844877225209
 20
374.7609180789713
 30
0.0
 10
444.2844877225208
 20
374.505331232764
 30
0.0
 10
444.284487722521
 20
374.059311265408
 30
0.0
 10
444.284487722521
 20
373.8682757802667
 30
0.0
 10
444.2844877225211
 20
373.5441800338165
 30
0.0
 10
444.2844877225211
 20
373.4116690377527
 30
0.0
 10
444.2844877225214
 20
373.0851095130487
 30
0.0
 10
444.2844877225217
 20
372.9629484378519
 30
0.0
 10
444.284487722522
 20
372.8371934195517
 30
0.0
 10
444.2844877225222
 20
372.8345967081416
 30
0.0
 10
444.2844877225223
 20
372.834596708142
 30
0.0
  0
ARC
  5
158
330
1F
100
AcDbEntity
  8
0
  6
Continuous
 62
     7
370
    25
100
AcDbCircle
 10
443.2844877225
 20
372.8345967081
 30
0.0
 40
1.0
100
AcDbArc
 50
270.0
 51
0.0
  0
LINE
  5
159
330
1F
100
AcDbEntity
  8
0
  6
Continuous
 62
     7
370
    25
100
AcDbLine
 10
443.2844877225
 20
474.8345967081
 30
0.0
 11
423.5518622311
 21
474.8345967081
 31
0.0
  0
SPLINE
  5
15A
330
1F
100
AcDbEntity
  8
0
  6
Continuous
 62
     7
370
    25
100
AcDbSpline
210
0.0
220
0.0
230
1.0
 70
    24
 71
     3
 72
    34
 73
    30
 74
     0
 42
0.00000001
 43
0.00000001
 40
0.0
 40
0.0
 40
0.0
 40
0.0
 40
0.1249999999999998
 40
0.1249999999999998
 40
0.2499999999999995
 40
0.2499999999999995
 40
0.3124999999999995
 40
0.3124999999999995
 40
0.3749999999999994
 40
0.3749999999999994
 40
0.4374999999999994
 40
0.4374999999999994
 40
0.4687499999999993
 40
0.4687499999999993
 40
0.4999999999999991
 40
0.4999999999999991
 40
0.562499999999999
 40
0.562499999999999
 40
0.5937499999999989
 40
0.5937499999999989
 40
0.6249999999999989
 40
0.6249999999999989
 40
0.6874999999999993
 40
0.6874999999999993
 40
0.7499999999999997
 40
0.7499999999999997
 40
0.8749999999999998
 40
0.8749999999999998
 40
1.0
 40
1.0
 40
1.0
 40
1.0
 10
444.2844877225223
 20
473.834596708142
 30
0.0
 10
444.2844877225222
 20
473.8345967081415
 30
0.0
 10
444.2844877225219
 20
473.8318299300004
 30
0.0
 10
444.2844877225216
 20
473.7063375422593
 30
0.0
 10
444.2844877225214
 20
473.5861202037059
 30
0.0
 10
444.2844877225211
 20
473.2615336492478
 30
0.0
 10
444.2844877225211
 20
473.1285895540973
 30
0.0
 10
444.284487722521
 20
472.8045343833332
 30
0.0
 10
444.284487722521
 20
472.6148829203237
 30
0.0
 10
444.2844877225208
 20
472.1688152716729
 30
0.0
 10
444.2844877225207
 20
471.9124625755197
 30
0.0
 10
444.2844877225206
 20
471.4649475245585
 30
0.0
 10
444.2844877225206
 20
471.3060069242425
 30
0.0
 10
444.2844877225205
 20
470.9726904607525
 30
0.0
 10
444.2844877225205
 20
470.7976562013228
 30
0.0
 10
444.2844877225204
 20
470.2473481905315
 30
0.0
 10
444.2844877225204
 20
469.8467503246624
 30
0.0
 10
444.2844877225203
 20
469.1980829189977
 30
0.0
 10
444.2844877225203
 20
468.9731778829263
 30
0.0
 10
444.2844877225203
 20
468.5167900425704
 30
0.0
 10
444.2844877225202
 20
468.2844242289159
 30
0.0
 10
444.2844877225202
 20
467.5762190958571
 30
0.0
 10
444.2844877225201
 20
467.0893410946598
 30
0.0
 10
444.2844877225201
 20
466.0915356166645
 30
0.0
 10
444.2844877225199
 20
465.5805773706767
 30
0.0
 10
444.2844877225199
 20
464.0492850096124
 30
0.0
 10
444.2844877225199
 20
463.0187732197159
 30
0.0
 10
444.2844877225199
 20
460.9464156777143
 30
0.0
 10
444.28448772252
 20
459.9043250611046
 30
0.0
 10
444.2844877225199
 20
458.8619385842885
 30
0.0
  0
ARC
  5
15B
330
1F
100
AcDbEntity
  8
0
  6
Continuous
 62
     7
370
    25
100
AcDbCircle
 10
443.2844877225
 20
473.8345967081
 30
0.0
 40
1.0
100
AcDbArc
 50
0.0
 51
90.0
  0
SPLINE
  5
15C
330
1F
100
AcDbEntity
  8
0
  6
Continuous
 62
     7
370
    25
100
AcDbSpline
210
0.0
220
0.0
230
1.0
 70
     8
 71
     3
 72
    22
 73
    18
 74
     0
 42
0.00000001
 43
0.00000001
 40
0.0
 40
0.0
 40
0.0
 40
0.0
 40
0.125
 40
0.125
 40
0.25
 40
0.25
 40
0.375
 40
0.375
 40
0.5
 40
0.5
 40
0.625
 40
0.625
 40
0.75
 40
0.75
 40
0.875
 40
0.875
 40
1.0
 40
1.0
 40
1.0
 40
1.0
 10
438.0538279989413
 20
415.8869563464561
 30
0.0
 10
438.0501745722992
 20
416.5847030611933
 30
0.0
 10
438.0445049938108
 20
417.2862629830614
 30
0.0
 10
437.9426033418862
 20
418.7017462502388
 30
0.0
 10
437.8467993127075
 20
419.4140387304843
 30
0.0
 10
437.5196375043357
 20
420.7903009934707
 30
0.0
 10
437.2887077694002
 20
421.4526399111481
 30
0.0
 10
436.6741448143976
 20
422.6550734799661
 30
0.0
 10
436.290939638588
 20
423.1935372660431
 30
0.0
 10
435.3696762589443
 20
424.1099895064525
 30
0.0
 10
434.829213405555
 20
424.4903700524719
 30
0.0
 10
433.6235784899943
 20
425.0986286845215
 30
0.0
 10
432.9600395117553
 20
425.3260872713122
 30
0.0
 10
431.5820831068357
 20
425.6460385355994
 30
0.0
 10
430.8692987640877
 20
425.7381117138562
 30
0.0
 10
429.4533013466409
 20
425.8326005497473
 30
0.0
 10
428.7517213558746
 20
425.834596708142
 30
0.0
 10
428.053965076467
 20
425.834596708142
 30
0.0
  0
LINE
  5
15D
330
1F
100
AcDbEntity
  8
0
  6
Continuous
 62
     7
370
    25
100
AcDbLine
 10
414.7844877225
 20
425.8345967081
 30
0.0
 11
428.0539650765
 21
425.8345967081
 31
0.0
  0
SPLINE
  5
15E
330
1F
100
AcDbEntity
  8
0
  6
Continuous
 62
     7
370
    25
100
AcDbSpline
210
0.0
220
0.0
230
1.0
 70
    24
 71
     3
 72
    34
 73
    30
 74
     0
 42
0.00000001
 43
0.00000001
 40
0.0
 40
0.0
 40
0.0
 40
0.0
 40
0.1250000000000004
 40
0.1250000000000004
 40
0.2500000000000008
 40
0.2500000000000008
 40
0.3125000000000007
 40
0.3125000000000007
 40
0.3750000000000007
 40
0.3750000000000007
 40
0.4375000000000007
 40
0.4375000000000007
 40
0.4687500000000007
 40
0.4687500000000007
 40
0.5000000000000007
 40
0.5000000000000007
 40
0.5625000000000003
 40
0.5625000000000003
 40
0.5937500000000002
 40
0.5937500000000002
 40
0.625
 40
0.625
 40
0.6875
 40
0.6875
 40
0.75
 40
0.75
 40
0.875
 40
0.875
 40
1.0
 40
1.0
 40
1.0
 40
1.0
 10
414.2844877225223
 20
426.334596708142
 30
0.0
 10
414.2844877225222
 20
426.3345967081415
 30
0.0
 10
414.284487722522
 20
426.33779844933
 30
0.0
 10
414.2844877225216
 20
426.4734727281213
 30
0.0
 10
414.2844877225215
 20
426.6029956780121
 30
0.0
 10
414.2844877225212
 20
426.9461077902219
 30
0.0
 10
414.2844877225211
 20
427.0851831879322
 30
0.0
 10
414.284487722521
 20
427.425559504935
 30
0.0
 10
414.2844877225209
 20
427.6268804301925
 30
0.0
 10
414.2844877225207
 20
428.0955593502221
 30
0.0
 10
414.2844877225207
 20
428.363785999185
 30
0.0
 10
414.2844877225206
 20
428.8282347558562
 30
0.0
 10
414.2844877225206
 20
428.9933091464285
 30
0.0
 10
414.2844877225205
 20
429.33857099797
 30
0.0
 10
414.2844877225205
 20
429.5195091839925
 30
0.0
 10
414.2844877225203
 20
430.0871774222699
 30
0.0
 10
414.2844877225203
 20
430.4988538494093
 30
0.0
 10
414.2844877225202
 20
431.1634018400331
 30
0.0
 10
414.2844877225202
 20
431.3938403453278
 30
0.0
 10
414.2844877225201
 20
431.8633714119271
 30
0.0
 10
414.2844877225202
 20
432.1022799288808
 30
0.0
 10
414.2844877225201
 20
432.8300695333463
 30
0.0
 10
414.2844877225201
 20
433.3299489513421
 30
0.0
 10
414.28448772252
 20
434.3537616384023
 30
0.0
 10
414.2844877225199
 20
434.8797785172268
 30
0.0
 10
414.2844877225199
 20
436.4587399749723
 30
0.0
 10
414.2844877225199
 20
437.5211297883401
 30
0.0
 10
414.2844877225199
 20
439.6574985392269
 30
0.0
 10
414.2844877225199
 20
440.7317519802407
 30
0.0
 10
414.2844877225199
 20
441.8063434361134
 30
0.0
  0
ARC
  5
15F
330
1F
100
AcDbEntity
  8
0
  6
Continuous
 62
     7
370
    25
100
AcDbCircle
 10
414.7844877225
 20
426.3345967081
 30
0.0
 40
0.4999999999999432
100
AcDbArc
 50
180.0
 51
270.0
  0
SPLINE
  5
160
330
1F
100
AcDbEntity
  8
0
  6
Continuous
 62
     7
370
    25
100
AcDbSpline
210
0.0
220
0.0
230
1.0
 70
    24
 71
     3
 72
    32
 73
    28
 74
     0
 42
0.00000001
 43
0.00000001
 40
0.0
 40
0.0
 40
0.0
 40
0.0
 40
0.1250000000000001
 40
0.1250000000000001
 40
0.2500000000000002
 40
0.2500000000000002
 40
0.3125000000000003
 40
0.3125000000000003
 40
0.3750000000000003
 40
0.3750000000000003
 40
0.4375000000000004
 40
0.4375000000000004
 40
0.5000000000000004
 40
0.5000000000000004
 40
0.5625000000000004
 40
0.5625000000000004
 40
0.5937500000000007
 40
0.5937500000000007
 40
0.6250000000000008
 40
0.6250000000000008
 40
0.6875000000000007
 40
0.6875000000000007
 40
0.7500000000000004
 40
0.7500000000000004
 40
0.8750000000000002
 40
0.8750000000000002
 40
1.0
 40
1.0
 40
1.0
 40
1.0
 10
417.4507606396683
 20
459.0338600518311
 30
0.0
 10
417.8319216638443
 20
460.0810913589311
 30
0.0
 10
418.2130585690969
 20
461.1282563998334
 30
0.0
 10
418.9743897229045
 20
463.2199965536472
 30
0.0
 10
419.3519418314941
 20
464.2573124466642
 30
0.0
 10
419.908626500302
 20
465.7867910039707
 30
0.0
 10
420.092669818142
 20
466.2924458639376
 30
0.0
 10
420.4569699741061
 20
467.293352316353
 30
0.0
 10
420.6383417914491
 20
467.7916672890283
 30
0.0
 10
420.9892281105704
 20
468.7557195276098
 30
0.0
 10
421.1588492229508
 20
469.2217497037378
 30
0.0
 10
421.4838545282544
 20
470.1146944412623
 30
0.0
 10
421.6403242813992
 20
470.5445915548552
 30
0.0
 10
421.9250147616314
 20
471.326772220827
 30
0.0
 10
422.0544266438118
 20
471.6823284449267
 30
0.0
 10
422.2297545391673
 20
472.1640378784164
 30
0.0
 10
422.2850794868715
 20
472.3160419229663
 30
0.0
 10
422.3896851906474
 20
472.6034437320367
 30
0.0
 10
422.4390319492458
 20
472.739022837009
 30
0.0
 10
422.5759348562269
 20
473.1151604825971
 30
0.0
 10
422.653457749924
 20
473.3281528825209
 30
0.0
 10
422.7860919599493
 20
473.6925623796126
 30
0.0
 10
422.8413211723822
 20
473.8443033936662
 30
0.0
 10
422.9774117228212
 20
474.2182091079985
 30
0.0
 10
423.0277545943226
 20
474.3565250106792
 30
0.0
 10
423.0806869671297
 20
474.5019555097248
 30
0.0
 10
423.0820159207559
 20
474.5056067798043
 30
0.0
 10
423.0820159207561
 20
474.5056067798049
 30
0.0
  0
ARC
  5
161
330
1F
100
AcDbEntity
  8
0
  6
Continuous
 62
     7
370
    25
100
AcDbCircle
 10
423.5518622311
 20
474.3345967081
 30
0.0
 40
0.500000000000029
100
AcDbArc
 50
90.0
 51
160.0
  0
LINE
  5
162
330
1F
100
AcDbEntity
  8
0
  6
Continuous
 62
     7
370
    25
100
AcDbLine
 10
444.2844877225
 20
458.8619385843
 30
0.0
 11
444.2844877225
 21
425.839832672
 31
0.0
  0
LINE
  5
163
330
1F
100
AcDbEntity
  8
0
  6
Continuous
 62
     7
370
    25
100
AcDbLine
 10
416.395245995
 20
456.1338573997
 30
0.0
 11
417.4507606397
 21
459.0338600518
 31
0.0
  0
LINE
  5
164
330
1F
100
AcDbEntity
  8
0
  6
Continuous
 62
     7
370
    25
100
AcDbLine
 10
414.2844877225
 20
441.8063434361
 30
0.0
 11
414.2844877225
 21
444.1631523833
 31
0.0
  0
LINE
  5
165
330
1F
100
AcDbEntity
  8
0
  6
Continuous
 62
     7
370
    25
100
AcDbLine
 10
444.2844877225
 20
425.839832672
 30
0.0
 11
444.2844877225
 21
387.7560572507
 31
0.0
  0
LINE
  5
166
330
1F
100
AcDbEntity
  8
0
  6
Continuous
 62
     7
370
    25
100
AcDbLine
 10
438.0441299195
 20
417.7391361622
 30
0.0
 11
438.2011498039
 21
387.7508212868
 31
0.0
  0
SPLINE
  5
167
330
1F
100
AcDbEntity
  8
0
  6
Continuous
 62
     7
370
    25
100
AcDbSpline
210
0.0
220
0.0
230
1.0
 70
    24
 71
     3
 72
    38
 73
    34
 74
     0
 42
0.00000001
 43
0.00000001
 40
0.0
 40
0.0
 40
0.0
 40
0.0
 40
0.0026348528730983
 40
0.0026348528730983
 40
0.0039522793096474
 40
0.0039522793096474
 40
0.0052697057461965
 40
0.0052697057461965
 40
0.0065871321827457
 40
0.0065871321827457
 40
0.0079045586192948
 40
0.0079045586192948
 40
0.0085632718375694
 40
0.0085632718375694
 40
0.0092219850558439
 40
0.0092219850558439
 40
0.0098806982741185
 40
0.0098806982741185
 40
0.0105394114923931
 40
0.0105394114923931
 40
0.0111981247106676
 40
0.0111981247106676
 40
0.0118568379289422
 40
0.0118568379289422
 40
0.0131742643654913
 40
0.0131742643654913
 40
0.0144916908020404
 40
0.0144916908020404
 40
0.0158091172385896
 40
0.0158091172385896
 40
0.0184439701116879
 40
0.0184439701116879
 40
0.0210788229847861
 40
0.0210788229847861
 40
0.0210788229847861
 40
0.0210788229847861
 10
438.2662575528281
 20
375.3162708347322
 30
0.0
 10
438.2662575528502
 20
375.3162708304786
 30
0.0
 10
438.2662542386445
 20
375.3169037913547
 30
0.0
 10
438.265926127496
 20
375.3795678320522
 30
0.0
 10
438.2657638306037
 20
375.4105639719617
 30
0.0
 10
438.2652881560476
 20
375.5014102900146
 30
0.0
 10
438.2649736968096
 20
375.5614670316892
 30
0.0
 10
438.264154201397
 20
375.717977696286
 30
0.0
 10
438.2636501368584
 20
375.8142460520799
 30
0.0
 10
438.2624031145565
 20
376.052407591763
 30
0.0
 10
438.261661177121
 20
376.1941059092117
 30
0.0
 10
438.2603080564483
 20
376.4525305599366
 30
0.0
 10
438.2598156743782
 20
376.5465677489802
 30
0.0
 10
438.2587528485837
 20
376.7495506685954
 30
0.0
 10
438.2581808309059
 20
376.858796999372
 30
0.0
 10
438.2569441904533
 20
377.094975770057
 30
0.0
 10
438.2562795114715
 20
377.2219189446047
 30
0.0
 10
438.2548443532947
 20
377.4960114613002
 30
0.0
 10
438.2540678426145
 20
377.6443127217821
 30
0.0
 10
438.2524311281292
 20
377.9568993060706
 30
0.0
 10
438.2515723688849
 20
378.1209087416325
 30
0.0
 10
438.2497804715163
 20
378.4631328026322
 30
0.0
 10
438.2488474492861
 20
378.6413252941352
 30
0.0
 10
438.245949138095
 20
379.1948568988273
 30
0.0
 10
438.2438710183026
 20
379.591744916549
 30
0.0
 10
438.2396438357407
 20
380.3990699388251
 30
0.0
 10
438.237480240507
 20
380.8122824141553
 30
0.0
 10
438.233077952971
 20
381.6530497174206
 30
0.0
 10
438.230838966606
 20
382.0806607066536
 30
0.0
 10
438.2240314397382
 20
383.380790686743
 30
0.0
 10
438.2194629013784
 20
384.2533092683046
 30
0.0
 10
438.2103167150763
 20
386.0000862176831
 30
0.0
 10
438.2057333965785
 20
386.8754275719166
 30
0.0
 10
438.2011498039181
 20
387.7508212868338
 30
0.0
  0
SPLINE
  5
168
330
1F
100
AcDbEntity
  8
0
  6
Continuous
 62
     7
370
    25
100
AcDbSpline
210
0.0
220
0.0
230
1.0
 70
     8
 71
     3
 72
    22
 73
    18
 74
     0
 42
0.00000001
 43
0.00000001
 40
0.0
 40
0.0
 40
0.0
 40
0.0
 40
0.125
 40
0.125
 40
0.25
 40
0.25
 40
0.375
 40
0.375
 40
0.5
 40
0.5
 40
0.625
 40
0.625
 40
0.75
 40
0.75
 40
0.875
 40
0.875
 40
1.0
 40
1.0
 40
1.0
 40
1.0
 10
441.7662095756941
 20
371.834596708142
 30
0.0
 10
441.5219948779014
 20
371.834596708142
 30
0.0
 10
441.2764418811332
 20
371.8352953635802
 30
0.0
 10
440.7808427850269
 20
371.8683664561421
 30
0.0
 10
440.5313682650651
 20
371.900592068532
 30
0.0
 10
440.0490835233432
 20
372.0125750110325
 30
0.0
 10
439.8168448809596
 20
372.0921855164092
 30
0.0
 10
439.3948726605133
 20
372.3050760376266
 30
0.0
 10
439.2057106618271
 20
372.4382092287334
 30
0.0
 10
438.8832684789518
 20
372.7589675128767
 30
0.0
 10
438.7491466674184
 20
372.9474298380036
 30
0.0
 10
438.5340496331675
 20
373.3682815870899
 30
0.0
 10
438.4532242259401
 20
373.600100208277
 30
0.0
 10
438.33871759301
 20
374.0817920003223
 30
0.0
 10
438.3051861827973
 20
374.3310943684082
 30
0.0
 10
438.2695206046238
 20
374.8265135119203
 30
0.0
 10
438.2675362521529
 20
375.0720594845742
 30
0.0
 10
438.2662575528281
 20
375.3162708347322
 30
0.0
  0
LINE
  5
169
330
1F
100
AcDbEntity
  8
0
  6
Continuous
 62
     7
370
    25
100
AcDbLine
 10
420.2844877225
 20
425.4845967081
 30
0.0
 11
428.2844877225
 21
425.4845967081
 31
0.0
  0
SPLINE
  5
16A
330
1F
100
AcDbEntity
  8
0
  6
Continuous
 62
     8
370
    18
100
AcDbSpline
210
0.0
220
0.0
230
1.0
 70
     8
 71
     3
 72
    18
 73
    14
 74
     0
 42
0.00000001
 43
0.00000001
 40
0.0
 40
0.0
 40
0.0
 40
0.0
 40
0.1249999999999998
 40
0.1249999999999998
 40
0.2499999999999997
 40
0.2499999999999997
 40
0.3749999999999995
 40
0.3749999999999995
 40
0.4999999999999993
 40
0.4999999999999993
 40
0.7499999999999997
 40
0.7499999999999997
 40
1.0
 40
1.0
 40
1.0
 40
1.0
 10
375.6092794847691
 20
365.1786510252607
 30
0.0
 10
375.6092788391578
 20
365.73408227955
 30
0.0
 10
375.6093099022773
 20
366.3372037962889
 30
0.0
 10
375.6094004644552
 20
367.6127098674216
 30
0.0
 10
375.6094588663936
 20
368.2766202451281
 30
0.0
 10
375.6095829806814
 20
369.6476575447521
 30
0.0
 10
375.6096444136632
 20
370.3547191760919
 30
0.0
 10
375.6097704166419
 20
371.8054060820297
 30
0.0
 10
375.6098348993867
 20
372.5512397001897
 30
0.0
 10
375.6100547591296
 20
374.8213272122251
 30
0.0
 10
375.610232935614
 20
376.3625387651306
 30
0.0
 10
375.6105097011109
 20
379.4763438983908
 30
0.0
 10
375.6105873591991
 20
381.0384689699692
 30
0.0
 10
375.6106323344709
 20
382.6027173265711
 30
0.0
  0
SPLINE
  5
16B
330
1F
100
AcDbEntity
  8
0
  6
Continuous
 62
     8
370
    18
100
AcDbSpline
210
0.0
220
0.0
230
1.0
 70
     8
 71
     3
 72
    20
 73
    16
 74
     0
 42
0.00000001
 43
0.00000001
 40
0.0
 40
0.0
 40
0.0
 40
0.0
 40
0.2500000000000009
 40
0.2500000000000009
 40
0.3750000000000021
 40
0.3750000000000021
 40
0.5000000000000032
 40
0.5000000000000032
 40
0.7500000000000049
 40
0.7500000000000049
 40
0.8125000000000038
 40
0.8125000000000038
 40
0.8750000000000027
 40
0.8750000000000027
 40
1.0
 40
1.0
 40
1.0
 40
1.0
 10
375.6106285083415
 20
486.5533001796697
 30
0.0
 10
375.6105775792451
 20
488.1176769155904
 30
0.0
 10
375.610492963975
 20
489.6791917392541
 30
0.0
 10
375.6102986307779
 20
492.0109698829143
 30
0.0
 10
375.6102251574341
 20
492.7888416877014
 30
0.0
 10
375.6100779548891
 20
494.3278619577032
 30
0.0
 10
375.6100070406729
 20
495.0878740008219
 30
0.0
 10
375.6098020863446
 20
497.3348460100276
 30
0.0
 10
375.6096813342883
 20
498.7895884958823
 30
0.0
 10
375.6095084547765
 20
500.5282407776746
 30
0.0
 10
375.609473968078
 20
500.8728234420946
 30
0.0
 10
375.6094105035812
 20
501.5426406998909
 30
0.0
 10
375.6093816077524
 20
501.868942070482
 30
0.0
 10
375.6093055369234
 20
502.82074315688
 30
0.0
 10
375.6092726831467
 20
503.4189695216052
 30
0.0
 10
375.6092740049713
 20
503.977366581674
 30
0.0
  0
SPLINE
  5
16C
330
1F
100
AcDbEntity
  8
0
  6
Continuous
 62
     8
370
    18
100
AcDbSpline
210
0.0
220
0.0
230
1.0
 70
     8
 71
     3
 72
    20
 73
    16
 74
     0
 42
0.00000001
 43
0.00000001
 40
0.0
 40
0.0
 40
0.0
 40
0.0
 40
0.2499999999999989
 40
0.2499999999999989
 40
0.4999999999999978
 40
0.4999999999999978
 40
0.6249999999999983
 40
0.6249999999999983
 40
0.7499999999999989
 40
0.7499999999999989
 40
0.8749999999999994
 40
0.8749999999999994
 40
0.9374999999999997
 40
0.9374999999999997
 40
1.0
 40
1.0
 40
1.0
 40
1.0
 10
376.5842598851286
 20
382.6128745494722
 30
0.0
 10
376.5842168040633
 20
381.112210312066
 30
0.0
 10
376.5841432883691
 20
379.6134985979131
 30
0.0
 10
376.5838648386626
 20
376.6257526126757
 30
0.0
 10
376.5836846981283
 20
375.1454489097538
 30
0.0
 10
376.5834623185046
 20
372.9651502577369
 30
0.0
 10
376.5833955141242
 20
372.247051242943
 30
0.0
 10
376.5832701062495
 20
370.851031576669
 30
0.0
 10
376.583210020312
 20
370.1704872255997
 30
0.0
 10
376.5830841754944
 20
368.85086460443
 30
0.0
 10
376.5830260572275
 20
368.2119182783661
 30
0.0
 10
376.5829578809606
 20
367.291795987374
 30
0.0
 10
376.5829431188287
 20
366.9927324807646
 30
0.0
 10
376.5829167289589
 20
366.4167013329027
 30
0.0
 10
376.5829041215495
 20
366.1387387624074
 30
0.0
 10
376.5829048756686
 20
365.8714696140579
 30
0.0
  0
SPLINE
  5
16D
330
1F
100
AcDbEntity
  8
0
  6
Continuous
 62
     8
370
    18
100
AcDbSpline
210
0.0
220
0.0
230
1.0
 70
     8
 71
     3
 72
     8
 73
     4
 74
     0
 42
0.00000001
 43
0.00000001
 40
0.0
 40
0.0
 40
0.0
 40
0.0
 40
1.0
 40
1.0
 40
1.0
 40
1.0
 10
375.6079408994391
 20
470.3025337570907
 30
0.0
 10
375.6087148112692
 20
475.7195331966771
 30
0.0
 10
375.6108068183095
 20
481.1364548648943
 30
0.0
 10
375.6106285083416
 20
486.5533001796684
 30
0.0
  0
SPLINE
  5
16E
330
1F
100
AcDbEntity
  8
0
  6
Continuous
 62
     8
370
    18
100
AcDbSpline
210
0.0
220
0.0
230
1.0
 70
     8
 71
     3
 72
    12
 73
     8
 74
     0
 42
0.00000001
 43
0.00000001
 40
0.0
 40
0.0
 40
0.0
 40
0.0
 40
0.2500000000000001
 40
0.2500000000000001
 40
0.5000000000000001
 40
0.5000000000000001
 40
1.0
 40
1.0
 40
1.0
 40
1.0
 10
375.6106323344709
 20
382.6027173265711
 30
0.0
 10
375.6108447952741
 20
389.9108465831033
 30
0.0
 10
375.6080645922449
 20
397.2191596622506
 30
0.0
 10
375.6063270260614
 20
411.8358348144389
 30
0.0
 10
375.6057419363849
 20
419.1441723288321
 30
0.0
 10
375.6050489837473
 20
441.069184686865
 30
0.0
 10
375.6058526553161
 20
455.6858593453995
 30
0.0
 10
375.6079408994391
 20
470.3025337570907
 30
0.0
  0
SPLINE
  5
16F
330
1F
100
AcDbEntity
  8
0
  6
Continuous
 62
     8
370
    18
100
AcDbSpline
210
0.0
220
0.0
230
1.0
 70
     8
 71
     3
 72
    12
 73
     8
 74
     0
 42
0.00000001
 43
0.00000001
 40
0.0
 40
0.0
 40
0.0
 40
0.0
 40
0.5
 40
0.5
 40
0.75
 40
0.75
 40
1.0
 40
1.0
 40
1.0
 40
1.0
 10
376.5815619186824
 20
470.2953919066984
 30
0.0
 10
376.5794737982318
 20
455.6817228878018
 30
0.0
 10
376.5786695755876
 20
441.0676312974032
 30
0.0
 10
376.5793618103094
 20
419.1468836754405
 30
0.0
 10
376.5799483775904
 20
411.8400002306674
 30
0.0
 10
376.5816856902319
 20
397.2262975257853
 30
0.0
 10
376.584469643446
 20
389.9194992819616
 30
0.0
 10
376.5842598851286
 20
382.6128745494722
 30
0.0
  0
SPLINE
  5
170
330
1F
100
AcDbEntity
  8
0
  6
Continuous
 62
     8
370
    18
100
AcDbSpline
210
0.0
220
0.0
230
1.0
 70
     8
 71
     3
 72
     8
 73
     4
 74
     0
 42
0.00000001
 43
0.00000001
 40
0.0
 40
0.0
 40
0.0
 40
0.0
 40
1.0
 40
1.0
 40
1.0
 40
1.0
 10
376.5842560916773
 20
486.5431467812613
 30
0.0
 10
376.5844311486706
 20
481.1273059634159
 30
0.0
 10
376.5823358005548
 20
475.7113886423816
 30
0.0
 10
376.5815619186824
 20
470.2953919066984
 30
0.0
  0
LINE
  5
171
330
1F
100
AcDbEntity
  8
0
  6
Continuous
 62
     8
370
    18
100
AcDbLine
 10
376.5842285271
 20
360.7226541029
 30
0.0
 11
376.5828152842
 21
360.6474848267
 31
0.0
  0
SPLINE
  5
172
330
1F
100
AcDbEntity
  8
0
  6
Continuous
 62
     8
370
    18
100
AcDbSpline
210
0.0
220
0.0
230
1.0
 70
     8
 71
     3
 72
    20
 73
    16
 74
     0
 42
0.00000001
 43
0.00000001
 40
0.0
 40
0.0
 40
0.0
 40
0.0
 40
0.0624999999999991
 40
0.0624999999999991
 40
0.1249999999999983
 40
0.1249999999999983
 40
0.2499999999999984
 40
0.2499999999999984
 40
0.3749999999999985
 40
0.3749999999999985
 40
0.4999999999999997
 40
0.4999999999999997
 40
0.7499999999999998
 40
0.7499999999999998
 40
1.0
 40
1.0
 40
1.0
 40
1.0
 10
376.5829048756606
 20
365.8714696137737
 30
0.0
 10
376.5829058363421
 20
365.6042120099515
 30
0.0
 10
376.5829201465
 20
365.349400338425
 30
0.0
 10
376.5829521087124
 20
364.8631775227642
 30
0.0
 10
376.582971004392
 20
364.6311441891361
 30
0.0
 10
376.5830548025845
 20
363.9747442758488
 30
0.0
 10
376.5831267008076
 20
363.5915799824793
 30
0.0
 10
376.5832819629499
 20
362.9142208394745
 30
0.0
 10
376.5833582223956
 20
362.619744440664
 30
0.0
 10
376.5835055821216
 20
362.1052525820301
 30
0.0
 10
376.5835772818832
 20
361.8846742637244
 30
0.0
 10
376.5837789202078
 20
361.3243675575774
 30
0.0
 10
376.5838897611009
 20
361.0860591466061
 30
0.0
 10
376.5840750758858
 20
360.7917648862116
 30
0.0
 10
376.5841485112004
 20
360.7382851935964
 30
0.0
 10
376.5842285270739
 20
360.7226541028897
 30
0.0
  0
LINE
  5
173
330
1F
100
AcDbEntity
  8
0
  6
Continuous
 62
     8
370
    18
100
AcDbLine
 10
375.6106375273
 20
509.4131768612
 30
0.0
 11
369.5844877225
 21
509.5709686209
 31
0.0
  0
SPLINE
  5
174
330
1F
100
AcDbEntity
  8
0
  6
Continuous
 62
     8
370
    18
100
AcDbSpline
210
0.0
220
0.0
230
1.0
 70
     8
 71
     3
 72
    24
 73
    20
 74
     0
 42
0.00000001
 43
0.00000001
 40
0.0
 40
0.0
 40
0.0
 40
0.0
 40
0.0312500000000008
 40
0.0312500000000008
 40
0.0625000000000017
 40
0.0625000000000017
 40
0.1250000000000016
 40
0.1250000000000016
 40
0.1875000000000016
 40
0.1875000000000016
 40
0.2500000000000015
 40
0.2500000000000015
 40
0.5000000000000013
 40
0.5000000000000013
 40
0.6250000000000013
 40
0.6250000000000013
 40
0.7500000000000012
 40
0.7500000000000012
 40
1.0
 40
1.0
 40
1.0
 40
1.0
 10
375.6092740049107
 20
503.9773637672093
 30
0.0
 10
375.6092744423786
 20
504.1155885761304
 30
0.0
 10
375.6092781819528
 20
504.2531840334581
 30
0.0
 10
375.6092888524359
 20
504.5191999873542
 30
0.0
 10
375.6092957795929
 20
504.6489869889901
 30
0.0
 10
375.6093190867452
 20
505.0289674187056
 30
0.0
 10
375.6093370462762
 20
505.2698173554147
 30
0.0
 10
375.609388458101
 20
505.7270574422968
 30
0.0
 10
375.6094173068395
 20
505.9436777071347
 30
0.0
 10
375.6094800758323
 20
506.3540532300177
 30
0.0
 10
375.6095139003801
 20
506.5482937806688
 30
0.0
 10
375.60968310474
 20
507.4531026907998
 30
0.0
 10
375.6098033234138
 20
507.9800003792179
 30
0.0
 10
375.6100241010934
 20
508.5701615409792
 30
0.0
 10
375.6101018124741
 20
508.7328650485255
 30
0.0
 10
375.6102586942033
 20
508.999638101046
 30
0.0
 10
375.6103347094115
 20
509.1033534743918
 30
0.0
 10
375.6105260115746
 20
509.3396403429735
 30
0.0
 10
375.6105939454667
 20
509.3969149668768
 30
0.0
 10
375.6106375273123
 20
509.4131768612265
 30
0.0
  0
SPLINE
  5
175
330
1F
100
AcDbEntity
  8
0
  6
Continuous
 62
     8
370
    18
100
AcDbSpline
210
0.0
220
0.0
230
1.0
 70
     8
 71
     3
 72
    18
 73
    14
 74
     0
 42
0.00000001
 43
0.00000001
 40
0.0
 40
0.0
 40
0.0
 40
0.0
 40
0.25
 40
0.25
 40
0.5
 40
0.5
 40
0.625
 40
0.625
 40
0.75
 40
0.75
 40
0.875
 40
0.875
 40
1.0
 40
1.0
 40
1.0
 40
1.0
 10
375.6106013285657
 20
359.7428396963952
 30
0.0
 10
375.610518190439
 20
359.759099360727
 30
0.0
 10
375.6104415459476
 20
359.8162997751657
 30
0.0
 10
375.6102572042765
 20
360.1320965172779
 30
0.0
 10
375.6101443397214
 20
360.3873004718999
 30
0.0
 10
375.6099397049844
 20
360.9846206808922
 30
0.0
 10
375.6098689164338
 20
361.2190316182619
 30
0.0
 10
375.6097204460842
 20
361.7645137091789
 30
0.0
 10
375.6096435726042
 20
362.0761654816854
 30
0.0
 10
375.609492477734
 20
362.7911727697516
 30
0.0
 10
375.6094219462465
 20
363.1946672349151
 30
0.0
 10
375.6093142872813
 20
364.1130022405433
 30
0.0
 10
375.6092805760286
 20
364.6216465729666
 30
0.0
 10
375.6092794847335
 20
365.1786538397284
 30
0.0
  0
LINE
  5
176
330
1F
100
AcDbEntity
  8
0
  6
Continuous
 62
     8
370
    18
100
AcDbLine
 10
375.6106013286
 20
359.7428396964
 30
0.0
 11
369.5844877225
 21
359.5850488846
 31
0.0
  0
ARC
  5
177
330
1F
100
AcDbEntity
  8
0
  6
Continuous
 62
     8
370
    18
100
AcDbCircle
 10
375.5844516609
 20
360.742470971
 30
0.0
 40
0.9999732448079403
100
AcDbArc
 50
271.4984764983
 51
358.8644723794
  0
ARC
  5
178
330
1F
100
AcDbEntity
  8
0
  6
Continuous
 62
     8
370
    18
100
AcDbCircle
 10
375.5844881806
 20
508.4135459004
 30
0.0
 40
0.9999729227425536
100
AcDbArc
 50
1.1327172979
 51
88.5015414153
  0
SPLINE
  5
179
330
1F
100
AcDbEntity
  8
0
  6
Continuous
 62
     8
370
    18
100
AcDbSpline
210
0.0
220
0.0
230
1.0
 70
     8
 71
     3
 72
     9
 73
     5
 74
     0
 42
0.00000001
 43
0.00000001
 40
0.0
 40
0.0
 40
0.0
 40
0.0
 40
0.3317226240753179
 40
1.0
 40
1.0
 40
1.0
 40
1.0
 10
375.6106375273123
 20
509.4131768612265
 30
0.0
 10
375.6096056418543
 20
509.4680045369033
 30
0.0
 10
375.6064949542399
 20
509.6332862261752
 30
0.0
 10
375.605839467792
 20
509.663140912857
 30
0.0
 10
375.6054014210285
 20
509.6830921245318
 30
0.0
  0
SPLINE
  5
17A
330
1F
100
AcDbEntity
  8
0
  6
Continuous
 62
     8
370
    18
100
AcDbSpline
210
0.0
220
0.0
230
1.0
 70
     8
 71
     3
 72
    10
 73
     6
 74
     0
 42
0.00000001
 43
0.00000001
 40
0.0
 40
0.0
 40
0.0
 40
0.0
 40
0.0038632581559722
 40
0.6704925312947928
 40
1.0
 40
1.0
 40
1.0
 40
1.0
 10
375.6054079543072
 20
359.4732364817737
 30
0.0
 10
375.6054033363409
 20
359.4730059376056
 30
0.0
 10
375.6046018595115
 20
359.4329935603533
 30
0.0
 10
375.6067373378605
 20
359.5354241265942
 30
0.0
 10
375.6096408794601
 20
359.6912836462644
 30
0.0
 10
375.6106013285657
 20
359.7428396963957
 30
0.0
  0
ARC
  5
17B
330
1F
100
AcDbEntity
  8
0
  6
Continuous
 62
     8
370
    18
100
AcDbCircle
 10
378.9481125974
 20
352.1526291291
 30
0.0
 40
110.5187026361085
100
AcDbArc
 50
69.9352409931
 51
70.1943477779
  0
SPLINE
  5
17C
330
1F
100
AcDbEntity
  8
0
  6
Continuous
 62
     8
370
    18
100
AcDbSpline
210
0.0
220
0.0
230
1.0
 70
     8
 71
     3
 72
    10
 73
     6
 74
     0
 42
0.00000001
 43
0.00000001
 40
0.0
 40
0.0
 40
0.0
 40
0.0
 40
0.4999999999999998
 40
0.4999999999999998
 40
1.0
 40
1.0
 40
1.0
 40
1.0
 10
416.8650923054059
 20
455.9634488069722
 30
0.0
 10
416.1715529275496
 20
454.0577613919036
 30
0.0
 10
415.6553832073129
 20
452.1208023279916
 30
0.0
 10
414.9618505536312
 20
448.1871499502353
 30
0.0
 10
414.7844877225198
 20
446.1904566182804
 30
0.0
 10
414.7844877225198
 20
444.1624928545114
 30
0.0
  0
ARC
  5
17D
330
1F
100
AcDbEntity
  8
0
  6
Continuous
 62
     8
370
    18
100
AcDbCircle
 10
414.65948794
 20
538.927609428
 30
0.0
 40
94.76519901384204
100
AcDbArc
 50
269.7732713477
 51
270.0755758668
  0
SPLINE
  5
17E
330
1F
100
AcDbEntity
  8
0
  6
Continuous
 62
     8
370
    18
100
AcDbSpline
210
0.0
220
0.0
230
1.0
 70
    24
 71
     3
 72
    26
 73
    22
 74
     0
 42
0.00000001
 43
0.00000001
 40
0.0
 40
0.0
 40
0.0
 40
0.0
 40
0.0624999999999999
 40
0.0624999999999999
 40
0.1249999999999997
 40
0.1249999999999997
 40
0.2499999999999997
 40
0.2499999999999997
 40
0.3749999999999997
 40
0.3749999999999997
 40
0.4999999999999998
 40
0.4999999999999998
 40
0.6249999999999998
 40
0.6249999999999998
 40
0.7499999999999999
 40
0.7499999999999999
 40
0.8749999999999999
 40
0.8749999999999999
 40
0.9374999999999999
 40
0.9374999999999999
 40
1.0
 40
1.0
 40
1.0
 40
1.0
 10
443.2844877225223
 20
371.834596708142
 30
0.0
 10
443.2844877225223
 20
371.8345967081418
 30
0.0
 10
443.2844877225222
 20
371.834806811462
 30
0.0
 10
443.284487722522
 20
371.8553119928365
 30
0.0
 10
443.2844877225219
 20
371.8755860959287
 30
0.0
 10
443.2844877225216
 20
371.9889726989973
 30
0.0
 10
443.2844877225214
 20
372.1362897842078
 30
0.0
 10
443.2844877225211
 20
372.6482118070663
 30
0.0
 10
443.284487722521
 20
373.012145545931
 30
0.0
 10
443.2844877225206
 20
373.9853593572095
 30
0.0
 10
443.2844877225205
 20
374.5939682308401
 30
0.0
 10
443.2844877225203
 20
376.0602918154945
 30
0.0
 10
443.2844877225202
 20
376.9218338732175
 30
0.0
 10
443.2844877225201
 20
378.8457275833258
 30
0.0
 10
443.28448772252
 20
379.9054698516093
 30
0.0
 10
443.2844877225199
 20
382.1074894723874
 30
0.0
 10
443.2844877225198
 20
383.2471574407801
 30
0.0
 10
443.2844877225198
 20
384.9457373613928
 30
0.0
 10
443.2844877225198
 20
385.5105204024617
 30
0.0
 10
443.2844877225198
 20
386.6340044509131
 30
0.0
 10
443.2844877225198
 20
387.1926239150425
 30
0.0
 10
443.2844877225198
 20
387.7508212868324
 30
0.0
  0
SPLINE
  5
17F
330
1F
100
AcDbEntity
  8
0
  6
Continuous
 62
     8
370
    18
100
AcDbSpline
210
0.0
220
0.0
230
1.0
 70
    24
 71
     3
 72
    26
 73
    22
 74
     0
 42
0.00000001
 43
0.00000001
 40
0.0
 40
0.0
 40
0.0
 40
0.0
 40
0.0625000000000002
 40
0.0625000000000002
 40
0.1250000000000004
 40
0.1250000000000004
 40
0.2500000000000004
 40
0.2500000000000004
 40
0.3750000000000005
 40
0.3750000000000005
 40
0.5000000000000006
 40
0.5000000000000006
 40
0.6250000000000006
 40
0.6250000000000006
 40
0.7500000000000006
 40
0.7500000000000006
 40
0.8750000000000002
 40
0.8750000000000002
 40
0.9375000000000001
 40
0.9375000000000001
 40
1.0
 40
1.0
 40
1.0
 40
1.0
 10
443.2844877225198
 20
458.8637613760294
 30
0.0
 10
443.2844877225198
 20
459.4244219416752
 30
0.0
 10
443.2844877225198
 20
459.9853893201698
 30
0.0
 10
443.2844877225197
 20
461.1133134170717
 30
0.0
 10
443.2844877225198
 20
461.6801889862455
 30
0.0
 10
443.2844877225198
 20
463.3846807475441
 30
0.0
 10
443.2844877225199
 20
464.5277970953114
 30
0.0
 10
443.28448772252
 20
466.7360692968076
 30
0.0
 10
443.28448772252
 20
467.7986283750639
 30
0.0
 10
443.2844877225202
 20
469.7278930247359
 30
0.0
 10
443.2844877225203
 20
470.5920018206792
 30
0.0
 10
443.2844877225205
 20
472.0632142030819
 30
0.0
 10
443.2844877225206
 20
472.6741210997814
 30
0.0
 10
443.2844877225209
 20
473.6512987603284
 30
0.0
 10
443.2844877225211
 20
474.0168907900812
 30
0.0
 10
443.2844877225214
 20
474.5312647413018
 30
0.0
 10
443.2844877225216
 20
474.6793679286749
 30
0.0
 10
443.2844877225218
 20
474.7933719415253
 30
0.0
 10
443.284487722522
 20
474.8137616500804
 30
0.0
 10
443.2844877225222
 20
474.8343846386089
 30
0.0
 10
443.2844877225222
 20
474.8345967081418
 30
0.0
 10
443.2844877225223
 20
474.834596708142
 30
0.0
  0
SPLINE
  5
180
330
1F
100
AcDbEntity
  8
0
  6
Continuous
 62
     8
370
    18
100
AcDbSpline
210
0.0
220
0.0
230
1.0
 70
     8
 71
     3
 72
    38
 73
    34
 74
     0
 42
0.00000001
 43
0.00000001
 40
0.0
 40
0.0
 40
0.0
 40
0.0
 40
0.1250000000000001
 40
0.1250000000000001
 40
0.2500000000000001
 40
0.2500000000000001
 40
0.3125000000000001
 40
0.3125000000000001
 40
0.3750000000000002
 40
0.3750000000000002
 40
0.4062500000000002
 40
0.4062500000000002
 40
0.4375000000000002
 40
0.4375000000000002
 40
0.5000000000000002
 40
0.5000000000000002
 40
0.5625000000000002
 40
0.5625000000000002
 40
0.6250000000000002
 40
0.6250000000000002
 40
0.6875000000000003
 40
0.6875000000000003
 40
0.7500000000000003
 40
0.7500000000000003
 40
0.8750000000000007
 40
0.8750000000000007
 40
0.9375000000000006
 40
0.9375000000000006
 40
0.9687500000000002
 40
0.9687500000000002
 40
0.9843750000000001
 40
0.9843750000000001
 40
1.0
 40
1.0
 40
1.0
 40
1.0
 10
423.5518622311491
 20
474.834596708142
 30
0.0
 10
423.5518622311488
 20
474.8345967081415
 30
0.0
 10
423.5502128972591
 20
474.8302942720172
 30
0.0
 10
423.4949446961289
 20
474.6756721828861
 30
0.0
 10
423.4427343038352
 20
474.529270047452
 30
0.0
 10
423.3040720134604
 20
474.1367438380331
 30
0.0
 10
423.2481784371678
 20
473.9781326653806
 30
0.0
 10
423.1147812986079
 20
473.5979331087293
 30
0.0
 10
423.0371977469802
 20
473.3761134600417
 30
0.0
 10
422.9012308504556
 20
472.9854381928582
 30
0.0
 10
422.8524010912493
 20
472.8448512360491
 30
0.0
 10
422.7493213887266
 20
472.5474245534588
 30
0.0
 10
422.6949602912247
 20
472.3902652477008
 30
0.0
 10
422.5231509836633
 20
471.8927157906852
 30
0.0
 10
422.3969732094836
 20
471.5261164852953
 30
0.0
 10
422.1197133148785
 20
470.7209763964474
 30
0.0
 10
421.9672852134723
 20
470.2787638288457
 30
0.0
 10
421.6491515624483
 20
469.3596632630745
 30
0.0
 10
421.4825345287741
 20
468.8800938431574
 30
0.0
 10
421.1363647419541
 20
467.8880112419659
 30
0.0
 10
420.9564159619488
 20
467.374353751101
 30
0.0
 10
420.593674048574
 20
466.3425322554227
 30
0.0
 10
420.4098310623448
 20
465.821327586651
 30
0.0
 10
419.85223762572
 20
464.2449749462446
 30
0.0
 10
419.4723049105184
 20
463.1764265799073
 30
0.0
 10
418.8939810774476
 20
461.5596611447784
 30
0.0
 10
418.7004753217519
 20
461.0203740621892
 30
0.0
 10
418.4089586677118
 20
460.2113589836837
 30
0.0
 10
418.3115981636059
 20
459.9417383790303
 30
0.0
 10
418.1652316125376
 20
459.5374114885481
 30
0.0
 10
418.1163884221597
 20
459.4026532282703
 30
0.0
 10
418.01858616979
 20
459.1331762284703
 30
0.0
 10
417.9692019578317
 20
458.9972893309048
 30
0.0
 10
417.9206069500573
 20
458.8637613760294
 30
0.0
  0
SPLINE
  5
181
330
1F
100
AcDbEntity
  8
0
  6
Continuous
 62
     8
370
    18
100
AcDbSpline
210
0.0
220
0.0
230
1.0
 70
    24
 71
     3
 72
    26
 73
    22
 74
     0
 42
0.00000001
 43
0.00000001
 40
0.0
 40
0.0
 40
0.0
 40
0.0
 40
0.0625
 40
0.0625
 40
0.1250000000000001
 40
0.1250000000000001
 40
0.2500000000000001
 40
0.2500000000000001
 40
0.3750000000000003
 40
0.3750000000000003
 40
0.5000000000000003
 40
0.5000000000000003
 40
0.6250000000000004
 40
0.6250000000000004
 40
0.7500000000000006
 40
0.7500000000000006
 40
0.8750000000000002
 40
0.8750000000000002
 40
0.9375000000000001
 40
0.9375000000000001
 40
1.0
 40
1.0
 40
1.0
 40
1.0
 10
414.7844877225198
 20
441.8054320402405
 30
0.0
 10
414.7844877225198
 20
441.2447714745948
 30
0.0
 10
414.7844877225198
 20
440.6838040961001
 30
0.0
 10
414.7844877225198
 20
439.5558799991982
 30
0.0
 10
414.7844877225198
 20
438.9890044300245
 30
0.0
 10
414.7844877225199
 20
437.2845126687259
 30
0.0
 10
414.7844877225199
 20
436.1413963209587
 30
0.0
 10
414.7844877225199
 20
433.933124119463
 30
0.0
 10
414.7844877225199
 20
432.870565041207
 30
0.0
 10
414.7844877225201
 20
430.9413003915358
 30
0.0
 10
414.7844877225202
 20
430.0771915955931
 30
0.0
 10
414.7844877225205
 20
428.6059792131916
 30
0.0
 10
414.7844877225206
 20
427.9950723164929
 30
0.0
 10
414.7844877225209
 20
427.0178946559478
 30
0.0
 10
414.7844877225211
 20
426.6523026261958
 30
0.0
 10
414.7844877225214
 20
426.1379286749772
 30
0.0
 10
414.7844877225216
 20
425.9898254876051
 30
0.0
 10
414.7844877225219
 20
425.8758214747563
 30
0.0
 10
414.784487722522
 20
425.8554317662017
 30
0.0
 10
414.7844877225222
 20
425.8348087776741
 30
0.0
 10
414.7844877225222
 20
425.8345967081418
 30
0.0
 10
414.7844877225223
 20
425.834596708142
 30
0.0
  0
ARC
  5
182
330
1F
100
AcDbEntity
  8
0
  6
Continuous
 62
     8
370
    18
100
AcDbCircle
 10
414.6594881375
 20
510.3822434531
 30
0.0
 40
68.57692533534946
100
AcDbArc
 50
269.6866869129
 51
270.1044367707
  0
LINE
  5
183
330
1F
100
AcDbEntity
  8
0
  6
Continuous
 62
     8
370
    18
100
AcDbLine
 10
443.2844877225
 20
425.8345967081
 30
0.0
 11
443.2844877225
 21
458.863761376
 31
0.0
  0
LINE
  5
184
330
1F
100
AcDbEntity
  8
0
  6
Continuous
 62
     8
370
    18
100
AcDbLine
 10
414.7844877225
 20
444.1624928545
 30
0.0
 11
414.7844877225
 21
441.8054320402
 31
0.0
  0
LINE
  5
185
330
1F
100
AcDbEntity
  8
0
  6
Continuous
 62
     8
370
    18
100
AcDbLine
 10
417.9206069501
 20
458.863761376
 30
0.0
 11
416.8650923054
 21
455.963448807
 31
0.0
  0
LINE
  5
186
330
1F
100
AcDbEntity
  8
0
  6
Continuous
 62
     8
370
    18
100
AcDbLine
 10
404.5844877225
 20
474.8780087527
 30
0.0
 11
404.5844877225
 21
425.8780087527
 31
0.0
  0
LINE
  5
187
330
1F
100
AcDbEntity
  8
0
  6
Continuous
 62
     8
370
    18
100
AcDbLine
 10
443.2844877225
 20
387.7508212868
 30
0.0
 11
443.2844877225
 21
425.8345967081
 31
0.0
  0
LINE
  5
188
330
1F
100
AcDbEntity
  8
0
  6
Continuous
 62
     8
370
    18
100
AcDbLine
 10
422.2162629656
 20
424.8840493382
 30
0.0
 11
428.0659063556
 21
424.8840493382
 31
0.0
  0
LINE
  5
189
330
1F
100
AcDbEntity
  8
0
  6
Continuous
 62
     8
370
    18
100
AcDbLine
 10
420.5030690894
 20
424.8840493382
 30
0.0
 11
422.2162629656
 21
424.8840493382
 31
0.0
  0
ENDSEC
  0
SECTION
  2
OBJECTS
  0
DICTIONARY
  5
C
330
0
100
AcDbDictionary
281
     1
  3
ACAD_GROUP
350
D
  3
ACAD_LAYOUT
350
1A
  3
ACAD_MLINESTYLE
350
17
  3
ACAD_PLOTSETTINGS
350
19
  3
ACAD_PLOTSTYLENAME
350
E
  3
ACAD_SCALELIST
350
47
  3
DWGPROPS
350
18A
  0
DICTIONARY
  5
D
102
{ACAD_REACTORS
330
C
102
}
330
C
100
AcDbDictionary
281
     1
  0
DICTIONARY
  5
1A
102
{ACAD_REACTORS
330
C
102
}
330
C
100
AcDbDictionary
281
     1
  3
Layout1
350
1E
  3
Layout2
350
26
  3
Model
350
22
  0
DICTIONARY
  5
17
102
{ACAD_REACTORS
330
C
102
}
330
C
100
AcDbDictionary
281
     1
  3
Standard
350
18
  0
DICTIONARY
  5
19
102
{ACAD_REACTORS
330
C
102
}
330
C
100
AcDbDictionary
281
     1
  0
ACDBDICTIONARYWDFLT
  5
E
102
{ACAD_REACTORS
330
C
102
}
330
C
100
AcDbDictionary
281
     1
  3
Normal
350
F
100
AcDbDictionaryWithDefault
340
F
  0
DICTIONARY
  5
47
102
{ACAD_REACTORS
330
C
102
}
330
C
100
AcDbDictionary
281
     1
  3
A0
350
48
  3
A1
350
49
  3
A2
350
4A
  3
A3
350
4B
  3
A4
350
4C
  3
A5
350
4D
  3
A6
350
4E
  3
A7
350
4F
  3
A8
350
50
  3
A9
350
51
  3
B0
350
52
  3
B1
350
53
  3
B2
350
54
  3
B3
350
55
  3
B4
350
56
  3
B5
350
57
  3
B6
350
58
  0
XRECORD
  5
18A
102
{ACAD_REACTORS
330
C
102
}
330
C
100
AcDbXrecord
280
     1
  1
DWGPROPS COOKIE
  2

  3

  4

  6

  7

  8
fue-task
  9

300
=
301
=
302
=
303
=
304
=
305
=
306
=
307
=
308
=
309
=
 40
0.0
 41
2460334.553172708
 42
2460334.553174525
  1

 90
        0
  0
LAYOUT
  5
1E
102
{ACAD_REACTORS
330
1A
102
}
330
1A
100
AcDbPlotSettings
  1

  2
none_device
  4

  6

 40
0.0
 41
0.0
 42
0.0
 43
0.0
 44
0.0
 45
0.0
 46
0.0
 47
0.0
 48
0.0
 49
0.0
140
0.0
141
0.0
142
1.0
143
1.0
 70
   688
 72
     1
 73
     0
 74
     5
  7

 75
    16
147
1.0
148
0.0
149
0.0
100
AcDbLayout
  1
Layout1
 70
     1
 71
     1
 10
0.0
 20
0.0
 11
420.0
 21
297.0
 12
0.0
 22
0.0
 32
0.0
 14
1.0000000000E+20
 24
1.0000000000E+20
 34
1.0000000000E+20
 15
-1.0000000000E+20
 25
-1.0000000000E+20
 35
-1.0000000000E+20
146
0.0
 13
0.0
 23
0.0
 33
0.0
 16
1.0
 26
0.0
 36
0.0
 17
0.0
 27
1.0
 37
0.0
 76
     0
330
1B
  0
LAYOUT
  5
26
102
{ACAD_REACTORS
330
1A
102
}
330
1A
100
AcDbPlotSettings
  1

  2
none_device
  4

  6

 40
0.0
 41
0.0
 42
0.0
 43
0.0
 44
0.0
 45
0.0
 46
0.0
 47
0.0
 48
0.0
 49
0.0
140
0.0
141
0.0
142
1.0
143
1.0
 70
   688
 72
     1
 73
     0
 74
     5
  7

 75
    16
147
1.0
148
0.0
149
0.0
100
AcDbLayout
  1
Layout2
 70
     1
 71
     2
 10
0.0
 20
0.0
 11
0.0
 21
0.0
 12
0.0
 22
0.0
 32
0.0
 14
0.0
 24
0.0
 34
0.0
 15
0.0
 25
0.0
 35
0.0
146
0.0
 13
0.0
 23
0.0
 33
0.0
 16
1.0
 26
0.0
 36
0.0
 17
0.0
 27
1.0
 37
0.0
 76
     0
330
23
  0
LAYOUT
  5
22
102
{ACAD_REACTORS
330
1A
102
}
330
1A
100
AcDbPlotSettings
  1

  2
none_device
  4
Letter_(8.50_x_11.00_Inches)
  6

 40
6.35
 41
6.35
 42
6.35000508
 43
6.35000508
 44
215.9
 45
279.4
 46
0.0
 47
0.0
 48
0.0
 49
0.0
140
0.0
141
0.0
142
1.0
143
1.0
 70
  1712
 72
     1
 73
     0
 74
     0
  7

 75
     0
147
1.0
148
0.0
149
0.0
100
AcDbLayout
  1
Model
 70
     1
 71
     0
 10
0.0
 20
0.0
 11
594.0
 21
841.0
 12
0.0
 22
0.0
 32
0.0
 14
0.0
 24
0.0
 34
0.0
 15
594.0
 25
841.0
 35
0.0
146
0.0
 13
0.0
 23
0.0
 33
0.0
 16
1.0
 26
0.0
 36
0.0
 17
0.0
 27
1.0
 37
0.0
 76
     0
330
1F
331
29
  0
MLINESTYLE
  5
18
102
{ACAD_REACTORS
330
17
102
}
330
17
100
AcDbMlineStyle
  2
Standard
 70
     0
  3

 62
   256
 51
90.0
 52
90.0
 71
     2
 49
0.5
 62
   256
  6
BYLAYER
 49
-0.5
 62
   256
  6
BYLAYER
  0
ACDBPLACEHOLDER
  5
F
102
{ACAD_REACTORS
330
E
102
}
330
E
  0
SCALE
  5
48
102
{ACAD_REACTORS
330
47
102
}
330
47
100
AcDbScale
 70
     0
300
1:1
140
1.0
141
1.0
290
     1
  0
SCALE
  5
49
102
{ACAD_REACTORS
330
47
102
}
330
47
100
AcDbScale
 70
     0
300
1:2
140
1.0
141
2.0
290
     0
  0
SCALE
  5
4A
102
{ACAD_REACTORS
330
47
102
}
330
47
100
AcDbScale
 70
     0
300
1:4
140
1.0
141
4.0
290
     0
  0
SCALE
  5
4B
102
{ACAD_REACTORS
330
47
102
}
330
47
100
AcDbScale
 70
     0
300
1:5
140
1.0
141
5.0
290
     0
  0
SCALE
  5
4C
102
{ACAD_REACTORS
330
47
102
}
330
47
100
AcDbScale
 70
     0
300
1:8
140
1.0
141
8.0
290
     0
  0
SCALE
  5
4D
102
{ACAD_REACTORS
330
47
102
}
330
47
100
AcDbScale
 70
     0
300
1:10
140
1.0
141
10.0
290
     0
  0
SCALE
  5
4E
102
{ACAD_REACTORS
330
47
102
}
330
47
100
AcDbScale
 70
     0
300
1:16
140
1.0
141
16.0
290
     0
  0
SCALE
  5
4F
102
{ACAD_REACTORS
330
47
102
}
330
47
100
AcDbScale
 70
     0
300
1:20
140
1.0
141
20.0
290
     0
  0
SCALE
  5
50
102
{ACAD_REACTORS
330
47
102
}
330
47
100
AcDbScale
 70
     0
300
1:30
140
1.0
141
30.0
290
     0
  0
SCALE
  5
51
102
{ACAD_REACTORS
330
47
102
}
330
47
100
AcDbScale
 70
     0
300
1:40
140
1.0
141
40.0
290
     0
  0
SCALE
  5
52
102
{ACAD_REACTORS
330
47
102
}
330
47
100
AcDbScale
 70
     0
300
1:50
140
1.0
141
50.0
290
     0
  0
SCALE
  5
53
102
{ACAD_REACTORS
330
47
102
}
330
47
100
AcDbScale
 70
     0
300
1:100
140
1.0
141
100.0
290
     0
  0
SCALE
  5
54
102
{ACAD_REACTORS
330
47
102
}
330
47
100
AcDbScale
 70
     0
300
2:1
140
2.0
141
1.0
290
     0
  0
SCALE
  5
55
102
{ACAD_REACTORS
330
47
102
}
330
47
100
AcDbScale
 70
     0
300
4:1
140
4.0
141
1.0
290
     0
  0
SCALE
  5
56
102
{ACAD_REACTORS
330
47
102
}
330
47
100
AcDbScale
 70
     0
300
8:1
140
8.0
141
1.0
290
     0
  0
SCALE
  5
57
102
{ACAD_REACTORS
330
47
102
}
330
47
100
AcDbScale
 70
     0
300
10:1
140
10.0
141
1.0
290
     0
  0
SCALE
  5
58
102
{ACAD_REACTORS
330
47
102
}
330
47
100
AcDbScale
 70
     0
300
100:1
140
100.0
141
1.0
290
     0
  0
ENDSEC
  0
EOF
