  0
SECTION
  2
HEADER
  9
$ACADVER
  1
AC1024
  9
$ACADMAINTVER
 70
     6
  9
$DWGCODEPAGE
  3
ANSI_1252
  9
$INSBASE
 10
0.0
 20
0.0
 30
0.0
  9
$EXTMIN
 10
0.0
 20
0.0
 30
0.0
  9
$EXTMAX
 10
594.0
 20
841.0
 30
0.0
  9
$LIMMIN
 10
0.0
 20
0.0
  9
$LIMMAX
 10
594.0
 20
841.0
  9
$ORTHOMODE
 70
     0
  9
$REGENMODE
 70
     1
  9
$FILLMODE
 70
     1
  9
$QTEXTMODE
 70
     0
  9
$MIRRTEXT
 70
     1
  9
$LTSCALE
 40
1.0
  9
$ATTMODE
 70
     1
  9
$TEXTSIZE
 40
10.0
  9
$TRACEWID
 40
1.0
  9
$TEXTSTYLE
  7
Standard
  9
$CLAYER
  8
0
  9
$CELTYPE
  6
ByLayer
  9
$CECOLOR
 62
   256
  9
$CELTSCALE
 40
1.0
  9
$DISPSILH
 70
     0
  9
$DIMSCALE
 40
1.0
  9
$DIMASZ
 40
2.5
  9
$DIMEXO
 40
0.0
  9
$DIMDLI
 40
3.75
  9
$DIMRND
 40
0.0
  9
$DIMDLE
 40
0.0
  9
$DIMEXE
 40
1.0
  9
$DIMTP
 40
0.0
  9
$DIMTM
 40
0.0
  9
$DIMTXT
 40
3.5
  9
$DIMCEN
 40
2.5
  9
$DIMTSZ
 40
0.0
  9
$DIMTOL
 70
     0
  9
$DIMLIM
 70
     0
  9
$DIMTIH
 70
     1
  9
$DIMTOH
 70
     1
  9
$DIMSE1
 70
     0
  9
$DIMSE2
 70
     0
  9
$DIMTAD
 70
     1
  9
$DIMZIN
 70
     0
  9
$DIMBLK
  1

  9
$DIMASO
 70
     1
  9
$DIMSHO
 70
     1
  9
$DIMPOST
  1

  9
$DIMAPOST
  1

  9
$DIMALT
 70
     0
  9
$DIMALTD
 70
     3
  9
$DIMALTF
 40
0.0393700787
  9
$DIMLFAC
 40
1.0
  9
$DIMTOFL
 70
     1
  9
$DIMTVP
 40
0.0
  9
$DIMTIX
 70
     0
  9
$DIMSOXD
 70
     0
  9
$DIMSAH
 70
     0
  9
$DIMBLK1
  1

  9
$DIMBLK2
  1

  9
$DIMSTYLE
  2
ISO-25
  9
$DIMCLRD
 70
     0
  9
$DIMCLRE
 70
     0
  9
$DIMCLRT
 70
     0
  9
$DIMTFAC
 40
1.0
  9
$DIMGAP
 40
1.5
  9
$DIMJUST
 70
     0
  9
$DIMSD1
 70
     0
  9
$DIMSD2
 70
     0
  9
$DIMTOLJ
 70
     0
  9
$DIMTZIN
 70
     0
  9
$DIMALTZ
 70
     0
  9
$DIMALTTZ
 70
     0
  9
$DIMUPT
 70
     0
  9
$DIMDEC
 70
     2
  9
$DIMTDEC
 70
     2
  9
$DIMALTU
 70
     2
  9
$DIMALTTD
 70
     3
  9
$DIMTXSTY
  7
Standard
  9
$DIMAUNIT
 70
     0
  9
$DIMADEC
 70
     2
  9
$DIMALTRND
 40
0.0
  9
$DIMAZIN
 70
     0
  9
$DIMDSEP
 70
    44
  9
$DIMATFIT
 70
     3
  9
$DIMFRAC
 70
     0
  9
$DIMLDRBLK
  1

  9
$DIMLUNIT
 70
     2
  9
$DIMLWD
 70
    -2
  9
$DIMLWE
 70
    -2
  9
$DIMTMOVE
 70
     0
  9
$DIMFXL
 40
1.0
  9
$DIMFXLON
 70
     0
  9
$DIMJOGANG
 40
0.7853981634
  9
$DIMTFILL
 70
     0
  9
$DIMTFILLCLR
 70
     0
  9
$DIMARCSYM
 70
     0
  9
$DIMLTYPE
  6

  9
$DIMLTEX1
  6

  9
$DIMLTEX2
  6

  9
$DIMTXTDIRECTION
 70
     0
  9
$LUNITS
 70
     2
  9
$LUPREC
 70
     2
  9
$SKETCHINC
 40
1.0
  9
$FILLETRAD
 40
10.0
  9
$AUNITS
 70
     0
  9
$AUPREC
 70
     2
  9
$MENU
  1
.
  9
$ELEVATION
 40
0.0
  9
$PELEVATION
 40
0.0
  9
$THICKNESS
 40
0.0
  9
$LIMCHECK
 70
     0
  9
$CHAMFERA
 40
10.0
  9
$CHAMFERB
 40
10.0
  9
$CHAMFERC
 40
20.0
  9
$CHAMFERD
 40
0.0
  9
$SKPOLY
 70
     0
  9
$TDCREATE
 40
2456171.334293762
  9
$TDUCREATE
 40
2456171.250960428
  9
$TDUPDATE
 40
2456171.334293773
  9
$TDUUPDATE
 40
2456171.25096044
  9
$TDINDWG
 40
0.0000000116
  9
$TDUSRTIMER
 40
0.0000000116
  9
$USRTIMER
 70
     1
  9
$ANGBASE
 50
0.0
  9
$ANGDIR
 70
     0
  9
$PDMODE
 70
     0
  9
$PDSIZE
 40
-1.0
  9
$PLINEWID
 40
0.0
  9
$SPLFRAME
 70
     0
  9
$SPLINETYPE
 70
     6
  9
$SPLINESEGS
 70
     8
  9
$HANDSEED
  5
131
  9
$SURFTAB1
 70
     6
  9
$SURFTAB2
 70
     6
  9
$SURFTYPE
 70
     6
  9
$SURFU
 70
     6
  9
$SURFV
 70
     6
  9
$UCSBASE
  2

  9
$UCSNAME
  2

  9
$UCSORG
 10
0.0
 20
0.0
 30
0.0
  9
$UCSXDIR
 10
1.0
 20
0.0
 30
0.0
  9
$UCSYDIR
 10
0.0
 20
1.0
 30
0.0
  9
$UCSORTHOREF
  2

  9
$UCSORTHOVIEW
 70
     0
  9
$UCSORGTOP
 10
0.0
 20
0.0
 30
0.0
  9
$UCSORGBOTTOM
 10
0.0
 20
0.0
 30
0.0
  9
$UCSORGLEFT
 10
0.0
 20
0.0
 30
0.0
  9
$UCSORGRIGHT
 10
0.0
 20
0.0
 30
0.0
  9
$UCSORGFRONT
 10
0.0
 20
0.0
 30
0.0
  9
$UCSORGBACK
 10
0.0
 20
0.0
 30
0.0
  9
$PUCSBASE
  2

  9
$PUCSNAME
  2

  9
$PUCSORG
 10
0.0
 20
0.0
 30
0.0
  9
$PUCSXDIR
 10
1.0
 20
0.0
 30
0.0
  9
$PUCSYDIR
 10
0.0
 20
1.0
 30
0.0
  9
$PUCSORTHOREF
  2

  9
$PUCSORTHOVIEW
 70
     0
  9
$PUCSORGTOP
 10
0.0
 20
0.0
 30
0.0
  9
$PUCSORGBOTTOM
 10
0.0
 20
0.0
 30
0.0
  9
$PUCSORGLEFT
 10
0.0
 20
0.0
 30
0.0
  9
$PUCSORGRIGHT
 10
0.0
 20
0.0
 30
0.0
  9
$PUCSORGFRONT
 10
0.0
 20
0.0
 30
0.0
  9
$PUCSORGBACK
 10
0.0
 20
0.0
 30
0.0
  9
$USERI1
 70
     0
  9
$USERI2
 70
     0
  9
$USERI3
 70
     0
  9
$USERI4
 70
     0
  9
$USERI5
 70
     0
  9
$USERR1
 40
0.0
  9
$USERR2
 40
0.0
  9
$USERR3
 40
0.0
  9
$USERR4
 40
0.0
  9
$USERR5
 40
0.0
  9
$WORLDVIEW
 70
     1
  9
$SHADEDGE
 70
     3
  9
$SHADEDIF
 70
    70
  9
$TILEMODE
 70
     1
  9
$MAXACTVP
 70
    64
  9
$PINSBASE
 10
0.0
 20
0.0
 30
0.0
  9
$PLIMCHECK
 70
     0
  9
$PEXTMIN
 10
1.0000000000E+20
 20
1.0000000000E+20
 30
1.0000000000E+20
  9
$PEXTMAX
 10
-1.0000000000E+20
 20
-1.0000000000E+20
 30
-1.0000000000E+20
  9
$PLIMMIN
 10
0.0
 20
0.0
  9
$PLIMMAX
 10
420.0
 20
297.0
  9
$UNITMODE
 70
     0
  9
$VISRETAIN
 70
     1
  9
$PLINEGEN
 70
     0
  9
$PSLTSCALE
 70
     1
  9
$TREEDEPTH
 70
  3020
  9
$CMLSTYLE
  2
Standard
  9
$CMLJUST
 70
     0
  9
$CMLSCALE
 40
20.0
  9
$PROXYGRAPHICS
 70
     1
  9
$MEASUREMENT
 70
     1
  9
$CELWEIGHT
370
    -1
  9
$ENDCAPS
280
     0
  9
$JOINSTYLE
280
     0
  9
$LWDISPLAY
290
     1
  9
$INSUNITS
 70
     4
  9
$HYPERLINKBASE
  1

  9
$STYLESHEET
  1

  9
$XEDIT
290
     1
  9
$CEPSNTYPE
380
     0
  9
$PSTYLEMODE
290
     1
  9
$FINGERPRINTGUID
  2
{0EC46088-2BC9-47A3-98F0-F5356B74FEEA}
  9
$VERSIONGUID
  2
{FAEB1C32-E019-11D5-929B-00C0DF256EC4}
  9
$EXTNAMES
290
     1
  9
$PSVPSCALE
 40
0.0
  9
$OLESTARTUP
290
     0
  9
$SORTENTS
280
   127
  9
$INDEXCTL
280
     0
  9
$HIDETEXT
280
     1
  9
$XCLIPFRAME
280
     2
  9
$HALOGAP
280
     0
  9
$OBSCOLOR
 70
   257
  9
$OBSLTYPE
280
     0
  9
$INTERSECTIONDISPLAY
280
     0
  9
$INTERSECTIONCOLOR
 70
   257
  9
$DIMASSOC
280
     2
  9
$PROJECTNAME
  1

  9
$CAMERADISPLAY
290
     0
  9
$LENSLENGTH
 40
50.0
  9
$CAMERAHEIGHT
 40
0.0
  9
$STEPSPERSEC
 40
2.0
  9
$STEPSIZE
 40
6.0
  9
$3DDWFPREC
 40
2.0
  9
$PSOLWIDTH
 40
5.0
  9
$PSOLHEIGHT
 40
80.0
  9
$LOFTANG1
 40
1.5707963268
  9
$LOFTANG2
 40
1.5707963268
  9
$LOFTMAG1
 40
0.0
  9
$LOFTMAG2
 40
0.0
  9
$LOFTPARAM
 70
     7
  9
$LOFTNORMALS
280
     1
  9
$LATITUDE
 40
37.795
  9
$LONGITUDE
 40
-122.394
  9
$NORTHDIRECTION
 40
0.0
  9
$TIMEZONE
 70
 -8000
  9
$LIGHTGLYPHDISPLAY
280
     1
  9
$TILEMODELIGHTSYNCH
280
     1
  9
$SOLIDHIST
280
     1
  9
$SHOWHIST
280
     1
  9
$DWFFRAME
280
     2
  9
$DGNFRAME
280
     2
  9
$REALWORLDSCALE
290
     1
  9
$INTERFERECOLOR
 62
   256
  9
$CSHADOW
280
     0
  9
$SHADOWPLANELOCATION
 40
0.0
  0
ENDSEC
  0
SECTION
  2
CLASSES
  0
CLASS
  1
ACDBDICTIONARYWDFLT
  2
AcDbDictionaryWithDefault
  3
ObjectDBX Classes
 90
        0
 91
        4
280
     0
281
     0
  0
CLASS
  1
VISUALSTYLE
  2
AcDbVisualStyle
  3
ObjectDBX Classes
 90
     4095
 91
        4
280
     0
281
     0
  0
CLASS
  1
MATERIAL
  2
AcDbMaterial
  3
ObjectDBX Classes
 90
     1153
 91
        4
280
     0
281
     0
  0
ENDSEC
  0
SECTION
  2
TABLES
  0
TABLE
  2
VPORT
  5
8
330
0
100
AcDbSymbolTable
 70
     1
  0
VPORT
  5
29
330
8
100
AcDbSymbolTableRecord
100
AcDbViewportTableRecord
  2
*Active
 70
     0
 10
0.0
 20
0.0
 11
1.0
 21
1.0
 12
297.0
 22
420.5
 13
0.0
 23
0.0
 14
10.0
 24
10.0
 15
10.0
 25
10.0
 16
0.0
 26
0.0
 36
1.0
 17
0.0
 27
0.0
 37
0.0
 40
841.0
 41
0.7063020214
 42
50.0
 43
0.0
 44
0.0
 50
0.0
 51
0.0
 71
     0
 72
  2000
 73
     1
 74
     3
 75
     0
 76
     0
 77
     0
 78
     0
281
     0
 65
     1
110
0.0
120
0.0
130
0.0
111
1.0
121
0.0
131
0.0
112
0.0
122
1.0
132
0.0
 79
     0
146
0.0
 60
     3
 61
     5
292
     1
282
     1
141
0.0
142
0.0
 63
   250
  0
ENDTAB
  0
TABLE
  2
LTYPE
  5
5
330
0
100
AcDbSymbolTable
 70
     6
  0
LTYPE
  5
14
330
5
100
AcDbSymbolTableRecord
100
AcDbLinetypeTableRecord
  2
ByBlock
 70
     0
  3

 72
    65
 73
     0
 40
0.0
  0
LTYPE
  5
15
330
5
100
AcDbSymbolTableRecord
100
AcDbLinetypeTableRecord
  2
ByLayer
 70
     0
  3

 72
    65
 73
     0
 40
0.0
  0
LTYPE
  5
16
330
5
100
AcDbSymbolTableRecord
100
AcDbLinetypeTableRecord
  2
Continuous
 70
     0
  3
Solid line
 72
    65
 73
     0
 40
0.0
  0
LTYPE
  5
3F
330
5
100
AcDbSymbolTableRecord
100
AcDbLinetypeTableRecord
  2
HIDDEN
 70
     0
  3
Hidden __ __ __ __ __ __ __ __ __ __ __ __ __ __
 72
    65
 73
     2
 40
1.905
 49
1.27
 74
     0
 49
-0.635
 74
     0
  0
LTYPE
  5
40
330
5
100
AcDbSymbolTableRecord
100
AcDbLinetypeTableRecord
  2
PHANTOM
 70
     0
  3
Phantom ______  __  __  ______  __  __  ______
 72
    65
 73
     6
 40
12.7
 49
6.35
 74
     0
 49
-1.27
 74
     0
 49
1.27
 74
     0
 49
-1.27
 74
     0
 49
1.27
 74
     0
 49
-1.27
 74
     0
  0
LTYPE
  5
41
330
5
100
AcDbSymbolTableRecord
100
AcDbLinetypeTableRecord
  2
CENTER
 70
     0
  3
Center ____ _ ____ _ ____ _ ____ _ ____ _ ____
 72
    65
 73
     4
 40
10.16
 49
6.35
 74
     0
 49
-1.27
 74
     0
 49
1.27
 74
     0
 49
-1.27
 74
     0
  0
LTYPE
  5
42
330
5
100
AcDbSymbolTableRecord
100
AcDbLinetypeTableRecord
  2
CENTERX2
 70
     0
  3
Center (2x) ________  __  ________  __  _____
 72
    65
 73
     4
 40
20.32
 49
12.7
 74
     0
 49
-2.54
 74
     0
 49
2.54
 74
     0
 49
-2.54
 74
     0
  0
LTYPE
  5
43
330
5
100
AcDbSymbolTableRecord
100
AcDbLinetypeTableRecord
  2
DOT2
 70
     0
  3
Dot (.5x) ........................................
 72
    65
 73
     2
 40
0.635
 49
0.0
 74
     0
 49
-0.635
 74
     0
  0
ENDTAB
  0
TABLE
  2
LAYER
  5
2
330
0
100
AcDbSymbolTable
 70
     1
  0
LAYER
  5
10
330
2
100
AcDbSymbolTableRecord
100
AcDbLayerTableRecord
  2
0
 70
     0
 62
     7
  6
Continuous
370
    -3
390
F
347
3E
  0
ENDTAB
  0
TABLE
  2
STYLE
  5
3
330
0
100
AcDbSymbolTable
 70
     3
  0
STYLE
  5
11
330
3
100
AcDbSymbolTableRecord
100
AcDbTextStyleTableRecord
  2
Standard
 70
     0
 40
0.0
 41
1.0
 50
0.0
 71
     0
 42
2.5
  3
txt
  4

  0
STYLE
  5
47
330
3
100
AcDbSymbolTableRecord
100
AcDbTextStyleTableRecord
  2
SLDTEXTSTYLE0
 70
     0
 40
0.0
 41
0.96
 50
0.0
 71
     0
 42
0.2
  3
ISOCP3
  4

  0
STYLE
  5
5E
330
3
100
AcDbSymbolTableRecord
100
AcDbTextStyleTableRecord
  2
SLDTEXTSTYLE1
 70
     0
 40
0.0
 41
0.605
 50
0.0
 71
     0
 42
0.2
  3
TXT
  4

  0
ENDTAB
  0
TABLE
  2
VIEW
  5
6
330
0
100
AcDbSymbolTable
 70
     0
  0
ENDTAB
  0
TABLE
  2
UCS
  5
7
330
0
100
AcDbSymbolTable
 70
     0
  0
ENDTAB
  0
TABLE
  2
APPID
  5
9
330
0
100
AcDbSymbolTable
 70
     1
  0
APPID
  5
12
330
9
100
AcDbSymbolTableRecord
100
AcDbRegAppTableRecord
  2
ACAD
 70
     0
  0
ENDTAB
  0
TABLE
  2
DIMSTYLE
  5
A
330
0
100
AcDbSymbolTable
 70
     2
100
AcDbDimStyleTable
  0
DIMSTYLE
105
27
330
A
100
AcDbSymbolTableRecord
100
AcDbDimStyleTableRecord
  2
ISO-25
 70
     0
 41
2.5
 42
0.625
 43
3.75
 44
1.25
 73
     0
 74
     0
 77
     1
 78
     8
140
2.5
141
2.5
143
0.0393700787
147
0.625
171
     3
172
     1
178
     0
271
     2
272
     2
274
     3
278
    44
283
     0
284
     8
340
11
  0
DIMSTYLE
105
48
102
{ACAD_REACTORS
330
46
330
53
102
}
330
A
100
AcDbSymbolTableRecord
100
AcDbDimStyleTableRecord
  2
SLDDIMSTYLE0
 70
     0
 41
2.5
 44
0.0
 45
0.000000001
 73
     0
 74
     0
 77
     1
 78
    12
 79
     3
140
6.0
147
1.5
173
     1
178
     0
271
     2
272
     2
276
     2
284
    12
340
47
  0
ENDTAB
  0
TABLE
  2
BLOCK_RECORD
  5
1
330
0
100
AcDbSymbolTable
 70
     3
  0
BLOCK_RECORD
  5
1F
330
1
100
AcDbSymbolTableRecord
100
AcDbBlockTableRecord
  2
*Model_Space
340
22
 70
     0
280
     1
281
     0
  0
BLOCK_RECORD
  5
1B
330
1
100
AcDbSymbolTableRecord
100
AcDbBlockTableRecord
  2
*Paper_Space
340
1E
 70
     0
280
     1
281
     0
  0
BLOCK_RECORD
  5
23
330
1
100
AcDbSymbolTableRecord
100
AcDbBlockTableRecord
  2
*Paper_Space0
340
26
 70
     0
280
     1
281
     0
  0
BLOCK_RECORD
  5
49
330
1
100
AcDbSymbolTableRecord
100
AcDbBlockTableRecord
  2
*D1
340
0
 70
     0
280
     1
281
     0
  0
BLOCK_RECORD
  5
54
330
1
100
AcDbSymbolTableRecord
100
AcDbBlockTableRecord
  2
*D2
340
0
 70
     0
280
     1
281
     0
  0
ENDTAB
  0
ENDSEC
  0
SECTION
  2
BLOCKS
  0
BLOCK
  5
20
330
1F
100
AcDbEntity
  8
0
100
AcDbBlockBegin
  2
*Model_Space
 70
     0
 10
0.0
 20
0.0
 30
0.0
  3
*Model_Space
  1

  0
ENDBLK
  5
21
330
1F
100
AcDbEntity
  8
0
100
AcDbBlockEnd
  0
BLOCK
  5
1C
330
1B
100
AcDbEntity
 67
     1
  8
0
100
AcDbBlockBegin
  2
*Paper_Space
 70
     0
 10
0.0
 20
0.0
 30
0.0
  3
*Paper_Space
  1

  0
ENDBLK
  5
1D
330
1B
100
AcDbEntity
 67
     1
  8
0
100
AcDbBlockEnd
  0
BLOCK
  5
24
330
23
100
AcDbEntity
  8
0
100
AcDbBlockBegin
  2
*Paper_Space0
 70
     0
 10
0.0
 20
0.0
 30
0.0
  3
*Paper_Space0
  1

  0
ENDBLK
  5
25
330
23
100
AcDbEntity
  8
0
100
AcDbBlockEnd
  0
BLOCK
  5
4A
330
49
100
AcDbEntity
  8
0
100
AcDbBlockBegin
  2
*D1
 70
     1
 10
0.0
 20
0.0
 30
0.0
  3
*D1
  1

  0
SOLID
  5
4C
330
49
100
AcDbEntity
  8
0
  6
Continuous
 62
     7
370
     0
100
AcDbTrace
 10
42.7614395004
 20
152.0299240879
 30
0.0
 11
42.4614395004
 21
149.5299240879
 31
0.0
 12
43.0614395004
 22
149.5299240879
 32
0.0
 13
43.0614395004
 23
149.5299240879
 33
0.0
  0
SOLID
  5
4D
330
49
100
AcDbEntity
  8
0
  6
Continuous
 62
     7
370
     0
100
AcDbTrace
 10
42.7614395004
 20
52.0299240879
 30
0.0
 11
43.0614395004
 21
54.5299240879
 31
0.0
 12
42.4614395004
 22
54.5299240879
 32
0.0
 13
42.4614395004
 23
54.5299240879
 33
0.0
  0
LINE
  5
4E
330
49
100
AcDbEntity
  8
0
  6
Continuous
 62
     7
370
     0
100
AcDbLine
 10
56.6850079902
 20
152.0299240879
 30
0.0
 11
41.7614395004
 21
152.0299240879
 31
0.0
  0
LINE
  5
4F
330
49
100
AcDbEntity
  8
0
  6
Continuous
 62
     7
370
     0
100
AcDbLine
 10
56.6850079902
 20
52.0299240879
 30
0.0
 11
41.7614395004
 21
52.0299240879
 31
0.0
  0
LINE
  5
50
330
49
100
AcDbEntity
  8
0
  6
Continuous
 62
     7
370
     0
100
AcDbLine
 10
42.7614395004
 20
152.0299240879
 30
0.0
 11
42.7614395004
 21
52.0299240879
 31
0.0
  0
MTEXT
  5
51
330
49
100
AcDbEntity
  8
0
  6
Continuous
 62
     7
370
     0
100
AcDbMText
 10
35.0270332946
 20
91.6722208134
 30
0.1
 40
6.0
 41
0.0
 46
0.0
 71
     1
 72
     1
  1
100
  7
SLDTEXTSTYLE0
 11
-7.044195017643634E-15
 21
1.0
 31
0.0
 73
     1
 44
1.0
  0
MTEXT
  5
52
330
49
100
AcDbEntity
  8
0
  6
Continuous
 62
     7
370
     0
100
AcDbMText
 10
35.0270332946
 20
108.4388881795
 30
0.1
 40
6.0
 41
0.0
 46
0.0
 71
     1
 72
     1
  1
mm
  7
SLDTEXTSTYLE0
 11
-7.044195017643634E-15
 21
1.0
 31
0.0
 73
     1
 44
1.0
  0
ENDBLK
  5
4B
330
49
100
AcDbEntity
  8
0
100
AcDbBlockEnd
  0
BLOCK
  5
55
330
54
100
AcDbEntity
  8
0
100
AcDbBlockBegin
  2
*D2
 70
     1
 10
0.0
 20
0.0
 30
0.0
  3
*D2
  1

  0
SOLID
  5
57
330
54
100
AcDbEntity
  8
0
  6
Continuous
 62
     7
370
     0
100
AcDbTrace
 10
56.6850079902
 20
38.4602342313
 30
0.0
 11
59.1850079902
 21
38.1602342313
 31
0.0
 12
59.1850079902
 22
38.7602342313
 32
0.0
 13
59.1850079902
 23
38.7602342313
 33
0.0
  0
SOLID
  5
58
330
54
100
AcDbEntity
  8
0
  6
Continuous
 62
     7
370
     0
100
AcDbTrace
 10
156.6850079902
 20
38.4602342313
 30
0.0
 11
154.1850079902
 21
38.7602342313
 31
0.0
 12
154.1850079902
 22
38.1602342313
 32
0.0
 13
154.1850079902
 23
38.1602342313
 33
0.0
  0
LINE
  5
59
330
54
100
AcDbEntity
  8
0
  6
Continuous
 62
     7
370
     0
100
AcDbLine
 10
56.6850079902
 20
52.0299240879
 30
0.0
 11
56.6850079902
 21
37.4602342313
 31
0.0
  0
LINE
  5
5A
330
54
100
AcDbEntity
  8
0
  6
Continuous
 62
     7
370
     0
100
AcDbLine
 10
156.6850079902
 20
52.0299240879
 30
0.0
 11
156.6850079902
 21
37.4602342313
 31
0.0
  0
LINE
  5
5B
330
54
100
AcDbEntity
  8
0
  6
Continuous
 62
     7
370
     0
100
AcDbLine
 10
56.6850079902
 20
38.4602342313
 30
0.0
 11
156.6850079902
 21
38.4602342313
 31
0.0
  0
MTEXT
  5
5C
330
54
100
AcDbEntity
  8
0
  6
Continuous
 62
     7
370
     0
100
AcDbMText
 10
91.2668151533
 20
46.1946404371
 30
0.1
 40
6.0
 41
0.0
 46
0.0
 71
     1
 72
     1
  1
100
  7
SLDTEXTSTYLE0
 73
     1
 44
1.0
  0
MTEXT
  5
5D
330
54
100
AcDbEntity
  8
0
  6
Continuous
 62
     7
370
     0
100
AcDbMText
 10
108.0334825193
 20
46.1946404371
 30
0.1
 40
6.0
 41
0.0
 46
0.0
 71
     1
 72
     1
  1
mm
  7
SLDTEXTSTYLE0
 73
     1
 44
1.0
  0
ENDBLK
  5
56
330
54
100
AcDbEntity
  8
0
100
AcDbBlockEnd
  0
ENDSEC
  0
SECTION
  2
ENTITIES
  0
LINE
  5
44
330
1F
100
AcDbEntity
  8
0
  6
Continuous
 62
     7
370
     0
100
AcDbLine
 10
56.6850079902
 20
152.0299240879
 30
0.0
 11
56.6850079902
 21
52.0299240879
 31
0.0
  0
LINE
  5
45
330
1F
100
AcDbEntity
  8
0
  6
Continuous
 62
     7
370
     0
100
AcDbLine
 10
56.6850079902
 20
52.0299240879
 30
0.0
 11
156.6850079902
 21
52.0299240879
 31
0.0
  0
DIMENSION
  5
46
330
1F
100
AcDbEntity
  8
0
  6
Continuous
 62
     7
370
     0
100
AcDbDimension
280
     0
  2
*D1
 10
42.7614395004
 20
52.0299240879
 30
0.0
 11
42.7614395004
 21
105.4472211621
 31
0.0
 70
   160
  1
<>mm
 71
     2
 42
-1.0
 73
     0
 74
     0
 75
     0
  3
SLDDIMSTYLE0
100
AcDbAlignedDimension
 13
56.6850079902
 23
152.0299240879
 33
0.0
 14
56.6850079902
 24
52.0299240879
 34
0.0
 50
90.0
100
AcDbRotatedDimension
  0
DIMENSION
  5
53
330
1F
100
AcDbEntity
  8
0
  6
Continuous
 62
     7
370
     0
100
AcDbDimension
280
     0
  2
*D2
 10
156.6850079902
 20
38.4602342313
 30
0.0
 11
105.0418155019
 21
38.4602342313
 31
0.0
 70
   160
  1
<>mm
 71
     2
 42
-1.0
 73
     0
 74
     0
 75
     0
  3
SLDDIMSTYLE0
100
AcDbAlignedDimension
 13
56.6850079902
 23
52.0299240879
 33
0.0
 14
156.6850079902
 24
52.0299240879
 34
0.0
100
AcDbRotatedDimension
  0
MTEXT
  5
5F
330
1F
100
AcDbEntity
  8
0
  6
Continuous
 62
     7
370
     0
100
AcDbMText
 10
288.5077062517
 20
47.7654399843
 30
0.0
 40
10.0
 41
0.0
 46
0.0
 71
     1
 72
     1
  1
33 931 05 75
  7
SLDTEXTSTYLE1
 73
     1
 44
1.0
  0
MTEXT
  5
60
330
1F
100
AcDbEntity
  8
0
  6
Continuous
 62
     7
370
     0
100
AcDbMText
 10
412.8252631579
 20
48.4342449499
 30
0.0
 40
10.0
 41
0.0
 46
0.0
 71
     1
 72
     1
  1
KLUDI GmbH & Co KG
  7
SLDTEXTSTYLE1
 73
     1
 44
1.0
  0
LINE
  5
61
330
1F
100
AcDbEntity
  8
0
  6
Continuous
 62
     7
370
    15
100
AcDbLine
 10
190.9045457967
 20
465.2718822616
 30
0.0
 11
190.4053734721
 21
526.200563121
 31
0.0
  0
LINE
  5
62
330
1F
100
AcDbEntity
  8
0
  6
Continuous
 62
     7
370
    15
100
AcDbLine
 10
163.3227763276
 20
526.200563121
 30
0.0
 11
162.823604003
 21
465.2718822616
 31
0.0
  0
LINE
  5
63
330
1F
100
AcDbEntity
  8
0
  6
Continuous
 62
     7
370
    15
100
AcDbLine
 10
165.0788248999
 20
512.4393967885
 30
0.0
 11
165.0788248999
 21
503.581330866
 31
0.0
  0
LINE
  5
64
330
1F
100
AcDbEntity
  8
0
  6
Continuous
 62
     7
370
    15
100
AcDbLine
 10
188.6493248999
 20
503.581330866
 30
0.0
 11
188.6493248999
 21
512.43729483
 31
0.0
  0
LINE
  5
65
330
1F
100
AcDbEntity
  8
0
  6
Continuous
 62
     7
370
    15
100
AcDbLine
 10
180.8760748999
 20
537.533840909
 30
0.0
 11
180.8760748999
 21
551.8884417246
 31
0.0
  0
LINE
  5
66
330
1F
100
AcDbEntity
  8
0
  6
Continuous
 62
     7
370
    15
100
AcDbLine
 10
172.8520748999
 20
551.8884417246
 30
0.0
 11
172.8520748999
 21
537.533840909
 31
0.0
  0
LINE
  5
67
330
1F
100
AcDbEntity
  8
0
  6
Continuous
 62
     7
370
    15
100
AcDbLine
 10
190.9060748999
 20
428.7336052504
 30
0.0
 11
190.9060748999
 21
465.0403981187
 31
0.0
  0
LINE
  5
68
330
1F
100
AcDbEntity
  8
0
  6
Continuous
 62
     7
370
    15
100
AcDbLine
 10
162.8220748999
 20
465.0403981187
 30
0.0
 11
162.8220748999
 21
428.7313864747
 31
0.0
  0
LINE
  5
69
330
1F
100
AcDbEntity
  8
0
  6
Continuous
 62
     7
370
    15
100
AcDbLine
 10
150.6857749026
 20
399.4904877227
 30
0.0
 11
150.6857749026
 21
379.4304877227
 31
0.0
  0
LINE
  5
6A
330
1F
100
AcDbEntity
  8
0
  6
Continuous
 62
     7
370
    15
100
AcDbLine
 10
203.0423749026
 20
379.4304877227
 30
0.0
 11
203.0423749026
 21
399.4904877227
 31
0.0
  0
LINE
  5
6B
330
1F
100
AcDbEntity
  8
0
  6
Continuous
 62
     7
370
    15
100
AcDbLine
 10
202.9420748999
 20
399.9919877227
 30
0.0
 11
202.9420748999
 21
474.7154877227
 31
0.0
  0
LINE
  5
6C
330
1F
100
AcDbEntity
  8
0
  6
Continuous
 62
     7
370
    15
100
AcDbLine
 10
150.7860748999
 20
474.7154877227
 30
0.0
 11
150.7860748999
 21
399.9919877227
 31
0.0
  0
ARC
  5
6D
330
1F
100
AcDbEntity
  8
0
  6
Continuous
 62
     7
370
    15
100
AcDbCircle
 10
151.2875748999
 20
474.7154877227
 30
0.0
 40
0.5015000000000214
100
AcDbArc
 50
90.0
 51
180.0
  0
ARC
  5
6E
330
1F
100
AcDbEntity
  8
0
  6
Continuous
 62
     7
370
    15
100
AcDbCircle
 10
202.4405748999
 20
474.7154877227
 30
0.0
 40
0.5015000000000214
100
AcDbArc
 50
0.0
 51
90.0
  0
LINE
  5
6F
330
1F
100
AcDbEntity
  8
0
  6
Continuous
 62
     7
370
    15
100
AcDbLine
 10
150.7860748999
 20
520.8534877227
 30
0.0
 11
150.7860748999
 21
502.1074177227
 31
0.0
  0
LINE
  5
70
330
1F
100
AcDbEntity
  8
0
  6
Continuous
 62
     7
370
    15
100
AcDbLine
 10
202.9420748999
 20
502.1074177227
 30
0.0
 11
202.9420748999
 21
520.8534877227
 31
0.0
  0
ARC
  5
71
330
1F
100
AcDbEntity
  8
0
  6
Continuous
 62
     7
370
    15
100
AcDbCircle
 10
151.0869748999
 20
520.8534877227
 30
0.0
 40
0.3009000000000697
100
AcDbArc
 50
90.0
 51
180.0
  0
ARC
  5
72
330
1F
100
AcDbEntity
  8
0
  6
Continuous
 62
     7
370
    15
100
AcDbCircle
 10
202.6411748999
 20
520.8534877227
 30
0.0
 40
0.3009000000000697
100
AcDbArc
 50
0.0
 51
90.0
  0
LINE
  5
73
330
1F
100
AcDbEntity
  8
0
  6
Continuous
 62
     7
370
    15
100
AcDbLine
 10
202.8919248999
 20
475.2169877227
 30
0.0
 11
202.8351833188
 21
478.4677107227
 31
0.0
  0
LINE
  5
74
330
1F
100
AcDbEntity
  8
0
  6
Continuous
 62
     7
370
    15
100
AcDbLine
 10
150.8929664809
 20
478.4677107227
 30
0.0
 11
150.8362248999
 21
475.2169877227
 31
0.0
  0
ARC
  5
75
330
1F
100
AcDbEntity
  8
0
  6
Continuous
 62
     7
370
    15
100
AcDbCircle
 10
176.9669946752
 20
478.0125868676
 30
0.0
 40
26.07800000000003
100
AcDbArc
 50
159.7191621451
 51
179.0
  0
ARC
  5
76
330
1F
100
AcDbEntity
  8
0
  6
Continuous
 62
     7
370
    15
100
AcDbCircle
 10
176.7611551245
 20
478.0125868676
 30
0.0
 40
26.07800000000003
100
AcDbArc
 50
1.0
 51
20.2859433386
  0
LINE
  5
77
330
1F
100
AcDbEntity
  8
0
  6
Continuous
 62
     7
370
    15
100
AcDbLine
 10
151.8893748955
 20
399.9919877227
 30
0.0
 11
151.8893748955
 21
399.4904877227
 31
0.0
  0
LINE
  5
78
330
1F
100
AcDbEntity
  8
0
  6
Continuous
 62
     7
370
    15
100
AcDbLine
 10
201.8387748955
 20
399.4904877227
 30
0.0
 11
201.8387748955
 21
399.9919877227
 31
0.0
  0
LWPOLYLINE
  5
79
330
1F
100
AcDbEntity
  8
0
  6
Continuous
 62
     7
370
    15
100
AcDbPolyline
 90
       43
 70
   128
 43
0.0
 10
190.4057277564
 20
526.1140745162
 10
190.2544786825
 20
524.3320402585
 10
189.804110115
 20
522.5898137015
 10
189.0646825436
 20
520.9263133074
 10
188.0527135583
 20
519.3786989261
 10
186.790808874
 20
517.9815417057
 10
185.3071573562
 20
516.7660518297
 10
183.6349013281
 20
515.7593813333
 10
181.8113962261
 20
514.984017572
 10
179.8773761408
 20
514.457280891
 10
177.8760438852
 20
514.1909377173
 10
175.8521059146
 20
514.1909377173
 10
173.8507736589
 20
514.457280891
 10
171.9167535736
 20
514.984017572
 10
170.0932484716
 20
515.7593813333
 10
168.4209924435
 20
516.7660518297
 10
166.9373409257
 20
517.9815417057
 10
165.6754362415
 20
519.3786989261
 10
164.6634672562
 20
520.9263133074
 10
163.9240396848
 20
522.5898137015
 10
163.4736711173
 20
524.3320402585
 10
163.3224220433
 20
526.1140745162
 10
163.4736711173
 20
527.8961087738
 10
163.9240396848
 20
529.6383353309
 10
164.6634672562
 20
531.301835725
 10
165.6754362415
 20
532.8494501062
 10
166.9373409257
 20
534.2466073266
 10
168.4209924435
 20
535.4620972027
 10
170.0932484716
 20
536.4687676991
 10
171.9167535736
 20
537.2441314603
 10
173.8507736589
 20
537.7708681413
 10
175.8521059146
 20
538.037211315
 10
177.8760438852
 20
538.037211315
 10
179.8773761408
 20
537.7708681413
 10
181.8113962261
 20
537.2441314603
 10
183.6349013281
 20
536.4687676991
 10
185.3071573562
 20
535.4620972027
 10
186.790808874
 20
534.2466073266
 10
188.0527135583
 20
532.8494501062
 10
189.0646825436
 20
531.301835725
 10
189.804110115
 20
529.6383353309
 10
190.2544786825
 20
527.8961087738
 10
190.4057277564
 20
526.1140745162
  0
ARC
  5
7A
330
1F
100
AcDbEntity
  8
0
  6
Continuous
 62
     7
370
     0
100
AcDbCircle
 10
176.8742813451
 20
523.5660490513
 30
0.0
 40
14.40322300539398
100
AcDbArc
 50
70.9993367576
 51
133.5018899578
  0
LWPOLYLINE
  5
7B
330
1F
100
AcDbEntity
  8
0
  6
Continuous
 62
     7
370
     0
100
AcDbPolyline
 90
       18
 70
   128
 43
0.0
 10
164.2235658076
 20
522.7746905436
 10
164.5832421068
 20
521.8845398665
 10
165.4827242577
 20
520.2805305762
 10
166.6489756213
 20
518.8165529849
 10
168.0546602541
 20
517.5269214866
 10
169.6668300997
 20
516.4418639505
 10
171.4476972633
 20
515.5868132056
 10
173.355519728
 20
514.9818109166
 10
175.3455797522
 20
514.6410378245
 10
177.3712320156
 20
514.5724813617
 10
179.3849969461
 20
514.7777484336
 10
181.3396736005
 20
515.2520277539
 10
183.1894460147
 20
515.9842026175
 10
184.890957091
 20
516.957111466
 10
186.4043248521
 20
518.1479501406
 10
187.6940772402
 20
519.5288063922
 10
188.7299835526
 20
521.0673141205
 10
189.3006793167
 20
522.2426298633
  0
SPLINE
  5
7C
330
1F
100
AcDbEntity
  8
0
  6
Continuous
 62
     7
370
    15
100
AcDbSpline
210
0.0
220
0.0
230
1.0
 70
     8
 71
     3
 72
    46
 73
    42
 74
     0
 42
0.00000001
 43
0.00000001
 40
0.0
 40
0.0
 40
0.0
 40
0.0
 40
0.00329903204395
 40
0.0279803516272182
 40
0.0522682182176787
 40
0.0775241258146697
 40
0.1037620112081642
 40
0.1307453903547009
 40
0.1538413804390806
 40
0.1771165902379158
 40
0.2008185815694495
 40
0.224634962411699
 40
0.2499665638526636
 40
0.2754305816752262
 40
0.3013402994552414
 40
0.3274244922367532
 40
0.347675377387089
 40
0.3680361212856503
 40
0.3887816710366806
 40
0.4096805014097654
 40
0.4441132693418383
 40
0.4795050007538705
 40
0.5139636601517334
 40
0.5495282493667567
 40
0.5825133342555827
 40
0.6162831631110496
 40
0.6388465102652034
 40
0.6615850344158074
 40
0.6848118401838666
 40
0.7081818592324249
 40
0.7369653571930209
 40
0.7659588420914962
 40
0.7955722199012165
 40
0.8253985502429462
 40
0.8562016936422986
 40
0.8874394745617776
 40
0.9107410219131984
 40
0.934615145587284
 40
0.9579669157056684
 40
0.9821720400958919
 40
1.0
 40
1.0
 40
1.0
 40
1.0
 10
165.0788248998665
 20
510.140919352724
 30
0.0
 10
165.0677614092144
 20
510.1789138805882
 30
0.0
 10
164.9739277166202
 20
510.5011599925957
 30
0.0
 10
164.8769074052112
 20
511.0355576814036
 30
0.0
 10
164.8088191590592
 20
511.6854782846887
 30
0.0
 10
164.8584098269399
 20
512.1581541033026
 30
0.0
 10
165.0204670258173
 20
512.4472225974001
 30
0.0
 10
165.2757126115692
 20
512.5677907185102
 30
0.0
 10
165.5964329025369
 20
512.5840565145102
 30
0.0
 10
165.9644583746643
 20
512.5373797137154
 30
0.0
 10
166.396362956493
 20
512.4461337725617
 30
0.0
 10
166.902116397059
 20
512.3210854055758
 30
0.0
 10
167.4848856120741
 20
512.1714827703503
 30
0.0
 10
168.1533627154416
 20
512.0046134081252
 30
0.0
 10
168.9000783395944
 20
511.8307337382088
 30
0.0
 10
169.6649069985988
 20
511.6699682328511
 30
0.0
 10
170.4269090881256
 20
511.5275940585138
 30
0.0
 10
171.1724424801445
 20
511.4043289082989
 30
0.0
 10
171.9699102660795
 20
511.2905357323262
 30
0.0
 10
172.9993776736328
 20
511.167867588981
 30
0.0
 10
174.3016959789975
 20
511.0537404251567
 30
0.0
 10
175.8745871953508
 20
510.980786926599
 30
0.0
 10
177.4955957891172
 20
510.9731836545113
 30
0.0
 10
179.0605286039443
 20
511.0313500117705
 30
0.0
 10
180.5495730304405
 20
511.1470715072887
 30
0.0
 10
181.7680334657865
 20
511.289172047677
 30
0.0
 10
182.7723350073289
 20
511.4378165230368
 30
0.0
 10
183.5886859845077
 20
511.5788292715303
 30
0.0
 10
184.3571929111367
 20
511.7299457783457
 30
0.0
 10
185.1287814986976
 20
511.8987946489357
 30
0.0
 10
185.882763834341
 20
512.0799841118519
 30
0.0
 10
186.604201890596
 20
512.2641551870246
 30
0.0
 10
187.2425260201321
 20
512.4261374163477
 30
0.0
 10
187.7991473441175
 20
512.5472839456039
 30
0.0
 10
188.2650515373645
 20
512.5957967420883
 30
0.0
 10
188.5953516197877
 20
512.5257767676126
 30
0.0
 10
188.8022755256852
 20
512.3137166612117
 30
0.0
 10
188.9031018432977
 20
511.972707092516
 30
0.0
 10
188.9029796312886
 20
511.4504532819357
 30
0.0
 10
188.8265667334229
 20
510.8448024903993
 30
0.0
 10
188.7021114882778
 20
510.3727016948704
 30
0.0
 10
188.6493248998665
 20
510.1724643295976
 30
0.0
  0
LWPOLYLINE
  5
7D
330
1F
100
AcDbEntity
  8
0
  6
Continuous
 62
     7
370
    15
100
AcDbPolyline
 90
       23
 70
   128
 43
0.0
 10
162.823604003
 20
465.2718822616
 10
162.8232366587
 20
465.182205431
 10
162.980061221
 20
463.3344801188
 10
163.4470317062
 20
461.5280299369
 10
164.2137167653
 20
459.8032079971
 10
165.2629899211
 20
458.1985439714
 10
166.5714121451
 20
456.7498834027
 10
168.109755447
 20
455.489586974
 10
169.8436557793
 20
454.4458076251
 10
171.7343806739
 20
453.6418616618
 10
173.7396944609
 20
453.0957079085
 10
175.8148017441
 20
452.8195465375
 10
177.9133480557
 20
452.8195465375
 10
179.9884553388
 20
453.0957079085
 10
181.9937691259
 20
453.6418616618
 10
183.8844940204
 20
454.4458076251
 10
185.6183943528
 20
455.489586974
 10
187.1567376546
 20
456.7498834027
 10
188.4651598786
 20
458.1985439714
 10
189.5144330344
 20
459.8032079971
 10
190.2811180936
 20
461.5280299369
 10
190.7480885788
 20
463.3344801188
 10
190.904913141
 20
465.182205431
  0
LWPOLYLINE
  5
7E
330
1F
100
AcDbEntity
  8
0
  6
Continuous
 62
     7
370
    15
100
AcDbPolyline
 90
       16
 70
   128
 43
0.0
 10
165.8310748999
 20
502.6039161498
 10
166.6410988023
 20
503.4116990111
 10
167.7173235779
 20
504.1477994736
 10
169.0317249046
 20
504.7930498719
 10
170.5500764693
 20
505.3306482281
 10
172.2328412029
 20
505.746595766
 10
174.0362008046
 20
506.0300614327
 10
175.9131967473
 20
506.1736639325
 10
177.8149530525
 20
506.1736639325
 10
179.6919489951
 20
506.0300614327
 10
181.4953085969
 20
505.746595766
 10
183.1780733305
 20
505.3306482281
 10
184.6964248952
 20
504.7930498719
 10
186.0108262219
 20
504.1477994736
 10
187.0870509975
 20
503.4116990111
 10
187.8970748999
 20
502.6039161498
  0
SPLINE
  5
7F
330
1F
100
AcDbEntity
  8
0
  6
Continuous
 62
     7
370
    15
100
AcDbSpline
210
0.0
220
0.0
230
1.0
 70
     8
 71
     3
 72
    10
 73
     6
 74
     0
 42
0.00000001
 43
0.00000001
 40
0.0
 40
0.0
 40
0.0
 40
0.0
 40
0.5
 40
0.5
 40
1.0
 40
1.0
 40
1.0
 40
1.0
 10
187.8970748998665
 20
502.6039161498317
 30
0.0
 10
187.8970748998665
 20
502.5567447092823
 30
0.0
 10
187.8748966798293
 20
502.5088348405211
 30
0.0
 10
187.8006697583418
 20
502.4374463770001
 30
0.0
 10
187.748278201556
 20
502.4140763075225
 30
0.0
 10
187.6964748998665
 20
502.4096216608968
 30
0.0
  0
LWPOLYLINE
  5
80
330
1F
100
AcDbEntity
  8
0
  6
Continuous
 62
     7
370
    15
100
AcDbPolyline
 90
       15
 70
   128
 43
0.0
 10
187.6964748999
 20
502.4096216609
 10
186.8300524895
 20
503.2545445468
 10
185.6673539019
 20
504.0170354852
 10
184.2429447268
 20
504.6744265643
 10
182.5991708858
 20
505.2071743612
 10
180.7848997403
 20
505.5994409434
 10
178.8540673258
 20
505.8395647108
 10
176.8640748999
 20
505.9204070811
 10
174.8740824739
 20
505.8395647108
 10
172.9432500594
 20
505.5994409434
 10
171.128978914
 20
505.2071743612
 10
169.4852050729
 20
504.6744265643
 10
168.0607958978
 20
504.0170354852
 10
166.8980973102
 20
503.2545445468
 10
166.0316748999
 20
502.4096216609
  0
SPLINE
  5
81
330
1F
100
AcDbEntity
  8
0
  6
Continuous
 62
     7
370
    15
100
AcDbSpline
210
0.0
220
0.0
230
1.0
 70
     8
 71
     3
 72
    10
 73
     6
 74
     0
 42
0.00000001
 43
0.00000001
 40
0.0
 40
0.0
 40
0.0
 40
0.0
 40
0.5
 40
0.5
 40
1.0
 40
1.0
 40
1.0
 40
1.0
 10
165.8310748998665
 20
502.6039161498317
 30
0.0
 10
165.8310748998665
 20
502.5567447092823
 30
0.0
 10
165.8532531199037
 20
502.5088348405211
 30
0.0
 10
165.9274800413912
 20
502.4374463770001
 30
0.0
 10
165.979871598177
 20
502.4140763075226
 30
0.0
 10
166.0316748998665
 20
502.409621660897
 30
0.0
  0
ARC
  5
82
330
1F
100
AcDbEntity
  8
0
  6
Continuous
 62
     7
370
    15
100
AcDbCircle
 10
185.7093210377
 20
503.581330866
 30
0.0
 40
2.927370861837855
100
AcDbArc
 50
318.3608517324
 51
41.6391482676
  0
LINE
  5
83
330
1F
100
AcDbEntity
  8
0
  6
Continuous
 62
     7
370
    15
100
AcDbLine
 10
187.8970748999
 20
505.5263843874
 30
0.0
 11
187.8970748999
 21
502.6039161498
 31
0.0
  0
LINE
  5
84
330
1F
100
AcDbEntity
  8
0
  6
Continuous
 62
     7
370
    15
100
AcDbLine
 10
165.8310748999
 20
505.5263843874
 30
0.0
 11
165.8310748999
 21
502.6039161498
 31
0.0
  0
ARC
  5
85
330
1F
100
AcDbEntity
  8
0
  6
Continuous
 62
     7
370
    15
100
AcDbCircle
 10
168.018828762
 20
503.581330866
 30
0.0
 40
2.927370861837791
100
AcDbArc
 50
138.3608517324
 51
221.6391482676
  0
LINE
  5
86
330
1F
100
AcDbEntity
  8
0
  6
Continuous
 62
     7
370
    15
100
AcDbLine
 10
187.7514019436
 20
498.540602598
 30
0.0
 11
187.6348474432
 21
498.4131108549
 31
0.0
  0
LWPOLYLINE
  5
87
330
1F
100
AcDbEntity
  8
0
  6
Continuous
 62
     7
370
    15
100
AcDbPolyline
 90
       15
 70
   128
 43
0.0
 10
166.0316748999
 20
498.5538650216
 10
166.8980973102
 20
497.7089421358
 10
168.0607958978
 20
496.9464511974
 10
169.4852050729
 20
496.2890601182
 10
171.128978914
 20
495.7563123213
 10
172.9432500594
 20
495.3640457392
 10
174.8740824739
 20
495.1239219718
 10
176.8640748999
 20
495.0430796014
 10
178.8540673258
 20
495.1239219718
 10
180.7848997403
 20
495.3640457392
 10
182.5991708858
 20
495.7563123213
 10
184.2429447268
 20
496.2890601182
 10
185.6673539019
 20
496.9464511974
 10
186.8300524895
 20
497.7089421358
 10
187.6964748999
 20
498.5538650216
  0
LINE
  5
88
330
1F
100
AcDbEntity
  8
0
  6
Continuous
 62
     7
370
    15
100
AcDbLine
 10
187.8970748999
 20
502.6039161498
 30
0.0
 11
187.8970748999
 21
498.713809107
 31
0.0
  0
SPLINE
  5
89
330
1F
100
AcDbEntity
  8
0
  6
Continuous
 62
     7
370
    15
100
AcDbSpline
210
0.0
220
0.0
230
1.0
 70
     8
 71
     3
 72
    10
 73
     6
 74
     0
 42
0.00000001
 43
0.00000001
 40
0.0
 40
0.0
 40
0.0
 40
0.0
 40
0.5
 40
0.5
 40
1.0
 40
1.0
 40
1.0
 40
1.0
 10
187.8970748998665
 20
498.7138091069657
 30
0.0
 10
187.8970748998665
 20
498.6666376664163
 30
0.0
 10
187.8748966798293
 20
498.622505452758
 30
0.0
 10
187.8006697583417
 20
498.5638043735139
 30
0.0
 10
187.7482782015558
 20
498.5494103750198
 30
0.0
 10
187.6964748998665
 20
498.5538650216455
 30
0.0
  0
LINE
  5
8A
330
1F
100
AcDbEntity
  8
0
  6
Continuous
 62
     7
370
    15
100
AcDbLine
 10
165.8310748999
 20
498.713809107
 30
0.0
 11
165.8310748999
 21
502.6039161498
 31
0.0
  0
SPLINE
  5
8B
330
1F
100
AcDbEntity
  8
0
  6
Continuous
 62
     7
370
    15
100
AcDbSpline
210
0.0
220
0.0
230
1.0
 70
     8
 71
     3
 72
    10
 73
     6
 74
     0
 42
0.00000001
 43
0.00000001
 40
0.0
 40
0.0
 40
0.0
 40
0.0
 40
0.5
 40
0.5
 40
1.0
 40
1.0
 40
1.0
 40
1.0
 10
165.8310748998665
 20
498.7138091069657
 30
0.0
 10
165.8310748998665
 20
498.6666376664163
 30
0.0
 10
165.8532531199037
 20
498.622505452758
 30
0.0
 10
165.9274800413912
 20
498.5638043735139
 30
0.0
 10
165.9798715981771
 20
498.5494103750196
 30
0.0
 10
166.0316748998665
 20
498.5538650216455
 30
0.0
  0
ARC
  5
8C
330
1F
100
AcDbEntity
  8
0
  6
Continuous
 62
     7
370
    15
100
AcDbCircle
 10
177.1050822811
 20
551.6606568162
 30
0.0
 40
3.777865971033391
100
AcDbArc
 50
3.45672258
 51
93.6576441318
  0
ARC
  5
8D
330
1F
100
AcDbEntity
  8
0
  6
Continuous
 62
     7
370
    15
100
AcDbCircle
 10
176.6230675186
 20
551.6606568162
 30
0.0
 40
3.777865971033259
100
AcDbArc
 50
86.3423558682
 51
176.54327742
  0
SPLINE
  5
8E
330
1F
100
AcDbEntity
  8
0
  6
Continuous
 62
     7
370
    15
100
AcDbSpline
210
0.0
220
0.0
230
1.0
 70
     8
 71
     3
 72
    20
 73
    16
 74
     0
 42
0.00000001
 43
0.00000001
 40
0.0
 40
0.0
 40
0.0
 40
0.0
 40
0.1035334803522929
 40
0.2100769943549309
 40
0.313608555064352
 40
0.3667337021406985
 40
0.4202573525971671
 40
0.5233039544770738
 40
0.5763056985398438
 40
0.6297607534583363
 40
0.7274697345527182
 40
0.7777549897293009
 40
0.8284544501185248
 40
0.9212638518252806
 40
1.0
 40
1.0
 40
1.0
 40
1.0
 10
176.8640748998665
 20
415.005357629752
 30
0.0
 10
177.6419165903912
 20
415.0370144266664
 30
0.0
 10
179.2202141987916
 20
415.101248380012
 30
0.0
 10
181.5101939445412
 20
415.6212580187646
 30
0.0
 10
183.322075499368
 20
416.3151106167545
 30
0.0
 10
184.6714658873478
 20
417.0349011199978
 30
0.0
 10
185.9429785787922
 20
417.8605832580603
 30
0.0
 10
187.0920068019362
 20
418.8449535492866
 30
0.0
 10
188.0889359197186
 20
419.9740052433716
 30
0.0
 10
188.9538641024335
 20
421.166124797592
 30
0.0
 10
189.6483870689725
 20
422.4643120636217
 30
0.0
 10
190.1682397201883
 20
423.8307409026814
 30
0.0
 10
190.56244086057
 20
425.2110800757351
 30
0.0
 10
190.8589819401645
 20
426.853475454358
 30
0.0
 10
190.8785192368258
 20
428.1426391005816
 30
0.0
 10
190.8874864848011
 20
428.7343407211754
 30
0.0
  0
SPLINE
  5
8F
330
1F
100
AcDbEntity
  8
0
  6
Continuous
 62
     7
370
    15
100
AcDbSpline
210
0.0
220
0.0
230
1.0
 70
     8
 71
     3
 72
    20
 73
    16
 74
     0
 42
0.00000001
 43
0.00000001
 40
0.0
 40
0.0
 40
0.0
 40
0.0
 40
0.0895886580724601
 40
0.1911171100985623
 40
0.2901218591009241
 40
0.3411146786688021
 40
0.3925388629158365
 40
0.4853682226569693
 40
0.5806262492692016
 40
0.6786122201464402
 40
0.7791644364699113
 40
0.833293710625627
 40
0.8878360347042886
 40
0.9436898348898978
 40
1.0
 40
1.0
 40
1.0
 40
1.0
 10
162.8342229984079
 20
428.7320075143282
 30
0.0
 10
162.8509471332237
 20
428.0587647993933
 30
0.0
 10
162.8866242868241
 20
426.6225539570656
 30
0.0
 10
163.3175788946263
 20
424.4892216074128
 30
0.0
 10
163.9528719674225
 20
422.7425921703189
 30
0.0
 10
164.6333709530821
 20
421.4428204943683
 30
0.0
 10
165.3993964579464
 20
420.2559197168466
 30
0.0
 10
166.5174989588012
 20
418.9387824461226
 30
0.0
 10
168.0950441756293
 20
417.610476336317
 30
0.0
 10
169.9294036987212
 20
416.5176915967477
 30
0.0
 10
171.6568917533677
 20
415.8248968061979
 30
0.0
 10
173.1530454818799
 20
415.4134175857351
 30
0.0
 10
174.3583261745064
 20
415.1816141081045
 30
0.0
 10
175.5994465834268
 20
415.0332442489857
 30
0.0
 10
176.441390247154
 20
415.014678349376
 30
0.0
 10
176.8640748998665
 20
415.005357629752
 30
0.0
  0
LWPOLYLINE
  5
90
330
1F
100
AcDbEntity
  8
0
  6
Continuous
 62
     7
370
    15
100
AcDbPolyline
 90
       12
 70
   128
 43
0.0
 10
176.8640748999
 20
452.6420480198
 10
174.7712233982
 20
452.7805273466
 10
172.7251227408
 20
453.1928719276
 10
170.7714794352
 20
453.8698706663
 10
168.9539346445
 20
454.7964005295
 10
167.3130893161
 20
455.9517643711
 10
165.8855972231
 20
457.3101532722
 10
164.7033461799
 20
458.8412230693
 10
163.7927457214
 20
460.5107721931
 10
163.174137157
 20
462.2815056752
 10
162.8613391798
 20
464.1138682555
 10
162.8232527635
 20
465.2009823177
  0
LWPOLYLINE
  5
91
330
1F
100
AcDbEntity
  8
0
  6
Continuous
 62
     7
370
    15
100
AcDbPolyline
 90
       12
 70
   128
 43
0.0
 10
190.9060748999
 20
465.0403981187
 10
190.8668106199
 20
464.1138682555
 10
190.5540126427
 20
462.2815056752
 10
189.9354040783
 20
460.5107721931
 10
189.0248036198
 20
458.8412230693
 10
187.8425525767
 20
457.3101532722
 10
186.4150604836
 20
455.9517643711
 10
184.7742151552
 20
454.7964005295
 10
182.9566703646
 20
453.8698706663
 10
181.0030270589
 20
453.1928719276
 10
178.9569264015
 20
452.7805273466
 10
176.8640748999
 20
452.6420480198
  0
LINE
  5
92
330
1F
100
AcDbEntity
  8
0
  6
Continuous
 62
     7
370
    15
100
AcDbLine
 10
150.6857749026
 20
379.4304877227
 30
0.0
 11
203.0423749026
 21
379.4304877227
 31
0.0
  0
LINE
  5
93
330
1F
100
AcDbEntity
  8
0
  6
Continuous
 62
     7
370
    15
100
AcDbLine
 10
150.6857749026
 20
399.4904877227
 30
0.0
 11
203.0423749026
 21
399.4904877227
 31
0.0
  0
LINE
  5
94
330
1F
100
AcDbEntity
  8
0
  6
Continuous
 62
     7
370
    15
100
AcDbLine
 10
202.9420748999
 20
399.9919877227
 30
0.0
 11
150.7860748999
 21
399.9919877227
 31
0.0
  0
LINE
  5
95
330
1F
100
AcDbEntity
  8
0
  6
Continuous
 62
     7
370
    15
100
AcDbLine
 10
150.7860748999
 20
487.0523877227
 30
0.0
 11
163.0020458368
 21
487.0523877227
 31
0.0
  0
LINE
  5
96
330
1F
100
AcDbEntity
  8
0
  6
Continuous
 62
     7
370
    15
100
AcDbLine
 10
190.7261039629
 20
487.0523877227
 30
0.0
 11
202.9420748999
 21
487.0523877227
 31
0.0
  0
LINE
  5
97
330
1F
100
AcDbEntity
  8
0
  6
Continuous
 62
     7
370
    15
100
AcDbLine
 10
150.7860748999
 20
502.0973877227
 30
0.0
 11
150.7860748999
 21
487.0523877227
 31
0.0
  0
LINE
  5
98
330
1F
100
AcDbEntity
  8
0
  6
Continuous
 62
     7
370
    15
100
AcDbLine
 10
202.9420748999
 20
487.0523877227
 30
0.0
 11
202.9420748999
 21
502.0973877227
 31
0.0
  0
LINE
  5
99
330
1F
100
AcDbEntity
  8
0
  6
Continuous
 62
     7
370
    15
100
AcDbLine
 10
151.0869748999
 20
521.1543877227
 30
0.0
 11
163.2814343674
 21
521.1543877227
 31
0.0
  0
LINE
  5
9A
330
1F
100
AcDbEntity
  8
0
  6
Continuous
 62
     7
370
    15
100
AcDbLine
 10
190.4467154324
 20
521.1543877227
 30
0.0
 11
202.6411748999
 21
521.1543877227
 31
0.0
  0
LINE
  5
9B
330
1F
100
AcDbEntity
  8
0
  6
Continuous
 62
     7
370
    15
100
AcDbLine
 10
202.8919248999
 20
475.2169877227
 30
0.0
 11
190.8230682177
 21
475.2169877227
 31
0.0
  0
LINE
  5
9C
330
1F
100
AcDbEntity
  8
0
  6
Continuous
 62
     7
370
    15
100
AcDbLine
 10
162.9050815821
 20
475.2169877227
 30
0.0
 11
150.8362248999
 21
475.2169877227
 31
0.0
  0
ARC
  5
9D
330
1F
100
AcDbEntity
  8
0
  6
Continuous
 62
     8
370
     0
100
AcDbCircle
 10
178.2558113878
 20
525.7973881683
 30
0.0
 40
11.8578439368286
100
AcDbArc
 50
2.2106881918
 51
73.801885166
  0
ARC
  5
9E
330
1F
100
AcDbEntity
  8
0
  6
Continuous
 62
     8
370
     0
100
AcDbCircle
 10
174.3721567903
 20
526.2565966146
 30
0.0
 40
10.72928556903839
100
AcDbArc
 50
133.7005159123
 51
198.9367132099
  0
ARC
  5
9F
330
1F
100
AcDbEntity
  8
0
  6
Continuous
 62
     8
370
     0
100
AcDbCircle
 10
179.5956233918
 20
526.2744656208
 30
0.0
 40
10.50922499905431
100
AcDbArc
 50
337.4402115931
 51
359.8927577151
  0
LINE
  5
A0
330
1F
100
AcDbEntity
  8
0
  6
Continuous
 62
     8
370
     0
100
AcDbLine
 10
166.0316748999
 20
502.4096216609
 30
0.0
 11
166.0316748999
 21
498.5538650216
 31
0.0
  0
LINE
  5
A1
330
1F
100
AcDbEntity
  8
0
  6
Continuous
 62
     8
370
     0
100
AcDbLine
 10
187.6964748999
 20
498.5538650216
 30
0.0
 11
187.6964748999
 21
502.4096216609
 31
0.0
  0
LWPOLYLINE
  5
A2
330
1F
100
AcDbEntity
  8
0
  6
Continuous
 62
     8
370
     0
100
AcDbPolyline
 90
       22
 70
   128
 43
0.0
 10
176.8640748999
 20
555.3064125297
 10
175.7702089721
 20
555.1608376398
 10
174.7735378324
 20
554.7370479379
 10
173.9626200853
 20
554.0726989987
 10
173.4095093313
 20
553.2268211411
 10
173.1633518881
 20
552.2745743246
 10
173.246019925
 20
551.3005698578
 10
173.6501680239
 20
550.3913523119
 10
174.3398858527
 20
549.627709656
 10
175.2538889556
 20
549.0774948911
 10
176.3109641459
 20
548.7895970138
 10
177.4171856539
 20
548.7895970138
 10
178.4742608441
 20
549.0774948911
 10
179.388263947
 20
549.627709656
 10
180.0779817759
 20
550.3913523119
 10
180.4821298748
 20
551.3005698578
 10
180.5647979116
 20
552.2745743246
 10
180.3186404685
 20
553.2268211411
 10
179.7655297145
 20
554.0726989987
 10
178.9546119673
 20
554.7370479379
 10
177.9579408276
 20
555.1608376398
 10
176.8640748999
 20
555.3064125297
  0
LWPOLYLINE
  5
A3
330
1F
100
AcDbEntity
  8
0
  6
Continuous
 62
     8
370
    15
100
AcDbPolyline
 90
       13
 70
   128
 43
0.0
 10
180.8760748999
 20
551.8884417246
 10
180.8352385247
 20
551.3843076706
 10
180.5135184652
 20
550.4168815053
 10
179.8961421922
 20
549.5686723973
 10
179.0331258595
 20
548.9083972041
 10
177.9943859179
 20
548.4895474948
 10
176.8640748999
 20
548.3460559821
 10
175.7337638818
 20
548.4895474948
 10
174.6950239402
 20
548.9083972041
 10
173.8320076076
 20
549.5686723973
 10
173.2146313345
 20
550.4168815053
 10
172.892911275
 20
551.3843076706
 10
172.8520748999
 20
551.8884417246
  0
LINE
  5
A4
330
1F
100
AcDbEntity
  8
0
  6
Continuous
 62
     7
370
    15
100
AcDbLine
 10
270.2759422694
 20
399.4904877227
 30
0.0
 11
270.2759422694
 21
379.4304877227
 31
0.0
  0
LINE
  5
A5
330
1F
100
AcDbEntity
  8
0
  6
Continuous
 62
     7
370
    15
100
AcDbLine
 10
322.6325422694
 20
379.4304877227
 30
0.0
 11
322.6325422694
 21
399.4904877227
 31
0.0
  0
LINE
  5
A6
330
1F
100
AcDbEntity
  8
0
  6
Continuous
 62
     7
370
    15
100
AcDbLine
 10
270.3762422694
 20
520.8534877227
 30
0.0
 11
270.3762422694
 21
491.6506427256
 31
0.0
  0
LINE
  5
A7
330
1F
100
AcDbEntity
  8
0
  6
Continuous
 62
     7
370
    15
100
AcDbLine
 10
322.5322422694
 20
516.2218552087
 30
0.0
 11
322.5322422694
 21
520.8534877227
 31
0.0
  0
LINE
  5
A8
330
1F
100
AcDbEntity
  8
0
  6
Continuous
 62
     7
370
    15
100
AcDbLine
 10
322.5322422694
 20
497.9717282209
 30
0.0
 11
322.5322422694
 21
506.4768826679
 31
0.0
  0
LINE
  5
A9
330
1F
100
AcDbEntity
  8
0
  6
Continuous
 62
     7
370
    15
100
AcDbLine
 10
322.5322422694
 20
487.0523877227
 30
0.0
 11
322.5322422694
 21
489.9635524104
 31
0.0
  0
ARC
  5
AA
330
1F
100
AcDbEntity
  8
0
  6
Continuous
 62
     7
370
    15
100
AcDbCircle
 10
296.5571620447
 20
478.0125868676
 30
0.0
 40
26.07799999999999
100
AcDbArc
 50
150.0190710112
 51
179.0
  0
ARC
  5
AB
330
1F
100
AcDbEntity
  8
0
  6
Continuous
 62
     7
370
    15
100
AcDbCircle
 10
296.3513224941
 20
478.0125868676
 30
0.0
 40
26.07800000000002
100
AcDbArc
 50
1.0
 51
20.2822276061
  0
ARC
  5
AC
330
1F
100
AcDbEntity
  8
0
  6
Continuous
 62
     7
370
    15
100
AcDbCircle
 10
270.8777422694
 20
474.7154877227
 30
0.0
 40
0.5015000000000214
100
AcDbArc
 50
90.0
 51
180.0
  0
ARC
  5
AD
330
1F
100
AcDbEntity
  8
0
  6
Continuous
 62
     7
370
    15
100
AcDbCircle
 10
322.0307422694
 20
474.7154877227
 30
0.0
 40
0.5015000000000214
100
AcDbArc
 50
0.0
 51
90.0
  0
LINE
  5
AE
330
1F
100
AcDbEntity
  8
0
  6
Continuous
 62
     7
370
    15
100
AcDbLine
 10
322.5322422694
 20
446.7878012543
 30
0.0
 11
322.5322422694
 21
474.7154877227
 31
0.0
  0
LINE
  5
AF
330
1F
100
AcDbEntity
  8
0
  6
Continuous
 62
     7
370
    15
100
AcDbLine
 10
322.5322422694
 20
399.9919877227
 30
0.0
 11
322.5322422694
 21
415.0053576298
 31
0.0
  0
LINE
  5
B0
330
1F
100
AcDbEntity
  8
0
  6
Continuous
 62
     7
370
    15
100
AcDbLine
 10
270.3762422694
 20
402.6017646127
 30
0.0
 11
270.3762422694
 21
399.9919877227
 31
0.0
  0
LINE
  5
B1
330
1F
100
AcDbEntity
  8
0
  6
Continuous
 62
     7
370
    15
100
AcDbLine
 10
270.3762422694
 20
474.7154877227
 30
0.0
 11
270.3762422694
 21
409.3862673192
 31
0.0
  0
ARC
  5
B2
330
1F
100
AcDbEntity
  8
0
  6
Continuous
 62
     7
370
    15
100
AcDbCircle
 10
270.6771422694
 20
520.8534877227
 30
0.0
 40
0.3009000000000697
100
AcDbArc
 50
90.0
 51
180.0
  0
ARC
  5
B3
330
1F
100
AcDbEntity
  8
0
  6
Continuous
 62
     7
370
    15
100
AcDbCircle
 10
322.2313422694
 20
520.8534877227
 30
0.0
 40
0.3009000000000697
100
AcDbArc
 50
0.0
 51
90.0
  0
LINE
  5
B4
330
1F
100
AcDbEntity
  8
0
  6
Continuous
 62
     7
370
    15
100
AcDbLine
 10
322.4820922694
 20
475.2169877227
 30
0.0
 11
322.4253506883
 21
478.4677107227
 31
0.0
  0
LINE
  5
B5
330
1F
100
AcDbEntity
  8
0
  6
Continuous
 62
     7
370
    15
100
AcDbLine
 10
270.4831338504
 20
478.4677107227
 30
0.0
 11
270.4263922694
 21
475.2169877227
 31
0.0
  0
LINE
  5
B6
330
1F
100
AcDbEntity
  8
0
  6
Continuous
 62
     7
370
    15
100
AcDbLine
 10
271.4795422694
 20
399.9919877227
 30
0.0
 11
271.4795422694
 21
399.4904877227
 31
0.0
  0
LINE
  5
B7
330
1F
100
AcDbEntity
  8
0
  6
Continuous
 62
     7
370
    15
100
AcDbLine
 10
321.4289422694
 20
399.4904877227
 30
0.0
 11
321.4289422694
 21
399.9919877227
 31
0.0
  0
LINE
  5
B8
330
1F
100
AcDbEntity
  8
0
  6
Continuous
 62
     7
370
    15
100
AcDbLine
 10
322.5322422694
 20
415.0053576298
 30
0.0
 11
393.316561954
 21
452.6420480198
 31
0.0
  0
LINE
  5
B9
330
1F
100
AcDbEntity
  8
0
  6
Continuous
 62
     7
370
    15
100
AcDbLine
 10
380.1319225847
 20
477.4387482177
 30
0.0
 11
322.5147448072
 21
446.8031513676
 31
0.0
  0
LINE
  5
BA
330
1F
100
AcDbEntity
  8
0
  6
Continuous
 62
     7
370
    15
100
AcDbLine
 10
502.00050125
 20
510.9676166685
 30
0.0
 11
507.9445427353
 21
514.1575047232
 31
0.0
  0
LINE
  5
BB
330
1F
100
AcDbEntity
  8
0
  6
Continuous
 62
     7
370
    15
100
AcDbLine
 10
393.5827173064
 20
452.7848811043
 30
0.0
 11
480.8141926182
 21
499.5979193008
 31
0.0
  0
LINE
  5
BC
330
1F
100
AcDbEntity
  8
0
  6
Continuous
 62
     7
370
    15
100
AcDbLine
 10
495.2297008768
 20
538.0706443092
 30
0.0
 11
380.3991687626
 21
477.5795297578
 31
0.0
  0
ARC
  5
BD
330
1F
100
AcDbEntity
  8
0
  6
Continuous
 62
     7
370
    15
100
AcDbCircle
 10
393.4404325236
 20
453.0500147509
 30
0.0
 40
0.3008999999999945
100
AcDbArc
 50
208.0
 51
298.2203672961
  0
ARC
  5
BE
330
1F
100
AcDbEntity
  8
0
  6
Continuous
 62
     7
370
    15
100
AcDbCircle
 10
495.3699419907
 20
537.8044240245
 30
0.0
 40
0.3009000000000212
100
AcDbArc
 50
28.0
 51
117.7796327039
  0
ARC
  5
BF
330
1F
100
AcDbEntity
  8
0
  6
Continuous
 62
     7
370
    15
100
AcDbCircle
 10
507.8022579524
 20
514.4226383698
 30
0.0
 40
0.3009000000000714
100
AcDbArc
 50
298.2203672961
 51
28.0
  0
LINE
  5
C0
330
1F
100
AcDbEntity
  8
0
  6
Continuous
 62
     7
370
    15
100
AcDbLine
 10
480.9287782739
 20
499.9095637851
 30
0.0
 11
483.4722320829
 21
495.1260228931
 31
0.0
  0
LINE
  5
C1
330
1F
100
AcDbEntity
  8
0
  6
Continuous
 62
     7
370
    15
100
AcDbLine
 10
504.2837483204
 20
506.1917023637
 30
0.0
 11
501.6970474123
 21
511.0565792196
 31
0.0
  0
ARC
  5
C2
330
1F
100
AcDbEntity
  8
0
  6
Continuous
 62
     7
370
    15
100
AcDbCircle
 10
483.64935137
 20
495.2201988886
 30
0.0
 40
0.2006000000000444
100
AcDbArc
 50
208.0
 51
298.0
  0
ARC
  5
C3
330
1F
100
AcDbEntity
  8
0
  6
Continuous
 62
     7
370
    15
100
AcDbCircle
 10
504.1066290333
 20
506.0975263682
 30
0.0
 40
0.2005999999999974
100
AcDbArc
 50
298.0
 51
28.0
  0
SPLINE
  5
C4
330
1F
100
AcDbEntity
  8
0
  6
Continuous
 62
     7
370
    15
100
AcDbSpline
210
0.0
220
0.0
230
1.0
 70
     8
 71
     3
 72
    10
 73
     6
 74
     0
 42
0.00000001
 43
0.00000001
 40
0.0
 40
0.0
 40
0.0
 40
0.0
 40
0.2531205943262028
 40
0.623230769349756
 40
1.0
 40
1.0
 40
1.0
 40
1.0
 10
322.9720318411381
 20
515.9682666816102
 30
0.0
 10
322.9498850756248
 20
515.9571754925663
 30
0.0
 10
322.8953555508888
 20
515.9298668877516
 30
0.0
 10
322.7934372153606
 20
515.9249834779146
 30
0.0
 10
322.7255886994502
 20
515.952544310719
 30
0.0
 10
322.6913619783141
 20
515.9664475910785
 30
0.0
  0
SPLINE
  5
C5
330
1F
100
AcDbEntity
  8
0
  6
Continuous
 62
     7
370
    15
100
AcDbSpline
210
0.0
220
0.0
230
1.0
 70
     8
 71
     3
 72
    12
 73
     8
 74
     0
 42
0.00000001
 43
0.00000001
 40
0.0
 40
0.0
 40
0.0
 40
0.0
 40
0.0459841025167597
 40
0.2901604400741348
 40
0.5453070198490707
 40
0.8858881746876898
 40
1.0
 40
1.0
 40
1.0
 40
1.0
 10
322.5328230978406
 20
506.4769097488648
 30
0.0
 10
322.5329285624003
 20
506.4816839219103
 30
0.0
 10
322.5335940454998
 20
506.5118090320257
 30
0.0
 10
322.5473754031973
 20
506.5682404294496
 30
0.0
 10
322.5882020861532
 20
506.6453853778153
 30
0.0
 10
322.6395709540695
 20
506.7037801106314
 30
0.0
 10
322.6836948044254
 20
506.721625922509
 30
0.0
 10
322.694768327272
 20
506.7261045888981
 30
0.0
  0
LINE
  5
C6
330
1F
100
AcDbEntity
  8
0
  6
Continuous
 62
     7
370
    15
100
AcDbLine
 10
322.6934693459
 20
506.7298517565
 30
0.0
 11
400.9621660203
 21
548.3460559821
 31
0.0
  0
LINE
  5
C7
330
1F
100
AcDbEntity
  8
0
  6
Continuous
 62
     7
370
    15
100
AcDbLine
 10
397.1951262005
 20
555.4308274672
 30
0.0
 11
322.972740677
 21
515.9660850439
 31
0.0
  0
LINE
  5
C8
330
1F
100
AcDbEntity
  8
0
  6
Continuous
 62
     7
370
    15
100
AcDbLine
 10
322.5318672972
 20
489.9610877227
 30
0.0
 11
322.8832922694
 21
489.9610877227
 31
0.0
  0
LINE
  5
C9
330
1F
100
AcDbEntity
  8
0
  6
Continuous
 62
     7
370
    15
100
AcDbLine
 10
322.8832922694
 20
497.9850877227
 30
0.0
 11
322.5301928016
 21
497.9850877227
 31
0.0
  0
LINE
  5
CA
330
1F
100
AcDbEntity
  8
0
  6
Continuous
 62
     7
370
    15
100
AcDbLine
 10
322.8832922694
 20
489.9610877227
 30
0.0
 11
323.4856412814
 21
490.1803248337
 31
0.0
  0
LINE
  5
CB
330
1F
100
AcDbEntity
  8
0
  6
Continuous
 62
     7
370
    15
100
AcDbLine
 10
323.4856412814
 20
497.7658506116
 30
0.0
 11
322.8832922694
 21
497.9850877227
 31
0.0
  0
ARC
  5
CC
330
1F
100
AcDbEntity
  8
0
  6
Continuous
 62
     7
370
    15
100
AcDbCircle
 10
397.3363901938
 20
555.1651485365
 30
0.0
 40
0.3009000000000212
100
AcDbArc
 50
28.0
 51
118.0
  0
ARC
  5
CD
330
1F
100
AcDbEntity
  8
0
  6
Continuous
 62
     7
370
    15
100
AcDbCircle
 10
400.8209020271
 20
548.6117349128
 30
0.0
 40
0.3009000000000714
100
AcDbArc
 50
298.0
 51
28.0
  0
ARC
  5
CE
330
1F
100
AcDbEntity
  8
0
  6
Continuous
 62
     7
370
    15
100
AcDbCircle
 10
323.4170320406
 20
497.5773482719
 30
0.0
 40
0.2006000000000085
100
AcDbArc
 50
0.0
 51
70.0
  0
ARC
  5
CF
330
1F
100
AcDbEntity
  8
0
  6
Continuous
 62
     7
370
    15
100
AcDbCircle
 10
323.4170320406
 20
490.3688271734
 30
0.0
 40
0.2006000000000085
100
AcDbArc
 50
290.0
 51
0.0
  0
LINE
  5
D0
330
1F
100
AcDbEntity
  8
0
  6
Continuous
 62
     7
370
    15
100
AcDbLine
 10
323.6176320406
 20
490.3688271734
 30
0.0
 11
323.6176320406
 21
497.5773482719
 31
0.0
  0
ARC
  5
D1
330
1F
100
AcDbEntity
  8
0
  6
Continuous
 62
     7
370
    15
100
AcDbCircle
 10
270.8777422694
 20
408.0159877227
 30
0.0
 40
1.50449999999995
100
AcDbArc
 50
109.6800953286
 51
180.0
  0
ARC
  5
D2
330
1F
100
AcDbEntity
  8
0
  6
Continuous
 62
     7
370
    15
100
AcDbCircle
 10
270.8777422694
 20
404.0039877227
 30
0.0
 40
1.504499999999978
100
AcDbArc
 50
180.0
 51
250.4896183423
  0
LINE
  5
D3
330
1F
100
AcDbEntity
  8
0
  6
Continuous
 62
     7
370
    15
100
AcDbLine
 10
269.3732422694
 20
404.2469075206
 30
0.0
 11
269.3732422694
 21
404.0039877227
 31
0.0
  0
LINE
  5
D4
330
1F
100
AcDbEntity
  8
0
  6
Continuous
 62
     7
370
    15
100
AcDbLine
 10
269.3732422694
 20
404.3003069096
 30
0.0
 11
269.3732422694
 21
404.2469075206
 31
0.0
  0
LINE
  5
D5
330
1F
100
AcDbEntity
  8
0
  6
Continuous
 62
     7
370
    15
100
AcDbLine
 10
269.3732422694
 20
406.0782745261
 30
0.0
 11
269.3732422694
 21
404.3003069096
 31
0.0
  0
LINE
  5
D6
330
1F
100
AcDbEntity
  8
0
  6
Continuous
 62
     7
370
    15
100
AcDbLine
 10
269.3732422694
 20
407.7169919538
 30
0.0
 11
269.3732422694
 21
406.0782745261
 31
0.0
  0
LINE
  5
D7
330
1F
100
AcDbEntity
  8
0
  6
Continuous
 62
     7
370
    15
100
AcDbLine
 10
269.3732422694
 20
407.7742812144
 30
0.0
 11
269.3732422694
 21
407.7169919538
 31
0.0
  0
LINE
  5
D8
330
1F
100
AcDbEntity
  8
0
  6
Continuous
 62
     7
370
    15
100
AcDbLine
 10
269.3732422694
 20
408.0159877227
 30
0.0
 11
269.3732422694
 21
407.7742812144
 31
0.0
  0
LINE
  5
D9
330
1F
100
AcDbEntity
  8
0
  6
Continuous
 62
     7
370
    15
100
AcDbLine
 10
296.4542422694
 20
379.4304877227
 30
0.0
 11
322.6325422694
 21
379.4304877227
 31
0.0
  0
LINE
  5
DA
330
1F
100
AcDbEntity
  8
0
  6
Continuous
 62
     7
370
    15
100
AcDbLine
 10
270.2759422694
 20
379.4304877227
 30
0.0
 11
296.4542422694
 21
379.4304877227
 31
0.0
  0
LINE
  5
DB
330
1F
100
AcDbEntity
  8
0
  6
Continuous
 62
     7
370
    15
100
AcDbLine
 10
296.4542422694
 20
399.4904877227
 30
0.0
 11
322.6325422694
 21
399.4904877227
 31
0.0
  0
LINE
  5
DC
330
1F
100
AcDbEntity
  8
0
  6
Continuous
 62
     7
370
    15
100
AcDbLine
 10
270.2759422694
 20
399.4904877227
 30
0.0
 11
296.4542422694
 21
399.4904877227
 31
0.0
  0
SPLINE
  5
DD
330
1F
100
AcDbEntity
  8
0
  6
Continuous
 62
     7
370
    15
100
AcDbSpline
210
0.0
220
0.0
230
1.0
 70
     8
 71
     3
 72
    27
 73
    23
 74
     0
 42
0.00000001
 43
0.00000001
 40
0.0
 40
0.0
 40
0.0
 40
0.0
 40
0.0177385397586707
 40
0.0659396851091406
 40
0.1151555591153913
 40
0.1659922942651476
 40
0.2202586679203899
 40
0.2764773045826725
 40
0.3365001747604413
 40
0.3986774973669772
 40
0.4587856510674138
 40
0.5205771479246963
 40
0.5787441521755912
 40
0.6382466087145414
 40
0.6908569125067023
 40
0.7445565994947345
 40
0.7892563775099863
 40
0.8348550729657231
 40
0.8750783574439897
 40
0.9162301849987285
 40
0.9574723765291541
 40
1.0
 40
1.0
 40
1.0
 40
1.0
 10
322.5301509704861
 20
506.4768826678961
 30
0.0
 10
322.5306893943684
 20
506.4733914499411
 30
0.0
 10
322.5326908838788
 20
506.4604135038567
 30
0.0
 10
322.5168301685449
 20
506.5630963527627
 30
0.0
 10
322.4833596453923
 20
506.7887312155341
 30
0.0
 10
322.4329114178169
 20
507.1542428871238
 30
0.0
 10
322.3716715760734
 20
507.6531976215386
 30
0.0
 10
322.3059690820034
 20
508.2910571389359
 30
0.0
 10
322.2457278277684
 20
509.0508092705831
 30
0.0
 10
322.2015435397254
 20
509.8938282231602
 30
0.0
 10
322.1794769132518
 20
510.7808702916307
 30
0.0
 10
322.1813147082324
 20
511.6585082449698
 30
0.0
 10
322.2049405451255
 20
512.5202601621065
 30
0.0
 10
322.2448707531065
 20
513.3085645884947
 30
0.0
 10
322.2960128540993
 20
514.0312854448666
 30
0.0
 10
322.3492885615121
 20
514.6365857155248
 30
0.0
 10
322.4016295816178
 20
515.1508045849654
 30
0.0
 10
322.4468156809583
 20
515.5514924873704
 30
0.0
 10
322.4850212917499
 20
515.8667916548063
 30
0.0
 10
322.5132253837486
 20
516.088294479907
 30
0.0
 10
322.5313463261191
 20
516.2260008545458
 30
0.0
 10
322.5315996435218
 20
516.2278375826002
 30
0.0
 10
322.5317282457768
 20
516.2287700387494
 30
0.0
  0
LINE
  5
DE
330
1F
100
AcDbEntity
  8
0
  6
Continuous
 62
     7
370
    15
100
AcDbLine
 10
296.4542422694
 20
487.0523877227
 30
0.0
 11
322.5322422694
 21
487.0523877227
 31
0.0
  0
LINE
  5
DF
330
1F
100
AcDbEntity
  8
0
  6
Continuous
 62
     7
370
    15
100
AcDbLine
 10
270.3762422694
 20
491.6506427256
 30
0.0
 11
296.4542422694
 21
487.0523877227
 31
0.0
  0
SPLINE
  5
E0
330
1F
100
AcDbEntity
  8
0
  6
Continuous
 62
     7
370
    15
100
AcDbSpline
210
0.0
220
0.0
230
1.0
 70
     8
 71
     3
 72
    17
 73
    13
 74
     0
 42
0.00000001
 43
0.00000001
 40
0.0
 40
0.0
 40
0.0
 40
0.0
 40
0.1049840354573868
 40
0.2130351837173874
 40
0.3180128616145912
 40
0.4259923831728171
 40
0.531751050492219
 40
0.6405444325654631
 40
0.7467995176520804
 40
0.8561825049303412
 40
0.9615903310977149
 40
0.9999999999999999
 40
0.9999999999999999
 40
0.9999999999999999
 40
0.9999999999999999
 10
322.2217788214764
 20
493.9730877226604
 30
0.0
 10
322.2234367171204
 20
494.1939516543086
 30
0.0
 10
322.226800943896
 20
494.6421320662179
 30
0.0
 10
322.2531242610022
 20
495.2923504719706
 30
0.0
 10
322.2922303527123
 20
495.9107128721985
 30
0.0
 10
322.3407446116113
 20
496.4704311845259
 30
0.0
 10
322.3937183916494
 20
496.9661339090044
 30
0.0
 10
322.4445003378245
 20
497.3746723166959
 30
0.0
 10
322.4884747035225
 20
497.6928944799438
 30
0.0
 10
322.5183515683185
 20
497.8947451257846
 30
0.0
 10
322.5328185617273
 20
497.9888491258113
 30
0.0
 10
322.53074527184
 20
497.9753369490023
 30
0.0
 10
322.5301915535454
 20
497.9717282208908
 30
0.0
  0
SPLINE
  5
E1
330
1F
100
AcDbEntity
  8
0
  6
Continuous
 62
     7
370
    15
100
AcDbSpline
210
0.0
220
0.0
230
1.0
 70
     8
 71
     3
 72
    16
 73
    12
 74
     0
 42
0.00000001
 43
0.00000001
 40
0.0
 40
0.0
 40
0.0
 40
0.0
 40
0.0997738328040063
 40
0.2075817044085121
 40
0.3122930474778355
 40
0.4199836818366328
 40
0.525726771939464
 40
0.6345014866304299
 40
0.7407903121688553
 40
0.8502059788992705
 40
0.9999999999999999
 40
0.9999999999999999
 40
0.9999999999999999
 40
0.9999999999999999
 10
322.5318652546812
 20
489.9635524103587
 30
0.0
 10
322.5305405473928
 20
489.9721020629324
 30
0.0
 10
322.5277844640688
 20
489.9898898075091
 30
0.0
 10
322.5028718048491
 20
490.1546570589598
 30
0.0
 10
322.4648609332297
 20
490.4208919350113
 30
0.0
 10
322.4170558889614
 20
490.7859372346867
 30
0.0
 10
322.3643166137574
 20
491.2442847264538
 30
0.0
 10
322.3129672022841
 20
491.7778555469903
 30
0.0
 10
322.2686833204862
 20
492.3804871102743
 30
0.0
 10
322.2309088329585
 20
493.1115319310384
 30
0.0
 10
322.2251226081041
 20
493.6575504705247
 30
0.0
 10
322.2217788214764
 20
493.9730877226604
 30
0.0
  0
SPLINE
  5
E2
330
1F
100
AcDbEntity
  8
0
  6
Continuous
 62
     7
370
    15
100
AcDbSpline
210
0.0
220
0.0
230
1.0
 70
     8
 71
     3
 72
    35
 73
    31
 74
     0
 42
0.00000001
 43
0.00000001
 40
0.0
 40
0.0
 40
0.0
 40
0.0
 40
0.0250288676913902
 40
0.0595459862474661
 40
0.0923554324209829
 40
0.1258558908048932
 40
0.1515611703804173
 40
0.1774701584826461
 40
0.2304826424083229
 40
0.2665630898469072
 40
0.3029126370194616
 40
0.3400332530209238
 40
0.3773994475882089
 40
0.41399624270938
 40
0.450859113861786
 40
0.4887009233102556
 40
0.5269640765961346
 40
0.5733148686362843
 40
0.6208985035217996
 40
0.667299347171512
 40
0.6911983002204272
 40
0.7152994222080574
 40
0.7588060282128708
 40
0.8034508845834362
 40
0.849374254526342
 40
0.8965003541859261
 40
0.921869278528251
 40
0.9474317881792328
 40
0.973608951151414
 40
1.0
 40
1.0
 40
1.0
 40
1.0
 10
322.522893777098
 20
446.7878012542779
 30
0.0
 10
322.5212218143262
 20
446.7834153403844
 30
0.0
 10
322.5172440605805
 20
446.7729808464391
 30
0.0
 10
322.3942925140443
 20
446.4480571291937
 30
0.0
 10
322.1874916497846
 20
445.8938469357178
 30
0.0
 10
321.9345564433856
 20
445.2022633942678
 30
0.0
 10
321.6643628616596
 20
444.4444444282918
 30
0.0
 10
321.302444762023
 20
443.4023900050568
 30
0.0
 10
320.8701029932325
 20
442.0984313076002
 30
0.0
 10
320.3902940022335
 20
440.535568885877
 30
0.0
 10
319.978333773941
 20
439.0854017908291
 30
0.0
 10
319.5822314077295
 20
437.5440707067615
 30
0.0
 10
319.2198818005759
 20
435.9339934513034
 30
0.0
 10
318.9069268052402
 20
434.2715460575702
 30
0.0
 10
318.6559104635589
 20
432.5541836714922
 30
0.0
 10
318.4829368401508
 20
430.7718265768162
 30
0.0
 10
318.4046429346408
 20
428.8126259943322
 30
0.0
 10
318.4719080031803
 20
426.6910942770093
 30
0.0
 10
318.7386235648469
 20
424.4891982108502
 30
0.0
 10
319.1171061269774
 20
422.7425951291041
 30
0.0
 10
319.489079584937
 20
421.4428199320554
 30
0.0
 10
319.8842907323925
 20
420.2559200076908
 30
0.0
 10
320.4089893652142
 20
418.9387823474356
 30
0.0
 10
321.0359933447426
 20
417.6104763639164
 30
0.0
 10
321.6205808571321
 20
416.5176915888948
 30
0.0
 10
322.0257404867337
 20
415.8248968072669
 30
0.0
 10
322.2762070731886
 20
415.4134175855233
 30
0.0
 10
322.4205826223284
 20
415.1816141081627
 30
0.0
 10
322.5144637287694
 20
415.0332442489708
 30
0.0
 10
322.526300036254
 20
415.0146783493711
 30
0.0
 10
322.5322422693678
 20
415.005357629752
 30
0.0
  0
SPLINE
  5
E3
330
1F
100
AcDbEntity
  8
0
  6
Continuous
 62
     7
370
    15
100
AcDbSpline
210
0.0
220
0.0
230
1.0
 70
     8
 71
     3
 72
    15
 73
    11
 74
     0
 42
0.00000001
 43
0.00000001
 40
0.0
 40
0.0
 40
0.0
 40
0.0
 40
0.1333250646905605
 40
0.2663139042394223
 40
0.3974527925066609
 40
0.5278221117246584
 40
0.6582912360262908
 40
0.7897599695020657
 40
0.9232796256626293
 40
1.0
 40
1.0
 40
1.0
 40
1.0
 10
270.4543985467042
 20
403.2117245073839
 30
0.0
 10
270.4808671765305
 20
403.4633239673162
 30
0.0
 10
270.5337376864026
 20
403.9658883923521
 30
0.0
 10
270.6000628196231
 20
405.0365940907452
 30
0.0
 10
270.618551506453
 20
406.1886824954206
 30
0.0
 10
270.5841481015191
 20
407.3174953644567
 30
0.0
 10
270.5107346937629
 20
408.3025805868304
 30
0.0
 10
270.4319466962149
 20
409.0213609045368
 30
0.0
 10
270.3794633589159
 20
409.4114181897669
 30
0.0
 10
270.3819264996629
 20
409.3929915367765
 30
0.0
 10
270.3828253440918
 20
409.3862673191675
 30
0.0
  0
SPLINE
  5
E4
330
1F
100
AcDbEntity
  8
0
  6
Continuous
 62
     7
370
    15
100
AcDbSpline
210
0.0
220
0.0
230
1.0
 70
     8
 71
     3
 72
    10
 73
     6
 74
     0
 42
0.00000001
 43
0.00000001
 40
0.0
 40
0.0
 40
0.0
 40
0.0
 40
0.0509254209104405
 40
0.6077839284166281
 40
1.0
 40
1.0
 40
1.0
 40
1.0
 10
270.378429114448
 20
402.6017646127326
 30
0.0
 10
270.3777127015078
 20
402.596454149281
 30
0.0
 10
270.3691624673945
 20
402.5330749119461
 30
0.0
 10
270.3987146646926
 20
402.7389364472399
 30
0.0
 10
270.4381158828435
 20
403.0734734582465
 30
0.0
 10
270.4543988929875
 20
403.2117247560341
 30
0.0
  0
LINE
  5
E5
330
1F
100
AcDbEntity
  8
0
  6
Continuous
 62
     7
370
    15
100
AcDbLine
 10
322.5322422694
 20
399.9919877227
 30
0.0
 11
270.3762422694
 21
399.9919877227
 31
0.0
  0
LINE
  5
E6
330
1F
100
AcDbEntity
  8
0
  6
Continuous
 62
     7
370
    15
100
AcDbLine
 10
296.4542422694
 20
521.1543877227
 30
0.0
 11
322.2313422694
 21
521.1543877227
 31
0.0
  0
LINE
  5
E7
330
1F
100
AcDbEntity
  8
0
  6
Continuous
 62
     7
370
    15
100
AcDbLine
 10
270.6771422694
 20
521.1543877227
 30
0.0
 11
296.4542422694
 21
521.1543877227
 31
0.0
  0
LINE
  5
E8
330
1F
100
AcDbEntity
  8
0
  6
Continuous
 62
     7
370
    15
100
AcDbLine
 10
322.4820922694
 20
475.2169877227
 30
0.0
 11
270.4263922694
 21
475.2169877227
 31
0.0
  0
LINE
  5
E9
330
1F
100
AcDbEntity
  8
0
  6
Continuous
 62
     7
370
    15
100
AcDbLine
 10
393.316561954
 20
452.6420480198
 30
0.0
 11
380.1319225847
 21
477.4387482177
 31
0.0
  0
SPLINE
  5
EA
330
1F
100
AcDbEntity
  8
0
  6
Continuous
 62
     7
370
    15
100
AcDbSpline
210
0.0
220
0.0
230
1.0
 70
     8
 71
     3
 72
    42
 73
    38
 74
     0
 42
0.00000001
 43
0.00000001
 40
0.0
 40
0.0
 40
0.0
 40
0.0
 40
0.0024667117377545
 40
0.0240456453513805
 40
0.0610515804924968
 40
0.0990557463981165
 40
0.1377675406578809
 40
0.1772831166650346
 40
0.2062932837116493
 40
0.2355274282331644
 40
0.2653850345501757
 40
0.2954281751013613
 40
0.3251437906147848
 40
0.3550269042020922
 40
0.3854952401277553
 40
0.4162329046862825
 40
0.4433456101647214
 40
0.4709699490112784
 40
0.4981539192318046
 40
0.5264213604025586
 40
0.5557878711469183
 40
0.5859887688847508
 40
0.6118387423407949
 40
0.6378893058059509
 40
0.6644175405573987
 40
0.6910738047115631
 40
0.7194259655176458
 40
0.7479263321350813
 40
0.7769255443108765
 40
0.8061200360196534
 40
0.8287856520718364
 40
0.8515742265126908
 40
0.874793491347666
 40
0.8981843141023044
 40
0.9367228713934332
 40
0.9763347396970667
 40
1.0
 40
1.0
 40
1.0
 40
1.0
 10
480.8128356359298
 20
499.6004479032664
 30
0.0
 10
480.8123422114325
 20
499.5991280884318
 30
0.0
 10
480.8075322815617
 20
499.5862624588745
 30
0.0
 10
480.8329320091344
 20
499.6542227514206
 30
0.0
 10
480.9176372818489
 20
499.880494884186
 30
0.0
 10
481.110850190638
 20
500.3921895246046
 30
0.0
 10
481.3881799799183
 20
501.115471415119
 30
0.0
 10
481.7126914389465
 20
501.9427756828471
 30
0.0
 10
482.0571729476047
 20
502.7961680230455
 30
0.0
 10
482.4034593581151
 20
503.6285642717221
 30
0.0
 10
482.7901304751519
 20
504.5229125301833
 30
0.0
 10
483.2174107386956
 20
505.4633027295072
 30
0.0
 10
483.6871569631196
 20
506.4334190930265
 30
0.0
 10
484.2086757165337
 20
507.4255618089427
 30
0.0
 10
484.7987200520988
 20
508.4319586565333
 30
0.0
 10
485.4507924448073
 20
509.3905128861308
 30
0.0
 10
486.1787685675583
 20
510.2725405550589
 30
0.0
 10
486.986330428561
 20
511.0394458194914
 30
0.0
 10
487.9278869757434
 20
511.6843988838712
 30
0.0
 10
488.9942655802301
 20
512.1584606541895
 30
0.0
 10
490.1553228713776
 20
512.4471360608806
 30
0.0
 10
491.2923885772508
 20
512.5678104455977
 30
0.0
 10
492.3694221435039
 20
512.5840515399847
 30
0.0
 10
493.3766031479551
 20
512.5373810774487
 30
0.0
 10
494.3668003942879
 20
512.446133404812
 30
0.0
 10
495.3532212316164
 20
512.3210855048785
 30
0.0
 10
496.3246423716954
 20
512.1714827688203
 30
0.0
 10
497.2761730982699
 20
512.0046133111367
 30
0.0
 10
498.1816430871444
 20
511.8307341366357
 30
0.0
 10
498.965492592588
 20
511.669966870224
 30
0.0
 10
499.6305531782529
 20
511.5275979050966
 30
0.0
 10
500.1893611782955
 20
511.4043142268823
 30
0.0
 10
500.6925220844889
 20
511.2905918772474
 30
0.0
 10
501.2262336991192
 20
511.1675986176001
 30
0.0
 10
501.702769646113
 20
511.0555103926994
 30
0.0
 10
501.9999927663375
 20
510.9845488910789
 30
0.0
 10
501.9928344154048
 20
510.9862540127151
 30
0.0
 10
501.9901572358
 20
510.9868917178111
 30
0.0
  0
LINE
  5
EB
330
1F
100
AcDbEntity
  8
0
  6
Continuous
 62
     7
370
    15
100
AcDbLine
 10
495.6356209214
 20
537.9456880178
 30
0.0
 11
508.0679368831
 21
514.563902363
 31
0.0
  0
LINE
  5
EC
330
1F
100
AcDbEntity
  8
0
  6
Continuous
 62
     7
370
    15
100
AcDbLine
 10
495.9821999103
 20
505.5263843874
 30
0.0
 11
497.5361038359
 21
502.6039161498
 31
0.0
  0
LINE
  5
ED
330
1F
100
AcDbEntity
  8
0
  6
Continuous
 62
     7
370
    15
100
AcDbLine
 10
495.9821999103
 20
505.5263843874
 30
0.0
 11
488.6659726417
 21
501.6362773446
 31
0.0
  0
LINE
  5
EE
330
1F
100
AcDbEntity
  8
0
  6
Continuous
 62
     7
370
    15
100
AcDbLine
 10
488.6659726417
 20
501.6362773446
 30
0.0
 11
490.2198765674
 21
498.713809107
 31
0.0
  0
LINE
  5
EF
330
1F
100
AcDbEntity
  8
0
  6
Continuous
 62
     7
370
    15
100
AcDbLine
 10
490.3463544195
 20
498.5538650216
 30
0.0
 11
483.7435273655
 21
495.0430796014
 31
0.0
  0
SPLINE
  5
F0
330
1F
100
AcDbEntity
  8
0
  6
Continuous
 62
     7
370
    15
100
AcDbSpline
210
0.0
220
0.0
230
1.0
 70
     8
 71
     3
 72
    10
 73
     6
 74
     0
 42
0.00000001
 43
0.00000001
 40
0.0
 40
0.0
 40
0.0
 40
0.0
 40
0.5
 40
0.5
 40
1.0
 40
1.0
 40
1.0
 40
1.0
 10
490.2198765673724
 20
498.7138091069657
 30
0.0
 10
490.2449580672176
 20
498.6666376664163
 30
0.0
 10
490.2729802568481
 20
498.622505452758
 30
0.0
 10
490.3194959249654
 20
498.5638043735139
 30
0.0
 10
490.3379764476508
 20
498.5494103750196
 30
0.0
 10
490.3463544194538
 20
498.5538650216455
 30
0.0
  0
SPLINE
  5
F1
330
1F
100
AcDbEntity
  8
0
  6
Continuous
 62
     7
370
    15
100
AcDbSpline
210
0.0
220
0.0
230
1.0
 70
     8
 71
     3
 72
    10
 73
     6
 74
     0
 42
0.00000001
 43
0.00000001
 40
0.0
 40
0.0
 40
0.0
 40
0.0
 40
0.5
 40
0.5
 40
1.0
 40
1.0
 40
1.0
 40
1.0
 10
497.5361038359204
 20
502.6039161498317
 30
0.0
 10
497.5611853357656
 20
502.5567447092823
 30
0.0
 10
497.5821027894673
 20
502.5088348405211
 30
0.0
 10
497.6047569581988
 20
502.4374463770001
 30
0.0
 10
497.6063559466313
 20
502.4140763075226
 30
0.0
 10
497.5979779748287
 20
502.409621660897
 30
0.0
  0
LINE
  5
F2
330
1F
100
AcDbEntity
  8
0
  6
Continuous
 62
     7
370
    15
100
AcDbLine
 10
497.5979779748
 20
502.4096216609
 30
0.0
 11
490.3463544195
 21
498.5538650216
 31
0.0
  0
LINE
  5
F3
330
1F
100
AcDbEntity
  8
0
  6
Continuous
 62
     7
370
    15
100
AcDbLine
 10
504.2008050288
 20
505.9204070811
 30
0.0
 11
497.5979779748
 21
502.4096216609
 31
0.0
  0
LINE
  5
F4
330
1F
100
AcDbEntity
  8
0
  6
Continuous
 62
     7
370
    15
100
AcDbLine
 10
322.8832922694
 20
493.9730877227
 30
0.0
 11
322.8832922694
 21
497.9850877227
 31
0.0
  0
LINE
  5
F5
330
1F
100
AcDbEntity
  8
0
  6
Continuous
 62
     7
370
    15
100
AcDbLine
 10
322.8832922694
 20
489.9610877227
 30
0.0
 11
322.8832922694
 21
493.9730877227
 31
0.0
  0
LINE
  5
F6
330
1F
100
AcDbEntity
  8
0
  6
Continuous
 62
     7
370
    15
100
AcDbLine
 10
397.6020691245
 20
555.3064125297
 30
0.0
 11
401.0865807479
 21
548.7529993007
 31
0.0
  0
LINE
  5
F7
330
1F
100
AcDbEntity
  8
0
  6
Continuous
 62
     8
370
     0
100
AcDbLine
 10
507.9445427353
 20
514.1575047232
 30
0.0
 11
495.2297008768
 21
538.0706443092
 31
0.0
  0
LINE
  5
F8
330
1F
100
AcDbEntity
  8
0
  6
Continuous
 62
     8
370
     0
100
AcDbLine
 10
380.3991687626
 20
477.5795297578
 30
0.0
 11
393.5827173064
 21
452.7848811043
 31
0.0
  0
LINE
  5
F9
330
1F
100
AcDbEntity
  8
0
  6
Continuous
 62
     8
370
     0
100
AcDbLine
 10
497.5361038359
 20
502.6039161498
 30
0.0
 11
504.2837483204
 21
506.1917023637
 31
0.0
  0
LINE
  5
FA
330
1F
100
AcDbEntity
  8
0
  6
Continuous
 62
     8
370
     0
100
AcDbLine
 10
483.4722320829
 20
495.1260228931
 30
0.0
 11
490.2198765674
 21
498.713809107
 31
0.0
  0
LINE
  5
FB
330
1F
100
AcDbEntity
  8
0
  6
Continuous
 62
     8
370
     0
100
AcDbLine
 10
490.2198765674
 20
498.713809107
 30
0.0
 11
497.5361038359
 21
502.6039161498
 31
0.0
  0
SPLINE
  5
FC
330
1F
100
AcDbEntity
  8
0
  6
Continuous
 62
     8
370
     0
100
AcDbSpline
210
0.0
220
0.0
230
1.0
 70
     8
 71
     3
 72
    38
 73
    34
 74
     0
 42
0.00000001
 43
0.00000001
 40
0.0
 40
0.0
 40
0.0
 40
0.0
 40
0.0089743459550844
 40
0.0511991917102974
 40
0.072760401093863
 40
0.093021478777729
 40
0.1341485289343537
 40
0.1550341319921498
 40
0.1776326307855514
 40
0.2234153116625169
 40
0.246613734796021
 40
0.2732735885042378
 40
0.3272749928872974
 40
0.354641678849316
 40
0.3841164906765077
 40
0.4438485712549304
 40
0.474158274263843
 40
0.504536400201492
 40
0.5351022753844809
 40
0.5662846407155095
 40
0.5976930795672613
 40
0.6279137227595871
 40
0.6583686268275606
 40
0.6896124519282786
 40
0.7211520610746263
 40
0.7484164824177092
 40
0.8040481092546361
 40
0.8325212370038795
 40
0.8572479964184966
 40
0.9076348665631879
 40
0.9333719988079124
 40
0.9568754570038266
 40
1.0
 40
1.0
 40
1.0
 40
1.0
 10
322.9738937692893
 20
515.9639461984474
 30
0.0
 10
322.9739880017473
 20
515.964501738903
 30
0.0
 10
322.9745256036745
 20
515.9676711311265
 30
0.0
 10
322.9661621241981
 20
515.9183939279603
 30
0.0
 10
322.950022149363
 20
515.8217158346054
 30
0.0
 10
322.9291335886691
 20
515.694956012758
 30
0.0
 10
322.9023022465433
 20
515.5284728911721
 30
0.0
 10
322.8701054151418
 20
515.3210978183038
 30
0.0
 10
322.8334050736245
 20
515.077861836027
 30
0.0
 10
322.7924475463128
 20
514.7923763794676
 30
0.0
 10
322.7485994469936
 20
514.4647765783283
 30
0.0
 10
322.700885392943
 20
514.0881218876693
 30
0.0
 10
322.6525164360907
 20
513.6652716017564
 30
0.0
 10
322.6069475341606
 20
513.2086785678351
 30
0.0
 10
322.5627472472464
 20
512.7139612940954
 30
0.0
 10
322.5247135180285
 20
512.1869485030911
 30
0.0
 10
322.496044537557
 20
511.6462279511023
 30
0.0
 10
322.4795921961545
 20
511.233262753785
 30
0.0
 10
322.4686457082264
 20
510.8157191912554
 30
0.0
 10
322.4635484831788
 20
510.3955490338442
 30
0.0
 10
322.4645195574402
 20
509.9820628543062
 30
0.0
 10
322.4712210293626
 20
509.5801196392685
 30
0.0
 10
322.4831952707407
 20
509.1903736131809
 30
0.0
 10
322.5002114344846
 20
508.8106009885261
 30
0.0
 10
322.5206331810929
 20
508.4629977920506
 30
0.0
 10
322.5500740302577
 20
508.0492241237922
 30
0.0
 10
322.5819451566235
 20
507.6895179732001
 30
0.0
 10
322.6122432183278
 20
507.3935045655558
 30
0.0
 10
322.6393648346253
 20
507.1476349950941
 30
0.0
 10
322.6620919236913
 20
506.9600438081987
 30
0.0
 10
322.6780528017709
 20
506.8344293851427
 30
0.0
 10
322.6891383537579
 20
506.7494581817369
 30
0.0
 10
322.6904040184642
 20
506.7400536953728
 30
0.0
 10
322.6912232117622
 20
506.7339667023772
 30
0.0
  0
LINE
  5
FD
330
1F
100
AcDbEntity
  8
0
  6
Continuous
 62
     8
370
     0
100
AcDbLine
 10
400.9621660203
 20
548.3460559821
 30
0.0
 11
397.1951262005
 21
555.4308274672
 31
0.0
  0
LINE
  5
FE
330
1F
100
AcDbEntity
  8
0
  6
Continuous
 62
     8
370
     0
100
AcDbLine
 10
323.4856412814
 20
490.1803248337
 30
0.0
 11
323.4856412814
 21
497.7658506116
 31
0.0
  0
LINE
  5
FF
330
1F
100
AcDbEntity
  8
0
  6
Continuous
 62
     7
370
    15
100
AcDbLine
 10
172.8520748999
 20
293.2816759345
 30
0.0
 11
172.8520748999
 21
216.6816703011
 31
0.0
  0
LINE
  5
100
330
1F
100
AcDbEntity
  8
0
  6
Continuous
 62
     7
370
    15
100
AcDbLine
 10
180.8760748999
 20
216.6816703011
 30
0.0
 11
180.8760748999
 21
293.3457405871
 31
0.0
  0
LINE
  5
101
330
1F
100
AcDbEntity
  8
0
  6
Continuous
 62
     7
370
    15
100
AcDbLine
 10
162.8232660193
 20
228.7558929594
 30
0.0
 11
163.3224503601
 21
114.160193449
 31
0.0
  0
LINE
  5
102
330
1F
100
AcDbEntity
  8
0
  6
Continuous
 62
     7
370
    15
100
AcDbLine
 10
190.4056994396
 20
114.160193449
 30
0.0
 11
190.9048837804
 21
228.7558929594
 31
0.0
  0
LINE
  5
103
330
1F
100
AcDbEntity
  8
0
  6
Continuous
 62
     7
370
    15
100
AcDbLine
 10
180.8885595388
 20
293.3546163035
 30
0.0
 11
180.8956559901
 21
293.3746747041
 31
0.0
  0
LINE
  5
104
330
1F
100
AcDbEntity
  8
0
  6
Continuous
 62
     7
370
    15
100
AcDbLine
 10
172.8520748954
 20
293.53853759
 30
0.0
 11
172.8520748954
 21
293.2816759345
 31
0.0
  0
LINE
  5
105
330
1F
100
AcDbEntity
  8
0
  6
Continuous
 62
     7
370
    15
100
AcDbLine
 10
180.8760748954
 20
293.3457405871
 30
0.0
 11
180.8760748954
 21
293.5367765848
 31
0.0
  0
LINE
  5
106
330
1F
100
AcDbEntity
  8
0
  6
Continuous
 62
     7
370
    15
100
AcDbLine
 10
190.8883459576
 20
228.9231502071
 30
0.0
 11
190.7543073943
 21
229.7685281553
 31
0.0
  0
LINE
  5
107
330
1F
100
AcDbEntity
  8
0
  6
Continuous
 62
     7
370
    15
100
AcDbLine
 10
162.8220748999
 20
297.3233932717
 30
0.0
 11
162.8220748999
 21
229.0360741421
 31
0.0
  0
LINE
  5
108
330
1F
100
AcDbEntity
  8
0
  6
Continuous
 62
     7
370
    15
100
AcDbLine
 10
190.9060748999
 20
229.0360741421
 30
0.0
 11
190.9060748999
 21
297.3192203615
 31
0.0
  0
ARC
  5
109
330
1F
100
AcDbEntity
  8
0
  6
Continuous
 62
     7
370
    15
100
AcDbCircle
 10
178.8700748999
 20
344.8825741421
 30
0.0
 40
1.50449999999995
100
AcDbArc
 50
10.6179158708
 51
90.0
  0
ARC
  5
10A
330
1F
100
AcDbEntity
  8
0
  6
Continuous
 62
     7
370
    15
100
AcDbCircle
 10
174.8580748999
 20
344.8825741421
 30
0.0
 40
1.504499999999951
100
AcDbArc
 50
90.0
 51
169.4675182711
  0
LINE
  5
10B
330
1F
100
AcDbEntity
  8
0
  6
Continuous
 62
     7
370
    15
100
AcDbLine
 10
174.8593332284
 20
346.3870741421
 30
0.0
 11
174.8580748999
 21
346.3870741421
 31
0.0
  0
LINE
  5
10C
330
1F
100
AcDbEntity
  8
0
  6
Continuous
 62
     7
370
    15
100
AcDbLine
 10
175.807631779
 20
346.3870741421
 30
0.0
 11
174.8593332284
 21
346.3870741421
 31
0.0
  0
LINE
  5
10D
330
1F
100
AcDbEntity
  8
0
  6
Continuous
 62
     7
370
    15
100
AcDbLine
 10
175.9138809622
 20
346.3870741421
 30
0.0
 11
175.807631779
 21
346.3870741421
 31
0.0
  0
LINE
  5
10E
330
1F
100
AcDbEntity
  8
0
  6
Continuous
 62
     7
370
    15
100
AcDbLine
 10
177.8207201321
 20
346.3870741421
 30
0.0
 11
175.9138809622
 21
346.3870741421
 31
0.0
  0
LINE
  5
10F
330
1F
100
AcDbEntity
  8
0
  6
Continuous
 62
     7
370
    15
100
AcDbLine
 10
177.9152413132
 20
346.3870741421
 30
0.0
 11
177.8207201321
 21
346.3870741421
 31
0.0
  0
LINE
  5
110
330
1F
100
AcDbEntity
  8
0
  6
Continuous
 62
     7
370
    15
100
AcDbLine
 10
178.868819939
 20
346.3870741421
 30
0.0
 11
177.9152413132
 21
346.3870741421
 31
0.0
  0
LINE
  5
111
330
1F
100
AcDbEntity
  8
0
  6
Continuous
 62
     7
370
    15
100
AcDbLine
 10
178.8700748999
 20
346.3870741421
 30
0.0
 11
178.868819939
 21
346.3870741421
 31
0.0
  0
ARC
  5
112
330
1F
100
AcDbEntity
  8
0
  6
Continuous
 62
     7
370
    15
100
AcDbCircle
 10
179.4779019309
 20
216.5386800599
 30
0.0
 40
1.405465709413041
100
AcDbArc
 50
5.839300829
 51
64.8741952874
  0
ARC
  5
113
330
1F
100
AcDbEntity
  8
0
  6
Continuous
 62
     7
370
    15
100
AcDbCircle
 10
174.2751889871
 20
216.5307706125
 30
0.0
 40
1.431092038038341
100
AcDbArc
 50
113.3143416599
 51
173.9472674172
  0
LINE
  5
114
330
1F
100
AcDbEntity
  8
0
  6
Continuous
 62
     7
370
    15
100
AcDbLine
 10
180.8743227407
 20
293.2860002936
 30
0.0
 11
180.8716935973
 21
293.2775488781
 31
0.0
  0
SPLINE
  5
115
330
1F
100
AcDbEntity
  8
0
  6
Continuous
 62
     7
370
    15
100
AcDbSpline
210
0.0
220
0.0
230
1.0
 70
     8
 71
     3
 72
    29
 73
    25
 74
     0
 42
0.00000001
 43
0.00000001
 40
0.0
 40
0.0
 40
0.0
 40
0.0
 40
0.0699911952766136
 40
0.105642160681528
 40
0.1398759825679488
 40
0.2098829490511965
 40
0.245827418362951
 40
0.2757673885844987
 40
0.3368012384865716
 40
0.3679668613251402
 40
0.3972532104424403
 40
0.4567002530847347
 40
0.4868893216140477
 40
0.519554293118375
 40
0.5857308112981776
 40
0.6192629426812806
 40
0.6577983945115018
 40
0.7358546561903235
 40
0.7754117978079882
 40
0.8180161272916681
 40
0.9043557876304363
 40
0.9481669095169856
 40
0.9920769332393535
 40
1.0
 40
1.0
 40
1.0
 40
1.0
 10
179.1194389202059
 20
292.9220006800286
 30
0.0
 10
178.9454096262254
 20
292.9019653653647
 30
0.0
 10
178.682736149007
 20
292.8717247912086
 30
0.0
 10
178.293964509803
 20
292.8392527014638
 30
0.0
 10
177.8900861528091
 20
292.8116843644555
 30
0.0
 10
177.4615826571021
 20
292.7930730935869
 30
0.0
 10
177.037182084386
 20
292.7858568677094
 30
0.0
 10
176.6389572510995
 20
292.7855652123313
 30
0.0
 10
176.2569928680412
 20
292.7939690836853
 30
0.0
 10
175.8889921662069
 20
292.8103264692408
 30
0.0
 10
175.5353462403536
 20
292.8311641638226
 30
0.0
 10
175.2010279870991
 20
292.8580171952838
 30
0.0
 10
174.8799291552041
 20
292.8902103787416
 30
0.0
 10
174.5584877703824
 20
292.9269117102194
 30
0.0
 10
174.2578966772598
 20
292.9678688398461
 30
0.0
 10
173.977336873792
 20
293.0117169122278
 30
0.0
 10
173.6987309460166
 20
293.0594314304738
 30
0.0
 10
173.4531347744399
 20
293.1077973180309
 30
0.0
 10
173.2482977971352
 20
293.1533736298315
 30
0.0
 10
173.0678060199329
 20
293.197540908661
 30
0.0
 10
172.9378364652594
 20
293.2357824146213
 30
0.0
 10
172.8707946249875
 20
293.2639597380444
 30
0.0
 10
172.8487701913114
 20
293.2769825470746
 30
0.0
 10
172.8537177801956
 20
293.2810818885032
 30
0.0
 10
172.8544740553216
 20
293.2817085028052
 30
0.0
  0
SPLINE
  5
116
330
1F
100
AcDbEntity
  8
0
  6
Continuous
 62
     7
370
    15
100
AcDbSpline
210
0.0
220
0.0
230
1.0
 70
     8
 71
     3
 72
    34
 73
    30
 74
     0
 42
0.00000001
 43
0.00000001
 40
0.0
 40
0.0
 40
0.0
 40
0.0
 40
0.0624999999999976
 40
0.0624999999999976
 40
0.1249999999999951
 40
0.1249999999999951
 40
0.2499999999999941
 40
0.2499999999999941
 40
0.3749999999999931
 40
0.3749999999999931
 40
0.4374999999999938
 40
0.4374999999999938
 40
0.4999999999999946
 40
0.4999999999999946
 40
0.5624999999999953
 40
0.5624999999999953
 40
0.624999999999996
 40
0.624999999999996
 40
0.6874999999999967
 40
0.6874999999999967
 40
0.7499999999999973
 40
0.7499999999999973
 40
0.812499999999998
 40
0.812499999999998
 40
0.8749999999999987
 40
0.8749999999999987
 40
0.9374999999999993
 40
0.9374999999999993
 40
1.0
 40
1.0
 40
1.0
 40
1.0
 10
172.8630515899607
 20
293.2906275404653
 30
0.0
 10
172.8768250622109
 20
293.2947231981393
 30
0.0
 10
172.9035681470984
 20
293.2965261288014
 30
0.0
 10
172.9848925547283
 20
293.2955075993432
 30
0.0
 10
173.0397550334073
 20
293.2926386054227
 30
0.0
 10
173.2433401793578
 20
293.2778474950522
 30
0.0
 10
173.4319436298827
 20
293.2596376035021
 30
0.0
 10
173.9271371215356
 20
293.2127176491791
 30
0.0
 10
174.2209449007222
 20
293.1853258374696
 30
0.0
 10
174.7352295503846
 20
293.1459430952415
 30
0.0
 10
174.9190631236804
 20
293.1331540225336
 30
0.0
 10
175.2977403593013
 20
293.1104427704622
 30
0.0
 10
175.4942814511542
 20
293.1003788612594
 30
0.0
 10
175.9021544869352
 20
293.0838848469604
 30
0.0
 10
176.1147301222744
 20
293.0774741963497
 30
0.0
 10
176.5385903037179
 20
293.0695099925173
 30
0.0
 10
176.7517416563681
 20
293.067854186119
 30
0.0
 10
177.1805031701751
 20
293.0693868887631
 30
0.0
 10
177.3973884536355
 20
293.0726499310726
 30
0.0
 10
177.8174879202151
 20
293.0835480750222
 30
0.0
 10
178.0225957100202
 20
293.0911618703711
 30
0.0
 10
178.4229891605375
 20
293.1099570310874
 30
0.0
 10
178.6191567692102
 20
293.1212287391237
 30
0.0
 10
178.9876543891093
 20
293.1454698729518
 30
0.0
 10
179.1617812948309
 20
293.1585060728293
 30
0.0
 10
179.4902555872519
 20
293.1851245787038
 30
0.0
 10
179.6451394577604
 20
293.198769085043
 30
0.0
 10
179.9253884601798
 20
293.224408652022
 30
0.0
 10
180.0521553840802
 20
293.2365119565329
 30
0.0
 10
180.1661510246366
 20
293.2473374097033
 30
0.0
  0
ARC
  5
117
330
1F
100
AcDbEntity
  8
0
  6
Continuous
 62
     7
370
    15
100
AcDbCircle
 10
185.8823262987
 20
114.601807471
 30
0.0
 40
4.543662590509353
100
AcDbArc
 50
300.4598278449
 51
354.5871253374
  0
LWPOLYLINE
  5
118
330
1F
100
AcDbEntity
  8
0
  6
Continuous
 62
     7
370
    15
100
AcDbPolyline
 90
       27
 70
   128
 43
0.0
 10
165.5424859227
 20
110.6852393624
 10
164.6634672562
 20
111.4148130415
 10
163.9240396848
 20
112.2993118906
 10
163.4736711173
 20
113.2256701831
 10
163.3224220433
 20
114.1731946054
 10
163.4736711173
 20
115.1207190278
 10
163.9240396848
 20
116.0470773203
 10
164.6634672562
 20
116.9315761694
 10
165.6754362415
 20
117.7544573325
 10
166.9373409257
 20
118.4973390041
 10
168.4209924435
 20
119.1436264352
 10
170.0932484716
 20
119.6788826327
 10
171.9167535736
 20
120.0911508576
 10
173.8507736589
 20
120.3712217189
 10
175.8521059146
 20
120.5128388964
 10
177.8760438852
 20
120.5128388964
 10
179.8773761408
 20
120.3712217189
 10
181.8113962261
 20
120.0911508576
 10
183.6349013281
 20
119.6788826327
 10
185.3071573562
 20
119.1436264352
 10
186.790808874
 20
118.4973390041
 10
188.0527135583
 20
117.7544573325
 10
189.0646825436
 20
116.9315761694
 10
189.804110115
 20
116.0470773203
 10
190.2544786825
 20
115.1207190278
 10
190.4057277564
 20
114.1731946054
 10
190.4057277564
 20
114.1731946054
  0
LWPOLYLINE
  5
119
330
1F
100
AcDbEntity
  8
0
  6
Continuous
 62
     7
370
    15
100
AcDbPolyline
 90
       21
 70
   128
 43
0.0
 10
190.0230942864
 20
114.5981661358
 10
189.9496539436
 20
114.8574295756
 10
189.4877630232
 20
115.7840804162
 10
188.7299835526
 20
116.6667701207
 10
187.6940772402
 20
117.4848091905
 10
186.4043248521
 20
118.2190234832
 10
184.890957091
 20
118.8522036381
 10
183.1894460147
 20
119.369508449
 10
181.3396736005
 20
119.7588127296
 10
179.3849969461
 20
120.0109915175
 10
177.3712320156
 20
120.1201339556
 10
175.3455797522
 20
120.0836818377
 10
173.355519728
 20
119.9024895706
 10
171.4476972633
 20
119.5808041474
 10
169.6668300997
 20
119.1261656017
 10
168.0546602541
 20
118.5492302759
 10
166.6489756213
 20
117.8635210449
 10
165.4827242577
 20
117.0851103519
 10
164.5832421068
 20
116.2322434837
 10
163.9716122677
 20
115.3249109171
 10
163.8508802369
 20
115.0560435442
  0
LWPOLYLINE
  5
11A
330
1F
100
AcDbEntity
  8
0
  6
Continuous
 62
     7
370
    15
100
AcDbPolyline
 90
       18
 70
   128
 43
0.0
 10
164.9020601413
 20
111.243369401
 10
165.4827242577
 20
110.7319646666
 10
166.6489756213
 20
109.9535539736
 10
168.0546602541
 20
109.2678447426
 10
169.6668300997
 20
108.6909094167
 10
171.4476972633
 20
108.2362708711
 10
173.355519728
 20
107.9145854479
 10
175.3455797522
 20
107.7333931808
 10
177.3712320156
 20
107.6969410629
 10
179.3849969461
 20
107.806083501
 10
181.3396736005
 20
108.0582622889
 10
183.1894460147
 20
108.4475665695
 10
184.890957091
 20
108.9648713803
 10
186.4043248521
 20
109.5980515352
 10
187.6940772402
 20
110.332265828
 10
188.7299835526
 20
111.1503048978
 10
189.4877630232
 20
112.0329946023
 10
189.7144798428
 20
112.4102914141
  0
LWPOLYLINE
  5
11B
330
1F
100
AcDbEntity
  8
0
  6
Continuous
 62
     7
370
    15
100
AcDbPolyline
 90
       10
 70
   128
 43
0.0
 10
190.7643094926
 20
229.6999006888
 10
190.7480885788
 20
229.7518263525
 10
190.2811180936
 20
230.7123329521
 10
189.5144330344
 20
231.6294370454
 10
188.4651598786
 20
232.4826520425
 10
187.1567376546
 20
233.2529185302
 10
185.6183943528
 20
233.923030028
 10
183.8844940204
 20
234.4780173524
 10
181.9937691259
 20
234.9054830036
 10
180.8760748999
 20
235.0863220708
  0
LWPOLYLINE
  5
11C
330
1F
100
AcDbEntity
  8
0
  6
Continuous
 62
     7
370
    15
100
AcDbPolyline
 90
       11
 70
   128
 43
0.0
 10
172.8520748999
 20
235.0863220708
 10
171.7343806739
 20
234.9054830036
 10
169.8436557793
 20
234.4780173524
 10
168.109755447
 20
233.923030028
 10
166.5714121451
 20
233.2529185302
 10
165.2629899211
 20
232.4826520425
 10
164.2137167653
 20
231.6294370454
 10
163.4470317062
 20
230.7123329521
 10
162.980061221
 20
229.7518263525
 10
162.8232366587
 20
228.7693733769
 10
162.8232660193
 20
228.7558929594
  0
SPLINE
  5
11D
330
1F
100
AcDbEntity
  8
0
  6
Continuous
 62
     7
370
    15
100
AcDbSpline
210
0.0
220
0.0
230
1.0
 70
     8
 71
     3
 72
    25
 73
    21
 74
     0
 42
0.00000001
 43
0.00000001
 40
0.0
 40
0.0
 40
0.0
 40
0.0
 40
0.0607073178099922
 40
0.1230522706475543
 40
0.1721540377672981
 40
0.2223053396638587
 40
0.2737543625034976
 40
0.3266035693837012
 40
0.3775780473497433
 40
0.4300345753669284
 40
0.4817990876281582
 40
0.5351546899079604
 40
0.5896335322723313
 40
0.6459065648347743
 40
0.7059759890956238
 40
0.7682064443401115
 40
0.8346479441345975
 40
0.903474285743199
 40
0.9700101889731926
 40
1.0
 40
1.0
 40
1.0
 40
1.0
 10
181.0392353127875
 20
293.5644712486168
 30
0.0
 10
180.9796772539598
 20
293.554876966822
 30
0.0
 10
180.8589545035814
 20
293.5354295887682
 30
0.0
 10
180.5431896621294
 20
293.488040012417
 30
0.0
 10
180.1574562144444
 20
293.4358620619636
 30
0.0
 10
179.7189867707272
 20
293.3833194471789
 30
0.0
 10
179.196480170381
 20
293.3305392320753
 30
0.0
 10
178.6062613679032
 20
293.2838624776252
 30
0.0
 10
177.9627266432999
 20
293.2484574957001
 30
0.0
 10
177.2916234213691
 20
293.2285734899557
 30
0.0
 10
176.597631372901
 20
293.2263561271461
 30
0.0
 10
175.9025641059735
 20
293.2427292285746
 30
0.0
 10
175.2183991185491
 20
293.2771692317112
 30
0.0
 10
174.5611291013721
 20
293.3273398311347
 30
0.0
 10
173.9553606077027
 20
293.3886764806398
 30
0.0
 10
173.4252213920928
 20
293.4542863503165
 30
0.0
 10
173.0020793949414
 20
293.5148172717119
 30
0.0
 10
172.7278774279245
 20
293.5579050441953
 30
0.0
 10
172.599847901547
 20
293.5790728657627
 30
0.0
 10
172.6138346304518
 20
293.5767622015854
 30
0.0
 10
172.6181802015773
 20
293.5760442956621
 30
0.0
  0
LWPOLYLINE
  5
11E
330
1F
100
AcDbEntity
  8
0
  6
Continuous
 62
     7
370
    15
100
AcDbPolyline
 90
        9
 70
   128
 43
0.0
 10
163.6871633313
 20
230.8636977849
 10
163.7345614367
 20
230.9373957323
 10
164.4848162925
 20
231.8348461144
 10
165.5116033295
 20
232.6697765554
 10
166.7919858219
 20
233.423536089
 10
168.2973621407
 20
234.0792869728
 10
169.9941046665
 20
234.6223808157
 10
171.844310975
 20
235.0406857985
 10
172.8520748999
 20
235.2054703106
  0
LWPOLYLINE
  5
11F
330
1F
100
AcDbEntity
  8
0
  6
Continuous
 62
     7
370
    15
100
AcDbPolyline
 90
        9
 70
   128
 43
0.0
 10
180.8760748999
 20
235.2054703106
 10
181.8838388247
 20
235.0406857985
 10
183.7340451332
 20
234.6223808157
 10
185.430787659
 20
234.0792869728
 10
186.9361639778
 20
233.423536089
 10
188.2165464703
 20
232.6697765554
 10
189.2433335072
 20
231.8348461144
 10
189.993588363
 20
230.9373957323
 10
190.3889157536
 20
230.1729946877
  0
LWPOLYLINE
  5
120
330
1F
100
AcDbEntity
  8
0
  6
Continuous
 62
     7
370
    15
100
AcDbPolyline
 90
       11
 70
   128
 43
0.0
 10
162.8220748999
 20
229.0360741421
 10
162.8613391798
 20
229.5287188091
 10
163.174137157
 20
230.5030032753
 10
163.7927457214
 20
231.4445189686
 10
164.7033461799
 20
232.3322339844
 10
165.8855972231
 20
233.1463182361
 10
167.3130893161
 20
233.8685864266
 10
168.9539346445
 20
234.4829042782
 10
170.7714794352
 20
234.9755489452
 10
172.7251227408
 20
235.3355155598
 10
172.8520748999
 20
235.3535919754
  0
LWPOLYLINE
  5
121
330
1F
100
AcDbEntity
  8
0
  6
Continuous
 62
     7
370
    15
100
AcDbPolyline
 90
       11
 70
   128
 43
0.0
 10
180.8760748999
 20
235.3535919754
 10
181.0030270589
 20
235.3355155598
 10
182.9566703646
 20
234.9755489452
 10
184.7742151552
 20
234.4829042782
 10
186.4150604836
 20
233.8685864266
 10
187.8425525767
 20
233.1463182361
 10
189.0248036198
 20
232.3322339844
 10
189.9354040783
 20
231.4445189686
 10
190.5540126427
 20
230.5030032753
 10
190.8668106199
 20
229.5287188091
 10
190.9060748999
 20
229.0360741421
  0
ARC
  5
122
330
1F
100
AcDbEntity
  8
0
  6
Continuous
 62
     7
370
    15
100
AcDbCircle
 10
176.8640749026
 20
319.3060741421
 30
0.0
 40
26.17830000000001
100
AcDbArc
 50
180.0
 51
237.5611981715
  0
ARC
  5
123
330
1F
100
AcDbEntity
  8
0
  6
Continuous
 62
     7
370
    15
100
AcDbCircle
 10
176.8640749026
 20
319.3060741421
 30
0.0
 40
26.17829999999998
100
AcDbArc
 50
302.4388018145
 51
82.3963914601
  0
ARC
  5
124
330
1F
100
AcDbEntity
  8
0
  6
Continuous
 62
     7
370
    15
100
AcDbCircle
 10
176.8640749026
 20
319.3060741421
 30
0.0
 40
26.17830000000007
100
AcDbArc
 50
97.6036085523
 51
180.0
  0
LWPOLYLINE
  5
125
330
1F
100
AcDbEntity
  8
0
  6
Continuous
 62
     8
370
     0
100
AcDbPolyline
 90
       22
 70
   128
 43
0.0
 10
176.8640748999
 20
218.158247287
 10
175.7702089721
 20
218.080843745
 10
174.7735378324
 20
217.8555107635
 10
173.9626200853
 20
217.5022701666
 10
173.4095093313
 20
217.0525089317
 10
173.1633518881
 20
216.5461903181
 10
173.246019925
 20
216.0283029566
 10
173.6501680239
 20
215.544863412
 10
174.3398858527
 20
215.1388274095
 10
175.2538889556
 20
214.8462730295
 10
176.3109641459
 20
214.6931950128
 10
177.4171856539
 20
214.6931950128
 10
178.4742608441
 20
214.8462730295
 10
179.388263947
 20
215.1388274095
 10
180.0779817759
 20
215.544863412
 10
180.4821298748
 20
216.0283029566
 10
180.5647979116
 20
216.5461903181
 10
180.3186404685
 20
217.0525089317
 10
179.7655297145
 20
217.5022701666
 10
178.9546119673
 20
217.8555107635
 10
177.9579408276
 20
218.080843745
 10
176.8640748999
 20
218.158247287
  0
ARC
  5
126
330
1F
100
AcDbEntity
  8
0
  6
Continuous
 62
     8
370
     0
100
AcDbCircle
 10
177.1422932983
 20
212.5375952262
 30
0.0
 40
6.034012493994069
100
AcDbArc
 50
60.9236251255
 51
92.6427511916
  0
ARC
  5
127
330
1F
100
AcDbEntity
  8
0
  6
Continuous
 62
     8
370
     0
100
AcDbCircle
 10
176.5952059665
 20
212.4710752066
 30
0.0
 40
6.100043294115065
100
AcDbArc
 50
87.473780634
 51
118.2408040309
  0
SPLINE
  5
128
330
1F
100
AcDbEntity
  8
0
  6
Continuous
 62
     8
370
     0
100
AcDbSpline
210
0.0
220
0.0
230
1.0
 70
     8
 71
     3
 72
    18
 73
    14
 74
     0
 42
0.00000001
 43
0.00000001
 40
0.0
 40
0.0
 40
0.0
 40
0.0
 40
0.027407839244449
 40
0.1154073193293064
 40
0.2128595815324034
 40
0.3109084268642819
 40
0.4108232869855923
 40
0.5113839306115084
 40
0.6128342858814367
 40
0.715024505446302
 40
0.8197462037317665
 40
0.9254495095109018
 40
1.0
 40
1.0
 40
1.0
 40
1.0
 10
180.8716935972589
 20
293.2775488781211
 30
0.0
 10
180.8715875349019
 20
293.2763158761742
 30
0.0
 10
180.8711409337605
 20
293.2711240240134
 30
0.0
 10
180.8415356451916
 20
293.256546623776
 30
0.0
 10
180.7799325401565
 20
293.2334920371109
 30
0.0
 10
180.681129164548
 20
293.2040443010218
 30
0.0
 10
180.5494854381185
 20
293.1698705460733
 30
0.0
 10
180.3834957708143
 20
293.1313914543662
 30
0.0
 10
180.1835015168173
 20
293.0895703586623
 30
0.0
 10
179.9477545638561
 20
293.0450619857609
 30
0.0
 10
179.6744650639035
 20
292.9990435197729
 30
0.0
 10
179.3961822062916
 20
292.9573222233523
 30
0.0
 10
179.2004083103987
 20
292.9323350366955
 30
0.0
 10
179.1194389202059
 20
292.9220006800286
 30
0.0
  0
LINE
  5
129
330
1F
100
AcDbEntity
  8
0
  6
Continuous
 62
     8
370
     0
100
AcDbLine
 10
190.104829982
 20
113.9085375092
 30
0.0
 11
190.0230942864
 21
114.5981661358
 31
0.0
  0
ARC
  5
12A
330
1F
100
AcDbEntity
  8
0
  6
Continuous
 62
     8
370
     0
100
AcDbCircle
 10
167.2074040485
 20
113.9302139778
 30
0.0
 40
3.540302855776241
100
AcDbArc
 50
161.4577572822
 51
229.3700225321
  0
LWPOLYLINE
  5
12B
330
1F
100
AcDbEntity
  8
0
  6
Continuous
 62
     8
370
     0
100
AcDbPolyline
 90
        3
 70
   128
 43
0.0
 10
189.7144798428
 20
112.4102914141
 10
189.9496539436
 20
112.9596454429
 10
190.104829982
 20
113.9085375092
  0
LINE
  5
12C
330
1F
100
AcDbEntity
  8
0
  6
Continuous
 62
     8
370
     0
100
AcDbLine
 10
190.904913141
 20
228.7693733769
 30
0.0
 11
190.7643094926
 21
229.6999006888
 31
0.0
  0
CIRCLE
  5
12D
330
1F
100
AcDbEntity
  8
0
  6
Continuous
 62
     8
370
     0
100
AcDbCircle
 10
176.8640748999
 20
319.3060741421
 30
0.0
 40
25.77709999999999
  0
ELLIPSE
  5
12E
330
1F
100
AcDbEntity
  8
0
  6
Continuous
 62
     7
370
    30
100
AcDbEllipse
 10
176.8640748999
 20
216.4159913704
 30
0.0
 11
-4.012
 21
0.0
 31
0.0
210
0.0
220
0.0
230
1.0
 40
0.5356926323
 41
0.0
 42
6.283185307179586
  0
ENDSEC
  0
SECTION
  2
OBJECTS
  0
DICTIONARY
  5
C
330
0
100
AcDbDictionary
281
     1
  3
ACAD_GROUP
350
D
  3
ACAD_LAYOUT
350
1A
  3
ACAD_MATERIAL
350
3B
  3
ACAD_MLEADERSTYLE
350
130
  3
ACAD_MLINESTYLE
350
17
  3
ACAD_PLOTSETTINGS
350
19
  3
ACAD_PLOTSTYLENAME
350
E
  3
ACAD_TABLESTYLE
350
12F
  3
ACAD_VISUALSTYLE
350
2A
  0
DICTIONARY
  5
D
102
{ACAD_REACTORS
330
C
102
}
330
C
100
AcDbDictionary
281
     1
  0
DICTIONARY
  5
1A
102
{ACAD_REACTORS
330
C
102
}
330
C
100
AcDbDictionary
281
     1
  3
Layout1
350
1E
  3
Layout2
350
26
  3
Model
350
22
  0
DICTIONARY
  5
3B
102
{ACAD_REACTORS
330
C
102
}
330
C
100
AcDbDictionary
281
     1
  3
ByBlock
350
3D
  3
ByLayer
350
3C
  3
Global
350
3E
  0
DICTIONARY
  5
130
102
{ACAD_REACTORS
330
C
102
}
330
C
100
AcDbDictionary
281
     1
  0
DICTIONARY
  5
17
102
{ACAD_REACTORS
330
C
102
}
330
C
100
AcDbDictionary
281
     1
  3
Standard
350
18
  0
DICTIONARY
  5
19
102
{ACAD_REACTORS
330
C
102
}
330
C
100
AcDbDictionary
281
     1
  0
ACDBDICTIONARYWDFLT
  5
E
102
{ACAD_REACTORS
330
C
102
}
330
C
100
AcDbDictionary
281
     1
  3
Normal
350
F
100
AcDbDictionaryWithDefault
340
F
  0
DICTIONARY
  5
12F
102
{ACAD_REACTORS
330
C
102
}
330
C
100
AcDbDictionary
281
     1
  0
DICTIONARY
  5
2A
102
{ACAD_REACTORS
330
C
102
}
330
C
100
AcDbDictionary
281
     1
  3
2dWireframe
350
2F
  3
3D Hidden
350
31
  3
3dWireframe
350
30
  3
Basic
350
32
  3
Brighten
350
36
  3
ColorChange
350
3A
  3
Conceptual
350
34
  3
Dim
350
35
  3
Facepattern
350
39
  3
Flat
350
2B
  3
FlatWithEdges
350
2C
  3
Gouraud
350
2D
  3
GouraudWithEdges
350
2E
  3
Linepattern
350
38
  3
Realistic
350
33
  3
Thicken
350
37
  0
LAYOUT
  5
1E
102
{ACAD_REACTORS
330
1A
102
}
330
1A
100
AcDbPlotSettings
  1

  2
none_device
  4

  6

 40
0.0
 41
0.0
 42
0.0
 43
0.0
 44
0.0
 45
0.0
 46
0.0
 47
0.0
 48
0.0
 49
0.0
140
0.0
141
0.0
142
1.0
143
1.0
 70
   688
 72
     0
 73
     0
 74
     5
  7

 75
    16
 76
     0
 77
     2
 78
   300
147
1.0
148
0.0
149
0.0
100
AcDbLayout
  1
Layout1
 70
     1
 71
     1
 10
0.0
 20
0.0
 11
420.0
 21
297.0
 12
0.0
 22
0.0
 32
0.0
 14
1.0000000000E+20
 24
1.0000000000E+20
 34
1.0000000000E+20
 15
-1.0000000000E+20
 25
-1.0000000000E+20
 35
-1.0000000000E+20
146
0.0
 13
0.0
 23
0.0
 33
0.0
 16
1.0
 26
0.0
 36
0.0
 17
0.0
 27
1.0
 37
0.0
 76
     0
330
1B
  0
LAYOUT
  5
26
102
{ACAD_REACTORS
330
1A
102
}
330
1A
100
AcDbPlotSettings
  1

  2
none_device
  4

  6

 40
0.0
 41
0.0
 42
0.0
 43
0.0
 44
0.0
 45
0.0
 46
0.0
 47
0.0
 48
0.0
 49
0.0
140
0.0
141
0.0
142
1.0
143
1.0
 70
   688
 72
     0
 73
     0
 74
     5
  7

 75
    16
 76
     0
 77
     2
 78
   300
147
1.0
148
0.0
149
0.0
100
AcDbLayout
  1
Layout2
 70
     1
 71
     2
 10
0.0
 20
0.0
 11
0.0
 21
0.0
 12
0.0
 22
0.0
 32
0.0
 14
0.0
 24
0.0
 34
0.0
 15
0.0
 25
0.0
 35
0.0
146
0.0
 13
0.0
 23
0.0
 33
0.0
 16
1.0
 26
0.0
 36
0.0
 17
0.0
 27
1.0
 37
0.0
 76
     0
330
23
  0
LAYOUT
  5
22
102
{ACAD_REACTORS
330
1A
102
}
330
1A
100
AcDbPlotSettings
  1

  2
none_device
  4

  6

 40
0.0
 41
0.0
 42
0.0
 43
0.0
 44
0.0
 45
0.0
 46
0.0
 47
0.0
 48
0.0
 49
0.0
140
0.0
141
0.0
142
1.0
143
1.0
 70
  1712
 72
     0
 73
     0
 74
     0
  7

 75
     0
 76
     0
 77
     2
 78
   300
147
1.0
148
0.0
149
0.0
100
AcDbLayout
  1
Model
 70
     1
 71
     0
 10
0.0
 20
0.0
 11
594.0
 21
841.0
 12
0.0
 22
0.0
 32
0.0
 14
0.0
 24
0.0
 34
0.0
 15
594.0
 25
841.0
 35
0.0
146
0.0
 13
0.0
 23
0.0
 33
0.0
 16
1.0
 26
0.0
 36
0.0
 17
0.0
 27
1.0
 37
0.0
 76
     0
330
1F
331
29
  0
MATERIAL
  5
3D
102
{ACAD_REACTORS
330
3B
102
}
330
3B
100
AcDbMaterial
  1
ByBlock
 72
     1
 94
      127
  0
MATERIAL
  5
3C
102
{ACAD_REACTORS
330
3B
102
}
330
3B
100
AcDbMaterial
  1
ByLayer
 72
     1
 94
      127
  0
MATERIAL
  5
3E
102
{ACAD_REACTORS
330
3B
102
}
330
3B
100
AcDbMaterial
  1
Global
 72
     1
 94
      127
  0
MLINESTYLE
  5
18
102
{ACAD_REACTORS
330
17
102
}
330
17
100
AcDbMlineStyle
  2
Standard
 70
     0
  3

 62
   256
 51
90.0
 52
90.0
 71
     2
 49
0.5
 62
   256
  6
BYLAYER
 49
-0.5
 62
   256
  6
BYLAYER
  0
ACDBPLACEHOLDER
  5
F
102
{ACAD_REACTORS
330
E
102
}
330
E
  0
VISUALSTYLE
  5
2F
102
{ACAD_REACTORS
330
2A
102
}
330
2A
100
AcDbVisualStyle
  2
2dWireframe
 70
     4
177
     2
291
     0
 71
     0
176
     1
 72
     2
176
     1
 73
     0
176
     1
 90
        0
176
     1
 40
-0.6
176
     1
 41
-30.0
176
     1
 62
     5
 63
     7
421
 16777215
176
     1
 74
     1
176
     1
 91
        4
176
     1
 64
     7
176
     1
 65
   257
176
     1
 75
     1
176
     1
175
     1
176
     1
 42
1.0
176
     1
 92
        0
176
     1
 66
   257
176
     1
 43
1.0
176
     1
 76
     1
176
     1
 77
     6
176
     1
 78
     2
176
     1
 67
     7
176
     1
 79
     5
176
     1
170
     0
176
     1
171
     0
176
     1
290
     0
176
     1
 93
        1
176
     1
 44
0.0
176
     1
173
     0
176
     1
  0
VISUALSTYLE
  5
31
102
{ACAD_REACTORS
330
2A
102
}
330
2A
100
AcDbVisualStyle
  2
3D Hidden
 70
     6
177
     2
291
     0
 71
     1
176
     1
 72
     2
176
     1
 73
     2
176
     1
 90
        0
176
     1
 40
-0.6
176
     1
 41
-30.0
176
     1
 62
     5
 63
     7
421
 16777215
176
     1
 74
     2
176
     1
 91
        2
176
     1
 64
     7
176
     1
 65
   257
176
     1
 75
     2
176
     1
175
     1
176
     1
 42
40.0
176
     1
 92
        0
176
     1
 66
   257
176
     1
 43
1.0
176
     1
 76
     1
176
     1
 77
     6
176
     1
 78
     2
176
     1
 67
     7
176
     1
 79
     3
176
     1
170
     0
176
     1
171
     0
176
     1
290
     0
176
     1
 93
        1
176
     1
 44
0.0
176
     1
173
     0
176
     1
  0
VISUALSTYLE
  5
30
102
{ACAD_REACTORS
330
2A
102
}
330
2A
100
AcDbVisualStyle
  2
3dWireframe
 70
     5
177
     2
291
     0
 71
     0
176
     1
 72
     2
176
     1
 73
     0
176
     1
 90
        0
176
     1
 40
-0.6
176
     1
 41
-30.0
176
     1
 62
     5
 63
     7
421
 16777215
176
     1
 74
     1
176
     1
 91
        4
176
     1
 64
     7
176
     1
 65
   257
176
     1
 75
     1
176
     1
175
     1
176
     1
 42
1.0
176
     1
 92
        0
176
     1
 66
   257
176
     1
 43
1.0
176
     1
 76
     1
176
     1
 77
     6
176
     1
 78
     2
176
     1
 67
     7
176
     1
 79
     5
176
     1
170
     0
176
     1
171
     0
176
     1
290
     0
176
     1
 93
        1
176
     1
 44
0.0
176
     1
173
     0
176
     1
  0
VISUALSTYLE
  5
32
102
{ACAD_REACTORS
330
2A
102
}
330
2A
100
AcDbVisualStyle
  2
Basic
 70
     7
177
     2
291
     1
 71
     1
176
     1
 72
     0
176
     1
 73
     1
176
     1
 90
        0
176
     1
 40
-0.6
176
     1
 41
-30.0
176
     1
 62
     5
 63
     7
421
 16777215
176
     1
 74
     0
176
     1
 91
        4
176
     1
 64
     7
176
     1
 65
   257
176
     1
 75
     1
176
     1
175
     1
176
     1
 42
1.0
176
     1
 92
        8
176
     1
 66
     7
176
     1
 43
1.0
176
     1
 76
     1
176
     1
 77
     6
176
     1
 78
     2
176
     1
 67
     7
176
     1
 79
     5
176
     1
170
     0
176
     1
171
     0
176
     1
290
     0
176
     1
 93
        1
176
     1
 44
0.0
176
     1
173
     0
176
     1
  0
VISUALSTYLE
  5
36
102
{ACAD_REACTORS
330
2A
102
}
330
2A
100
AcDbVisualStyle
  2
Brighten
 70
    12
177
     2
291
     1
 71
     2
176
     1
 72
     2
176
     1
 73
     0
176
     1
 90
        0
176
     1
 40
-0.6
176
     1
 41
-30.0
176
     1
 62
     5
 63
     7
421
 16777215
176
     1
 74
     1
176
     1
 91
        4
176
     1
 64
     7
176
     1
 65
   257
176
     1
 75
     1
176
     1
175
     1
176
     1
 42
1.0
176
     1
 92
        8
176
     1
 66
     7
176
     1
 43
1.0
176
     1
 76
     1
176
     1
 77
     6
176
     1
 78
     2
176
     1
 67
     7
176
     1
 79
     5
176
     1
170
     0
176
     1
171
     0
176
     1
290
     0
176
     1
 93
        1
176
     1
 44
50.0
176
     1
173
     0
176
     1
  0
VISUALSTYLE
  5
3A
102
{ACAD_REACTORS
330
2A
102
}
330
2A
100
AcDbVisualStyle
  2
ColorChange
 70
    16
177
     2
291
     1
 71
     2
176
     1
 72
     2
176
     1
 73
     3
176
     1
 90
        0
176
     1
 40
-0.6
176
     1
 41
-30.0
176
     1
 62
     5
 63
     8
421
  8421504
176
     1
 74
     1
176
     1
 91
        4
176
     1
 64
     7
176
     1
 65
   257
176
     1
 75
     1
176
     1
175
     1
176
     1
 42
1.0
176
     1
 92
        8
176
     1
 66
     8
424
  8421504
176
     1
 43
1.0
176
     1
 76
     1
176
     1
 77
     6
176
     1
 78
     2
176
     1
 67
     7
176
     1
 79
     5
176
     1
170
     0
176
     1
171
     0
176
     1
290
     0
176
     1
 93
        1
176
     1
 44
0.0
176
     1
173
     0
176
     1
  0
VISUALSTYLE
  5
34
102
{ACAD_REACTORS
330
2A
102
}
330
2A
100
AcDbVisualStyle
  2
Conceptual
 70
     9
177
     2
291
     0
 71
     3
176
     1
 72
     2
176
     1
 73
     0
176
     1
 90
        0
176
     1
 40
-0.6
176
     1
 41
-30.0
176
     1
 62
     5
 63
     7
421
 16777215
176
     1
 74
     2
176
     1
 91
        2
176
     1
 64
     7
176
     1
 65
   257
176
     1
 75
     1
176
     1
175
     1
176
     1
 42
40.0
176
     1
 92
        8
176
     1
 66
     7
176
     1
 43
1.0
176
     1
 76
     1
176
     1
 77
     6
176
     1
 78
     2
176
     1
 67
     7
176
     1
 79
     3
176
     1
170
     0
176
     1
171
     0
176
     1
290
     0
176
     1
 93
        1
176
     1
 44
0.0
176
     1
173
     0
176
     1
  0
VISUALSTYLE
  5
35
102
{ACAD_REACTORS
330
2A
102
}
330
2A
100
AcDbVisualStyle
  2
Dim
 70
    11
177
     2
291
     1
 71
     2
176
     1
 72
     2
176
     1
 73
     0
176
     1
 90
        0
176
     1
 40
-0.6
176
     1
 41
-30.0
176
     1
 62
     5
 63
     7
421
 16777215
176
     1
 74
     1
176
     1
 91
        4
176
     1
 64
     7
176
     1
 65
   257
176
     1
 75
     1
176
     1
175
     1
176
     1
 42
1.0
176
     1
 92
        8
176
     1
 66
     7
176
     1
 43
1.0
176
     1
 76
     1
176
     1
 77
     6
176
     1
 78
     2
176
     1
 67
     7
176
     1
 79
     5
176
     1
170
     0
176
     1
171
     0
176
     1
290
     0
176
     1
 93
        1
176
     1
 44
-50.0
176
     1
173
     0
176
     1
  0
VISUALSTYLE
  5
39
102
{ACAD_REACTORS
330
2A
102
}
330
2A
100
AcDbVisualStyle
  2
Facepattern
 70
    15
177
     2
291
     1
 71
     2
176
     1
 72
     2
176
     1
 73
     0
176
     1
 90
        0
176
     1
 40
-0.6
176
     1
 41
-30.0
176
     1
 62
     5
 63
     7
421
 16777215
176
     1
 74
     1
176
     1
 91
        4
176
     1
 64
     7
176
     1
 65
   257
176
     1
 75
     1
176
     1
175
     1
176
     1
 42
1.0
176
     1
 92
        8
176
     1
 66
     7
176
     1
 43
1.0
176
     1
 76
     1
176
     1
 77
     6
176
     1
 78
     2
176
     1
 67
     7
176
     1
 79
     5
176
     1
170
     0
176
     1
171
     0
176
     1
290
     0
176
     1
 93
        1
176
     1
 44
0.0
176
     1
173
     0
176
     1
  0
VISUALSTYLE
  5
2B
102
{ACAD_REACTORS
330
2A
102
}
330
2A
100
AcDbVisualStyle
  2
Flat
 70
     0
177
     2
291
     1
 71
     2
176
     1
 72
     1
176
     1
 73
     1
176
     1
 90
        2
176
     1
 40
-0.6
176
     1
 41
30.0
176
     1
 62
     5
 63
     7
421
 16777215
176
     1
 74
     0
176
     1
 91
        4
176
     1
 64
     7
176
     1
 65
   257
176
     1
 75
     1
176
     1
175
     1
176
     1
 42
1.0
176
     1
 92
        8
176
     1
 66
     7
176
     1
 43
1.0
176
     1
 76
     1
176
     1
 77
     6
176
     1
 78
     2
176
     1
 67
     7
176
     1
 79
     5
176
     1
170
     0
176
     1
171
     0
176
     1
290
     0
176
     1
 93
       13
176
     1
 44
0.0
176
     1
173
     0
176
     1
  0
VISUALSTYLE
  5
2C
102
{ACAD_REACTORS
330
2A
102
}
330
2A
100
AcDbVisualStyle
  2
FlatWithEdges
 70
     1
177
     2
291
     1
 71
     2
176
     1
 72
     1
176
     1
 73
     1
176
     1
 90
        2
176
     1
 40
-0.6
176
     1
 41
30.0
176
     1
 62
     5
 63
     7
421
 16777215
176
     1
 74
     1
176
     1
 91
        4
176
     1
 64
     7
176
     1
 65
   257
176
     1
 75
     1
176
     1
175
     1
176
     1
 42
1.0
176
     1
 92
        0
176
     1
 66
   257
176
     1
 43
1.0
176
     1
 76
     1
176
     1
 77
     6
176
     1
 78
     2
176
     1
 67
     7
176
     1
 79
     5
176
     1
170
     0
176
     1
171
     0
176
     1
290
     0
176
     1
 93
       13
176
     1
 44
0.0
176
     1
173
     0
176
     1
  0
VISUALSTYLE
  5
2D
102
{ACAD_REACTORS
330
2A
102
}
330
2A
100
AcDbVisualStyle
  2
Gouraud
 70
     2
177
     2
291
     1
 71
     2
176
     1
 72
     2
176
     1
 73
     1
176
     1
 90
        2
176
     1
 40
-0.6
176
     1
 41
30.0
176
     1
 62
     5
 63
     7
421
 16777215
176
     1
 74
     0
176
     1
 91
        4
176
     1
 64
     7
176
     1
 65
   257
176
     1
 75
     1
176
     1
175
     1
176
     1
 42
1.0
176
     1
 92
        0
176
     1
 66
     7
176
     1
 43
1.0
176
     1
 76
     1
176
     1
 77
     6
176
     1
 78
     2
176
     1
 67
     7
176
     1
 79
     5
176
     1
170
     0
176
     1
171
     0
176
     1
290
     0
176
     1
 93
       13
176
     1
 44
0.0
176
     1
173
     0
176
     1
  0
VISUALSTYLE
  5
2E
102
{ACAD_REACTORS
330
2A
102
}
330
2A
100
AcDbVisualStyle
  2
GouraudWithEdges
 70
     3
177
     2
291
     1
 71
     2
176
     1
 72
     2
176
     1
 73
     1
176
     1
 90
        2
176
     1
 40
-0.6
176
     1
 41
30.0
176
     1
 62
     5
 63
     7
421
 16777215
176
     1
 74
     1
176
     1
 91
        4
176
     1
 64
     7
176
     1
 65
   257
176
     1
 75
     1
176
     1
175
     1
176
     1
 42
1.0
176
     1
 92
        0
176
     1
 66
   257
176
     1
 43
1.0
176
     1
 76
     1
176
     1
 77
     6
176
     1
 78
     2
176
     1
 67
     7
176
     1
 79
     5
176
     1
170
     0
176
     1
171
     0
176
     1
290
     0
176
     1
 93
       13
176
     1
 44
0.0
176
     1
173
     0
176
     1
  0
VISUALSTYLE
  5
38
102
{ACAD_REACTORS
330
2A
102
}
330
2A
100
AcDbVisualStyle
  2
Linepattern
 70
    14
177
     2
291
     1
 71
     2
176
     1
 72
     2
176
     1
 73
     0
176
     1
 90
        0
176
     1
 40
-0.6
176
     1
 41
-30.0
176
     1
 62
     5
 63
     7
421
 16777215
176
     1
 74
     1
176
     1
 91
        4
176
     1
 64
     7
176
     1
 65
   257
176
     1
 75
     7
176
     1
175
     7
176
     1
 42
1.0
176
     1
 92
        8
176
     1
 66
     7
176
     1
 43
1.0
176
     1
 76
     1
176
     1
 77
     6
176
     1
 78
     2
176
     1
 67
     7
176
     1
 79
     5
176
     1
170
     0
176
     1
171
     0
176
     1
290
     0
176
     1
 93
        1
176
     1
 44
0.0
176
     1
173
     0
176
     1
  0
VISUALSTYLE
  5
33
102
{ACAD_REACTORS
330
2A
102
}
330
2A
100
AcDbVisualStyle
  2
Realistic
 70
     8
177
     2
291
     0
 71
     2
176
     1
 72
     2
176
     1
 73
     0
176
     1
 90
        0
176
     1
 40
-0.6
176
     1
 41
-30.0
176
     1
 62
     5
 63
     7
421
 16777215
176
     1
 74
     1
176
     1
 91
        0
176
     1
 64
     7
176
     1
 65
   257
176
     1
 75
     1
176
     1
175
     1
176
     1
 42
1.0
176
     1
 92
        8
176
     1
 66
     8
424
  7895160
176
     1
 43
1.0
176
     1
 76
     1
176
     1
 77
     6
176
     1
 78
     2
176
     1
 67
     7
176
     1
 79
     5
176
     1
170
     0
176
     1
171
     0
176
     1
290
     0
176
     1
 93
       13
176
     1
 44
0.0
176
     1
173
     0
176
     1
  0
VISUALSTYLE
  5
37
102
{ACAD_REACTORS
330
2A
102
}
330
2A
100
AcDbVisualStyle
  2
Thicken
 70
    13
177
     2
291
     1
 71
     2
176
     1
 72
     2
176
     1
 73
     0
176
     1
 90
        0
176
     1
 40
-0.6
176
     1
 41
-30.0
176
     1
 62
     5
 63
     7
421
 16777215
176
     1
 74
     1
176
     1
 91
        4
176
     1
 64
     7
176
     1
 65
   257
176
     1
 75
     1
176
     1
175
     1
176
     1
 42
1.0
176
     1
 92
       12
176
     1
 66
     7
176
     1
 43
1.0
176
     1
 76
     1
176
     1
 77
     6
176
     1
 78
     2
176
     1
 67
     7
176
     1
 79
     5
176
     1
170
     0
176
     1
171
     0
176
     1
290
     0
176
     1
 93
        1
176
     1
 44
0.0
176
     1
173
     0
176
     1
  0
ENDSEC
  0
EOF
