  0
SECTION
  2
HEADER
  9
$ACADVER
  1
AC1024
  9
$ACADMAINTVER
 70
     6
  9
$DWGCODEPAGE
  3
ANSI_1252
  9
$INSBASE
 10
0.0
 20
0.0
 30
0.0
  9
$EXTMIN
 10
0.0
 20
0.0
 30
0.0
  9
$EXTMAX
 10
594.0
 20
841.0
 30
0.0
  9
$LIMMIN
 10
0.0
 20
0.0
  9
$LIMMAX
 10
594.0
 20
841.0
  9
$ORTHOMODE
 70
     0
  9
$REGENMODE
 70
     1
  9
$FILLMODE
 70
     1
  9
$QTEXTMODE
 70
     0
  9
$MIRRTEXT
 70
     1
  9
$LTSCALE
 40
1.0
  9
$ATTMODE
 70
     1
  9
$TEXTSIZE
 40
10.0
  9
$TRACEWID
 40
1.0
  9
$TEXTSTYLE
  7
Standard
  9
$CLAYER
  8
0
  9
$CELTYPE
  6
ByLayer
  9
$CECOLOR
 62
   256
  9
$CELTSCALE
 40
1.0
  9
$DISPSILH
 70
     0
  9
$DIMSCALE
 40
1.0
  9
$DIMASZ
 40
2.5
  9
$DIMEXO
 40
0.0
  9
$DIMDLI
 40
3.75
  9
$DIMRND
 40
0.0
  9
$DIMDLE
 40
0.0
  9
$DIMEXE
 40
1.0
  9
$DIMTP
 40
0.0
  9
$DIMTM
 40
0.0
  9
$DIMTXT
 40
3.5
  9
$DIMCEN
 40
2.5
  9
$DIMTSZ
 40
0.0
  9
$DIMTOL
 70
     0
  9
$DIMLIM
 70
     0
  9
$DIMTIH
 70
     1
  9
$DIMTOH
 70
     1
  9
$DIMSE1
 70
     0
  9
$DIMSE2
 70
     0
  9
$DIMTAD
 70
     1
  9
$DIMZIN
 70
     0
  9
$DIMBLK
  1

  9
$DIMASO
 70
     1
  9
$DIMSHO
 70
     1
  9
$DIMPOST
  1

  9
$DIMAPOST
  1

  9
$DIMALT
 70
     0
  9
$DIMALTD
 70
     3
  9
$DIMALTF
 40
0.0393700787
  9
$DIMLFAC
 40
1.0
  9
$DIMTOFL
 70
     1
  9
$DIMTVP
 40
0.0
  9
$DIMTIX
 70
     0
  9
$DIMSOXD
 70
     0
  9
$DIMSAH
 70
     0
  9
$DIMBLK1
  1

  9
$DIMBLK2
  1

  9
$DIMSTYLE
  2
ISO-25
  9
$DIMCLRD
 70
     0
  9
$DIMCLRE
 70
     0
  9
$DIMCLRT
 70
     0
  9
$DIMTFAC
 40
1.0
  9
$DIMGAP
 40
1.5
  9
$DIMJUST
 70
     0
  9
$DIMSD1
 70
     0
  9
$DIMSD2
 70
     0
  9
$DIMTOLJ
 70
     0
  9
$DIMTZIN
 70
     0
  9
$DIMALTZ
 70
     0
  9
$DIMALTTZ
 70
     0
  9
$DIMUPT
 70
     0
  9
$DIMDEC
 70
     2
  9
$DIMTDEC
 70
     2
  9
$DIMALTU
 70
     2
  9
$DIMALTTD
 70
     3
  9
$DIMTXSTY
  7
Standard
  9
$DIMAUNIT
 70
     0
  9
$DIMADEC
 70
     2
  9
$DIMALTRND
 40
0.0
  9
$DIMAZIN
 70
     0
  9
$DIMDSEP
 70
    44
  9
$DIMATFIT
 70
     3
  9
$DIMFRAC
 70
     0
  9
$DIMLDRBLK
  1

  9
$DIMLUNIT
 70
     2
  9
$DIMLWD
 70
    -2
  9
$DIMLWE
 70
    -2
  9
$DIMTMOVE
 70
     0
  9
$DIMFXL
 40
1.0
  9
$DIMFXLON
 70
     0
  9
$DIMJOGANG
 40
0.7853981634
  9
$DIMTFILL
 70
     0
  9
$DIMTFILLCLR
 70
     0
  9
$DIMARCSYM
 70
     0
  9
$DIMLTYPE
  6

  9
$DIMLTEX1
  6

  9
$DIMLTEX2
  6

  9
$DIMTXTDIRECTION
 70
     0
  9
$LUNITS
 70
     2
  9
$LUPREC
 70
     2
  9
$SKETCHINC
 40
1.0
  9
$FILLETRAD
 40
10.0
  9
$AUNITS
 70
     0
  9
$AUPREC
 70
     2
  9
$MENU
  1
.
  9
$ELEVATION
 40
0.0
  9
$PELEVATION
 40
0.0
  9
$THICKNESS
 40
0.0
  9
$LIMCHECK
 70
     0
  9
$CHAMFERA
 40
10.0
  9
$CHAMFERB
 40
10.0
  9
$CHAMFERC
 40
20.0
  9
$CHAMFERD
 40
0.0
  9
$SKPOLY
 70
     0
  9
$TDCREATE
 40
2456350.500109144
  9
$TDUCREATE
 40
2456350.458442477
  9
$TDUPDATE
 40
2456350.500109491
  9
$TDUUPDATE
 40
2456350.458442824
  9
$TDINDWG
 40
0.0000000116
  9
$TDUSRTIMER
 40
0.0000000116
  9
$USRTIMER
 70
     1
  9
$ANGBASE
 50
0.0
  9
$ANGDIR
 70
     0
  9
$PDMODE
 70
     0
  9
$PDSIZE
 40
-1.0
  9
$PLINEWID
 40
0.0
  9
$SPLFRAME
 70
     0
  9
$SPLINETYPE
 70
     6
  9
$SPLINESEGS
 70
     8
  9
$HANDSEED
  5
1FA
  9
$SURFTAB1
 70
     6
  9
$SURFTAB2
 70
     6
  9
$SURFTYPE
 70
     6
  9
$SURFU
 70
     6
  9
$SURFV
 70
     6
  9
$UCSBASE
  2

  9
$UCSNAME
  2

  9
$UCSORG
 10
0.0
 20
0.0
 30
0.0
  9
$UCSXDIR
 10
1.0
 20
0.0
 30
0.0
  9
$UCSYDIR
 10
0.0
 20
1.0
 30
0.0
  9
$UCSORTHOREF
  2

  9
$UCSORTHOVIEW
 70
     0
  9
$UCSORGTOP
 10
0.0
 20
0.0
 30
0.0
  9
$UCSORGBOTTOM
 10
0.0
 20
0.0
 30
0.0
  9
$UCSORGLEFT
 10
0.0
 20
0.0
 30
0.0
  9
$UCSORGRIGHT
 10
0.0
 20
0.0
 30
0.0
  9
$UCSORGFRONT
 10
0.0
 20
0.0
 30
0.0
  9
$UCSORGBACK
 10
0.0
 20
0.0
 30
0.0
  9
$PUCSBASE
  2

  9
$PUCSNAME
  2

  9
$PUCSORG
 10
0.0
 20
0.0
 30
0.0
  9
$PUCSXDIR
 10
1.0
 20
0.0
 30
0.0
  9
$PUCSYDIR
 10
0.0
 20
1.0
 30
0.0
  9
$PUCSORTHOREF
  2

  9
$PUCSORTHOVIEW
 70
     0
  9
$PUCSORGTOP
 10
0.0
 20
0.0
 30
0.0
  9
$PUCSORGBOTTOM
 10
0.0
 20
0.0
 30
0.0
  9
$PUCSORGLEFT
 10
0.0
 20
0.0
 30
0.0
  9
$PUCSORGRIGHT
 10
0.0
 20
0.0
 30
0.0
  9
$PUCSORGFRONT
 10
0.0
 20
0.0
 30
0.0
  9
$PUCSORGBACK
 10
0.0
 20
0.0
 30
0.0
  9
$USERI1
 70
     0
  9
$USERI2
 70
     0
  9
$USERI3
 70
     0
  9
$USERI4
 70
     0
  9
$USERI5
 70
     0
  9
$USERR1
 40
0.0
  9
$USERR2
 40
0.0
  9
$USERR3
 40
0.0
  9
$USERR4
 40
0.0
  9
$USERR5
 40
0.0
  9
$WORLDVIEW
 70
     1
  9
$SHADEDGE
 70
     3
  9
$SHADEDIF
 70
    70
  9
$TILEMODE
 70
     1
  9
$MAXACTVP
 70
    64
  9
$PINSBASE
 10
0.0
 20
0.0
 30
0.0
  9
$PLIMCHECK
 70
     0
  9
$PEXTMIN
 10
1.0000000000E+20
 20
1.0000000000E+20
 30
1.0000000000E+20
  9
$PEXTMAX
 10
-1.0000000000E+20
 20
-1.0000000000E+20
 30
-1.0000000000E+20
  9
$PLIMMIN
 10
0.0
 20
0.0
  9
$PLIMMAX
 10
420.0
 20
297.0
  9
$UNITMODE
 70
     0
  9
$VISRETAIN
 70
     1
  9
$PLINEGEN
 70
     0
  9
$PSLTSCALE
 70
     1
  9
$TREEDEPTH
 70
  3020
  9
$CMLSTYLE
  2
Standard
  9
$CMLJUST
 70
     0
  9
$CMLSCALE
 40
20.0
  9
$PROXYGRAPHICS
 70
     1
  9
$MEASUREMENT
 70
     1
  9
$CELWEIGHT
370
    -1
  9
$ENDCAPS
280
     0
  9
$JOINSTYLE
280
     0
  9
$LWDISPLAY
290
     1
  9
$INSUNITS
 70
     4
  9
$HYPERLINKBASE
  1

  9
$STYLESHEET
  1

  9
$XEDIT
290
     1
  9
$CEPSNTYPE
380
     0
  9
$PSTYLEMODE
290
     1
  9
$FINGERPRINTGUID
  2
{021F7AC2-9842-455D-B315-EF5207A9F107}
  9
$VERSIONGUID
  2
{FAEB1C32-E019-11D5-929B-00C0DF256EC4}
  9
$EXTNAMES
290
     1
  9
$PSVPSCALE
 40
0.0
  9
$OLESTARTUP
290
     0
  9
$SORTENTS
280
   127
  9
$INDEXCTL
280
     0
  9
$HIDETEXT
280
     1
  9
$XCLIPFRAME
280
     2
  9
$HALOGAP
280
     0
  9
$OBSCOLOR
 70
   257
  9
$OBSLTYPE
280
     0
  9
$INTERSECTIONDISPLAY
280
     0
  9
$INTERSECTIONCOLOR
 70
   257
  9
$DIMASSOC
280
     2
  9
$PROJECTNAME
  1

  9
$CAMERADISPLAY
290
     0
  9
$LENSLENGTH
 40
50.0
  9
$CAMERAHEIGHT
 40
0.0
  9
$STEPSPERSEC
 40
2.0
  9
$STEPSIZE
 40
6.0
  9
$3DDWFPREC
 40
2.0
  9
$PSOLWIDTH
 40
5.0
  9
$PSOLHEIGHT
 40
80.0
  9
$LOFTANG1
 40
1.5707963268
  9
$LOFTANG2
 40
1.5707963268
  9
$LOFTMAG1
 40
0.0
  9
$LOFTMAG2
 40
0.0
  9
$LOFTPARAM
 70
     7
  9
$LOFTNORMALS
280
     1
  9
$LATITUDE
 40
37.795
  9
$LONGITUDE
 40
-122.394
  9
$NORTHDIRECTION
 40
0.0
  9
$TIMEZONE
 70
 -8000
  9
$LIGHTGLYPHDISPLAY
280
     1
  9
$TILEMODELIGHTSYNCH
280
     1
  9
$SOLIDHIST
280
     1
  9
$SHOWHIST
280
     1
  9
$DWFFRAME
280
     2
  9
$DGNFRAME
280
     2
  9
$REALWORLDSCALE
290
     1
  9
$INTERFERECOLOR
 62
   256
  9
$CSHADOW
280
     0
  9
$SHADOWPLANELOCATION
 40
0.0
  0
ENDSEC
  0
SECTION
  2
CLASSES
  0
CLASS
  1
ACDBDICTIONARYWDFLT
  2
AcDbDictionaryWithDefault
  3
ObjectDBX Classes
 90
        0
 91
        4
280
     0
281
     0
  0
CLASS
  1
VISUALSTYLE
  2
AcDbVisualStyle
  3
ObjectDBX Classes
 90
     4095
 91
        4
280
     0
281
     0
  0
CLASS
  1
MATERIAL
  2
AcDbMaterial
  3
ObjectDBX Classes
 90
     1153
 91
        4
280
     0
281
     0
  0
ENDSEC
  0
SECTION
  2
TABLES
  0
TABLE
  2
VPORT
  5
8
330
0
100
AcDbSymbolTable
 70
     1
  0
VPORT
  5
29
330
8
100
AcDbSymbolTableRecord
100
AcDbViewportTableRecord
  2
*Active
 70
     0
 10
0.0
 20
0.0
 11
1.0
 21
1.0
 12
297.0
 22
420.5
 13
0.0
 23
0.0
 14
10.0
 24
10.0
 15
10.0
 25
10.0
 16
0.0
 26
0.0
 36
1.0
 17
0.0
 27
0.0
 37
0.0
 40
841.0
 41
0.7063020214
 42
50.0
 43
0.0
 44
0.0
 50
0.0
 51
0.0
 71
     0
 72
  2000
 73
     1
 74
     3
 75
     0
 76
     0
 77
     0
 78
     0
281
     0
 65
     1
110
0.0
120
0.0
130
0.0
111
1.0
121
0.0
131
0.0
112
0.0
122
1.0
132
0.0
 79
     0
146
0.0
 60
     3
 61
     5
292
     1
282
     1
141
0.0
142
0.0
 63
   250
  0
ENDTAB
  0
TABLE
  2
LTYPE
  5
5
330
0
100
AcDbSymbolTable
 70
     6
  0
LTYPE
  5
14
330
5
100
AcDbSymbolTableRecord
100
AcDbLinetypeTableRecord
  2
ByBlock
 70
     0
  3

 72
    65
 73
     0
 40
0.0
  0
LTYPE
  5
15
330
5
100
AcDbSymbolTableRecord
100
AcDbLinetypeTableRecord
  2
ByLayer
 70
     0
  3

 72
    65
 73
     0
 40
0.0
  0
LTYPE
  5
16
330
5
100
AcDbSymbolTableRecord
100
AcDbLinetypeTableRecord
  2
Continuous
 70
     0
  3
Solid line
 72
    65
 73
     0
 40
0.0
  0
LTYPE
  5
3F
330
5
100
AcDbSymbolTableRecord
100
AcDbLinetypeTableRecord
  2
HIDDEN
 70
     0
  3
Hidden __ __ __ __ __ __ __ __ __ __ __ __ __ __
 72
    65
 73
     2
 40
1.905
 49
1.27
 74
     0
 49
-0.635
 74
     0
  0
LTYPE
  5
40
330
5
100
AcDbSymbolTableRecord
100
AcDbLinetypeTableRecord
  2
PHANTOM
 70
     0
  3
Phantom ______  __  __  ______  __  __  ______
 72
    65
 73
     6
 40
12.7
 49
6.35
 74
     0
 49
-1.27
 74
     0
 49
1.27
 74
     0
 49
-1.27
 74
     0
 49
1.27
 74
     0
 49
-1.27
 74
     0
  0
LTYPE
  5
41
330
5
100
AcDbSymbolTableRecord
100
AcDbLinetypeTableRecord
  2
CENTER
 70
     0
  3
Center ____ _ ____ _ ____ _ ____ _ ____ _ ____
 72
    65
 73
     4
 40
10.16
 49
6.35
 74
     0
 49
-1.27
 74
     0
 49
1.27
 74
     0
 49
-1.27
 74
     0
  0
LTYPE
  5
42
330
5
100
AcDbSymbolTableRecord
100
AcDbLinetypeTableRecord
  2
CENTERX2
 70
     0
  3
Center (2x) ________  __  ________  __  _____
 72
    65
 73
     4
 40
20.32
 49
12.7
 74
     0
 49
-2.54
 74
     0
 49
2.54
 74
     0
 49
-2.54
 74
     0
  0
LTYPE
  5
43
330
5
100
AcDbSymbolTableRecord
100
AcDbLinetypeTableRecord
  2
DOT2
 70
     0
  3
Dot (.5x) ........................................
 72
    65
 73
     2
 40
0.635
 49
0.0
 74
     0
 49
-0.635
 74
     0
  0
ENDTAB
  0
TABLE
  2
LAYER
  5
2
330
0
100
AcDbSymbolTable
 70
     1
  0
LAYER
  5
10
330
2
100
AcDbSymbolTableRecord
100
AcDbLayerTableRecord
  2
0
 70
     0
 62
     7
  6
Continuous
370
    -3
390
F
347
3E
  0
ENDTAB
  0
TABLE
  2
STYLE
  5
3
330
0
100
AcDbSymbolTable
 70
     3
  0
STYLE
  5
11
330
3
100
AcDbSymbolTableRecord
100
AcDbTextStyleTableRecord
  2
Standard
 70
     0
 40
0.0
 41
1.0
 50
0.0
 71
     0
 42
10.0
  3
txt
  4

  0
STYLE
  5
47
330
3
100
AcDbSymbolTableRecord
100
AcDbTextStyleTableRecord
  2
SLDTEXTSTYLE0
 70
     0
 40
0.0
 41
0.96
 50
0.0
 71
     0
 42
0.2
  3
ISOCP3
  4

  0
STYLE
  5
5E
330
3
100
AcDbSymbolTableRecord
100
AcDbTextStyleTableRecord
  2
SLDTEXTSTYLE1
 70
     0
 40
0.0
 41
0.605
 50
0.0
 71
     0
 42
0.2
  3
TXT
  4

  0
ENDTAB
  0
TABLE
  2
VIEW
  5
6
330
0
100
AcDbSymbolTable
 70
     0
  0
ENDTAB
  0
TABLE
  2
UCS
  5
7
330
0
100
AcDbSymbolTable
 70
     0
  0
ENDTAB
  0
TABLE
  2
APPID
  5
9
330
0
100
AcDbSymbolTable
 70
     1
  0
APPID
  5
12
330
9
100
AcDbSymbolTableRecord
100
AcDbRegAppTableRecord
  2
ACAD
 70
     0
  0
ENDTAB
  0
TABLE
  2
DIMSTYLE
  5
A
330
0
100
AcDbSymbolTable
 70
     2
100
AcDbDimStyleTable
  0
DIMSTYLE
105
27
330
A
100
AcDbSymbolTableRecord
100
AcDbDimStyleTableRecord
  2
ISO-25
 70
     0
 41
2.5
 42
0.625
 43
3.75
 44
1.25
 73
     0
 74
     0
 77
     1
 78
     8
140
2.5
141
2.5
143
0.0393700787
147
0.625
171
     3
172
     1
178
     0
271
     2
272
     2
274
     3
278
    44
283
     0
284
     8
340
11
  0
DIMSTYLE
105
48
102
{ACAD_REACTORS
330
46
330
53
102
}
330
A
100
AcDbSymbolTableRecord
100
AcDbDimStyleTableRecord
  2
SLDDIMSTYLE0
 70
     0
 41
2.5
 44
0.0
 45
0.000000001
 73
     0
 74
     0
 77
     1
 78
    12
 79
     3
140
6.0
147
1.5
173
     1
178
     0
271
     2
272
     2
276
     2
284
    12
340
47
  0
ENDTAB
  0
TABLE
  2
BLOCK_RECORD
  5
1
330
0
100
AcDbSymbolTable
 70
     3
  0
BLOCK_RECORD
  5
1F
330
1
100
AcDbSymbolTableRecord
100
AcDbBlockTableRecord
  2
*Model_Space
340
22
 70
     0
280
     1
281
     0
  0
BLOCK_RECORD
  5
1B
330
1
100
AcDbSymbolTableRecord
100
AcDbBlockTableRecord
  2
*Paper_Space
340
1E
 70
     0
280
     1
281
     0
  0
BLOCK_RECORD
  5
23
330
1
100
AcDbSymbolTableRecord
100
AcDbBlockTableRecord
  2
*Paper_Space0
340
26
 70
     0
280
     1
281
     0
  0
BLOCK_RECORD
  5
49
330
1
100
AcDbSymbolTableRecord
100
AcDbBlockTableRecord
  2
_D
340
0
 70
     0
280
     1
281
     0
  0
BLOCK_RECORD
  5
54
330
1
100
AcDbSymbolTableRecord
100
AcDbBlockTableRecord
  2
_D_1
340
0
 70
     0
280
     1
281
     0
  0
ENDTAB
  0
ENDSEC
  0
SECTION
  2
BLOCKS
  0
BLOCK
  5
20
330
1F
100
AcDbEntity
  8
0
100
AcDbBlockBegin
  2
*Model_Space
 70
     0
 10
0.0
 20
0.0
 30
0.0
  3
*Model_Space
  1

  0
ENDBLK
  5
21
330
1F
100
AcDbEntity
  8
0
100
AcDbBlockEnd
  0
BLOCK
  5
1C
330
1B
100
AcDbEntity
 67
     1
  8
0
100
AcDbBlockBegin
  2
*Paper_Space
 70
     0
 10
0.0
 20
0.0
 30
0.0
  3
*Paper_Space
  1

  0
ENDBLK
  5
1D
330
1B
100
AcDbEntity
 67
     1
  8
0
100
AcDbBlockEnd
  0
BLOCK
  5
24
330
23
100
AcDbEntity
  8
0
100
AcDbBlockBegin
  2
*Paper_Space0
 70
     0
 10
0.0
 20
0.0
 30
0.0
  3
*Paper_Space0
  1

  0
ENDBLK
  5
25
330
23
100
AcDbEntity
  8
0
100
AcDbBlockEnd
  0
BLOCK
  5
4A
330
49
100
AcDbEntity
  8
0
100
AcDbBlockBegin
  2
_D
 70
     0
 10
0.0
 20
0.0
 30
0.0
  3
_D
  1

  0
SOLID
  5
4C
330
49
100
AcDbEntity
  8
0
  6
Continuous
 62
     7
370
     0
100
AcDbTrace
 10
42.7614395004
 20
152.0299240879
 30
0.0
 11
42.4614395004
 21
149.5299240879
 31
0.0
 12
43.0614395004
 22
149.5299240879
 32
0.0
 13
43.0614395004
 23
149.5299240879
 33
0.0
  0
SOLID
  5
4D
330
49
100
AcDbEntity
  8
0
  6
Continuous
 62
     7
370
     0
100
AcDbTrace
 10
42.7614395004
 20
52.0299240879
 30
0.0
 11
43.0614395004
 21
54.5299240879
 31
0.0
 12
42.4614395004
 22
54.5299240879
 32
0.0
 13
42.4614395004
 23
54.5299240879
 33
0.0
  0
LINE
  5
4E
330
49
100
AcDbEntity
  8
0
  6
Continuous
 62
     7
370
     0
100
AcDbLine
 10
56.6850079902
 20
152.0299240879
 30
0.0
 11
41.7614395004
 21
152.0299240879
 31
0.0
  0
LINE
  5
4F
330
49
100
AcDbEntity
  8
0
  6
Continuous
 62
     7
370
     0
100
AcDbLine
 10
56.6850079902
 20
52.0299240879
 30
0.0
 11
41.7614395004
 21
52.0299240879
 31
0.0
  0
LINE
  5
50
330
49
100
AcDbEntity
  8
0
  6
Continuous
 62
     7
370
     0
100
AcDbLine
 10
42.7614395004
 20
152.0299240879
 30
0.0
 11
42.7614395004
 21
52.0299240879
 31
0.0
  0
MTEXT
  5
51
330
49
100
AcDbEntity
  8
0
  6
Continuous
 62
     7
370
     0
100
AcDbMText
 10
35.0270329453
 20
91.6722208134
 30
0.1
 40
6.0
 41
0.0
 46
0.0
 71
     1
 72
     1
  1
100
  7
SLDTEXTSTYLE0
 11
-7.044195017643634E-15
 21
1.0
 31
0.0
 73
     1
 44
1.0
  0
MTEXT
  5
52
330
49
100
AcDbEntity
  8
0
  6
Continuous
 62
     7
370
     0
100
AcDbMText
 10
35.0270329453
 20
108.4388881795
 30
0.1
 40
6.0
 41
0.0
 46
0.0
 71
     1
 72
     1
  1
mm
  7
SLDTEXTSTYLE0
 11
-7.044195017643634E-15
 21
1.0
 31
0.0
 73
     1
 44
1.0
  0
ENDBLK
  5
4B
330
49
100
AcDbEntity
  8
0
100
AcDbBlockEnd
  0
BLOCK
  5
55
330
54
100
AcDbEntity
  8
0
100
AcDbBlockBegin
  2
_D_1
 70
     0
 10
0.0
 20
0.0
 30
0.0
  3
_D_1
  1

  0
SOLID
  5
57
330
54
100
AcDbEntity
  8
0
  6
Continuous
 62
     7
370
     0
100
AcDbTrace
 10
56.6850079902
 20
38.4602342313
 30
0.0
 11
59.1850079902
 21
38.1602342313
 31
0.0
 12
59.1850079902
 22
38.7602342313
 32
0.0
 13
59.1850079902
 23
38.7602342313
 33
0.0
  0
SOLID
  5
58
330
54
100
AcDbEntity
  8
0
  6
Continuous
 62
     7
370
     0
100
AcDbTrace
 10
156.6850079902
 20
38.4602342313
 30
0.0
 11
154.1850079902
 21
38.7602342313
 31
0.0
 12
154.1850079902
 22
38.1602342313
 32
0.0
 13
154.1850079902
 23
38.1602342313
 33
0.0
  0
LINE
  5
59
330
54
100
AcDbEntity
  8
0
  6
Continuous
 62
     7
370
     0
100
AcDbLine
 10
56.6850079902
 20
52.0299240879
 30
0.0
 11
56.6850079902
 21
37.4602342313
 31
0.0
  0
LINE
  5
5A
330
54
100
AcDbEntity
  8
0
  6
Continuous
 62
     7
370
     0
100
AcDbLine
 10
156.6850079902
 20
52.0299240879
 30
0.0
 11
156.6850079902
 21
37.4602342313
 31
0.0
  0
LINE
  5
5B
330
54
100
AcDbEntity
  8
0
  6
Continuous
 62
     7
370
     0
100
AcDbLine
 10
56.6850079902
 20
38.4602342313
 30
0.0
 11
156.6850079902
 21
38.4602342313
 31
0.0
  0
MTEXT
  5
5C
330
54
100
AcDbEntity
  8
0
  6
Continuous
 62
     7
370
     0
100
AcDbMText
 10
91.2668151533
 20
46.1946407863
 30
0.1
 40
6.0
 41
0.0
 46
0.0
 71
     1
 72
     1
  1
100
  7
SLDTEXTSTYLE0
 73
     1
 44
1.0
  0
MTEXT
  5
5D
330
54
100
AcDbEntity
  8
0
  6
Continuous
 62
     7
370
     0
100
AcDbMText
 10
108.0334825193
 20
46.1946407863
 30
0.1
 40
6.0
 41
0.0
 46
0.0
 71
     1
 72
     1
  1
mm
  7
SLDTEXTSTYLE0
 73
     1
 44
1.0
  0
ENDBLK
  5
56
330
54
100
AcDbEntity
  8
0
100
AcDbBlockEnd
  0
ENDSEC
  0
SECTION
  2
ENTITIES
  0
LINE
  5
44
330
1F
100
AcDbEntity
  8
0
  6
Continuous
 62
     7
370
     0
100
AcDbLine
 10
56.6850079902
 20
152.0299240879
 30
0.0
 11
56.6850079902
 21
52.0299240879
 31
0.0
  0
LINE
  5
45
330
1F
100
AcDbEntity
  8
0
  6
Continuous
 62
     7
370
     0
100
AcDbLine
 10
56.6850079902
 20
52.0299240879
 30
0.0
 11
156.6850079902
 21
52.0299240879
 31
0.0
  0
DIMENSION
  5
46
330
1F
100
AcDbEntity
  8
0
  6
Continuous
 62
     7
370
     0
100
AcDbDimension
280
     0
  2
_D
 10
42.7614395004
 20
52.0299240879
 30
0.0
 11
42.7614395004
 21
105.4472211621
 31
0.0
 70
   160
  1
<>mm
 71
     2
 42
-1.0
 73
     0
 74
     0
 75
     0
  3
SLDDIMSTYLE0
100
AcDbAlignedDimension
 13
56.6850079902
 23
152.0299240879
 33
0.0
 14
56.6850079902
 24
52.0299240879
 34
0.0
 50
90.0
100
AcDbRotatedDimension
  0
DIMENSION
  5
53
330
1F
100
AcDbEntity
  8
0
  6
Continuous
 62
     7
370
     0
100
AcDbDimension
280
     0
  2
_D_1
 10
156.6850079902
 20
38.4602342313
 30
0.0
 11
105.0418155019
 21
38.4602342313
 31
0.0
 70
   160
  1
<>mm
 71
     2
 42
-1.0
 73
     0
 74
     0
 75
     0
  3
SLDDIMSTYLE0
100
AcDbAlignedDimension
 13
56.6850079902
 23
52.0299240879
 33
0.0
 14
156.6850079902
 24
52.0299240879
 34
0.0
100
AcDbRotatedDimension
  0
MTEXT
  5
5F
330
1F
100
AcDbEntity
  8
0
  6
Continuous
 62
     7
370
     0
100
AcDbMText
 10
254.8670212939
 20
48.2677693822
 30
0.0
 40
10.0
 41
0.0
 46
0.0
 71
     1
 72
     1
  1
38 870 05 75
  7
SLDTEXTSTYLE1
 73
     1
 44
1.0
  0
MTEXT
  5
60
330
1F
100
AcDbEntity
  8
0
  6
Continuous
 62
     7
370
     0
100
AcDbMText
 10
412.8252631579
 20
48.4342449499
 30
0.0
 40
10.0
 41
0.0
 46
0.0
 71
     1
 72
     1
  1
KLUDI GmbH & Co KG
  7
SLDTEXTSTYLE1
 73
     1
 44
1.0
  0
LWPOLYLINE
  5
61
330
1F
100
AcDbEntity
  8
0
  6
Continuous
 62
     7
370
    15
100
AcDbPolyline
 90
        9
 70
   128
 43
0.0
 10
212.6447928558
 20
316.616325001
 10
212.6640106971
 20
316.6274766575
 10
212.6715339209
 20
316.6317067246
 10
212.6751139249
 20
316.6337034802
 10
212.6776620234
 20
316.6351172279
 10
212.6799605275
 20
316.6363912772
 10
212.6819880168
 20
316.6375107269
 10
212.6818203787
 20
316.6374194573
 10
212.6517032693
 20
316.6209890644
  0
ARC
  5
62
330
1F
100
AcDbEntity
  8
0
  6
Continuous
 62
     7
370
    15
100
AcDbCircle
 10
114.1062781034
 20
346.3057333798
 30
0.0
 40
7.985121994497987
100
AcDbArc
 50
89.8317631809
 51
180.2808714305
  0
ARC
  5
63
330
1F
100
AcDbEntity
  8
0
  6
Continuous
 62
     7
370
    15
100
AcDbCircle
 10
289.2263387515
 20
327.6413993515
 30
0.0
 40
7.932899423152855
100
AcDbArc
 50
269.4817425386
 51
0.5056230778
  0
ARC
  5
64
330
1F
100
AcDbEntity
  8
0
  6
Continuous
 62
     7
370
    15
100
AcDbCircle
 10
289.2234557545
 20
346.341969619
 30
0.0
 40
7.932754979963487
100
AcDbArc
 50
359.4609394942
 51
90.497174029
  0
ARC
  5
65
330
1F
100
AcDbEntity
  8
0
  6
Continuous
 62
     7
370
    15
100
AcDbCircle
 10
114.0601903416
 20
327.6374843063
 30
0.0
 40
7.93267090547501
100
AcDbArc
 50
179.4627505248
 51
270.5011599292
  0
LINE
  5
66
330
1F
100
AcDbEntity
  8
0
  6
Continuous
 62
     7
370
    15
100
AcDbLine
 10
297.1782933409
 20
327.597888014
 30
0.0
 11
297.1782933409
 21
346.3806727107
 31
0.0
  0
LINE
  5
67
330
1F
100
AcDbEntity
  8
0
  6
Continuous
 62
     7
370
    15
100
AcDbLine
 10
106.1056654389
 20
346.3806680541
 30
0.0
 11
106.1056654389
 21
327.5985944222
 31
0.0
  0
LWPOLYLINE
  5
68
330
1F
100
AcDbEntity
  8
0
  6
Continuous
 62
     7
370
    15
100
AcDbPolyline
 90
        3
 70
   128
 43
0.0
 10
217.5287518139
 20
319.6875306915
 10
217.2087102617
 20
319.6752772804
 10
216.9526626776
 20
319.6469194393
  0
LWPOLYLINE
  5
69
330
1F
100
AcDbEntity
  8
0
  6
Continuous
 62
     7
370
    15
100
AcDbPolyline
 90
        3
 70
   128
 43
0.0
 10
186.2667889754
 20
319.6556356873
 10
186.0767963762
 20
319.6751562084
 10
185.7569802041
 20
319.6875334855
  0
ARC
  5
6A
330
1F
100
AcDbEntity
  8
0
  6
Continuous
 62
     7
370
    15
100
AcDbCircle
 10
217.3810137265
 20
357.447792287
 30
0.0
 40
3.147699168951988
100
AcDbArc
 50
250.2103145094
 51
272.9504094179
  0
ARC
  5
6B
330
1F
100
AcDbEntity
  8
0
  6
Continuous
 62
     7
370
    15
100
AcDbCircle
 10
185.76185935
 20
358.3037703499
 30
0.0
 40
4.01200000000001
100
AcDbArc
 50
269.9050191118
 51
281.7859634733
  0
LINE
  5
6C
330
1F
100
AcDbEntity
  8
0
  6
Continuous
 62
     7
370
    15
100
AcDbLine
 10
217.5262949849
 20
319.6875381421
 30
0.0
 11
289.1541446979
 21
319.6875381421
 31
0.0
  0
LINE
  5
6D
330
1F
100
AcDbEntity
  8
0
  6
Continuous
 62
     7
370
    15
100
AcDbLine
 10
114.1302611167
 20
319.6875381421
 30
0.0
 11
185.7579133893
 21
319.6875381421
 31
0.0
  0
LINE
  5
6E
330
1F
100
AcDbEntity
  8
0
  6
Continuous
 62
     7
370
    15
100
AcDbLine
 10
289.1540925438
 20
354.2917690377
 30
0.0
 11
217.542393827
 21
354.2917690377
 31
0.0
  0
LINE
  5
6F
330
1F
100
AcDbEntity
  8
0
  6
Continuous
 62
     7
370
    15
100
AcDbLine
 10
185.7576637949
 20
354.2917690377
 30
0.0
 11
114.129866236
 21
354.2917690377
 31
0.0
  0
LINE
  5
70
330
1F
100
AcDbEntity
  8
0
  6
Continuous
 62
     7
370
    15
100
AcDbLine
 10
213.427229547
 20
304.4750749271
 30
0.0
 11
213.427229547
 21
317.0632070999
 31
0.0
  0
LINE
  5
71
330
1F
100
AcDbEntity
  8
0
  6
Continuous
 62
     7
370
    15
100
AcDbLine
 10
189.8567292328
 20
317.0306890409
 30
0.0
 11
189.8567292328
 21
304.4750749271
 31
0.0
  0
LINE
  5
72
330
1F
100
AcDbEntity
  8
0
  6
Continuous
 62
     7
370
    15
100
AcDbLine
 10
212.1509115631
 20
299.7609752368
 30
0.0
 11
212.1509115631
 21
301.2378926526
 31
0.0
  0
LINE
  5
73
330
1F
100
AcDbEntity
  8
0
  6
Continuous
 62
     7
370
    15
100
AcDbLine
 10
191.1330472166
 20
301.2378926526
 30
0.0
 11
191.1330472166
 21
299.7609752368
 31
0.0
  0
LINE
  5
74
330
1F
100
AcDbEntity
  8
0
  6
Continuous
 62
     7
370
    15
100
AcDbLine
 10
212.1509115631
 20
301.2378926526
 30
0.0
 11
211.6446194659
 21
301.7441856812
 31
0.0
  0
LINE
  5
75
330
1F
100
AcDbEntity
  8
0
  6
Continuous
 62
     7
370
    15
100
AcDbLine
 10
191.584619456
 20
301.689464892
 30
0.0
 11
191.1330472166
 21
301.2378926526
 31
0.0
  0
CIRCLE
  5
76
330
1F
100
AcDbEntity
  8
0
  6
Continuous
 62
     7
370
    15
100
AcDbCircle
 10
201.6146193241
 20
336.8783783441
 30
0.0
 40
23.06899999999999
  0
ARC
  5
77
330
1F
100
AcDbEntity
  8
0
  6
Continuous
 62
     7
370
    15
100
AcDbCircle
 10
213.6506193241
 20
314.880871008
 30
0.0
 40
2.006000000000034
100
AcDbArc
 50
118.6854020141
 51
180.0
  0
ARC
  5
78
330
1F
100
AcDbEntity
  8
0
  6
Continuous
 62
     7
370
    15
100
AcDbCircle
 10
189.5786193241
 20
314.880871008
 30
0.0
 40
2.006000000000021
100
AcDbArc
 50
0.0
 51
61.3145979859
  0
LINE
  5
79
330
1F
100
AcDbEntity
  8
0
  6
Continuous
 62
     7
370
    15
100
AcDbLine
 10
211.6446194659
 20
314.8808705758
 30
0.0
 11
211.6446194659
 21
264.6623778294
 31
0.0
  0
LINE
  5
7A
330
1F
100
AcDbEntity
  8
0
  6
Continuous
 62
     7
370
    15
100
AcDbLine
 10
191.584619456
 20
264.6623778294
 30
0.0
 11
191.584619456
 21
314.8808705758
 31
0.0
  0
ARC
  5
7B
330
1F
100
AcDbEntity
  8
0
  6
Continuous
 62
     7
370
    15
100
AcDbCircle
 10
206.6296193241
 20
264.6623783441
 30
0.0
 40
5.015000000000015
100
AcDbArc
 50
270.0
 51
0.0
  0
LINE
  5
7C
330
1F
100
AcDbEntity
  8
0
  6
Continuous
 62
     7
370
    15
100
AcDbLine
 10
206.6296192306
 20
259.6473771285
 30
0.0
 11
196.5996192257
 21
259.6473771285
 31
0.0
  0
ARC
  5
7D
330
1F
100
AcDbEntity
  8
0
  6
Continuous
 62
     7
370
    15
100
AcDbCircle
 10
196.5996193241
 20
264.6623783441
 30
0.0
 40
5.014999999999986
100
AcDbArc
 50
180.0
 51
270.0
  0
LWPOLYLINE
  5
7E
330
1F
100
AcDbEntity
  8
0
  6
Continuous
 62
     7
370
    15
100
AcDbPolyline
 90
        3
 70
   128
 43
0.0
 10
106.1059485609
 20
346.2675915237
 10
106.1056430871
 20
346.2678327362
 10
106.1062838371
 20
346.2670876782
  0
LWPOLYLINE
  5
7F
330
1F
100
AcDbEntity
  8
0
  6
Continuous
 62
     7
370
    15
100
AcDbPolyline
 90
        3
 70
   128
 43
0.0
 10
297.1776749427
 20
346.2670848842
 10
297.1783156927
 20
346.2678327362
 10
297.1780176694
 20
346.267592455
  0
LWPOLYLINE
  5
80
330
1F
100
AcDbEntity
  8
0
  6
Continuous
 62
     7
370
    15
100
AcDbPolyline
 90
        3
 70
   128
 43
0.0
 10
106.1062167818
 20
327.7121538434
 10
106.1056356366
 20
327.7114851538
 10
106.1060454185
 20
327.711810651
  0
LINE
  5
81
330
1F
100
AcDbEntity
  8
0
  6
Continuous
 62
     7
370
    15
100
AcDbLine
 10
211.6446194659
 20
304.4750749271
 30
0.0
 11
213.427229547
 21
304.4750749271
 31
0.0
  0
LINE
  5
82
330
1F
100
AcDbEntity
  8
0
  6
Continuous
 62
     7
370
    15
100
AcDbLine
 10
189.8567292328
 20
304.4750749271
 30
0.0
 11
191.584619456
 21
304.4750749271
 31
0.0
  0
LINE
  5
83
330
1F
100
AcDbEntity
  8
0
  6
Continuous
 62
     7
370
    15
100
AcDbLine
 10
211.6446194659
 20
301.2378926526
 30
0.0
 11
212.1509115631
 21
301.2378926526
 31
0.0
  0
LINE
  5
84
330
1F
100
AcDbEntity
  8
0
  6
Continuous
 62
     7
370
    15
100
AcDbLine
 10
191.1330472166
 20
301.2378926526
 30
0.0
 11
191.584619456
 21
301.2378926526
 31
0.0
  0
LINE
  5
85
330
1F
100
AcDbEntity
  8
0
  6
Continuous
 62
     7
370
    15
100
AcDbLine
 10
191.1330472166
 20
299.7609752368
 30
0.0
 11
191.584619456
 21
299.7609752368
 31
0.0
  0
LINE
  5
86
330
1F
100
AcDbEntity
  8
0
  6
Continuous
 62
     7
370
    15
100
AcDbLine
 10
211.6446194659
 20
299.7609752368
 30
0.0
 11
212.1509115631
 21
299.7609752368
 31
0.0
  0
ARC
  5
87
330
1F
100
AcDbEntity
  8
0
  6
Continuous
 62
     7
370
    15
100
AcDbCircle
 10
276.64197949
 20
336.9896534325
 30
0.0
 40
35.10500000000003
100
AcDbArc
 50
209.6557613672
 51
150.434897187
  0
ARC
  5
88
330
1F
100
AcDbEntity
  8
0
  6
Continuous
 62
     7
370
    15
100
AcDbCircle
 10
126.6419792898
 20
336.9896534325
 30
0.0
 40
35.105
100
AcDbArc
 50
29.6055705317
 51
180.0
  0
ARC
  5
89
330
1F
100
AcDbEntity
  8
0
  6
Continuous
 62
     7
370
    15
100
AcDbCircle
 10
126.6419792898
 20
336.9896534325
 30
0.0
 40
35.10500000000003
100
AcDbArc
 50
180.0
 51
330.3626702576
  0
CIRCLE
  5
8A
330
1F
100
AcDbEntity
  8
0
  6
Continuous
 62
     7
370
     0
100
AcDbCircle
 10
201.6146193241
 20
336.8783783441
 30
0.0
 40
21.56449999999998
  0
ARC
  5
8B
330
1F
100
AcDbEntity
  8
0
  6
Continuous
 62
     7
370
     0
100
AcDbCircle
 10
202.4279819929
 20
320.4431860937
 30
0.0
 40
10.76502485967414
100
AcDbArc
 50
319.7287603852
 51
328.8886778839
  0
LWPOLYLINE
  5
8C
330
1F
100
AcDbEntity
  8
0
  6
Continuous
 62
     7
370
     0
100
AcDbPolyline
 90
        9
 70
   128
 43
0.0
 10
210.641619512
 20
313.4846001069
 10
210.5007327582
 20
313.8497120838
 10
210.3652607138
 20
314.2007927548
 10
210.2404085408
 20
314.524350981
 10
210.1309753443
 20
314.8079517435
 10
210.0411651145
 20
315.0406967055
 10
209.974430264
 20
315.2136414449
 10
209.9333356554
 20
315.3201419066
 10
209.9194589491
 20
315.3561021339
  0
ARC
  5
8D
330
1F
100
AcDbEntity
  8
0
  6
Continuous
 62
     7
370
     0
100
AcDbCircle
 10
200.8548322889
 20
320.4816715337
 30
0.0
 40
10.83078101228405
100
AcDbArc
 50
211.1391869286
 51
220.2433748024
  0
LINE
  5
8E
330
1F
100
AcDbEntity
  8
0
  6
Continuous
 62
     7
370
     0
100
AcDbLine
 10
210.641619512
 20
264.6623778294
 30
0.0
 11
210.641619512
 21
313.4846001069
 31
0.0
  0
ARC
  5
8F
330
1F
100
AcDbEntity
  8
0
  6
Continuous
 62
     7
370
     0
100
AcDbCircle
 10
206.6296193241
 20
264.6623783441
 30
0.0
 40
4.012
100
AcDbArc
 50
270.0
 51
0.0
  0
LINE
  5
90
330
1F
100
AcDbEntity
  8
0
  6
Continuous
 62
     7
370
     0
100
AcDbLine
 10
196.5996192257
 20
260.650381739
 30
0.0
 11
206.6296192306
 21
260.650381739
 31
0.0
  0
ARC
  5
91
330
1F
100
AcDbEntity
  8
0
  6
Continuous
 62
     7
370
     0
100
AcDbCircle
 10
196.5996193241
 20
264.6623783441
 30
0.0
 40
4.012
100
AcDbArc
 50
180.0
 51
270.0
  0
LINE
  5
92
330
1F
100
AcDbEntity
  8
0
  6
Continuous
 62
     7
370
     0
100
AcDbLine
 10
192.58761941
 20
313.4846001069
 30
0.0
 11
192.58761941
 21
264.6623778294
 31
0.0
  0
ARC
  5
93
330
1F
100
AcDbEntity
  8
0
  6
Continuous
 62
     7
370
     0
100
AcDbCircle
 10
202.3511029283
 20
336.9896526586
 30
0.0
 40
25.8673945599435
100
AcDbArc
 50
323.8852467212
 51
36.1147532788
  0
ARC
  5
94
330
1F
100
AcDbEntity
  8
0
  6
Continuous
 62
     7
370
     0
100
AcDbCircle
 10
200.9328521905
 20
336.9896526586
 30
0.0
 40
25.86739009775885
100
AcDbArc
 50
143.88523951
 51
216.11476049
  0
ARC
  5
95
330
1F
100
AcDbEntity
  8
0
  6
Continuous
 62
     7
370
     0
100
AcDbCircle
 10
209.6414224985
 20
352.4303706371
 30
0.0
 40
33.56827700086642
100
AcDbArc
 50
283.9792702239
 51
293.9120299114
  0
LWPOLYLINE
  5
96
330
1F
100
AcDbEntity
  8
0
  6
Continuous
 62
     7
370
     0
100
AcDbPolyline
 90
        3
 70
   128
 43
0.0
 10
217.7505388344
 20
319.8562788914
 10
217.4243002618
 20
319.8436855476
 10
217.1337713907
 20
319.8098496671
  0
ARC
  5
97
330
1F
100
AcDbEntity
  8
0
  6
Continuous
 62
     7
370
     0
100
AcDbCircle
 10
193.6425740156
 20
321.5488623326
 30
0.0
 40
33.56835767861575
100
AcDbArc
 50
103.9792990392
 51
113.9120358306
  0
ARC
  5
98
330
1F
100
AcDbEntity
  8
0
  6
Continuous
 62
     7
370
     0
100
AcDbCircle
 10
185.5423646971
 20
358.1240041268
 30
0.0
 40
4.000985832889701
100
AcDbArc
 50
269.871934006
 51
282.3133858516
  0
LWPOLYLINE
  5
99
330
1F
100
AcDbEntity
  8
0
  6
Continuous
 62
     7
370
     0
100
AcDbPolyline
 90
        3
 70
   128
 43
0.0
 10
186.085067452
 20
319.8193109732
 10
185.8596603806
 20
319.8436855476
 10
185.533421808
 20
319.8562788914
  0
ARC
  5
9A
330
1F
100
AcDbEntity
  8
0
  6
Continuous
 62
     7
370
     0
100
AcDbCircle
 10
193.4677140493
 20
351.9210757116
 30
0.0
 40
33.03186625801965
100
AcDbArc
 50
246.0071125262
 51
256.1015873385
  0
ARC
  5
9B
330
1F
100
AcDbEntity
  8
0
  6
Continuous
 62
     7
370
     0
100
AcDbCircle
 10
217.741576357
 20
358.1236996744
 30
0.0
 40
4.000681425054368
100
AcDbArc
 50
256.5991857896
 51
270.1283562733
  0
ARC
  5
9C
330
1F
100
AcDbEntity
  8
0
  6
Continuous
 62
     7
370
     0
100
AcDbCircle
 10
209.8162673682
 20
322.0583217778
 30
0.0
 40
33.03177360223989
100
AcDbArc
 50
66.0070804379
 51
76.1015846923
  0
ARC
  5
9D
330
1F
100
AcDbEntity
  8
0
  6
Continuous
 62
     7
370
     0
100
AcDbCircle
 10
114.3126377747
 20
327.7740525109
 30
0.0
 40
6.030822082318941
100
AcDbArc
 50
179.6745607787
 51
269.7312894619
  0
LWPOLYLINE
  5
9E
330
1F
100
AcDbEntity
  8
0
  6
Continuous
 62
     7
370
     0
100
AcDbPolyline
 90
        5
 70
   128
 43
0.0
 10
108.281912976
 20
346.1709994029
 10
108.2824121649
 20
341.58459987
 10
108.2825760777
 20
336.9953544482
 10
108.2824121649
 20
332.4018319275
 10
108.281912976
 20
327.8083073113
  0
ARC
  5
9F
330
1F
100
AcDbEntity
  8
0
  6
Continuous
 62
     7
370
     0
100
AcDbCircle
 10
114.3129726945
 20
346.2049213494
 30
0.0
 40
6.031155115437323
100
AcDbArc
 50
90.2718774631
 51
180.3222590998
  0
LINE
  5
A0
330
1F
100
AcDbEntity
  8
0
  6
Continuous
 62
     7
370
     0
100
AcDbLine
 10
180.0361897285
 20
352.2360085647
 30
0.0
 11
114.2843540246
 21
352.2360085647
 31
0.0
  0
LINE
  5
A1
330
1F
100
AcDbEntity
  8
0
  6
Continuous
 62
     7
370
     0
100
AcDbLine
 10
114.2843540246
 20
321.7432967524
 30
0.0
 11
180.0361897285
 21
321.7432967524
 31
0.0
  0
ARC
  5
A2
330
1F
100
AcDbEntity
  8
0
  6
Continuous
 62
     7
370
     0
100
AcDbCircle
 10
288.9713230311
 20
346.2052548192
 30
0.0
 40
6.030820059846007
100
AcDbArc
 50
359.6745548171
 51
89.73130862
  0
LWPOLYLINE
  5
A3
330
1F
100
AcDbEntity
  8
0
  6
Continuous
 62
     7
370
     0
100
AcDbPolyline
 90
        5
 70
   128
 43
0.0
 10
295.0020458038
 20
327.8083073113
 10
295.0015540655
 20
332.3947068441
 10
295.0013901527
 20
336.9839520331
 10
295.0015540655
 20
341.5774747867
 10
295.0020458038
 20
346.1709994029
  0
ARC
  5
A4
330
1F
100
AcDbEntity
  8
0
  6
Continuous
 62
     7
370
     0
100
AcDbCircle
 10
288.9709884503
 20
327.774381635
 30
0.0
 40
6.031152771484174
100
AcDbArc
 50
270.2718551014
 51
0.322294658
  0
LINE
  5
A5
330
1F
100
AcDbEntity
  8
0
  6
Continuous
 62
     7
370
     0
100
AcDbLine
 10
223.2477709139
 20
321.7432967524
 30
0.0
 11
288.9996047552
 21
321.7432967524
 31
0.0
  0
LINE
  5
A6
330
1F
100
AcDbEntity
  8
0
  6
Continuous
 62
     7
370
     0
100
AcDbLine
 10
288.9996047552
 20
352.2360085647
 30
0.0
 11
223.2477709139
 21
352.2360085647
 31
0.0
  0
ARC
  5
A7
330
1F
100
AcDbEntity
  8
0
  6
Continuous
 62
     7
370
     0
100
AcDbCircle
 10
288.9913990375
 20
327.8714868832
 30
0.0
 40
8.015212192095142
100
AcDbArc
 50
270.0586575948
 51
0.036399271
  0
ARC
  5
A8
330
1F
100
AcDbEntity
  8
0
  6
Continuous
 62
     7
370
     0
100
AcDbCircle
 10
114.2925519032
 20
346.1078355682
 30
0.0
 40
8.015196912538343
100
AcDbArc
 50
90.0586016703
 51
180.0365118361
  0
ARC
  5
A9
330
1F
100
AcDbEntity
  8
0
  6
Continuous
 62
     7
370
     0
100
AcDbCircle
 10
114.2932340644
 20
327.872152641
 30
0.0
 40
8.015878668225948
100
AcDbArc
 50
179.9683624502
 51
269.9365273699
  0
ARC
  5
AA
330
1F
100
AcDbEntity
  8
0
  6
Continuous
 62
     7
370
     0
100
AcDbCircle
 10
288.9907697714
 20
346.1071920733
 30
0.0
 40
8.015841083963968
100
AcDbArc
 50
359.9680906836
 51
89.9368491241
  0
LWPOLYLINE
  5
AB
330
1F
100
AcDbEntity
  8
0
  6
Continuous
 62
     7
370
     0
100
AcDbPolyline
 90
        5
 70
   128
 43
0.0
 10
106.2773566182
 20
327.8765788439
 10
106.2778334553
 20
332.4345392778
 10
106.2779973681
 20
336.995312073
 10
106.2778334553
 20
341.5490210194
 10
106.2773566182
 20
346.1027278702
  0
LWPOLYLINE
  5
AC
330
1F
100
AcDbEntity
  8
0
  6
Continuous
 62
     7
370
     0
100
AcDbPolyline
 90
        5
 70
   128
 43
0.0
 10
297.0066096122
 20
346.1027278702
 10
297.0061253245
 20
341.5447672035
 10
297.0059688623
 20
336.9839944083
 10
297.0061253245
 20
332.4302856948
 10
297.0066096122
 20
327.8765788439
  0
LINE
  5
AD
330
1F
100
AcDbEntity
  8
0
  6
Continuous
 62
     7
370
     0
100
AcDbLine
 10
288.9996047552
 20
319.8562788914
 30
0.0
 11
217.7505388344
 21
319.8562788914
 31
0.0
  0
LINE
  5
AE
330
1F
100
AcDbEntity
  8
0
  6
Continuous
 62
     7
370
     0
100
AcDbLine
 10
185.533421808
 20
319.8562788914
 30
0.0
 11
114.2843540246
 21
319.8562788914
 31
0.0
  0
LINE
  5
AF
330
1F
100
AcDbEntity
  8
0
  6
Continuous
 62
     7
370
     0
100
AcDbLine
 10
114.2843540246
 20
354.1230282884
 30
0.0
 11
185.533421808
 21
354.1230282884
 31
0.0
  0
LINE
  5
B0
330
1F
100
AcDbEntity
  8
0
  6
Continuous
 62
     7
370
     0
100
AcDbLine
 10
217.7505388344
 20
354.1230282884
 30
0.0
 11
288.9996047552
 21
354.1230282884
 31
0.0
  0
ARC
  5
B1
330
1F
100
AcDbEntity
  8
0
  6
Continuous
 62
     7
370
     0
100
AcDbCircle
 10
112.3081460873
 20
352.466440734
 30
0.0
 40
2.578697372080034
100
AcDbArc
 50
39.971953418
 51
45.0599950429
  0
ARC
  5
B2
330
1F
100
AcDbEntity
  8
0
  6
Continuous
 62
     7
370
     0
100
AcDbCircle
 10
105.1335693155
 20
345.0850749024
 30
0.0
 40
1.530969286654383
100
AcDbArc
 50
41.6602001171
 51
50.5696596766
  0
ARC
  5
B3
330
1F
100
AcDbEntity
  8
0
  6
Continuous
 62
     7
370
     0
100
AcDbCircle
 10
291.1917626874
 20
321.710890579
 30
0.0
 40
2.871435339943043
100
AcDbArc
 50
220.2319229715
 51
224.8002848948
  0
ARC
  5
B4
330
1F
100
AcDbEntity
  8
0
  6
Continuous
 62
     7
370
     0
100
AcDbCircle
 10
298.4900633559
 20
329.2475248033
 30
0.0
 40
2.01993263086723
100
AcDbArc
 50
222.7428227544
 51
229.4940433099
  0
ARC
  5
B5
330
1F
100
AcDbEntity
  8
0
  6
Continuous
 62
     7
370
     0
100
AcDbCircle
 10
298.1489509329
 20
345.0865849554
 30
0.0
 40
1.528885252869975
100
AcDbArc
 50
129.424405337
 51
138.3460582898
  0
ARC
  5
B6
330
1F
100
AcDbEntity
  8
0
  6
Continuous
 62
     7
370
     0
100
AcDbCircle
 10
290.9719029103
 20
352.4699851745
 30
0.0
 40
2.573424090417856
100
AcDbArc
 50
134.9341889733
 51
140.0326023419
  0
ARC
  5
B7
330
1F
100
AcDbEntity
  8
0
  6
Continuous
 62
     7
370
     0
100
AcDbCircle
 10
105.1406448961
 20
328.8869887026
 30
0.0
 40
1.520868706259899
100
AcDbArc
 50
309.4028641982
 51
318.3664764583
  0
LWPOLYLINE
  5
B8
330
1F
100
AcDbEntity
  8
0
  6
Continuous
 62
     7
370
     0
100
AcDbPolyline
 90
        3
 70
   128
 43
0.0
 10
114.2843540246
 20
319.8562788914
 10
114.1998346383
 20
319.7609300862
 10
114.129866236
 20
319.687774698
  0
LWPOLYLINE
  5
B9
330
1F
100
AcDbEntity
  8
0
  6
Continuous
 62
     7
370
     0
100
AcDbPolyline
 90
        5
 70
   128
 43
0.0
 10
217.7505388344
 20
319.8562788914
 10
217.633108371
 20
319.7690614636
 10
217.5571236248
 20
319.7131616201
 10
217.5237412984
 20
319.6887348916
 10
217.526404881
 20
319.6906822871
  0
ARC
  5
BA
330
1F
100
AcDbEntity
  8
0
  6
Continuous
 62
     7
370
     0
100
AcDbCircle
 10
201.3117765737
 20
340.9775577966
 30
0.0
 40
26.36408355517857
100
AcDbArc
 50
233.2389465187
 51
233.8458993348
  0
LWPOLYLINE
  5
BB
330
1F
100
AcDbEntity
  8
0
  6
Continuous
 62
     7
370
     0
100
AcDbPolyline
 90
        3
 70
   128
 43
0.0
 10
217.5425074483
 20
354.2768473874
 10
217.5349097187
 20
354.2824092458
 10
217.7505388344
 20
354.1230282884
  0
LWPOLYLINE
  5
BC
330
1F
100
AcDbEntity
  8
0
  6
Continuous
 62
     7
370
     0
100
AcDbPolyline
 90
        5
 70
   128
 43
0.0
 10
185.533421808
 20
354.1230282884
 10
185.6508522714
 20
354.2102447848
 10
185.726835155
 20
354.2661446284
 10
185.760219344
 20
354.2905713569
 10
185.7575538988
 20
354.2886248927
  0
ARC
  5
BD
330
1F
100
AcDbEntity
  8
0
  6
Continuous
 62
     7
370
     0
100
AcDbCircle
 10
276.64197949
 20
336.9896534325
 30
0.0
 40
32.73240328648559
100
AcDbArc
 50
211.9360840566
 51
147.9882804119
  0
ARC
  5
BE
330
1F
100
AcDbEntity
  8
0
  6
Continuous
 62
     7
370
     0
100
AcDbCircle
 10
126.6419792898
 20
336.9896534325
 30
0.0
 40
32.73240328648558
100
AcDbArc
 50
180.0
 51
328.0413447978
  0
ARC
  5
BF
330
1F
100
AcDbEntity
  8
0
  6
Continuous
 62
     7
370
     0
100
AcDbCircle
 10
126.6419792898
 20
336.9896534325
 30
0.0
 40
32.7324032864856
100
AcDbArc
 50
32.0075784906
 51
180.0
  0
LINE
  5
C0
330
1F
100
AcDbEntity
  8
0
  6
Continuous
 62
     7
370
    15
100
AcDbLine
 10
367.6939319411
 20
301.8846552025
 30
0.0
 11
391.8556693534
 21
302.3063990425
 31
0.0
  0
LINE
  5
C1
330
1F
100
AcDbEntity
  8
0
  6
Continuous
 62
     7
370
    15
100
AcDbLine
 10
391.8556693534
 20
371.67291
 30
0.0
 11
367.6939319411
 21
372.0946538399
 31
0.0
  0
ARC
  5
C2
330
1F
100
AcDbEntity
  8
0
  6
Continuous
 62
     7
370
    15
100
AcDbCircle
 10
391.8206593422
 20
304.3120925859
 30
0.0
 40
2.00599999999999
100
AcDbArc
 50
271.0
 51
358.4333838935
  0
ARC
  5
C3
330
1F
100
AcDbEntity
  8
0
  6
Continuous
 62
     7
370
    15
100
AcDbCircle
 10
391.8206593422
 20
369.6672142791
 30
0.0
 40
2.006000000000048
100
AcDbArc
 50
1.5666161065
 51
89.0
  0
ARC
  5
C4
330
1F
100
AcDbEntity
  8
0
  6
Continuous
 62
     7
370
    15
100
AcDbCircle
 10
-802.9976374878
 20
336.9896861674
 30
0.0
 40
1197.27107
100
AcDbArc
 50
358.4333838936
 51
359.304094235
  0
ARC
  5
C5
330
1F
100
AcDbEntity
  8
0
  6
Continuous
 62
     7
370
    15
100
AcDbCircle
 10
-802.9976374878
 20
336.9896206976
 30
0.0
 40
1197.27107
100
AcDbArc
 50
0.6970689886
 51
1.5666161064
  0
ARC
  5
C6
330
1F
100
AcDbEntity
  8
0
  6
Continuous
 62
     7
370
    15
100
AcDbCircle
 10
398.1329393867
 20
326.9596471437
 30
0.0
 40
6.017999999875403
100
AcDbArc
 50
228.8161619964
 51
236.4695494588
  0
ARC
  5
C7
330
1F
100
AcDbEntity
  8
0
  6
Continuous
 62
     7
370
    15
100
AcDbCircle
 10
398.1329393867
 20
347.0196471439
 30
0.0
 40
6.017999999875343
100
AcDbArc
 50
123.5357208802
 51
131.0605832373
  0
ARC
  5
C8
330
1F
100
AcDbEntity
  8
0
  6
Continuous
 62
     7
370
    15
100
AcDbCircle
 10
407.2228736918
 20
326.9596471438
 30
0.0
 40
6.018000000000062
100
AcDbArc
 50
303.5082207076
 51
311.4096221093
  0
ARC
  5
C9
330
1F
100
AcDbEntity
  8
0
  6
Continuous
 62
     7
370
    15
100
AcDbCircle
 10
407.2228736918
 20
347.0196471438
 30
0.0
 40
6.018000000000057
100
AcDbArc
 50
48.5903778907
 51
56.4408667791
  0
LINE
  5
CA
330
1F
100
AcDbEntity
  8
0
  6
Continuous
 62
     7
370
    15
100
AcDbLine
 10
411.2034065474
 20
326.458153608
 30
0.0
 11
412.1553267341
 21
326.458153608
 31
0.0
  0
LINE
  5
CB
330
1F
100
AcDbEntity
  8
0
  6
Continuous
 62
     7
370
    15
100
AcDbLine
 10
412.1553267341
 20
347.5211535718
 30
0.0
 11
411.2034065474
 21
347.5211535718
 31
0.0
  0
LINE
  5
CC
330
1F
100
AcDbEntity
  8
0
  6
Continuous
 62
     7
370
    15
100
AcDbLine
 10
485.9219055215
 20
359.947378109
 30
0.0
 11
456.3890929857
 21
359.947378109
 31
0.0
  0
LINE
  5
CD
330
1F
100
AcDbEntity
  8
0
  6
Continuous
 62
     7
370
    15
100
AcDbLine
 10
484.417402331
 20
313.8093783657
 30
0.0
 11
485.9219055215
 21
313.8093783657
 31
0.0
  0
LINE
  5
CE
330
1F
100
AcDbEntity
  8
0
  6
Continuous
 62
     7
370
    15
100
AcDbLine
 10
466.8869014422
 20
313.8093783657
 30
0.0
 11
474.3874046544
 21
313.8093783657
 31
0.0
  0
LINE
  5
CF
330
1F
100
AcDbEntity
  8
0
  6
Continuous
 62
     7
370
    15
100
AcDbLine
 10
452.3214038054
 20
313.8093783657
 30
0.0
 11
460.8689110318
 21
313.8093783657
 31
0.0
  0
ARC
  5
D0
330
1F
100
AcDbEntity
  8
0
  6
Continuous
 62
     7
370
    15
100
AcDbCircle
 10
485.9219044382
 20
358.4428783441
 30
0.0
 40
1.504500000000007
100
AcDbArc
 50
0.0
 51
90.0
  0
ARC
  5
D1
330
1F
100
AcDbEntity
  8
0
  6
Continuous
 62
     7
370
    15
100
AcDbCircle
 10
485.9219044382
 20
315.3138783441
 30
0.0
 40
1.50449999999995
100
AcDbArc
 50
270.0
 51
0.0
  0
LINE
  5
D2
330
1F
100
AcDbEntity
  8
0
  6
Continuous
 62
     7
370
    15
100
AcDbLine
 10
417.4631565401
 20
314.4221532296
 30
0.0
 11
442.746826593
 21
314.4221532296
 31
0.0
  0
LINE
  5
D3
330
1F
100
AcDbEntity
  8
0
  6
Continuous
 62
     7
370
    15
100
AcDbLine
 10
442.746826593
 20
359.5571539502
 30
0.0
 11
394.0607245604
 21
359.5571539502
 31
0.0
  0
ARC
  5
D4
330
1F
100
AcDbEntity
  8
0
  6
Continuous
 62
     7
370
    15
100
AcDbCircle
 10
442.7468267337
 20
358.052653282
 30
0.0
 40
1.504500000000007
100
AcDbArc
 50
20.605524879
 51
90.0
  0
ARC
  5
D5
330
1F
100
AcDbEntity
  8
0
  6
Continuous
 62
     7
370
    15
100
AcDbCircle
 10
442.7468267337
 20
315.926653282
 30
0.0
 40
1.504500000000007
100
AcDbArc
 50
270.0
 51
339.394475121
  0
LINE
  5
D6
330
1F
100
AcDbEntity
  8
0
  6
Continuous
 62
     7
370
    15
100
AcDbLine
 10
446.1610775033
 20
359.0556535076
 30
0.0
 11
444.1550757328
 21
359.0556535076
 31
0.0
  0
LINE
  5
D7
330
1F
100
AcDbEntity
  8
0
  6
Continuous
 62
     7
370
    15
100
AcDbLine
 10
444.1550757328
 20
314.9236536722
 30
0.0
 11
446.1610775033
 21
314.9236536722
 31
0.0
  0
ARC
  5
D8
330
1F
100
AcDbEntity
  8
0
  6
Continuous
 62
     7
370
    15
100
AcDbCircle
 10
446.234763558
 20
336.9896532228
 30
0.0
 40
22.06600000000004
100
AcDbArc
 50
269.8051494139
 51
286.011958552
  0
ARC
  5
D9
330
1F
100
AcDbEntity
  8
0
  6
Continuous
 62
     7
370
    15
100
AcDbCircle
 10
446.234763558
 20
336.9896532228
 30
0.0
 40
22.06599999999999
100
AcDbArc
 50
64.1855411478
 51
90.1890814536
  0
LINE
  5
DA
330
1F
100
AcDbEntity
  8
0
  6
Continuous
 62
     7
370
    15
100
AcDbLine
 10
417.4631565401
 20
304.4750749271
 30
0.0
 11
417.4631565401
 21
314.4221532296
 31
0.0
  0
LINE
  5
DB
330
1F
100
AcDbEntity
  8
0
  6
Continuous
 62
     7
370
    15
100
AcDbLine
 10
393.8926562259
 20
306.7963238012
 30
0.0
 11
393.8926562259
 21
304.4750749271
 31
0.0
  0
ARC
  5
DC
330
1F
100
AcDbEntity
  8
0
  6
Continuous
 62
     7
370
    15
100
AcDbCircle
 10
395.8986565171
 20
303.9735754605
 30
0.0
 40
0.5014999999999077
100
AcDbArc
 50
360.0
 51
90.0
  0
ARC
  5
DD
330
1F
100
AcDbEntity
  8
0
  6
Continuous
 62
     7
370
    15
100
AcDbCircle
 10
415.4571565171
 20
303.9735754605
 30
0.0
 40
0.5014999999999077
100
AcDbArc
 50
90.0
 51
180.0
  0
LINE
  5
DE
330
1F
100
AcDbEntity
  8
0
  6
Continuous
 62
     7
370
    15
100
AcDbLine
 10
416.1868390219
 20
295.6762577544
 30
0.0
 11
416.1868390219
 21
301.2378926526
 31
0.0
  0
LINE
  5
DF
330
1F
100
AcDbEntity
  8
0
  6
Continuous
 62
     7
370
    15
100
AcDbLine
 10
395.1689742098
 20
301.2378926526
 30
0.0
 11
395.1689742098
 21
295.6762577544
 31
0.0
  0
LINE
  5
E0
330
1F
100
AcDbEntity
  8
0
  6
Continuous
 62
     7
370
    15
100
AcDbLine
 10
416.1868390219
 20
301.2378926526
 30
0.0
 11
414.9556564225
 21
302.4690750192
 31
0.0
  0
LINE
  5
E1
330
1F
100
AcDbEntity
  8
0
  6
Continuous
 62
     7
370
    15
100
AcDbLine
 10
396.4001565764
 20
302.4690750192
 30
0.0
 11
395.1689742098
 21
301.2378926526
 31
0.0
  0
LINE
  5
E2
330
1F
100
AcDbEntity
  8
0
  6
Continuous
 62
     7
370
    15
100
AcDbLine
 10
414.9556564225
 20
302.4690750192
 30
0.0
 11
414.9556564225
 21
303.9735763471
 31
0.0
  0
LINE
  5
E3
330
1F
100
AcDbEntity
  8
0
  6
Continuous
 62
     7
370
    15
100
AcDbLine
 10
396.4001565764
 20
303.9735763471
 30
0.0
 11
396.4001565764
 21
302.4690750192
 31
0.0
  0
ARC
  5
E4
330
1F
100
AcDbEntity
  8
0
  6
Continuous
 62
     7
370
    15
100
AcDbCircle
 10
474.3874044382
 20
311.8033783441
 30
0.0
 40
2.005999999999972
100
AcDbArc
 50
0.0
 51
90.0
  0
ARC
  5
E5
330
1F
100
AcDbEntity
  8
0
  6
Continuous
 62
     7
370
    15
100
AcDbCircle
 10
484.4174044382
 20
311.8033783441
 30
0.0
 40
2.005999999999972
100
AcDbArc
 50
90.0
 51
180.0
  0
LINE
  5
E6
330
1F
100
AcDbEntity
  8
0
  6
Continuous
 62
     7
370
    15
100
AcDbLine
 10
395.1689742098
 20
295.6762577544
 30
0.0
 11
396.4001565764
 21
294.4450753878
 31
0.0
  0
LINE
  5
E7
330
1F
100
AcDbEntity
  8
0
  6
Continuous
 62
     7
370
    15
100
AcDbLine
 10
414.9556564225
 20
294.4450753878
 30
0.0
 11
416.1868390219
 21
295.6762577544
 31
0.0
  0
LINE
  5
E8
330
1F
100
AcDbEntity
  8
0
  6
Continuous
 62
     7
370
    15
100
AcDbLine
 10
463.376407657
 20
313.896354581
 30
0.0
 11
463.376407657
 21
313.8631510686
 31
0.0
  0
LINE
  5
E9
330
1F
100
AcDbEntity
  8
0
  6
Continuous
 62
     7
370
    15
100
AcDbLine
 10
464.379404817
 20
313.8631510686
 30
0.0
 11
464.379404817
 21
313.8965203564
 31
0.0
  0
LINE
  5
EA
330
1F
100
AcDbEntity
  8
0
  6
Continuous
 62
     7
370
    15
100
AcDbLine
 10
367.6939319411
 20
336.9896533571
 30
0.0
 11
367.6939319411
 21
372.0946538399
 31
0.0
  0
LINE
  5
EB
330
1F
100
AcDbEntity
  8
0
  6
Continuous
 62
     7
370
    15
100
AcDbLine
 10
367.6939319411
 20
301.8846552025
 30
0.0
 11
367.6939319411
 21
336.9896533571
 31
0.0
  0
LINE
  5
EC
330
1F
100
AcDbEntity
  8
0
  6
Continuous
 62
     7
370
    15
100
AcDbLine
 10
394.1847525129
 20
351.5555693905
 30
0.0
 11
394.1847525129
 21
322.4244623582
 31
0.0
  0
ARC
  5
ED
330
1F
100
AcDbEntity
  8
0
  6
Continuous
 62
     7
370
    15
100
AcDbCircle
 10
422.1853595877
 20
153.8903511571
 30
0.0
 40
200.4013978719501
100
AcDbArc
 50
87.648732894
 51
92.317930394
  0
LINE
  5
EE
330
1F
100
AcDbEntity
  8
0
  6
Continuous
 62
     7
370
    15
100
AcDbLine
 10
412.1553267341
 20
346.109731416
 30
0.0
 11
412.1553267341
 21
352.123419116
 31
0.0
  0
ARC
  5
EF
330
1F
100
AcDbEntity
  8
0
  6
Continuous
 62
     7
370
    15
100
AcDbCircle
 10
414.1613267337
 20
352.1234182944
 30
0.0
 40
2.006000000000029
100
AcDbArc
 50
92.3169697307
 51
180.0
  0
LINE
  5
F0
330
1F
100
AcDbEntity
  8
0
  6
Continuous
 62
     7
370
    15
100
AcDbLine
 10
412.1553267341
 20
321.8558880638
 30
0.0
 11
412.1553267341
 21
327.8695752982
 31
0.0
  0
ARC
  5
F1
330
1F
100
AcDbEntity
  8
0
  6
Continuous
 62
     7
370
    15
100
AcDbCircle
 10
414.1613267337
 20
321.8558882697
 30
0.0
 40
2.006000000000029
100
AcDbArc
 50
180.0
 51
267.6830302693
  0
ARC
  5
F2
330
1F
100
AcDbEntity
  8
0
  6
Continuous
 62
     7
370
    15
100
AcDbCircle
 10
422.1853481501
 20
520.0890092053
 30
0.0
 40
200.4014514789841
100
AcDbArc
 50
267.6820734992
 51
272.3512697495
  0
ARC
  5
F3
330
1F
100
AcDbEntity
  8
0
  6
Continuous
 62
     7
370
    15
100
AcDbCircle
 10
430.3247330562
 20
352.1187153015
 30
0.0
 40
2.006000000000061
100
AcDbArc
 50
3.3520901513
 51
87.6497627411
  0
ARC
  5
F4
330
1F
100
AcDbEntity
  8
0
  6
Continuous
 62
     7
370
    15
100
AcDbCircle
 10
171.9064043192
 20
336.9821613184
 30
0.0
 40
260.8672526121312
100
AcDbArc
 50
2.0186150921
 51
3.3522026041
  0
ARC
  5
F5
330
1F
100
AcDbEntity
  8
0
  6
Continuous
 62
     7
370
    15
100
AcDbCircle
 10
171.8743404206
 20
336.9986457934
 30
0.0
 40
260.8993494635262
100
AcDbArc
 50
356.6478798955
 51
357.9813036435
  0
ARC
  5
F6
330
1F
100
AcDbEntity
  8
0
  6
Continuous
 62
     7
370
    15
100
AcDbCircle
 10
430.3247330562
 20
321.8605912626
 30
0.0
 40
2.006000000000004
100
AcDbArc
 50
272.3502372589
 51
356.6479098487
  0
ARC
  5
F7
330
1F
100
AcDbEntity
  8
0
  6
Continuous
 62
     7
370
    15
100
AcDbCircle
 10
172.1261574096
 20
336.9896533571
 30
0.0
 40
260.6473719917855
100
AcDbArc
 50
357.9813292414
 51
2.0186707586
  0
LINE
  5
F8
330
1F
100
AcDbEntity
  8
0
  6
Continuous
 62
     7
370
    15
100
AcDbLine
 10
412.1553267341
 20
327.8695752982
 30
0.0
 11
412.1553267341
 21
346.109731416
 31
0.0
  0
LINE
  5
F9
330
1F
100
AcDbEntity
  8
0
  6
Continuous
 62
     7
370
    15
100
AcDbLine
 10
398.1329390371
 20
352.0346473108
 30
0.0
 11
394.806365628
 21
352.0346473108
 31
0.0
  0
LWPOLYLINE
  5
FA
330
1F
100
AcDbEntity
  8
0
  6
Continuous
 62
     7
370
    15
100
AcDbPolyline
 90
       14
 70
   128
 43
0.0
 10
398.1329390371
 20
339.675856116
 10
397.6921114663
 20
339.7162391941
 10
397.2700416634
 20
339.8328640636
 10
396.5253430942
 20
340.2505305733
 10
395.9393307159
 20
340.8309308018
 10
395.4996794054
 20
341.5014858495
 10
394.9622075597
 20
343.0090773057
 10
394.8065872828
 20
344.5457493092
 10
394.983790029
 20
346.1138907026
 10
395.5363642017
 20
347.58975293
 10
395.9852467815
 20
348.2495810043
 10
396.57764617
 20
348.8131904181
 10
397.3025764862
 20
349.2033549722
 10
398.1329390371
 20
349.3484382655
  0
LWPOLYLINE
  5
FB
330
1F
100
AcDbEntity
  8
0
  6
Continuous
 62
     7
370
    15
100
AcDbPolyline
 90
       14
 70
   128
 43
0.0
 10
398.1329390371
 20
324.6308558758
 10
397.7005483175
 20
324.6694917928
 10
397.2772491688
 20
324.7852132793
 10
396.5361967275
 20
325.1971838202
 10
395.9438290039
 20
325.780298854
 10
395.499660779
 20
326.4569885235
 10
394.967344735
 20
327.939010984
 10
394.8064066062
 20
329.4921115178
 10
394.9780866096
 20
331.0437470812
 10
395.5262779782
 20
332.5264850303
 10
395.9748234192
 20
333.192015127
 10
396.5687203745
 20
333.7615745862
 10
397.2973191703
 20
334.1564728201
 10
398.1329390371
 20
334.3034379962
  0
LINE
  5
FC
330
1F
100
AcDbEntity
  8
0
  6
Continuous
 62
     7
370
    15
100
AcDbLine
 10
398.1329390371
 20
321.9446468304
 30
0.0
 11
394.8065872828
 21
321.9446468304
 31
0.0
  0
LINE
  5
FD
330
1F
100
AcDbEntity
  8
0
  6
Continuous
 62
     7
370
    15
100
AcDbLine
 10
411.2034065474
 20
322.4461472731
 30
0.0
 11
411.2034065474
 21
351.5331468682
 31
0.0
  0
LINE
  5
FE
330
1F
100
AcDbEntity
  8
0
  6
Continuous
 62
     7
370
    15
100
AcDbLine
 10
407.2228736768
 20
321.9446468304
 30
0.0
 11
410.5453174852
 21
321.9446468304
 31
0.0
  0
LWPOLYLINE
  5
FF
330
1F
100
AcDbEntity
  8
0
  6
Continuous
 62
     7
370
    15
100
AcDbPolyline
 90
       14
 70
   128
 43
0.0
 10
407.2228736768
 20
334.3034379962
 10
407.6552653277
 20
334.2648024575
 10
408.0785635451
 20
334.1490808546
 10
408.8196157536
 20
333.7371105466
 10
409.4119841756
 20
333.1539956292
 10
409.8561521677
 20
332.4773056104
 10
410.3884684445
 20
330.9952833827
 10
410.5494058749
 20
329.4421823833
 10
410.3777255222
 20
327.8905472856
 10
409.8295352014
 20
326.4078091036
 10
409.3809904589
 20
325.7422794725
 10
408.7870928051
 20
325.1727198388
 10
408.0584935436
 20
324.777821372
 10
407.2228736768
 20
324.6308558758
  0
LWPOLYLINE
  5
100
330
1F
100
AcDbEntity
  8
0
  6
Continuous
 62
     7
370
    15
100
AcDbPolyline
 90
       14
 70
   128
 43
0.0
 10
407.2228736768
 20
349.3484382655
 10
407.6637017133
 20
349.3080551873
 10
408.0857710505
 20
349.1914303179
 10
408.8304700853
 20
348.7737638082
 10
409.4164817652
 20
348.1933635797
 10
409.8561342398
 20
347.522808532
 10
410.3936045721
 20
346.0152170758
 10
410.5492264789
 20
344.4785450723
 10
410.3720232669
 20
342.9104036789
 10
409.8194482794
 20
341.4345414515
 10
409.3705659324
 20
340.7747138429
 10
408.7781670096
 20
340.2111034978
 10
408.0532366933
 20
339.820939875
 10
407.2228736768
 20
339.675856116
  0
LINE
  5
101
330
1F
100
AcDbEntity
  8
0
  6
Continuous
 62
     7
370
    15
100
AcDbLine
 10
410.5494483665
 20
352.0346473108
 30
0.0
 11
407.2228736768
 21
352.0346473108
 31
0.0
  0
LINE
  5
102
330
1F
100
AcDbEntity
  8
0
  6
Continuous
 62
     7
370
    15
100
AcDbLine
 10
398.1329390371
 20
334.3034379962
 30
0.0
 11
407.2228736768
 21
334.3034379962
 31
0.0
  0
LINE
  5
103
330
1F
100
AcDbEntity
  8
0
  6
Continuous
 62
     7
370
    15
100
AcDbLine
 10
407.2228736768
 20
339.675856116
 30
0.0
 11
398.1329390371
 21
339.675856116
 31
0.0
  0
LINE
  5
104
330
1F
100
AcDbEntity
  8
0
  6
Continuous
 62
     7
370
    15
100
AcDbLine
 10
398.1329390371
 20
349.3484382655
 30
0.0
 11
407.2228736768
 21
349.3484382655
 31
0.0
  0
LINE
  5
105
330
1F
100
AcDbEntity
  8
0
  6
Continuous
 62
     7
370
    15
100
AcDbLine
 10
407.2228736768
 20
324.6308558758
 30
0.0
 11
398.1329390371
 21
324.6308558758
 31
0.0
  0
LINE
  5
106
330
1F
100
AcDbEntity
  8
0
  6
Continuous
 62
     7
370
    15
100
AcDbLine
 10
407.2228736768
 20
352.0346473108
 30
0.0
 11
398.1329390371
 21
352.0346473108
 31
0.0
  0
LINE
  5
107
330
1F
100
AcDbEntity
  8
0
  6
Continuous
 62
     7
370
    15
100
AcDbLine
 10
398.1329390371
 20
321.9446468304
 30
0.0
 11
407.2228736768
 21
321.9446468304
 31
0.0
  0
ARC
  5
108
330
1F
100
AcDbEntity
  8
0
  6
Continuous
 62
     7
370
    15
100
AcDbCircle
 10
502.4710389063
 20
332.4908457272
 30
0.0
 40
50.14963510092029
100
AcDbArc
 50
169.9999539198
 51
180.0000272282
  0
LWPOLYLINE
  5
109
330
1F
100
AcDbEntity
  8
0
  6
Continuous
 62
     7
370
    15
100
AcDbPolyline
 90
       14
 70
   128
 43
0.0
 10
456.3890929857
 20
359.947378109
 10
456.3828754762
 20
359.9121200989
 10
456.3332508842
 20
359.6306986313
 10
456.2346126476
 20
359.0712941389
 10
456.0881640354
 20
358.2407425295
 10
455.8956969122
 20
357.1491896312
 10
455.6595544854
 20
355.8099719833
 10
455.3826313058
 20
354.2394529234
 10
455.0683024863
 20
352.4568195592
 10
454.7204162518
 20
350.4838536631
 10
454.3432194332
 20
348.3446569319
 10
453.9413202146
 20
346.0653687965
 10
453.5196285287
 20
343.6738358017
 10
453.0832964519
 20
341.1992781933
  0
LINE
  5
10A
330
1F
100
AcDbEntity
  8
0
  6
Continuous
 62
     7
370
    15
100
AcDbLine
 10
452.3214038054
 20
332.490821895
 30
0.0
 11
452.3214038054
 21
313.8093783657
 31
0.0
  0
ARC
  5
10B
330
1F
100
AcDbEntity
  8
0
  6
Continuous
 62
     7
370
    15
100
AcDbCircle
 10
465.7138728844
 20
313.6159913741
 30
0.0
 40
0.2740074708808044
100
AcDbArc
 50
74.7963101073
 51
95.9585895529
  0
LINE
  5
10C
330
1F
100
AcDbEntity
  8
0
  6
Continuous
 62
     7
370
    15
100
AcDbLine
 10
465.0765034894
 20
313.8885184328
 30
0.0
 11
465.6854282657
 21
313.8885184328
 31
0.0
  0
ARC
  5
10D
330
1F
100
AcDbEntity
  8
0
  6
Continuous
 62
     7
370
    15
100
AcDbCircle
 10
463.1672849398
 20
336.8783783441
 30
0.0
 40
23.06900000000005
100
AcDbArc
 50
273.80349999
 51
274.7472947647
  0
LWPOLYLINE
  5
10E
330
1F
100
AcDbEntity
  8
0
  6
Continuous
 62
     7
370
    15
100
AcDbPolyline
 90
       11
 70
   128
 43
0.0
 10
464.3730606476
 20
313.8965203564
 10
464.3761861662
 20
313.9013632338
 10
464.3291022221
 20
313.9164655607
 10
464.2306427995
 20
313.9301839422
 10
464.0921663085
 20
313.9403502594
 10
463.9299522678
 20
313.9452508788
 10
463.7626122276
 20
313.9440848629
 10
463.6085006932
 20
313.9371148448
 10
463.4842287341
 20
313.925523604
 10
463.4036544303
 20
313.9111328076
 10
463.3769888023
 20
313.896354581
  0
LWPOLYLINE
  5
10F
330
1F
100
AcDbEntity
  8
0
  6
Continuous
 62
     7
370
    15
100
AcDbPolyline
 90
        4
 70
   128
 43
0.0
 10
461.3164264301
 20
313.8631510686
 10
461.041332368
 20
313.831029753
 10
460.8689184824
 20
313.8093783657
 10
460.8689110318
 20
313.8093783657
  0
LINE
  5
110
330
1F
100
AcDbEntity
  8
0
  6
Continuous
 62
     7
370
    15
100
AcDbLine
 10
460.8689110318
 20
313.8093783657
 30
0.0
 11
460.8689073065
 21
313.8093783657
 31
0.0
  0
ARC
  5
111
330
1F
100
AcDbEntity
  8
0
  6
Continuous
 62
     7
370
    15
100
AcDbCircle
 10
463.0730090637
 20
283.9578976871
 30
0.0
 40
30.09413022136991
100
AcDbArc
 50
82.7192065001
 51
83.5773613058
  0
LINE
  5
112
330
1F
100
AcDbEntity
  8
0
  6
Continuous
 62
     7
370
    15
100
AcDbLine
 10
487.4264012614
 20
336.8783782374
 30
0.0
 11
487.4264012614
 21
315.313877831
 31
0.0
  0
LINE
  5
113
330
1F
100
AcDbEntity
  8
0
  6
Continuous
 62
     7
370
    15
100
AcDbLine
 10
487.4264012614
 20
358.4428786437
 30
0.0
 11
487.4264012614
 21
336.8783782374
 31
0.0
  0
LWPOLYLINE
  5
114
330
1F
100
AcDbEntity
  8
0
  6
Continuous
 62
     7
370
    15
100
AcDbPolyline
 90
       33
 70
   128
 43
0.0
 10
393.9332339505
 20
314.4433166038
 10
393.9405951241
 20
314.4471499275
 10
394.110073481
 20
314.5349270801
 10
394.4030265847
 20
314.6844322931
 10
394.7751253436
 20
314.8701920311
 10
395.2419600973
 20
315.0965276312
 10
395.8633888105
 20
315.3858411263
 10
396.5936099703
 20
315.7076335649
 10
398.6945451761
 20
316.5160793017
 10
399.5153346623
 20
316.7813087951
 10
400.4031085933
 20
317.0341181706
 10
401.3433318177
 20
317.2617930125
 10
402.3499527538
 20
317.4582629602
 10
403.401555639
 20
317.6097220879
 10
405.2357595937
 20
317.7387978088
 10
407.2321966814
 20
317.6812159966
 10
408.3688227983
 20
317.5566665034
 10
409.4855668081
 20
317.3708303969
 10
410.4713979468
 20
317.1559072237
 10
411.6430257854
 20
316.8406433563
 10
412.5669210334
 20
316.5480665069
 10
413.4347645158
 20
316.2395025741
 10
414.1484209394
 20
315.9623018603
 10
414.8078839352
 20
315.6880944173
 10
415.410204936
 20
315.4230679523
 10
415.9510751778
 20
315.1736523162
 10
416.4072700368
 20
314.9551528643
 10
416.7927649396
 20
314.7648929756
 10
417.0968408289
 20
314.6112713169
 10
417.3146646062
 20
314.4993431072
 10
417.4256149272
 20
314.441735218
 10
417.4631565401
 20
314.4221532296
 10
417.4631565401
 20
314.4221532296
  0
LINE
  5
115
330
1F
100
AcDbEntity
  8
0
  6
Continuous
 62
     7
370
    15
100
AcDbLine
 10
444.1550757328
 20
359.0556535076
 30
0.0
 11
444.1550757328
 21
314.9236536722
 31
0.0
  0
LINE
  5
116
330
1F
100
AcDbEntity
  8
0
  6
Continuous
 62
     7
370
    15
100
AcDbLine
 10
393.8926562259
 20
304.4750749271
 30
0.0
 11
417.4631565401
 21
304.4750749271
 31
0.0
  0
LINE
  5
117
330
1F
100
AcDbEntity
  8
0
  6
Continuous
 62
     7
370
    15
100
AcDbLine
 10
395.1689742098
 20
301.2378926526
 30
0.0
 11
416.1868390219
 21
301.2378926526
 31
0.0
  0
LINE
  5
118
330
1F
100
AcDbEntity
  8
0
  6
Continuous
 62
     7
370
    15
100
AcDbLine
 10
411.0585137095
 20
295.6762577544
 30
0.0
 11
416.1868390219
 21
295.6762577544
 31
0.0
  0
LINE
  5
119
330
1F
100
AcDbEntity
  8
0
  6
Continuous
 62
     7
370
    15
100
AcDbLine
 10
411.0585137095
 20
299.7609752368
 30
0.0
 11
411.0585137095
 21
295.6762577544
 31
0.0
  0
LINE
  5
11A
330
1F
100
AcDbEntity
  8
0
  6
Continuous
 62
     7
370
    15
100
AcDbLine
 10
400.2972991729
 20
299.7609752368
 30
0.0
 11
411.0585137095
 21
299.7609752368
 31
0.0
  0
LINE
  5
11B
330
1F
100
AcDbEntity
  8
0
  6
Continuous
 62
     7
370
    15
100
AcDbLine
 10
400.2972991729
 20
295.6762577544
 30
0.0
 11
400.2972991729
 21
299.7609752368
 31
0.0
  0
LINE
  5
11C
330
1F
100
AcDbEntity
  8
0
  6
Continuous
 62
     7
370
    15
100
AcDbLine
 10
395.1689742098
 20
295.6762577544
 30
0.0
 11
400.2972991729
 21
295.6762577544
 31
0.0
  0
LINE
  5
11D
330
1F
100
AcDbEntity
  8
0
  6
Continuous
 62
     7
370
    15
100
AcDbLine
 10
396.4001565764
 20
302.4690750192
 30
0.0
 11
414.9556564225
 21
302.4690750192
 31
0.0
  0
LINE
  5
11E
330
1F
100
AcDbEntity
  8
0
  6
Continuous
 62
     7
370
    15
100
AcDbLine
 10
481.4084034005
 20
259.6473771285
 30
0.0
 11
477.3964073101
 21
259.6473771285
 31
0.0
  0
LINE
  5
11F
330
1F
100
AcDbEntity
  8
0
  6
Continuous
 62
     7
370
    15
100
AcDbLine
 10
476.3934026996
 20
264.6623778294
 30
0.0
 11
476.3934026996
 21
313.4846001069
 31
0.0
  0
LINE
  5
120
330
1F
100
AcDbEntity
  8
0
  6
Continuous
 62
     7
370
    15
100
AcDbLine
 10
482.4114080111
 20
313.4846001069
 30
0.0
 11
482.4114080111
 21
264.6623778294
 31
0.0
  0
ARC
  5
121
330
1F
100
AcDbEntity
  8
0
  6
Continuous
 62
     7
370
    15
100
AcDbCircle
 10
477.3964044382
 20
260.6503783441
 30
0.0
 40
1.003000000000043
100
AcDbArc
 50
180.0
 51
270.0
  0
LINE
  5
122
330
1F
100
AcDbEntity
  8
0
  6
Continuous
 62
     7
370
    15
100
AcDbLine
 10
476.3934026996
 20
260.650381739
 30
0.0
 11
476.3934026996
 21
264.6623778294
 31
0.0
  0
LINE
  5
123
330
1F
100
AcDbEntity
  8
0
  6
Continuous
 62
     7
370
    15
100
AcDbLine
 10
482.4114080111
 20
264.6623778294
 30
0.0
 11
482.4114080111
 21
260.650381739
 31
0.0
  0
ARC
  5
124
330
1F
100
AcDbEntity
  8
0
  6
Continuous
 62
     7
370
    15
100
AcDbCircle
 10
481.4084044382
 20
260.6503783441
 30
0.0
 40
1.003000000000043
100
AcDbArc
 50
270.0
 51
360.0
  0
LWPOLYLINE
  5
125
330
1F
100
AcDbEntity
  8
0
  6
Continuous
 62
     7
370
    15
100
AcDbPolyline
 90
        3
 70
   128
 43
0.0
 10
403.5354975203
 20
294.4450753878
 10
401.7733821238
 20
295.0025762569
 10
400.2972991729
 20
295.6762577544
  0
LINE
  5
126
330
1F
100
AcDbEntity
  8
0
  6
Continuous
 62
     7
370
    15
100
AcDbLine
 10
396.4001565764
 20
294.4450753878
 30
0.0
 11
403.5354975203
 21
294.4450753878
 31
0.0
  0
LWPOLYLINE
  5
127
330
1F
100
AcDbEntity
  8
0
  6
Continuous
 62
     7
370
    15
100
AcDbPolyline
 90
        3
 70
   128
 43
0.0
 10
411.0585137095
 20
295.6762577544
 10
409.1964260733
 20
294.8558147203
 10
407.8203152457
 20
294.4450753878
  0
LINE
  5
128
330
1F
100
AcDbEntity
  8
0
  6
Continuous
 62
     7
370
    15
100
AcDbLine
 10
407.8203152457
 20
294.4450753878
 30
0.0
 11
403.5354975203
 21
294.4450753878
 31
0.0
  0
LINE
  5
129
330
1F
100
AcDbEntity
  8
0
  6
Continuous
 62
     7
370
    15
100
AcDbLine
 10
407.8203152457
 20
294.4450753878
 30
0.0
 11
414.9556564225
 21
294.4450753878
 31
0.0
  0
LINE
  5
12A
330
1F
100
AcDbEntity
  8
0
  6
Continuous
 62
     7
370
    15
100
AcDbLine
 10
466.2514376978
 20
312.6595507513
 30
0.0
 11
461.5043747762
 21
312.6595507513
 31
0.0
  0
ARC
  5
12B
330
1F
100
AcDbEntity
  8
0
  6
Continuous
 62
     7
370
    15
100
AcDbCircle
 10
461.5003485127
 20
313.2641180898
 30
0.0
 40
0.60458074530021
100
AcDbArc
 50
180.2622450078
 51
270.3815695648
  0
ARC
  5
12C
330
1F
100
AcDbEntity
  8
0
  6
Continuous
 62
     7
370
    15
100
AcDbCircle
 10
466.2549673223
 20
313.2646203409
 30
0.0
 40
0.6050798844234048
100
AcDbArc
 50
269.6657734903
 51
359.6904119371
  0
LINE
  5
12D
330
1F
100
AcDbEntity
  8
0
  6
Continuous
 62
     7
370
    15
100
AcDbLine
 10
466.8869014422
 20
313.3616506259
 30
0.0
 11
466.8600383738
 21
313.3616506259
 31
0.0
  0
LINE
  5
12E
330
1F
100
AcDbEntity
  8
0
  6
Continuous
 62
     7
370
    15
100
AcDbLine
 10
466.8600383738
 20
313.2613509099
 30
0.0
 11
466.8600383738
 21
313.3616506259
 31
0.0
  0
LINE
  5
12F
330
1F
100
AcDbEntity
  8
0
  6
Continuous
 62
     7
370
    15
100
AcDbLine
 10
460.8957741002
 20
313.2613509099
 30
0.0
 11
460.8957741002
 21
313.3616506259
 31
0.0
  0
LINE
  5
130
330
1F
100
AcDbEntity
  8
0
  6
Continuous
 62
     7
370
    15
100
AcDbLine
 10
460.8957741002
 20
313.3616506259
 30
0.0
 11
460.8689110318
 21
313.3616506259
 31
0.0
  0
LINE
  5
131
330
1F
100
AcDbEntity
  8
0
  6
Continuous
 62
     7
370
    15
100
AcDbLine
 10
461.3164264301
 20
313.8631510686
 30
0.0
 11
466.4393860439
 21
313.8631510686
 31
0.0
  0
LINE
  5
132
330
1F
100
AcDbEntity
  8
0
  6
Continuous
 62
     7
370
    15
100
AcDbLine
 10
462.6793127099
 20
313.8631510686
 30
0.0
 11
462.6793127099
 21
313.8885184328
 31
0.0
  0
LINE
  5
133
330
1F
100
AcDbEntity
  8
0
  6
Continuous
 62
     7
370
    15
100
AcDbLine
 10
461.9700844923
 20
313.8631510686
 30
0.0
 11
461.9700844923
 21
313.8804084759
 31
0.0
  0
LINE
  5
134
330
1F
100
AcDbEntity
  8
0
  6
Continuous
 62
     7
370
    15
100
AcDbLine
 10
465.0765034894
 20
313.8885184328
 30
0.0
 11
465.0765034894
 21
313.8631510686
 31
0.0
  0
LINE
  5
135
330
1F
100
AcDbEntity
  8
0
  6
Continuous
 62
     7
370
    15
100
AcDbLine
 10
465.785731707
 20
313.8804084759
 30
0.0
 11
465.785731707
 21
313.8631510686
 31
0.0
  0
LINE
  5
136
330
1F
100
AcDbEntity
  8
0
  6
Continuous
 62
     7
370
    15
100
AcDbLine
 10
460.8689073065
 20
313.3616506259
 30
0.0
 11
460.8689073065
 21
313.8093783657
 31
0.0
  0
LINE
  5
137
330
1F
100
AcDbEntity
  8
0
  6
Continuous
 62
     7
370
    15
100
AcDbLine
 10
460.8689110318
 20
313.3616506259
 30
0.0
 11
460.8689073065
 21
313.3586890202
 31
0.0
  0
LINE
  5
138
330
1F
100
AcDbEntity
  8
0
  6
Continuous
 62
     7
370
    15
100
AcDbLine
 10
466.8869051675
 20
313.3586890202
 30
0.0
 11
466.8869014422
 21
313.3616506259
 31
0.0
  0
LINE
  5
139
330
1F
100
AcDbEntity
  8
0
  6
Continuous
 62
     7
370
    15
100
AcDbLine
 10
466.8869051675
 20
313.3616506259
 30
0.0
 11
466.8869051675
 21
313.8093783657
 31
0.0
  0
LINE
  5
13A
330
1F
100
AcDbEntity
  8
0
  6
Continuous
 62
     7
370
    15
100
AcDbLine
 10
460.8689073065
 20
313.3586890202
 30
0.0
 11
460.8957741002
 21
313.3586890202
 31
0.0
  0
LINE
  5
13B
330
1F
100
AcDbEntity
  8
0
  6
Continuous
 62
     7
370
    15
100
AcDbLine
 10
466.8600383738
 20
313.3586890202
 30
0.0
 11
466.8869051675
 21
313.3586890202
 31
0.0
  0
LINE
  5
13C
330
1F
100
AcDbEntity
  8
0
  6
Continuous
 62
     7
370
    15
100
AcDbLine
 10
461.523466889
 20
312.6613537918
 30
0.0
 11
461.6061608831
 21
312.6565891455
 31
0.0
  0
LINE
  5
13D
330
1F
100
AcDbEntity
  8
0
  6
Continuous
 62
     7
370
    15
100
AcDbLine
 10
466.1496515909
 20
312.6565891455
 30
0.0
 11
466.2501003185
 21
312.6649021308
 31
0.0
  0
LINE
  5
13E
330
1F
100
AcDbEntity
  8
0
  6
Continuous
 62
     7
370
    15
100
AcDbLine
 10
466.1496515909
 20
312.6565891455
 30
0.0
 11
461.6061608831
 21
312.6565891455
 31
0.0
  0
LINE
  5
13F
330
1F
100
AcDbEntity
  8
0
  6
Continuous
 62
     7
370
     0
100
AcDbLine
 10
393.8259101996
 20
336.9896533571
 30
0.0
 11
393.8259101996
 21
304.2572497528
 31
0.0
  0
LINE
  5
140
330
1F
100
AcDbEntity
  8
0
  6
Continuous
 62
     7
370
     0
100
AcDbLine
 10
393.8259101996
 20
369.722057427
 30
0.0
 11
393.8259101996
 21
336.9896533571
 31
0.0
  0
LINE
  5
141
330
1F
100
AcDbEntity
  8
0
  6
Continuous
 62
     7
370
     0
100
AcDbLine
 10
398.1329390371
 20
349.3484382655
 30
0.0
 11
398.1329390371
 21
352.0346473108
 31
0.0
  0
LINE
  5
142
330
1F
100
AcDbEntity
  8
0
  6
Continuous
 62
     7
370
     0
100
AcDbLine
 10
398.1329390371
 20
334.3034379962
 30
0.0
 11
398.1329390371
 21
339.675856116
 31
0.0
  0
LINE
  5
143
330
1F
100
AcDbEntity
  8
0
  6
Continuous
 62
     7
370
     0
100
AcDbLine
 10
398.1329390371
 20
321.9446468304
 30
0.0
 11
398.1329390371
 21
324.6308558758
 31
0.0
  0
LINE
  5
144
330
1F
100
AcDbEntity
  8
0
  6
Continuous
 62
     7
370
     0
100
AcDbLine
 10
407.2228736768
 20
321.9446468304
 30
0.0
 11
407.2228736768
 21
324.6308558758
 31
0.0
  0
LINE
  5
145
330
1F
100
AcDbEntity
  8
0
  6
Continuous
 62
     7
370
     0
100
AcDbLine
 10
407.2228736768
 20
334.3034379962
 30
0.0
 11
407.2228736768
 21
339.675856116
 31
0.0
  0
LINE
  5
146
330
1F
100
AcDbEntity
  8
0
  6
Continuous
 62
     7
370
     0
100
AcDbLine
 10
407.2228736768
 20
349.3484382655
 30
0.0
 11
407.2228736768
 21
352.0346473108
 31
0.0
  0
ARC
  5
147
330
1F
100
AcDbEntity
  8
0
  6
Continuous
 62
     7
370
     0
100
AcDbCircle
 10
245.8776639972
 20
336.9896531242
 30
0.0
 40
190.9078066629592
100
AcDbArc
 50
356.052003379
 51
3.947996621
  0
LWPOLYLINE
  5
148
330
1F
100
AcDbEntity
  8
0
  6
Continuous
 62
     7
370
    15
100
AcDbPolyline
 90
       11
 70
   128
 43
0.0
 10
474.3874046544
 20
315.3561021339
 10
474.4356881419
 20
315.5532649856
 10
474.5836827496
 20
315.761877517
 10
474.8199518362
 20
315.9639856915
 10
475.1490514318
 20
316.160157616
 10
475.5483056942
 20
316.3320834886
 10
476.0266553203
 20
316.477565388
 10
476.5032838622
 20
316.5729104679
 10
477.0249735156
 20
316.6291008841
 10
477.2099043766
 20
316.6377603214
 10
477.3964073101
 20
316.6406716357
  0
LINE
  5
149
330
1F
100
AcDbEntity
  8
0
  6
Continuous
 62
     7
370
    15
100
AcDbLine
 10
474.3874046544
 20
313.8093783657
 30
0.0
 11
474.3874046544
 21
315.3561021339
 31
0.0
  0
LINE
  5
14A
330
1F
100
AcDbEntity
  8
0
  6
Continuous
 62
     7
370
    15
100
AcDbLine
 10
484.417402331
 20
315.3561021339
 30
0.0
 11
484.417402331
 21
313.8093783657
 31
0.0
  0
LWPOLYLINE
  5
14B
330
1F
100
AcDbEntity
  8
0
  6
Continuous
 62
     7
370
    15
100
AcDbPolyline
 90
       18
 70
   128
 43
0.0
 10
481.4084034005
 20
316.6406716357
 10
481.6364135185
 20
316.636318634
 10
482.0939462224
 20
316.6010066073
 10
482.3204438726
 20
316.5699600379
 10
482.5304459373
 20
316.5326959591
 10
482.9353328386
 20
316.4358197849
 10
483.1276397744
 20
316.3768912803
 10
483.3102758566
 20
316.3120060365
 10
483.645648841
 20
316.1652500879
 10
483.795956854
 20
316.0844876568
 10
483.9387546817
 20
315.9957996707
 10
484.0653251449
 20
315.903697456
 10
484.1758098046
 20
315.8076520215
 10
484.2671017686
 20
315.709738354
 10
484.3313183228
 20
315.621469463
 10
484.3783091346
 20
315.5330645989
 10
484.40750796
 20
315.4440189849
 10
484.417402331
 20
315.3561021339
  0
LINE
  5
14C
330
1F
100
AcDbEntity
  8
0
  6
Continuous
 62
     7
370
    15
100
AcDbLine
 10
477.3964073101
 20
316.6406716357
 30
0.0
 11
481.4084034005
 21
316.6406716357
 31
0.0
  0
ARC
  5
14D
330
1F
100
AcDbEntity
  8
0
  6
Continuous
 62
     7
370
     0
100
AcDbCircle
 10
430.7347838195
 20
324.6988808606
 30
0.0
 40
5.662337077036357
100
AcDbArc
 50
268.3477253439
 51
351.3313601005
  0
ARC
  5
14E
330
1F
100
AcDbEntity
  8
0
  6
Continuous
 62
     7
370
     0
100
AcDbCircle
 10
430.7812116235
 20
349.3360705467
 30
0.0
 40
5.608258331796955
100
AcDbArc
 50
8.1781287133
 51
92.1427967644
  0
ARC
  5
14F
330
1F
100
AcDbEntity
  8
0
  6
Continuous
 62
     7
370
     0
100
AcDbCircle
 10
422.1853354057
 20
114.3633929894
 30
0.0
 40
240.7231352823793
100
AcDbArc
 50
88.003556592
 51
91.9681312274
  0
ARC
  5
150
330
1F
100
AcDbEntity
  8
0
  6
Continuous
 62
     7
370
     0
100
AcDbCircle
 10
413.8060655561
 20
349.2348657429
 30
0.0
 40
5.710753851356552
100
AcDbArc
 50
88.8765659627
 51
150.6420127135
  0
ARC
  5
151
330
1F
100
AcDbEntity
  8
0
  6
Continuous
 62
     7
370
     0
100
AcDbCircle
 10
413.9004930033
 20
325.0814776244
 30
0.0
 40
6.046717737680592
100
AcDbArc
 50
211.2495049182
 51
270.1661978334
  0
ARC
  5
152
330
1F
100
AcDbEntity
  8
0
  6
Continuous
 62
     7
370
     0
100
AcDbCircle
 10
422.1853618901
 20
559.6176288145
 30
0.0
 40
240.7248498045591
100
AcDbArc
 50
268.0318764885
 51
271.9964228755
  0
ARC
  5
153
330
1F
100
AcDbEntity
  8
0
  6
Continuous
 62
     7
370
    15
100
AcDbCircle
 10
474.4523998274
 20
313.414937361
 30
0.0
 40
1.942252570621333
100
AcDbArc
 50
2.0554677955
 51
91.9176931662
  0
ARC
  5
154
330
1F
100
AcDbEntity
  8
0
  6
Continuous
 62
     7
370
    15
100
AcDbCircle
 10
484.3524036564
 20
313.4149449778
 30
0.0
 40
1.942245075202861
100
AcDbArc
 50
88.0821960761
 51
177.9447491092
  0
LINE
  5
155
330
1F
100
AcDbEntity
  8
0
  6
Continuous
 62
     7
370
     0
100
AcDbLine
 10
460.8689110318
 20
313.3616506259
 30
0.0
 11
460.8689110318
 21
313.8093783657
 31
0.0
  0
LINE
  5
156
330
1F
100
AcDbEntity
  8
0
  6
Continuous
 62
     7
370
     0
100
AcDbLine
 10
466.8869014422
 20
313.8093783657
 30
0.0
 11
466.8869014422
 21
313.3616506259
 31
0.0
  0
LINE
  5
157
330
1F
100
AcDbEntity
  8
0
  6
Continuous
 62
     7
370
     0
100
AcDbLine
 10
462.0703842083
 20
313.8885184328
 30
0.0
 11
462.0703842083
 21
313.8631510686
 31
0.0
  0
LINE
  5
158
330
1F
100
AcDbEntity
  8
0
  6
Continuous
 62
     7
370
     0
100
AcDbLine
 10
465.6854282657
 20
313.8631510686
 30
0.0
 11
465.6854282657
 21
313.8885184328
 31
0.0
  0
LINE
  5
159
330
1F
100
AcDbEntity
  8
0
  6
Continuous
 62
     7
370
     0
100
AcDbLine
 10
460.8689073065
 20
313.3616506259
 30
0.0
 11
460.8689073065
 21
313.8093783657
 31
0.0
  0
LINE
  5
15A
330
1F
100
AcDbEntity
  8
0
  6
Continuous
 62
     7
370
     0
100
AcDbLine
 10
466.8869051675
 20
313.8093783657
 30
0.0
 11
466.8869051675
 21
313.3616506259
 31
0.0
  0
LINE
  5
15B
330
1F
100
AcDbEntity
  8
0
  6
Continuous
 62
     7
370
    15
100
AcDbLine
 10
241.5369811888
 20
216.4206125801
 30
0.0
 11
241.9587250287
 21
192.2588751679
 31
0.0
  0
LINE
  5
15C
330
1F
100
AcDbEntity
  8
0
  6
Continuous
 62
     7
370
    15
100
AcDbLine
 10
311.3252322609
 20
192.2588751679
 30
0.0
 11
311.7469798262
 21
216.4206125801
 31
0.0
  0
LINE
  5
15D
330
1F
100
AcDbEntity
  8
0
  6
Continuous
 62
     7
370
    15
100
AcDbLine
 10
91.5369789536
 20
216.4206125801
 30
0.0
 11
91.9587265189
 21
192.2588751679
 31
0.0
  0
LINE
  5
15E
330
1F
100
AcDbEntity
  8
0
  6
Continuous
 62
     7
370
    15
100
AcDbLine
 10
161.325233751
 20
192.2588751679
 30
0.0
 11
161.746977591
 21
216.4206125801
 31
0.0
  0
ARC
  5
15F
330
1F
100
AcDbEntity
  8
0
  6
Continuous
 62
     7
370
    15
100
AcDbCircle
 10
243.9644186434
 20
192.293885179
 30
0.0
 40
2.006000000000047
100
AcDbArc
 50
181.0
 51
268.4333838935
  0
ARC
  5
160
330
1F
100
AcDbEntity
  8
0
  6
Continuous
 62
     7
370
    15
100
AcDbCircle
 10
309.3195403366
 20
192.293885179
 30
0.0
 40
2.00599999999999
100
AcDbArc
 50
271.5666161065
 51
359.0
  0
ARC
  5
161
330
1F
100
AcDbEntity
  8
0
  6
Continuous
 62
     7
370
    15
100
AcDbCircle
 10
93.9644184432
 20
192.293885179
 30
0.0
 40
2.00600000000002
100
AcDbArc
 50
181.0
 51
268.4333838935
  0
ARC
  5
162
330
1F
100
AcDbEntity
  8
0
  6
Continuous
 62
     7
370
    15
100
AcDbCircle
 10
159.3195401364
 20
192.293885179
 30
0.0
 40
2.006000000000048
100
AcDbArc
 50
271.5666161065
 51
359.0
  0
ARC
  5
163
330
1F
100
AcDbEntity
  8
0
  6
Continuous
 62
     7
370
    15
100
AcDbCircle
 10
276.642012225
 20
1387.112182009
 30
0.0
 40
1197.27107
100
AcDbArc
 50
268.4333838936
 51
269.3037643733
  0
ARC
  5
164
330
1F
100
AcDbEntity
  8
0
  6
Continuous
 62
     7
370
    15
100
AcDbCircle
 10
276.6419467551
 20
1387.112182009
 30
0.0
 40
1197.27107
100
AcDbArc
 50
270.6973510277
 51
271.5666161064
  0
ARC
  5
165
330
1F
100
AcDbEntity
  8
0
  6
Continuous
 62
     7
370
    15
100
AcDbCircle
 10
126.6420120247
 20
1387.112182009
 30
0.0
 40
1197.27107
100
AcDbArc
 50
268.4333838936
 51
269.3049080905
  0
ARC
  5
166
330
1F
100
AcDbEntity
  8
0
  6
Continuous
 62
     7
370
    15
100
AcDbCircle
 10
126.6419465549
 20
1387.112182009
 30
0.0
 40
1197.27107
100
AcDbArc
 50
270.6973514297
 51
271.5666161064
  0
LINE
  5
167
330
1F
100
AcDbEntity
  8
0
  6
Continuous
 62
     7
370
    15
100
AcDbLine
 10
224.6836188669
 20
98.1926389997
 30
0.0
 11
224.6836188669
 21
131.5926604932
 31
0.0
  0
LINE
  5
168
330
1F
100
AcDbEntity
  8
0
  6
Continuous
 62
     7
370
    15
100
AcDbLine
 10
178.5456191237
 20
131.5926828449
 30
0.0
 11
178.5456191237
 21
98.1926389997
 31
0.0
  0
ARC
  5
169
330
1F
100
AcDbEntity
  8
0
  6
Continuous
 62
     7
370
    15
100
AcDbCircle
 10
223.1791193241
 20
98.192640083
 30
0.0
 40
1.504500000000007
100
AcDbArc
 50
270.0
 51
0.0
  0
ARC
  5
16A
330
1F
100
AcDbEntity
  8
0
  6
Continuous
 62
     7
370
    15
100
AcDbCircle
 10
180.0501193241
 20
98.192640083
 30
0.0
 40
1.504500000000007
100
AcDbArc
 50
180.0
 51
270.0
  0
ARC
  5
16B
330
1F
100
AcDbEntity
  8
0
  6
Continuous
 62
     7
370
    15
100
AcDbCircle
 10
221.2004800633
 20
191.6018278056
 30
0.0
 40
3.009000000000017
100
AcDbArc
 50
0.0
 51
78.4027486455
  0
ARC
  5
16C
330
1F
100
AcDbEntity
  8
0
  6
Continuous
 62
     7
370
    15
100
AcDbCircle
 10
182.0834800633
 20
191.6018278056
 30
0.0
 40
3.009000000000023
100
AcDbArc
 50
101.5972513545
 51
180.0
  0
LINE
  5
16D
330
1F
100
AcDbEntity
  8
0
  6
Continuous
 62
     7
370
    15
100
AcDbLine
 10
179.0744799609
 20
147.3320324933
 30
0.0
 11
179.0744799609
 21
141.3677179282
 31
0.0
  0
LINE
  5
16E
330
1F
100
AcDbEntity
  8
0
  6
Continuous
 62
     7
370
    15
100
AcDbLine
 10
179.0744799609
 20
191.6018270915
 30
0.0
 11
179.0744799609
 21
175.9712177356
 31
0.0
  0
LINE
  5
16F
330
1F
100
AcDbEntity
  8
0
  6
Continuous
 62
     7
370
    15
100
AcDbLine
 10
224.2094806815
 20
175.9712177356
 30
0.0
 11
224.2094806815
 21
191.6018270915
 31
0.0
  0
LINE
  5
170
330
1F
100
AcDbEntity
  8
0
  6
Continuous
 62
     7
370
    15
100
AcDbLine
 10
224.2094806815
 20
141.3677179282
 30
0.0
 11
224.2094806815
 21
147.329687423
 31
0.0
  0
ARC
  5
171
330
1F
100
AcDbEntity
  8
0
  6
Continuous
 62
     7
370
    15
100
AcDbCircle
 10
222.7049800633
 20
141.3677177875
 30
0.0
 40
1.504500000000036
100
AcDbArc
 50
290.605524879
 51
0.0
  0
ARC
  5
172
330
1F
100
AcDbEntity
  8
0
  6
Continuous
 62
     7
370
    15
100
AcDbCircle
 10
180.5789800633
 20
141.3677177875
 30
0.0
 40
1.504500000000011
100
AcDbArc
 50
180.0
 51
249.394475121
  0
LINE
  5
173
330
1F
100
AcDbEntity
  8
0
  6
Continuous
 62
     7
370
    15
100
AcDbLine
 10
223.707974651
 20
137.9534670179
 30
0.0
 11
223.707974651
 21
139.9594687884
 31
0.0
  0
LINE
  5
174
330
1F
100
AcDbEntity
  8
0
  6
Continuous
 62
     7
370
    15
100
AcDbLine
 10
179.5759748156
 20
139.9594687884
 30
0.0
 11
179.5759748156
 21
137.9534670179
 31
0.0
  0
ARC
  5
175
330
1F
100
AcDbEntity
  8
0
  6
Continuous
 62
     7
370
    15
100
AcDbCircle
 10
201.6420973427
 20
137.8797809632
 30
0.0
 40
22.06600000000001
100
AcDbArc
 50
179.8051187903
 51
196.5628218929
  0
ARC
  5
176
330
1F
100
AcDbEntity
  8
0
  6
Continuous
 62
     7
370
    15
100
AcDbCircle
 10
201.6420973427
 20
137.8797809632
 30
0.0
 40
22.06599999999998
100
AcDbArc
 50
343.4352496408
 51
0.1891175335
  0
ARC
  5
177
330
1F
100
AcDbEntity
  8
0
  6
Continuous
 62
     7
370
    15
100
AcDbCircle
 10
201.6419800633
 20
96.297033809
 30
0.0
 40
100.3
100
AcDbArc
 50
78.4027486455
 51
101.5972513545
  0
ARC
  5
178
330
1F
100
AcDbEntity
  8
0
  6
Continuous
 62
     7
370
    15
100
AcDbCircle
 10
266.6119732012
 20
185.9816051345
 30
0.0
 40
6.017999999875373
100
AcDbArc
 50
138.8515470776
 51
146.4695494588
  0
ARC
  5
179
330
1F
100
AcDbEntity
  8
0
  6
Continuous
 62
     7
370
    15
100
AcDbCircle
 10
286.6719732015
 20
185.9816051345
 30
0.0
 40
6.017999999875417
100
AcDbArc
 50
33.5357208802
 51
41.029852953
  0
ARC
  5
17A
330
1F
100
AcDbEntity
  8
0
  6
Continuous
 62
     7
370
    15
100
AcDbCircle
 10
266.6119732013
 20
176.8916708295
 30
0.0
 40
6.018000000000081
100
AcDbArc
 50
213.5082207076
 51
221.4096221093
  0
ARC
  5
17B
330
1F
100
AcDbEntity
  8
0
  6
Continuous
 62
     7
370
    15
100
AcDbCircle
 10
286.6719732013
 20
176.8916708295
 30
0.0
 40
6.018000000000038
100
AcDbArc
 50
318.5903778907
 51
326.4408667791
  0
ARC
  5
17C
330
1F
100
AcDbEntity
  8
0
  6
Continuous
 62
     7
370
    15
100
AcDbCircle
 10
116.6119792897
 20
185.9816051345
 30
0.0
 40
6.017999999875341
100
AcDbArc
 50
138.7286922409
 51
180.0000000009
  0
ARC
  5
17D
330
1F
100
AcDbEntity
  8
0
  6
Continuous
 62
     7
370
    15
100
AcDbCircle
 10
136.6719792899
 20
185.9816051345
 30
0.0
 40
6.017999999875398
100
AcDbArc
 50
359.9999999991
 51
41.0279770092
  0
ARC
  5
17E
330
1F
100
AcDbEntity
  8
0
  6
Continuous
 62
     7
370
    15
100
AcDbCircle
 10
116.6119792898
 20
176.8916708295
 30
0.0
 40
6.018000000000059
100
AcDbArc
 50
180.0
 51
221.4096221093
  0
ARC
  5
17F
330
1F
100
AcDbEntity
  8
0
  6
Continuous
 62
     7
370
    15
100
AcDbCircle
 10
136.6719792898
 20
176.8916708295
 30
0.0
 40
6.018000000000081
100
AcDbArc
 50
318.5903778907
 51
360.0
  0
LINE
  5
180
330
1F
100
AcDbEntity
  8
0
  6
Continuous
 62
     7
370
    15
100
AcDbLine
 10
108.2825760777
 20
151.3410129612
 30
0.0
 11
175.1266575838
 21
151.3410129612
 31
0.0
  0
LINE
  5
181
330
1F
100
AcDbEntity
  8
0
  6
Continuous
 62
     7
370
    15
100
AcDbLine
 10
228.157301196
 20
151.3410129612
 30
0.0
 11
295.0013901527
 21
151.3410129612
 31
0.0
  0
ARC
  5
182
330
1F
100
AcDbEntity
  8
0
  6
Continuous
 62
     7
370
    15
100
AcDbCircle
 10
228.1871927722
 20
147.3829801055
 30
0.0
 40
3.954688418853025
100
AcDbArc
 50
90.428838257
 51
180.7528073992
  0
ARC
  5
183
330
1F
100
AcDbEntity
  8
0
  6
Continuous
 62
     7
370
    15
100
AcDbCircle
 10
175.0983737376
 20
147.3878872644
 30
0.0
 40
3.948405574418405
100
AcDbArc
 50
359.1498830804
 51
93.7298125769
  0
ARC
  5
184
330
1F
100
AcDbEntity
  8
0
  6
Continuous
 62
     7
370
    15
100
AcDbCircle
 10
228.2214800633
 20
175.9712177875
 30
0.0
 40
4.012
100
AcDbArc
 50
180.0
 51
270.0
  0
ARC
  5
185
330
1F
100
AcDbEntity
  8
0
  6
Continuous
 62
     7
370
    15
100
AcDbCircle
 10
175.0624800633
 20
175.9712177875
 30
0.0
 40
4.012
100
AcDbArc
 50
270.0
 51
0.0
  0
LINE
  5
186
330
1F
100
AcDbEntity
  8
0
  6
Continuous
 62
     7
370
    15
100
AcDbLine
 10
266.1104823882
 20
172.9111379738
 30
0.0
 11
266.1104823882
 21
171.9592177871
 31
0.0
  0
LINE
  5
187
330
1F
100
AcDbEntity
  8
0
  6
Continuous
 62
     7
370
    15
100
AcDbLine
 10
287.173482352
 20
171.9592177871
 30
0.0
 11
287.173482352
 21
172.9111379738
 31
0.0
  0
LINE
  5
188
330
1F
100
AcDbEntity
  8
0
  6
Continuous
 62
     7
370
    15
100
AcDbLine
 10
116.1104764278
 20
172.9111379738
 30
0.0
 11
116.1104764278
 21
171.9592177871
 31
0.0
  0
LINE
  5
189
330
1F
100
AcDbEntity
  8
0
  6
Continuous
 62
     7
370
    15
100
AcDbLine
 10
137.1734763915
 20
171.9592177871
 30
0.0
 11
137.1734763915
 21
172.9111379738
 31
0.0
  0
LINE
  5
18A
330
1F
100
AcDbEntity
  8
0
  6
Continuous
 62
     7
370
    15
100
AcDbLine
 10
297.0063786442
 20
153.374224252
 30
0.0
 11
297.1781368787
 21
161.6557774161
 31
0.0
  0
LINE
  5
18B
330
1F
100
AcDbEntity
  8
0
  6
Continuous
 62
     7
370
    15
100
AcDbLine
 10
297.1781368787
 20
161.6557662403
 30
0.0
 11
297.1783380444
 21
162.0322347646
 31
0.0
  0
LWPOLYLINE
  5
18C
330
1F
100
AcDbEntity
  8
0
  6
Continuous
 62
     7
370
    15
100
AcDbPolyline
 90
        3
 70
   128
 43
0.0
 10
106.1056207354
 20
162.0322347646
 10
106.1058293517
 20
161.6557764848
 10
106.2775801356
 20
153.374224252
  0
ARC
  5
18D
330
1F
100
AcDbEntity
  8
0
  6
Continuous
 62
     7
370
    15
100
AcDbCircle
 10
295.0013867593
 20
153.3470125374
 30
0.0
 40
2.006000000000007
100
AcDbArc
 50
269.9794756402
 51
359.7655049987
  0
ARC
  5
18E
330
1F
100
AcDbEntity
  8
0
  6
Continuous
 62
     7
370
    15
100
AcDbCircle
 10
108.2825733672
 20
153.3470125374
 30
0.0
 40
2.005999999999998
100
AcDbArc
 50
180.2344950013
 51
269.9829759235
  0
LINE
  5
18F
330
1F
100
AcDbEntity
  8
0
  6
Continuous
 62
     7
370
    15
100
AcDbLine
 10
142.6899793978
 20
176.8916708445
 30
0.0
 11
142.6899793978
 21
185.9816054841
 31
0.0
  0
LINE
  5
190
330
1F
100
AcDbEntity
  8
0
  6
Continuous
 62
     7
370
    15
100
AcDbLine
 10
110.5939771469
 20
185.9816054841
 30
0.0
 11
110.5939771469
 21
176.8916708445
 31
0.0
  0
LINE
  5
191
330
1F
100
AcDbEntity
  8
0
  6
Continuous
 62
     7
370
    15
100
AcDbLine
 10
241.5369811888
 20
216.4206125801
 30
0.0
 11
311.7469798262
 21
216.4206125801
 31
0.0
  0
LINE
  5
192
330
1F
100
AcDbEntity
  8
0
  6
Continuous
 62
     7
370
    15
100
AcDbLine
 10
91.5369789536
 20
216.4206125801
 30
0.0
 11
161.746977591
 21
216.4206125801
 31
0.0
  0
LINE
  5
193
330
1F
100
AcDbEntity
  8
0
  6
Continuous
 62
     7
370
    15
100
AcDbLine
 10
262.0936434204
 20
189.9297920083
 30
0.0
 11
291.2137980993
 21
189.9297920083
 31
0.0
  0
LINE
  5
194
330
1F
100
AcDbEntity
  8
0
  6
Continuous
 62
     7
370
    15
100
AcDbLine
 10
141.2137995894
 20
189.9297920083
 30
0.0
 11
112.0979811485
 21
189.9297920083
 31
0.0
  0
LWPOLYLINE
  5
195
330
1F
100
AcDbEntity
  8
0
  6
Continuous
 62
     7
370
    15
100
AcDbPolyline
 90
        6
 70
   128
 43
0.0
 10
178.9538923139
 20
131.0312480693
 10
178.6930754269
 20
131.303373075
 10
178.5613864149
 20
131.518601722
 10
178.5651117052
 20
131.675056464
 10
178.7114448334
 20
131.76675821
 10
178.9667035873
 20
131.7931407159
  0
ELLIPSE
  5
196
330
1F
100
AcDbEntity
  8
0
  6
Continuous
 62
     7
370
    15
100
AcDbEllipse
 10
201.6146193241
 20
131.793140083
 30
0.0
 11
23.06900000000002
 21
-8.526512829121202E-14
 31
0.0
210
0.0
220
0.0
230
1.0
 40
0.1763269807
 41
3.33000878351024
 42
6.09476917725929
  0
LWPOLYLINE
  5
197
330
1F
100
AcDbEntity
  8
0
  6
Continuous
 62
     7
370
    15
100
AcDbPolyline
 90
        6
 70
   128
 43
0.0
 10
224.262536266
 20
131.7931407159
 10
224.5307217772
 20
131.7630850737
 10
224.6664452786
 20
131.6710294252
 10
224.6656108136
 20
131.5124102896
 10
224.5234742249
 20
131.2878535157
 10
224.2753475393
 20
131.0312480693
  0
LWPOLYLINE
  5
198
330
1F
100
AcDbEntity
  8
0
  6
Continuous
 62
     7
370
    15
100
AcDbPolyline
 90
       24
 70
   128
 43
0.0
 10
222.1916716034
 20
131.0312480693
 10
221.447572806
 20
130.6296133464
 10
220.4440857704
 20
130.2453720038
 10
219.1943551834
 20
129.8835531836
 10
217.7147443826
 20
129.5488991802
 10
216.0246351222
 20
129.2457909351
 10
214.1461602832
 20
128.9782033329
 10
212.103922614
 20
128.7496344214
 10
209.9246696989
 20
128.5630793338
 10
207.6369409869
 20
128.4209818607
 10
205.2706994536
 20
128.3252046471
 10
202.8569348576
 20
128.2769993906
 10
200.427259896
 20
128.2769993906
 10
198.0134954165
 20
128.3252046471
 10
195.6472538831
 20
128.4209818607
 10
193.3595256368
 20
128.5630793338
 10
191.1802717904
 20
128.7496344214
 10
189.1380341212
 20
128.9782033329
 10
187.2595602135
 20
129.2457909351
 10
185.5694509531
 20
129.5488991802
 10
184.0898401524
 20
129.8835531836
 10
182.8401077027
 20
130.2453720038
 10
181.8366206671
 20
130.6296133464
 10
181.0925218696
 20
131.0312480693
  0
LINE
  5
199
330
1F
100
AcDbEntity
  8
0
  6
Continuous
 62
     7
370
    15
100
AcDbLine
 10
223.1791194017
 20
96.6881432598
 30
0.0
 11
180.0501185889
 21
96.6881432598
 31
0.0
  0
LINE
  5
19A
330
1F
100
AcDbEntity
  8
0
  6
Continuous
 62
     7
370
    15
100
AcDbLine
 10
223.707974651
 20
139.9594687884
 30
0.0
 11
179.5759748156
 21
139.9594687884
 31
0.0
  0
ARC
  5
19B
330
1F
100
AcDbEntity
  8
0
  6
Continuous
 62
     7
370
    15
100
AcDbCircle
 10
181.787675778
 20
132.3753744608
 30
0.0
 40
1.513246415048846
100
AcDbArc
 50
211.2915561753
 51
242.6529451512
  0
ARC
  5
19C
330
1F
100
AcDbEntity
  8
0
  6
Continuous
 62
     7
370
    15
100
AcDbCircle
 10
221.5346942056
 20
132.3300341953
 30
0.0
 40
1.455494658946363
100
AcDbArc
 50
296.8320910315
 51
329.3765673932
  0
LINE
  5
19D
330
1F
100
AcDbEntity
  8
0
  6
Continuous
 62
     7
370
    15
100
AcDbLine
 10
291.6869695718
 20
185.9816054841
 30
0.0
 11
291.6869695718
 21
189.3081788932
 31
0.0
  0
LWPOLYLINE
  5
19E
330
1F
100
AcDbEntity
  8
0
  6
Continuous
 62
     7
370
    15
100
AcDbPolyline
 90
       14
 70
   128
 43
0.0
 10
279.3281848962
 20
185.9816054841
 10
279.3685670431
 20
186.422433055
 10
279.4851909811
 20
186.8445028578
 10
279.9028556282
 20
187.589201427
 10
280.4832558567
 20
188.1752138054
 10
281.153815561
 20
188.6148651158
 10
282.6614032919
 20
189.1523369615
 10
284.1980780895
 20
189.3079572385
 10
285.7662166889
 20
189.1307544922
 10
287.2420798476
 20
188.5781803196
 10
287.9019032652
 20
188.1292977398
 10
288.4655173356
 20
187.5368983512
 10
288.8556818898
 20
186.811968035
 10
289.0007670457
 20
185.9816054841
  0
LWPOLYLINE
  5
19F
330
1F
100
AcDbEntity
  8
0
  6
Continuous
 62
     7
370
    15
100
AcDbPolyline
 90
       14
 70
   128
 43
0.0
 10
264.2831827934
 20
185.9816054841
 10
264.3218215043
 20
186.4139962038
 10
264.4375364716
 20
186.8372953524
 10
264.8495088751
 20
187.5783477937
 10
265.432621115
 20
188.1707155173
 10
266.1093126471
 20
188.6148837422
 10
267.591337436
 20
189.1471997862
 10
269.1444407637
 20
189.3081379151
 10
270.6960763271
 20
189.1364579116
 10
272.1788089211
 20
188.5882665431
 10
272.8443394835
 20
188.139721102
 10
273.4138991172
 20
187.5458241468
 10
273.8088022406
 20
186.817225351
 10
273.9557649429
 20
185.9816054841
  0
LINE
  5
1A0
330
1F
100
AcDbEntity
  8
0
  6
Continuous
 62
     7
370
    15
100
AcDbLine
 10
261.5969728167
 20
185.9816054841
 30
0.0
 11
261.5969728167
 21
189.3079572385
 31
0.0
  0
LINE
  5
1A1
330
1F
100
AcDbEntity
  8
0
  6
Continuous
 62
     7
370
    15
100
AcDbLine
 10
262.0984713967
 20
172.9111379738
 30
0.0
 11
291.1854709918
 21
172.9111379738
 31
0.0
  0
LINE
  5
1A2
330
1F
100
AcDbEntity
  8
0
  6
Continuous
 62
     7
370
    15
100
AcDbLine
 10
261.5969728167
 20
176.8916708445
 30
0.0
 11
261.5969728167
 21
173.569227036
 31
0.0
  0
LWPOLYLINE
  5
1A3
330
1F
100
AcDbEntity
  8
0
  6
Continuous
 62
     7
370
    15
100
AcDbPolyline
 90
       14
 70
   128
 43
0.0
 10
273.9557649429
 20
176.8916708445
 10
273.9171262319
 20
176.4592791935
 10
273.8014038141
 20
176.0359809761
 10
273.3894388611
 20
175.2949287677
 10
272.8063191707
 20
174.7025603456
 10
272.1296350891
 20
174.2583923535
 10
270.6476103003
 20
173.7260760767
 10
269.0945069725
 20
173.5651386464
 10
267.5428714092
 20
173.736818999
 10
266.0601388152
 20
174.2850093198
 10
265.3946082528
 20
174.7335540624
 10
264.825048619
 20
175.3274517161
 10
264.4301454956
 20
176.0560509776
 10
264.2831827934
 20
176.8916708445
  0
LWPOLYLINE
  5
1A4
330
1F
100
AcDbEntity
  8
0
  6
Continuous
 62
     7
370
    15
100
AcDbPolyline
 90
       14
 70
   128
 43
0.0
 10
289.0007670457
 20
176.8916708445
 10
288.9603774483
 20
176.450842808
 10
288.8437535102
 20
176.0287734707
 10
288.4260888631
 20
175.2840744359
 10
287.8456886346
 20
174.6980627561
 10
287.1751363809
 20
174.2584102815
 10
285.6675411994
 20
173.7209399491
 10
284.1308738525
 20
173.5653180424
 10
282.5627278025
 20
173.7425212543
 10
281.0868646438
 20
174.2950962418
 10
280.4270412261
 20
174.7439785888
 10
279.8634271557
 20
175.3363775117
 10
279.4732626016
 20
176.0613078279
 10
279.3281848962
 20
176.8916708445
  0
LINE
  5
1A5
330
1F
100
AcDbEntity
  8
0
  6
Continuous
 62
     7
370
    15
100
AcDbLine
 10
291.6869695718
 20
173.5650961548
 30
0.0
 11
291.6869695718
 21
176.8916708445
 31
0.0
  0
LINE
  5
1A6
330
1F
100
AcDbEntity
  8
0
  6
Continuous
 62
     7
370
    15
100
AcDbLine
 10
108.2779045637
 20
171.9592177871
 30
0.0
 11
114.2909850414
 21
171.9592177871
 31
0.0
  0
ARC
  5
1A7
330
1F
100
AcDbEntity
  8
0
  6
Continuous
 62
     7
370
    15
100
AcDbCircle
 10
108.2779037337
 20
169.9532177875
 30
0.0
 40
2.00600000000001
100
AcDbArc
 50
90.0
 51
177.6351426663
  0
ARC
  5
1A8
330
1F
100
AcDbEntity
  8
0
  6
Continuous
 62
     7
370
    15
100
AcDbCircle
 10
292.8768254728
 20
162.1270411242
 30
0.0
 40
186.7707468756496
100
AcDbArc
 50
177.5730409068
 51
180.0304788929
  0
LINE
  5
1A9
330
1F
100
AcDbEntity
  8
0
  6
Continuous
 62
     7
370
    15
100
AcDbLine
 10
288.9929737384
 20
171.9592177871
 30
0.0
 11
295.0060542161
 21
171.9592177871
 31
0.0
  0
ARC
  5
1AA
330
1F
100
AcDbEntity
  8
0
  6
Continuous
 62
     7
370
    15
100
AcDbCircle
 10
295.0060563929
 20
169.9532177875
 30
0.0
 40
2.006000000000075
100
AcDbArc
 50
2.3648573337
 51
90.0
  0
ARC
  5
1AB
330
1F
100
AcDbEntity
  8
0
  6
Continuous
 62
     7
370
    15
100
AcDbCircle
 10
110.4135054771
 20
162.1271744063
 30
0.0
 40
186.7643747774626
100
AcDbArc
 50
359.9694791788
 51
2.4270010215
  0
LINE
  5
1AC
330
1F
100
AcDbEntity
  8
0
  6
Continuous
 62
     7
370
    15
100
AcDbLine
 10
114.2909850414
 20
171.9592177871
 30
0.0
 11
179.7916039313
 21
171.9592177871
 31
0.0
  0
LINE
  5
1AD
330
1F
100
AcDbEntity
  8
0
  6
Continuous
 62
     7
370
    15
100
AcDbLine
 10
223.4923567111
 20
171.9592177871
 30
0.0
 11
288.9929737384
 21
171.9592177871
 31
0.0
  0
LWPOLYLINE
  5
1AE
330
1F
100
AcDbEntity
  8
0
  6
Continuous
 62
     7
370
    15
100
AcDbPolyline
 90
       14
 70
   128
 43
0.0
 10
136.8790965016
 20
185.9816054841
 10
136.9024093683
 20
186.422433055
 10
136.9697477157
 20
186.8445028578
 10
137.2108857567
 20
187.589201427
 10
137.5459830696
 20
188.1752138054
 10
137.933122688
 20
188.6148651158
 10
138.8035367663
 20
189.1523369615
 10
139.6907332773
 20
189.3079572385
 10
140.5960980291
 20
189.1307544922
 10
141.4481874044
 20
188.5781803196
 10
141.8291393156
 20
188.1292977398
 10
142.1545396979
 20
187.5368983512
 10
142.3798005516
 20
186.811968035
 10
142.463563704
 20
185.9816054841
  0
LWPOLYLINE
  5
1AF
330
1F
100
AcDbEntity
  8
0
  6
Continuous
 62
     7
370
    15
100
AcDbPolyline
 90
        7
 70
   128
 43
0.0
 10
126.6419764097
 20
189.3081788932
 10
128.4428785975
 20
189.1402539825
 10
130.1634560759
 20
188.59355273
 10
130.9354777868
 20
188.1451525753
 10
131.5967540676
 20
187.5504714464
 10
132.0556055243
 20
186.8199690273
 10
132.2264473374
 20
185.9816054841
  0
LWPOLYLINE
  5
1B0
330
1F
100
AcDbEntity
  8
0
  6
Continuous
 62
     7
370
    15
100
AcDbPolyline
 90
        8
 70
   128
 43
0.0
 10
121.0575129325
 20
185.9816054841
 10
121.1017768319
 20
186.4121372839
 10
121.2343375618
 20
186.8340003332
 10
121.7080231244
 20
187.5745181953
 10
122.3692025478
 20
188.1597426747
 10
123.1320227916
 20
188.5992077207
 10
124.859119528
 20
189.1434037154
 10
126.6419764097
 20
189.3081788932
  0
LWPOLYLINE
  5
1B1
330
1F
100
AcDbEntity
  8
0
  6
Continuous
 62
     7
370
    15
100
AcDbPolyline
 90
       14
 70
   128
 43
0.0
 10
110.8203928406
 20
185.9816054841
 10
110.8437057073
 20
186.422433055
 10
110.9110440547
 20
186.8445028578
 10
111.1521820958
 20
187.589201427
 10
111.4872794087
 20
188.1752138054
 10
111.8744190271
 20
188.6148651158
 10
112.7448331053
 20
189.1523369615
 10
113.6320258911
 20
189.3079572385
 10
114.5373906429
 20
189.1307544922
 10
115.3894837434
 20
188.5781803196
 10
115.7704319293
 20
188.1292977398
 10
116.0958360369
 20
187.5368983512
 10
116.3210968907
 20
186.811968035
 10
116.4048637683
 20
185.9816054841
  0
LINE
  5
1B2
330
1F
100
AcDbEntity
  8
0
  6
Continuous
 62
     7
370
    15
100
AcDbLine
 10
126.6419764097
 20
172.9111379738
 30
0.0
 11
141.1854799325
 21
172.9111379738
 31
0.0
  0
LINE
  5
1B3
330
1F
100
AcDbEntity
  8
0
  6
Continuous
 62
     7
370
    15
100
AcDbLine
 10
112.0984803374
 20
172.9111379738
 30
0.0
 11
126.6419764097
 21
172.9111379738
 31
0.0
  0
LWPOLYLINE
  5
1B4
330
1F
100
AcDbEntity
  8
0
  6
Continuous
 62
     7
370
    15
100
AcDbPolyline
 90
       14
 70
   128
 43
0.0
 10
116.4048637683
 20
176.8916708445
 10
116.3815434511
 20
176.450842808
 10
116.3142125542
 20
176.0287734707
 10
116.0730745132
 20
175.2840744359
 10
115.7379772003
 20
174.6980627561
 10
115.3508301313
 20
174.2584102815
 10
114.4804235036
 20
173.7209399491
 10
113.5932232673
 20
173.5653180424
 10
112.6878585155
 20
173.7425212543
 10
111.8357728655
 20
174.2950962418
 10
111.454817229
 20
174.7439785888
 10
111.129420572
 20
175.3363775117
 10
110.9041597183
 20
176.0613078279
 10
110.8203928406
 20
176.8916708445
  0
LWPOLYLINE
  5
1B5
330
1F
100
AcDbEntity
  8
0
  6
Continuous
 62
     7
370
    15
100
AcDbPolyline
 90
        7
 70
   128
 43
0.0
 10
126.6419764097
 20
173.5650961548
 10
124.8410816724
 20
173.7330216476
 10
123.120504194
 20
174.2797233657
 10
122.3484824831
 20
174.7281237533
 10
121.6872062023
 20
175.3228048821
 10
121.2283547456
 20
176.0533073013
 10
121.0575129325
 20
176.8916708445
  0
LWPOLYLINE
  5
1B6
330
1F
100
AcDbEntity
  8
0
  6
Continuous
 62
     7
370
    15
100
AcDbPolyline
 90
        8
 70
   128
 43
0.0
 10
132.2264473374
 20
176.8916708445
 10
132.1821834381
 20
176.4611381134
 10
132.0496152575
 20
176.0392755297
 10
131.5759371455
 20
175.2987585989
 10
130.9147577221
 20
174.7135338867
 10
130.1519300277
 20
174.2740676766
 10
128.4248407419
 20
173.7298724968
 10
126.6419764097
 20
173.5650961548
  0
LWPOLYLINE
  5
1B7
330
1F
100
AcDbEntity
  8
0
  6
Continuous
 62
     7
370
    15
100
AcDbPolyline
 90
       14
 70
   128
 43
0.0
 10
142.463563704
 20
176.8916708445
 10
142.4402508373
 20
176.450842808
 10
142.3729162152
 20
176.0287734707
 10
142.1317781742
 20
175.2840744359
 10
141.7966845865
 20
174.6980627561
 10
141.4095375175
 20
174.2584102815
 10
140.5391308899
 20
173.7209399491
 10
139.6519306536
 20
173.5653180424
 10
138.7465621765
 20
173.7425212543
 10
137.8944765265
 20
174.2950962418
 10
137.51352089
 20
174.7439785888
 10
137.188124233
 20
175.3363775117
 10
136.9628633792
 20
176.0613078279
 10
136.8790965016
 20
176.8916708445
  0
LINE
  5
1B8
330
1F
100
AcDbEntity
  8
0
  6
Continuous
 62
     7
370
    15
100
AcDbLine
 10
273.9557649429
 20
185.9816054841
 30
0.0
 11
273.9557649429
 21
176.8916708445
 31
0.0
  0
LINE
  5
1B9
330
1F
100
AcDbEntity
  8
0
  6
Continuous
 62
     7
370
    15
100
AcDbLine
 10
279.3281848962
 20
176.8916708445
 30
0.0
 11
279.3281848962
 21
185.9816054841
 31
0.0
  0
LINE
  5
1BA
330
1F
100
AcDbEntity
  8
0
  6
Continuous
 62
     7
370
    15
100
AcDbLine
 10
289.0007670457
 20
185.9816054841
 30
0.0
 11
289.0007670457
 21
176.8916708445
 31
0.0
  0
LINE
  5
1BB
330
1F
100
AcDbEntity
  8
0
  6
Continuous
 62
     7
370
    15
100
AcDbLine
 10
264.2831827934
 20
176.8916708445
 30
0.0
 11
264.2831827934
 21
185.9816054841
 31
0.0
  0
LINE
  5
1BC
330
1F
100
AcDbEntity
  8
0
  6
Continuous
 62
     7
370
    15
100
AcDbLine
 10
121.0575129325
 20
176.8916708445
 30
0.0
 11
121.0575129325
 21
185.9816054841
 31
0.0
  0
LINE
  5
1BD
330
1F
100
AcDbEntity
  8
0
  6
Continuous
 62
     7
370
    15
100
AcDbLine
 10
132.2264473374
 20
185.9816054841
 30
0.0
 11
132.2264473374
 21
176.8916708445
 31
0.0
  0
LINE
  5
1BE
330
1F
100
AcDbEntity
  8
0
  6
Continuous
 62
     7
370
    15
100
AcDbLine
 10
136.8790965016
 20
176.8916708445
 30
0.0
 11
136.8790965016
 21
185.9816054841
 31
0.0
  0
LINE
  5
1BF
330
1F
100
AcDbEntity
  8
0
  6
Continuous
 62
     7
370
    15
100
AcDbLine
 10
116.4048637683
 20
185.9816054841
 30
0.0
 11
116.4048637683
 21
176.8916708445
 31
0.0
  0
LINE
  5
1C0
330
1F
100
AcDbEntity
  8
0
  6
Continuous
 62
     7
370
    15
100
AcDbLine
 10
142.463563704
 20
185.9816054841
 30
0.0
 11
142.463563704
 21
176.8916708445
 31
0.0
  0
LINE
  5
1C1
330
1F
100
AcDbEntity
  8
0
  6
Continuous
 62
     7
370
    15
100
AcDbLine
 10
110.8203928406
 20
176.8916708445
 30
0.0
 11
110.8203928406
 21
185.9816054841
 31
0.0
  0
LINE
  5
1C2
330
1F
100
AcDbEntity
  8
0
  6
Continuous
 62
     7
370
    15
100
AcDbLine
 10
291.6869695718
 20
176.8916708445
 30
0.0
 11
291.6869695718
 21
185.9816054841
 31
0.0
  0
LINE
  5
1C3
330
1F
100
AcDbEntity
  8
0
  6
Continuous
 62
     7
370
    15
100
AcDbLine
 10
261.5969728167
 20
185.9816054841
 30
0.0
 11
261.5969728167
 21
176.8916708445
 31
0.0
  0
LWPOLYLINE
  5
1C4
330
1F
100
AcDbEntity
  8
0
  6
Continuous
 62
     7
370
    15
100
AcDbPolyline
 90
        3
 70
   128
 43
0.0
 10
297.0066096122
 20
153.4315192168
 10
297.0061253245
 20
153.3114829128
 10
297.0059688623
 20
153.2715608393
  0
LWPOLYLINE
  5
1C5
330
1F
100
AcDbEntity
  8
0
  6
Continuous
 62
     7
370
    15
100
AcDbPolyline
 90
        4
 70
   128
 43
0.0
 10
106.2779973681
 20
153.271562702
 10
106.2779973681
 20
153.2715124106
 10
106.2778334553
 20
153.3115574186
 10
106.2773566182
 20
153.4315192168
  0
LINE
  5
1C6
330
1F
100
AcDbEntity
  8
0
  6
Continuous
 62
     7
370
    15
100
AcDbLine
 10
178.9667035873
 20
131.7931407159
 30
0.0
 11
180.4321675981
 21
131.7931407159
 31
0.0
  0
LINE
  5
1C7
330
1F
100
AcDbEntity
  8
0
  6
Continuous
 62
     7
370
    15
100
AcDbLine
 10
222.8520277376
 20
131.7931407159
 30
0.0
 11
224.262536266
 21
131.7931407159
 31
0.0
  0
LINE
  5
1C8
330
1F
100
AcDbEntity
  8
0
  6
Continuous
 62
     7
370
     0
100
AcDbLine
 10
309.374379688
 20
190.2886343216
 30
0.0
 11
243.9095776017
 21
190.2886343216
 31
0.0
  0
LINE
  5
1C9
330
1F
100
AcDbEntity
  8
0
  6
Continuous
 62
     7
370
     0
100
AcDbLine
 10
159.3743811781
 20
190.2886343216
 30
0.0
 11
93.9095790918
 21
190.2886343216
 31
0.0
  0
LINE
  5
1CA
330
1F
100
AcDbEntity
  8
0
  6
Continuous
 62
     7
370
     0
100
AcDbLine
 10
181.0925218696
 20
131.0312480693
 30
0.0
 11
178.9538923139
 21
131.0312480693
 31
0.0
  0
LINE
  5
1CB
330
1F
100
AcDbEntity
  8
0
  6
Continuous
 62
     7
370
     0
100
AcDbLine
 10
224.2753475393
 20
131.0312480693
 30
0.0
 11
222.1916716034
 21
131.0312480693
 31
0.0
  0
LINE
  5
1CC
330
1F
100
AcDbEntity
  8
0
  6
Continuous
 62
     7
370
     0
100
AcDbLine
 10
224.2094806815
 20
191.6018270915
 30
0.0
 11
179.0744799609
 21
191.6018270915
 31
0.0
  0
LINE
  5
1CD
330
1F
100
AcDbEntity
  8
0
  6
Continuous
 62
     7
370
     0
100
AcDbLine
 10
181.4785774286
 20
194.5493978476
 30
0.0
 11
221.8053813512
 21
194.5493978476
 31
0.0
  0
ARC
  5
1CE
330
1F
100
AcDbEntity
  8
0
  6
Continuous
 62
     7
370
     0
100
AcDbCircle
 10
221.5959631405
 20
153.8573018685
 30
0.0
 40
6.284767249519584
100
AcDbArc
 50
182.8663220608
 51
255.1620292999
  0
ARC
  5
1CF
330
1F
100
AcDbEntity
  8
0
  6
Continuous
 62
     7
370
     0
100
AcDbCircle
 10
201.2863480301
 20
-46.412977324
 30
0.0
 40
195.0933808578094
100
AcDbArc
 50
83.2539541454
 51
84.4996165605
  0
LINE
  5
1D0
330
1F
100
AcDbEntity
  8
0
  6
Continuous
 62
     7
370
     0
100
AcDbLine
 10
220.1941877092
 20
175.9712177356
 30
0.0
 11
224.2094806815
 21
175.9712177356
 31
0.0
  0
ARC
  5
1D1
330
1F
100
AcDbEntity
  8
0
  6
Continuous
 62
     7
370
     0
100
AcDbCircle
 10
221.4264844223
 20
169.9799747224
 30
0.0
 40
6.116661510369243
100
AcDbArc
 50
101.6226748183
 51
177.9712371922
  0
ARC
  5
1D2
330
1F
100
AcDbEntity
  8
0
  6
Continuous
 62
     7
370
     0
100
AcDbCircle
 10
397.1019669893
 20
161.9287325457
 30
0.0
 40
181.9762232860035
100
AcDbArc
 50
177.3959676025
 51
182.6412009456
  0
ARC
  5
1D3
330
1F
100
AcDbEntity
  8
0
  6
Continuous
 62
     7
370
     0
100
AcDbCircle
 10
202.0195656928
 20
-46.6193432526
 30
0.0
 40
195.3009008529755
100
AcDbArc
 50
95.5009911083
 51
96.7394800061
  0
ARC
  5
1D4
330
1F
100
AcDbEntity
  8
0
  6
Continuous
 62
     7
370
     0
100
AcDbCircle
 10
181.6954359072
 20
153.851275319
 30
0.0
 40
6.277039327489367
100
AcDbArc
 50
284.786425391
 51
357.1852232483
  0
ARC
  5
1D5
330
1F
100
AcDbEntity
  8
0
  6
Continuous
 62
     7
370
     0
100
AcDbCircle
 10
6.1756513368
 20
161.9287244362
 30
0.0
 40
181.9825584914695
100
AcDbArc
 50
357.3588936214
 51
2.6039442389
  0
ARC
  5
1D6
330
1F
100
AcDbEntity
  8
0
  6
Continuous
 62
     7
370
     0
100
AcDbCircle
 10
181.8595310875
 20
169.9817123927
 30
0.0
 40
6.114545711014211
100
AcDbArc
 50
2.0131722939
 51
78.3929049151
  0
LINE
  5
1D7
330
1F
100
AcDbEntity
  8
0
  6
Continuous
 62
     7
370
     0
100
AcDbLine
 10
179.0744799609
 20
175.9712177356
 30
0.0
 11
183.0897729332
 21
175.9712177356
 31
0.0
  0
LINE
  5
1D8
330
1F
100
AcDbEntity
  8
0
  6
Continuous
 62
     7
370
     0
100
AcDbLine
 10
289.0007670457
 20
185.9816054841
 30
0.0
 11
291.6869695718
 21
185.9816054841
 31
0.0
  0
LINE
  5
1D9
330
1F
100
AcDbEntity
  8
0
  6
Continuous
 62
     7
370
     0
100
AcDbLine
 10
273.9557649429
 20
185.9816054841
 30
0.0
 11
279.3281848962
 21
185.9816054841
 31
0.0
  0
LINE
  5
1DA
330
1F
100
AcDbEntity
  8
0
  6
Continuous
 62
     7
370
     0
100
AcDbLine
 10
261.5969728167
 20
185.9816054841
 30
0.0
 11
264.2831827934
 21
185.9816054841
 31
0.0
  0
LINE
  5
1DB
330
1F
100
AcDbEntity
  8
0
  6
Continuous
 62
     7
370
     0
100
AcDbLine
 10
261.5969728167
 20
176.8916708445
 30
0.0
 11
264.2831827934
 21
176.8916708445
 31
0.0
  0
LINE
  5
1DC
330
1F
100
AcDbEntity
  8
0
  6
Continuous
 62
     7
370
     0
100
AcDbLine
 10
273.9557649429
 20
176.8916708445
 30
0.0
 11
279.3281848962
 21
176.8916708445
 31
0.0
  0
LINE
  5
1DD
330
1F
100
AcDbEntity
  8
0
  6
Continuous
 62
     7
370
     0
100
AcDbLine
 10
289.0007670457
 20
176.8916708445
 30
0.0
 11
291.6869695718
 21
176.8916708445
 31
0.0
  0
LWPOLYLINE
  5
1DE
330
1F
100
AcDbEntity
  8
0
  6
Continuous
 62
     7
370
    15
100
AcDbPolyline
 90
       20
 70
   128
 43
0.0
 10
223.4923567111
 20
171.9592177871
 10
223.0360477651
 20
171.9478959442
 10
222.5747376169
 20
171.9157658865
 10
222.107940116
 20
171.8647071814
 10
221.6386317695
 20
171.7962027235
 10
221.1567133154
 20
171.7087590716
 10
220.6741932268
 20
171.6037888166
 10
220.1906859363
 20
171.4799956155
 10
219.7091232474
 20
171.3355462909
 10
219.4044354792
 20
171.2310353671
 10
219.1024224694
 20
171.1148684755
 10
218.8033226366
 20
170.9838536246
 10
218.5106750066
 20
170.8340175012
 10
218.3530020947
 20
170.7403661478
 10
218.2003471489
 20
170.6367802601
 10
218.053581887
 20
170.5187816899
 10
217.9192479188
 20
170.3824463095
 10
217.8481023247
 20
170.2881143922
 10
217.7894085134
 20
170.1824961258
 10
217.7441779013
 20
170.0343158356
  0
LWPOLYLINE
  5
1DF
330
1F
100
AcDbEntity
  8
0
  6
Continuous
 62
     7
370
    15
100
AcDbPolyline
 90
       20
 70
   128
 43
0.0
 10
180.0361897285
 20
151.7872431343
 10
180.4985988374
 20
151.8104610061
 10
180.9652678157
 20
151.8535067355
 10
181.4366790886
 20
151.9149088328
 10
181.9100684906
 20
151.9935143208
 10
182.3987539346
 20
152.0921320682
 10
182.8874356533
 20
152.2091527497
 10
183.3764749999
 20
152.3466811543
 10
183.8623441244
 20
152.5076714372
 10
184.128165939
 20
152.608732975
 10
184.3910242851
 20
152.7204320794
 10
184.6505931998
 20
152.845924071
 10
184.9032908167
 20
152.9889770811
 10
185.0670117373
 20
153.0984559124
 10
185.2224513377
 20
153.2225248431
 10
185.3250681842
 20
153.3226755475
 10
185.4168518866
 20
153.4359206473
 10
185.4727759446
 20
153.5281718736
 10
185.5151399459
 20
153.630516774
 10
185.533421808
 20
153.7075501894
  0
LWPOLYLINE
  5
1E0
330
1F
100
AcDbEntity
  8
0
  6
Continuous
 62
     7
370
    15
100
AcDbPolyline
 90
       18
 70
   128
 43
0.0
 10
185.5397827412
 20
170.0343158356
 10
185.5141583319
 20
170.1338821351
 10
185.470658117
 20
170.2304138364
 10
185.2805900807
 20
170.4721060143
 10
185.1260575886
 20
170.6049233237
 10
184.9582239474
 20
170.7229374935
 10
184.7795757885
 20
170.8304866245
 10
184.5952391113
 20
170.9282248541
 10
184.2770657922
 20
171.0749838296
 10
183.9516821737
 20
171.2045268998
 10
183.620205843
 20
171.3206912884
 10
183.2856505598
 20
171.4250396383
 10
182.6013761992
 20
171.6057676733
 10
181.9123744453
 20
171.7498697455
 10
181.3808872784
 20
171.8368554996
 10
180.8501526202
 20
171.9022253839
 10
180.3191199387
 20
171.9442160349
 10
179.7916039313
 20
171.9592177871
  0
LWPOLYLINE
  5
1E1
330
1F
100
AcDbEntity
  8
0
  6
Continuous
 62
     7
370
    15
100
AcDbPolyline
 90
       18
 70
   128
 43
0.0
 10
217.7505388344
 20
153.7075501894
 10
217.7764668549
 20
153.6077273106
 10
217.820322835
 20
153.5109908347
 10
218.0118437345
 20
153.2685414915
 10
218.167901733
 20
153.1349786585
 10
218.3373353864
 20
153.016367278
 10
218.5176357115
 20
152.9083189582
 10
218.7036394561
 20
152.8101594215
 10
219.0246179188
 20
152.6628223275
 10
219.3528159941
 20
152.5328301852
 10
219.687110507
 20
152.4163291817
 10
220.0244746591
 20
152.3117472445
 10
220.7144394005
 20
152.1308639114
 10
221.4090700681
 20
151.9871012335
 10
221.8697692687
 20
151.9115914618
 10
222.3298705603
 20
151.8522643512
 10
222.7899997915
 20
151.8101275926
 10
223.2477709139
 20
151.7872431343
  0
ARC
  5
1E2
330
1F
100
AcDbEntity
  8
0
  6
Continuous
 62
     7
370
    15
100
AcDbCircle
 10
37.3831919938
 20
161.9286538106
 30
0.0
 40
148.3781558679123
100
AcDbArc
 50
356.8238190193
 51
3.1315359341
  0
ARC
  5
1E3
330
1F
100
AcDbEntity
  8
0
  6
Continuous
 62
     7
370
    15
100
AcDbCircle
 10
366.0742800495
 20
161.928721411
 30
0.0
 40
148.551404787305
100
AcDbArc
 50
176.8721459842
 51
183.1724990624
  0
ARC
  5
1E4
330
1F
100
AcDbEntity
  8
0
  6
Continuous
 62
     7
370
     0
100
AcDbCircle
 10
312.5271041105
 20
161.8401861843
 30
0.0
 40
206.4210842448583
100
AcDbArc
 50
179.9479558322
 51
182.3346184476
  0
ARC
  5
1E5
330
1F
100
AcDbEntity
  8
0
  6
Continuous
 62
     7
370
     0
100
AcDbCircle
 10
90.7466776144
 20
161.8402101578
 30
0.0
 40
206.4312612737559
100
AcDbArc
 50
357.6654900529
 51
0.0520349481
  0
ARC
  5
1E6
330
1F
100
AcDbEntity
  8
0
  6
Continuous
 62
     7
370
     0
100
AcDbCircle
 10
112.9303827473
 20
116.8874058812
 30
0.0
 40
34.92609165816373
100
AcDbArc
 50
87.7782717605
 51
97.6484469119
  0
ARC
  5
1E7
330
1F
100
AcDbEntity
  8
0
  6
Continuous
 62
     7
370
     0
100
AcDbCircle
 10
108.2813008394
 20
153.5081825323
 30
0.0
 40
2.005410109162677
100
AcDbArc
 50
182.1908511207
 51
270.0174891126
  0
ARC
  5
1E8
330
1F
100
AcDbEntity
  8
0
  6
Continuous
 62
     7
370
     0
100
AcDbCircle
 10
290.3444573801
 20
116.6949987578
 30
0.0
 40
35.1180045555724
100
AcDbArc
 50
82.378588702
 51
92.1946926256
  0
ARC
  5
1E9
330
1F
100
AcDbEntity
  8
0
  6
Continuous
 62
     7
370
     0
100
AcDbCircle
 10
295.00265042
 20
153.5081980894
 30
0.0
 40
2.00542566397072
100
AcDbArc
 50
269.9827258836
 51
357.8087210835
  0
LINE
  5
1EA
330
1F
100
AcDbEntity
  8
0
  6
Continuous
 62
     7
370
     0
100
AcDbLine
 10
288.9996047552
 20
151.7872431343
 30
0.0
 11
223.2477709139
 21
151.7872431343
 31
0.0
  0
LINE
  5
1EB
330
1F
100
AcDbEntity
  8
0
  6
Continuous
 62
     7
370
     0
100
AcDbLine
 10
180.0361897285
 20
151.7872431343
 30
0.0
 11
114.2843540246
 21
151.7872431343
 31
0.0
  0
LINE
  5
1EC
330
1F
100
AcDbEntity
  8
0
  6
Continuous
 62
     7
370
     0
100
AcDbLine
 10
142.463563704
 20
185.9816054841
 30
0.0
 11
142.6899793978
 21
185.9816054841
 31
0.0
  0
LINE
  5
1ED
330
1F
100
AcDbEntity
  8
0
  6
Continuous
 62
     7
370
     0
100
AcDbLine
 10
132.2264473374
 20
185.9816054841
 30
0.0
 11
136.8790965016
 21
185.9816054841
 31
0.0
  0
LINE
  5
1EE
330
1F
100
AcDbEntity
  8
0
  6
Continuous
 62
     7
370
     0
100
AcDbLine
 10
116.4048637683
 20
185.9816054841
 30
0.0
 11
121.0575129325
 21
185.9816054841
 31
0.0
  0
LINE
  5
1EF
330
1F
100
AcDbEntity
  8
0
  6
Continuous
 62
     7
370
     0
100
AcDbLine
 10
110.5939771469
 20
185.9816054841
 30
0.0
 11
110.8203928406
 21
185.9816054841
 31
0.0
  0
LINE
  5
1F0
330
1F
100
AcDbEntity
  8
0
  6
Continuous
 62
     7
370
     0
100
AcDbLine
 10
110.5939771469
 20
176.8916708445
 30
0.0
 11
110.8203928406
 21
176.8916708445
 31
0.0
  0
LINE
  5
1F1
330
1F
100
AcDbEntity
  8
0
  6
Continuous
 62
     7
370
     0
100
AcDbLine
 10
116.4048637683
 20
176.8916708445
 30
0.0
 11
121.0575129325
 21
176.8916708445
 31
0.0
  0
LINE
  5
1F2
330
1F
100
AcDbEntity
  8
0
  6
Continuous
 62
     7
370
     0
100
AcDbLine
 10
132.2264473374
 20
176.8916708445
 30
0.0
 11
136.8790965016
 21
176.8916708445
 31
0.0
  0
LINE
  5
1F3
330
1F
100
AcDbEntity
  8
0
  6
Continuous
 62
     7
370
     0
100
AcDbLine
 10
142.463563704
 20
176.8916708445
 30
0.0
 11
142.6899793978
 21
176.8916708445
 31
0.0
  0
LWPOLYLINE
  5
1F4
330
1F
100
AcDbEntity
  8
0
  6
Continuous
 62
     7
370
     0
100
AcDbPolyline
 90
        6
 70
   128
 43
0.0
 10
108.281912976
 20
151.5027725165
 10
108.2822035487
 20
151.4320590561
 10
108.2824121649
 20
151.3815217679
 10
108.2825313742
 20
151.3511662399
 10
108.2825760777
 20
151.3410129612
 10
108.2825760777
 20
151.3410371756
  0
LWPOLYLINE
  5
1F5
330
1F
100
AcDbEntity
  8
0
  6
Continuous
 62
     7
370
    15
100
AcDbPolyline
 90
       10
 70
   128
 43
0.0
 10
175.1266575838
 20
151.34734968
 10
175.0980082388
 20
151.3445240473
 10
175.2482883121
 20
151.3593283509
 10
175.5170121277
 20
151.3855916475
 10
175.9044385935
 20
151.4229861116
 10
176.4102193947
 20
151.4709697132
 10
177.0333840932
 20
151.528789944
 10
177.6606894518
 20
151.5855410164
 10
179.1640713299
 20
151.715620703
 10
180.0361897285
 20
151.7872431343
  0
LWPOLYLINE
  5
1F6
330
1F
100
AcDbEntity
  8
0
  6
Continuous
 62
     7
370
     0
100
AcDbPolyline
 90
        5
 70
   128
 43
0.0
 10
295.0013901527
 20
151.3410371756
 10
295.0014274056
 20
151.3510824209
 10
295.0015540655
 20
151.381395108
 10
295.0017552311
 20
151.4319603359
 10
295.0020458038
 20
151.5027725165
  0
ARC
  5
1F7
330
1F
100
AcDbEntity
  8
0
  6
Continuous
 62
     7
370
    15
100
AcDbCircle
 10
201.3368445782
 20
-120.3715082616
 30
0.0
 40
273.0393280358402
100
AcDbArc
 50
84.3627863497
 51
85.397165113
  0
ENDSEC
  0
SECTION
  2
OBJECTS
  0
DICTIONARY
  5
C
330
0
100
AcDbDictionary
281
     1
  3
ACAD_GROUP
350
D
  3
ACAD_LAYOUT
350
1A
  3
ACAD_MATERIAL
350
3B
  3
ACAD_MLEADERSTYLE
350
1F9
  3
ACAD_MLINESTYLE
350
17
  3
ACAD_PLOTSETTINGS
350
19
  3
ACAD_PLOTSTYLENAME
350
E
  3
ACAD_TABLESTYLE
350
1F8
  3
ACAD_VISUALSTYLE
350
2A
  0
DICTIONARY
  5
D
102
{ACAD_REACTORS
330
C
102
}
330
C
100
AcDbDictionary
281
     1
  0
DICTIONARY
  5
1A
102
{ACAD_REACTORS
330
C
102
}
330
C
100
AcDbDictionary
281
     1
  3
Layout1
350
1E
  3
Layout2
350
26
  3
Model
350
22
  0
DICTIONARY
  5
3B
102
{ACAD_REACTORS
330
C
102
}
330
C
100
AcDbDictionary
281
     1
  3
ByBlock
350
3D
  3
ByLayer
350
3C
  3
Global
350
3E
  0
DICTIONARY
  5
1F9
102
{ACAD_REACTORS
330
C
102
}
330
C
100
AcDbDictionary
281
     1
  0
DICTIONARY
  5
17
102
{ACAD_REACTORS
330
C
102
}
330
C
100
AcDbDictionary
281
     1
  3
Standard
350
18
  0
DICTIONARY
  5
19
102
{ACAD_REACTORS
330
C
102
}
330
C
100
AcDbDictionary
281
     1
  0
ACDBDICTIONARYWDFLT
  5
E
102
{ACAD_REACTORS
330
C
102
}
330
C
100
AcDbDictionary
281
     1
  3
Normal
350
F
100
AcDbDictionaryWithDefault
340
F
  0
DICTIONARY
  5
1F8
102
{ACAD_REACTORS
330
C
102
}
330
C
100
AcDbDictionary
281
     1
  0
DICTIONARY
  5
2A
102
{ACAD_REACTORS
330
C
102
}
330
C
100
AcDbDictionary
281
     1
  3
2dWireframe
350
2F
  3
3D Hidden
350
31
  3
3dWireframe
350
30
  3
Basic
350
32
  3
Brighten
350
36
  3
ColorChange
350
3A
  3
Conceptual
350
34
  3
Dim
350
35
  3
Facepattern
350
39
  3
Flat
350
2B
  3
FlatWithEdges
350
2C
  3
Gouraud
350
2D
  3
GouraudWithEdges
350
2E
  3
Linepattern
350
38
  3
Realistic
350
33
  3
Thicken
350
37
  0
LAYOUT
  5
1E
102
{ACAD_REACTORS
330
1A
102
}
330
1A
100
AcDbPlotSettings
  1

  2
none_device
  4

  6

 40
0.0
 41
0.0
 42
0.0
 43
0.0
 44
0.0
 45
0.0
 46
0.0
 47
0.0
 48
0.0
 49
0.0
140
0.0
141
0.0
142
1.0
143
1.0
 70
   688
 72
     0
 73
     0
 74
     5
  7

 75
    16
 76
     0
 77
     2
 78
   300
147
1.0
148
0.0
149
0.0
100
AcDbLayout
  1
Layout1
 70
     1
 71
     1
 10
0.0
 20
0.0
 11
420.0
 21
297.0
 12
0.0
 22
0.0
 32
0.0
 14
1.0000000000E+20
 24
1.0000000000E+20
 34
1.0000000000E+20
 15
-1.0000000000E+20
 25
-1.0000000000E+20
 35
-1.0000000000E+20
146
0.0
 13
0.0
 23
0.0
 33
0.0
 16
1.0
 26
0.0
 36
0.0
 17
0.0
 27
1.0
 37
0.0
 76
     0
330
1B
  0
LAYOUT
  5
26
102
{ACAD_REACTORS
330
1A
102
}
330
1A
100
AcDbPlotSettings
  1

  2
none_device
  4

  6

 40
0.0
 41
0.0
 42
0.0
 43
0.0
 44
0.0
 45
0.0
 46
0.0
 47
0.0
 48
0.0
 49
0.0
140
0.0
141
0.0
142
1.0
143
1.0
 70
   688
 72
     0
 73
     0
 74
     5
  7

 75
    16
 76
     0
 77
     2
 78
   300
147
1.0
148
0.0
149
0.0
100
AcDbLayout
  1
Layout2
 70
     1
 71
     2
 10
0.0
 20
0.0
 11
0.0
 21
0.0
 12
0.0
 22
0.0
 32
0.0
 14
0.0
 24
0.0
 34
0.0
 15
0.0
 25
0.0
 35
0.0
146
0.0
 13
0.0
 23
0.0
 33
0.0
 16
1.0
 26
0.0
 36
0.0
 17
0.0
 27
1.0
 37
0.0
 76
     0
330
23
  0
LAYOUT
  5
22
102
{ACAD_REACTORS
330
1A
102
}
330
1A
100
AcDbPlotSettings
  1

  2
none_device
  4

  6

 40
0.0
 41
0.0
 42
0.0
 43
0.0
 44
0.0
 45
0.0
 46
0.0
 47
0.0
 48
0.0
 49
0.0
140
0.0
141
0.0
142
1.0
143
1.0
 70
  1712
 72
     0
 73
     0
 74
     0
  7

 75
     0
 76
     0
 77
     2
 78
   300
147
1.0
148
0.0
149
0.0
100
AcDbLayout
  1
Model
 70
     1
 71
     0
 10
0.0
 20
0.0
 11
594.0
 21
841.0
 12
0.0
 22
0.0
 32
0.0
 14
0.0
 24
0.0
 34
0.0
 15
594.0
 25
841.0
 35
0.0
146
0.0
 13
0.0
 23
0.0
 33
0.0
 16
1.0
 26
0.0
 36
0.0
 17
0.0
 27
1.0
 37
0.0
 76
     0
330
1F
331
29
  0
MATERIAL
  5
3D
102
{ACAD_REACTORS
330
3B
102
}
330
3B
100
AcDbMaterial
  1
ByBlock
 72
     1
 94
      127
  0
MATERIAL
  5
3C
102
{ACAD_REACTORS
330
3B
102
}
330
3B
100
AcDbMaterial
  1
ByLayer
 72
     1
 94
      127
  0
MATERIAL
  5
3E
102
{ACAD_REACTORS
330
3B
102
}
330
3B
100
AcDbMaterial
  1
Global
 72
     1
 94
      127
  0
MLINESTYLE
  5
18
102
{ACAD_REACTORS
330
17
102
}
330
17
100
AcDbMlineStyle
  2
Standard
 70
     0
  3

 62
   256
 51
90.0
 52
90.0
 71
     2
 49
0.5
 62
   256
  6
BYLAYER
 49
-0.5
 62
   256
  6
BYLAYER
  0
ACDBPLACEHOLDER
  5
F
102
{ACAD_REACTORS
330
E
102
}
330
E
  0
VISUALSTYLE
  5
2F
102
{ACAD_REACTORS
330
2A
102
}
330
2A
100
AcDbVisualStyle
  2
2dWireframe
 70
     4
177
     2
291
     0
 71
     0
176
     1
 72
     2
176
     1
 73
     0
176
     1
 90
        0
176
     1
 40
-0.6
176
     1
 41
-30.0
176
     1
 62
     5
 63
     7
421
 16777215
176
     1
 74
     1
176
     1
 91
        4
176
     1
 64
     7
176
     1
 65
   257
176
     1
 75
     1
176
     1
175
     1
176
     1
 42
1.0
176
     1
 92
        0
176
     1
 66
   257
176
     1
 43
1.0
176
     1
 76
     1
176
     1
 77
     6
176
     1
 78
     2
176
     1
 67
     7
176
     1
 79
     5
176
     1
170
     0
176
     1
171
     0
176
     1
290
     0
176
     1
 93
        1
176
     1
 44
0.0
176
     1
173
     0
176
     1
  0
VISUALSTYLE
  5
31
102
{ACAD_REACTORS
330
2A
102
}
330
2A
100
AcDbVisualStyle
  2
3D Hidden
 70
     6
177
     2
291
     0
 71
     1
176
     1
 72
     2
176
     1
 73
     2
176
     1
 90
        0
176
     1
 40
-0.6
176
     1
 41
-30.0
176
     1
 62
     5
 63
     7
421
 16777215
176
     1
 74
     2
176
     1
 91
        2
176
     1
 64
     7
176
     1
 65
   257
176
     1
 75
     2
176
     1
175
     1
176
     1
 42
40.0
176
     1
 92
        0
176
     1
 66
   257
176
     1
 43
1.0
176
     1
 76
     1
176
     1
 77
     6
176
     1
 78
     2
176
     1
 67
     7
176
     1
 79
     3
176
     1
170
     0
176
     1
171
     0
176
     1
290
     0
176
     1
 93
        1
176
     1
 44
0.0
176
     1
173
     0
176
     1
  0
VISUALSTYLE
  5
30
102
{ACAD_REACTORS
330
2A
102
}
330
2A
100
AcDbVisualStyle
  2
3dWireframe
 70
     5
177
     2
291
     0
 71
     0
176
     1
 72
     2
176
     1
 73
     0
176
     1
 90
        0
176
     1
 40
-0.6
176
     1
 41
-30.0
176
     1
 62
     5
 63
     7
421
 16777215
176
     1
 74
     1
176
     1
 91
        4
176
     1
 64
     7
176
     1
 65
   257
176
     1
 75
     1
176
     1
175
     1
176
     1
 42
1.0
176
     1
 92
        0
176
     1
 66
   257
176
     1
 43
1.0
176
     1
 76
     1
176
     1
 77
     6
176
     1
 78
     2
176
     1
 67
     7
176
     1
 79
     5
176
     1
170
     0
176
     1
171
     0
176
     1
290
     0
176
     1
 93
        1
176
     1
 44
0.0
176
     1
173
     0
176
     1
  0
VISUALSTYLE
  5
32
102
{ACAD_REACTORS
330
2A
102
}
330
2A
100
AcDbVisualStyle
  2
Basic
 70
     7
177
     2
291
     1
 71
     1
176
     1
 72
     0
176
     1
 73
     1
176
     1
 90
        0
176
     1
 40
-0.6
176
     1
 41
-30.0
176
     1
 62
     5
 63
     7
421
 16777215
176
     1
 74
     0
176
     1
 91
        4
176
     1
 64
     7
176
     1
 65
   257
176
     1
 75
     1
176
     1
175
     1
176
     1
 42
1.0
176
     1
 92
        8
176
     1
 66
     7
176
     1
 43
1.0
176
     1
 76
     1
176
     1
 77
     6
176
     1
 78
     2
176
     1
 67
     7
176
     1
 79
     5
176
     1
170
     0
176
     1
171
     0
176
     1
290
     0
176
     1
 93
        1
176
     1
 44
0.0
176
     1
173
     0
176
     1
  0
VISUALSTYLE
  5
36
102
{ACAD_REACTORS
330
2A
102
}
330
2A
100
AcDbVisualStyle
  2
Brighten
 70
    12
177
     2
291
     1
 71
     2
176
     1
 72
     2
176
     1
 73
     0
176
     1
 90
        0
176
     1
 40
-0.6
176
     1
 41
-30.0
176
     1
 62
     5
 63
     7
421
 16777215
176
     1
 74
     1
176
     1
 91
        4
176
     1
 64
     7
176
     1
 65
   257
176
     1
 75
     1
176
     1
175
     1
176
     1
 42
1.0
176
     1
 92
        8
176
     1
 66
     7
176
     1
 43
1.0
176
     1
 76
     1
176
     1
 77
     6
176
     1
 78
     2
176
     1
 67
     7
176
     1
 79
     5
176
     1
170
     0
176
     1
171
     0
176
     1
290
     0
176
     1
 93
        1
176
     1
 44
50.0
176
     1
173
     0
176
     1
  0
VISUALSTYLE
  5
3A
102
{ACAD_REACTORS
330
2A
102
}
330
2A
100
AcDbVisualStyle
  2
ColorChange
 70
    16
177
     2
291
     1
 71
     2
176
     1
 72
     2
176
     1
 73
     3
176
     1
 90
        0
176
     1
 40
-0.6
176
     1
 41
-30.0
176
     1
 62
     5
 63
     8
421
  8421504
176
     1
 74
     1
176
     1
 91
        4
176
     1
 64
     7
176
     1
 65
   257
176
     1
 75
     1
176
     1
175
     1
176
     1
 42
1.0
176
     1
 92
        8
176
     1
 66
     8
424
  8421504
176
     1
 43
1.0
176
     1
 76
     1
176
     1
 77
     6
176
     1
 78
     2
176
     1
 67
     7
176
     1
 79
     5
176
     1
170
     0
176
     1
171
     0
176
     1
290
     0
176
     1
 93
        1
176
     1
 44
0.0
176
     1
173
     0
176
     1
  0
VISUALSTYLE
  5
34
102
{ACAD_REACTORS
330
2A
102
}
330
2A
100
AcDbVisualStyle
  2
Conceptual
 70
     9
177
     2
291
     0
 71
     3
176
     1
 72
     2
176
     1
 73
     0
176
     1
 90
        0
176
     1
 40
-0.6
176
     1
 41
-30.0
176
     1
 62
     5
 63
     7
421
 16777215
176
     1
 74
     2
176
     1
 91
        2
176
     1
 64
     7
176
     1
 65
   257
176
     1
 75
     1
176
     1
175
     1
176
     1
 42
40.0
176
     1
 92
        8
176
     1
 66
     7
176
     1
 43
1.0
176
     1
 76
     1
176
     1
 77
     6
176
     1
 78
     2
176
     1
 67
     7
176
     1
 79
     3
176
     1
170
     0
176
     1
171
     0
176
     1
290
     0
176
     1
 93
        1
176
     1
 44
0.0
176
     1
173
     0
176
     1
  0
VISUALSTYLE
  5
35
102
{ACAD_REACTORS
330
2A
102
}
330
2A
100
AcDbVisualStyle
  2
Dim
 70
    11
177
     2
291
     1
 71
     2
176
     1
 72
     2
176
     1
 73
     0
176
     1
 90
        0
176
     1
 40
-0.6
176
     1
 41
-30.0
176
     1
 62
     5
 63
     7
421
 16777215
176
     1
 74
     1
176
     1
 91
        4
176
     1
 64
     7
176
     1
 65
   257
176
     1
 75
     1
176
     1
175
     1
176
     1
 42
1.0
176
     1
 92
        8
176
     1
 66
     7
176
     1
 43
1.0
176
     1
 76
     1
176
     1
 77
     6
176
     1
 78
     2
176
     1
 67
     7
176
     1
 79
     5
176
     1
170
     0
176
     1
171
     0
176
     1
290
     0
176
     1
 93
        1
176
     1
 44
-50.0
176
     1
173
     0
176
     1
  0
VISUALSTYLE
  5
39
102
{ACAD_REACTORS
330
2A
102
}
330
2A
100
AcDbVisualStyle
  2
Facepattern
 70
    15
177
     2
291
     1
 71
     2
176
     1
 72
     2
176
     1
 73
     0
176
     1
 90
        0
176
     1
 40
-0.6
176
     1
 41
-30.0
176
     1
 62
     5
 63
     7
421
 16777215
176
     1
 74
     1
176
     1
 91
        4
176
     1
 64
     7
176
     1
 65
   257
176
     1
 75
     1
176
     1
175
     1
176
     1
 42
1.0
176
     1
 92
        8
176
     1
 66
     7
176
     1
 43
1.0
176
     1
 76
     1
176
     1
 77
     6
176
     1
 78
     2
176
     1
 67
     7
176
     1
 79
     5
176
     1
170
     0
176
     1
171
     0
176
     1
290
     0
176
     1
 93
        1
176
     1
 44
0.0
176
     1
173
     0
176
     1
  0
VISUALSTYLE
  5
2B
102
{ACAD_REACTORS
330
2A
102
}
330
2A
100
AcDbVisualStyle
  2
Flat
 70
     0
177
     2
291
     1
 71
     2
176
     1
 72
     1
176
     1
 73
     1
176
     1
 90
        2
176
     1
 40
-0.6
176
     1
 41
30.0
176
     1
 62
     5
 63
     7
421
 16777215
176
     1
 74
     0
176
     1
 91
        4
176
     1
 64
     7
176
     1
 65
   257
176
     1
 75
     1
176
     1
175
     1
176
     1
 42
1.0
176
     1
 92
        8
176
     1
 66
     7
176
     1
 43
1.0
176
     1
 76
     1
176
     1
 77
     6
176
     1
 78
     2
176
     1
 67
     7
176
     1
 79
     5
176
     1
170
     0
176
     1
171
     0
176
     1
290
     0
176
     1
 93
       13
176
     1
 44
0.0
176
     1
173
     0
176
     1
  0
VISUALSTYLE
  5
2C
102
{ACAD_REACTORS
330
2A
102
}
330
2A
100
AcDbVisualStyle
  2
FlatWithEdges
 70
     1
177
     2
291
     1
 71
     2
176
     1
 72
     1
176
     1
 73
     1
176
     1
 90
        2
176
     1
 40
-0.6
176
     1
 41
30.0
176
     1
 62
     5
 63
     7
421
 16777215
176
     1
 74
     1
176
     1
 91
        4
176
     1
 64
     7
176
     1
 65
   257
176
     1
 75
     1
176
     1
175
     1
176
     1
 42
1.0
176
     1
 92
        0
176
     1
 66
   257
176
     1
 43
1.0
176
     1
 76
     1
176
     1
 77
     6
176
     1
 78
     2
176
     1
 67
     7
176
     1
 79
     5
176
     1
170
     0
176
     1
171
     0
176
     1
290
     0
176
     1
 93
       13
176
     1
 44
0.0
176
     1
173
     0
176
     1
  0
VISUALSTYLE
  5
2D
102
{ACAD_REACTORS
330
2A
102
}
330
2A
100
AcDbVisualStyle
  2
Gouraud
 70
     2
177
     2
291
     1
 71
     2
176
     1
 72
     2
176
     1
 73
     1
176
     1
 90
        2
176
     1
 40
-0.6
176
     1
 41
30.0
176
     1
 62
     5
 63
     7
421
 16777215
176
     1
 74
     0
176
     1
 91
        4
176
     1
 64
     7
176
     1
 65
   257
176
     1
 75
     1
176
     1
175
     1
176
     1
 42
1.0
176
     1
 92
        0
176
     1
 66
     7
176
     1
 43
1.0
176
     1
 76
     1
176
     1
 77
     6
176
     1
 78
     2
176
     1
 67
     7
176
     1
 79
     5
176
     1
170
     0
176
     1
171
     0
176
     1
290
     0
176
     1
 93
       13
176
     1
 44
0.0
176
     1
173
     0
176
     1
  0
VISUALSTYLE
  5
2E
102
{ACAD_REACTORS
330
2A
102
}
330
2A
100
AcDbVisualStyle
  2
GouraudWithEdges
 70
     3
177
     2
291
     1
 71
     2
176
     1
 72
     2
176
     1
 73
     1
176
     1
 90
        2
176
     1
 40
-0.6
176
     1
 41
30.0
176
     1
 62
     5
 63
     7
421
 16777215
176
     1
 74
     1
176
     1
 91
        4
176
     1
 64
     7
176
     1
 65
   257
176
     1
 75
     1
176
     1
175
     1
176
     1
 42
1.0
176
     1
 92
        0
176
     1
 66
   257
176
     1
 43
1.0
176
     1
 76
     1
176
     1
 77
     6
176
     1
 78
     2
176
     1
 67
     7
176
     1
 79
     5
176
     1
170
     0
176
     1
171
     0
176
     1
290
     0
176
     1
 93
       13
176
     1
 44
0.0
176
     1
173
     0
176
     1
  0
VISUALSTYLE
  5
38
102
{ACAD_REACTORS
330
2A
102
}
330
2A
100
AcDbVisualStyle
  2
Linepattern
 70
    14
177
     2
291
     1
 71
     2
176
     1
 72
     2
176
     1
 73
     0
176
     1
 90
        0
176
     1
 40
-0.6
176
     1
 41
-30.0
176
     1
 62
     5
 63
     7
421
 16777215
176
     1
 74
     1
176
     1
 91
        4
176
     1
 64
     7
176
     1
 65
   257
176
     1
 75
     7
176
     1
175
     7
176
     1
 42
1.0
176
     1
 92
        8
176
     1
 66
     7
176
     1
 43
1.0
176
     1
 76
     1
176
     1
 77
     6
176
     1
 78
     2
176
     1
 67
     7
176
     1
 79
     5
176
     1
170
     0
176
     1
171
     0
176
     1
290
     0
176
     1
 93
        1
176
     1
 44
0.0
176
     1
173
     0
176
     1
  0
VISUALSTYLE
  5
33
102
{ACAD_REACTORS
330
2A
102
}
330
2A
100
AcDbVisualStyle
  2
Realistic
 70
     8
177
     2
291
     0
 71
     2
176
     1
 72
     2
176
     1
 73
     0
176
     1
 90
        0
176
     1
 40
-0.6
176
     1
 41
-30.0
176
     1
 62
     5
 63
     7
421
 16777215
176
     1
 74
     1
176
     1
 91
        0
176
     1
 64
     7
176
     1
 65
   257
176
     1
 75
     1
176
     1
175
     1
176
     1
 42
1.0
176
     1
 92
        8
176
     1
 66
     8
424
  7895160
176
     1
 43
1.0
176
     1
 76
     1
176
     1
 77
     6
176
     1
 78
     2
176
     1
 67
     7
176
     1
 79
     5
176
     1
170
     0
176
     1
171
     0
176
     1
290
     0
176
     1
 93
       13
176
     1
 44
0.0
176
     1
173
     0
176
     1
  0
VISUALSTYLE
  5
37
102
{ACAD_REACTORS
330
2A
102
}
330
2A
100
AcDbVisualStyle
  2
Thicken
 70
    13
177
     2
291
     1
 71
     2
176
     1
 72
     2
176
     1
 73
     0
176
     1
 90
        0
176
     1
 40
-0.6
176
     1
 41
-30.0
176
     1
 62
     5
 63
     7
421
 16777215
176
     1
 74
     1
176
     1
 91
        4
176
     1
 64
     7
176
     1
 65
   257
176
     1
 75
     1
176
     1
175
     1
176
     1
 42
1.0
176
     1
 92
       12
176
     1
 66
     7
176
     1
 43
1.0
176
     1
 76
     1
176
     1
 77
     6
176
     1
 78
     2
176
     1
 67
     7
176
     1
 79
     5
176
     1
170
     0
176
     1
171
     0
176
     1
290
     0
176
     1
 93
        1
176
     1
 44
0.0
176
     1
173
     0
176
     1
  0
ENDSEC
  0
EOF
