  0
SECTION
  2
HEADER
  9
$ACADVER
  1
AC1015
  9
$ACADMAINTVER
 70
     6
  9
$DWGCODEPAGE
  3
ANSI_1252
  9
$INSBASE
 10
0.0
 20
0.0
 30
0.0
  9
$EXTMIN
 10
0.0
 20
0.0
 30
0.0
  9
$EXTMAX
 10
594.0
 20
841.0
 30
0.0
  9
$LIMMIN
 10
0.0
 20
0.0
  9
$LIMMAX
 10
594.0
 20
841.0
  9
$ORTHOMODE
 70
     0
  9
$REGENMODE
 70
     1
  9
$FILLMODE
 70
     1
  9
$QTEXTMODE
 70
     0
  9
$MIRRTEXT
 70
     1
  9
$LTSCALE
 40
1.0
  9
$ATTMODE
 70
     1
  9
$TEXTSIZE
 40
10.0
  9
$TRACEWID
 40
1.0
  9
$TEXTSTYLE
  7
Standard
  9
$CLAYER
  8
0
  9
$CELTYPE
  6
ByLayer
  9
$CECOLOR
 62
   256
  9
$CELTSCALE
 40
1.0
  9
$DISPSILH
 70
     0
  9
$DIMSCALE
 40
1.0
  9
$DIMASZ
 40
2.5
  9
$DIMEXO
 40
0.0
  9
$DIMDLI
 40
3.75
  9
$DIMRND
 40
0.0
  9
$DIMDLE
 40
0.0
  9
$DIMEXE
 40
1.0
  9
$DIMTP
 40
0.0
  9
$DIMTM
 40
0.0
  9
$DIMTXT
 40
3.5
  9
$DIMCEN
 40
2.5
  9
$DIMTSZ
 40
0.0
  9
$DIMTOL
 70
     0
  9
$DIMLIM
 70
     0
  9
$DIMTIH
 70
     1
  9
$DIMTOH
 70
     1
  9
$DIMSE1
 70
     0
  9
$DIMSE2
 70
     0
  9
$DIMTAD
 70
     1
  9
$DIMZIN
 70
     0
  9
$DIMBLK
  1

  9
$DIMASO
 70
     1
  9
$DIMSHO
 70
     1
  9
$DIMPOST
  1

  9
$DIMAPOST
  1

  9
$DIMALT
 70
     0
  9
$DIMALTD
 70
     3
  9
$DIMALTF
 40
0.0393700787
  9
$DIMLFAC
 40
1.0
  9
$DIMTOFL
 70
     1
  9
$DIMTVP
 40
0.0
  9
$DIMTIX
 70
     0
  9
$DIMSOXD
 70
     0
  9
$DIMSAH
 70
     0
  9
$DIMBLK1
  1

  9
$DIMBLK2
  1

  9
$DIMSTYLE
  2
ISO-25
  9
$DIMCLRD
 70
     0
  9
$DIMCLRE
 70
     0
  9
$DIMCLRT
 70
     0
  9
$DIMTFAC
 40
1.0
  9
$DIMGAP
 40
1.5
  9
$DIMJUST
 70
     0
  9
$DIMSD1
 70
     0
  9
$DIMSD2
 70
     0
  9
$DIMTOLJ
 70
     0
  9
$DIMTZIN
 70
     0
  9
$DIMALTZ
 70
     0
  9
$DIMALTTZ
 70
     0
  9
$DIMUPT
 70
     0
  9
$DIMDEC
 70
     2
  9
$DIMTDEC
 70
     2
  9
$DIMALTU
 70
     2
  9
$DIMALTTD
 70
     3
  9
$DIMTXSTY
  7
Standard
  9
$DIMAUNIT
 70
     0
  9
$DIMADEC
 70
     2
  9
$DIMALTRND
 40
0.0
  9
$DIMAZIN
 70
     0
  9
$DIMDSEP
 70
    44
  9
$DIMATFIT
 70
     3
  9
$DIMFRAC
 70
     0
  9
$DIMLDRBLK
  1

  9
$DIMLUNIT
 70
     2
  9
$DIMLWD
 70
    -2
  9
$DIMLWE
 70
    -2
  9
$DIMTMOVE
 70
     0
  9
$LUNITS
 70
     2
  9
$LUPREC
 70
     2
  9
$SKETCHINC
 40
1.0
  9
$FILLETRAD
 40
10.0
  9
$AUNITS
 70
     0
  9
$AUPREC
 70
     2
  9
$MENU
  1
.
  9
$ELEVATION
 40
0.0
  9
$PELEVATION
 40
0.0
  9
$THICKNESS
 40
0.0
  9
$LIMCHECK
 70
     0
  9
$CHAMFERA
 40
0.0
  9
$CHAMFERB
 40
0.0
  9
$CHAMFERC
 40
0.0
  9
$CHAMFERD
 40
0.0
  9
$SKPOLY
 70
     0
  9
$TDCREATE
 40
2459886.581710961
  9
$TDUCREATE
 40
2459886.540044294
  9
$TDUPDATE
 40
2459886.581712396
  9
$TDUUPDATE
 40
2459886.540045729
  9
$TDINDWG
 40
0.0000000116
  9
$TDUSRTIMER
 40
0.0000000116
  9
$USRTIMER
 70
     1
  9
$ANGBASE
 50
0.0
  9
$ANGDIR
 70
     0
  9
$PDMODE
 70
     0
  9
$PDSIZE
 40
-1.0
  9
$PLINEWID
 40
0.0
  9
$SPLFRAME
 70
     0
  9
$SPLINETYPE
 70
     6
  9
$SPLINESEGS
 70
     8
  9
$HANDSEED
  5
1C8
  9
$SURFTAB1
 70
     6
  9
$SURFTAB2
 70
     6
  9
$SURFTYPE
 70
     6
  9
$SURFU
 70
     6
  9
$SURFV
 70
     6
  9
$UCSBASE
  2

  9
$UCSNAME
  2

  9
$UCSORG
 10
0.0
 20
0.0
 30
0.0
  9
$UCSXDIR
 10
1.0
 20
0.0
 30
0.0
  9
$UCSYDIR
 10
0.0
 20
1.0
 30
0.0
  9
$UCSORTHOREF
  2

  9
$UCSORTHOVIEW
 70
     0
  9
$UCSORGTOP
 10
0.0
 20
0.0
 30
0.0
  9
$UCSORGBOTTOM
 10
0.0
 20
0.0
 30
0.0
  9
$UCSORGLEFT
 10
0.0
 20
0.0
 30
0.0
  9
$UCSORGRIGHT
 10
0.0
 20
0.0
 30
0.0
  9
$UCSORGFRONT
 10
0.0
 20
0.0
 30
0.0
  9
$UCSORGBACK
 10
0.0
 20
0.0
 30
0.0
  9
$PUCSBASE
  2

  9
$PUCSNAME
  2

  9
$PUCSORG
 10
0.0
 20
0.0
 30
0.0
  9
$PUCSXDIR
 10
1.0
 20
0.0
 30
0.0
  9
$PUCSYDIR
 10
0.0
 20
1.0
 30
0.0
  9
$PUCSORTHOREF
  2

  9
$PUCSORTHOVIEW
 70
     0
  9
$PUCSORGTOP
 10
0.0
 20
0.0
 30
0.0
  9
$PUCSORGBOTTOM
 10
0.0
 20
0.0
 30
0.0
  9
$PUCSORGLEFT
 10
0.0
 20
0.0
 30
0.0
  9
$PUCSORGRIGHT
 10
0.0
 20
0.0
 30
0.0
  9
$PUCSORGFRONT
 10
0.0
 20
0.0
 30
0.0
  9
$PUCSORGBACK
 10
0.0
 20
0.0
 30
0.0
  9
$USERI1
 70
     0
  9
$USERI2
 70
     0
  9
$USERI3
 70
     0
  9
$USERI4
 70
     0
  9
$USERI5
 70
     0
  9
$USERR1
 40
0.0
  9
$USERR2
 40
0.0
  9
$USERR3
 40
0.0
  9
$USERR4
 40
0.0
  9
$USERR5
 40
0.0
  9
$WORLDVIEW
 70
     1
  9
$SHADEDGE
 70
     3
  9
$SHADEDIF
 70
    70
  9
$TILEMODE
 70
     1
  9
$MAXACTVP
 70
    64
  9
$PINSBASE
 10
0.0
 20
0.0
 30
0.0
  9
$PLIMCHECK
 70
     0
  9
$PEXTMIN
 10
1.0000000000E+20
 20
1.0000000000E+20
 30
1.0000000000E+20
  9
$PEXTMAX
 10
-1.0000000000E+20
 20
-1.0000000000E+20
 30
-1.0000000000E+20
  9
$PLIMMIN
 10
0.0
 20
0.0
  9
$PLIMMAX
 10
420.0
 20
297.0
  9
$UNITMODE
 70
     0
  9
$VISRETAIN
 70
     1
  9
$PLINEGEN
 70
     0
  9
$PSLTSCALE
 70
     1
  9
$TREEDEPTH
 70
  3020
  9
$CMLSTYLE
  2
Standard
  9
$CMLJUST
 70
     0
  9
$CMLSCALE
 40
20.0
  9
$PROXYGRAPHICS
 70
     1
  9
$MEASUREMENT
 70
     1
  9
$CELWEIGHT
370
    -1
  9
$ENDCAPS
280
     0
  9
$JOINSTYLE
280
     0
  9
$LWDISPLAY
290
     1
  9
$INSUNITS
 70
     4
  9
$HYPERLINKBASE
  1

  9
$STYLESHEET
  1

  9
$XEDIT
290
     1
  9
$CEPSNTYPE
380
     0
  9
$PSTYLEMODE
290
     1
  9
$FINGERPRINTGUID
  2
{f4456175-07d5-42d5-b94b-a1434b068e07}
  9
$VERSIONGUID
  2
{FAEB1C32-E019-11D5-929B-00C0DF256EC4}
  9
$EXTNAMES
290
     1
  9
$PSVPSCALE
 40
0.0
  9
$OLESTARTUP
290
     0
  0
ENDSEC
  0
SECTION
  2
CLASSES
  0
CLASS
  1
ACDBDICTIONARYWDFLT
  2
AcDbDictionaryWithDefault
  3
ObjectDBX Classes
 90
        0
280
     0
281
     0
  0
CLASS
  1
VISUALSTYLE
  2
AcDbVisualStyle
  3
ObjectDBX Classes
 90
     4095
280
     0
281
     0
  0
CLASS
  1
MATERIAL
  2
AcDbMaterial
  3
ObjectDBX Classes
 90
     1153
280
     0
281
     0
  0
CLASS
  1
SCALE
  2
AcDbScale
  3
ObjectDBX Classes
 90
     1153
280
     0
281
     0
  0
CLASS
  1
TABLESTYLE
  2
AcDbTableStyle
  3
ObjectDBX Classes
 90
     4095
280
     0
281
     0
  0
CLASS
  1
MLEADERSTYLE
  2
AcDbMLeaderStyle
  3
ACDB_MLEADERSTYLE_CLASS
 90
     4095
280
     0
281
     0
  0
CLASS
  1
SUN
  2
AcDbSun
  3
SCENEOE
 90
     1153
280
     0
281
     0
  0
CLASS
  1
ACDBPLACEHOLDER
  2
AcDbPlaceHolder
  3
ObjectDBX Classes
 90
        0
280
     0
281
     0
  0
CLASS
  1
LAYOUT
  2
AcDbLayout
  3
ObjectDBX Classes
 90
        0
280
     0
281
     0
  0
ENDSEC
  0
SECTION
  2
TABLES
  0
TABLE
  2
VPORT
  5
8
330
0
100
AcDbSymbolTable
 70
     1
  0
VPORT
  5
29
330
8
100
AcDbSymbolTableRecord
100
AcDbViewportTableRecord
  2
*Active
 70
     0
 10
0.0
 20
0.0
 11
1.0
 21
1.0
 12
297.0
 22
420.5
 13
0.0
 23
0.0
 14
10.0
 24
10.0
 15
10.0
 25
10.0
 16
0.0
 26
0.0
 36
1.0
 17
0.0
 27
0.0
 37
0.0
 40
841.0
 41
0.7063020214
 42
50.0
 43
0.0
 44
0.0
 50
0.0
 51
0.0
 71
     0
 72
  2000
 73
     1
 74
     3
 75
     0
 76
     0
 77
     0
 78
     0
281
     0
 65
     1
110
0.0
120
0.0
130
0.0
111
1.0
121
0.0
131
0.0
112
0.0
122
1.0
132
0.0
 79
     0
146
0.0
  0
ENDTAB
  0
TABLE
  2
LTYPE
  5
5
330
0
100
AcDbSymbolTable
 70
     6
  0
LTYPE
  5
14
330
5
100
AcDbSymbolTableRecord
100
AcDbLinetypeTableRecord
  2
ByBlock
 70
     0
  3

 72
    65
 73
     0
 40
0.0
  0
LTYPE
  5
15
330
5
100
AcDbSymbolTableRecord
100
AcDbLinetypeTableRecord
  2
ByLayer
 70
     0
  3

 72
    65
 73
     0
 40
0.0
  0
LTYPE
  5
16
330
5
100
AcDbSymbolTableRecord
100
AcDbLinetypeTableRecord
  2
Continuous
 70
     0
  3
Solid line
 72
    65
 73
     0
 40
0.0
  0
LTYPE
  5
6E
330
5
100
AcDbSymbolTableRecord
100
AcDbLinetypeTableRecord
  2
HIDDEN
 70
     0
  3
Hidden __ __ __ __ __ __ __ __ __ __ __ __ __ __
 72
    65
 73
     2
 40
1.905
 49
1.27
 74
     0
 49
-0.635
 74
     0
  0
LTYPE
  5
6F
330
5
100
AcDbSymbolTableRecord
100
AcDbLinetypeTableRecord
  2
PHANTOM
 70
     0
  3
Phantom ______  __  __  ______  __  __  ______
 72
    65
 73
     6
 40
12.7
 49
6.35
 74
     0
 49
-1.27
 74
     0
 49
1.27
 74
     0
 49
-1.27
 74
     0
 49
1.27
 74
     0
 49
-1.27
 74
     0
  0
LTYPE
  5
70
330
5
100
AcDbSymbolTableRecord
100
AcDbLinetypeTableRecord
  2
CENTER
 70
     0
  3
Center ____ _ ____ _ ____ _ ____ _ ____ _ ____
 72
    65
 73
     4
 40
10.16
 49
6.35
 74
     0
 49
-1.27
 74
     0
 49
1.27
 74
     0
 49
-1.27
 74
     0
  0
LTYPE
  5
71
330
5
100
AcDbSymbolTableRecord
100
AcDbLinetypeTableRecord
  2
CENTERX2
 70
     0
  3
Center (2x) ________  __  ________  __  _____
 72
    65
 73
     4
 40
20.32
 49
12.7
 74
     0
 49
-2.54
 74
     0
 49
2.54
 74
     0
 49
-2.54
 74
     0
  0
LTYPE
  5
72
330
5
100
AcDbSymbolTableRecord
100
AcDbLinetypeTableRecord
  2
DOT2
 70
     0
  3
Dot (.5x) ........................................
 72
    65
 73
     2
 40
0.635
 49
0.0
 74
     0
 49
-0.635
 74
     0
  0
ENDTAB
  0
TABLE
  2
LAYER
  5
2
330
0
100
AcDbSymbolTable
 70
     1
  0
LAYER
  5
10
330
2
100
AcDbSymbolTableRecord
100
AcDbLayerTableRecord
  2
0
 70
     0
 62
     7
  6
Continuous
370
    -3
390
F
  0
ENDTAB
  0
TABLE
  2
STYLE
  5
3
330
0
100
AcDbSymbolTable
 70
     3
  0
STYLE
  5
11
330
3
100
AcDbSymbolTableRecord
100
AcDbTextStyleTableRecord
  2
Standard
 70
     0
 40
0.0
 41
1.0
 50
0.0
 71
     0
 42
10.0
  3
txt
  4

  0
STYLE
  5
76
330
3
100
AcDbSymbolTableRecord
100
AcDbTextStyleTableRecord
  2
SLDTEXTSTYLE0
 70
     0
 40
0.0
 41
0.96
 50
0.0
 71
     0
 42
10.0
  3
ISOCP3
  4

  0
STYLE
  5
8D
330
3
100
AcDbSymbolTableRecord
100
AcDbTextStyleTableRecord
  2
SLDTEXTSTYLE1
 70
     0
 40
0.0
 41
0.605
 50
0.0
 71
     0
 42
10.0
  3
TXT
  4

  0
ENDTAB
  0
TABLE
  2
VIEW
  5
6
330
0
100
AcDbSymbolTable
 70
     0
  0
ENDTAB
  0
TABLE
  2
UCS
  5
7
330
0
100
AcDbSymbolTable
 70
     0
  0
ENDTAB
  0
TABLE
  2
APPID
  5
9
330
0
100
AcDbSymbolTable
 70
     1
  0
APPID
  5
12
330
9
100
AcDbSymbolTableRecord
100
AcDbRegAppTableRecord
  2
ACAD
 70
     0
  0
ENDTAB
  0
TABLE
  2
DIMSTYLE
  5
A
330
0
100
AcDbSymbolTable
 70
     2
100
AcDbDimStyleTable
  0
DIMSTYLE
105
27
330
A
100
AcDbSymbolTableRecord
100
AcDbDimStyleTableRecord
  2
ISO-25
 70
     0
 41
2.5
 42
0.625
 43
3.75
 44
1.25
 73
     0
 74
     0
 77
     1
 78
     8
140
2.5
141
2.5
143
0.0393700787
147
0.625
171
     3
172
     1
178
     0
271
     2
272
     2
274
     3
278
    44
283
     0
284
     8
340
11
  0
DIMSTYLE
105
77
102
{ACAD_REACTORS
330
75
330
82
102
}
330
A
100
AcDbSymbolTableRecord
100
AcDbDimStyleTableRecord
  2
SLDDIMSTYLE0
 70
     0
 41
2.5
 44
0.0
 45
0.000000001
 73
     0
 74
     0
 77
     1
 78
    12
 79
     3
140
6.0
147
1.5
173
     1
178
     0
271
     2
272
     2
276
     2
284
    12
340
76
  0
ENDTAB
  0
TABLE
  2
BLOCK_RECORD
  5
1
330
0
100
AcDbSymbolTable
 70
     3
  0
BLOCK_RECORD
  5
1F
330
1
100
AcDbSymbolTableRecord
100
AcDbBlockTableRecord
  2
*Model_Space
340
22
  0
BLOCK_RECORD
  5
1B
330
1
100
AcDbSymbolTableRecord
100
AcDbBlockTableRecord
  2
*Paper_Space
340
1E
  0
BLOCK_RECORD
  5
23
330
1
100
AcDbSymbolTableRecord
100
AcDbBlockTableRecord
  2
*Paper_Space0
340
26
  0
BLOCK_RECORD
  5
78
330
1
100
AcDbSymbolTableRecord
100
AcDbBlockTableRecord
  2
_D
340
0
  0
BLOCK_RECORD
  5
83
330
1
100
AcDbSymbolTableRecord
100
AcDbBlockTableRecord
  2
_D_1
340
0
  0
ENDTAB
  0
ENDSEC
  0
SECTION
  2
BLOCKS
  0
BLOCK
  5
20
330
1F
100
AcDbEntity
  8
0
100
AcDbBlockBegin
  2
*Model_Space
 70
     0
 10
0.0
 20
0.0
 30
0.0
  3
*Model_Space
  1

  0
ENDBLK
  5
21
330
1F
100
AcDbEntity
  8
0
100
AcDbBlockEnd
  0
BLOCK
  5
1C
330
1B
100
AcDbEntity
 67
     1
  8
0
100
AcDbBlockBegin
  2
*Paper_Space
 70
     0
 10
0.0
 20
0.0
 30
0.0
  3
*Paper_Space
  1

  0
ENDBLK
  5
1D
330
1B
100
AcDbEntity
 67
     1
  8
0
100
AcDbBlockEnd
  0
BLOCK
  5
24
330
23
100
AcDbEntity
  8
0
100
AcDbBlockBegin
  2
*Paper_Space0
 70
     0
 10
0.0
 20
0.0
 30
0.0
  3
*Paper_Space0
  1

  0
ENDBLK
  5
25
330
23
100
AcDbEntity
  8
0
100
AcDbBlockEnd
  0
BLOCK
  5
79
330
78
100
AcDbEntity
  8
0
100
AcDbBlockBegin
  2
_D
 70
     0
 10
0.0
 20
0.0
 30
0.0
  3
_D
  1

  0
SOLID
  5
7B
330
78
100
AcDbEntity
  8
0
  6
Continuous
 62
     7
370
    18
100
AcDbTrace
 10
42.7614395004
 20
152.0299240879
 30
0.0
 11
42.4614395004
 21
149.5299240879
 31
0.0
 12
43.0614395004
 22
149.5299240879
 32
0.0
 13
43.0614395004
 23
149.5299240879
 33
0.0
  0
SOLID
  5
7C
330
78
100
AcDbEntity
  8
0
  6
Continuous
 62
     7
370
    18
100
AcDbTrace
 10
42.7614395004
 20
52.0299240879
 30
0.0
 11
43.0614395004
 21
54.5299240879
 31
0.0
 12
42.4614395004
 22
54.5299240879
 32
0.0
 13
42.4614395004
 23
54.5299240879
 33
0.0
  0
LINE
  5
7D
330
78
100
AcDbEntity
  8
0
  6
Continuous
 62
     7
370
     0
100
AcDbLine
 10
56.6850079902
 20
152.0299240879
 30
0.0
 11
41.7614395004
 21
152.0299240879
 31
0.0
  0
LINE
  5
7E
330
78
100
AcDbEntity
  8
0
  6
Continuous
 62
     7
370
     0
100
AcDbLine
 10
56.6850079902
 20
52.0299240879
 30
0.0
 11
41.7614395004
 21
52.0299240879
 31
0.0
  0
LINE
  5
7F
330
78
100
AcDbEntity
  8
0
  6
Continuous
 62
     7
370
     0
100
AcDbLine
 10
42.7614395004
 20
152.0299240879
 30
0.0
 11
42.7614395004
 21
52.0299240879
 31
0.0
  0
MTEXT
  5
80
330
78
100
AcDbEntity
  8
0
  6
Continuous
 62
     7
370
    18
100
AcDbMText
 10
35.0270332946
 20
94.3680541463
 30
0.0
 40
6.0
 41
0.0
 71
     1
 72
     1
  1
100
  7
SLDTEXTSTYLE0
 11
-7.044195017643634E-15
 21
1.0
 31
0.0
 73
     1
 44
1.0
  0
MTEXT
  5
81
330
78
100
AcDbEntity
  8
0
  6
Continuous
 62
     7
370
    18
100
AcDbMText
 10
35.0270332946
 20
105.7430548466
 30
0.0
 40
6.0
 41
0.0
 71
     1
 72
     1
  1
mm
  7
SLDTEXTSTYLE0
 11
-7.044195017643634E-15
 21
1.0
 31
0.0
 73
     1
 44
1.0
  0
ENDBLK
  5
7A
330
78
100
AcDbEntity
  8
0
100
AcDbBlockEnd
  0
BLOCK
  5
84
330
83
100
AcDbEntity
  8
0
100
AcDbBlockBegin
  2
_D_1
 70
     0
 10
0.0
 20
0.0
 30
0.0
  3
_D_1
  1

  0
SOLID
  5
86
330
83
100
AcDbEntity
  8
0
  6
Continuous
 62
     7
370
    18
100
AcDbTrace
 10
56.6850079902
 20
38.4602342313
 30
0.0
 11
59.1850079902
 21
38.1602342313
 31
0.0
 12
59.1850079902
 22
38.7602342313
 32
0.0
 13
59.1850079902
 23
38.7602342313
 33
0.0
  0
SOLID
  5
87
330
83
100
AcDbEntity
  8
0
  6
Continuous
 62
     7
370
    18
100
AcDbTrace
 10
156.6850079902
 20
38.4602342313
 30
0.0
 11
154.1850079902
 21
38.7602342313
 31
0.0
 12
154.1850079902
 22
38.1602342313
 32
0.0
 13
154.1850079902
 23
38.1602342313
 33
0.0
  0
LINE
  5
88
330
83
100
AcDbEntity
  8
0
  6
Continuous
 62
     7
370
     0
100
AcDbLine
 10
56.6850079902
 20
52.0299240879
 30
0.0
 11
56.6850079902
 21
37.4602342313
 31
0.0
  0
LINE
  5
89
330
83
100
AcDbEntity
  8
0
  6
Continuous
 62
     7
370
     0
100
AcDbLine
 10
156.6850079902
 20
52.0299240879
 30
0.0
 11
156.6850079902
 21
37.4602342313
 31
0.0
  0
LINE
  5
8A
330
83
100
AcDbEntity
  8
0
  6
Continuous
 62
     7
370
     0
100
AcDbLine
 10
56.6850079902
 20
38.4602342313
 30
0.0
 11
156.6850079902
 21
38.4602342313
 31
0.0
  0
MTEXT
  5
8B
330
83
100
AcDbEntity
  8
0
  6
Continuous
 62
     7
370
    18
100
AcDbMText
 10
93.9626484861
 20
46.1946404371
 30
0.0
 40
6.0
 41
0.0
 71
     1
 72
     1
  1
100
  7
SLDTEXTSTYLE0
 73
     1
 44
1.0
  0
MTEXT
  5
8C
330
83
100
AcDbEntity
  8
0
  6
Continuous
 62
     7
370
    18
100
AcDbMText
 10
105.3376491864
 20
46.1946404371
 30
0.0
 40
6.0
 41
0.0
 71
     1
 72
     1
  1
mm
  7
SLDTEXTSTYLE0
 73
     1
 44
1.0
  0
ENDBLK
  5
85
330
83
100
AcDbEntity
  8
0
100
AcDbBlockEnd
  0
ENDSEC
  0
SECTION
  2
ENTITIES
  0
LINE
  5
73
330
1F
100
AcDbEntity
  8
0
  6
Continuous
 62
     7
370
    18
100
AcDbLine
 10
56.6850079902
 20
152.0299240879
 30
0.0
 11
56.6850079902
 21
52.0299240879
 31
0.0
  0
LINE
  5
74
330
1F
100
AcDbEntity
  8
0
  6
Continuous
 62
     7
370
    18
100
AcDbLine
 10
56.6850079902
 20
52.0299240879
 30
0.0
 11
156.6850079902
 21
52.0299240879
 31
0.0
  0
DIMENSION
  5
75
330
1F
100
AcDbEntity
  8
0
  6
Continuous
 62
     7
370
    18
100
AcDbDimension
  2
_D
 10
42.7614395004
 20
52.0299240879
 30
0.0
 11
42.7614395004
 21
105.4472211621
 31
0.0
 70
   160
  1
<>mm
 71
     2
 42
-1.0
  3
SLDDIMSTYLE0
100
AcDbAlignedDimension
 13
56.6850079902
 23
152.0299240879
 33
0.0
 14
56.6850079902
 24
52.0299240879
 34
0.0
 50
90.0
100
AcDbRotatedDimension
  0
DIMENSION
  5
82
330
1F
100
AcDbEntity
  8
0
  6
Continuous
 62
     7
370
    18
100
AcDbDimension
  2
_D_1
 10
156.6850079902
 20
38.4602342313
 30
0.0
 11
105.0418155019
 21
38.4602342313
 31
0.0
 70
   160
  1
<>mm
 71
     2
 42
-1.0
  3
SLDDIMSTYLE0
100
AcDbAlignedDimension
 13
56.6850079902
 23
52.0299240879
 33
0.0
 14
156.6850079902
 24
52.0299240879
 34
0.0
100
AcDbRotatedDimension
  0
MTEXT
  5
8E
330
1F
100
AcDbEntity
  8
0
  6
Continuous
 62
     7
370
     0
100
AcDbMText
 10
288.1125836472
 20
48.3299201829
 30
0.0
 40
10.0
 41
0.0
 71
     1
 72
     1
  1
38 100 ..
  7
SLDTEXTSTYLE1
 73
     1
 44
1.0
  0
MTEXT
  5
8F
330
1F
100
AcDbEntity
  8
0
  6
Continuous
 62
     7
370
     0
100
AcDbMText
 10
412.8252631579
 20
48.4342449499
 30
0.0
 40
10.0
 41
0.0
 71
     1
 72
     1
  1
KLUDI GmbH & Co KG
  7
SLDTEXTSTYLE1
 73
     1
 44
1.0
  0
LINE
  5
90
330
1F
100
AcDbEntity
  8
0
  6
Continuous
 62
     7
370
    25
100
AcDbLine
 10
130.7995244769
 20
339.2472650572
 30
0.0
 11
130.7995244769
 21
340.6030198905
 31
0.0
  0
LINE
  5
91
330
1F
100
AcDbEntity
  8
0
  6
Continuous
 62
     7
370
    25
100
AcDbLine
 10
106.7995244769
 20
340.6030198905
 30
0.0
 11
106.7995244769
 21
339.2472650572
 31
0.0
  0
LINE
  5
92
330
1F
100
AcDbEntity
  8
0
  6
Continuous
 62
     7
370
    25
100
AcDbLine
 10
107.7995244769
 20
335.0970183
 30
0.0
 11
108.1304043921
 21
334.9135341848
 31
0.0
  0
LINE
  5
93
330
1F
100
AcDbEntity
  8
0
  6
Continuous
 62
     7
370
    25
100
AcDbLine
 10
129.4686445616
 20
334.9135341848
 30
0.0
 11
129.7995244769
 21
335.0970183
 31
0.0
  0
SPLINE
  5
94
330
1F
100
AcDbEntity
  8
0
  6
Continuous
 62
     7
370
    25
100
AcDbSpline
210
0.0
220
0.0
230
1.0
 70
     8
 71
     3
 72
     9
 73
     5
 74
     0
 42
0.00000001
 43
0.00000001
 40
0.0
 40
0.0
 40
0.0
 40
0.0
 40
0.4111250474514282
 40
1.0
 40
1.0
 40
1.0
 40
1.0
 10
106.3771663722342
 20
339.9567797598935
 30
0.0
 10
106.3122223635453
 20
339.9566726738421
 30
0.0
 10
106.1542558054592
 20
339.9564122030873
 30
0.0
 10
106.0098986142643
 20
339.955831930901
 30
0.0
 10
105.9248902801494
 20
339.9554902231447
 30
0.0
  0
LINE
  5
95
330
1F
100
AcDbEntity
  8
0
  6
Continuous
 62
     7
370
    25
100
AcDbLine
 10
130.9424175146
 20
339.9574665575
 30
0.0
 11
130.7995244769
 21
339.957762377
 31
0.0
  0
LINE
  5
96
330
1F
100
AcDbEntity
  8
0
  6
Continuous
 62
     7
370
    25
100
AcDbLine
 10
106.7995244769
 20
339.9576030848
 30
0.0
 11
106.3771663722
 21
339.9567797599
 31
0.0
  0
SPLINE
  5
97
330
1F
100
AcDbEntity
  8
0
  6
Continuous
 62
     7
370
    25
100
AcDbSpline
210
0.0
220
0.0
230
1.0
 70
     8
 71
     3
 72
    20
 73
    16
 74
     0
 42
0.00000001
 43
0.00000001
 40
0.0
 40
0.0
 40
0.0
 40
0.0
 40
0.0268795805657641
 40
0.0776827985427886
 40
0.13402711600454
 40
0.2011791349276496
 40
0.2808942931711215
 40
0.3627277416232508
 40
0.4445424083606732
 40
0.5678476356224039
 40
0.6924800869288792
 40
0.8103746466214933
 40
0.9181859204271586
 40
0.9869700441994422
 40
0.9999999999999999
 40
0.9999999999999999
 40
0.9999999999999999
 40
0.9999999999999999
 10
104.9710077515134
 20
358.848669346722
 30
0.0
 10
105.1795390575798
 20
358.8586110874921
 30
0.0
 10
105.7822008215679
 20
358.8873430181675
 30
0.0
 10
106.8083073078249
 20
358.9312854430001
 30
0.0
 10
108.2734866675343
 20
358.9907031025379
 30
0.0
 10
110.0743721020996
 20
359.0607428591349
 30
0.0
 10
112.1482713178132
 20
359.1441047114519
 30
0.0
 10
114.3735505747246
 20
359.2291146237181
 30
0.0
 10
117.0120048929594
 20
359.2944694498948
 30
0.0
 10
120.0528620501004
 20
359.2953861715246
 30
0.0
 10
123.4217387535364
 20
359.2139015482296
 30
0.0
 10
126.6256857398041
 20
359.0941867489597
 30
0.0
 10
129.2481707650816
 20
358.9943553454282
 30
0.0
 10
130.8227079784818
 20
358.931468496814
 30
0.0
 10
131.471163583008
 20
358.9007808106535
 30
0.0
 10
131.5744385683127
 20
358.8958933976755
 30
0.0
  0
LINE
  5
98
330
1F
100
AcDbEntity
  8
0
  6
Continuous
 62
     7
370
    25
100
AcDbLine
 10
96.2995244769
 20
383.8244598338
 30
0.0
 11
96.2995244769
 21
260.3244598338
 31
0.0
  0
LINE
  5
99
330
1F
100
AcDbEntity
  8
0
  6
Continuous
 62
     7
370
    25
100
AcDbLine
 10
141.2995244769
 20
322.7975207275
 30
0.0
 11
141.2995244769
 21
383.8244598338
 31
0.0
  0
LINE
  5
9A
330
1F
100
AcDbEntity
  8
0
  6
Continuous
 62
     7
370
    25
100
AcDbLine
 10
141.2995244769
 20
260.3244598338
 30
0.0
 11
141.2995244769
 21
312.9851571857
 31
0.0
  0
LINE
  5
9B
330
1F
100
AcDbEntity
  8
0
  6
Continuous
 62
     7
370
    25
100
AcDbLine
 10
96.2995244769
 20
393.6244598338
 30
0.0
 11
96.2995244769
 21
384.0244598338
 31
0.0
  0
LINE
  5
9C
330
1F
100
AcDbEntity
  8
0
  6
Continuous
 62
     7
370
    25
100
AcDbLine
 10
141.2995244769
 20
384.0244598338
 30
0.0
 11
141.2995244769
 21
393.6244598338
 31
0.0
  0
ARC
  5
9D
330
1F
100
AcDbEntity
  8
0
  6
Continuous
 62
     7
370
    25
100
AcDbCircle
 10
141.0995244769
 20
384.0244598338
 30
0.0
 40
0.1999999999999886
100
AcDbArc
 50
270.0
 51
0.0
  0
ARC
  5
9E
330
1F
100
AcDbEntity
  8
0
  6
Continuous
 62
     7
370
    25
100
AcDbCircle
 10
96.4995244769
 20
384.0244598338
 30
0.0
 40
0.1999999999999886
100
AcDbArc
 50
180.0
 51
270.0
  0
ARC
  5
9F
330
1F
100
AcDbEntity
  8
0
  6
Continuous
 62
     7
370
    25
100
AcDbCircle
 10
96.4995244769
 20
393.6244598338
 30
0.0
 40
0.2000000000000455
100
AcDbArc
 50
90.0
 51
180.0
  0
ARC
  5
A0
330
1F
100
AcDbEntity
  8
0
  6
Continuous
 62
     7
370
    25
100
AcDbCircle
 10
141.0995244769
 20
393.6244598338
 30
0.0
 40
0.2000000000000455
100
AcDbArc
 50
0.0
 51
90.0
  0
LINE
  5
A1
330
1F
100
AcDbEntity
  8
0
  6
Continuous
 62
     7
370
    25
100
AcDbLine
 10
148.9995244769
 20
325.3888191877
 30
0.0
 11
142.9995244769
 21
325.3888191877
 31
0.0
  0
LINE
  5
A2
330
1F
100
AcDbEntity
  8
0
  6
Continuous
 62
     7
370
    25
100
AcDbLine
 10
159.4995244769
 20
325.3888191877
 30
0.0
 11
156.9580424318
 21
325.3888191877
 31
0.0
  0
LINE
  5
A3
330
1F
100
AcDbEntity
  8
0
  6
Continuous
 62
     7
370
    25
100
AcDbLine
 10
142.9995244769
 20
310.3888191877
 30
0.0
 11
159.4995244769
 21
310.3888191877
 31
0.0
  0
ARC
  5
A4
330
1F
100
AcDbEntity
  8
0
  6
Continuous
 62
     7
370
    25
100
AcDbCircle
 10
159.4995244769
 20
324.8888191877
 30
0.0
 40
0.5
100
AcDbArc
 50
0.0
 51
90.0
  0
ARC
  5
A5
330
1F
100
AcDbEntity
  8
0
  6
Continuous
 62
     7
370
    25
100
AcDbCircle
 10
159.4995244769
 20
310.8888191877
 30
0.0
 40
0.5
100
AcDbArc
 50
270.0
 51
0.0
  0
ARC
  5
A6
330
1F
100
AcDbEntity
  8
0
  6
Continuous
 62
     7
370
    25
100
AcDbCircle
 10
142.9995244769
 20
310.8888191877
 30
0.0
 40
0.5
100
AcDbArc
 50
180.0
 51
270.0
  0
ARC
  5
A7
330
1F
100
AcDbEntity
  8
0
  6
Continuous
 62
     7
370
    25
100
AcDbCircle
 10
142.9995244769
 20
324.8888191877
 30
0.0
 40
0.5
100
AcDbArc
 50
90.0
 51
180.0
  0
LINE
  5
A8
330
1F
100
AcDbEntity
  8
0
  6
Continuous
 62
     7
370
    25
100
AcDbLine
 10
141.2895595503
 20
312.9388191877
 30
0.0
 11
142.4995244769
 21
312.9388191877
 31
0.0
  0
LINE
  5
A9
330
1F
100
AcDbEntity
  8
0
  6
Continuous
 62
     7
370
    25
100
AcDbLine
 10
142.4995244769
 20
322.8388191877
 30
0.0
 11
141.2906609987
 21
322.8388191877
 31
0.0
  0
ARC
  5
AA
330
1F
100
AcDbEntity
  8
0
  6
Continuous
 62
     7
370
    25
100
AcDbCircle
 10
155.9995244769
 20
341.8888191877
 30
0.0
 40
1.0
100
AcDbArc
 50
0.0
 51
90.0
  0
ARC
  5
AB
330
1F
100
AcDbEntity
  8
0
  6
Continuous
 62
     7
370
    25
100
AcDbCircle
 10
149.9995244769
 20
341.8888191877
 30
0.0
 40
1.0
100
AcDbArc
 50
90.0
 51
180.0
  0
LINE
  5
AC
330
1F
100
AcDbEntity
  8
0
  6
Continuous
 62
     7
370
    25
100
AcDbLine
 10
156.9995244769
 20
325.3669818604
 30
0.0
 11
156.9995244769
 21
341.8888191877
 31
0.0
  0
LINE
  5
AD
330
1F
100
AcDbEntity
  8
0
  6
Continuous
 62
     7
370
    25
100
AcDbLine
 10
148.9995244769
 20
341.8888191877
 30
0.0
 11
148.9995244769
 21
325.3888191877
 31
0.0
  0
SPLINE
  5
AE
330
1F
100
AcDbEntity
  8
0
  6
Continuous
 62
     7
370
    25
100
AcDbSpline
210
0.0
220
0.0
230
1.0
 70
     8
 71
     3
 72
    36
 73
    32
 74
     0
 42
0.00000001
 43
0.00000001
 40
0.0
 40
0.0
 40
0.0
 40
0.0
 40
0.0078124999999996
 40
0.0078124999999996
 40
0.0156249999999993
 40
0.0156249999999993
 40
0.0312499999999986
 40
0.0312499999999986
 40
0.0468749999999979
 40
0.0468749999999979
 40
0.0624999999999972
 40
0.0624999999999972
 40
0.0781249999999964
 40
0.0781249999999964
 40
0.0859374999999962
 40
0.0859374999999962
 40
0.0937499999999959
 40
0.0937499999999959
 40
0.1015624999999956
 40
0.1015624999999956
 40
0.1093749999999957
 40
0.1093749999999957
 40
0.1249999999999958
 40
0.1249999999999958
 40
0.1874999999999959
 40
0.1874999999999959
 40
0.2499999999999961
 40
0.2499999999999961
 40
0.4999999999999976
 40
0.4999999999999976
 40
1.0
 40
1.0
 40
1.0
 40
1.0
 10
128.4858694636067
 20
342.0320231126555
 30
0.0
 10
128.7869716663831
 20
342.0319984860675
 30
0.0
 10
129.0939709963342
 20
342.0319830657947
 30
0.0
 10
129.7043375912701
 20
342.0318486797825
 30
0.0
 10
130.0088020180412
 20
342.0316879604158
 30
0.0
 10
130.9017632786561
 20
342.0309617258112
 30
0.0
 10
131.4724872084979
 20
342.0302699640493
 30
0.0
 10
132.5394852303826
 20
342.0282101799299
 30
0.0
 10
133.0340981735432
 20
342.0268069436385
 30
0.0
 10
133.9096402190328
 20
342.0237187612948
 30
0.0
 10
134.2889457915921
 20
342.0220434540755
 30
0.0
 10
134.9071472192837
 20
342.0184404106424
 30
0.0
 10
135.149128345299
 20
342.0164701861087
 30
0.0
 10
135.3928060707318
 20
342.0136994077993
 30
0.0
 10
135.4517013712359
 20
342.0128698624148
 30
0.0
 10
135.5258973704118
 20
342.0107768080725
 30
0.0
 10
135.5436016208323
 20
342.009505484136
 30
0.0
 10
135.5610989842316
 20
342.0065550919846
 30
0.0
 10
135.5609092237855
 20
342.004881938865
 30
0.0
 10
135.5630193072071
 20
342.0014258839415
 30
0.0
 10
135.5662119275631
 20
341.999672664498
 30
0.0
 10
135.5780844036394
 20
341.9944966076233
 30
0.0
 10
135.5873702817458
 20
341.9911163972781
 30
0.0
 10
135.6201822167124
 20
341.9746847544266
 30
0.0
 10
135.6368263110097
 20
341.9625817192849
 30
0.0
 10
135.6764424636433
 20
341.9394984021625
 30
0.0
 10
135.697285608581
 20
341.9286329681636
 30
0.0
 10
135.8009540095596
 20
341.8787100179255
 30
0.0
 10
135.8863900894363
 20
341.8518605314947
 30
0.0
 10
136.1486567168196
 20
341.796788123762
 30
0.0
 10
136.3307807870569
 20
341.7944695099728
 30
0.0
 10
136.5108564066358
 20
341.7954698082619
 30
0.0
  0
SPLINE
  5
AF
330
1F
100
AcDbEntity
  8
0
  6
Continuous
 62
     7
370
    25
100
AcDbSpline
210
0.0
220
0.0
230
1.0
 70
     8
 71
     3
 72
    14
 73
    10
 74
     0
 42
0.00000001
 43
0.00000001
 40
0.0
 40
0.0
 40
0.0
 40
0.0
 40
0.0005842952070931
 40
0.0005842952070931
 40
0.0005842952070931
 40
0.0033842809732692
 40
0.0033842809732692
 40
0.0033842809732692
 40
0.0096857313326998
 40
0.0096857313326998
 40
0.0096857313326998
 40
0.0096857313326998
 10
128.4858694636069
 20
342.0320231126555
 30
0.0
 10
128.2911194390472
 20
342.0320390413078
 30
0.0
 10
128.0963370671014
 20
342.0320411980447
 30
0.0
 10
127.9015742569157
 20
342.0320408345278
 30
0.0
 10
126.968248755835
 20
342.0320390925132
 30
0.0
 10
126.0349088805706
 20
342.0320215582618
 30
0.0
 10
125.1015725829049
 20
342.0320148074918
 30
0.0
 10
123.0010690843616
 20
342.0319996146658
 30
0.0
 10
120.9005687100825
 20
342.0320357978909
 30
0.0
 10
118.800065148393
 20
342.0320360376965
 30
0.0
  0
SPLINE
  5
B0
330
1F
100
AcDbEntity
  8
0
  6
Continuous
 62
     7
370
    25
100
AcDbSpline
210
0.0
220
0.0
230
1.0
 70
     8
 71
     3
 72
     8
 73
     4
 74
     0
 42
0.00000001
 43
0.00000001
 40
0.0700428695674534
 40
0.0700428695674534
 40
0.0700428695674534
 40
0.0700428695674534
 40
0.9224405637994217
 40
0.9224405637994217
 40
0.9224405637994217
 40
0.9224405637994217
 10
118.7989838056627
 20
342.0320352225049
 30
0.0
 10
118.7971447210527
 20
346.9044046242939
 30
0.0
 10
118.7968620379612
 20
351.76926212344
 30
0.0
 10
118.7981346798534
 20
356.6442768289704
 30
0.0
  0
SPLINE
  5
B1
330
1F
100
AcDbEntity
  8
0
  6
Continuous
 62
     7
370
    25
100
AcDbSpline
210
0.0
220
0.0
230
1.0
 70
     8
 71
     3
 72
    20
 73
    16
 74
     0
 42
0.00000001
 43
0.00000001
 40
0.0
 40
0.0
 40
0.0
 40
0.0
 40
0.1250000000000002
 40
0.1250000000000002
 40
0.1875000000000001
 40
0.1875000000000001
 40
0.2500000000000001
 40
0.2500000000000001
 40
0.3125
 40
0.3125
 40
0.3749999999999999
 40
0.3749999999999999
 40
0.4999999999999999
 40
0.4999999999999999
 40
1.0
 40
1.0
 40
1.0
 40
1.0
 10
131.3821772404491
 20
356.6214902628952
 30
0.0
 10
130.9015053730267
 20
356.6269299225298
 30
0.0
 10
130.3990370444416
 20
356.6298827124857
 30
0.0
 10
129.6284001355195
 20
356.6332725402062
 30
0.0
 10
129.368780523518
 20
356.634389817514
 30
0.0
 10
128.8378529134887
 20
356.6371870812289
 30
0.0
 10
128.5713442776617
 20
356.6390968062505
 30
0.0
 10
128.0418186099754
 20
356.6427234750402
 30
0.0
 10
127.7790951820717
 20
356.6442682450027
 30
0.0
 10
127.2509984044833
 20
356.646221341939
 30
0.0
 10
126.9865981659806
 20
356.646808397827
 30
0.0
 10
126.1939770746338
 20
356.6480512957443
 30
0.0
 10
125.6669076390042
 20
356.6482317849213
 30
0.0
 10
123.0254486348149
 20
356.6479277329262
 30
0.0
 10
120.9137613724145
 20
356.6442366382782
 30
0.0
 10
118.8009142742732
 20
356.6442753779385
 30
0.0
  0
SPLINE
  5
B2
330
1F
100
AcDbEntity
  8
0
  6
Continuous
 62
     7
370
    25
100
AcDbSpline
210
0.0
220
0.0
230
1.0
 70
     8
 71
     3
 72
    32
 73
    28
 74
     0
 42
0.00000001
 43
0.00000001
 40
0.0
 40
0.0
 40
0.0
 40
0.0
 40
0.4999999999999986
 40
0.4999999999999986
 40
0.749999999999998
 40
0.749999999999998
 40
0.8749999999999979
 40
0.8749999999999979
 40
0.9062499999999979
 40
0.9062499999999979
 40
0.921874999999998
 40
0.921874999999998
 40
0.9374999999999984
 40
0.9374999999999984
 40
0.9453124999999986
 40
0.9453124999999986
 40
0.9531249999999988
 40
0.9531249999999988
 40
0.960937499999999
 40
0.960937499999999
 40
0.9687499999999992
 40
0.9687499999999992
 40
0.9765624999999994
 40
0.9765624999999994
 40
0.9843749999999996
 40
0.9843749999999996
 40
1.0
 40
1.0
 40
1.0
 40
1.0
 10
136.5073898592022
 20
356.8728240333142
 30
0.0
 10
136.3324877323661
 20
356.8678138045854
 30
0.0
 10
136.1559100271922
 20
356.8597862266184
 30
0.0
 10
135.9001613864418
 20
356.7995400896456
 30
0.0
 10
135.8166806800858
 20
356.7716135950755
 30
0.0
 10
135.6944423220846
 20
356.7112526459415
 30
0.0
 10
135.6542491389178
 20
356.6879294250806
 30
0.0
 10
135.6057315665529
 20
356.6556310948076
 30
0.0
 10
135.5956446246263
 20
356.6489635606305
 30
0.0
 10
135.5737510655667
 20
356.6383140850818
 30
0.0
 10
135.5625788061175
 20
356.6346927703563
 30
0.0
 10
135.5608601864972
 20
356.6267838331116
 30
0.0
 10
135.5710327043708
 20
356.6225200088719
 30
0.0
 10
135.4862346898687
 20
356.6176037405205
 30
0.0
 10
135.4397084753479
 20
356.6162986281912
 30
0.0
 10
135.3011756748
 20
356.6137201678658
 30
0.0
 10
135.2106004397063
 20
356.6124144422715
 30
0.0
 10
134.9910358810297
 20
356.6099521742011
 30
0.0
 10
134.8631262833519
 20
356.6088476482922
 30
0.0
 10
134.5737218301862
 20
356.6071633973146
 30
0.0
 10
134.4119141583284
 20
356.6065721375661
 30
0.0
 10
134.0516508752553
 20
356.6060809856349
 30
0.0
 10
133.8522700455887
 20
356.6061923832081
 30
0.0
 10
133.426608869291
 20
356.6071300816402
 30
0.0
 10
133.2003729452062
 20
356.6079403544927
 30
0.0
 10
132.4849122997388
 20
356.6113674404123
 30
0.0
 10
131.9594442358143
 20
356.6150555398347
 30
0.0
 10
131.382419394731
 20
356.6214976950533
 30
0.0
  0
SPLINE
  5
B3
330
1F
100
AcDbEntity
  8
0
  6
Continuous
 62
     7
370
    25
100
AcDbSpline
210
0.0
220
0.0
230
1.0
 70
     8
 71
     3
 72
     8
 73
     4
 74
     0
 42
0.00000001
 43
0.00000001
 40
0.0943514823238665
 40
0.0943514823238665
 40
0.0943514823238665
 40
0.0943514823238665
 40
0.8992676120841631
 40
0.8992676120841631
 40
0.8992676120841631
 40
0.8992676120841631
 10
136.5073941699768
 20
356.8727195408233
 30
0.0
 10
136.6983096132328
 20
351.8454947587515
 30
0.0
 10
136.699468058136
 20
346.8228772917792
 30
0.0
 10
136.5108689490545
 20
341.7957479253889
 30
0.0
  0
SPLINE
  5
B4
330
1F
100
AcDbEntity
  8
0
  6
Continuous
 62
     7
370
    25
100
AcDbSpline
210
0.0
220
0.0
230
1.0
 70
     8
 71
     3
 72
    34
 73
    30
 74
     0
 42
0.00000001
 43
0.00000001
 40
0.0
 40
0.0
 40
0.0
 40
0.0
 40
0.0078125
 40
0.0078125
 40
0.015625
 40
0.015625
 40
0.0234374999999999
 40
0.0234374999999999
 40
0.0312499999999999
 40
0.0312499999999999
 40
0.0390624999999999
 40
0.0390624999999999
 40
0.0468749999999999
 40
0.0468749999999999
 40
0.0546874999999998
 40
0.0546874999999998
 40
0.0624999999999998
 40
0.0624999999999998
 40
0.0781249999999998
 40
0.0781249999999998
 40
0.0937499999999997
 40
0.0937499999999997
 40
0.1249999999999996
 40
0.1249999999999996
 40
0.2499999999999996
 40
0.2499999999999996
 40
0.4999999999999999
 40
0.4999999999999999
 40
1.0
 40
1.0
 40
1.0
 40
1.0
 10
106.2166298650419
 20
356.6214976984699
 30
0.0
 10
105.9340867495859
 20
356.6183432643972
 30
0.0
 10
105.6710490648919
 20
356.6159338546482
 30
0.0
 10
105.1645189369421
 20
356.6120050785329
 30
0.0
 10
104.9197193445987
 20
356.6104825579802
 30
0.0
 10
104.4505855054054
 20
356.6081347527963
 30
0.0
 10
104.2258107664425
 20
356.6072926125685
 30
0.0
 10
103.8062484660535
 20
356.6062497853941
 30
0.0
 10
103.6125257824709
 20
356.6060607401482
 30
0.0
 10
103.256500808808
 20
356.6063532169624
 30
0.0
 10
103.0940186861395
 20
356.606835455852
 30
0.0
 10
102.800240829949
 20
356.6083186845634
 30
0.0
 10
102.6694613516954
 20
356.6093243502118
 30
0.0
 10
102.4448834276791
 20
356.611597922404
 30
0.0
 10
102.349953145485
 20
356.6128441281955
 30
0.0
 10
102.1969592087609
 20
356.6153328210455
 30
0.0
 10
102.1401871555445
 20
356.616575649752
 30
0.0
 10
102.0326176466913
 20
356.6211994141266
 30
0.0
 10
102.0368007630496
 20
356.6253898656081
 30
0.0
 10
102.0377887616335
 20
356.6333623557104
 30
0.0
 10
102.0277378538147
 20
356.6370428533313
 30
0.0
 10
102.0050041912486
 20
356.6477430488539
 30
0.0
 10
101.9947846710772
 20
356.6544355285062
 30
0.0
 10
101.9459132779111
 20
356.6867983791696
 30
0.0
 10
101.9058913183585
 20
356.7101573741608
 30
0.0
 10
101.7834676305433
 20
356.7706955381911
 30
0.0
 10
101.6998659359782
 20
356.7987250569354
 30
0.0
 10
101.4437209055069
 20
356.8592917889491
 30
0.0
 10
101.2668470391189
 20
356.8675357144292
 30
0.0
 10
101.0916568482564
 20
356.8727651126923
 30
0.0
  0
SPLINE
  5
B5
330
1F
100
AcDbEntity
  8
0
  6
Continuous
 62
     7
370
    25
100
AcDbSpline
210
0.0
220
0.0
230
1.0
 70
     8
 71
     3
 72
    20
 73
    16
 74
     0
 42
0.00000001
 43
0.00000001
 40
0.0
 40
0.0
 40
0.0
 40
0.0
 40
0.5000000000000009
 40
0.5000000000000009
 40
0.6250000000000011
 40
0.6250000000000011
 40
0.6875000000000012
 40
0.6875000000000012
 40
0.7500000000000013
 40
0.7500000000000013
 40
0.8125000000000014
 40
0.8125000000000014
 40
0.8750000000000016
 40
0.8750000000000016
 40
1.0
 40
1.0
 40
1.0
 40
1.0
 10
118.7981346794887
 20
356.6442754318423
 30
0.0
 10
116.6859856975971
 20
356.644318572117
 30
0.0
 10
114.5725460968071
 20
356.647672865535
 30
0.0
 10
111.9326521972206
 20
356.6481849542297
 30
0.0
 10
111.4046847468544
 20
356.647969947442
 30
0.0
 10
110.6123060739492
 20
356.6467440282232
 30
0.0
 10
110.348148593751
 20
356.6461808502837
 30
0.0
 10
109.8201830943078
 20
356.6443291883946
 30
0.0
 10
109.5567070068935
 20
356.6428670042044
 30
0.0
 10
109.0273806319359
 20
356.6393541037606
 30
0.0
 10
108.7616859588137
 20
356.6374435594829
 30
0.0
 10
108.2300401301158
 20
356.6346111006595
 30
0.0
 10
107.9706048367516
 20
356.6334658739439
 30
0.0
 10
107.1997906862974
 20
356.6299292217764
 30
0.0
 10
106.6975708425083
 20
356.626936968166
 30
0.0
 10
106.2168893941886
 20
356.621492723426
 30
0.0
  0
SPLINE
  5
B6
330
1F
100
AcDbEntity
  8
0
  6
Continuous
 62
     7
370
    25
100
AcDbSpline
210
0.0
220
0.0
230
1.0
 70
     8
 71
     3
 72
    15
 73
    11
 74
     0
 42
0.00000001
 43
0.00000001
 40
0.0
 40
0.0
 40
0.0
 40
0.0
 40
0.5
 40
0.5
 40
0.7500000000000001
 40
0.7500000000000001
 40
0.8750000000000003
 40
0.9375000000000002
 40
0.9375000000000002
 40
1.0
 40
1.0
 40
1.0
 40
1.0
 10
118.798983805355
 20
342.0320360376965
 30
0.0
 10
117.18467858397
 20
342.0320358533981
 30
0.0
 10
115.5703766791959
 20
342.0320217466978
 30
0.0
 10
113.148923334118
 20
342.0320102223248
 30
0.0
 10
112.34177249144
 20
342.0320149659506
 30
0.0
 10
111.1310471831445
 20
342.032030815121
 30
0.0
 10
110.5256847718737
 20
342.0320382194639
 30
0.0
 10
109.9203228392159
 20
342.0320403944163
 30
0.0
 10
109.5167483347345
 20
342.0320411936361
 30
0.0
 10
109.3149611051444
 20
342.0320396166479
 30
0.0
 10
109.113173782354
 20
342.0320231121887
 30
0.0
  0
SPLINE
  5
B7
330
1F
100
AcDbEntity
  8
0
  6
Continuous
 62
     7
370
    25
100
AcDbSpline
210
0.0
220
0.0
230
1.0
 70
     8
 71
     3
 72
    36
 73
    32
 74
     0
 42
0.00000001
 43
0.00000001
 40
0.0
 40
0.0
 40
0.0
 40
0.0
 40
0.499999999999999
 40
0.499999999999999
 40
0.7499999999999984
 40
0.7499999999999984
 40
0.8124999999999984
 40
0.8124999999999984
 40
0.8749999999999984
 40
0.8749999999999984
 40
0.8906249999999988
 40
0.8906249999999988
 40
0.8984374999999991
 40
0.8984374999999991
 40
0.9062499999999994
 40
0.9062499999999994
 40
0.9140624999999998
 40
0.9140624999999998
 40
0.921875
 40
0.921875
 40
0.9375
 40
0.9375
 40
0.953125
 40
0.953125
 40
0.96875
 40
0.96875
 40
0.9843749999999999
 40
0.9843749999999999
 40
0.9921875
 40
0.9921875
 40
1.0
 40
1.0
 40
1.0
 40
1.0
 10
101.0881925471742
 20
341.7954698066566
 30
0.0
 10
101.2682681581041
 20
341.7944695020495
 30
0.0
 10
101.4503922194233
 20
341.7967881090612
 30
0.0
 10
101.7126588351327
 20
341.8518605072121
 30
0.0
 10
101.7980949114772
 20
341.8787099906028
 30
0.0
 10
101.9017633079185
 20
341.9286329363292
 30
0.0
 10
101.9226064509347
 20
341.9394983694003
 30
0.0
 10
101.9622226073507
 20
341.9625816855341
 30
0.0
 10
101.9788667061531
 20
341.9746847203534
 30
0.0
 10
102.0116786120872
 20
341.9911163615361
 30
0.0
 10
102.0209644712482
 20
341.9944965714614
 30
0.0
 10
102.0328369632086
 20
341.9996726279666
 30
0.0
 10
102.0360296152585
 20
342.0014258469768
 30
0.0
 10
102.0381397214173
 20
342.0048819028921
 30
0.0
 10
102.0379499225385
 20
342.0065550578966
 30
0.0
 10
102.0554470798169
 20
342.0095054546345
 30
0.0
 10
102.0731511672092
 20
342.0107767814432
 30
0.0
 10
102.1473467139723
 20
342.0128698409011
 30
0.0
 10
102.2062417198657
 20
342.0136993866943
 30
0.0
 10
102.449918682679
 20
342.0164701636481
 30
0.0
 10
102.6918994119547
 20
342.01844038901
 30
0.0
 10
103.3100999882746
 20
342.0220434345704
 30
0.0
 10
103.6894051430588
 20
342.0237187427708
 30
0.0
 10
104.5649464598782
 20
342.0268069274315
 30
0.0
 10
105.0595590903026
 20
342.0282101657073
 30
0.0
 10
106.1265565827864
 20
342.0302699543806
 30
0.0
 10
106.6972803048985
 20
342.0309617178319
 30
0.0
 10
107.5902413164703
 20
342.0316879558526
 30
0.0
 10
107.8947056644529
 20
342.0318486769763
 30
0.0
 10
108.5050721778764
 20
342.0319830650103
 30
0.0
 10
108.8120715096631
 20
342.0319984852591
 30
0.0
 10
109.1131737823539
 20
342.0320231121887
 30
0.0
  0
SPLINE
  5
B8
330
1F
100
AcDbEntity
  8
0
  6
Continuous
 62
     7
370
    25
100
AcDbSpline
210
0.0
220
0.0
230
1.0
 70
     8
 71
     3
 72
     8
 73
     4
 74
     0
 42
0.00000001
 43
0.00000001
 40
0.0943514823238665
 40
0.0943514823238665
 40
0.0943514823238665
 40
0.0943514823238665
 40
0.899267612084163
 40
0.899267612084163
 40
0.899267612084163
 40
0.899267612084163
 10
101.0881800046934
 20
341.7957479253889
 30
0.0
 10
100.899580895612
 20
346.8228772917792
 30
0.0
 10
100.9007393405152
 20
351.8454947587515
 30
0.0
 10
101.0916547837711
 20
356.8727195408233
 30
0.0
  0
SPLINE
  5
B9
330
1F
100
AcDbEntity
  8
0
  6
Continuous
 62
     7
370
    25
100
AcDbSpline
210
0.0
220
0.0
230
1.0
 70
     8
 71
     3
 72
    20
 73
    16
 74
     0
 42
0.00000001
 43
0.00000001
 40
0.0
 40
0.0
 40
0.0
 40
0.0
 40
0.4999999999999989
 40
0.4999999999999989
 40
0.6249999999999988
 40
0.6249999999999988
 40
0.687499999999999
 40
0.687499999999999
 40
0.7499999999999992
 40
0.7499999999999992
 40
0.8124999999999994
 40
0.8124999999999994
 40
0.8749999999999996
 40
0.8749999999999996
 40
1.0
 40
1.0
 40
1.0
 40
1.0
 10
118.8009394599377
 20
357.9938974492408
 30
0.0
 10
120.9098850635806
 20
357.9938585949682
 30
0.0
 10
123.0205130508649
 20
357.997134953307
 30
0.0
 10
125.668384903186
 20
357.9977972950913
 30
0.0
 10
126.1969035133346
 20
357.9977189960356
 30
0.0
 10
126.993232794151
 20
357.9968087115521
 30
0.0
 10
127.2591525936489
 20
357.9963683350492
 30
0.0
 10
127.791448511579
 20
357.9947934440601
 30
0.0
 10
128.0635293587285
 20
357.9934856724024
 30
0.0
 10
128.5645623902129
 20
357.9903183596493
 30
0.0
 10
128.7979114572251
 20
357.9886389680916
 30
0.0
 10
129.2195974742869
 20
357.9861903077519
 30
0.0
 10
129.4303637204214
 20
357.9852185193746
 30
0.0
 10
130.0556256947844
 20
357.9820932041079
 30
0.0
 10
130.4710044198499
 20
357.97918517984
 30
0.0
 10
130.8683264664136
 20
357.973594369861
 30
0.0
  0
SPLINE
  5
BA
330
1F
100
AcDbEntity
  8
0
  6
Continuous
 62
     7
370
    25
100
AcDbSpline
210
0.0
220
0.0
230
1.0
 70
     8
 71
     3
 72
    14
 73
    10
 74
     0
 42
0.00000001
 43
0.00000001
 40
0.0
 40
0.0
 40
0.0
 40
0.0
 40
0.25
 40
0.25
 40
0.5
 40
0.5
 40
0.75
 40
0.75
 40
1.0
 40
1.0
 40
1.0
 40
1.0
 10
130.868565730382
 20
357.9735670088267
 30
0.0
 10
130.9323862090935
 20
357.9606905194405
 30
0.0
 10
130.9992905232313
 20
357.9204605880439
 30
0.0
 10
131.1262196131952
 20
357.7758316797233
 30
0.0
 10
131.1859282391426
 20
357.6712035241605
 30
0.0
 10
131.2839945555899
 20
357.4130938832363
 30
0.0
 10
131.3221110727155
 20
357.2602474763729
 30
0.0
 10
131.3711640340172
 20
356.9417059846356
 30
0.0
 10
131.3822207065337
 20
356.7767558484545
 30
0.0
 10
131.3822877339769
 20
356.6214991853284
 30
0.0
  0
SPLINE
  5
BB
330
1F
100
AcDbEntity
  8
0
  6
Continuous
 62
     7
370
    25
100
AcDbSpline
210
0.0
220
0.0
230
1.0
 70
     8
 71
     3
 72
    14
 73
    10
 74
     0
 42
0.00000001
 43
0.00000001
 40
0.0
 40
0.0
 40
0.0
 40
0.0
 40
0.25
 40
0.25
 40
0.5
 40
0.5
 40
0.75
 40
0.75
 40
1.0
 40
1.0
 40
1.0
 40
1.0
 10
118.8002455747158
 20
357.9938974616176
 30
0.0
 10
118.8002453767576
 20
357.9770426177751
 30
0.0
 10
118.8002446693669
 20
357.9334818823129
 30
0.0
 10
118.8002420575375
 20
357.7850137349718
 30
0.0
 10
118.8002401489517
 20
357.6799216360954
 30
0.0
 10
118.8002353999975
 20
357.4235717691126
 30
0.0
 10
118.8002325704384
 20
357.2728974843236
 30
0.0
 10
118.8002266239812
 20
356.9593869419513
 30
0.0
 10
118.8002235204017
 20
356.7972304469273
 30
0.0
 10
118.8002205725831
 20
356.6442753892383
 30
0.0
  0
SPLINE
  5
BC
330
1F
100
AcDbEntity
  8
0
  6
Continuous
 62
     7
370
    25
100
AcDbSpline
210
0.0
220
0.0
230
1.0
 70
     8
 71
     3
 72
    20
 73
    16
 74
     0
 42
0.00000001
 43
0.00000001
 40
0.0
 40
0.0
 40
0.0
 40
0.0
 40
0.125
 40
0.125
 40
0.1875
 40
0.1875
 40
0.25
 40
0.25
 40
0.3125
 40
0.3125
 40
0.375
 40
0.375
 40
0.5
 40
0.5
 40
1.0
 40
1.0
 40
1.0
 40
1.0
 10
106.7306968150499
 20
357.9735949311141
 30
0.0
 10
107.1280160880826
 20
357.9791851754844
 30
0.0
 10
107.5429215685458
 20
357.9821349723177
 30
0.0
 10
108.1683668045607
 20
357.9854364776075
 30
0.0
 10
108.3791760956586
 20
357.9864262936862
 30
0.0
 10
108.8014014153226
 20
357.9888999073033
 30
0.0
 10
109.0343586141527
 20
357.990589383257
 30
0.0
 10
109.5354352399251
 20
357.9936388949898
 30
0.0
 10
109.8081581553406
 20
357.9948643553716
 30
0.0
 10
110.3401545329611
 20
357.9963456571098
 30
0.0
 10
110.6057357870532
 20
357.9967635641922
 30
0.0
 10
111.4016633301212
 20
357.9976501184217
 30
0.0
 10
111.9311965763221
 20
357.9977591608384
 30
0.0
 10
114.5778722599279
 20
357.9969115920948
 30
0.0
 10
116.6893289751267
 20
357.9939375894608
 30
0.0
 10
118.7981629554146
 20
357.9938975012075
 30
0.0
  0
SPLINE
  5
BD
330
1F
100
AcDbEntity
  8
0
  6
Continuous
 62
     7
370
    25
100
AcDbSpline
210
0.0
220
0.0
230
1.0
 70
     8
 71
     3
 72
    14
 73
    10
 74
     0
 42
0.00000001
 43
0.00000001
 40
0.0
 40
0.0
 40
0.0
 40
0.0
 40
0.25
 40
0.25
 40
0.5
 40
0.5
 40
0.75
 40
0.75
 40
1.0
 40
1.0
 40
1.0
 40
1.0
 10
106.7309379373212
 20
357.97360605692
 30
0.0
 10
106.667110029196
 20
357.9607274820095
 30
0.0
 10
106.6001965923009
 20
357.9205615997681
 30
0.0
 10
106.4732246430122
 20
357.7759727746746
 30
0.0
 10
106.4134859807029
 20
357.6713535293744
 30
0.0
 10
106.315353293206
 20
357.4132320952163
 30
0.0
 10
106.2772008840118
 20
357.2603651381405
 30
0.0
 10
106.2280830669095
 20
356.9417674660401
 30
0.0
 10
106.2169978846431
 20
356.7767827483733
 30
0.0
 10
106.2169073687532
 20
356.6214938255924
 30
0.0
  0
LWPOLYLINE
  5
BE
330
1F
100
AcDbEntity
  8
0
  6
Continuous
 62
     7
370
    25
100
AcDbPolyline
 90
        9
 70
   128
 43
0.0
 10
118.800065326
 20
340.6925644883
 10
118.8000653596
 20
340.7196240634
 10
118.800065392
 20
340.7961349738
 10
118.800065422
 20
340.9193413384
 10
118.8000654486
 20
341.0848053312
 10
118.8000654708
 20
341.2865670296
 10
118.8000654877
 20
341.5173590874
 10
118.8000654988
 20
341.7688685007
 10
118.8000655037
 20
342.0320360378
  0
SPLINE
  5
BF
330
1F
100
AcDbEntity
  8
0
  6
Continuous
 62
     7
370
    25
100
AcDbSpline
210
0.0
220
0.0
230
1.0
 70
     8
 71
     3
 72
    15
 73
    11
 74
     0
 42
0.00000001
 43
0.00000001
 40
0.0
 40
0.0
 40
0.0
 40
0.0
 40
0.0624999999999997
 40
0.0624999999999997
 40
0.1249999999999994
 40
0.2499999999999994
 40
0.2499999999999994
 40
0.4999999999999997
 40
0.4999999999999997
 40
1.0
 40
1.0
 40
1.0
 40
1.0
 10
109.1305534860034
 20
340.692565295141
 30
0.0
 10
109.3320022904881
 20
340.692582777264
 30
0.0
 10
109.5334502772406
 20
340.6925697349466
 30
0.0
 10
109.9363465815763
 20
340.6925564482146
 30
0.0
 10
110.5406910385213
 20
340.6925392207692
 30
0.0
 10
111.1450354966678
 20
340.6925293459824
 30
0.0
 10
112.3537244141799
 20
340.6925170587985
 30
0.0
 10
113.1595170274542
 20
340.6925186570148
 30
0.0
 10
115.57689486933
 20
340.6925360178914
 30
0.0
 10
117.1884801000082
 20
340.6925644897528
 30
0.0
 10
118.8000653260342
 20
340.6925644883234
 30
0.0
  0
ARC
  5
C0
330
1F
100
AcDbEntity
  8
0
  6
Continuous
 62
     7
370
    25
100
AcDbCircle
 10
136.106208947
 20
341.7124208883
 30
0.0
 40
26.99492717121004
100
AcDbArc
 50
179.3216397193
 51
182.1651227296
  0
ARC
  5
C1
330
1F
100
AcDbEntity
  8
0
  6
Continuous
 62
     7
370
    25
100
AcDbCircle
 10
101.4919753802
 20
341.7124208884
 30
0.0
 40
26.99578602985447
100
AcDbArc
 50
357.8349461863
 51
0.6783386987
  0
SPLINE
  5
C2
330
1F
100
AcDbEntity
  8
0
  6
Continuous
 62
     7
370
    25
100
AcDbSpline
210
0.0
220
0.0
230
1.0
 70
     8
 71
     3
 72
    15
 73
    11
 74
     0
 42
0.00000001
 43
0.00000001
 40
0.0
 40
0.0
 40
0.0
 40
0.0
 40
0.5000000000000006
 40
0.5000000000000006
 40
0.7500000000000007
 40
0.7500000000000007
 40
0.8750000000000007
 40
0.9375000000000003
 40
0.9375000000000003
 40
1.0
 40
1.0
 40
1.0
 40
1.0
 10
118.8000653260342
 20
340.6925644883244
 30
0.0
 10
120.4114694100584
 20
340.6925644897536
 30
0.0
 10
122.0228734988323
 20
340.6925360089902
 30
0.0
 10
124.4399796277627
 20
340.6925186556678
 30
0.0
 10
125.2456816700407
 20
340.6925170602411
 30
0.0
 10
126.4542347310097
 20
340.6925293493263
 30
0.0
 10
127.0585112608723
 20
340.6925392244949
 30
0.0
 10
127.6627877895087
 20
340.6925564508444
 30
0.0
 10
128.0656388082994
 20
340.6925697364572
 30
0.0
 10
128.2670641525766
 20
340.6925827751895
 30
0.0
 10
128.4684903133352
 20
340.6925652955883
 30
0.0
  0
SPLINE
  5
C3
330
1F
100
AcDbEntity
  8
0
  6
Continuous
 62
     7
370
    25
100
AcDbSpline
210
0.0
220
0.0
230
1.0
 70
     8
 71
     3
 72
    42
 73
    38
 74
     0
 42
0.00000001
 43
0.00000001
 40
0.0
 40
0.0
 40
0.0
 40
0.0
 40
0.0078124999999986
 40
0.0078124999999986
 40
0.0156249999999973
 40
0.0156249999999973
 40
0.031249999999995
 40
0.031249999999995
 40
0.0468749999999928
 40
0.0468749999999928
 40
0.0624999999999906
 40
0.0624999999999906
 40
0.070312499999989
 40
0.070312499999989
 40
0.0781249999999876
 40
0.0781249999999876
 40
0.085937499999986
 40
0.085937499999986
 40
0.0937499999999845
 40
0.0937499999999845
 40
0.101562499999983
 40
0.101562499999983
 40
0.1054687499999826
 40
0.1054687499999826
 40
0.1093749999999826
 40
0.1093749999999826
 40
0.1249999999999829
 40
0.1249999999999829
 40
0.1562499999999835
 40
0.1562499999999835
 40
0.1874999999999841
 40
0.1874999999999841
 40
0.2499999999999852
 40
0.2499999999999852
 40
0.4999999999999903
 40
0.4999999999999903
 40
1.0
 40
1.0
 40
1.0
 40
1.0
 10
109.1305534860035
 20
340.692565295141
 30
0.0
 10
108.8645217315121
 20
340.6925422084556
 30
0.0
 10
108.6324242363139
 20
340.6924608711749
 30
0.0
 10
108.1692386019927
 20
340.6920693504653
 30
0.0
 10
107.9354771155238
 20
340.691756141909
 30
0.0
 10
107.2459393112603
 20
340.6905083683926
 30
0.0
 10
106.8006290261386
 20
340.6892587749467
 30
0.0
 10
105.9615722406384
 20
340.6860240521123
 30
0.0
 10
105.5699183993218
 20
340.6840408816648
 30
0.0
 10
104.8745086450023
 20
340.6794991750189
 30
0.0
 10
104.5719078750805
 20
340.6769434762855
 30
0.0
 10
104.1929372035001
 20
340.6727370012923
 30
0.0
 10
104.078980682953
 20
340.6712742499005
 30
0.0
 10
103.8766917197856
 20
340.6682439902012
 30
0.0
 10
103.7880379578051
 20
340.6666707831222
 30
0.0
 10
103.6417809384159
 20
340.6635040940701
 30
0.0
 10
103.5847016310385
 20
340.6619243584877
 30
0.0
 10
103.5055066422271
 20
340.6587736879381
 30
0.0
 10
103.4811136670367
 20
340.6571115269398
 30
0.0
 10
103.4515800257885
 20
340.6535312528528
 30
0.0
 10
103.4469197191403
 20
340.6516282010104
 30
0.0
 10
103.4447095715343
 20
340.6486170090762
 30
0.0
 10
103.4446760575379
 20
340.6475886733382
 30
0.0
 10
103.4439124504023
 20
340.6454922456936
 30
0.0
 10
103.4430270174338
 20
340.6444274402127
 30
0.0
 10
103.4370101743801
 20
340.6391811446065
 30
0.0
 10
103.4272743457028
 20
340.6350858425267
 30
0.0
 10
103.409422555894
 20
340.6227263593107
 30
0.0
 10
103.4019777880579
 20
340.6144746048577
 30
0.0
 10
103.3867901856527
 20
340.5979600194465
 30
0.0
 10
103.3798251215629
 20
340.5896971005537
 30
0.0
 10
103.359448794683
 20
340.5649053558809
 30
0.0
 10
103.3458358333222
 20
340.5483805499184
 30
0.0
 10
103.2812740335007
 20
340.4657546222743
 30
0.0
 10
103.2396258779815
 20
340.3996394034848
 30
0.0
 10
103.134669779299
 20
340.2012802165786
 30
0.0
 10
103.0917948111733
 20
340.0690130963035
 30
0.0
 10
103.0554358281398
 20
339.9367579377201
 30
0.0
  0
SPLINE
  5
C4
330
1F
100
AcDbEntity
  8
0
  6
Continuous
 62
     7
370
    25
100
AcDbSpline
210
0.0
220
0.0
230
1.0
 70
     8
 71
     3
 72
    19
 73
    15
 74
     0
 42
0.00000001
 43
0.00000001
 40
0.0
 40
0.0
 40
0.0
 40
0.0
 40
0.0548699156547024
 40
0.1148355272996287
 40
0.1799430646747024
 40
0.2502334852848296
 40
0.3053228964358088
 40
0.3751541999005159
 40
0.5005514366190744
 40
0.6379691996893103
 40
0.750161176308888
 40
0.8402347527363064
 40
0.9235368810579616
 40
1.0
 40
1.0
 40
1.0
 40
1.0
 10
103.0554358482266
 20
339.9367580107856
 30
0.0
 10
103.0194108756673
 20
339.9368675178756
 30
0.0
 10
102.9440153393258
 20
339.9370967018331
 30
0.0
 10
102.8260403071491
 20
339.9460797063158
 30
0.0
 10
102.6983524923609
 20
339.963454661365
 30
0.0
 10
102.5747442953904
 20
339.98919389633
 30
0.0
 10
102.4494877706484
 20
340.0237302257582
 30
0.0
 10
102.2907676803042
 20
340.078673623309
 30
0.0
 10
102.0853256992696
 20
340.173818395815
 30
0.0
 10
101.8648965031686
 20
340.3159068150022
 30
0.0
 10
101.6793915443568
 20
340.4746489587476
 30
0.0
 10
101.5353741886543
 20
340.6301634495605
 30
0.0
 10
101.4193523507826
 20
340.7813958195184
 30
0.0
 10
101.3550142007707
 20
340.890429377063
 30
0.0
 10
101.3242221749633
 20
340.9426124770926
 30
0.0
  0
SPLINE
  5
C5
330
1F
100
AcDbEntity
  8
0
  6
Continuous
 62
     7
370
    25
100
AcDbSpline
210
0.0
220
0.0
230
1.0
 70
     8
 71
     3
 72
    15
 73
    11
 74
     0
 42
0.00000001
 43
0.00000001
 40
0.0
 40
0.0
 40
0.0
 40
0.0
 40
0.0832154929985164
 40
0.1665783322918773
 40
0.2505318485970968
 40
0.3762872916724225
 40
0.5007395814976239
 40
0.6707649381837605
 40
0.8359937618843537
 40
1.0
 40
1.0
 40
1.0
 40
1.0
 10
101.3242221749633
 20
340.9426124770926
 30
0.0
 10
101.3159807075473
 20
340.9577775478959
 30
0.0
 10
101.2994831798836
 20
340.9881345416778
 30
0.0
 10
101.2732785040012
 20
341.0408706990896
 30
0.0
 10
101.2423885177555
 20
341.1082472324572
 30
0.0
 10
101.2076955325567
 20
341.1934765604137
 30
0.0
 10
101.1669996191598
 20
341.3121077284738
 30
0.0
 10
101.1292954470143
 20
341.4549534298218
 30
0.0
 10
101.0992056532651
 20
341.6226670943034
 30
0.0
 10
101.0918544837027
 20
341.7380116765397
 30
0.0
 10
101.0881925478839
 20
341.7954698066526
 30
0.0
  0
SPLINE
  5
C6
330
1F
100
AcDbEntity
  8
0
  6
Continuous
 62
     7
370
    25
100
AcDbSpline
210
0.0
220
0.0
230
1.0
 70
     8
 71
     3
 72
    18
 73
    14
 74
     0
 42
0.00000001
 43
0.00000001
 40
0.0
 40
0.0
 40
0.0
 40
0.0
 40
0.0567083921986876
 40
0.1172711835274069
 40
0.1816653971178233
 40
0.2498570858799371
 40
0.3620506010068481
 40
0.4994702323205409
 40
0.6248692635546897
 40
0.6947015704622379
 40
0.7497917622857747
 40
0.8851735481232368
 40
1.0
 40
1.0
 40
1.0
 40
1.0
 10
136.2748267781672
 20
340.9426124770926
 30
0.0
 10
136.2522158740696
 20
340.9036563947774
 30
0.0
 10
136.2054572307482
 20
340.8230964335165
 30
0.0
 10
136.1245346086048
 20
340.7086709776853
 30
0.0
 10
136.0324040821819
 20
340.5955032604854
 30
0.0
 10
135.9076381886986
 20
340.4645047736023
 30
0.0
 10
135.7341802345963
 20
340.3158751510848
 30
0.0
 10
135.5137159473515
 20
340.1738211450048
 30
0.0
 10
135.3082824548174
 20
340.0786893850234
 30
0.0
 10
135.1495610376149
 20
340.0237001809555
 30
0.0
 10
134.9825407861616
 20
339.9778192477883
 30
0.0
 10
134.7832792595662
 20
339.9417031954824
 30
0.0
 10
134.619003237279
 20
339.9383135835265
 30
0.0
 10
134.5436131024858
 20
339.9367580107856
 30
0.0
  0
SPLINE
  5
C7
330
1F
100
AcDbEntity
  8
0
  6
Continuous
 62
     7
370
    25
100
AcDbSpline
210
0.0
220
0.0
230
1.0
 70
     8
 71
     3
 72
    42
 73
    38
 74
     0
 42
0.00000001
 43
0.00000001
 40
0.0
 40
0.0
 40
0.0
 40
0.0
 40
0.5000000000000089
 40
0.5000000000000089
 40
0.7500000000000131
 40
0.7500000000000131
 40
0.8125000000000142
 40
0.8125000000000142
 40
0.8437500000000148
 40
0.8437500000000148
 40
0.8750000000000153
 40
0.8750000000000153
 40
0.8906250000000153
 40
0.8906250000000153
 40
0.8945312500000154
 40
0.8945312500000154
 40
0.8984375000000151
 40
0.8984375000000151
 40
0.9062500000000137
 40
0.9062500000000137
 40
0.9140625000000122
 40
0.9140625000000122
 40
0.9218750000000108
 40
0.9218750000000108
 40
0.9296875000000094
 40
0.9296875000000094
 40
0.937500000000008
 40
0.937500000000008
 40
0.9531250000000059
 40
0.9531250000000059
 40
0.9687500000000039
 40
0.9687500000000039
 40
0.9843750000000018
 40
0.9843750000000018
 40
0.992187500000001
 40
0.992187500000001
 40
1.0
 40
1.0
 40
1.0
 40
1.0
 10
134.5436131225733
 20
339.93675793772
 30
0.0
 10
134.5072541315307
 20
340.0690131030657
 30
0.0
 10
134.4643791551864
 20
340.2012802301017
 30
0.0
 10
134.3594230458606
 20
340.3996394271489
 30
0.0
 10
134.3177748870089
 20
340.4657546493151
 30
0.0
 10
134.2532130829339
 20
340.5483805811809
 30
0.0
 10
134.2396001207255
 20
340.56490538799
 30
0.0
 10
134.2192237964827
 20
340.5896971339303
 30
0.0
 10
134.2122587328932
 20
340.5979600532422
 30
0.0
 10
134.1970711252769
 20
340.6144746394667
 30
0.0
 10
134.1896263518299
 20
340.6227263943107
 30
0.0
 10
134.1717745425636
 20
340.6350858781104
 30
0.0
 10
134.1620386932796
 20
340.6391811806586
 30
0.0
 10
134.1560218910421
 20
340.6444274771588
 30
0.0
 10
134.1551364748053
 20
340.6454922830076
 30
0.0
 10
134.1543728813936
 20
340.6475887104316
 30
0.0
 10
134.1543393628924
 20
340.6486170455761
 30
0.0
 10
134.1521291666907
 20
340.6516282353725
 30
0.0
 10
134.1474687771122
 20
340.6535312859264
 30
0.0
 10
134.1179349004919
 20
340.6571115575418
 30
0.0
 10
134.0935417774815
 20
340.658773716981
 30
0.0
 10
134.0143464068845
 20
340.6619243865347
 30
0.0
 10
133.9572668769104
 20
340.6635041227639
 30
0.0
 10
133.8110094778719
 20
340.6666708116907
 30
0.0
 10
133.722355546273
 20
340.6682440183806
 30
0.0
 10
133.5200662549753
 20
340.6712742770336
 30
0.0
 10
133.4061095785705
 20
340.6727370277655
 30
0.0
 10
133.0271384425268
 20
340.6769435006274
 30
0.0
 10
132.7245373384649
 20
340.6794991979664
 30
0.0
 10
132.0291270058621
 20
340.6840409012377
 30
0.0
 10
131.637472916091
 20
340.6860240697181
 30
0.0
 10
130.7984157376756
 20
340.6892587881081
 30
0.0
 10
130.3531053160054
 20
340.6905083790598
 30
0.0
 10
129.6635673662031
 20
340.691756148574
 30
0.0
 10
129.429805892601
 20
340.6920693557219
 30
0.0
 10
128.9666201039451
 20
340.6924608736275
 30
0.0
 10
128.7345223310124
 20
340.6925422096152
 30
0.0
 10
128.468490313335
 20
340.6925652955883
 30
0.0
  0
SPLINE
  5
C8
330
1F
100
AcDbEntity
  8
0
  6
Continuous
 62
     7
370
    25
100
AcDbSpline
210
0.0
220
0.0
230
1.0
 70
     8
 71
     3
 72
    17
 73
    13
 74
     0
 42
0.00000001
 43
0.00000001
 40
0.0
 40
0.0
 40
0.0
 40
0.0
 40
0.0822156645170376
 40
0.1642895324078556
 40
0.2466673515894998
 40
0.3297983901916003
 40
0.4141297969719763
 40
0.5001010756116222
 40
0.6245603398993542
 40
0.750319590734535
 40
0.8755754730952351
 40
1.0
 40
1.0
 40
1.0
 40
1.0
 10
136.5108564059238
 20
341.7954698082579
 30
0.0
 10
136.5094012808016
 20
341.7666730540133
 30
0.0
 10
136.5064935401987
 20
341.7091292110302
 30
0.0
 10
136.4972880540618
 20
341.6237094058524
 30
0.0
 10
136.4847190213671
 20
341.539685203781
 30
0.0
 10
136.4686111821059
 20
341.4573723196694
 30
0.0
 10
136.4492661005109
 20
341.3770425127835
 30
0.0
 10
136.4237417877002
 20
341.287949633335
 30
0.0
 10
136.3911661825958
 20
341.1929350058349
 30
0.0
 10
136.3522210635299
 20
341.0974420265431
 30
0.0
 10
136.3122500411739
 20
341.0120784736171
 30
0.0
 10
136.287273477862
 20
340.9657163522834
 30
0.0
 10
136.2748267781672
 20
340.9426124770926
 30
0.0
  0
SPLINE
  5
C9
330
1F
100
AcDbEntity
  8
0
  6
Continuous
 62
     7
370
    25
100
AcDbSpline
210
0.0
220
0.0
230
1.0
 70
     8
 71
     3
 72
    40
 73
    36
 74
     0
 42
0.00000001
 43
0.00000001
 40
0.0
 40
0.0
 40
0.0
 40
0.0
 40
0.5000000000000034
 40
0.5000000000000034
 40
0.7500000000000053
 40
0.7500000000000053
 40
0.8750000000000061
 40
0.8750000000000061
 40
0.9062500000000061
 40
0.9062500000000061
 40
0.9140625000000063
 40
0.9140625000000063
 40
0.9179687500000064
 40
0.9179687500000064
 40
0.9218750000000064
 40
0.9218750000000064
 40
0.9375000000000054
 40
0.9375000000000054
 40
0.9414062500000047
 40
0.9414062500000047
 40
0.945312500000004
 40
0.945312500000004
 40
0.9531250000000033
 40
0.9531250000000033
 40
0.9609375000000028
 40
0.9609375000000028
 40
0.9687500000000022
 40
0.9687500000000022
 40
0.9765625000000017
 40
0.9765625000000017
 40
0.9843750000000011
 40
0.9843750000000011
 40
0.9921875000000006
 40
0.9921875000000006
 40
1.0
 40
1.0
 40
1.0
 40
1.0
 10
102.9341584732051
 20
358.7422058204442
 30
0.0
 10
102.9750012802252
 20
358.6016746917163
 30
0.0
 10
103.0212069890829
 20
358.4615115796365
 30
0.0
 10
103.1307981401232
 20
358.254377014215
 30
0.0
 10
103.1738237093252
 20
358.1858340446128
 30
0.0
 10
103.2535233302814
 20
358.0841529948613
 30
0.0
 10
103.281895425743
 20
358.050437658634
 30
0.0
 10
103.3215090460921
 20
358.0085160323867
 30
0.0
 10
103.3301308743544
 20
358.0001475362907
 30
0.0
 10
103.3478209041087
 20
357.9897160022622
 30
0.0
 10
103.3518101784573
 20
357.9876246360994
 30
0.0
 10
103.3562307058107
 20
357.9844481850395
 30
0.0
 10
103.3573945824304
 20
357.9833844335694
 30
0.0
 10
103.3581818657522
 20
357.9812598108202
 30
0.0
 10
103.3578183983862
 20
357.9802043433491
 30
0.0
 10
103.3563265785685
 20
357.9750818364116
 30
0.0
 10
103.36135863
 20
357.9711741755497
 30
0.0
 10
103.4399280653232
 20
357.967511976424
 30
0.0
 10
103.4590960135784
 20
357.9668570315786
 30
0.0
 10
103.5061844603097
 20
357.9656049755207
 30
0.0
 10
103.5338358815971
 20
357.9650149500453
 30
0.0
 10
103.6284863398058
 20
357.9633084884182
 30
0.0
 10
103.7069933259329
 20
357.962224280868
 30
0.0
 10
103.8913093947322
 20
357.9603520414236
 30
0.0
 10
103.9976997681685
 20
357.9595754576362
 30
0.0
 10
104.234257284221
 20
357.9584815824508
 30
0.0
 10
104.3639828513056
 20
357.9581601701862
 30
0.0
 10
104.6465986086123
 20
357.9580924817619
 30
0.0
 10
104.800360733195
 20
357.9583492668265
 30
0.0
 10
105.1351402371704
 20
357.9594720340064
 30
0.0
 10
105.3148777233653
 20
357.9603269936341
 30
0.0
 10
105.6907999512208
 20
357.9626967836712
 30
0.0
 10
105.8872450061758
 20
357.9642275308
 30
0.0
 10
106.2937235325943
 20
357.9681106473395
 30
0.0
 10
106.5047965799074
 20
357.9704665118577
 30
0.0
 10
106.7305728016268
 20
357.9735782673715
 30
0.0
  0
SPLINE
  5
CA
330
1F
100
AcDbEntity
  8
0
  6
Continuous
 62
     7
370
    25
100
AcDbSpline
210
0.0
220
0.0
230
1.0
 70
     8
 71
     3
 72
    10
 73
     6
 74
     0
 42
0.00000001
 43
0.00000001
 40
0.0
 40
0.0
 40
0.0
 40
0.0
 40
0.3393214065225685
 40
0.6799078825735417
 40
1.0
 40
1.0
 40
1.0
 40
1.0
 10
102.9341584248354
 20
358.7422059868738
 30
0.0
 10
102.7206535532925
 20
358.7085877683427
 30
0.0
 10
102.2928478141336
 20
358.6412259947026
 30
0.0
 10
101.7176292296938
 20
358.2993958713772
 30
0.0
 10
101.4500077654948
 20
357.8950123257847
 30
0.0
 10
101.3203478643115
 20
357.6990925750329
 30
0.0
  0
SPLINE
  5
CB
330
1F
100
AcDbEntity
  8
0
  6
Continuous
 62
     7
370
    25
100
AcDbSpline
210
0.0
220
0.0
230
1.0
 70
     8
 71
     3
 72
    34
 73
    30
 74
     0
 42
0.00000001
 43
0.00000001
 40
0.0
 40
0.0
 40
0.0
 40
0.0
 40
0.0156250000000008
 40
0.0156250000000008
 40
0.0234375000000008
 40
0.0234375000000008
 40
0.0312500000000009
 40
0.0312500000000009
 40
0.0468750000000012
 40
0.0468750000000012
 40
0.0546875000000013
 40
0.0546875000000013
 40
0.0625000000000014
 40
0.0625000000000014
 40
0.0781250000000017
 40
0.0781250000000017
 40
0.0820312500000018
 40
0.0820312500000018
 40
0.0859375000000019
 40
0.0859375000000019
 40
0.093750000000002
 40
0.093750000000002
 40
0.1250000000000021
 40
0.1250000000000021
 40
0.250000000000002
 40
0.250000000000002
 40
0.5000000000000013
 40
0.5000000000000013
 40
1.0
 40
1.0
 40
1.0
 40
1.0
 10
130.8684573582806
 20
357.9735785263985
 30
0.0
 10
131.3297989635244
 20
357.9672200336929
 30
0.0
 10
131.7525662000145
 20
357.9635703012261
 30
0.0
 10
132.3259199579982
 20
357.9601150958596
 30
0.0
 10
132.5068194123152
 20
357.9592834369872
 30
0.0
 10
132.8458458444378
 20
357.9582426901019
 30
0.0
 10
133.0039189368136
 20
357.9580410934261
 30
0.0
 10
133.4336189964314
 20
357.9583691937888
 30
0.0
 10
133.6675726747622
 20
357.9597540035662
 30
0.0
 10
133.9384988500858
 20
357.9628206372707
 30
0.0
 10
134.0137597228131
 20
357.9639721029376
 30
0.0
 10
134.1284975286924
 20
357.9663660832297
 30
0.0
 10
134.1672470337532
 20
357.9676275953183
 30
0.0
 10
134.2444626639586
 20
357.972306187409
 30
0.0
 10
134.2423119116561
 20
357.9762503065917
 30
0.0
 10
134.2410758872406
 20
357.9814634441689
 30
0.0
 10
134.2413658981399
 20
357.982531525821
 30
0.0
 10
134.2432023756979
 20
357.9846576797042
 30
0.0
 10
134.2447029344738
 20
357.985714649735
 30
0.0
 10
134.2498011823865
 20
357.9888744197978
 30
0.0
 10
134.2536373755836
 20
357.9909548093536
 30
0.0
 10
134.2705119254638
 20
358.0013603234822
 30
0.0
 10
134.2790394309513
 20
358.0097219438211
 30
0.0
 10
134.3182355599131
 20
358.0515747955104
 30
0.0
 10
134.3468230715583
 20
358.0852305609186
 30
0.0
 10
134.4263436398745
 20
358.1867420149172
 30
0.0
 10
134.4692546514893
 20
358.2551709521793
 30
0.0
 10
134.5784725618798
 20
358.4619637322582
 30
0.0
 10
134.6244004892224
 20
358.6018987333783
 30
0.0
 10
134.6649676859377
 20
358.7422015765252
 30
0.0
  0
SPLINE
  5
CC
330
1F
100
AcDbEntity
  8
0
  6
Continuous
 62
     7
370
    25
100
AcDbSpline
210
0.0
220
0.0
230
1.0
 70
     8
 71
     3
 72
    20
 73
    16
 74
     0
 42
0.00000001
 43
0.00000001
 40
0.0
 40
0.0
 40
0.0
 40
0.0
 40
0.0383840025439242
 40
0.0801401775095997
 40
0.125333310213866
 40
0.1758474426101634
 40
0.2505693349853372
 40
0.37471104171353
 40
0.4996720838170634
 40
0.6242401599295757
 40
0.7494555701351695
 40
0.8139126222989033
 40
0.8749354508892935
 40
0.9382913003314445
 40
1.0
 40
1.0
 40
1.0
 40
1.0
 10
134.6649677341674
 20
358.7422017433294
 30
0.0
 10
134.6983659550784
 20
358.7398663204347
 30
0.0
 10
134.7680965505067
 20
358.73499029936
 30
0.0
 10
134.8761320966742
 20
358.7200798805587
 30
0.0
 10
134.9935032253836
 20
358.6973447110333
 30
0.0
 10
135.1368107548214
 20
358.6598142014728
 30
0.0
 10
135.342390979615
 20
358.587229027757
 30
0.0
 10
135.5978721882285
 20
358.456635241824
 30
0.0
 10
135.8705788756271
 20
358.2522852749449
 30
0.0
 10
136.1139934795098
 20
357.9913415335185
 30
0.0
 10
136.2834376143344
 20
357.7230424040645
 30
0.0
 10
136.3887690199504
 20
357.480838350526
 30
0.0
 10
136.4501692765525
 20
357.2855767046868
 30
0.0
 10
136.4927321676969
 20
357.0830433262304
 30
0.0
 10
136.5025470506601
 20
356.9422791576205
 30
0.0
 10
136.5073898591887
 20
356.8728240333137
 30
0.0
  0
SPLINE
  5
CD
330
1F
100
AcDbEntity
  8
0
  6
Continuous
 62
     7
370
    25
100
AcDbSpline
210
0.0
220
0.0
230
1.0
 70
     8
 71
     3
 72
    78
 73
    74
 74
     0
 42
0.00000001
 43
0.00000001
 40
0.0
 40
0.0
 40
0.0
 40
0.0
 40
0.0103660599161575
 40
0.0321713206562858
 40
0.0376215554269959
 40
0.064867290191936
 40
0.0757647277766505
 40
0.0866617674016931
 40
0.0976546337455523
 40
0.1086478587327976
 40
0.1196414616135619
 40
0.1306353332234561
 40
0.1416288345450296
 40
0.1526222002281052
 40
0.1691133551169451
 40
0.2135813853844882
 40
0.2330665443322476
 40
0.2428094552536823
 40
0.2827802359064673
 40
0.2978943647113786
 40
0.3054516313655704
 40
0.3601505326943475
 40
0.3647740754627307
 40
0.3693977199957122
 40
0.3971368553755251
 40
0.4261487120042899
 40
0.4333627242618198
 40
0.4376917197433414
 40
0.4492340015518826
 40
0.4633858133588275
 40
0.4669260991052278
 40
0.4681063582724623
 40
0.4802453601626304
 40
0.4923793642703129
 40
0.498232119288414
 40
0.4992081313164851
 40
0.5004217800534265
 40
0.5011347328661833
 40
0.5020853306835503
 40
0.5166349099333736
 40
0.5312099785105258
 40
0.5335882800653065
 40
0.5359664082950665
 40
0.5502247738720968
 40
0.5645493578582402
 40
0.5659822597242911
 40
0.5731456243603704
 40
0.5967502620592967
 40
0.6203499651011669
 40
0.6295359294196426
 40
0.6341288102620833
 40
0.6855528421639704
 40
0.6930589675873092
 40
0.7005649205248907
 40
0.7455973602859887
 40
0.755271431121141
 40
0.7649454242641625
 40
0.822986236409407
 40
0.8284829661906624
 40
0.8449731930514588
 40
0.8614620883621696
 40
0.8669585051925438
 40
0.8779516983839492
 40
0.8944409123601955
 40
0.8999373162740889
 40
0.9109295231391555
 40
0.9272701754086031
 40
0.9327173065820812
 40
0.9599543130432533
 40
0.9763006984857
 40
0.9872006456936245
 40
0.9981041763573885
 40
1.0
 40
1.0
 40
1.0
 40
1.0
 10
130.8684017659129
 20
357.9735813303166
 30
0.0
 10
130.8077186383826
 20
357.9870512267374
 30
0.0
 10
130.6193870668892
 20
358.0288553799519
 30
0.0
 10
130.3987147930517
 20
358.0681440649847
 30
0.0
 10
130.0771708393725
 20
358.1188717027553
 30
0.0
 10
129.8192662993265
 20
358.153156328103
 30
0.0
 10
129.5275709760363
 20
358.1849698529144
 30
0.0
 10
129.3315110776515
 20
358.2034893602487
 30
0.0
 10
129.1341344977316
 20
358.2193647446286
 30
0.0
 10
128.9350019632674
 20
358.2329340336009
 30
0.0
 10
128.7348388859604
 20
358.2448179531885
 30
0.0
 10
128.5334324358281
 20
358.2559902460123
 30
0.0
 10
128.3307544678709
 20
358.2670460863118
 30
0.0
 10
128.0925272782228
 20
358.2800624943526
 30
0.0
 10
127.6431362103628
 20
358.3046400548789
 30
0.0
 10
127.1282289055027
 20
358.3309970963209
 30
0.0
 10
126.6409743472703
 20
358.3544005595926
 30
0.0
 10
126.1752191015046
 20
358.3760044586754
 30
0.0
 10
125.7251656232168
 20
358.3956959387684
 30
0.0
 10
125.2704928860389
 20
358.4141871936079
 30
0.0
 10
124.6970659370526
 20
358.4367175041758
 30
0.0
 10
124.1725241209326
 20
358.4554638259928
 30
0.0
 10
123.6267874047616
 20
358.4725019873241
 30
0.0
 10
123.3067160219577
 20
358.4822721015198
 30
0.0
 10
122.7490101981245
 20
358.4979799555961
 30
0.0
 10
122.100606895122
 20
358.5131266535876
 30
0.0
 10
121.6488735496431
 20
358.5219427032028
 30
0.0
 10
121.3832517561134
 20
358.5267929864918
 30
0.0
 10
121.0217944741979
 20
358.5327744902028
 30
0.0
 10
120.6394516197303
 20
358.5379328801277
 30
0.0
 10
120.377031448829
 20
358.5408234674207
 30
0.0
 10
120.1387422805609
 20
358.5432892442604
 30
0.0
 10
119.7616572315502
 20
358.5465119020374
 30
0.0
 10
119.2796673068
 20
358.548792165775
 30
0.0
 10
118.9679505336305
 20
358.5493009637768
 30
0.0
 10
118.8354857643843
 20
358.5493604764421
 30
0.0
 10
118.7876560114341
 20
358.5493638372817
 30
0.0
 10
118.7402543206636
 20
358.5493512962133
 30
0.0
 10
118.4732735594655
 20
358.5492044651613
 30
0.0
 10
117.9797912909295
 20
358.5475707235399
 30
0.0
 10
117.5067440059263
 20
358.5437670369626
 30
0.0
 10
117.2333857874649
 20
358.5409438366036
 30
0.0
 10
116.9688576969083
 20
358.5380360887859
 30
0.0
 10
116.5623276927432
 20
358.5326120891261
 30
0.0
 10
116.2030410316788
 20
358.5265816518564
 30
0.0
 10
115.9404653994039
 20
358.5217434649171
 30
0.0
 10
115.5804497458178
 20
358.5147689219047
 30
0.0
 10
115.0197226863066
 20
358.5020790821581
 30
0.0
 10
114.4917023921332
 20
358.487938007515
 30
0.0
 10
114.1601254204712
 20
358.4782190353446
 30
0.0
 10
113.5940842827479
 20
358.461031294522
 30
0.0
 10
113.0870272525642
 20
358.4434092416727
 30
0.0
 10
112.5860150373117
 20
358.4242843930934
 30
0.0
 10
112.1397994209176
 20
358.4068342810863
 30
0.0
 10
111.6992592400798
 20
358.3881900419744
 30
0.0
 10
111.2594182501373
 20
358.3683506581118
 30
0.0
 10
110.7373267013043
 20
358.3442400587498
 30
0.0
 10
110.2631546413536
 20
358.3206793715693
 30
0.0
 10
109.7577528188006
 20
358.2937729888749
 30
0.0
 10
109.5170101004625
 20
358.2806475836294
 30
0.0
 10
109.2788646249022
 20
358.2676217400884
 30
0.0
 10
109.0762650472982
 20
358.2565603899689
 30
0.0
 10
108.8745829404709
 20
358.2454493991386
 30
0.0
 10
108.6745628896956
 20
358.2336518305268
 30
0.0
 10
108.4753883162706
 20
358.2199552399824
 30
0.0
 10
108.2781704758327
 20
358.2046726232273
 30
0.0
 10
108.0821196777095
 20
358.1860861028012
 30
0.0
 10
107.7905271501113
 20
358.1541875681626
 30
0.0
 10
107.5003355764846
 20
358.116478193773
 30
0.0
 10
107.1789130915446
 20
358.064508988954
 30
0.0
 10
106.9554664479515
 20
358.02251645542
 30
0.0
 10
106.816585246441
 20
357.993237257211
 30
0.0
 10
106.7417316229164
 20
357.9761184752695
 30
0.0
 10
106.7306444019664
 20
357.9735828636471
 30
0.0
  0
LINE
  5
CE
330
1F
100
AcDbEntity
  8
0
  6
Continuous
 62
     7
370
    25
100
AcDbLine
 10
102.9342127189
 20
358.7422078868
 30
0.0
 11
104.9711235625
 21
358.842262277
 31
0.0
  0
ELLIPSE
  5
CF
330
1F
100
AcDbEntity
  8
0
  6
Continuous
 62
     7
370
    25
100
AcDbEllipse
 10
118.7995244769
 20
340.6030198905
 30
0.0
 11
12.0
 21
0.0
 31
0.0
210
0.0
220
0.0
230
1.0
 40
0.0070431304
 41
1.570796326794897
 42
3.141592653589776
  0
ELLIPSE
  5
D0
330
1F
100
AcDbEntity
  8
0
  6
Continuous
 62
     7
370
    25
100
AcDbEllipse
 10
118.7995244769
 20
340.6030198905
 30
0.0
 11
12.0
 21
0.0
 31
0.0
210
0.0
220
0.0
230
1.0
 40
0.0070431304
 41
0.0
 42
1.570796326794909
  0
SPLINE
  5
D1
330
1F
100
AcDbEntity
  8
0
  6
Continuous
 62
     7
370
    25
100
AcDbSpline
210
0.0
220
0.0
230
1.0
 70
     8
 71
     3
 72
    19
 73
    15
 74
     0
 42
0.00000001
 43
0.00000001
 40
0.0
 40
0.0
 40
0.0
 40
0.0
 40
0.0690904089796497
 40
0.1400718603785196
 40
0.213291834336608
 40
0.2891053450512983
 40
0.3679504642361275
 40
0.4504235556943093
 40
0.5102651444176197
 40
0.5205404207777196
 40
0.7075117151167349
 40
0.8122473759443473
 40
0.9030201392226049
 40
1.0
 40
1.0
 40
1.0
 40
1.0
 10
105.7183836508049
 20
339.9550169397884
 30
0.0
 10
105.6410774023787
 20
339.954749693998
 30
0.0
 10
105.4843489910715
 20
339.9542078877532
 30
0.0
 10
105.2526404846317
 20
339.9532537331223
 30
0.0
 10
105.0197152713833
 20
339.9522038780473
 30
0.0
 10
104.7860323819327
 20
339.9510395441632
 30
0.0
 10
104.551463451146
 20
339.9497325259144
 30
0.0
 10
104.34159193784
 20
339.948428470791
 30
0.0
 10
104.2024087673267
 20
339.9474994877747
 30
0.0
 10
103.9727770650607
 20
339.9459117862405
 30
0.0
 10
103.7190131492267
 20
339.9439890366797
 30
0.0
 10
103.4322526324208
 20
339.941046170872
 30
0.0
 10
103.2299483036472
 20
339.9390920161687
 30
0.0
 10
103.1149252428646
 20
339.9375519800614
 30
0.0
 10
103.055512382581
 20
339.9367565052282
 30
0.0
  0
SPLINE
  5
D2
330
1F
100
AcDbEntity
  8
0
  6
Continuous
 62
     7
370
    25
100
AcDbSpline
210
0.0
220
0.0
230
1.0
 70
     8
 71
     3
 72
    21
 73
    17
 74
     0
 42
0.00000001
 43
0.00000001
 40
0.0
 40
0.0
 40
0.0
 40
0.0
 40
0.0641482860479645
 40
0.1260519952257314
 40
0.1848882976795316
 40
0.2409161096865375
 40
0.2946468898020418
 40
0.3462341407263082
 40
0.3958143659347783
 40
0.5000448619681791
 40
0.5101869944483607
 40
0.5402293756252787
 40
0.6642886867882676
 40
0.7805612727457374
 40
0.8927045288659825
 40
0.9999999999999999
 40
0.9999999999999999
 40
0.9999999999999999
 40
0.9999999999999999
 10
134.5435571222501
 20
339.9367283357113
 30
0.0
 10
134.5046732068855
 20
339.9372935960886
 30
0.0
 10
134.4282659415345
 20
339.9384043381328
 30
0.0
 10
134.3064450908354
 20
339.9396206876451
 30
0.0
 10
134.183520158772
 20
339.9409537465064
 30
0.0
 10
134.0599011709099
 20
339.9422126861501
 30
0.0
 10
133.9360785764001
 20
339.9432965253276
 30
0.0
 10
133.8121960837582
 20
339.9443935390406
 30
0.0
 10
133.6417622587596
 20
339.9457945368164
 30
0.0
 10
133.4984301429343
 20
339.9468418271301
 30
0.0
 10
133.3678609745736
 20
339.9477226977784
 30
0.0
 10
133.2175904290393
 20
339.9487093393213
 30
0.0
 10
132.9591529503387
 20
339.9502525226767
 30
0.0
 10
132.6015497019691
 20
339.9521062814528
 30
0.0
 10
132.2450352590636
 20
339.9537205134876
 30
0.0
 10
132.0003231288001
 20
339.9545738835159
 30
0.0
 10
131.8806701229822
 20
339.9549911423124
 30
0.0
  0
ARC
  5
D3
330
1F
100
AcDbEntity
  8
0
  6
Continuous
 62
     7
370
    25
100
AcDbCircle
 10
118.7995244769
 20
281.8648206004
 30
0.0
 40
55.75640065645979
100
AcDbArc
 50
78.6216588106
 51
101.3783411894
  0
SPLINE
  5
D4
330
1F
100
AcDbEntity
  8
0
  6
Continuous
 62
     7
370
    25
100
AcDbSpline
210
0.0
220
0.0
230
1.0
 70
    24
 71
     3
 72
    10
 73
     6
 74
     0
 42
0.00000001
 43
0.00000001
 40
0.0
 40
0.0
 40
0.0
 40
0.0
 40
0.5
 40
0.5
 40
1.0
 40
1.0
 40
1.0
 40
1.0
 10
129.7995244768751
 20
335.2861927821932
 30
0.0
 10
129.7995244768751
 20
335.3985576438823
 30
0.0
 10
129.7995244768751
 20
335.5646874561621
 30
0.0
 10
129.7995244768751
 20
335.9846821294409
 30
0.0
 10
129.7995244768752
 20
336.2383224311996
 30
0.0
 10
129.7995244768752
 20
336.5253750630322
 30
0.0
  0
LWPOLYLINE
  5
D5
330
1F
100
AcDbEntity
  8
0
  6
Continuous
 62
     7
370
    25
100
AcDbPolyline
 90
       23
 70
   128
 43
0.0
 10
129.7995244769
 20
335.2861927822
 10
129.6875603376
 20
335.5040631531
 10
129.3539471866
 20
335.7174983115
 10
128.8054764258
 20
335.9221533332
 10
128.053313338
 20
336.113862032
 10
127.1127697948
 20
336.2887217716
 10
126.0029925503
 20
336.4431729121
 10
124.7465734689
 20
336.5740712736
 10
123.3690896199
 20
336.678752143
 10
121.8985826021
 20
336.7550845196
 10
120.3649876979
 20
336.8015144963
 10
118.7995244769
 20
336.8170968928
 10
117.2340612559
 20
336.8015144963
 10
115.7004663516
 20
336.7550845196
 10
114.2299593339
 20
336.678752143
 10
112.8524754849
 20
336.5740712736
 10
111.5960564035
 20
336.4431729121
 10
110.486279159
 20
336.2887217716
 10
109.5457356157
 20
336.113862032
 10
108.793572528
 20
335.9221533332
 10
108.2451017671
 20
335.7174983115
 10
107.9114886162
 20
335.5040631531
 10
107.7995244769
 20
335.2861927822
  0
SPLINE
  5
D6
330
1F
100
AcDbEntity
  8
0
  6
Continuous
 62
     7
370
    25
100
AcDbSpline
210
0.0
220
0.0
230
1.0
 70
    24
 71
     3
 72
    10
 73
     6
 74
     0
 42
0.00000001
 43
0.00000001
 40
0.0
 40
0.0
 40
0.0
 40
0.0
 40
0.5
 40
0.5
 40
1.0
 40
1.0
 40
1.0
 40
1.0
 10
107.7995244768752
 20
335.2861927821932
 30
0.0
 10
107.7995244768752
 20
335.3985576438824
 30
0.0
 10
107.7995244768752
 20
335.5646874561621
 30
0.0
 10
107.7995244768752
 20
335.9846821294408
 30
0.0
 10
107.7995244768752
 20
336.2383224311995
 30
0.0
 10
107.7995244768752
 20
336.5253750630321
 30
0.0
  0
LINE
  5
D7
330
1F
100
AcDbEntity
  8
0
  6
Continuous
 62
     7
370
    25
100
AcDbLine
 10
129.7995244769
 20
336.525375063
 30
0.0
 11
129.7995244769
 21
339.9147158019
 31
0.0
  0
LINE
  5
D8
330
1F
100
AcDbEntity
  8
0
  6
Continuous
 62
     7
370
    25
100
AcDbLine
 10
107.7995244769
 20
336.525375063
 30
0.0
 11
107.7995244769
 21
339.9147158019
 31
0.0
  0
LWPOLYLINE
  5
D9
330
1F
100
AcDbEntity
  8
0
  6
Continuous
 62
     7
370
    25
100
AcDbPolyline
 90
        9
 70
   128
 43
0.0
 10
107.7995244769
 20
338.5798143124
 10
107.3655094068
 20
338.7404131438
 10
107.0521843524
 20
338.9063619739
 10
106.8628565688
 20
339.0759091549
 10
106.7995244769
 20
339.2472650572
 10
106.8628565688
 20
339.4186209594
 10
107.0521843524
 20
339.5881681404
 10
107.3655094068
 20
339.7541169705
 10
107.7995244769
 20
339.9147158019
  0
LWPOLYLINE
  5
DA
330
1F
100
AcDbEntity
  8
0
  6
Continuous
 62
     7
370
    25
100
AcDbPolyline
 90
        9
 70
   128
 43
0.0
 10
129.7995244769
 20
339.9147158019
 10
130.2335395469
 20
339.7541169705
 10
130.5468646013
 20
339.5881681404
 10
130.7361923849
 20
339.4186209594
 10
130.7995244769
 20
339.2472650572
 10
130.7361923849
 20
339.0759091549
 10
130.5468646013
 20
338.9063619739
 10
130.2335395469
 20
338.7404131438
 10
129.7995244769
 20
338.5798143124
  0
LWPOLYLINE
  5
DB
330
1F
100
AcDbEntity
  8
0
  6
Continuous
 62
     7
370
    25
100
AcDbPolyline
 90
       23
 70
   128
 43
0.0
 10
107.7995244769
 20
335.2861927822
 10
107.9114886162
 20
335.0683224113
 10
108.2451017671
 20
334.8548872528
 10
108.793572528
 20
334.6502322312
 10
109.5457356157
 20
334.4585235324
 10
110.486279159
 20
334.2836637928
 10
111.5960564035
 20
334.1292126523
 10
112.8524754849
 20
333.9983142908
 10
114.2299593339
 20
333.8936334214
 10
115.7004663516
 20
333.8173010448
 10
117.2340612559
 20
333.7708710681
 10
118.7995244769
 20
333.7552886716
 10
120.3649876979
 20
333.7708710681
 10
121.8985826021
 20
333.8173010448
 10
123.3690896199
 20
333.8936334214
 10
124.7465734689
 20
333.9983142908
 10
126.0029925503
 20
334.1292126523
 10
127.1127697948
 20
334.2836637928
 10
128.053313338
 20
334.4585235324
 10
128.8054764258
 20
334.6502322312
 10
129.3539471866
 20
334.8548872528
 10
129.6875603376
 20
335.0683224113
 10
129.7995244769
 20
335.2861927822
  0
SPLINE
  5
DC
330
1F
100
AcDbEntity
  8
0
  6
Continuous
 62
     7
370
    25
100
AcDbSpline
210
0.0
220
0.0
230
1.0
 70
     8
 71
     3
 72
    10
 73
     6
 74
     0
 42
0.00000001
 43
0.00000001
 40
0.0
 40
0.0
 40
0.0
 40
0.0
 40
0.5
 40
0.5
 40
1.0
 40
1.0
 40
1.0
 40
1.0
 10
138.6804754692246
 20
341.0925065065097
 30
0.0
 10
137.9875251306108
 20
341.2131643846709
 30
0.0
 10
137.4425462939521
 20
341.3355727741435
 30
0.0
 10
136.7088518004573
 20
341.5733875078432
 30
0.0
 10
136.5204362344551
 20
341.6886965826722
 30
0.0
 10
136.5108687653449
 20
341.795748039724
 30
0.0
  0
SPLINE
  5
DD
330
1F
100
AcDbEntity
  8
0
  6
Continuous
 62
     7
370
    25
100
AcDbSpline
210
0.0
220
0.0
230
1.0
 70
     8
 71
     3
 72
     9
 73
     5
 74
     0
 42
0.00000001
 43
0.00000001
 40
0.0
 40
0.0
 40
0.0
 40
0.0
 40
0.5026324984746275
 40
1.0
 40
1.0
 40
1.0
 40
1.0
 10
138.6805500426335
 20
341.0922459865709
 30
0.0
 10
138.6758167095845
 20
340.9846168854169
 30
0.0
 10
138.6663996244112
 20
340.7704860811402
 30
0.0
 10
138.6518434142344
 20
340.5576699946452
 30
0.0
 10
138.644603628347
 20
340.4518221894207
 30
0.0
  0
SPLINE
  5
DE
330
1F
100
AcDbEntity
  8
0
  6
Continuous
 62
     7
370
    25
100
AcDbSpline
210
0.0
220
0.0
230
1.0
 70
     8
 71
     3
 72
     9
 73
     5
 74
     0
 42
0.00000001
 43
0.00000001
 40
0.0
 40
0.0
 40
0.0
 40
0.0
 40
0.4937563368102573
 40
1.0
 40
1.0
 40
1.0
 40
1.0
 10
138.6445343351506
 20
340.4518448886497
 30
0.0
 10
138.5974276584896
 20
339.7779640731011
 30
0.0
 10
138.5020229555034
 20
338.4131596841548
 30
0.0
 10
138.4064841275985
 20
337.0473533610796
 30
0.0
 10
138.3581182013831
 20
336.3559225648783
 30
0.0
  0
SPLINE
  5
DF
330
1F
100
AcDbEntity
  8
0
  6
Continuous
 62
     7
370
    25
100
AcDbSpline
210
0.0
220
0.0
230
1.0
 70
     8
 71
     3
 72
    46
 73
    42
 74
     0
 42
0.00000001
 43
0.00000001
 40
0.0
 40
0.0
 40
0.0
 40
0.0
 40
0.0126889404387956
 40
0.0261978269821296
 40
0.0406082174401729
 40
0.0652756182885492
 40
0.0705264644882981
 40
0.112339792198302
 40
0.124678667604535
 40
0.1288523647989282
 40
0.180338672053498
 40
0.1890286894911299
 40
0.1976824573760239
 40
0.2331128012344841
 40
0.2465876097903735
 40
0.2510392398061413
 40
0.3000478480375651
 40
0.314079235190269
 40
0.3413652922158507
 40
0.3741942412490927
 40
0.3932537000711335
 40
0.4214707561460848
 40
0.4420388903794677
 40
0.4752769216205621
 40
0.501032337801025
 40
0.5032417301656938
 40
0.509839722944139
 40
0.5185679554660628
 40
0.563183119356477
 40
0.5724962218429044
 40
0.5817274360906609
 40
0.674230110236427
 40
0.7117230691315672
 40
0.736607922062193
 40
0.7549479834982407
 40
0.8084230712406232
 40
0.8574741558656079
 40
0.8754182884012961
 40
0.9048286089909829
 40
0.9531976045701646
 40
1.0
 40
1.0
 40
1.0
 40
1.0
 10
138.3581182013831
 20
336.3559225648782
 30
0.0
 10
138.3544468124273
 20
336.3081724756152
 30
0.0
 10
138.3468667931884
 20
336.2095867360945
 30
0.0
 10
138.3305033556192
 20
336.0584314102327
 30
0.0
 10
138.304799830423
 20
335.8649355909525
 30
0.0
 10
138.2775270418155
 20
335.7049682010888
 30
0.0
 10
138.2272100917239
 20
335.4509136429842
 30
0.0
 10
138.1774611853464
 20
335.2464596444972
 30
0.0
 10
138.1209978664346
 20
335.0537393521773
 30
0.0
 10
138.0525631108989
 20
334.8317577461479
 30
0.0
 10
137.9795300393224
 20
334.6301807483266
 30
0.0
 10
137.8937076433255
 20
334.4246211209712
 30
0.0
 10
137.8262163000886
 20
334.2691047307503
 30
0.0
 10
137.7480369583103
 20
334.1052278137006
 30
0.0
 10
137.6713783936701
 20
333.9589873004138
 30
0.0
 10
137.5733432689067
 20
333.778043186779
 30
0.0
 10
137.4688876715383
 20
333.6030122755178
 30
0.0
 10
137.3212693344227
 20
333.3798282251587
 30
0.0
 10
137.1959335192568
 20
333.2023344423845
 30
0.0
 10
137.0559020841382
 20
333.0214159979231
 30
0.0
 10
136.9090680694575
 20
332.8455559441944
 30
0.0
 10
136.7807800711343
 20
332.7020544293991
 30
0.0
 10
136.6209366879527
 20
332.5351876420359
 30
0.0
 10
136.4608834458982
 20
332.3802715147753
 30
0.0
 10
136.333644733423
 20
332.2668908099816
 30
0.0
 10
136.2607106043891
 20
332.204388692289
 30
0.0
 10
136.2235339184856
 20
332.1729218359341
 30
0.0
 10
136.0954318442642
 20
332.0668132119371
 30
0.0
 10
135.9577849896518
 20
331.961159233361
 30
0.0
 10
135.8153757075683
 20
331.8600338555754
 30
0.0
 10
135.5627775403528
 20
331.685493366515
 30
0.0
 10
135.230581879828
 20
331.4888410379824
 30
0.0
 10
134.8407580188832
 20
331.3033634374615
 30
0.0
 10
134.6325472292878
 20
331.2152225143195
 30
0.0
 10
134.3790253123628
 20
331.116862684185
 30
0.0
 10
134.0536929818961
 20
331.0090637757837
 30
0.0
 10
133.71806785055
 20
330.9246318833943
 30
0.0
 10
133.4440108651745
 20
330.8696099946747
 30
0.0
 10
133.1680458647301
 20
330.8242544893917
 30
0.0
 10
132.801729516297
 20
330.7832655854316
 30
0.0
 10
132.5142235438334
 20
330.777362298206
 30
0.0
 10
132.3728368511622
 20
330.7744592410988
 30
0.0
  0
SPLINE
  5
E0
330
1F
100
AcDbEntity
  8
0
  6
Continuous
 62
     7
370
    25
100
AcDbSpline
210
0.0
220
0.0
230
1.0
 70
     8
 71
     3
 72
    33
 73
    29
 74
     0
 42
0.00000001
 43
0.00000001
 40
0.0
 40
0.0
 40
0.0
 40
0.0
 40
0.0326490432006013
 40
0.0652167200136202
 40
0.0976864219012566
 40
0.1300861352432506
 40
0.1624463724147851
 40
0.1947572201420583
 40
0.22694778194353
 40
0.2589734386876123
 40
0.2908158860672842
 40
0.3224646909467532
 40
0.3539162702109245
 40
0.3851726236660497
 40
0.4162399023224326
 40
0.4471269097716097
 40
0.4778436226556124
 40
0.5083997940492998
 40
0.5388036785468587
 40
0.5690608946713458
 40
0.5991734211314615
 40
0.657575114642476
 40
0.7154899446986906
 40
0.7729789447386161
 40
0.830101453368423
 40
0.8869230495488075
 40
0.9435228598043656
 40
1.0
 40
1.0
 40
1.0
 40
1.0
 10
132.3728368511617
 20
330.7744592411038
 30
0.0
 10
132.2458141612305
 20
330.7744618934201
 30
0.0
 10
131.9920853412547
 20
330.7744671914428
 30
0.0
 10
131.6044538460763
 20
330.7744885717937
 30
0.0
 10
131.2125553144239
 20
330.7744956012211
 30
0.0
 10
130.8159003496342
 20
330.7744785988639
 30
0.0
 10
130.4146390665255
 20
330.7744523396638
 30
0.0
 10
130.0091490974284
 20
330.7744487313917
 30
0.0
 10
129.6001894479561
 20
330.7744542398278
 30
0.0
 10
129.1885661946486
 20
330.7744579789797
 30
0.0
 10
128.774845056089
 20
330.774459966283
 30
0.0
 10
128.3594167027259
 20
330.7744588754817
 30
0.0
 10
127.9425812373087
 20
330.7744553133652
 30
0.0
 10
127.5245608657934
 20
330.7744504105601
 30
0.0
 10
127.1055163187083
 20
330.7744454634681
 30
0.0
 10
126.6855650620803
 20
330.7744413879332
 30
0.0
 10
126.2648003115425
 20
330.7744384885013
 30
0.0
 10
125.8433095218054
 20
330.7744365348597
 30
0.0
 10
125.4211932166407
 20
330.7744350634773
 30
0.0
 10
124.9985784851794
 20
330.7744343344162
 30
0.0
 10
124.442512930517
 20
330.7744355113859
 30
0.0
 10
123.7516672609867
 20
330.7744565036769
 30
0.0
 10
122.9246745902078
 20
330.7744889015104
 30
0.0
 10
122.098027319787
 20
330.7744857466313
 30
0.0
 10
121.2721076144959
 20
330.7744789203389
 30
0.0
 10
120.4471228707021
 20
330.774470651208
 30
0.0
 10
119.6230413090612
 20
330.7744670351798
 30
0.0
 10
119.0738309554117
 20
330.7744683736106
 30
0.0
 10
118.7995236804436
 20
330.7744690421
 30
0.0
  0
SPLINE
  5
E1
330
1F
100
AcDbEntity
  8
0
  6
Continuous
 62
     7
370
    25
100
AcDbSpline
210
0.0
220
0.0
230
1.0
 70
     8
 71
     3
 72
    34
 73
    30
 74
     0
 42
0.00000001
 43
0.00000001
 40
0.0
 40
0.0
 40
0.0
 40
0.0
 40
0.0334089084045165
 40
0.066846859473089
 40
0.1003393131794545
 40
0.1339081691667674
 40
0.167572164840689
 40
0.2013472678630149
 40
0.2352470702818854
 40
0.2692831997672955
 40
0.3034657887765189
 40
0.3378041228660362
 40
0.3723075482031524
 40
0.4069861067875005
 40
0.4418509930875358
 40
0.4769150871784756
 40
0.5121933554031116
 40
0.5476961158716507
 40
0.583427187508526
 40
0.6193936925618274
 40
0.6556039282748107
 40
0.6920639673474253
 40
0.7287741931671418
 40
0.7657260198151665
 40
0.8028990621990598
 40
0.8519683102540224
 40
0.9011376822149413
 40
0.9504639888415373
 40
1.0
 40
1.0
 40
1.0
 40
1.0
 10
118.7995236804436
 20
330.7744690421001
 30
0.0
 10
118.6372588038361
 20
330.7744689229677
 30
0.0
 10
118.3125879923069
 20
330.7744686845996
 30
0.0
 10
117.8254756135494
 20
330.7744708854475
 30
0.0
 10
117.3380459466256
 20
330.774477277798
 30
0.0
 10
116.8502108053331
 20
330.7744861353884
 30
0.0
 10
116.3619315487488
 20
330.7744951314813
 30
0.0
 10
115.8732144841288
 20
330.7745019900808
 30
0.0
 10
115.3841063825982
 20
330.774505032759
 30
0.0
 10
114.8946898687103
 20
330.7745026261856
 30
0.0
 10
114.4050772515207
 20
330.7744936590133
 30
0.0
 10
113.9154030529983
 20
330.7744720058672
 30
0.0
 10
113.425808737517
 20
330.7744481561739
 30
0.0
 10
112.9364317713932
 20
330.7744347732385
 30
0.0
 10
112.4474020937485
 20
330.7744342219496
 30
0.0
 10
111.9588372184169
 20
330.7744429146755
 30
0.0
 10
111.4708714017335
 20
330.7744548650015
 30
0.0
 10
110.9836938337616
 20
330.7744685080967
 30
0.0
 10
110.4975414823166
 20
330.7744808135729
 30
0.0
 10
110.0126710170847
 20
330.7744883106984
 30
0.0
 10
109.5293394283073
 20
330.7744884227847
 30
0.0
 10
109.0478435566029
 20
330.7744808917398
 30
0.0
 10
108.5685659621106
 20
330.7744681341115
 30
0.0
 10
108.0920050232727
 20
330.7744564721687
 30
0.0
 10
107.5691398492652
 20
330.7744461757622
 30
0.0
 10
107.0034490712185
 20
330.7744586530105
 30
0.0
 10
106.3992255066159
 20
330.7745020603786
 30
0.0
 10
105.8047167720921
 20
330.7744767076967
 30
0.0
 10
105.4191403090269
 20
330.7744653945538
 30
0.0
 10
105.2259431394202
 20
330.7744597259837
 30
0.0
  0
SPLINE
  5
E2
330
1F
100
AcDbEntity
  8
0
  6
Continuous
 62
     7
370
    25
100
AcDbSpline
210
0.0
220
0.0
230
1.0
 70
     8
 71
     3
 72
    49
 73
    45
 74
     0
 42
0.00000001
 43
0.00000001
 40
0.0
 40
0.0
 40
0.0
 40
0.0
 40
0.0234075449274016
 40
0.047201106442562
 40
0.0713958635114994
 40
0.096004711741601
 40
0.1210474879266014
 40
0.1388458643439743
 40
0.1629427313752177
 40
0.2358798714531722
 40
0.2537178858950579
 40
0.2597190185291446
 40
0.3203597316780082
 40
0.3557041818540828
 40
0.4046189194174492
 40
0.4334278102419501
 40
0.4511043156096909
 40
0.4751617432754936
 40
0.50204500987755
 40
0.508755402540199
 40
0.5177770891712327
 40
0.555962564592931
 40
0.5639812553421508
 40
0.5666716790123244
 40
0.6224001119642647
 40
0.6311085704703021
 40
0.6399140836346706
 40
0.6834671835978385
 40
0.696633125966379
 40
0.7100269454657773
 40
0.744512908190802
 40
0.7658986622380848
 40
0.8013934074635827
 40
0.8148804970612956
 40
0.8374042157085889
 40
0.8718747120427918
 40
0.88023976564653
 40
0.9043936182443789
 40
0.9265958816781596
 40
0.942113550653846
 40
0.9636103895896477
 40
0.983186732111176
 40
0.9917593818197553
 40
1.0
 40
1.0
 40
1.0
 40
1.0
 10
105.2259431394201
 20
330.7744597259841
 30
0.0
 10
105.1550491014778
 20
330.7751873782057
 30
0.0
 10
105.0120919036412
 20
330.7766546824475
 30
0.0
 10
104.798527395316
 20
330.7884889333592
 30
0.0
 10
104.5836335045516
 20
330.8075751891081
 30
0.0
 10
104.3677498655247
 20
330.8348076372706
 30
0.0
 10
104.1731851203483
 20
330.8665526498743
 30
0.0
 10
103.9824695055316
 20
330.9037785399642
 30
0.0
 10
103.6594034582365
 20
330.9770409392975
 30
0.0
 10
103.3459202687457
 20
331.0717498761398
 30
0.0
 10
103.0904293163342
 20
331.167018556852
 30
0.0
 10
102.8693507123006
 20
331.2536804139306
 30
0.0
 10
102.609024036572
 20
331.3701281455766
 30
0.0
 10
102.2534788876446
 20
331.5584967071251
 30
0.0
 10
101.9858927401265
 20
331.7209291349916
 30
0.0
 10
101.7680622336888
 20
331.8697350571985
 30
0.0
 10
101.610533173745
 20
331.9849292350721
 30
0.0
 10
101.4604293149166
 20
332.1014946638959
 30
0.0
 10
101.3375619600498
 20
332.2040712777658
 30
0.0
 10
101.2483499175931
 20
332.2821533569854
 30
0.0
 10
101.136435737027
 20
332.3822905996889
 30
0.0
 10
101.0247499661043
 20
332.4890379286668
 30
0.0
 10
100.9285179142977
 20
332.5871989574125
 30
0.0
 10
100.7985924297361
 20
332.7217383188421
 30
0.0
 10
100.6718755579594
 20
332.8641589297644
 30
0.0
 10
100.5395264960244
 20
333.0276041131123
 30
0.0
 10
100.430518458975
 20
333.1657411713475
 30
0.0
 10
100.3178732686847
 20
333.3200594356256
 30
0.0
 10
100.2027322255458
 20
333.4925549101729
 30
0.0
 10
100.1047204059899
 20
333.6458376275976
 30
0.0
 10
99.99819145831047
 20
333.8262856605613
 30
0.0
 10
99.8654733347748
 20
334.074786396641
 30
0.0
 10
99.76967392358685
 20
334.2748492067893
 30
0.0
 10
99.67860238904436
 20
334.4860596737828
 30
0.0
 10
99.5935602524084
 20
334.7001373721548
 30
0.0
 10
99.52218259832333
 20
334.9076938116559
 30
0.0
 10
99.45562464718125
 20
335.1273031763612
 30
0.0
 10
99.40545337310382
 20
335.3110839944044
 30
0.0
 10
99.35619595317898
 20
335.5257102183741
 30
0.0
 10
99.31538175220066
 20
335.7360865196641
 30
0.0
 10
99.28262750335614
 20
335.941539322796
 30
0.0
 10
99.26053487153536
 20
336.1254296544819
 30
0.0
 10
99.24767240734153
 20
336.2615722726749
 30
0.0
 10
99.24296035047661
 20
336.3248880000331
 30
0.0
 10
99.24065084933001
 20
336.3559206783567
 30
0.0
  0
SPLINE
  5
E3
330
1F
100
AcDbEntity
  8
0
  6
Continuous
 62
     7
370
    25
100
AcDbSpline
210
0.0
220
0.0
230
1.0
 70
     8
 71
     3
 72
     9
 73
     5
 74
     0
 42
0.00000001
 43
0.00000001
 40
0.0
 40
0.0
 40
0.0
 40
0.0
 40
0.5059315730489901
 40
1.0
 40
1.0
 40
1.0
 40
1.0
 10
99.24065084933004
 20
336.3559206783567
 30
0.0
 10
99.19172671924586
 20
337.0553205470388
 30
0.0
 10
99.09502563813062
 20
338.4377206697811
 30
0.0
 10
98.99847056349415
 20
339.8190630287989
 30
0.0
 10
98.95076574965438
 20
340.5015406751996
 30
0.0
  0
SPLINE
  5
E4
330
1F
100
AcDbEntity
  8
0
  6
Continuous
 62
     7
370
    25
100
AcDbSpline
210
0.0
220
0.0
230
1.0
 70
     8
 71
     3
 72
     9
 73
     5
 74
     0
 42
0.00000001
 43
0.00000001
 40
0.0
 40
0.0
 40
0.0
 40
0.0
 40
0.4975453002822975
 40
1.0
 40
1.0
 40
1.0
 40
1.0
 10
98.95088804021037
 20
340.5015792764611
 30
0.0
 10
98.94443330038241
 20
340.5992690205878
 30
0.0
 10
98.93146013025235
 20
340.7956124370994
 30
0.0
 10
98.92283450933422
 20
340.993044881463
 30
0.0
 10
98.91850052556593
 20
341.0922457410104
 30
0.0
  0
SPLINE
  5
E5
330
1F
100
AcDbEntity
  8
0
  6
Continuous
 62
     7
370
    25
100
AcDbSpline
210
0.0
220
0.0
230
1.0
 70
     8
 71
     3
 72
    18
 73
    14
 74
     0
 42
0.00000001
 43
0.00000001
 40
0.0
 40
0.0
 40
0.0
 40
0.0
 40
0.0404737644095329
 40
0.0865644045772922
 40
0.1387414044418928
 40
0.1962005730170535
 40
0.3319343511525966
 40
0.4676290395795221
 40
0.5989623898582501
 40
0.6993114873836896
 40
0.796479379097907
 40
0.9007908936023938
 40
1.0
 40
1.0
 40
1.0
 40
1.0
 10
101.0881893004482
 20
341.7954658393786
 30
0.0
 10
101.086860179928
 20
341.7866998379596
 30
0.0
 10
101.0840174859479
 20
341.7679513053133
 30
0.0
 10
101.0675396333335
 20
341.73745511603
 30
0.0
 10
101.0399816128289
 20
341.7029153937019
 30
0.0
 10
100.975636875982
 20
341.6478098997813
 30
0.0
 10
100.8452440863238
 20
341.5726008729237
 30
0.0
 10
100.6073420195241
 20
341.478444282942
 30
0.0
 10
100.3221601963361
 20
341.3910952956844
 30
0.0
 10
100.0145286470577
 20
341.3121184973814
 30
0.0
 10
99.69066034632571
 20
341.2390439448365
 30
0.0
 10
99.3312994382016
 20
341.1659603524034
 30
0.0
 10
99.05378187747867
 20
341.1163798696874
 30
0.0
 10
98.91850187937858
 20
341.0922111374812
 30
0.0
  0
SPLINE
  5
E6
330
1F
100
AcDbEntity
  8
0
  6
Continuous
 62
     7
370
    25
100
AcDbSpline
210
0.0
220
0.0
230
1.0
 70
     8
 71
     3
 72
    35
 73
    31
 74
     0
 42
0.00000001
 43
0.00000001
 40
0.0
 40
0.0
 40
0.0
 40
0.0
 40
0.0334738834135567
 40
0.0665822652413456
 40
0.0995060516759313
 40
0.132435899764092
 40
0.1655811834779254
 40
0.1991805413052133
 40
0.2335036511564907
 40
0.2558619322100982
 40
0.2865313031290345
 40
0.4014583855833662
 40
0.4145342942382448
 40
0.4277965612601757
 40
0.5256617585504982
 40
0.5661802079667138
 40
0.5706098703972314
 40
0.5967186570130834
 40
0.6521208309243576
 40
0.6692717011560129
 40
0.6726806497457424
 40
0.6827620711187112
 40
0.6958751372667742
 40
0.7463848433130452
 40
0.7560992139849292
 40
0.7592731673648075
 40
0.8278863213193621
 40
0.8894569593496157
 40
0.9463134274264944
 40
1.0
 40
1.0
 40
1.0
 40
1.0
 10
98.92249563306996
 20
357.5834269226132
 30
0.0
 10
98.92664195885574
 20
357.6793526414735
 30
0.0
 10
98.93488933666474
 20
357.8701566655457
 30
0.0
 10
98.95260282324416
 20
358.1541136707579
 30
0.0
 10
98.974144385405
 20
358.4352503724515
 30
0.0
 10
99.0001894969104
 20
358.7148110147673
 30
0.0
 10
99.0310902769358
 20
358.9942115418513
 30
0.0
 10
99.06750077074523
 20
359.2749621982657
 30
0.0
 10
99.10483525697217
 20
359.5230070549989
 30
0.0
 10
99.14498449024981
 20
359.7604198920003
 30
0.0
 10
99.22971211089894
 20
360.2115538612709
 30
0.0
 10
99.33069157121994
 20
360.6232365293811
 30
0.0
 10
99.43961376843338
 20
360.9685781325375
 30
0.0
 10
99.53888209780041
 20
361.2683728814641
 30
0.0
 10
99.67913588279903
 20
361.6144665666682
 30
0.0
 10
99.83494114852299
 20
361.9055859495717
 30
0.0
 10
99.9163021144746
 20
362.0443746081324
 30
0.0
 10
100.0178651736702
 20
362.2072010684669
 30
0.0
 10
100.1441586247205
 20
362.377987714777
 30
0.0
 10
100.2475678179999
 20
362.4973639458092
 30
0.0
 10
100.2899801331069
 20
362.5441372084958
 30
0.0
 10
100.3272005500402
 20
362.5839588737553
 30
0.0
 10
100.4321677150143
 20
362.6904966608269
 30
0.0
 10
100.5416861731776
 20
362.7861732275896
 30
0.0
 10
100.6399787942885
 20
362.8602861852663
 30
0.0
 10
100.767333942344
 20
362.9532366740356
 30
0.0
 10
100.9849223165928
 20
363.0841604294302
 30
0.0
 10
101.3094164522518
 20
363.2148302321845
 30
0.0
 10
101.6208798506923
 20
363.297119782563
 30
0.0
 10
101.8293108537016
 20
363.3228221999631
 30
0.0
 10
101.9305379061129
 20
363.3353048916726
 30
0.0
  0
SPLINE
  5
E7
330
1F
100
AcDbEntity
  8
0
  6
Continuous
 62
     7
370
    25
100
AcDbSpline
210
0.0
220
0.0
230
1.0
 70
     8
 71
     3
 72
    38
 73
    34
 74
     0
 42
0.00000001
 43
0.00000001
 40
0.0
 40
0.0
 40
0.0
 40
0.0
 40
0.0202441099826072
 40
0.0404133547856224
 40
0.0608821555381693
 40
0.0730801034538686
 40
0.0974456172924858
 40
0.1285082873306243
 40
0.1471225968000921
 40
0.19657512263542
 40
0.2539819706110324
 40
0.2731259341744794
 40
0.2986649192104989
 40
0.3637664009634753
 40
0.3767671644558067
 40
0.4027076216329323
 40
0.5001870833793965
 40
0.5010593726890996
 40
0.5019313373843262
 40
0.5071563163151918
 40
0.5904559320911497
 40
0.6158298401399059
 40
0.6252783010012348
 40
0.6409501783939359
 40
0.7149504483409398
 40
0.7457481662379042
 40
0.7641064277599041
 40
0.8126909354515
 40
0.8690817229884413
 40
0.887794135997674
 40
0.9126965461799651
 40
0.9563753821422146
 40
1.0
 40
1.0
 40
1.0
 40
1.0
 10
101.9305368829718
 20
363.3353284830108
 30
0.0
 10
102.0160871806509
 20
363.3434674280719
 30
0.0
 10
102.1868714006088
 20
363.3597152193859
 30
0.0
 10
102.4503759775969
 20
363.3843728178829
 30
0.0
 10
102.6829446822973
 20
363.4057672038909
 30
0.0
 10
102.9376558552322
 20
363.428887027768
 30
0.0
 10
103.2443782947502
 20
363.4562890518942
 30
0.0
 10
103.5878678507123
 20
363.4862883842484
 30
0.0
 10
104.0566204040313
 20
363.5262485021254
 30
0.0
 10
104.6652103144024
 20
363.5764652773494
 30
0.0
 10
105.2992562102955
 20
363.6259194408325
 30
0.0
 10
105.8253716249235
 20
363.6650484133348
 30
0.0
 10
106.3988337953575
 20
363.7065753690548
 30
0.0
 10
106.9546025044941
 20
363.7446266987287
 30
0.0
 10
107.5236372335336
 20
363.7815299140303
 30
0.0
 10
108.2769686510093
 20
363.8290382512938
 30
0.0
 10
108.9840479064405
 20
363.8695976689267
 30
0.0
 10
109.5590283483306
 20
363.8996865553221
 30
0.0
 10
109.5994273048431
 20
363.9017971272003
 30
0.0
 10
110.1182362822534
 20
363.92874332581
 30
0.0
 10
110.7907136829135
 20
363.9607456067764
 30
0.0
 10
111.4996395853751
 20
363.9905506397907
 30
0.0
 10
111.8042356225335
 20
364.0028109224151
 30
0.0
 10
112.4042628708316
 20
364.0261863156017
 30
0.0
 10
113.1426580886027
 20
364.0515647855029
 30
0.0
 10
113.9057208959661
 20
364.0735825237904
 30
0.0
 10
114.5141394214867
 20
364.089551059593
 30
0.0
 10
115.2864298530279
 20
364.1070875876638
 30
0.0
 10
116.0666181770142
 20
364.1204552479394
 30
0.0
 10
116.699606041271
 20
364.1287533258509
 30
0.0
 10
117.2531338848578
 20
364.1346754013428
 30
0.0
 10
117.9662283708683
 20
364.1399193888174
 30
0.0
 10
118.5218310881976
 20
364.1406718731462
 30
0.0
 10
118.7994599237555
 20
364.1410478816528
 30
0.0
  0
SPLINE
  5
E8
330
1F
100
AcDbEntity
  8
0
  6
Continuous
 62
     7
370
    25
100
AcDbSpline
210
0.0
220
0.0
230
1.0
 70
     8
 71
     3
 72
    40
 73
    36
 74
     0
 42
0.00000001
 43
0.00000001
 40
0.0
 40
0.0
 40
0.0
 40
0.0
 40
0.0233561060231357
 40
0.0467255402476401
 40
0.0701131870735152
 40
0.0935247907221529
 40
0.1169719340683667
 40
0.129441440518375
 40
0.1544322829404092
 40
0.2290252913141776
 40
0.2473723313837667
 40
0.25350637633751
 40
0.3504955004231225
 40
0.3806520872828528
 40
0.3867254420308505
 40
0.448745188087394
 40
0.4868085234004249
 40
0.4996325587725157
 40
0.5005040105346181
 40
0.5031202769368872
 40
0.5066130978800202
 40
0.5933139301351286
 40
0.6242962986907459
 40
0.6277473217913406
 40
0.6484759637998455
 40
0.7447802452603164
 40
0.7514123503562381
 40
0.7845517326938466
 40
0.8647646545623885
 40
0.8715467618264945
 40
0.8918846500884762
 40
0.9327288576335518
 40
0.9395474810994011
 40
0.9698996575333575
 40
1.0
 40
1.0
 40
1.0
 40
1.0
 10
118.799459923756
 20
364.1410478816532
 30
0.0
 10
118.9480901588567
 20
364.1409400896354
 30
0.0
 10
119.245435445153
 20
364.1407244440882
 30
0.0
 10
119.6914313328259
 20
364.1389758348861
 30
0.0
 10
120.1374232083669
 20
364.1361794789041
 30
0.0
 10
120.5833738089719
 20
364.1322360025895
 30
0.0
 10
120.9594122391351
 20
364.1279693836877
 30
0.0
 10
121.3448623784711
 20
364.1228509362873
 30
0.0
 10
122.0527119934755
 20
364.1120275052248
 30
0.0
 10
122.7937769571549
 20
364.096761262613
 30
0.0
 10
123.4112177400632
 20
364.081005952995
 30
0.0
 10
124.1665342334634
 20
364.0607448042248
 30
0.0
 10
124.9877848109852
 20
364.0341533442943
 30
0.0
 10
125.7946199701463
 20
364.0028633864697
 30
0.0
 10
126.3866065170583
 20
363.9787989147958
 30
0.0
 10
127.0200200502815
 20
363.9508118070209
 30
0.0
 10
127.6820611516761
 20
363.9182347999583
 30
0.0
 10
127.9826701352883
 20
363.9026852277282
 30
0.0
 10
128.0771566324487
 20
363.8977335102706
 30
0.0
 10
128.1175645632372
 20
363.8956088290416
 30
0.0
 10
128.6541653653873
 20
363.867230610409
 30
0.0
 10
129.3428122703402
 20
363.8276869737525
 30
0.0
 10
130.0122437952083
 20
363.7855497826197
 30
0.0
 10
130.3144999948692
 20
363.7660401906148
 30
0.0
 10
130.9706443627502
 20
363.7229305142556
 30
0.0
 10
131.6241665445272
 20
363.676566299616
 30
0.0
 10
132.3203310803874
 20
363.6240498946664
 30
0.0
 10
132.926531850406
 20
363.577158193676
 30
0.0
 10
133.5110865366749
 20
363.5290510920613
 30
0.0
 10
134.0163069831281
 20
363.4857393410041
 30
0.0
 10
134.3328831317312
 20
363.4582266421418
 30
0.0
 10
134.6420059624232
 20
363.4306570148101
 30
0.0
 10
134.9894146141689
 20
363.3990416214692
 30
0.0
 10
135.2847627787114
 20
363.3717217514975
 30
0.0
 10
135.5409091241244
 20
363.3474094142004
 30
0.0
 10
135.6684487677774
 20
363.3353038858929
 30
0.0
  0
SPLINE
  5
E9
330
1F
100
AcDbEntity
  8
0
  6
Continuous
 62
     7
370
    25
100
AcDbSpline
210
0.0
220
0.0
230
1.0
 70
     8
 71
     3
 72
    32
 73
    28
 74
     0
 42
0.00000001
 43
0.00000001
 40
0.0
 40
0.0
 40
0.0
 40
0.0
 40
0.0301271789740068
 40
0.061252027823851
 40
0.0935195390160354
 40
0.1271216448732765
 40
0.162361217118821
 40
0.1996541380386774
 40
0.2400114482996054
 40
0.2442311357378238
 40
0.2661013614181258
 40
0.3142863147552371
 40
0.3315205809165997
 40
0.3350682529743488
 40
0.34588210265343
 40
0.3607081482861288
 40
0.4567379779278853
 40
0.5560724089193988
 40
0.5897371781860877
 40
0.596316246387341
 40
0.6581910002992196
 40
0.7551365247867853
 40
0.770288537232833
 40
0.7852717127341265
 40
0.8574548421723396
 40
0.9283435641303206
 40
1.0
 40
1.0
 40
1.0
 40
1.0
 10
135.6684481640635
 20
363.3352904971458
 30
0.0
 10
135.7254413653615
 20
363.328956540691
 30
0.0
 10
135.8413151136037
 20
363.3160788770591
 30
0.0
 10
136.0144905565402
 20
363.2840972547866
 30
0.0
 10
136.1907753562548
 20
363.2404584583935
 30
0.0
 10
136.3702808965425
 20
363.1819836865961
 30
0.0
 10
136.5536408648231
 20
363.1058800572858
 30
0.0
 10
136.7423553606167
 20
363.0076478238697
 30
0.0
 10
136.8738236430053
 20
362.9224939624552
 30
0.0
 10
136.9776969579289
 20
362.8467998996318
 30
0.0
 10
137.0919662791541
 20
362.7578830542466
 30
0.0
 10
137.2202306479627
 20
362.6396101468627
 30
0.0
 10
137.3166196517649
 20
362.5362098180297
 30
0.0
 10
137.3600528371461
 20
362.4874019841949
 30
0.0
 10
137.3997096711722
 20
362.4413915761516
 30
0.0
 10
137.5614851562727
 20
362.2428651766436
 30
0.0
 10
137.8145882140351
 20
361.8487088834289
 30
0.0
 10
138.0353538015437
 20
361.3380336681959
 30
0.0
 10
138.1486439943729
 20
361.0029590113842
 30
0.0
 10
138.2271625026157
 20
360.7530825474985
 30
0.0
 10
138.3422975084557
 20
360.3353940951353
 30
0.0
 10
138.4364993508464
 20
359.8713965727167
 30
0.0
 10
138.4933577872733
 20
359.5250623620531
 30
0.0
 10
138.5366663837288
 20
359.2446180658155
 30
0.0
 10
138.5923021587594
 20
358.80457589969
 30
0.0
 10
138.6470181742843
 20
358.1969078498907
 30
0.0
 10
138.666673339867
 20
357.7886960011236
 30
0.0
 10
138.6765538516539
 20
357.5834908113563
 30
0.0
  0
SPLINE
  5
EA
330
1F
100
AcDbEntity
  8
0
  6
Continuous
 62
     7
370
    25
100
AcDbSpline
210
0.0
220
0.0
230
1.0
 70
     8
 71
     3
 72
    20
 73
    16
 74
     0
 42
0.00000001
 43
0.00000001
 40
0.0
 40
0.0
 40
0.0
 40
0.0
 40
0.0422377424056747
 40
0.0853343856079606
 40
0.1293696732847748
 40
0.1741862745781754
 40
0.2194173913593153
 40
0.264662472652533
 40
0.3095906625455761
 40
0.3539301860209008
 40
0.3975359590368794
 40
0.6574422707714758
 40
0.8940247255014339
 40
0.9476816534536909
 40
1.0
 40
1.0
 40
1.0
 40
1.0
 10
136.5074347397501
 20
356.8728266472596
 30
0.0
 10
136.5089321745506
 20
356.882079409671
 30
0.0
 10
136.5119574943571
 20
356.9007730886079
 30
0.0
 10
136.5266625832737
 20
356.9293690537858
 30
0.0
 10
136.5497262024755
 20
356.9589273263173
 30
0.0
 10
136.5812763205467
 20
356.9893414976166
 30
0.0
 10
136.6220292334234
 20
357.0201664061245
 30
0.0
 10
136.6716216536265
 20
357.0513236921833
 30
0.0
 10
136.7292088439988
 20
357.0825370780449
 30
0.0
 10
136.7949416706017
 20
357.1135741471972
 30
0.0
 10
136.9885227930559
 20
357.1953952096449
 30
0.0
 10
137.4038042357408
 20
357.3253249482489
 30
0.0
 10
138.0148475704727
 20
357.4602808044248
 30
0.0
 10
138.4579521665225
 20
357.5445731843784
 30
0.0
 10
138.6043022382762
 20
357.5706424442678
 30
0.0
 10
138.6765529949486
 20
357.5835124328529
 30
0.0
  0
SPLINE
  5
EB
330
1F
100
AcDbEntity
  8
0
  6
Continuous
 62
     7
370
    25
100
AcDbSpline
210
0.0
220
0.0
230
1.0
 70
     8
 71
     3
 72
    10
 73
     6
 74
     0
 42
0.00000001
 43
0.00000001
 40
0.0
 40
0.0
 40
0.0
 40
0.0
 40
0.5
 40
0.5
 40
1.0
 40
1.0
 40
1.0
 40
1.0
 10
98.92257778218688
 20
357.58340993657
 30
0.0
 10
99.61543968445945
 20
357.4614677377974
 30
0.0
 10
100.1603591424963
 20
357.337753240152
 30
0.0
 10
100.8938931491043
 20
357.0974134403522
 30
0.0
 10
101.0822066169328
 20
356.9808867862286
 30
0.0
 10
101.0916546004122
 20
356.872719656983
 30
0.0
  0
SPLINE
  5
EC
330
1F
100
AcDbEntity
  8
0
  6
Continuous
 62
     7
370
    25
100
AcDbSpline
210
0.0
220
0.0
230
1.0
 70
     8
 71
     3
 72
    18
 73
    14
 74
     0
 42
0.00000001
 43
0.00000001
 40
0.0
 40
0.0
 40
0.0
 40
0.0
 40
0.022466465470554
 40
0.1272440398323624
 40
0.232532256625733
 40
0.3400410570453083
 40
0.4481612675115169
 40
0.5541854771807914
 40
0.6586954849376464
 40
0.7646052982353405
 40
0.8726497069564495
 40
0.9802812232171477
 40
1.0
 40
1.0
 40
1.0
 40
1.0
 10
141.2894681963134
 20
312.9851571857209
 30
0.0
 10
141.2925982007204
 20
312.970723185177
 30
0.0
 10
141.3103257068985
 20
312.8889728741385
 30
0.0
 10
141.2245673754528
 20
313.2770432445784
 30
0.0
 10
141.0589278699784
 20
314.1322651335869
 30
0.0
 10
140.8656762196538
 20
315.4582943488568
 30
0.0
 10
140.7427158482141
 20
317.0556741931073
 30
0.0
 10
140.7442282493444
 20
318.7396234531233
 30
0.0
 10
140.8651694959432
 20
320.3079954976245
 30
0.0
 10
141.0560590394504
 20
321.6303243511096
 30
0.0
 10
141.2248435624366
 20
322.5026873407164
 30
0.0
 10
141.3115860713035
 20
322.8944949947714
 30
0.0
 10
141.2933866196973
 20
322.8105228763065
 30
0.0
 10
141.2905686369882
 20
322.7975207275056
 30
0.0
  0
LINE
  5
ED
330
1F
100
AcDbEntity
  8
0
  6
Continuous
 62
     7
370
    25
100
AcDbLine
 10
118.7995244769
 20
383.8244598338
 30
0.0
 11
96.2995244769
 21
383.8244598338
 31
0.0
  0
LINE
  5
EE
330
1F
100
AcDbEntity
  8
0
  6
Continuous
 62
     7
370
    25
100
AcDbLine
 10
141.2995244769
 20
383.8244598338
 30
0.0
 11
118.7995244769
 21
383.8244598338
 31
0.0
  0
LINE
  5
EF
330
1F
100
AcDbEntity
  8
0
  6
Continuous
 62
     7
370
    25
100
AcDbLine
 10
118.7995244769
 20
260.3244598338
 30
0.0
 11
96.2995244769
 21
260.3244598338
 31
0.0
  0
LINE
  5
F0
330
1F
100
AcDbEntity
  8
0
  6
Continuous
 62
     7
370
    25
100
AcDbLine
 10
141.2995244769
 20
260.3244598338
 30
0.0
 11
118.7995244769
 21
260.3244598338
 31
0.0
  0
SPLINE
  5
F1
330
1F
100
AcDbEntity
  8
0
  6
Continuous
 62
     7
370
    25
100
AcDbSpline
210
0.0
220
0.0
230
1.0
 70
     8
 71
     3
 72
    22
 73
    18
 74
     0
 42
0.00000001
 43
0.00000001
 40
0.0
 40
0.0
 40
0.0
 40
0.0
 40
0.125
 40
0.125
 40
0.25
 40
0.25
 40
0.375
 40
0.375
 40
0.5
 40
0.5
 40
0.625
 40
0.625
 40
0.75
 40
0.75
 40
0.875
 40
0.875
 40
1.0
 40
1.0
 40
1.0
 40
1.0
 10
121.799524476874
 20
275.024459833795
 30
0.0
 10
122.0676057758725
 20
275.0244598337949
 30
0.0
 10
122.3361784486281
 20
275.0508011112138
 30
0.0
 10
122.8650180615601
 20
275.1561583968507
 30
0.0
 10
123.1198851661668
 20
275.2337789582186
 30
0.0
 10
123.6115199400849
 20
275.4369915333606
 30
0.0
 10
123.8504831380664
 20
275.5643458399396
 30
0.0
 10
124.2935596516101
 20
275.8593975638919
 30
0.0
 10
124.4989608831918
 20
276.0270023239884
 30
0.0
 10
124.877662431152
 20
276.4030141387196
 30
0.0
 10
125.0506057446706
 20
276.6121650626569
 30
0.0
 10
125.3487231803012
 20
277.0545943815262
 30
0.0
 10
125.4761854985747
 20
277.2898569348145
 30
0.0
 10
125.6858648824209
 20
277.7903075495132
 30
0.0
 10
125.7654848778003
 20
278.050301846649
 30
0.0
 10
125.871979466406
 20
278.5787789368409
 30
0.0
 10
125.899524476874
 20
278.8516249089241
 30
0.0
 10
125.899524476874
 20
279.124459833795
 30
0.0
  0
LINE
  5
F2
330
1F
100
AcDbEntity
  8
0
  6
Continuous
 62
     7
370
    25
100
AcDbLine
 10
125.8995244769
 20
291.5244598338
 30
0.0
 11
125.8995244769
 21
279.1244598338
 31
0.0
  0
SPLINE
  5
F3
330
1F
100
AcDbEntity
  8
0
  6
Continuous
 62
     7
370
    25
100
AcDbSpline
210
0.0
220
0.0
230
1.0
 70
     8
 71
     3
 72
    22
 73
    18
 74
     0
 42
0.00000001
 43
0.00000001
 40
0.0
 40
0.0
 40
0.0
 40
0.0
 40
0.125
 40
0.125
 40
0.25
 40
0.25
 40
0.375
 40
0.375
 40
0.5
 40
0.5
 40
0.625
 40
0.625
 40
0.75
 40
0.75
 40
0.875
 40
0.875
 40
1.0
 40
1.0
 40
1.0
 40
1.0
 10
121.799524476874
 20
295.6244598337949
 30
0.0
 10
122.069981432183
 20
295.624459833795
 30
0.0
 10
122.3395700122002
 20
295.5974832659623
 30
0.0
 10
122.8628219033925
 20
295.4931583159134
 30
0.0
 10
123.1206131708717
 20
295.4150389373696
 30
0.0
 10
123.6160207508216
 20
295.209866512211
 30
0.0
 10
123.8501250748984
 20
295.08473562893
 30
0.0
 10
124.2922812097458
 20
294.7904497940925
 30
0.0
 10
124.5020929824288
 20
294.6191467421731
 30
0.0
 10
124.8798236639724
 20
294.2434156087322
 30
0.0
 10
125.0492780252397
 20
294.0386111798016
 30
0.0
 10
125.34896504402
 20
293.594079793121
 30
0.0
 10
125.4786017694252
 20
293.353772649828
 30
0.0
 10
125.6856349034734
 20
292.8586790270853
 30
0.0
 10
125.7649773352824
 20
292.601374480172
 30
0.0
 10
125.8727661402671
 20
292.0659982714329
 30
0.0
 10
125.899524476874
 20
291.7947963400075
 30
0.0
 10
125.899524476874
 20
291.5244598337949
 30
0.0
  0
LINE
  5
F4
330
1F
100
AcDbEntity
  8
0
  6
Continuous
 62
     7
370
    25
100
AcDbLine
 10
115.7995244769
 20
295.6244598338
 30
0.0
 11
121.7995244769
 21
295.6244598338
 31
0.0
  0
SPLINE
  5
F5
330
1F
100
AcDbEntity
  8
0
  6
Continuous
 62
     7
370
    25
100
AcDbSpline
210
0.0
220
0.0
230
1.0
 70
     8
 71
     3
 72
    22
 73
    18
 74
     0
 42
0.00000001
 43
0.00000001
 40
0.0
 40
0.0
 40
0.0
 40
0.0
 40
0.1250000000000002
 40
0.1250000000000002
 40
0.2500000000000002
 40
0.2500000000000002
 40
0.3750000000000002
 40
0.3750000000000002
 40
0.5000000000000001
 40
0.5000000000000001
 40
0.6250000000000001
 40
0.6250000000000001
 40
0.7500000000000001
 40
0.7500000000000001
 40
0.875
 40
0.875
 40
1.0
 40
1.0
 40
1.0
 40
1.0
 10
115.799524476874
 20
295.6244598337949
 30
0.0
 10
115.529067521565
 20
295.624459833795
 30
0.0
 10
115.2594789415478
 20
295.5974832659623
 30
0.0
 10
114.7362270503555
 20
295.4931583159134
 30
0.0
 10
114.4784357828763
 20
295.4150389373696
 30
0.0
 10
113.9830282029263
 20
295.209866512211
 30
0.0
 10
113.7489238788496
 20
295.0847356289299
 30
0.0
 10
113.3067677440022
 20
294.7904497940925
 30
0.0
 10
113.0969559713192
 20
294.6191467421731
 30
0.0
 10
112.7192252897755
 20
294.2434156087322
 30
0.0
 10
112.5497709285083
 20
294.0386111798016
 30
0.0
 10
112.250083909728
 20
293.594079793121
 30
0.0
 10
112.1204471843228
 20
293.353772649828
 30
0.0
 10
111.9134140502746
 20
292.8586790270853
 30
0.0
 10
111.8340716184655
 20
292.601374480172
 30
0.0
 10
111.7262828134809
 20
292.0659982714329
 30
0.0
 10
111.699524476874
 20
291.7947963400075
 30
0.0
 10
111.699524476874
 20
291.5244598337949
 30
0.0
  0
LINE
  5
F6
330
1F
100
AcDbEntity
  8
0
  6
Continuous
 62
     7
370
    25
100
AcDbLine
 10
111.6995244769
 20
291.5244598338
 30
0.0
 11
111.6995244769
 21
279.1244598338
 31
0.0
  0
SPLINE
  5
F7
330
1F
100
AcDbEntity
  8
0
  6
Continuous
 62
     7
370
    25
100
AcDbSpline
210
0.0
220
0.0
230
1.0
 70
     8
 71
     3
 72
    22
 73
    18
 74
     0
 42
0.00000001
 43
0.00000001
 40
0.0
 40
0.0
 40
0.0
 40
0.0
 40
0.125
 40
0.125
 40
0.2499999999999999
 40
0.2499999999999999
 40
0.3749999999999999
 40
0.3749999999999999
 40
0.4999999999999999
 40
0.4999999999999999
 40
0.6249999999999999
 40
0.6249999999999999
 40
0.7499999999999998
 40
0.7499999999999998
 40
0.8749999999999998
 40
0.8749999999999998
 40
1.0
 40
1.0
 40
1.0
 40
1.0
 10
111.699524476874
 20
279.124459833795
 30
0.0
 10
111.699524476874
 20
278.8542842745546
 30
0.0
 10
111.7266977630213
 20
278.5805341132759
 30
0.0
 10
111.8340413061177
 20
278.0480231877434
 30
0.0
 10
111.913177616695
 20
277.7906641077101
 30
0.0
 10
112.1213272213297
 20
277.2931848938005
 30
0.0
 10
112.2511783746734
 20
277.0530930382093
 30
0.0
 10
112.5498629764321
 20
276.6102958384672
 30
0.0
 10
112.7197052755728
 20
276.4046921871677
 30
0.0
 10
113.1016351996614
 20
276.0254574439531
 30
0.0
 10
113.307723714925
 20
275.8577740617579
 30
0.0
 10
113.7492460046004
 20
275.5640293602974
 30
0.0
 10
113.9873833827631
 20
275.4369848400364
 30
0.0
 10
114.4810666569553
 20
275.2330595521926
 30
0.0
 10
114.7354036372309
 20
275.1559590400443
 30
0.0
 10
115.2593137029417
 20
275.0514358919195
 30
0.0
 10
115.5312173136153
 20
275.0244598337949
 30
0.0
 10
115.799524476874
 20
275.024459833795
 30
0.0
  0
LINE
  5
F8
330
1F
100
AcDbEntity
  8
0
  6
Continuous
 62
     7
370
    25
100
AcDbLine
 10
115.7995244769
 20
275.0244598338
 30
0.0
 11
121.7995244769
 21
275.0244598338
 31
0.0
  0
SPLINE
  5
F9
330
1F
100
AcDbEntity
  8
0
  6
Continuous
 62
     7
370
    25
100
AcDbSpline
210
0.0
220
0.0
230
1.0
 70
     8
 71
     3
 72
    10
 73
     6
 74
     0
 42
0.00000001
 43
0.00000001
 40
0.0
 40
0.0
 40
0.0
 40
0.0
 40
0.5
 40
0.5
 40
1.0
 40
1.0
 40
1.0
 40
1.0
 10
138.6764711715611
 20
357.58340993657
 30
0.0
 10
138.7849736936887
 20
354.8680110587251
 30
0.0
 10
138.8385294954698
 20
352.1042719833946
 30
0.0
 10
138.8398489380355
 20
346.5735275466736
 30
0.0
 10
138.7876122095683
 20
343.8090591041137
 30
0.0
 10
138.6804754692246
 20
341.0925065065097
 30
0.0
  0
SPLINE
  5
FA
330
1F
100
AcDbEntity
  8
0
  6
Continuous
 62
     7
370
    25
100
AcDbSpline
210
0.0
220
0.0
230
1.0
 70
     8
 71
     3
 72
    10
 73
     6
 74
     0
 42
0.00000001
 43
0.00000001
 40
0.0
 40
0.0
 40
0.0
 40
0.0
 40
0.5
 40
0.5
 40
1.0
 40
1.0
 40
1.0
 40
1.0
 10
98.91857348452335
 20
341.0925065065097
 30
0.0
 10
98.81143674524068
 20
343.8090590739836
 30
0.0
 10
98.75920035048944
 20
346.5735009604987
 30
0.0
 10
98.76051911082095
 20
352.104245404217
 30
0.0
 10
98.81407525873452
 20
354.8680110254128
 30
0.0
 10
98.92257778218688
 20
357.58340993657
 30
0.0
  0
LINE
  5
FB
330
1F
100
AcDbEntity
  8
0
  6
Continuous
 62
     7
370
    25
100
AcDbLine
 10
118.7995244769
 20
393.8244598338
 30
0.0
 11
141.0995244769
 21
393.8244598338
 31
0.0
  0
LINE
  5
FC
330
1F
100
AcDbEntity
  8
0
  6
Continuous
 62
     7
370
    25
100
AcDbLine
 10
96.4995244769
 20
393.8244598338
 30
0.0
 11
118.7995244769
 21
393.8244598338
 31
0.0
  0
LWPOLYLINE
  5
FD
330
1F
100
AcDbEntity
  8
0
  6
Continuous
 62
     7
370
    25
100
AcDbPolyline
 90
        9
 70
   128
 43
0.0
 10
115.7793902487
 20
275.3244598338
 10
116.5327427266
 20
275.3244598338
 10
117.2875358242
 20
275.3244598338
 10
118.0432898438
 20
275.3244598338
 10
118.7995244771
 20
275.3244598338
 10
119.5557591105
 20
275.3244598338
 10
120.3115131301
 20
275.3244598338
 10
121.0663062276
 20
275.3244598338
 10
121.8196587055
 20
275.324460518
  0
SPLINE
  5
FE
330
1F
100
AcDbEntity
  8
0
  6
Continuous
 62
     7
370
    25
100
AcDbSpline
210
0.0
220
0.0
230
1.0
 70
     8
 71
     3
 72
    10
 73
     6
 74
     0
 42
0.00000001
 43
0.00000001
 40
0.0
 40
0.0
 40
0.0
 40
0.0
 40
0.5
 40
0.5
 40
1.0
 40
1.0
 40
1.0
 40
1.0
 10
121.799524476084
 20
275.1244600422449
 30
0.0
 10
121.8042701894325
 20
275.1244600563559
 30
0.0
 10
121.809830143131
 20
275.1439865783518
 30
0.0
 10
121.8176930552317
 20
275.2220923631405
 30
0.0
 10
121.819658743821
 20
275.2773213142688
 30
0.0
 10
121.819658700406
 20
275.3244618862949
 30
0.0
  0
SPLINE
  5
FF
330
1F
100
AcDbEntity
  8
0
  6
Continuous
 62
     7
370
    25
100
AcDbSpline
210
0.0
220
0.0
230
1.0
 70
    24
 71
     3
 72
    18
 73
    14
 74
     0
 42
0.00000001
 43
0.00000001
 40
0.0
 40
0.0
 40
0.0
 40
0.0
 40
0.0911387243835163
 40
0.1821397985320155
 40
0.2730336672671808
 40
0.3638508832267612
 40
0.4546220764501147
 40
0.5453779235745421
 40
0.636149116796248
 40
0.7269663327525346
 40
0.8178602014827637
 40
0.9088612756246889
 40
1.0
 40
1.0
 40
1.0
 40
1.0
 10
121.799524480692
 20
275.1244598337949
 30
0.0
 10
121.6177671406828
 20
275.1244598337949
 30
0.0
 10
121.2545269755949
 20
275.1244598337948
 30
0.0
 10
120.7089249856169
 20
275.1244598337949
 30
0.0
 10
120.163394196463
 20
275.1244598337948
 30
0.0
 10
119.6178436995342
 20
275.1244598337949
 30
0.0
 10
119.0722981642557
 20
275.1244598337949
 30
0.0
 10
118.5267507894465
 20
275.1244598337948
 30
0.0
 10
117.9812052541778
 20
275.1244598337949
 30
0.0
 10
117.4356547572688
 20
275.1244598337949
 30
0.0
 10
116.8901239681445
 20
275.1244598337949
 30
0.0
 10
116.344521978206
 20
275.1244598337949
 30
0.0
 10
115.9812818131476
 20
275.1244598337949
 30
0.0
 10
115.799524473155
 20
275.1244598337948
 30
0.0
  0
ARC
  5
100
330
1F
100
AcDbEntity
  8
0
  6
Continuous
 62
     7
370
    25
100
AcDbCircle
 10
116.2911577013
 20
275.2749665744
 30
0.0
 40
0.5141551403237502
100
AcDbArc
 50
174.4760783529
 51
197.0212473429
  0
LINE
  5
101
330
1F
100
AcDbEntity
  8
0
  6
Continuous
 62
     7
370
    25
100
AcDbLine
 10
115.7793902489
 20
295.4244598338
 30
0.0
 11
121.8196587051
 21
295.4244598338
 31
0.0
  0
SPLINE
  5
102
330
1F
100
AcDbEntity
  8
0
  6
Continuous
 62
     7
370
    25
100
AcDbSpline
210
0.0
220
0.0
230
1.0
 70
     8
 71
     3
 72
    10
 73
     6
 74
     0
 42
0.00000001
 43
0.00000001
 40
0.0
 40
0.0
 40
0.0
 40
0.0
 40
0.5
 40
0.5
 40
1.0
 40
1.0
 40
1.0
 40
1.0
 10
115.799524477664
 20
295.6244596253449
 30
0.0
 10
115.7947787643155
 20
295.6244596112339
 30
0.0
 10
115.789218810617
 20
295.604933089238
 30
0.0
 10
115.7813558985162
 20
295.5268273044493
 30
0.0
 10
115.7793902099269
 20
295.471598353321
 30
0.0
 10
115.779390253342
 20
295.4244577812949
 30
0.0
  0
SPLINE
  5
103
330
1F
100
AcDbEntity
  8
0
  6
Continuous
 62
     7
370
    25
100
AcDbSpline
210
0.0
220
0.0
230
1.0
 70
     8
 71
     3
 72
    10
 73
     6
 74
     0
 42
0.00000001
 43
0.00000001
 40
0.0
 40
0.0
 40
0.0
 40
0.0
 40
0.5
 40
0.5
 40
1.0
 40
1.0
 40
1.0
 40
1.0
 10
121.819658700457
 20
295.4244578167949
 30
0.0
 10
121.8196587436302
 20
295.4715983889035
 30
0.0
 10
121.8176930547686
 20
295.5268273382299
 30
0.0
 10
121.8098301424952
 20
295.604933117519
 30
0.0
 10
121.8042701889022
 20
295.6244596364991
 30
0.0
 10
121.799524475685
 20
295.6244596490449
 30
0.0
  0
SPLINE
  5
104
330
1F
100
AcDbEntity
  8
0
  6
Continuous
 62
     7
370
    25
100
AcDbSpline
210
0.0
220
0.0
230
1.0
 70
     8
 71
     3
 72
    14
 73
    10
 74
     0
 42
0.00000001
 43
0.00000001
 40
0.0
 40
0.0
 40
0.0
 40
0.0
 40
0.25
 40
0.25
 40
0.5
 40
0.5
 40
0.75
 40
0.75
 40
1.0
 40
1.0
 40
1.0
 40
1.0
 10
125.645160080312
 20
291.6244598338379
 30
0.0
 10
125.64515819731
 20
292.125357318164
 30
0.0
 10
125.5439696896809
 20
292.6258895730273
 30
0.0
 10
125.1573574868491
 20
293.5471880045514
 30
0.0
 10
124.8724210537068
 20
293.9676712449129
 30
0.0
 10
124.1644629944143
 20
294.6676499202196
 30
0.0
 10
123.741694862747
 20
294.9471712872461
 30
0.0
 10
122.8196027263261
 20
295.3256642612287
 30
0.0
 10
122.3203605355233
 20
295.4244558353641
 30
0.0
 10
121.819658700457
 20
295.4244578167949
 30
0.0
  0
LINE
  5
105
330
1F
100
AcDbEntity
  8
0
  6
Continuous
 62
     7
370
    25
100
AcDbLine
 10
125.6451613996
 20
279.1244598338
 30
0.0
 11
125.6451613985
 21
291.6244598338
 31
0.0
  0
SPLINE
  5
106
330
1F
100
AcDbEntity
  8
0
  6
Continuous
 62
     7
370
    25
100
AcDbSpline
210
0.0
220
0.0
230
1.0
 70
     8
 71
     3
 72
    14
 73
    10
 74
     0
 42
0.00000001
 43
0.00000001
 40
0.0
 40
0.0
 40
0.0
 40
0.0
 40
0.25
 40
0.25
 40
0.5
 40
0.5
 40
0.75
 40
0.75
 40
1.0
 40
1.0
 40
1.0
 40
1.0
 10
121.819658700406
 20
275.3244618862948
 30
0.0
 10
122.3203637215303
 20
275.3244637593397
 30
0.0
 10
122.8196012161795
 20
275.4232552808144
 30
0.0
 10
123.7416959027432
 20
275.8017482960557
 30
0.0
 10
124.1644659891874
 20
276.0812719384161
 30
0.0
 10
124.8724261079921
 20
276.7812542295073
 30
0.0
 10
125.1573608194023
 20
277.2017380270968
 30
0.0
 10
125.5439701903711
 20
278.1230329443856
 30
0.0
 10
125.6451580850031
 20
278.6235653556023
 30
0.0
 10
125.645160082971
 20
279.1244598337029
 30
0.0
  0
SPLINE
  5
107
330
1F
100
AcDbEntity
  8
0
  6
Continuous
 62
     7
370
    25
100
AcDbSpline
210
0.0
220
0.0
230
1.0
 70
     8
 71
     3
 72
    14
 73
    10
 74
     0
 42
0.00000001
 43
0.00000001
 40
0.0
 40
0.0
 40
0.0
 40
0.0
 40
0.25
 40
0.25
 40
0.5
 40
0.5
 40
0.75
 40
0.75
 40
1.0
 40
1.0
 40
1.0
 40
1.0
 10
111.953888873436
 20
279.1244598337519
 30
0.0
 10
111.953890756438
 20
278.6235623494254
 30
0.0
 10
112.0550792640672
 20
278.123030094563
 30
0.0
 10
112.4416914668994
 20
277.2017316630385
 30
0.0
 10
112.7266279000399
 20
276.7812484226766
 30
0.0
 10
113.4345859593337
 20
276.0812697473705
 30
0.0
 10
113.8573540910022
 20
275.8017483803445
 30
0.0
 10
114.7794462274213
 20
275.4232554063607
 30
0.0
 10
115.2786884182246
 20
275.3244638322257
 30
0.0
 10
115.779390253291
 20
275.3244618507948
 30
0.0
  0
LINE
  5
108
330
1F
100
AcDbEntity
  8
0
  6
Continuous
 62
     7
370
    25
100
AcDbLine
 10
111.9538875542
 20
291.6244598338
 30
0.0
 11
111.9538875553
 21
279.1244598338
 31
0.0
  0
SPLINE
  5
109
330
1F
100
AcDbEntity
  8
0
  6
Continuous
 62
     7
370
    25
100
AcDbSpline
210
0.0
220
0.0
230
1.0
 70
     8
 71
     3
 72
    14
 73
    10
 74
     0
 42
0.00000001
 43
0.00000001
 40
0.0
 40
0.0
 40
0.0
 40
0.0
 40
0.25
 40
0.25
 40
0.5
 40
0.5
 40
0.75
 40
0.75
 40
1.0
 40
1.0
 40
1.0
 40
1.0
 10
115.779390253342
 20
295.4244577812949
 30
0.0
 10
115.2786852322177
 20
295.4244559082502
 30
0.0
 10
114.7794477375684
 20
295.3256643867757
 30
0.0
 10
113.857353051004
 20
294.9471713715346
 30
0.0
 10
113.4345829645606
 20
294.6676477291738
 30
0.0
 10
112.726622845755
 20
293.9676654380827
 30
0.0
 10
112.4416881343467
 20
293.5471816404922
 30
0.0
 10
112.0550787633757
 20
292.6258867232049
 30
0.0
 10
111.9538908687448
 20
292.1253543119873
 30
0.0
 10
111.953888870777
 20
291.6244598338869
 30
0.0
  0
SPLINE
  5
10A
330
1F
100
AcDbEntity
  8
0
  6
Continuous
 62
     7
370
    25
100
AcDbSpline
210
0.0
220
0.0
230
1.0
 70
     8
 71
     3
 72
    21
 73
    17
 74
     0
 42
0.00000001
 43
0.00000001
 40
0.0
 40
0.0
 40
0.0
 40
0.0
 40
0.0307388019309325
 40
0.0693791836148576
 40
0.1159223716104777
 40
0.1778455844949661
 40
0.2497675216380773
 40
0.3066759568960588
 40
0.4080161515753469
 40
0.5439933425945698
 40
0.6657861009971083
 40
0.7735381270529604
 40
0.831944890187264
 40
0.8891442450279486
 40
0.9451556913770787
 40
1.0
 40
1.0
 40
1.0
 40
1.0
 10
115.799524476874
 20
275.1244598337948
 30
0.0
 10
115.7351053696653
 20
275.1253748465108
 30
0.0
 10
115.5897078659703
 20
275.1274400810429
 30
0.0
 10
115.3477422023104
 20
275.1472395764702
 30
0.0
 10
115.0430649905145
 20
275.1916172990353
 30
0.0
 10
114.6755644021649
 20
275.2779803403559
 30
0.0
 10
114.2987418362889
 20
275.4093240499442
 30
0.0
 10
113.8631587949006
 20
275.6124095697035
 30
0.0
 10
113.341139832206
 20
275.9396483458092
 30
0.0
 10
112.7866219909038
 20
276.4519720983452
 30
0.0
 10
112.3381765999166
 20
277.0764959303979
 30
0.0
 10
112.0786302530615
 20
277.6248547122048
 30
0.0
 10
111.934633780428
 20
278.0719680213723
 30
0.0
 10
111.8562027050134
 20
278.4245669244596
 30
0.0
 10
111.8082678635808
 20
278.7755843373478
 30
0.0
 10
111.802418410579
 20
279.0089871237535
 30
0.0
 10
111.799524476874
 20
279.1244598338018
 30
0.0
  0
SPLINE
  5
10B
330
1F
100
AcDbEntity
  8
0
  6
Continuous
 62
     7
370
    25
100
AcDbSpline
210
0.0
220
0.0
230
1.0
 70
    24
 71
     3
 72
    10
 73
     6
 74
     0
 42
0.00000001
 43
0.00000001
 40
0.0
 40
0.0
 40
0.0
 40
0.0
 40
0.5
 40
0.5
 40
1.0
 40
1.0
 40
1.0
 40
1.0
 10
111.7995246747868
 20
279.1244598338239
 30
0.0
 10
111.7995246581631
 20
279.1244598338203
 30
0.0
 10
111.8152081538172
 20
279.1244598338105
 30
0.0
 10
111.8738897358853
 20
279.1244598337833
 30
0.0
 10
111.9151534847532
 20
279.1244598337665
 30
0.0
 10
111.953888873436
 20
279.1244598337519
 30
0.0
  0
SPLINE
  5
10C
330
1F
100
AcDbEntity
  8
0
  6
Continuous
 62
     7
370
    25
100
AcDbSpline
210
0.0
220
0.0
230
1.0
 70
     8
 71
     3
 72
    21
 73
    17
 74
     0
 42
0.00000001
 43
0.00000001
 40
0.0
 40
0.0
 40
0.0
 40
0.0
 40
0.0307402334681764
 40
0.0693806149697421
 40
0.1159223713218043
 40
0.1778455841981852
 40
0.2497675213937364
 40
0.3066759565227563
 40
0.4080161513826021
 40
0.5439933424463206
 40
0.6657861008657986
 40
0.7735381269795238
 40
0.8319448901341235
 40
0.8891442449938114
 40
0.9451556913606527
 40
1.0
 40
1.0
 40
1.0
 40
1.0
 10
121.799524480593
 20
295.6244598337948
 30
0.0
 10
121.8639465818096
 20
295.6235447391621
 30
0.0
 10
122.0093470715189
 20
295.6214793733137
 30
0.0
 10
122.2513127013907
 20
295.6016793133856
 30
0.0
 10
122.5559868790791
 20
295.5573016848002
 30
0.0
 10
122.9234845518059
 20
295.4709393266601
 30
0.0
 10
123.3003071170592
 20
295.3395956178968
 30
0.0
 10
123.7358901586077
 20
295.1365100979796
 30
0.0
 10
124.2579091213085
 20
294.8092713220126
 30
0.0
 10
124.8124269628162
 20
294.2969475692652
 30
0.0
 10
125.2608723538077
 20
293.6724237372318
 30
0.0
 10
125.5204187006748
 20
293.1240649554237
 30
0.0
 10
125.6644151733227
 20
292.6769516462081
 30
0.0
 10
125.7428462487366
 20
292.3243527431187
 30
0.0
 10
125.7907810901676
 20
291.9733353302343
 30
0.0
 10
125.7966305431691
 20
291.739932543833
 30
0.0
 10
125.799524476874
 20
291.6244598337879
 30
0.0
  0
SPLINE
  5
10D
330
1F
100
AcDbEntity
  8
0
  6
Continuous
 62
     7
370
    25
100
AcDbSpline
210
0.0
220
0.0
230
1.0
 70
    24
 71
     3
 72
    10
 73
     6
 74
     0
 42
0.00000001
 43
0.00000001
 40
0.0
 40
0.0
 40
0.0
 40
0.0
 40
0.5
 40
0.5
 40
1.0
 40
1.0
 40
1.0
 40
1.0
 10
125.7995242789611
 20
291.6244598337656
 30
0.0
 10
125.7995242955848
 20
291.624459833769
 30
0.0
 10
125.7838407999308
 20
291.6244598337788
 30
0.0
 10
125.7251592178627
 20
291.6244598338064
 30
0.0
 10
125.6838954689947
 20
291.6244598338233
 30
0.0
 10
125.645160080312
 20
291.6244598338379
 30
0.0
  0
SPLINE
  5
10E
330
1F
100
AcDbEntity
  8
0
  6
Continuous
 62
     7
370
    25
100
AcDbSpline
210
0.0
220
0.0
230
1.0
 70
    24
 71
     3
 72
    10
 73
     6
 74
     0
 42
0.00000001
 43
0.00000001
 40
0.0
 40
0.0
 40
0.0
 40
0.0
 40
0.5
 40
0.5
 40
1.0
 40
1.0
 40
1.0
 40
1.0
 10
125.645160082971
 20
279.1244598337029
 30
0.0
 10
125.6838954726526
 20
279.1244598337209
 30
0.0
 10
125.7251592238783
 20
279.1244598337416
 30
0.0
 10
125.7838408113372
 20
279.1244598337751
 30
0.0
 10
125.7995243096671
 20
279.124459833787
 30
0.0
 10
125.7995242944536
 20
279.1244598337914
 30
0.0
  0
SPLINE
  5
10F
330
1F
100
AcDbEntity
  8
0
  6
Continuous
 62
     7
370
    25
100
AcDbSpline
210
0.0
220
0.0
230
1.0
 70
     8
 71
     3
 72
    22
 73
    18
 74
     0
 42
0.00000001
 43
0.00000001
 40
0.0
 40
0.0
 40
0.0
 40
0.0
 40
0.02803723728773
 40
0.0569903452894257
 40
0.0868639063465261
 40
0.1176620901409084
 40
0.149388699987838
 40
0.2287692691546664
 40
0.2977819606487307
 40
0.4115675186724623
 40
0.5515552328358764
 40
0.6786186888032842
 40
0.7441575495073082
 40
0.8090882795381629
 40
0.8793091839802849
 40
0.942944490662517
 40
1.0
 40
1.0
 40
1.0
 40
1.0
 10
125.799524476874
 20
279.1244598337939
 30
0.0
 10
125.7987683989041
 20
279.0654433685883
 30
0.0
 10
125.7972315447508
 20
278.9454825930198
 30
0.0
 10
125.7845023837254
 20
278.7630192267806
 30
0.0
 10
125.7632602776411
 20
278.5755943513163
 30
0.0
 10
125.7319766177151
 20
278.383702456767
 30
0.0
 10
125.6695858562402
 20
278.0919117776476
 30
0.0
 10
125.5580083984421
 20
277.7291282262208
 30
0.0
 10
125.3357419830365
 20
277.2250159708692
 30
0.0
 10
124.9756836039741
 20
276.6494040044299
 30
0.0
 10
124.4245690689061
 20
276.0675331208725
 30
0.0
 10
123.8495551225593
 20
275.6714752565956
 30
0.0
 10
123.3658397809002
 20
275.4363624639167
 30
0.0
 10
122.9717267565565
 20
275.2921119720222
 30
0.0
 10
122.5679855216363
 20
275.1919816228773
 30
0.0
 10
122.1719734847427
 20
275.1341940230321
 30
0.0
 10
121.9190783849702
 20
275.1275844504293
 30
0.0
 10
121.799524476874
 20
275.1244598337948
 30
0.0
  0
LINE
  5
110
330
1F
100
AcDbEntity
  8
0
  6
Continuous
 62
     7
370
    25
100
AcDbLine
 10
111.9538875553
 20
291.6244598338
 30
0.0
 11
111.7995244769
 21
291.6244598338
 31
0.0
  0
SPLINE
  5
111
330
1F
100
AcDbEntity
  8
0
  6
Continuous
 62
     7
370
    25
100
AcDbSpline
210
0.0
220
0.0
230
1.0
 70
     8
 71
     3
 72
    24
 73
    20
 74
     0
 42
0.00000001
 43
0.00000001
 40
0.0
 40
0.0
 40
0.0
 40
0.0
 40
0.0311789240615557
 40
0.0627024379497546
 40
0.0945744877167864
 40
0.1267988912778844
 40
0.1593793425806898
 40
0.1923194156930706
 40
0.2256225688033199
 40
0.3331406096205051
 40
0.4546067745771091
 40
0.5908578058667816
 40
0.6933058575846527
 40
0.7498543373280824
 40
0.8181259796549221
 40
0.8766322711952224
 40
0.9259814864801789
 40
0.9671035687539625
 40
0.9999999999999999
 40
0.9999999999999999
 40
0.9999999999999999
 40
0.9999999999999999
 10
111.799524476874
 20
291.6244598337959
 30
0.0
 10
111.8004581966602
 20
291.6900949308373
 30
0.0
 10
111.8023359557143
 20
291.8220905247662
 30
0.0
 10
111.8176375434564
 20
292.0206708108559
 30
0.0
 10
111.8424096934759
 20
292.2204014489664
 30
0.0
 10
111.8778146013148
 20
292.4207379047328
 30
0.0
 10
111.9238360316123
 20
292.6211019427238
 30
0.0
 10
111.9807506039034
 20
292.8209034977243
 30
0.0
 10
112.0988863040915
 20
293.1662241085905
 30
0.0
 10
112.3346422979216
 20
293.6662087964549
 30
0.0
 10
112.7814716785569
 20
294.2911244755659
 30
0.0
 10
113.3366478856591
 20
294.8061375277509
 30
0.0
 10
113.860260354179
 20
295.1350433438653
 30
0.0
 10
114.2903030560474
 20
295.3357141858757
 30
0.0
 10
114.6519435108883
 20
295.4631687419904
 30
0.0
 10
115.0099057292939
 20
295.55070159476
 30
0.0
 10
115.3180374809825
 20
295.5985527154842
 30
0.0
 10
115.575447935117
 20
295.6210547059436
 30
0.0
 10
115.7305788411773
 20
295.6234121172714
 30
0.0
 10
115.799524473056
 20
295.6244598337948
 30
0.0
  0
LINE
  5
112
330
1F
100
AcDbEntity
  8
0
  6
Continuous
 62
     7
370
    25
100
AcDbLine
 10
111.7995244769
 20
291.6244598338
 30
0.0
 11
111.7995244769
 21
279.1244598338
 31
0.0
  0
LINE
  5
113
330
1F
100
AcDbEntity
  8
0
  6
Continuous
 62
     7
370
    25
100
AcDbLine
 10
125.7995244769
 20
291.6244598338
 30
0.0
 11
125.7995244769
 21
279.1244598338
 31
0.0
  0
SPLINE
  5
114
330
1F
100
AcDbEntity
  8
0
  6
Continuous
 62
     7
370
    25
100
AcDbSpline
210
0.0
220
0.0
230
1.0
 70
     8
 71
     3
 72
    18
 73
    14
 74
     0
 42
0.00000001
 43
0.00000001
 40
0.0
 40
0.0
 40
0.0
 40
0.0
 40
0.0265333616896572
 40
0.1202637877797916
 40
0.2164031406173572
 40
0.3229378140804238
 40
0.4364666604204445
 40
0.5387457320343915
 40
0.6287160921395033
 40
0.7245670599425604
 40
0.8342688733936595
 40
0.9463918199170012
 40
1.0
 40
1.0
 40
1.0
 40
1.0
 10
156.9580424318349
 20
325.3668803894577
 30
0.0
 10
156.9706046625105
 20
325.3735180495665
 30
0.0
 10
157.0275436008056
 20
325.4036035757059
 30
0.0
 10
156.7405593739796
 20
325.2504608028933
 30
0.0
 10
156.1313435483968
 20
324.9531289682837
 30
0.0
 10
155.1440488083881
 20
324.5555887445507
 30
0.0
 10
153.8776133059187
 20
324.244550304944
 30
0.0
 10
152.5429060693938
 20
324.2087630231178
 30
0.0
 10
151.3585070410137
 20
324.4142882766582
 30
0.0
 10
150.3170319420211
 20
324.7576232471776
 30
0.0
 10
149.4725601498741
 20
325.1392654264744
 30
0.0
 10
149.0479854753653
 20
325.3629590381815
 30
0.0
 10
149.011368710237
 20
325.3824987722365
 30
0.0
 10
148.9995244768739
 20
325.3888191877399
 30
0.0
  0
LINE
  5
115
330
1F
100
AcDbEntity
  8
0
  6
Continuous
 62
     7
370
    25
100
AcDbLine
 10
159.9995244769
 20
324.8888191877
 30
0.0
 11
159.9995244769
 21
310.8888191877
 31
0.0
  0
LINE
  5
116
330
1F
100
AcDbEntity
  8
0
  6
Continuous
 62
     7
370
    25
100
AcDbLine
 10
142.4995244769
 20
317.8888191877
 30
0.0
 11
142.4995244769
 21
324.8888191877
 31
0.0
  0
LINE
  5
117
330
1F
100
AcDbEntity
  8
0
  6
Continuous
 62
     7
370
    25
100
AcDbLine
 10
142.4995244769
 20
310.8888191877
 30
0.0
 11
142.4995244769
 21
317.8888191877
 31
0.0
  0
LINE
  5
118
330
1F
100
AcDbEntity
  8
0
  6
Continuous
 62
     7
370
    25
100
AcDbLine
 10
149.9995244769
 20
342.8888191877
 30
0.0
 11
155.9995241155
 21
342.8888191877
 31
0.0
  0
LINE
  5
119
330
1F
100
AcDbEntity
  8
0
  6
Continuous
 62
     7
370
    25
100
AcDbLine
 10
160.6995244769
 20
320.255251101
 30
0.0
 11
160.6995244769
 21
315.5223872745
 31
0.0
  0
SPLINE
  5
11A
330
1F
100
AcDbEntity
  8
0
  6
Continuous
 62
     7
370
    25
100
AcDbSpline
210
0.0
220
0.0
230
1.0
 70
     8
 71
     3
 72
    10
 73
     6
 74
     0
 42
0.00000001
 43
0.00000001
 40
0.0
 40
0.0
 40
0.0
 40
0.0
 40
0.5
 40
0.5
 40
1.0
 40
1.0
 40
1.0
 40
1.0
 10
160.699524476874
 20
315.5223872745
 30
0.0
 10
160.699524476874
 20
315.3630137742805
 30
0.0
 10
160.6356941002902
 20
315.2068741599316
 30
0.0
 10
160.4149019498537
 20
314.9822355923326
 30
0.0
 10
160.2589548831474
 20
314.9156054382762
 30
0.0
 10
160.099524476874
 20
314.9156054382762
 30
0.0
  0
LINE
  5
11B
330
1F
100
AcDbEntity
  8
0
  6
Continuous
 62
     7
370
    25
100
AcDbLine
 10
160.0995244769
 20
314.9156054383
 30
0.0
 11
160.0995244769
 21
320.8620329372
 31
0.0
  0
SPLINE
  5
11C
330
1F
100
AcDbEntity
  8
0
  6
Continuous
 62
     7
370
    25
100
AcDbSpline
210
0.0
220
0.0
230
1.0
 70
     8
 71
     3
 72
    10
 73
     6
 74
     0
 42
0.00000001
 43
0.00000001
 40
0.0
 40
0.0
 40
0.0
 40
0.0
 40
0.5
 40
0.5
 40
1.0
 40
1.0
 40
1.0
 40
1.0
 10
160.099524476874
 20
320.8620329372035
 30
0.0
 10
160.2589233344866
 20
320.8620329372035
 30
0.0
 10
160.4146150267954
 20
320.79552898418
 30
0.0
 10
160.6353583067624
 20
320.5712711124269
 30
0.0
 10
160.699524476874
 20
320.414598918902
 30
0.0
 10
160.699524476874
 20
320.2552511009798
 30
0.0
  0
LINE
  5
11D
330
1F
100
AcDbEntity
  8
0
  6
Continuous
 62
     7
370
    25
100
AcDbLine
 10
160.0995244769
 20
314.9156054383
 30
0.0
 11
159.9995244769
 21
314.9156054383
 31
0.0
  0
LINE
  5
11E
330
1F
100
AcDbEntity
  8
0
  6
Continuous
 62
     7
370
    25
100
AcDbLine
 10
160.0995244769
 20
320.8620329372
 30
0.0
 11
159.9995244769
 21
320.8620329372
 31
0.0
  0
SPLINE
  5
11F
330
1F
100
AcDbEntity
  8
0
  6
Continuous
 62
     8
370
    25
100
AcDbSpline
210
0.0
220
0.0
230
1.0
 70
     8
 71
     3
 72
    10
 73
     6
 74
     0
 42
0.00000001
 43
0.00000001
 40
0.0
 40
0.0
 40
0.0
 40
0.0
 40
0.0558901297362472
 40
0.527147307383357
 40
1.0
 40
1.0
 40
1.0
 40
1.0
 10
101.3203478643115
 20
357.6990925750329
 30
0.0
 10
101.3114176371329
 20
357.6877209765363
 30
0.0
 10
101.2271890759581
 20
357.5804657678543
 30
0.0
 10
101.141137335895
 20
357.2896277103724
 30
0.0
 10
101.1081689159847
 20
357.0118757761729
 30
0.0
 10
101.091656848251
 20
356.8727651132063
 30
0.0
  0
SPLINE
  5
120
330
1F
100
AcDbEntity
  8
0
  6
Continuous
 62
     8
370
    25
100
AcDbSpline
210
0.0
220
0.0
230
1.0
 70
     8
 71
     3
 72
    15
 73
    11
 74
     0
 42
0.00000001
 43
0.00000001
 40
0.0
 40
0.0
 40
0.0
 40
0.0
 40
0.0567805263464062
 40
0.191770530233945
 40
0.3260896158855203
 40
0.4611132650160473
 40
0.5954027077090277
 40
0.7304643327285346
 40
0.8647313314687568
 40
1.0
 40
1.0
 40
1.0
 40
1.0
 10
104.9711235625032
 20
358.8422622770174
 30
0.0
 10
105.4609768158995
 20
358.8671631925289
 30
0.0
 10
107.115407026136
 20
358.9512635360485
 30
0.0
 10
110.3374544365511
 20
359.0655301510994
 30
0.0
 10
114.4909806048663
 20
359.1618647038429
 30
0.0
 10
118.7895252636481
 20
359.194767160323
 30
0.0
 10
123.0916602658071
 20
359.1619057584183
 30
0.0
 10
127.251552224495
 20
359.0668094737327
 30
0.0
 10
131.2035436152979
 20
358.9219542683914
 30
0.0
 10
133.5082684198109
 20
358.8022687867098
 30
0.0
 10
134.6649133224814
 20
358.7422036535366
 30
0.0
  0
LINE
  5
121
330
1F
100
AcDbEntity
  8
0
  6
Continuous
 62
     8
370
    25
100
AcDbLine
 10
131.880674166
 20
339.9549583885
 30
0.0
 11
130.7995244769
 21
339.9582376627
 31
0.0
  0
LINE
  5
122
330
1F
100
AcDbEntity
  8
0
  6
Continuous
 62
     8
370
    25
100
AcDbLine
 10
106.7995244769
 20
339.9582376627
 30
0.0
 11
105.7183747877
 21
339.9549583885
 31
0.0
  0
LINE
  5
123
330
1F
100
AcDbEntity
  8
0
  6
Continuous
 62
     8
370
    25
100
AcDbLine
 10
118.7995244769
 20
393.6244598338
 30
0.0
 11
96.2995244769
 21
393.6244598338
 31
0.0
  0
LINE
  5
124
330
1F
100
AcDbEntity
  8
0
  6
Continuous
 62
     8
370
    25
100
AcDbLine
 10
141.2995244769
 20
393.6244598338
 30
0.0
 11
118.7995244769
 21
393.6244598338
 31
0.0
  0
LINE
  5
125
330
1F
100
AcDbEntity
  8
0
  6
Continuous
 62
     8
370
    25
100
AcDbLine
 10
96.2995244769
 20
384.0244598338
 30
0.0
 11
141.2995244769
 21
384.0244598338
 31
0.0
  0
LINE
  5
126
330
1F
100
AcDbEntity
  8
0
  6
Continuous
 62
     8
370
    25
100
AcDbLine
 10
159.4995244769
 20
310.3888191877
 30
0.0
 11
159.4995244769
 21
325.3888191877
 31
0.0
  0
LINE
  5
127
330
1F
100
AcDbEntity
  8
0
  6
Continuous
 62
     8
370
    25
100
AcDbLine
 10
142.9995244769
 20
317.8888191877
 30
0.0
 11
142.9995244769
 21
310.3888191877
 31
0.0
  0
LINE
  5
128
330
1F
100
AcDbEntity
  8
0
  6
Continuous
 62
     8
370
    25
100
AcDbLine
 10
142.9995244769
 20
325.3888191877
 30
0.0
 11
142.9995244769
 21
317.8888191877
 31
0.0
  0
LINE
  5
129
330
1F
100
AcDbEntity
  8
0
  6
Continuous
 62
     8
370
    25
100
AcDbLine
 10
148.9995244769
 20
341.8888191877
 30
0.0
 11
156.9995244769
 21
341.8888191877
 31
0.0
  0
LINE
  5
12A
330
1F
100
AcDbEntity
  8
0
  6
Continuous
 62
     7
370
    25
100
AcDbLine
 10
200.4460157946
 20
374.6741128702
 30
0.0
 11
200.4460157946
 21
260.3244598338
 31
0.0
  0
LINE
  5
12B
330
1F
100
AcDbEntity
  8
0
  6
Continuous
 62
     7
370
    25
100
AcDbLine
 10
200.4460157946
 20
383.8244598338
 30
0.0
 11
200.4460157946
 21
382.5748067974
 31
0.0
  0
LINE
  5
12C
330
1F
100
AcDbEntity
  8
0
  6
Continuous
 62
     7
370
    25
100
AcDbLine
 10
245.4460157946
 20
364.1410460415
 30
0.0
 11
245.4460157946
 21
383.8244598338
 31
0.0
  0
LINE
  5
12D
330
1F
100
AcDbEntity
  8
0
  6
Continuous
 62
     7
370
    25
100
AcDbLine
 10
245.4460157946
 20
295.6244598338
 30
0.0
 11
245.4460157946
 21
330.7744598338
 31
0.0
  0
LINE
  5
12E
330
1F
100
AcDbEntity
  8
0
  6
Continuous
 62
     7
370
    25
100
AcDbLine
 10
245.4460157946
 20
260.3244598338
 30
0.0
 11
245.4460157946
 21
275.0244598338
 31
0.0
  0
ARC
  5
12F
330
1F
100
AcDbEntity
  8
0
  6
Continuous
 62
     7
370
    25
100
AcDbCircle
 10
245.2460157946
 20
384.0244598338
 30
0.0
 40
0.2000000000000171
100
AcDbArc
 50
270.0
 51
0.0
  0
ARC
  5
130
330
1F
100
AcDbEntity
  8
0
  6
Continuous
 62
     7
370
    25
100
AcDbCircle
 10
200.6460157946
 20
384.0244598338
 30
0.0
 40
0.2000000000000171
100
AcDbArc
 50
180.0
 51
270.0
  0
ARC
  5
131
330
1F
100
AcDbEntity
  8
0
  6
Continuous
 62
     7
370
    25
100
AcDbCircle
 10
200.6460157946
 20
393.6244598338
 30
0.0
 40
0.2000000000000455
100
AcDbArc
 50
90.0
 51
180.0
  0
ARC
  5
132
330
1F
100
AcDbEntity
  8
0
  6
Continuous
 62
     7
370
    25
100
AcDbCircle
 10
245.2460157946
 20
393.6244598338
 30
0.0
 40
0.2000000000000455
100
AcDbArc
 50
0.0
 51
90.0
  0
LINE
  5
133
330
1F
100
AcDbEntity
  8
0
  6
Continuous
 62
     7
370
    25
100
AcDbLine
 10
200.4460157946
 20
393.6244598338
 30
0.0
 11
200.4460157946
 21
384.0244598338
 31
0.0
  0
LINE
  5
134
330
1F
100
AcDbEntity
  8
0
  6
Continuous
 62
     7
370
    25
100
AcDbLine
 10
245.4460157946
 20
384.0244598338
 30
0.0
 11
245.4460157946
 21
393.6244598338
 31
0.0
  0
SPLINE
  5
135
330
1F
100
AcDbEntity
  8
0
  6
Continuous
 62
     7
370
    25
100
AcDbSpline
210
0.0
220
0.0
230
1.0
 70
     8
 71
     3
 72
    16
 73
    12
 74
     0
 42
0.00000001
 43
0.00000001
 40
0.0
 40
0.0
 40
0.0
 40
0.0
 40
0.0974353387626526
 40
0.2039314430624452
 40
0.2909719573100806
 40
0.4114817295168056
 40
0.5753880725281104
 40
0.6668204181267546
 40
0.7633545126363119
 40
0.87085415829012
 40
1.0
 40
1.0
 40
1.0
 40
1.0
 10
245.4600886340315
 20
330.7740209785966
 30
0.0
 10
245.4650980277999
 20
331.1659127387416
 30
0.0
 10
245.4755826518905
 20
331.9861392929421
 30
0.0
 10
245.6309004820108
 20
333.1471648718871
 30
0.0
 10
245.8505773632614
 20
334.3908739683657
 30
0.0
 10
246.2081569420323
 20
335.8375017837784
 30
0.0
 10
246.7292183803996
 20
337.2254348391463
 30
0.0
 10
247.4752072308104
 20
338.3616693476284
 30
0.0
 10
248.3059544195442
 20
339.1326021560609
 30
0.0
 10
249.4589665264015
 20
339.7156063614837
 30
0.0
 10
250.3759806839426
 20
339.8529979656712
 30
0.0
 10
250.8764278572856
 20
339.927977440515
 30
0.0
  0
SPLINE
  5
136
330
1F
100
AcDbEntity
  8
0
  6
Continuous
 62
     7
370
    25
100
AcDbSpline
210
0.0
220
0.0
230
1.0
 70
     8
 71
     3
 72
    12
 73
     8
 74
     0
 42
0.00000001
 43
0.00000001
 40
0.0
 40
0.0
 40
0.0
 40
0.0
 40
0.1768327851273933
 40
0.3401530482957385
 40
0.6388089132281591
 40
0.8754687532642877
 40
1.0
 40
1.0
 40
1.0
 40
1.0
 10
247.8739337489011
 20
359.4489040915151
 30
0.0
 10
247.5755423793153
 20
359.5953886980702
 30
0.0
 10
247.0015609545663
 20
359.8771644186314
 30
0.0
 10
246.2244295220727
 20
360.8106038658836
 30
0.0
 10
245.7231207390388
 20
362.025233678533
 30
0.0
 10
245.4675174919449
 20
363.2360845246421
 30
0.0
 10
245.4622429423576
 20
363.9094224566002
 30
0.0
 10
245.4604243863076
 20
364.1415755058092
 30
0.0
  0
SPLINE
  5
137
330
1F
100
AcDbEntity
  8
0
  6
Continuous
 62
     7
370
    25
100
AcDbSpline
210
0.0
220
0.0
230
1.0
 70
     8
 71
     3
 72
    18
 73
    14
 74
     0
 42
0.00000001
 43
0.00000001
 40
0.0
 40
0.0
 40
0.0
 40
0.0
 40
0.0875665590694785
 40
0.1701696831352857
 40
0.2486968002462107
 40
0.289707518347991
 40
0.3352762303857644
 40
0.3883965215894655
 40
0.4517058448410394
 40
0.526175479602948
 40
0.609329019602957
 40
0.7967846618662594
 40
1.0
 40
1.0
 40
1.0
 40
1.0
 10
355.8351433393321
 20
341.9442453731558
 30
0.0
 10
355.852546552847
 20
342.3394036835113
 30
0.0
 10
355.8863665334518
 20
343.107321998174
 30
0.0
 10
355.9296944860859
 20
344.3036134676017
 30
0.0
 10
355.9598435898828
 20
345.3513774745302
 30
0.0
 10
355.9784143088286
 20
346.1540507728683
 30
0.0
 10
355.9891466375358
 20
346.7576477792804
 30
0.0
 10
355.9976747531055
 20
347.35050388922
 30
0.0
 10
356.004394035422
 20
347.9299351748638
 30
0.0
 10
356.0102062372298
 20
348.4938102496362
 30
0.0
 10
356.0177965743565
 20
349.2903875478386
 30
0.0
 10
356.0267404462955
 20
350.2380186685941
 30
0.0
 10
356.0270667573748
 20
350.964376001574
 30
0.0
 10
356.0272364946209
 20
351.3422053219843
 30
0.0
  0
LWPOLYLINE
  5
138
330
1F
100
AcDbEntity
  8
0
  6
Continuous
 62
     7
370
    25
100
AcDbPolyline
 90
        4
 70
   128
 43
0.0
 10
333.398309632
 20
358.5493767117
 10
323.7746623408
 20
358.621763436
 10
299.1247825431
 20
358.807703753
 10
249.4457672302
 20
359.183868343
  0
SPLINE
  5
139
330
1F
100
AcDbEntity
  8
0
  6
Continuous
 62
     7
370
    25
100
AcDbSpline
210
0.0
220
0.0
230
1.0
 70
     8
 71
     3
 72
    11
 73
     7
 74
     0
 42
0.00000001
 43
0.00000001
 40
0.0
 40
0.0
 40
0.0
 40
0.0
 40
0.3178367722446792
 40
0.6004829915448274
 40
0.8271856418706546
 40
0.9999999999999999
 40
0.9999999999999999
 40
0.9999999999999999
 40
0.9999999999999999
 10
355.3679811411903
 20
357.730898566436
 30
0.0
 10
355.3638631568083
 20
357.7345807046586
 30
0.0
 10
355.3560831269415
 20
357.7415372986347
 30
0.0
 10
355.237435276427
 20
357.8149602517299
 30
0.0
 10
355.0587370414062
 20
357.922251740751
 30
0.0
 10
354.7995436526763
 20
357.9748727801122
 30
0.0
 10
354.6874274269418
 20
357.9976344421913
 30
0.0
  0
SPLINE
  5
13A
330
1F
100
AcDbEntity
  8
0
  6
Continuous
 62
     7
370
    25
100
AcDbSpline
210
0.0
220
0.0
230
1.0
 70
     8
 71
     3
 72
    22
 73
    18
 74
     0
 42
0.00000001
 43
0.00000001
 40
0.0
 40
0.0
 40
0.0
 40
0.0
 40
0.0800054612710252
 40
0.1575717021471401
 40
0.2186663482486143
 40
0.2659141030430792
 40
0.2860484191415988
 40
0.329672901128878
 40
0.368765870307622
 40
0.4027559566196637
 40
0.4294928254864797
 40
0.4676855624121618
 40
0.5203124519333551
 40
0.5873754178317719
 40
0.6992510643656829
 40
0.8367939567813045
 40
1.0
 40
1.0
 40
1.0
 40
1.0
 10
354.6879715227902
 20
357.9963686921492
 30
0.0
 10
354.4717142980687
 20
358.0197797577411
 30
0.0
 10
354.0457931364428
 20
358.0658881282923
 30
0.0
 10
353.2629659896742
 20
358.1360218643702
 30
0.0
 10
352.4095369051439
 20
358.2023115531923
 30
0.0
 10
351.6060232371602
 20
358.2541672424759
 30
0.0
 10
350.7531039272225
 20
358.3003151849406
 30
0.0
 10
349.8851746947908
 20
358.33906490349
 30
0.0
 10
348.9291143817205
 20
358.3719327119624
 30
0.0
 10
348.1048987453925
 20
358.394709880765
 30
0.0
 10
347.2895586289487
 20
358.413529017485
 30
0.0
 10
346.3200952837208
 20
358.4321319894502
 30
0.0
 10
345.0181663396327
 20
358.4520245473476
 30
0.0
 10
343.1084735251692
 20
358.4753250367613
 30
0.0
 10
340.49843941929
 20
358.4994891800548
 30
0.0
 10
337.095439123735
 20
358.5235792765105
 30
0.0
 10
334.615102279213
 20
358.5409189594271
 30
0.0
 10
333.2691092788049
 20
358.5503286054945
 30
0.0
  0
LINE
  5
13B
330
1F
100
AcDbEntity
  8
0
  6
Continuous
 62
     7
370
    25
100
AcDbLine
 10
354.1766699714
 20
337.5280015298
 30
0.0
 11
353.7326261552
 21
340.6875374553
 31
0.0
  0
LINE
  5
13C
330
1F
100
AcDbEntity
  8
0
  6
Continuous
 62
     7
370
    25
100
AcDbLine
 10
329.5205207529
 20
340.5185023258
 30
0.0
 11
330.4102363216
 21
334.1878471067
 31
0.0
  0
LINE
  5
13D
330
1F
100
AcDbEntity
  8
0
  6
Continuous
 62
     7
370
    25
100
AcDbLine
 10
330.4102363216
 20
334.1878471067
 30
0.0
 11
331.4808560177
 21
333.7552886716
 31
0.0
  0
LINE
  5
13E
330
1F
100
AcDbEntity
  8
0
  6
Continuous
 62
     7
370
    25
100
AcDbLine
 10
353.26675353
 20
336.8170968928
 30
0.0
 11
354.1766699714
 21
337.5280015298
 31
0.0
  0
LINE
  5
13F
330
1F
100
AcDbEntity
  8
0
  6
Continuous
 62
     7
370
    25
100
AcDbLine
 10
245.444423575
 20
275.3244598338
 30
0.0
 11
245.444423575
 21
295.4244598338
 31
0.0
  0
LINE
  5
140
330
1F
100
AcDbEntity
  8
0
  6
Continuous
 62
     7
370
    25
100
AcDbLine
 10
200.3460157946
 20
374.6244598338
 30
0.0
 11
200.4547357951
 21
374.6244598338
 31
0.0
  0
LINE
  5
141
330
1F
100
AcDbEntity
  8
0
  6
Continuous
 62
     7
370
    25
100
AcDbLine
 10
200.4547357951
 20
382.6244598338
 30
0.0
 11
200.3460157946
 21
382.6244598338
 31
0.0
  0
ARC
  5
142
330
1F
100
AcDbEntity
  8
0
  6
Continuous
 62
     7
370
    25
100
AcDbCircle
 10
245.244423575
 20
275.3244598338
 30
0.0
 40
0.2000000000000455
100
AcDbArc
 50
270.0
 51
0.0
  0
ARC
  5
143
330
1F
100
AcDbEntity
  8
0
  6
Continuous
 62
     7
370
    25
100
AcDbCircle
 10
245.244423575
 20
295.4244598338
 30
0.0
 40
0.1999999999999886
100
AcDbArc
 50
0.0
 51
90.0
  0
SPLINE
  5
144
330
1F
100
AcDbEntity
  8
0
  6
Continuous
 62
     7
370
    25
100
AcDbSpline
210
0.0
220
0.0
230
1.0
 70
     8
 71
     3
 72
    10
 73
     6
 74
     0
 42
0.00000001
 43
0.00000001
 40
0.0
 40
0.0
 40
0.0
 40
0.0
 40
0.1989125357376759
 40
0.7926998404637527
 40
1.0
 40
1.0
 40
1.0
 40
1.0
 10
200.4547627304516
 20
374.6741128701746
 30
0.0
 10
200.4523215279732
 20
374.6602966336135
 30
0.0
 10
200.4425929263644
 20
374.6052366119957
 30
0.0
 10
200.4891011086616
 20
374.8639173623547
 30
0.0
 10
200.5343155086877
 20
375.1561886867791
 30
0.0
 10
200.5460157945577
 20
375.2318207430575
 30
0.0
  0
SPLINE
  5
145
330
1F
100
AcDbEntity
  8
0
  6
Continuous
 62
     7
370
    25
100
AcDbSpline
210
0.0
220
0.0
230
1.0
 70
     8
 71
     3
 72
    22
 73
    18
 74
     0
 42
0.00000001
 43
0.00000001
 40
0.0
 40
0.0
 40
0.0
 40
0.0
 40
0.125
 40
0.125
 40
0.25
 40
0.25
 40
0.375
 40
0.375
 40
0.5
 40
0.5
 40
0.625
 40
0.625
 40
0.75
 40
0.75
 40
0.875
 40
0.875
 40
1.0
 40
1.0
 40
1.0
 40
1.0
 10
200.5460157945577
 20
375.2318207430575
 30
0.0
 10
200.5710928865196
 20
375.4269594566334
 30
0.0
 10
200.5982642649041
 20
375.6546238376363
 30
0.0
 10
200.6508556275983
 20
376.1628293030894
 30
0.0
 10
200.6757591548947
 20
376.4381945679638
 30
0.0
 10
200.7186050194448
 20
377.0296552795229
 30
0.0
 10
200.7360164715096
 20
377.3396358475363
 30
0.0
 10
200.7596511749738
 20
377.9748907691061
 30
0.0
 10
200.7659248899827
 20
378.3055957420939
 30
0.0
 10
200.7657504497849
 20
378.9572230654409
 30
0.0
 10
200.7595252250387
 20
379.280763044669
 30
0.0
 10
200.7353735915154
 20
379.9231054172259
 30
0.0
 10
200.717886417481
 20
380.2303523144765
 30
0.0
 10
200.6753547206152
 20
380.8151086754782
 30
0.0
 10
200.6499235173737
 20
381.0956569726348
 30
0.0
 10
200.5978975988731
 20
381.5972655135121
 30
0.0
 10
200.5710878587308
 20
381.8219993349599
 30
0.0
 10
200.5460157945577
 20
382.0170989245324
 30
0.0
  0
SPLINE
  5
146
330
1F
100
AcDbEntity
  8
0
  6
Continuous
 62
     7
370
    25
100
AcDbSpline
210
0.0
220
0.0
230
1.0
 70
     8
 71
     3
 72
     9
 73
     5
 74
     0
 42
0.00000001
 43
0.00000001
 40
0.0
 40
0.0
 40
0.0
 40
0.0
 40
0.5995984502690707
 40
1.0
 40
1.0
 40
1.0
 40
1.0
 10
200.5460157945577
 20
382.0170989245324
 30
0.0
 10
200.5116165384283
 20
382.2293930109633
 30
0.0
 10
200.4542460497054
 20
382.5834534431336
 30
0.0
 10
200.4546150015581
 20
382.5772790385709
 30
0.0
 10
200.4547627304516
 20
382.5748067974153
 30
0.0
  0
LINE
  5
147
330
1F
100
AcDbEntity
  8
0
  6
Continuous
 62
     7
370
    25
100
AcDbLine
 10
245.4460157946
 20
383.8244598338
 30
0.0
 11
200.4460157946
 21
383.8244598338
 31
0.0
  0
LINE
  5
148
330
1F
100
AcDbEntity
  8
0
  6
Continuous
 62
     7
370
    25
100
AcDbLine
 10
245.2451189155
 20
295.6244598338
 30
0.0
 11
245.4460157946
 21
295.6244598338
 31
0.0
  0
SPLINE
  5
149
330
1F
100
AcDbEntity
  8
0
  6
Continuous
 62
     7
370
    25
100
AcDbSpline
210
0.0
220
0.0
230
1.0
 70
     8
 71
     3
 72
    22
 73
    18
 74
     0
 42
0.00000001
 43
0.00000001
 40
0.0
 40
0.0
 40
0.0
 40
0.0
 40
0.1250000000000002
 40
0.1250000000000002
 40
0.2500000000000002
 40
0.2500000000000002
 40
0.3750000000000002
 40
0.3750000000000002
 40
0.5000000000000001
 40
0.5000000000000001
 40
0.6250000000000001
 40
0.6250000000000001
 40
0.7500000000000001
 40
0.7500000000000001
 40
0.875
 40
0.875
 40
1.0
 40
1.0
 40
1.0
 40
1.0
 10
245.2451189155355
 20
295.6244598337949
 30
0.0
 10
245.2087331083788
 20
295.624459833795
 30
0.0
 10
245.1673689771302
 20
295.5974832659623
 30
0.0
 10
245.0776690016829
 20
295.4931583159134
 30
0.0
 10
245.0286376580173
 20
295.4150389373696
 30
0.0
 10
244.9259011334076
 20
295.209866512211
 30
0.0
 10
244.8730116665836
 20
295.0847356289299
 30
0.0
 10
244.7664497463859
 20
294.7904497940925
 30
0.0
 10
244.7122513015858
 20
294.6191467421731
 30
0.0
 10
244.6097702591773
 20
294.2434156087322
 30
0.0
 10
244.5611727442715
 20
294.0386111798016
 30
0.0
 10
244.4722615804232
 20
293.594079793121
 30
0.0
 10
244.4320976448474
 20
293.353772649828
 30
0.0
 10
244.3666430017593
 20
292.8586790270853
 30
0.0
 10
244.3407741305902
 20
292.601374480172
 30
0.0
 10
244.3053807231126
 20
292.0659982714329
 30
0.0
 10
244.2964256266897
 20
291.7947963400075
 30
0.0
 10
244.2964256266897
 20
291.5244598337949
 30
0.0
  0
LINE
  5
14A
330
1F
100
AcDbEntity
  8
0
  6
Continuous
 62
     7
370
    25
100
AcDbLine
 10
244.2964256267
 20
291.5244598338
 30
0.0
 11
244.2964256267
 21
279.1244598338
 31
0.0
  0
SPLINE
  5
14B
330
1F
100
AcDbEntity
  8
0
  6
Continuous
 62
     7
370
    25
100
AcDbSpline
210
0.0
220
0.0
230
1.0
 70
     8
 71
     3
 72
    22
 73
    18
 74
     0
 42
0.00000001
 43
0.00000001
 40
0.0
 40
0.0
 40
0.0
 40
0.0
 40
0.125
 40
0.125
 40
0.2499999999999999
 40
0.2499999999999999
 40
0.3749999999999999
 40
0.3749999999999999
 40
0.4999999999999999
 40
0.4999999999999999
 40
0.6249999999999999
 40
0.6249999999999999
 40
0.7499999999999998
 40
0.7499999999999998
 40
0.8749999999999998
 40
0.8749999999999998
 40
1.0
 40
1.0
 40
1.0
 40
1.0
 10
244.2964256266897
 20
279.124459833795
 30
0.0
 10
244.2964256266897
 20
278.8542842745546
 30
0.0
 10
244.3055175094229
 20
278.5805341132759
 30
0.0
 10
244.3407636413875
 20
278.0480231877434
 30
0.0
 10
244.3665699665098
 20
277.7906641077101
 30
0.0
 10
244.4323741534857
 20
277.2931848938005
 30
0.0
 10
244.4725907462903
 20
277.0530930382093
 30
0.0
 10
244.5611955753659
 20
276.6102958384672
 30
0.0
 10
244.6099246723728
 20
276.4046921871677
 30
0.0
 10
244.7134962911933
 20
276.0254574439531
 30
0.0
 10
244.7666869546152
 20
275.8577740617579
 30
0.0
 10
244.8730824665227
 20
275.5640293602974
 30
0.0
 10
244.9268448296265
 20
275.4369848400364
 30
0.0
 10
245.0291421365442
 20
275.2330595521926
 30
0.0
 10
245.0775218292784
 20
275.1559590400443
 30
0.0
 10
245.1673466556972
 20
275.0514358919195
 30
0.0
 10
245.2090223297038
 20
275.0244598337949
 30
0.0
 10
245.2451189155355
 20
275.024459833795
 30
0.0
  0
LINE
  5
14C
330
1F
100
AcDbEntity
  8
0
  6
Continuous
 62
     7
370
    25
100
AcDbLine
 10
245.2451189155
 20
275.0244598338
 30
0.0
 11
245.4460157946
 21
275.0244598338
 31
0.0
  0
SPLINE
  5
14D
330
1F
100
AcDbEntity
  8
0
  6
Continuous
 62
     7
370
    25
100
AcDbSpline
210
0.0
220
0.0
230
1.0
 70
     8
 71
     3
 72
    38
 73
    34
 74
     0
 42
0.00000001
 43
0.00000001
 40
0.0
 40
0.0
 40
0.0
 40
0.0
 40
0.0202441099826072
 40
0.0404133547856224
 40
0.0608821555381693
 40
0.0730801034538686
 40
0.0974456172924858
 40
0.1285082873306243
 40
0.1471225968000921
 40
0.19657512263542
 40
0.2539819706110324
 40
0.2731259341744794
 40
0.2986649192104989
 40
0.3637664009634753
 40
0.3767671644558067
 40
0.4027076216329323
 40
0.5001870833793965
 40
0.5010593726890996
 40
0.5019313373843262
 40
0.5071563163151918
 40
0.5904559320911497
 40
0.6158298401399059
 40
0.6252783010012348
 40
0.6409501783939359
 40
0.7149504483409398
 40
0.7457481662379042
 40
0.7641064277599041
 40
0.8126909354515
 40
0.8690817229884413
 40
0.887794135997674
 40
0.9126965461799651
 40
0.9563753821422146
 40
1.0
 40
1.0
 40
1.0
 40
1.0
 10
237.8353265473185
 20
363.3353284830108
 30
0.0
 10
237.9313067325074
 20
363.3434674280719
 30
0.0
 10
238.122912156493
 20
363.3597152193859
 30
0.0
 10
238.40590558546
 20
363.3843728178829
 30
0.0
 10
238.6478057480291
 20
363.4057672038909
 30
0.0
 10
238.9053216016423
 20
363.428887027768
 30
0.0
 10
239.2059859868821
 20
363.4562890518942
 30
0.0
 10
239.5272126426985
 20
363.4862883842484
 30
0.0
 10
239.9475004823303
 20
363.5262485021254
 30
0.0
 10
240.4623277859169
 20
363.5764652773494
 30
0.0
 10
240.9512691373775
 20
363.6259194408325
 30
0.0
 10
241.3304366098859
 20
363.6650484133348
 30
0.0
 10
241.7273703995549
 20
363.7065753690548
 30
0.0
 10
242.0812522201663
 20
363.7446266987287
 30
0.0
 10
242.4177281352297
 20
363.7815299140303
 30
0.0
 10
242.8465966294251
 20
363.8290382512938
 30
0.0
 10
243.2015554222174
 20
363.8695976689267
 30
0.0
 10
243.4607710624449
 20
363.8996865553221
 30
0.0
 10
243.4789480582365
 20
363.9017971272003
 30
0.0
 10
243.7107712948125
 20
363.92874332581
 30
0.0
 10
243.981519808849
 20
363.9607456067764
 30
0.0
 10
244.2297208740965
 20
363.9905506397907
 30
0.0
 10
244.3313461786591
 20
364.0028109224151
 30
0.0
 10
244.5244685856959
 20
364.0261863156017
 30
0.0
 10
244.7314976326409
 20
364.0515647855029
 30
0.0
 10
244.9091916519486
 20
364.0735825237904
 30
0.0
 10
245.0375341457759
 20
364.089551059593
 30
0.0
 10
245.1776297659362
 20
364.1070875876638
 30
0.0
 10
245.283479779763
 20
364.1204552479394
 30
0.0
 10
245.3490345442769
 20
364.1287533258509
 30
0.0
 10
245.3957822355627
 20
364.1346754013428
 30
0.0
 10
245.4371562817963
 20
364.1399193888174
 30
0.0
 10
245.4431224328698
 20
364.1406718731462
 30
0.0
 10
245.4461036558258
 20
364.1410478816528
 30
0.0
  0
SPLINE
  5
14E
330
1F
100
AcDbEntity
  8
0
  6
Continuous
 62
     7
370
    25
100
AcDbSpline
210
0.0
220
0.0
230
1.0
 70
     8
 71
     3
 72
    35
 73
    31
 74
     0
 42
0.00000001
 43
0.00000001
 40
0.0
 40
0.0
 40
0.0
 40
0.0
 40
0.0334738834135567
 40
0.0665822652413456
 40
0.0995060516759313
 40
0.132435899764092
 40
0.1655811834779254
 40
0.1991805413052133
 40
0.2335036511564907
 40
0.2558619322100982
 40
0.2865313031290345
 40
0.4014583855833662
 40
0.4145342942382448
 40
0.4277965612601757
 40
0.5256617585504982
 40
0.5661802079667138
 40
0.5706098703972314
 40
0.5967186570130834
 40
0.6521208309243576
 40
0.6692717011560129
 40
0.6726806497457424
 40
0.6827620711187112
 40
0.6958751372667742
 40
0.7463848433130452
 40
0.7560992139849292
 40
0.7592731673648075
 40
0.8278863213193621
 40
0.8894569593496157
 40
0.9463134274264944
 40
1.0
 40
1.0
 40
1.0
 40
1.0
 10
233.4891620434601
 20
357.5834269226132
 30
0.0
 10
233.496955013153
 20
357.6793526414735
 30
0.0
 10
233.5124558610441
 20
357.8701566655457
 30
0.0
 10
233.5453648277296
 20
358.1541136707579
 30
0.0
 10
233.5855529158876
 20
358.4352503724515
 30
0.0
 10
233.6340811195691
 20
358.7148110147673
 30
0.0
 10
233.6913482403619
 20
358.9942115418513
 30
0.0
 10
233.7582338433704
 20
359.2749621982657
 30
0.0
 10
233.8260858848969
 20
359.5230070549989
 30
0.0
 10
233.8983621387812
 20
359.7604198920003
 30
0.0
 10
234.0495437560328
 20
360.2115538612709
 30
0.0
 10
234.2261970181303
 20
360.6232365293811
 30
0.0
 10
234.4109153350499
 20
360.9685781325375
 30
0.0
 10
234.5782210159957
 20
361.2683728814641
 30
0.0
 10
234.8088332341139
 20
361.6144665666682
 30
0.0
 10
235.0539714718116
 20
361.9055859495717
 30
0.0
 10
235.1801752120964
 20
362.0443746081324
 30
0.0
 10
235.3362707890505
 20
362.2072010684669
 30
0.0
 10
235.5255670930974
 20
362.377987714777
 30
0.0
 10
235.676708079983
 20
362.4973639458092
 30
0.0
 10
235.7382540501818
 20
362.5441372084958
 30
0.0
 10
235.792014249567
 20
362.5839588737553
 30
0.0
 10
235.9423988883992
 20
362.6904966608269
 30
0.0
 10
236.0958435857985
 20
362.7861732275896
 30
0.0
 10
236.2304795866674
 20
362.8602861852663
 30
0.0
 10
236.4040959044145
 20
362.9532366740356
 30
0.0
 10
236.6931886349369
 20
363.0841604294302
 30
0.0
 10
237.1030236369145
 20
363.2148302321845
 30
0.0
 10
237.4801447588262
 20
363.297119782563
 30
0.0
 10
237.719218586591
 20
363.3228221999631
 30
0.0
 10
237.8353276996496
 20
363.3353048916726
 30
0.0
  0
SPLINE
  5
14F
330
1F
100
AcDbEntity
  8
0
  6
Continuous
 62
     7
370
    25
100
AcDbSpline
210
0.0
220
0.0
230
1.0
 70
     8
 71
     3
 72
    10
 73
     6
 74
     0
 42
0.00000001
 43
0.00000001
 40
0.0
 40
0.0
 40
0.0
 40
0.0
 40
0.5
 40
0.5
 40
1.0
 40
1.0
 40
1.0
 40
1.0
 10
233.4815645529164
 20
341.0925065065097
 30
0.0
 10
233.2793937583985
 20
343.8090590739836
 30
0.0
 10
233.1751609696197
 20
346.5735009604987
 30
0.0
 10
233.1777441941167
 20
352.104245404217
 30
0.0
 10
233.2845571432633
 20
354.8680110254128
 30
0.0
 10
233.489117335213
 20
357.58340993657
 30
0.0
  0
SPLINE
  5
150
330
1F
100
AcDbEntity
  8
0
  6
Continuous
 62
     7
370
    25
100
AcDbSpline
210
0.0
220
0.0
230
1.0
 70
     8
 71
     3
 72
     9
 73
     5
 74
     0
 42
0.00000001
 43
0.00000001
 40
0.0
 40
0.0
 40
0.0
 40
0.0
 40
0.4975453002822975
 40
1.0
 40
1.0
 40
1.0
 40
1.0
 10
233.5421265177966
 20
340.5015792764611
 30
0.0
 10
233.5300251155142
 20
340.5992690205878
 30
0.0
 10
233.5057029034953
 20
340.7956124370994
 30
0.0
 10
233.4896784075409
 20
340.993044881463
 30
0.0
 10
233.481626824238
 20
341.0922457410104
 30
0.0
  0
SPLINE
  5
151
330
1F
100
AcDbEntity
  8
0
  6
Continuous
 62
     7
370
    25
100
AcDbSpline
210
0.0
220
0.0
230
1.0
 70
     8
 71
     3
 72
     9
 73
     5
 74
     0
 42
0.00000001
 43
0.00000001
 40
0.0
 40
0.0
 40
0.0
 40
0.0
 40
0.5059315730489901
 40
1.0
 40
1.0
 40
1.0
 40
1.0
 10
234.0679166754681
 20
336.3559206783567
 30
0.0
 10
233.9813271578985
 20
337.0553205470388
 30
0.0
 10
233.8101784844766
 20
338.4377206697811
 30
0.0
 10
233.6306146042981
 20
339.8190630287989
 30
0.0
 10
233.5418977604811
 20
340.5015406751996
 30
0.0
  0
SPLINE
  5
152
330
1F
100
AcDbEntity
  8
0
  6
Continuous
 62
     7
370
    25
100
AcDbSpline
210
0.0
220
0.0
230
1.0
 70
     8
 71
     3
 72
    49
 73
    45
 74
     0
 42
0.00000001
 43
0.00000001
 40
0.0
 40
0.0
 40
0.0
 40
0.0
 40
0.0234075449274016
 40
0.047201106442562
 40
0.0713958635114994
 40
0.096004711741601
 40
0.1210474879266014
 40
0.1388458643439743
 40
0.1629427313752177
 40
0.2358798714531722
 40
0.2537178858950579
 40
0.2597190185291446
 40
0.3203597316780082
 40
0.3557041818540828
 40
0.4046189194174492
 40
0.4334278102419501
 40
0.4511043156096909
 40
0.4751617432754936
 40
0.50204500987755
 40
0.508755402540199
 40
0.5177770891712327
 40
0.555962564592931
 40
0.5639812553421508
 40
0.5666716790123244
 40
0.6224001119642647
 40
0.6311085704703021
 40
0.6399140836346706
 40
0.6834671835978385
 40
0.696633125966379
 40
0.7100269454657773
 40
0.744512908190802
 40
0.7658986622380848
 40
0.8013934074635827
 40
0.8148804970612956
 40
0.8374042157085889
 40
0.8718747120427918
 40
0.88023976564653
 40
0.9043936182443789
 40
0.9265958816781596
 40
0.942113550653846
 40
0.9636103895896477
 40
0.983186732111176
 40
0.9917593818197553
 40
1.0
 40
1.0
 40
1.0
 40
1.0
 10
240.8905963645666
 20
330.7744597259841
 30
0.0
 10
240.8365593997911
 20
330.7751873782057
 30
0.0
 10
240.7275943402724
 20
330.7766546824475
 30
0.0
 10
240.559661717152
 20
330.7884889333592
 30
0.0
 10
240.3867479840542
 20
330.8075751891081
 30
0.0
 10
240.2085454888814
 20
330.8348076372706
 30
0.0
 10
240.0438387212048
 20
330.8665526498743
 30
0.0
 10
239.8788352651929
 20
330.9037785399642
 30
0.0
 10
239.5933453915354
 20
330.9770409392975
 30
0.0
 10
239.3024068837895
 20
331.0717498761398
 30
0.0
 10
239.0544924946072
 20
331.167018556852
 30
0.0
 10
238.8374555421267
 20
331.2536804139306
 30
0.0
 10
238.5733458738652
 20
331.3701281455766
 30
0.0
 10
238.1956502788887
 20
331.5584967071251
 30
0.0
 10
237.8997192095665
 20
331.7209291349916
 30
0.0
 10
237.6498895023413
 20
331.8697350571985
 30
0.0
 10
237.4652731877818
 20
331.9849292350721
 30
0.0
 10
237.2859136965466
 20
332.1014946638959
 30
0.0
 10
237.1356088095878
 20
332.2040712777658
 30
0.0
 10
237.0247960127481
 20
332.2821533569854
 30
0.0
 10
236.8847826315947
 20
332.3822905996889
 30
0.0
 10
236.7419910393684
 20
332.4890379286668
 30
0.0
 10
236.6164073375127
 20
332.5871989574125
 30
0.0
 10
236.4460420423174
 20
332.7217383188421
 30
0.0
 10
236.2753915510152
 20
332.8641589297644
 30
0.0
 10
236.0922004744257
 20
333.0276041131123
 30
0.0
 10
235.9401731371497
 20
333.1657411713475
 30
0.0
 10
235.779432269783
 20
333.3200594356256
 30
0.0
 10
235.6112762228455
 20
333.4925549101729
 30
0.0
 10
235.4665666589098
 20
333.6458376275976
 30
0.0
 10
235.3061443719498
 20
333.8262856605613
 30
0.0
 10
235.1019036734988
 20
334.074786396641
 30
0.0
 10
234.9511887505897
 20
334.2748492067893
 30
0.0
 10
234.8054055491759
 20
334.4860596737828
 30
0.0
 10
234.6675087881572
 20
334.7001373721548
 30
0.0
 10
234.5494709836214
 20
334.9076938116559
 30
0.0
 10
234.4380344058167
 20
335.1273031763612
 30
0.0
 10
234.3531979665144
 20
335.3110839944044
 30
0.0
 10
234.2688978798693
 20
335.5257102183741
 30
0.0
 10
234.1984693180686
 20
335.7360865196641
 30
0.0
 10
234.1415245616831
 20
335.941539322796
 30
0.0
 10
234.1028644085313
 20
336.1254296544819
 30
0.0
 10
234.0802787626814
 20
336.2615722726749
 30
0.0
 10
234.0719827608791
 20
336.3248880000331
 30
0.0
 10
234.0679166754681
 20
336.3559206783567
 30
0.0
  0
SPLINE
  5
153
330
1F
100
AcDbEntity
  8
0
  6
Continuous
 62
     7
370
    25
100
AcDbSpline
210
0.0
220
0.0
230
1.0
 70
     8
 71
     3
 72
    34
 73
    30
 74
     0
 42
0.00000001
 43
0.00000001
 40
0.0
 40
0.0
 40
0.0
 40
0.0
 40
0.0334089084045165
 40
0.066846859473089
 40
0.1003393131794545
 40
0.1339081691667674
 40
0.167572164840689
 40
0.2013472678630149
 40
0.2352470702818854
 40
0.2692831997672955
 40
0.3034657887765189
 40
0.3378041228660362
 40
0.3723075482031524
 40
0.4069861067875005
 40
0.4418509930875358
 40
0.4769150871784756
 40
0.5121933554031116
 40
0.5476961158716507
 40
0.583427187508526
 40
0.6193936925618274
 40
0.6556039282748107
 40
0.6920639673474253
 40
0.7287741931671418
 40
0.7657260198151665
 40
0.8028990621990598
 40
0.8519683102540224
 40
0.9011376822149413
 40
0.9504639888415373
 40
1.0
 40
1.0
 40
1.0
 40
1.0
 10
245.446094056505
 20
330.7744690421001
 30
0.0
 10
245.4450791764507
 20
330.7744689229677
 30
0.0
 10
245.4430485340977
 20
330.7744686845996
 30
0.0
 10
245.4266018596093
 20
330.7744708854475
 30
0.0
 10
245.4003073908856
 20
330.774477277798
 30
0.0
 10
245.3631476124868
 20
330.7744861353884
 30
0.0
 10
245.3153105047603
 20
330.7744951314813
 30
0.0
 10
245.2566400354389
 20
330.7745019900808
 30
0.0
 10
245.1870530014499
 20
330.774505032759
 30
0.0
 10
245.1064264421074
 20
330.7745026261856
 30
0.0
 10
245.0146292985547
 20
330.7744936590133
 30
0.0
 10
244.9115106311966
 20
330.7744720058672
 30
0.0
 10
244.796929095001
 20
330.7744481561739
 30
0.0
 10
244.6707519990034
 20
330.7744347732385
 30
0.0
 10
244.532835699297
 20
330.7744342219496
 30
0.0
 10
244.3830211037969
 20
330.7744429146755
 30
0.0
 10
244.2211379509376
 20
330.7744548650015
 30
0.0
 10
244.0470200006342
 20
330.7744685080967
 30
0.0
 10
243.8605107008786
 20
330.7744808135729
 30
0.0
 10
243.6614590125733
 20
330.7744883106984
 30
0.0
 10
243.4497130209551
 20
330.7744884227847
 30
0.0
 10
243.2251382941632
 20
330.7744808917398
 30
0.0
 10
242.9876395068322
 20
330.7744681341115
 30
0.0
 10
242.7371956343217
 20
330.7744564721687
 30
0.0
 10
242.4462017297789
 20
330.7744461757622
 30
0.0
 10
242.1105046118244
 20
330.7744586530105
 30
0.0
 10
241.724884786257
 20
330.7745020603786
 30
0.0
 10
241.3202333448816
 20
330.7744767076967
 30
0.0
 10
241.0340110674308
 20
330.7744653945538
 30
0.0
 10
240.8905963645666
 20
330.7744597259837
 30
0.0
  0
LINE
  5
154
330
1F
100
AcDbEntity
  8
0
  6
Continuous
 62
     7
370
    25
100
AcDbLine
 10
245.4460157946
 20
260.3244598338
 30
0.0
 11
200.4460157946
 21
260.3244598338
 31
0.0
  0
LINE
  5
155
330
1F
100
AcDbEntity
  8
0
  6
Continuous
 62
     7
370
    25
100
AcDbLine
 10
200.6460560168
 20
393.8244598338
 30
0.0
 11
245.2460157946
 21
393.8244598338
 31
0.0
  0
SPLINE
  5
156
330
1F
100
AcDbEntity
  8
0
  6
Continuous
 62
     7
370
    25
100
AcDbSpline
210
0.0
220
0.0
230
1.0
 70
     8
 71
     3
 72
    15
 73
    11
 74
     0
 42
0.00000001
 43
0.00000001
 40
0.0
 40
0.0
 40
0.0
 40
0.0
 40
0.0832154929985164
 40
0.1665783322918773
 40
0.2505318485970968
 40
0.3762872916724225
 40
0.5007395814976239
 40
0.6707649381837605
 40
0.8359937618843537
 40
1.0
 40
1.0
 40
1.0
 40
1.0
 10
242.5717462725098
 20
340.9426124770926
 30
0.0
 10
242.5482265338382
 20
340.9577775478959
 30
0.0
 10
242.5011454110487
 20
340.9881345416778
 30
0.0
 10
242.4358453381159
 20
341.0408706990896
 30
0.0
 10
242.364668841029
 20
341.1082472324572
 30
0.0
 10
242.2917672892949
 20
341.1934765604137
 30
0.0
 10
242.2138882257926
 20
341.3121077284738
 30
0.0
 10
242.1480475024534
 20
341.4549534298218
 30
0.0
 10
242.101913547972
 20
341.6226670943034
 30
0.0
 10
242.0962545765164
 20
341.7380116765397
 30
0.0
 10
242.0934355978362
 20
341.7954698066526
 30
0.0
  0
SPLINE
  5
157
330
1F
100
AcDbEntity
  8
0
  6
Continuous
 62
     7
370
    25
100
AcDbSpline
210
0.0
220
0.0
230
1.0
 70
     8
 71
     3
 72
    19
 73
    15
 74
     0
 42
0.00000001
 43
0.00000001
 40
0.0
 40
0.0
 40
0.0
 40
0.0
 40
0.0548699156547024
 40
0.1148355272996287
 40
0.1799430646747024
 40
0.2502334852848296
 40
0.3053228964358088
 40
0.3751541999005159
 40
0.5005514366190744
 40
0.6379691996893103
 40
0.750161176308888
 40
0.8402347527363064
 40
0.9235368810579616
 40
1.0
 40
1.0
 40
1.0
 40
1.0
 10
246.1931395188991
 20
339.9367580107856
 30
0.0
 10
246.1255049860918
 20
339.9368675178756
 30
0.0
 10
245.9839547914922
 20
339.9370967018331
 30
0.0
 10
245.7622024710603
 20
339.9460797063158
 30
0.0
 10
245.5216866824946
 20
339.963454661365
 30
0.0
 10
245.2874771006994
 20
339.98919389633
 30
0.0
 10
245.047782969144
 20
340.0237302257582
 30
0.0
 10
244.7411349676745
 20
340.078673623309
 30
0.0
 10
244.3351069649907
 20
340.173818395815
 30
0.0
 10
243.8812292481931
 20
340.3159068150022
 30
0.0
 10
243.4740758967183
 20
340.4746489587476
 30
0.0
 10
243.1360741235275
 20
340.6301634495605
 30
0.0
 10
242.8434926341254
 20
340.7813958195184
 30
0.0
 10
242.6597059646671
 20
340.890429377063
 30
0.0
 10
242.5717462725098
 20
340.9426124770926
 30
0.0
  0
SPLINE
  5
158
330
1F
100
AcDbEntity
  8
0
  6
Continuous
 62
     7
370
    25
100
AcDbSpline
210
0.0
220
0.0
230
1.0
 70
     8
 71
     3
 72
    18
 73
    14
 74
     0
 42
0.00000001
 43
0.00000001
 40
0.0
 40
0.0
 40
0.0
 40
0.0
 40
0.0404737644095329
 40
0.0865644045772922
 40
0.1387414044418928
 40
0.1962005730170535
 40
0.3319343511525966
 40
0.4676290395795221
 40
0.5989623898582501
 40
0.6993114873836896
 40
0.796479379097907
 40
0.9007908936023938
 40
1.0
 40
1.0
 40
1.0
 40
1.0
 10
242.0934393021975
 20
341.7954658393786
 30
0.0
 10
241.9724229923443
 20
341.7866998379596
 30
0.0
 10
241.7135959482227
 20
341.7679513053133
 30
0.0
 10
241.2990629833439
 20
341.73745511603
 30
0.0
 10
240.8342667513812
 20
341.7029153937019
 30
0.0
 10
240.1034890251326
 20
341.6478098997813
 30
0.0
 10
239.1283244860989
 20
341.5726008729237
 30
0.0
 10
237.9474496815217
 20
341.478444282942
 30
0.0
 10
236.886490199871
 20
341.3910952956844
 30
0.0
 10
235.9527692174447
 20
341.3121184973814
 30
0.0
 10
235.1107755472878
 20
341.2390439448365
 30
0.0
 10
234.2866893510903
 20
341.1659603524034
 30
0.0
 10
233.7454597211763
 20
341.1163798696874
 30
0.0
 10
233.4816294139491
 20
341.0922111374812
 30
0.0
  0
SPLINE
  5
159
330
1F
100
AcDbEntity
  8
0
  6
Continuous
 62
     7
370
    25
100
AcDbSpline
210
0.0
220
0.0
230
1.0
 70
     8
 71
     3
 72
    10
 73
     6
 74
     0
 42
0.00000001
 43
0.00000001
 40
0.0
 40
0.0
 40
0.0
 40
0.0
 40
0.0879191322290052
 40
0.5427666271815074
 40
1.0
 40
1.0
 40
1.0
 40
1.0
 10
247.6374245134224
 20
359.0307316727021
 30
0.0
 10
247.755331357194
 20
359.0400771388022
 30
0.0
 10
248.4832263931551
 20
359.0977711467616
 30
0.0
 10
249.1977441757035
 20
359.1625082749118
 30
0.0
 10
249.3631142807762
 20
359.1766953409889
 30
0.0
 10
249.446015626016
 20
359.1838074297324
 30
0.0
  0
LINE
  5
15A
330
1F
100
AcDbEntity
  8
0
  6
Continuous
 62
     7
370
    25
100
AcDbLine
 10
247.774722677
 20
359.0416600767
 30
0.0
 11
247.7018563229
 21
359.0358579654
 31
0.0
  0
SPLINE
  5
15B
330
1F
100
AcDbEntity
  8
0
  6
Continuous
 62
     7
370
    25
100
AcDbSpline
210
0.0
220
0.0
230
1.0
 70
     8
 71
     3
 72
    21
 73
    17
 74
     0
 42
0.00000001
 43
0.00000001
 40
0.0
 40
0.0
 40
0.0
 40
0.0
 40
0.0309084594669681
 40
0.0622001077138364
 40
0.0939125571282403
 40
0.1260791534221006
 40
0.1870924770904235
 40
0.2515496353217422
 40
0.3763605012194864
 40
0.5015773560069889
 40
0.6260963434843019
 40
0.7512462969875666
 40
0.8248939542869312
 40
0.8753059907103117
 40
0.9414385177895344
 40
1.0
 40
1.0
 40
1.0
 40
1.0
 10
242.0934355506344
 20
356.8727651132063
 30
0.0
 10
242.0953283725716
 20
356.9075775796416
 30
0.0
 10
242.0991374827767
 20
356.9776341013641
 30
0.0
 10
242.11207224732
 20
357.0822404365481
 30
0.0
 10
242.1302943175372
 20
357.1866363722403
 30
0.0
 10
242.1613934353613
 20
357.3207170733115
 30
0.0
 10
242.2129470608798
 20
357.4836216859016
 30
0.0
 10
242.3167720478772
 20
357.7251696653595
 30
0.0
 10
242.4820291915527
 20
357.9934104894433
 30
0.0
 10
242.7129722134434
 20
358.2538452638306
 30
0.0
 10
242.9652000854425
 20
358.4584571353863
 30
0.0
 10
243.1933531534316
 20
358.5883548789846
 30
0.0
 10
243.3718215648024
 20
358.6606282521326
 30
0.0
 10
243.5089729498419
 20
358.702166605048
 30
0.0
 10
243.6352143283019
 20
358.7298042411554
 30
0.0
 10
243.7247054591912
 20
358.7382428608287
 30
0.0
 10
243.7667342086028
 20
358.7422059868738
 30
0.0
  0
SPLINE
  5
15C
330
1F
100
AcDbEntity
  8
0
  6
Continuous
 62
     7
370
    25
100
AcDbSpline
210
0.0
220
0.0
230
1.0
 70
     8
 71
     3
 72
    10
 73
     6
 74
     0
 42
0.00000001
 43
0.00000001
 40
0.0
 40
0.0
 40
0.0
 40
0.0
 40
0.5
 40
0.5
 40
1.0
 40
1.0
 40
1.0
 40
1.0
 10
233.489117335213
 20
357.58340993657
 30
0.0
 10
234.7953723347637
 20
357.4614677377974
 30
0.0
 10
236.2044250833606
 20
357.337753240152
 30
0.0
 10
239.1142159989649
 20
357.0974134403522
 30
0.0
 10
240.6137598355087
 20
356.9808867862286
 30
0.0
 10
242.0934355591293
 20
356.872719656983
 30
0.0
  0
SPLINE
  5
15D
330
1F
100
AcDbEntity
  8
0
  6
Continuous
 62
     7
370
    25
100
AcDbSpline
210
0.0
220
0.0
230
1.0
 70
     8
 71
     3
 72
     8
 73
     4
 74
     0
 42
0.00000001
 43
0.00000001
 40
0.0943514823238665
 40
0.0943514823238665
 40
0.0943514823238665
 40
0.0943514823238665
 40
0.899267612084163
 40
0.899267612084163
 40
0.899267612084163
 40
0.899267612084163
 10
242.0934150633365
 20
341.7957479253889
 30
0.0
 10
242.0934287171352
 20
346.8228772917792
 30
0.0
 10
242.0934423810654
 20
351.8454947587515
 30
0.0
 10
242.0934560551266
 20
356.8727195408233
 30
0.0
  0
SPLINE
  5
15E
330
1F
100
AcDbEntity
  8
0
  6
Continuous
 62
     7
370
    25
100
AcDbSpline
210
0.0
220
0.0
230
1.0
 70
     8
 71
     3
 72
    34
 73
    30
 74
     0
 42
0.00000001
 43
0.00000001
 40
0.0
 40
0.0
 40
0.0
 40
0.0
 40
0.0078125
 40
0.0078125
 40
0.015625
 40
0.015625
 40
0.0234374999999999
 40
0.0234374999999999
 40
0.0312499999999999
 40
0.0312499999999999
 40
0.0390624999999999
 40
0.0390624999999999
 40
0.0468749999999999
 40
0.0468749999999999
 40
0.0546874999999998
 40
0.0546874999999998
 40
0.0624999999999998
 40
0.0624999999999998
 40
0.0781249999999998
 40
0.0781249999999998
 40
0.0937499999999997
 40
0.0937499999999997
 40
0.1249999999999996
 40
0.1249999999999996
 40
0.2499999999999996
 40
0.2499999999999996
 40
0.4999999999999999
 40
0.4999999999999999
 40
1.0
 40
1.0
 40
1.0
 40
1.0
 10
355.3128818364951
 20
356.6214976984699
 30
0.0
 10
355.1846232113523
 20
356.6183432643972
 30
0.0
 10
355.0439774905376
 20
356.6159338546482
 30
0.0
 10
354.7329830789669
 20
356.6120050785329
 30
0.0
 10
354.5617081315987
 20
356.6104825579802
 30
0.0
 10
354.187642802472
 20
356.6081347527963
 30
0.0
 10
353.9842258698828
 20
356.6072926125685
 30
0.0
 10
353.5524908610887
 20
356.6062497853941
 30
0.0
 10
353.3251887931968
 20
356.6060607401482
 30
0.0
 10
352.8471112165349
 20
356.6063532169624
 30
0.0
 10
352.5960284811031
 20
356.606835455852
 30
0.0
 10
352.0711492727062
 20
356.6083186845634
 30
0.0
 10
351.797755975887
 20
356.6093243502118
 30
0.0
 10
351.2421827320678
 20
356.611597922404
 30
0.0
 10
350.9588326938757
 20
356.6128441281955
 30
0.0
 10
350.3798011354894
 20
356.6153328210455
 30
0.0
 10
350.083070438083
 20
356.616575649752
 30
0.0
 10
349.1842524558819
 20
356.6211994141266
 30
0.0
 10
348.5830339680073
 20
356.6253898656081
 30
0.0
 10
347.3863512362577
 20
356.6333623557104
 30
0.0
 10
346.7882803347485
 20
356.6370428533313
 30
0.0
 10
344.9932326682095
 20
356.6477430488539
 30
0.0
 10
343.7966118418867
 20
356.6544355285062
 30
0.0
 10
337.8140924420666
 20
356.6867983791696
 30
0.0
 10
333.0283803384709
 20
356.7101573741608
 30
0.0
 10
318.6703225558661
 20
356.7706955381911
 30
0.0
 10
309.0983309847643
 20
356.7987250569354
 30
0.0
 10
280.3821459325045
 20
356.8592917889491
 30
0.0
 10
261.2378017685414
 20
356.8675357144292
 30
0.0
 10
242.0934355533627
 20
356.8727651126923
 30
0.0
  0
SPLINE
  5
15F
330
1F
100
AcDbEntity
  8
0
  6
Continuous
 62
     7
370
    25
100
AcDbSpline
210
0.0
220
0.0
230
1.0
 70
     8
 71
     3
 72
    20
 73
    16
 74
     0
 42
0.00000001
 43
0.00000001
 40
0.0
 40
0.0
 40
0.0
 40
0.0
 40
0.5000000000000009
 40
0.5000000000000009
 40
0.6250000000000011
 40
0.6250000000000011
 40
0.6875000000000012
 40
0.6875000000000012
 40
0.7500000000000013
 40
0.7500000000000013
 40
0.8125000000000014
 40
0.8125000000000014
 40
0.8750000000000016
 40
0.8750000000000016
 40
1.0
 40
1.0
 40
1.0
 40
1.0
 10
355.9389003539965
 20
356.6442754318423
 30
0.0
 10
355.9388972360273
 20
356.644318572117
 30
0.0
 10
355.9315145258993
 20
356.647672865535
 30
0.0
 10
355.9323019437452
 20
356.6481849542297
 30
0.0
 10
355.9329509950732
 20
356.647969947442
 30
0.0
 10
355.9350680231641
 20
356.6467440282232
 30
0.0
 10
355.9359647935721
 20
356.6461808502837
 30
0.0
 10
355.9382101086242
 20
356.6443291883946
 30
0.0
 10
355.9407904353775
 20
356.6428670042044
 30
0.0
 10
355.9397749260884
 20
356.6393541037606
 30
0.0
 10
355.9345723565232
 20
356.6374435594829
 30
0.0
 10
355.8907904067225
 20
356.6346111006595
 30
0.0
 10
355.8534066710027
 20
356.6334658739439
 30
0.0
 10
355.6958537713539
 20
356.6299292217764
 30
0.0
 10
355.531176670635
 20
356.626936968166
 30
0.0
 10
355.312999907475
 20
356.621492723426
 30
0.0
  0
LINE
  5
160
330
1F
100
AcDbEntity
  8
0
  6
Continuous
 62
     7
370
    25
100
AcDbLine
 10
356.0002608098
 20
351.2990797767
 30
0.0
 11
355.9389003122
 21
356.644276829
 31
0.0
  0
SPLINE
  5
161
330
1F
100
AcDbEntity
  8
0
  6
Continuous
 62
     7
370
    25
100
AcDbSpline
210
0.0
220
0.0
230
1.0
 70
     8
 71
     3
 72
    36
 73
    32
 74
     0
 42
0.00000001
 43
0.00000001
 40
0.0
 40
0.0
 40
0.0
 40
0.0
 40
0.499999999999999
 40
0.499999999999999
 40
0.7499999999999984
 40
0.7499999999999984
 40
0.8124999999999984
 40
0.8124999999999984
 40
0.8749999999999984
 40
0.8749999999999984
 40
0.8906249999999988
 40
0.8906249999999988
 40
0.8984374999999991
 40
0.8984374999999991
 40
0.9062499999999994
 40
0.9062499999999994
 40
0.9140624999999998
 40
0.9140624999999998
 40
0.921875
 40
0.921875
 40
0.9375
 40
0.9375
 40
0.953125
 40
0.953125
 40
0.96875
 40
0.96875
 40
0.9843749999999999
 40
0.9843749999999999
 40
0.9921875
 40
0.9921875
 40
1.0
 40
1.0
 40
1.0
 40
1.0
 10
242.0934355204831
 20
341.7954698066566
 30
0.0
 10
261.7207632564028
 20
341.7944695020495
 30
0.0
 10
281.3503048245827
 20
341.7967881090612
 30
0.0
 10
310.7880888770103
 20
341.8518605072121
 30
0.0
 10
320.6000278948482
 20
341.8787099906028
 30
0.0
 10
332.8623883881567
 20
341.9286329363292
 30
0.0
 10
335.3148100625951
 20
341.9394983694003
 30
0.0
 10
340.219055632778
 20
341.9625816855341
 30
0.0
 10
342.6708553486723
 20
341.9746847203534
 30
0.0
 10
345.7367242486895
 20
341.9911163615361
 30
0.0
 10
346.3497699231952
 20
341.9944965714614
 30
0.0
 10
347.2698300458201
 20
341.9996726279666
 30
0.0
 10
347.5764630743876
 20
342.0014258469768
 30
0.0
 10
348.1910618430215
 20
342.0048819028921
 30
0.0
 10
348.4991350070198
 20
342.0065550578966
 30
0.0
 10
349.1135418750583
 20
342.0095054546345
 30
0.0
 10
349.4200262381981
 20
342.0107767814432
 30
0.0
 10
350.0287443739952
 20
342.0128698409011
 30
0.0
 10
350.3322958071882
 20
342.0136993866943
 30
0.0
 10
351.2267746110275
 20
342.0164701636481
 30
0.0
 10
351.8002075440511
 20
342.01844038901
 30
0.0
 10
352.8644499856981
 20
342.0220434345704
 30
0.0
 10
353.354849055837
 20
342.0237187427708
 30
0.0
 10
354.2186623408765
 20
342.0268069274315
 30
0.0
 10
354.5933045579581
 20
342.0282101657073
 30
0.0
 10
355.2068631131694
 20
342.0302699543806
 30
0.0
 10
355.4452596663994
 20
342.0309617178319
 30
0.0
 10
355.6853570788364
 20
342.0316879558526
 30
0.0
 10
355.746289774361
 20
342.0318486769763
 30
0.0
 10
355.822772436348
 20
342.0319830650103
 30
0.0
 10
355.8378667726151
 20
342.0319984852591
 30
0.0
 10
355.841609528892
 20
342.0320231121887
 30
0.0
  0
ARC
  5
162
330
1F
100
AcDbEntity
  8
0
  6
Continuous
 62
     7
370
    25
100
AcDbCircle
 10
354.4429756788
 20
342.0924702924
 30
0.0
 40
1.399939465918622
100
AcDbArc
 50
270.4020646771
 51
357.5252891502
  0
SPLINE
  5
163
330
1F
100
AcDbEntity
  8
0
  6
Continuous
 62
     7
370
    25
100
AcDbSpline
210
0.0
220
0.0
230
1.0
 70
    24
 71
     3
 72
    42
 73
    38
 74
     0
 42
0.00000001
 43
0.00000001
 40
0.0
 40
0.0
 40
0.0
 40
0.0
 40
0.0078124999999986
 40
0.0078124999999986
 40
0.0156249999999973
 40
0.0156249999999973
 40
0.031249999999995
 40
0.031249999999995
 40
0.0468749999999928
 40
0.0468749999999928
 40
0.0624999999999906
 40
0.0624999999999906
 40
0.070312499999989
 40
0.070312499999989
 40
0.0781249999999876
 40
0.0781249999999876
 40
0.085937499999986
 40
0.085937499999986
 40
0.0937499999999845
 40
0.0937499999999845
 40
0.101562499999983
 40
0.101562499999983
 40
0.1054687499999826
 40
0.1054687499999826
 40
0.1093749999999826
 40
0.1093749999999826
 40
0.1249999999999829
 40
0.1249999999999829
 40
0.1562499999999835
 40
0.1562499999999835
 40
0.1874999999999841
 40
0.1874999999999841
 40
0.2499999999999852
 40
0.2499999999999852
 40
0.4999999999999903
 40
0.4999999999999903
 40
1.0
 40
1.0
 40
1.0
 40
1.0
 10
354.4527994667698
 20
340.692565295141
 30
0.0
 10
354.4494925963928
 20
340.6925422084556
 30
0.0
 10
354.4378420784379
 20
340.6924608711749
 30
0.0
 10
354.3817617789126
 20
340.6920693504653
 30
0.0
 10
354.3368986868372
 20
340.691756141909
 30
0.0
 10
354.1581711998285
 20
340.6905083683926
 30
0.0
 10
353.9791830313878
 20
340.6892587749467
 30
0.0
 10
353.51585064319
 20
340.6860240521123
 30
0.0
 10
353.2317870165166
 20
340.6840408816648
 30
0.0
 10
352.5812460290965
 20
340.6794991750189
 30
0.0
 10
352.2151750986529
 20
340.6769434762855
 30
0.0
 10
351.6126517282532
 20
340.6727370012923
 30
0.0
 10
351.4031314291822
 20
340.6712742499005
 30
0.0
 10
350.9690857519421
 20
340.6682439902012
 30
0.0
 10
350.743744098164
 20
340.6666707831222
 30
0.0
 10
350.290156673115
 20
340.6635040940701
 30
0.0
 10
350.0638798952943
 20
340.6619243584877
 30
0.0
 10
349.6125869144353
 20
340.6587736879381
 30
0.0
 10
349.3745037572849
 20
340.6571115269398
 30
0.0
 10
348.8616756022843
 20
340.6535312528528
 30
0.0
 10
348.5890879339915
 20
340.6516282010104
 30
0.0
 10
348.1577734685415
 20
340.6486170090762
 30
0.0
 10
348.010477617322
 20
340.6475886733382
 30
0.0
 10
347.7101913557192
 20
340.6454922456936
 30
0.0
 10
347.5576716834954
 20
340.6444274402127
 30
0.0
 10
346.8062074014473
 20
340.6391811446065
 30
0.0
 10
346.2196081191632
 20
340.6350858425267
 30
0.0
 10
344.4492713179838
 20
340.6227263593107
 30
0.0
 10
343.2673137614005
 20
340.6144746048577
 30
0.0
 10
340.9018120815446
 20
340.5979600194465
 30
0.0
 10
339.7182553627471
 20
340.5896971005537
 30
0.0
 10
336.1671572146554
 20
340.5649053558809
 30
0.0
 10
333.8001915724439
 20
340.5483805499184
 30
0.0
 10
321.9650915214513
 20
340.4657546222743
 30
0.0
 10
312.4949378834736
 20
340.3996394034848
 30
0.0
 10
284.0825388943388
 20
340.2012802165786
 30
0.0
 10
265.1369772946271
 20
340.0690130963035
 30
0.0
 10
246.1931290532017
 20
339.9367579377201
 30
0.0
  0
SPLINE
  5
164
330
1F
100
AcDbEntity
  8
0
  6
Continuous
 62
     7
370
    25
100
AcDbSpline
210
0.0
220
0.0
230
1.0
 70
     8
 71
     3
 72
    40
 73
    36
 74
     0
 42
0.00000001
 43
0.00000001
 40
0.0
 40
0.0
 40
0.0
 40
0.0
 40
0.5000000000000034
 40
0.5000000000000034
 40
0.7500000000000053
 40
0.7500000000000053
 40
0.8750000000000061
 40
0.8750000000000061
 40
0.9062500000000061
 40
0.9062500000000061
 40
0.9140625000000063
 40
0.9140625000000063
 40
0.9179687500000064
 40
0.9179687500000064
 40
0.9218750000000064
 40
0.9218750000000064
 40
0.9375000000000054
 40
0.9375000000000054
 40
0.9414062500000047
 40
0.9414062500000047
 40
0.945312500000004
 40
0.945312500000004
 40
0.9531250000000033
 40
0.9531250000000033
 40
0.9609375000000028
 40
0.9609375000000028
 40
0.9687500000000022
 40
0.9687500000000022
 40
0.9765625000000017
 40
0.9765625000000017
 40
0.9843750000000011
 40
0.9843750000000011
 40
0.9921875000000006
 40
0.9921875000000006
 40
1.0
 40
1.0
 40
1.0
 40
1.0
 10
243.766756550317
 20
358.7422058204442
 30
0.0
 10
262.6318263371291
 20
358.6016746917163
 30
0.0
 10
281.4970671598841
 20
358.4615115796365
 30
0.0
 10
309.7947608333914
 20
358.254377014215
 30
0.0
 10
319.227301394977
 20
358.1858340446128
 30
0.0
 10
333.3760311653473
 20
358.0841529948613
 30
0.0
 10
338.0942721869972
 20
358.050437658634
 30
0.0
 10
343.9866062983388
 20
358.0085160323867
 30
0.0
 10
345.1644919261103
 20
358.0001475362907
 30
0.0
 10
346.6333469562421
 20
357.9897160022622
 30
0.0
 10
346.9276764328507
 20
357.9876246360994
 30
0.0
 10
347.3760857888079
 20
357.9844481850395
 30
0.0
 10
347.52655984654
 20
357.9833844335694
 30
0.0
 10
347.8289220365104
 20
357.9812598108202
 30
0.0
 10
347.9800446087737
 20
357.9802043433491
 30
0.0
 10
348.7124218767536
 20
357.9750818364116
 30
0.0
 10
349.2468641157042
 20
357.9711741755497
 30
0.0
 10
349.8380661305135
 20
357.967511976424
 30
0.0
 10
349.9517616999264
 20
357.9668570315786
 30
0.0
 10
350.1816652248759
 20
357.9656049755207
 30
0.0
 10
350.2965332547545
 20
357.9650149500453
 30
0.0
 10
350.6404914741968
 20
357.9633084884182
 30
0.0
 10
350.8691297308793
 20
357.962224280868
 30
0.0
 10
351.3159376263972
 20
357.9603520414236
 30
0.0
 10
351.5347796581334
 20
357.9595754576362
 30
0.0
 10
351.9528466831176
 20
357.9584815824508
 30
0.0
 10
352.1517926729309
 20
357.9581601701862
 30
0.0
 10
352.5299795039058
 20
357.9580924817619
 30
0.0
 10
352.7103539437175
 20
357.9583492668265
 30
0.0
 10
353.0561238701531
 20
357.9594720340064
 30
0.0
 10
353.2201032736162
 20
357.9603269936341
 30
0.0
 10
353.5229744454205
 20
357.9626967836712
 30
0.0
 10
353.6623148430922
 20
357.9642275308
 30
0.0
 10
353.916358315884
 20
357.9681106473395
 30
0.0
 10
354.0317631587486
 20
357.9704665118577
 30
0.0
 10
354.1368627318461
 20
357.9735782673715
 30
0.0
  0
SPLINE
  5
165
330
1F
100
AcDbEntity
  8
0
  6
Continuous
 62
     7
370
    25
100
AcDbSpline
210
0.0
220
0.0
230
1.0
 70
     8
 71
     3
 72
    14
 73
    10
 74
     0
 42
0.00000001
 43
0.00000001
 40
0.0
 40
0.0
 40
0.0
 40
0.0
 40
0.25
 40
0.25
 40
0.5
 40
0.5
 40
0.75
 40
0.75
 40
1.0
 40
1.0
 40
1.0
 40
1.0
 10
354.1367087903833
 20
357.97360605692
 30
0.0
 10
354.2777825646297
 20
357.9607274820095
 30
0.0
 10
354.4265342122894
 20
357.9205615997681
 30
0.0
 10
354.7109991626492
 20
357.7759727746746
 30
0.0
 10
354.8460139208061
 20
357.6713535293744
 30
0.0
 10
355.0705789215107
 20
357.4132320952163
 30
0.0
 10
355.1595762641503
 20
357.2603651381405
 30
0.0
 10
355.2780722222151
 20
356.9417674660401
 30
0.0
 10
355.3078107785926
 20
356.7767827483733
 30
0.0
 10
355.3130080426708
 20
356.6214938255924
 30
0.0
  0
LINE
  5
166
330
1F
100
AcDbEntity
  8
0
  6
Continuous
 62
     7
370
    25
100
AcDbLine
 10
354.6875524463
 20
357.9975896471
 30
0.0
 11
354.6874263679
 21
357.9975326258
 31
0.0
  0
SPLINE
  5
167
330
1F
100
AcDbEntity
  8
0
  6
Continuous
 62
     7
370
    25
100
AcDbSpline
210
0.0
220
0.0
230
1.0
 70
     8
 71
     3
 72
    10
 73
     6
 74
     0
 42
0.00000001
 43
0.00000001
 40
0.0
 40
0.0
 40
0.0
 40
0.0
 40
0.3820447712175989
 40
0.7898946137916135
 40
1.0
 40
1.0
 40
1.0
 40
1.0
 10
355.9389003569877
 20
356.6442753921791
 30
0.0
 10
355.9167873183876
 20
356.8036989185014
 30
0.0
 10
355.8710676242556
 20
357.1333141736778
 30
0.0
 10
355.6470635422213
 20
357.5159485674453
 30
0.0
 10
355.4299525773505
 20
357.6608801677151
 30
0.0
 10
355.3561346355328
 20
357.7101570545027
 30
0.0
  0
LINE
  5
168
330
1F
100
AcDbEntity
  8
0
  6
Continuous
 62
     7
370
    25
100
AcDbLine
 10
354.1766699714
 20
337.5280015298
 30
0.0
 11
347.0426119671
 21
336.525375063
 31
0.0
  0
LINE
  5
169
330
1F
100
AcDbEntity
  8
0
  6
Continuous
 62
     7
370
    25
100
AcDbLine
 10
347.0426119671
 20
336.525375063
 30
0.0
 11
346.5662711906
 21
339.9147158019
 31
0.0
  0
LINE
  5
16A
330
1F
100
AcDbEntity
  8
0
  6
Continuous
 62
     7
370
    25
100
AcDbLine
 10
337.0679535494
 20
338.5798143124
 30
0.0
 11
346.5662711906
 21
339.9147158019
 31
0.0
  0
LINE
  5
16B
330
1F
100
AcDbEntity
  8
0
  6
Continuous
 62
     7
370
    25
100
AcDbLine
 10
337.0679535494
 20
338.5798143124
 30
0.0
 11
337.5442943259
 21
335.1904735735
 31
0.0
  0
LINE
  5
16C
330
1F
100
AcDbEntity
  8
0
  6
Continuous
 62
     7
370
    25
100
AcDbLine
 10
337.5442943259
 20
335.1904735735
 30
0.0
 11
330.4102363216
 21
334.1878471067
 31
0.0
  0
LINE
  5
16D
330
1F
100
AcDbEntity
  8
0
  6
Continuous
 62
     7
370
    25
100
AcDbLine
 10
342.3738047738
 20
335.2861927822
 30
0.0
 11
331.4808560177
 21
333.7552886716
 31
0.0
  0
SPLINE
  5
16E
330
1F
100
AcDbEntity
  8
0
  6
Continuous
 62
     7
370
    25
100
AcDbSpline
210
0.0
220
0.0
230
1.0
 70
     8
 71
     3
 72
     8
 73
     4
 74
     0
 42
0.00000001
 43
0.00000001
 40
0.0
 40
0.0
 40
0.0
 40
0.0
 40
1.0
 40
1.0
 40
1.0
 40
1.0
 10
337.5442943259045
 20
335.1904735734697
 30
0.0
 10
339.1604600374826
 20
335.0492762916886
 30
0.0
 10
340.7710370088712
 20
335.0609384626748
 30
0.0
 10
342.3738047738087
 20
335.2861927821932
 30
0.0
  0
SPLINE
  5
16F
330
1F
100
AcDbEntity
  8
0
  6
Continuous
 62
     7
370
    25
100
AcDbSpline
210
0.0
220
0.0
230
1.0
 70
     8
 71
     3
 72
    10
 73
     6
 74
     0
 42
0.00000001
 43
0.00000001
 40
0.0
 40
0.0
 40
0.0
 40
0.0
 40
0.5
 40
0.5
 40
1.0
 40
1.0
 40
1.0
 40
1.0
 10
342.3738047738087
 20
335.2861927821932
 30
0.0
 10
343.1733223085321
 20
335.3985576438824
 30
0.0
 10
343.9748379392598
 20
335.5646874561621
 30
0.0
 10
345.5330196875014
 20
335.9846821294408
 30
0.0
 10
346.2945412240078
 20
336.2383224311995
 30
0.0
 10
347.0426119671058
 20
336.5253750630321
 30
0.0
  0
LINE
  5
170
330
1F
100
AcDbEntity
  8
0
  6
Continuous
 62
     7
370
    25
100
AcDbLine
 10
353.26675353
 20
336.8170968928
 30
0.0
 11
342.3738047738
 21
335.2861927822
 31
0.0
  0
SPLINE
  5
171
330
1F
100
AcDbEntity
  8
0
  6
Continuous
 62
     7
370
    25
100
AcDbSpline
210
0.0
220
0.0
230
1.0
 70
     8
 71
     3
 72
    14
 73
    10
 74
     0
 42
0.00000001
 43
0.00000001
 40
0.0
 40
0.0
 40
0.0
 40
0.0
 40
0.25
 40
0.25
 40
0.5
 40
0.5
 40
0.75
 40
0.75
 40
1.0
 40
1.0
 40
1.0
 40
1.0
 10
244.6529373143558
 20
279.1244598337519
 30
0.0
 10
244.652938088186
 20
278.6235623494254
 30
0.0
 10
244.6771406180553
 20
278.123030094563
 30
0.0
 10
244.7636520325909
 20
277.2017316630385
 30
0.0
 10
244.8255396299697
 20
276.7812484226766
 30
0.0
 10
244.963017689322
 20
276.0812697473705
 30
0.0
 10
245.0382129946671
 20
275.8017483803445
 30
0.0
 10
245.1775078981001
 20
275.4232554063607
 30
0.0
 10
245.2413519491559
 20
275.3244638322257
 30
0.0
 10
245.2920162092018
 20
275.3244618507948
 30
0.0
  0
ARC
  5
172
330
1F
100
AcDbEntity
  8
0
  6
Continuous
 62
     7
370
    25
100
AcDbCircle
 10
245.0925229898
 20
275.3239530999
 30
0.0
 40
0.1994939163548367
100
AcDbArc
 50
270.146285877
 51
0.145536984
  0
SPLINE
  5
173
330
1F
100
AcDbEntity
  8
0
  6
Continuous
 62
     7
370
    25
100
AcDbSpline
210
0.0
220
0.0
230
1.0
 70
    24
 71
     3
 72
    10
 73
     6
 74
     0
 42
0.00000001
 43
0.00000001
 40
0.0
 40
0.0
 40
0.0
 40
0.0
 40
0.5
 40
0.5
 40
1.0
 40
1.0
 40
1.0
 40
1.0
 10
244.4582133998973
 20
279.1244598338239
 30
0.0
 10
244.5013241418957
 20
279.1244598338203
 30
0.0
 10
244.5486677686154
 20
279.1244598338105
 30
0.0
 10
244.6206031964066
 20
279.1244598337833
 30
0.0
 10
244.6438592264999
 20
279.1244598337665
 30
0.0
 10
244.6529373143558
 20
279.1244598337519
 30
0.0
  0
SPLINE
  5
174
330
1F
100
AcDbEntity
  8
0
  6
Continuous
 62
     7
370
    25
100
AcDbSpline
210
0.0
220
0.0
230
1.0
 70
     8
 71
     3
 72
    14
 73
    10
 74
     0
 42
0.00000001
 43
0.00000001
 40
0.0
 40
0.0
 40
0.0
 40
0.0
 40
0.25
 40
0.25
 40
0.5
 40
0.5
 40
0.75
 40
0.75
 40
1.0
 40
1.0
 40
1.0
 40
1.0
 10
245.2920162024909
 20
295.4244577812949
 30
0.0
 10
245.2413516484718
 20
295.4244559082502
 30
0.0
 10
245.1775079265631
 20
295.3256643867757
 30
0.0
 10
245.0382130490807
 20
294.9471713715346
 30
0.0
 10
244.9630171220851
 20
294.6676477291738
 30
0.0
 10
244.8255386279201
 20
293.9676654380827
 30
0.0
 10
244.7636513108384
 20
293.5471816404922
 30
0.0
 10
244.6771404835265
 20
292.6258867232049
 30
0.0
 10
244.6529381278952
 20
292.1253543119873
 30
0.0
 10
244.6529373110208
 20
291.6244598338869
 30
0.0
  0
LINE
  5
175
330
1F
100
AcDbEntity
  8
0
  6
Continuous
 62
     7
370
    25
100
AcDbLine
 10
244.6529369767
 20
291.6244598338
 30
0.0
 11
244.4582133999
 21
291.6244598338
 31
0.0
  0
SPLINE
  5
176
330
1F
100
AcDbEntity
  8
0
  6
Continuous
 62
     7
370
    25
100
AcDbSpline
210
0.0
220
0.0
230
1.0
 70
     8
 71
     3
 72
    10
 73
     6
 74
     0
 42
0.00000001
 43
0.00000001
 40
0.0
 40
0.0
 40
0.0
 40
0.0
 40
0.5
 40
0.5
 40
1.0
 40
1.0
 40
1.0
 40
1.0
 10
245.0930323114289
 20
295.6244596253449
 30
0.0
 10
245.1399335774879
 20
295.6244596112339
 30
0.0
 10
245.1948818725924
 20
295.604933089238
 30
0.0
 10
245.2725899988103
 20
295.5268273044493
 30
0.0
 10
245.2920166367169
 20
295.471598353321
 30
0.0
 10
245.2920162024909
 20
295.4244577812949
 30
0.0
  0
LINE
  5
177
330
1F
100
AcDbEntity
  8
0
  6
Continuous
 62
     7
370
    25
100
AcDbLine
 10
244.4582133999
 20
291.6244598338
 30
0.0
 11
244.4582133999
 21
279.1244598338
 31
0.0
  0
LINE
  5
178
330
1F
100
AcDbEntity
  8
0
  6
Continuous
 62
     7
370
    25
100
AcDbLine
 10
244.6529369765
 20
291.6244598338
 30
0.0
 11
244.6529369767
 21
279.1244598338
 31
0.0
  0
LINE
  5
179
330
1F
100
AcDbEntity
  8
0
  6
Continuous
 62
     7
370
    25
100
AcDbLine
 10
200.5460157946
 20
375.2318207431
 30
0.0
 11
200.5460157946
 21
382.0170989245
 31
0.0
  0
LINE
  5
17A
330
1F
100
AcDbEntity
  8
0
  6
Continuous
 62
     7
370
    25
100
AcDbLine
 10
200.3460157946
 20
374.6244598338
 30
0.0
 11
200.3460157946
 21
382.6244598338
 31
0.0
  0
LINE
  5
17B
330
1F
100
AcDbEntity
  8
0
  6
Continuous
 62
     8
370
    25
100
AcDbLine
 10
200.4460157946
 20
384.0244598338
 30
0.0
 11
245.4460157946
 21
384.0244598338
 31
0.0
  0
LINE
  5
17C
330
1F
100
AcDbEntity
  8
0
  6
Continuous
 62
     8
370
    25
100
AcDbLine
 10
245.4460157946
 20
393.6244598338
 30
0.0
 11
200.4460157946
 21
393.6244598338
 31
0.0
  0
SPLINE
  5
17D
330
1F
100
AcDbEntity
  8
0
  6
Continuous
 62
     8
370
    25
100
AcDbSpline
210
0.0
220
0.0
230
1.0
 70
     8
 71
     3
 72
     9
 73
     5
 74
     0
 42
0.00000001
 43
0.00000001
 40
0.0
 40
0.0
 40
0.0
 40
0.0
 40
0.5520599784637967
 40
0.9999999999999999
 40
0.9999999999999999
 40
0.9999999999999999
 40
0.9999999999999999
 10
243.7667787924653
 20
358.7422078867781
 30
0.0
 10
244.6330828670364
 20
358.80284064349
 30
0.0
 10
246.2023038002071
 20
358.9126706602945
 30
0.0
 10
247.1934503200006
 20
358.9942078860439
 30
0.0
 10
247.6374245134224
 20
359.0307316727021
 30
0.0
  0
LINE
  5
17E
330
1F
100
AcDbEntity
  8
0
  6
Continuous
 62
     8
370
    25
100
AcDbLine
 10
355.8415969121
 20
342.0320408344
 30
0.0
 11
355.841603054
 21
342.0320322072
 31
0.0
  0
SPLINE
  5
17F
330
1F
100
AcDbEntity
  8
0
  6
Continuous
 62
     8
370
    25
100
AcDbSpline
210
0.0
220
0.0
230
1.0
 70
     8
 71
     3
 72
    22
 73
    18
 74
     0
 42
0.00000001
 43
0.00000001
 40
0.0
 40
0.0
 40
0.0
 40
0.0
 40
0.0003427292646008
 40
0.0316898198136686
 40
0.0485800238344535
 40
0.0666498733101727
 40
0.0868966978436956
 40
0.108927608051837
 40
0.1329028584083814
 40
0.2271525242754771
 40
0.3258595825616253
 40
0.4253870553724954
 40
0.5260311172961174
 40
0.6430389485554604
 40
0.7636420783699428
 40
0.8822303661206823
 40
1.0
 40
1.0
 40
1.0
 40
1.0
 10
333.3983093494483
 20
358.5493391405321
 30
0.0
 10
333.397873412826
 20
358.5493464945392
 30
0.0
 10
333.3575653491732
 20
358.5500264690388
 30
0.0
 10
333.4761345602674
 20
358.5480383039281
 30
0.0
 10
333.6657652600355
 20
358.5448031480362
 30
0.0
 10
333.8862616006068
 20
358.5410092671918
 30
0.0
 10
334.1691487173886
 20
358.5360937728199
 30
0.0
 10
334.5207250438337
 20
358.5299207459487
 30
0.0
 10
335.3315129034931
 20
358.5155313694197
 30
0.0
 10
336.7673551826223
 20
358.4894080355044
 30
0.0
 10
338.8368538720467
 20
358.4502821098601
 30
0.0
 10
341.0283519468534
 20
358.4071987695376
 30
0.0
 10
343.398794790807
 20
358.3592067240539
 30
0.0
 10
345.9597414405113
 20
358.3036182497962
 30
0.0
 10
348.6789018274862
 20
358.2465509041742
 30
0.0
 10
351.4178396292435
 20
358.1714334217013
 30
0.0
 10
353.232531018192
 20
358.0393857747511
 30
0.0
 10
354.1367340125597
 20
357.9735906326687
 30
0.0
  0
SPLINE
  5
180
330
1F
100
AcDbEntity
  8
0
  6
Continuous
 62
     8
370
    25
100
AcDbSpline
210
0.0
220
0.0
230
1.0
 70
     8
 71
     3
 72
    11
 73
     7
 74
     0
 42
0.00000001
 43
0.00000001
 40
0.0
 40
0.0
 40
0.0
 40
0.0
 40
0.2517980723743906
 40
0.5333259706300987
 40
0.7696048977551503
 40
1.0
 40
1.0
 40
1.0
 40
1.0
 10
354.68742636792
 20
357.9975326257987
 30
0.0
 10
354.686053999438
 20
357.9976375990843
 30
0.0
 10
354.6831472267777
 20
357.9978599398628
 30
0.0
 10
354.6988274958425
 20
357.993076471235
 30
0.0
 10
354.626915105108
 20
357.9850967795478
 30
0.0
 10
354.2986560260333
 20
357.9773965189706
 30
0.0
 10
354.1365958312796
 20
357.9735949311141
 30
0.0
  0
SPLINE
  5
181
330
1F
100
AcDbEntity
  8
0
  6
Continuous
 62
     8
370
    25
100
AcDbSpline
210
0.0
220
0.0
230
1.0
 70
     8
 71
     3
 72
    13
 73
     9
 74
     0
 42
0.00000001
 43
0.00000001
 40
0.0
 40
0.0
 40
0.0
 40
0.0
 40
0.0557834615056584
 40
0.1774341341382407
 40
0.2733304246778332
 40
0.4679150962563102
 40
0.6400673069213776
 40
1.0
 40
1.0
 40
1.0
 40
1.0
 10
244.8050917563441
 20
275.7945379425381
 30
0.0
 10
244.795116559212
 20
275.8336583548864
 30
0.0
 10
244.7633877919714
 20
275.9580912298783
 30
0.0
 10
244.7148922634215
 20
276.1939332853553
 30
0.0
 10
244.6449251778347
 20
276.5808535743952
 30
0.0
 10
244.5753165533937
 20
277.0769864531711
 30
0.0
 10
244.4850935691431
 20
277.9413892371292
 30
0.0
 10
244.4690596564327
 20
278.6470860830155
 30
0.0
 10
244.4582133998638
 20
279.1244598338019
 30
0.0
  0
SPLINE
  5
182
330
1F
100
AcDbEntity
  8
0
  6
Continuous
 62
     8
370
    25
100
AcDbSpline
210
0.0
220
0.0
230
1.0
 70
     8
 71
     3
 72
    14
 73
    10
 74
     0
 42
0.00000001
 43
0.00000001
 40
0.0
 40
0.0
 40
0.0
 40
0.0
 40
0.1963303321977156
 40
0.4003419278700457
 40
0.591362050539857
 40
0.8071628738611599
 40
0.8753579071307995
 40
0.9561814907470045
 40
0.9999999999999999
 40
0.9999999999999999
 40
0.9999999999999999
 40
0.9999999999999999
 10
244.4582133998638
 20
291.6244598337959
 30
0.0
 10
244.4609202448362
 20
291.8573567524949
 30
0.0
 10
244.4664398378737
 20
292.3322624911206
 30
0.0
 10
244.5085111962056
 20
293.0112339354357
 30
0.0
 10
244.5739856948572
 20
293.6658677163165
 30
0.0
 10
244.6387336969882
 20
294.1243840616149
 30
0.0
 10
244.6936123114345
 20
294.4384313687841
 30
0.0
 10
244.7235579715596
 20
294.5967389705781
 30
0.0
 10
244.7434802116013
 20
294.6876883952541
 30
0.0
 10
244.7504839680331
 20
294.7196620898141
 30
0.0
  0
LINE
  5
183
330
1F
100
AcDbEntity
  8
0
  6
Continuous
 62
     8
370
    25
100
AcDbLine
 10
244.2994587215
 20
291.6244598338
 30
0.0
 11
244.4582133999
 21
291.6244598338
 31
0.0
  0
LINE
  5
184
330
1F
100
AcDbEntity
  8
0
  6
Continuous
 62
     8
370
    25
100
AcDbLine
 10
244.4582133999
 20
279.1244598338
 30
0.0
 11
244.2964256267
 21
279.1244598338
 31
0.0
  0
LINE
  5
185
330
1F
100
AcDbEntity
  8
0
  6
Continuous
 62
     8
370
    25
100
AcDbLine
 10
245.2920162626
 20
295.4244598338
 30
0.0
 11
245.444423575
 21
295.4244598338
 31
0.0
  0
LINE
  5
186
330
1F
100
AcDbEntity
  8
0
  6
Continuous
 62
     8
370
    25
100
AcDbLine
 10
245.2920162626
 20
275.3244598338
 30
0.0
 11
245.444423575
 21
275.3244598338
 31
0.0
  0
LINE
  5
187
330
1F
100
AcDbEntity
  8
0
  6
Continuous
 62
     7
370
    25
100
AcDbLine
 10
114.7995244769
 20
233.4266356567
 30
0.0
 11
114.7995244769
 21
233.2266356567
 31
0.0
  0
LINE
  5
188
330
1F
100
AcDbEntity
  8
0
  6
Continuous
 62
     7
370
    25
100
AcDbLine
 10
122.7995244769
 20
233.2266356567
 30
0.0
 11
122.7995244769
 21
233.4266356567
 31
0.0
  0
LINE
  5
189
330
1F
100
AcDbEntity
  8
0
  6
Continuous
 62
     7
370
    25
100
AcDbLine
 10
122.5797016714
 20
233.0068128512
 30
0.0
 11
122.7995244769
 21
233.2266356567
 31
0.0
  0
LINE
  5
18A
330
1F
100
AcDbEntity
  8
0
  6
Continuous
 62
     7
370
    25
100
AcDbLine
 10
114.7995244769
 20
233.2266356567
 30
0.0
 11
115.0193472824
 21
233.0068128512
 31
0.0
  0
SPLINE
  5
18B
330
1F
100
AcDbEntity
  8
0
  6
Continuous
 62
     7
370
    25
100
AcDbSpline
210
0.0
220
0.0
230
1.0
 70
     8
 71
     3
 72
    13
 73
     9
 74
     0
 42
0.00000001
 43
0.00000001
 40
0.0
 40
0.0
 40
0.0
 40
0.0
 40
0.1615080474755751
 40
0.3300229281654156
 40
0.4904003957242572
 40
0.6486816927877915
 40
0.8108595002715778
 40
1.0
 40
1.0
 40
1.0
 40
1.0
 10
99.96615707591106
 20
198.0840064420049
 30
0.0
 10
99.9583329338047
 20
198.087187922299
 30
0.0
 10
99.94234520855704
 20
198.0936889075995
 30
0.0
 10
99.95199384464264
 20
198.0338913474758
 30
0.0
 10
99.97407661399535
 20
197.9466868906345
 30
0.0
 10
100.0129189234276
 20
197.8209552368429
 30
0.0
 10
100.0654134853381
 20
197.6641204809886
 30
0.0
 10
100.1098665912752
 20
197.5218323892635
 30
0.0
 10
100.1337989696876
 20
197.4452282379233
 30
0.0
  0
SPLINE
  5
18C
330
1F
100
AcDbEntity
  8
0
  6
Continuous
 62
     7
370
    25
100
AcDbSpline
210
0.0
220
0.0
230
1.0
 70
     8
 71
     3
 72
    13
 73
     9
 74
     0
 42
0.00000001
 43
0.00000001
 40
0.0
 40
0.0
 40
0.0
 40
0.0
 40
0.1033187820816387
 40
0.2819656442322108
 40
0.4561784142967182
 40
0.6325442993348832
 40
0.8178914182163752
 40
1.0
 40
1.0
 40
1.0
 40
1.0
 10
137.5160005254935
 20
197.6043528227818
 30
0.0
 10
137.5294315293514
 20
197.6451138144003
 30
0.0
 10
137.5660858682739
 20
197.7563539880618
 30
0.0
 10
137.6154010199798
 20
197.9018980803171
 30
0.0
 10
137.6618185941105
 20
198.0468240738262
 30
0.0
 10
137.6889869598808
 20
198.1479378421666
 30
0.0
 10
137.7019057170063
 20
198.2180277996478
 30
0.0
 10
137.6840643844162
 20
198.2105088983386
 30
0.0
 10
137.675222339595
 20
198.2067825812573
 30
0.0
  0
SPLINE
  5
18D
330
1F
100
AcDbEntity
  8
0
  6
Continuous
 62
     7
370
    25
100
AcDbSpline
210
0.0
220
0.0
230
1.0
 70
     8
 71
     3
 72
    11
 73
     7
 74
     0
 42
0.00000001
 43
0.00000001
 40
0.0
 40
0.0
 40
0.0
 40
0.0
 40
0.2491612707262912
 40
0.500000005210575
 40
0.7508387372239913
 40
1.0
 40
1.0
 40
1.0
 40
1.0
 10
136.6514544952622
 20
191.6792158921529
 30
0.0
 10
136.6839262223627
 20
192.4484669919187
 30
0.0
 10
136.749088290577
 20
193.9921481297215
 30
0.0
 10
137.1894423421804
 20
196.2740938434706
 30
0.0
 10
137.8552437324403
 20
198.5007255672493
 30
0.0
 10
138.5119417731564
 20
199.8992717542694
 30
0.0
 10
138.8391892027414
 20
200.5961988295493
 30
0.0
  0
LINE
  5
18E
330
1F
100
AcDbEntity
  8
0
  6
Continuous
 62
     7
370
    25
100
AcDbLine
 10
138.7537429757
 20
200.4271044976
 30
0.0
 11
138.1848019961
 21
199.2855982187
 31
0.0
  0
LINE
  5
18F
330
1F
100
AcDbEntity
  8
0
  6
Continuous
 62
     7
370
    25
100
AcDbLine
 10
138.7982057715
 20
200.5163133302
 30
0.0
 11
138.7537429757
 21
200.4271044976
 31
0.0
  0
LINE
  5
190
330
1F
100
AcDbEntity
  8
0
  6
Continuous
 62
     7
370
    25
100
AcDbLine
 10
99.4103124594
 20
199.2921259731
 30
0.0
 11
98.8431618799
 21
200.4311855903
 31
0.0
  0
SPLINE
  5
191
330
1F
100
AcDbEntity
  8
0
  6
Continuous
 62
     7
370
    25
100
AcDbSpline
210
0.0
220
0.0
230
1.0
 70
     8
 71
     3
 72
    11
 73
     7
 74
     0
 42
0.00000001
 43
0.00000001
 40
0.0
 40
0.0
 40
0.0
 40
0.0
 40
0.2491612629259489
 40
0.4999999947882608
 40
0.7508387291228716
 40
1.0
 40
1.0
 40
1.0
 40
1.0
 10
98.75985969345788
 20
200.5961989422768
 30
0.0
 10
99.08710713010491
 20
199.8992718459477
 30
0.0
 10
99.74380518459584
 20
198.5007256175323
 30
0.0
 10
100.4096065909206
 20
196.274093862235
 30
0.0
 10
100.849960654353
 20
193.992148131096
 30
0.0
 10
100.9151227265502
 20
192.4484669926853
 30
0.0
 10
100.947594455655
 20
191.6792158921527
 30
0.0
  0
SPLINE
  5
192
330
1F
100
AcDbEntity
  8
0
  6
Continuous
 62
     7
370
    25
100
AcDbSpline
210
0.0
220
0.0
230
1.0
 70
     8
 71
     3
 72
    36
 73
    32
 74
     0
 42
0.00000001
 43
0.00000001
 40
0.0
 40
0.0
 40
0.0
 40
0.0
 40
0.0244225534468076
 40
0.0459146474952151
 40
0.0646272402693892
 40
0.0801846960986987
 40
0.0931641129508184
 40
0.1031629101412442
 40
0.1203890586951271
 40
0.1294615895471163
 40
0.1387578736697522
 40
0.1471957176121129
 40
0.1544188386288951
 40
0.1701967123954041
 40
0.1851417532640742
 40
0.1997956367360234
 40
0.2152667106710315
 40
0.2364815293493127
 40
0.2633082469748795
 40
0.2957186686862427
 40
0.3343327445675403
 40
0.3785928921135352
 40
0.428556323529804
 40
0.4842556620625986
 40
0.5456606305242439
 40
0.6127655157818713
 40
0.6812659609515157
 40
0.7548391288750543
 40
0.8334841095908939
 40
0.9172002742981399
 40
1.0
 40
1.0
 40
1.0
 40
1.0
 10
118.8016952029028
 20
77.74426771887494
 30
0.0
 10
119.8418291062999
 20
77.74591072227454
 30
0.0
 10
121.7972913648354
 20
77.74899958528358
 30
0.0
 10
124.5501065876186
 20
77.74591345120821
 30
0.0
 10
126.9234068576678
 20
77.76772883892077
 30
0.0
 10
128.9390795324151
 20
77.6880522102682
 30
0.0
 10
130.5680759704903
 20
77.99649357649236
 30
0.0
 10
132.1470750627294
 20
78.67159197992842
 30
0.0
 10
133.4086067967298
 20
79.59954793932808
 30
0.0
 10
134.3840798668414
 20
80.75222922312128
 30
0.0
 10
134.9630913618493
 20
81.72804842568985
 30
0.0
 10
135.3578164080528
 20
82.70745212824545
 30
0.0
 10
135.6850167625158
 20
84.00180338988581
 30
0.0
 10
135.6940960021489
 20
85.6261195179972
 30
0.0
 10
135.7146937618887
 20
87.55226141848156
 30
0.0
 10
135.7376754892541
 20
89.4724466303017
 30
0.0
 10
135.7545446998113
 20
91.65879838831367
 30
0.0
 10
135.7766110134088
 20
94.36389514452195
 30
0.0
 10
135.8056805453236
 20
97.79031211863585
 30
0.0
 10
135.8419749636427
 20
101.9578003591023
 30
0.0
 10
135.8844745702251
 20
106.8677635716923
 30
0.0
 10
135.9334440163343
 20
112.5253140022138
 30
0.0
 10
135.9893456108208
 20
118.9105176187048
 30
0.0
 10
136.0525708028289
 20
126.0259099915169
 30
0.0
 10
136.1228501302056
 20
133.8713492739503
 30
0.0
 10
136.1986073997809
 20
142.261980278573
 30
0.0
 10
136.2796765738374
 20
151.170846786045
 30
0.0
 10
136.3656860981679
 20
160.5711991377527
 30
0.0
 10
136.4579571115836
 20
170.6195822795955
 30
0.0
 10
136.5540105964676
 20
181.0609205683574
 30
0.0
 10
136.6190850062428
 20
188.152790903647
 30
0.0
 10
136.6514431389492
 20
191.6792106166994
 30
0.0
  0
SPLINE
  5
193
330
1F
100
AcDbEntity
  8
0
  6
Continuous
 62
     7
370
    25
100
AcDbSpline
210
0.0
220
0.0
230
1.0
 70
     8
 71
     3
 72
    39
 73
    35
 74
     0
 42
0.00000001
 43
0.00000001
 40
0.0
 40
0.0
 40
0.0
 40
0.0
 40
0.0815570889805646
 40
0.1639821848500408
 40
0.2412878035595592
 40
0.3134731559659885
 40
0.3805376740645577
 40
0.4424776346033051
 40
0.4961902809395663
 40
0.545357217701416
 40
0.5899594457267021
 40
0.6299875041382309
 40
0.6654746245199913
 40
0.694919369723242
 40
0.7203180250997512
 40
0.7429415685573005
 40
0.7642426708242355
 40
0.7841905582705048
 40
0.8028514481370037
 40
0.816105263805798
 40
0.8296512031968394
 40
0.8373766095502737
 40
0.8457416374285955
 40
0.8546738089745254
 40
0.8631571197538669
 40
0.8709045446213161
 40
0.8782208349768892
 40
0.8886061582339986
 40
0.9030789258007611
 40
0.9175996688129746
 40
0.9342936957751462
 40
0.9537472818030107
 40
0.9755973563117031
 40
1.0
 40
1.0
 40
1.0
 40
1.0
 10
100.947605688139
 20
191.6792105994097
 30
0.0
 10
100.9794772158029
 20
188.2057603145059
 30
0.0
 10
101.0435594777638
 20
181.2218920351677
 30
0.0
 10
101.1380930433019
 20
170.94564235371
 30
0.0
 10
101.2288001588677
 20
161.0685258226074
 30
0.0
 10
101.3132093696012
 20
151.8456011339925
 30
0.0
 10
101.3912215372187
 20
143.2770837837509
 30
0.0
 10
101.4615689747803
 20
135.4952999631657
 30
0.0
 10
101.5245580411629
 20
128.4757563526525
 30
0.0
 10
101.5805738385619
 20
122.1946109651483
 30
0.0
 10
101.6309091739743
 20
116.496278144419
 30
0.0
 10
101.6755070418826
 20
111.3805542273777
 30
0.0
 10
101.7142099801176
 20
106.9103755308496
 30
0.0
 10
101.7474958710657
 20
103.0632539925016
 30
0.0
 10
101.7761950934806
 20
99.76398550190909
 30
0.0
 10
101.8017130472895
 20
96.81154873519203
 30
0.0
 10
101.8246617450904
 20
94.09125440399643
 30
0.0
 10
101.8454565975657
 20
91.53978146565743
 30
0.0
 10
101.8624656009093
 20
89.33097561474406
 30
0.0
 10
101.8861619349193
 20
87.39522455951459
 30
0.0
 10
101.9035747037276
 20
85.92445214130593
 30
0.0
 10
101.9063359625045
 20
84.66692015885468
 30
0.0
 10
102.0012266702318
 20
83.608445927786
 30
0.0
 10
102.2884894680498
 20
82.55386676661908
 30
0.0
 10
102.7171007829983
 20
81.5785921201061
 30
0.0
 10
103.243324613977
 20
80.73070621458689
 30
0.0
 10
103.9321696066016
 20
79.90038696638061
 30
0.0
 10
104.9669242781523
 20
78.99439710837622
 30
0.0
 10
106.4463914372923
 20
78.17293857780972
 30
0.0
 10
108.3568341141752
 20
77.68624616464504
 30
0.0
 10
110.5238122953039
 20
77.76660872081031
 30
0.0
 10
112.9898839572894
 20
77.7465408879983
 30
0.0
 10
115.7887725058751
 20
77.74881301139386
 30
0.0
 10
117.7582629561862
 20
77.74583755237147
 30
0.0
 10
118.7973537508452
 20
77.74426771887488
 30
0.0
  0
SPLINE
  5
194
330
1F
100
AcDbEntity
  8
0
  6
Continuous
 62
     7
370
    25
100
AcDbSpline
210
0.0
220
0.0
230
1.0
 70
     8
 71
     3
 72
    13
 73
     9
 74
     0
 42
0.00000001
 43
0.00000001
 40
0.0
 40
0.0
 40
0.0
 40
0.0
 40
0.099064832352427
 40
0.2071440724502379
 40
0.3166795154281111
 40
0.5563120840341762
 40
0.8462919853205464
 40
1.0
 40
1.0
 40
1.0
 40
1.0
 10
99.585986931843
 20
199.036169084367
 30
0.0
 10
99.58106281236557
 20
199.0405716449432
 30
0.0
 10
99.57076650299359
 20
199.0497773772432
 30
0.0
 10
99.59340217537839
 20
198.9813027794251
 30
0.0
 10
99.64407406283873
 20
198.8392269859352
 30
0.0
 10
99.76371929143659
 20
198.5196521315897
 30
0.0
 10
99.91817071959751
 20
198.1061358700561
 30
0.0
 10
100.0161555302205
 20
197.8111066246654
 30
0.0
 10
100.0501006753724
 20
197.7088988386304
 30
0.0
  0
SPLINE
  5
195
330
1F
100
AcDbEntity
  8
0
  6
Continuous
 62
     7
370
    25
100
AcDbSpline
210
0.0
220
0.0
230
1.0
 70
     8
 71
     3
 72
    12
 73
     8
 74
     0
 42
0.00000001
 43
0.00000001
 40
0.0
 40
0.0
 40
0.0
 40
0.0
 40
0.0403446346701768
 40
0.3596123767959111
 40
0.6186138030592099
 40
0.8416194713970031
 40
1.0
 40
1.0
 40
1.0
 40
1.0
 10
137.6312509201144
 20
197.9533782939569
 30
0.0
 10
137.639289095798
 20
197.9773253953565
 30
0.0
 10
137.7109374695242
 20
198.1907781660178
 30
0.0
 10
137.8395609124767
 20
198.5283629221382
 30
0.0
 10
137.9801556514567
 20
198.9011631761939
 30
0.0
 10
138.0580598160645
 20
199.1035291599539
 30
0.0
 10
138.0527351882335
 20
199.1097238817348
 30
0.0
 10
138.0505239981662
 20
199.1122964009242
 30
0.0
  0
LINE
  5
196
330
1F
100
AcDbEntity
  8
0
  6
Continuous
 62
     7
370
    25
100
AcDbLine
 10
159.4995244769
 20
218.3266356567
 30
0.0
 11
142.9995244769
 21
218.3266356567
 31
0.0
  0
LINE
  5
197
330
1F
100
AcDbEntity
  8
0
  6
Continuous
 62
     7
370
    25
100
AcDbLine
 10
142.9995244769
 20
203.3266356567
 30
0.0
 11
159.4995244769
 21
203.3266356567
 31
0.0
  0
ARC
  5
198
330
1F
100
AcDbEntity
  8
0
  6
Continuous
 62
     7
370
    25
100
AcDbCircle
 10
159.4995244769
 20
217.8266356567
 30
0.0
 40
0.5
100
AcDbArc
 50
0.0
 51
90.0
  0
ARC
  5
199
330
1F
100
AcDbEntity
  8
0
  6
Continuous
 62
     7
370
    25
100
AcDbCircle
 10
159.4995244769
 20
203.8266356567
 30
0.0
 40
0.5
100
AcDbArc
 50
270.0
 51
0.0
  0
ARC
  5
19A
330
1F
100
AcDbEntity
  8
0
  6
Continuous
 62
     7
370
    25
100
AcDbCircle
 10
142.9995244769
 20
203.8266356567
 30
0.0
 40
0.5
100
AcDbArc
 50
180.0
 51
270.0
  0
ARC
  5
19B
330
1F
100
AcDbEntity
  8
0
  6
Continuous
 62
     7
370
    25
100
AcDbCircle
 10
142.9995244769
 20
217.8266356567
 30
0.0
 40
0.5
100
AcDbArc
 50
90.0
 51
180.0
  0
LINE
  5
19C
330
1F
100
AcDbEntity
  8
0
  6
Continuous
 62
     7
370
    25
100
AcDbLine
 10
140.7637002082
 20
205.8766356567
 30
0.0
 11
142.4995244769
 21
205.8766356567
 31
0.0
  0
LINE
  5
19D
330
1F
100
AcDbEntity
  8
0
  6
Continuous
 62
     7
370
    25
100
AcDbLine
 10
142.4995244769
 20
215.7766356567
 30
0.0
 11
140.7532294819
 21
215.7766356567
 31
0.0
  0
ARC
  5
19E
330
1F
100
AcDbEntity
  8
0
  6
Continuous
 62
     7
370
    25
100
AcDbCircle
 10
159.9995244769
 20
213.1266356567
 30
0.0
 40
0.6999999999999886
100
AcDbArc
 50
0.0
 51
90.0
  0
ARC
  5
19F
330
1F
100
AcDbEntity
  8
0
  6
Continuous
 62
     7
370
    25
100
AcDbCircle
 10
160.0995244769
 20
208.4266356567
 30
0.0
 40
0.6000000000000227
100
AcDbArc
 50
270.0
 51
0.0
  0
LINE
  5
1A0
330
1F
100
AcDbEntity
  8
0
  6
Continuous
 62
     7
370
    25
100
AcDbLine
 10
159.9995244769
 20
207.8266356567
 30
0.0
 11
160.0995244769
 21
207.8266356567
 31
0.0
  0
CIRCLE
  5
1A1
330
1F
100
AcDbEntity
  8
0
  6
Continuous
 62
     7
370
    25
100
AcDbCircle
 10
118.7995244769
 20
210.8266356567
 30
0.0
 40
22.30000000000001
  0
CIRCLE
  5
1A2
330
1F
100
AcDbEntity
  8
0
  6
Continuous
 62
     7
370
    25
100
AcDbCircle
 10
118.7995244769
 20
210.8266356567
 30
0.0
 40
22.49999999999997
  0
LINE
  5
1A3
330
1F
100
AcDbEntity
  8
0
  6
Continuous
 62
     7
370
    25
100
AcDbLine
 10
118.7995244769
 20
233.4266356567
 30
0.0
 11
122.7995244769
 21
233.4266356567
 31
0.0
  0
LINE
  5
1A4
330
1F
100
AcDbEntity
  8
0
  6
Continuous
 62
     7
370
    25
100
AcDbLine
 10
114.7995244769
 20
233.4266356567
 30
0.0
 11
118.7995244769
 21
233.4266356567
 31
0.0
  0
LINE
  5
1A5
330
1F
100
AcDbEntity
  8
0
  6
Continuous
 62
     7
370
    25
100
AcDbLine
 10
120.9184864869
 20
233.2266356567
 30
0.0
 11
122.7995244769
 21
233.2266356567
 31
0.0
  0
LINE
  5
1A6
330
1F
100
AcDbEntity
  8
0
  6
Continuous
 62
     7
370
    25
100
AcDbLine
 10
114.7995244769
 20
233.2266356567
 30
0.0
 11
116.6805624668
 21
233.2266356567
 31
0.0
  0
SPLINE
  5
1A7
330
1F
100
AcDbEntity
  8
0
  6
Continuous
 62
     7
370
    25
100
AcDbSpline
210
0.0
220
0.0
230
1.0
 70
     8
 71
     3
 72
    20
 73
    16
 74
     0
 42
0.00000001
 43
0.00000001
 40
0.0
 40
0.0
 40
0.0
 40
0.0
 40
0.0422377424056747
 40
0.0853343856079606
 40
0.1293696732847748
 40
0.1741862745781754
 40
0.2194173913593153
 40
0.264662472652533
 40
0.3095906625455761
 40
0.3539301860209008
 40
0.3975359590368794
 40
0.6574422707714758
 40
0.8940247255014339
 40
0.9476816534536909
 40
1.0
 40
1.0
 40
1.0
 40
1.0
 10
136.5074347397501
 20
191.6792127059571
 30
0.0
 10
136.5089321745506
 20
191.8053735498624
 30
0.0
 10
136.5119574943571
 20
192.0602607073966
 30
0.0
 10
136.5266625832737
 20
192.4464379425924
 30
0.0
 10
136.5497262024755
 20
192.8398704744054
 30
0.0
 10
136.5812763205467
 20
193.2390895704607
 30
0.0
 10
136.6220292334234
 20
193.6410979198392
 30
0.0
 10
136.6716216536265
 20
194.0424206962571
 30
0.0
 10
136.7292088439988
 20
194.4399633755638
 30
0.0
 10
136.7949416706017
 20
194.8312716795441
 30
0.0
 10
136.9885227930559
 20
195.8516900414284
 30
0.0
 10
137.4038042357408
 20
197.4146988646108
 30
0.0
 10
138.0148475704727
 20
198.9429254853873
 30
0.0
 10
138.4579521665225
 20
199.8645593807117
 30
0.0
 10
138.6043022382762
 20
200.1450221054011
 30
0.0
 10
138.6765529949486
 20
200.2834821952008
 30
0.0
  0
SPLINE
  5
1A8
330
1F
100
AcDbEntity
  8
0
  6
Continuous
 62
     7
370
    25
100
AcDbSpline
210
0.0
220
0.0
230
1.0
 70
     8
 71
     3
 72
    20
 73
    16
 74
     0
 42
0.00000001
 43
0.00000001
 40
0.0
 40
0.0
 40
0.0
 40
0.0
 40
0.0383840025439242
 40
0.0801401775095997
 40
0.125333310213866
 40
0.1758474426101634
 40
0.2505693349853372
 40
0.37471104171353
 40
0.4996720838170634
 40
0.6242401599295757
 40
0.7494555701351695
 40
0.8139126222989033
 40
0.8749354508892935
 40
0.9382913003314445
 40
1.0
 40
1.0
 40
1.0
 40
1.0
 10
134.6649677341674
 20
190.0059806406648
 30
0.0
 10
134.6983659550784
 20
190.0335006554462
 30
0.0
 10
134.7680965505067
 20
190.090958417104
 30
0.0
 10
134.8761320966742
 20
190.1812058758588
 30
0.0
 10
134.9935032253836
 20
190.2802220646026
 30
0.0
 10
135.1368107548214
 20
190.4031397650703
 30
0.0
 10
135.342390979615
 20
190.5816651998309
 30
0.0
 10
135.5978721882285
 20
190.8100662212227
 30
0.0
 10
135.8705788756271
 20
191.0613284401978
 30
0.0
 10
136.1139934795098
 20
191.2921732480355
 30
0.0
 10
136.2834376143344
 20
191.4570307431264
 30
0.0
 10
136.3887690199504
 20
191.5608291023582
 30
0.0
 10
136.4501692765525
 20
191.6219649411699
 30
0.0
 10
136.4927321676969
 20
191.6644307870333
 30
0.0
 10
136.5025470506601
 20
191.674329483362
 30
0.0
 10
136.5073898591887
 20
191.6792136466457
 30
0.0
  0
SPLINE
  5
1A9
330
1F
100
AcDbEntity
  8
0
  6
Continuous
 62
     7
370
    25
100
AcDbSpline
210
0.0
220
0.0
230
1.0
 70
     8
 71
     3
 72
    42
 73
    38
 74
     0
 42
0.00000001
 43
0.00000001
 40
0.0
 40
0.0
 40
0.0
 40
0.0
 40
0.0131423660258453
 40
0.0261895445771664
 40
0.0391211314528096
 40
0.0518685717918359
 40
0.0643499242804044
 40
0.0764955567209643
 40
0.1070884924078702
 40
0.133844700479746
 40
0.1509270817103371
 40
0.2256607466001206
 40
0.2443914538795876
 40
0.250644132274386
 40
0.3603730827515915
 40
0.4209148422833908
 40
0.4604956431814106
 40
0.4900669875961918
 40
0.4999152677536957
 40
0.500193950114908
 40
0.5010299950938585
 40
0.5043741684263588
 40
0.5928457776594379
 40
0.6218020637106974
 40
0.6314960542902203
 40
0.644455444979675
 40
0.7480819897970002
 40
0.7606511914997871
 40
0.7732140158319882
 40
0.8231548496737574
 40
0.8659399739607896
 40
0.8704602625768786
 40
0.8940851188699502
 40
0.918390185121189
 40
0.9443537546953111
 40
0.9718207046141679
 40
1.0
 40
1.0
 40
1.0
 40
1.0
 10
102.934227112288
 20
190.0058749976428
 30
0.0
 10
103.0509892506997
 20
189.9109724118772
 30
0.0
 10
103.283667843188
 20
189.7218546004034
 30
0.0
 10
103.6377255312944
 20
189.4474155050929
 30
0.0
 10
103.9925015238907
 20
189.1814608824174
 30
0.0
 10
104.3468916161406
 20
188.9258518444162
 30
0.0
 10
104.698247633419
 20
188.6815221829692
 30
0.0
 10
105.2233877204679
 20
188.3293365184817
 30
0.0
 10
105.8972543299216
 20
187.9056309337017
 30
0.0
 10
106.6362622393017
 20
187.4805488523538
 30
0.0
 10
107.8331039389877
 20
186.8391766365345
 30
0.0
 10
108.987275621399
 20
186.3115351548707
 30
0.0
 10
110.0545404623528
 20
185.9045020853475
 30
0.0
 10
111.505522128674
 20
185.3793947230059
 30
0.0
 10
113.465432663726
 20
184.8420967846839
 30
0.0
 10
115.8449991452196
 20
184.4815010825758
 30
0.0
 10
117.3270172223334
 20
184.3603158652356
 30
0.0
 10
118.2320517820456
 20
184.3297125892097
 30
0.0
 10
118.6869704317058
 20
184.3266183011846
 30
0.0
 10
118.8125996847481
 20
184.3266312997974
 30
0.0
 10
118.8636960543284
 20
184.3266754769001
 30
0.0
 10
119.925396780153
 20
184.3306105107211
 30
0.0
 10
121.3109726270534
 20
184.4232359921545
 30
0.0
 10
122.7518361415387
 20
184.6378224529613
 30
0.0
 10
123.334270848746
 20
184.7403031063721
 30
0.0
 10
124.7551388655455
 20
185.0130588711155
 30
0.0
 10
126.1879955619604
 20
185.4097245772812
 30
0.0
 10
127.5733661008749
 20
185.9155511345559
 30
0.0
 10
128.3760428486602
 20
186.2241611117656
 30
0.0
 10
129.4829291711044
 20
186.7054369647272
 30
0.0
 10
130.4744621619262
 20
187.2140026329543
 30
0.0
 10
131.1847468958017
 20
187.6080301710462
 30
0.0
 10
131.7043219596188
 20
187.9095798891168
 30
0.0
 10
132.4220503007928
 20
188.3579573360987
 30
0.0
 10
133.1599900044906
 20
188.8559047689317
 30
0.0
 10
133.9163692587777
 20
189.4050917308328
 30
0.0
 10
134.4132766431051
 20
189.8039525267867
 30
0.0
 10
134.6649108708179
 20
190.0059358973713
 30
0.0
  0
SPLINE
  5
1AA
330
1F
100
AcDbEntity
  8
0
  6
Continuous
 62
     7
370
    25
100
AcDbSpline
210
0.0
220
0.0
230
1.0
 70
     8
 71
     3
 72
    21
 73
    17
 74
     0
 42
0.00000001
 43
0.00000001
 40
0.0
 40
0.0
 40
0.0
 40
0.0
 40
0.0309084594669681
 40
0.0622001077138364
 40
0.0939125571282403
 40
0.1260791534221006
 40
0.1870924770904235
 40
0.2515496353217422
 40
0.3763605012194864
 40
0.5015773560069889
 40
0.6260963434843019
 40
0.7512462969875666
 40
0.8248939542869312
 40
0.8753059907103117
 40
0.9414385177895344
 40
1.0
 40
1.0
 40
1.0
 40
1.0
 10
101.091656848251
 20
191.679215900648
 30
0.0
 10
101.0935353866678
 20
191.6773230787108
 30
0.0
 10
101.0973157527515
 20
191.6735139685057
 30
0.0
 10
101.1101910961261
 20
191.6605792039624
 30
0.0
 10
101.1284317509946
 20
191.6423571337452
 30
0.0
 10
101.159637273403
 20
191.611258015921
 30
0.0
 10
101.2114132892294
 20
191.5597043904025
 30
0.0
 10
101.3167894091117
 20
191.4558794034052
 30
0.0
 10
101.4866667580218
 20
191.2906222597296
 30
0.0
 10
101.7302312400364
 20
191.0596792378391
 30
0.0
 10
102.0040466848053
 20
190.8074513658399
 30
0.0
 10
102.2593520780084
 20
190.5792982978508
 30
0.0
 10
102.4648903227452
 20
190.40082988648
 30
0.0
 10
102.6249024125722
 20
190.2636785014404
 30
0.0
 10
102.7748340788023
 20
190.1374371229805
 30
0.0
 10
102.8832444261359
 20
190.0479459920912
 30
0.0
 10
102.9341584248354
 20
190.0059172426796
 30
0.0
  0
SPLINE
  5
1AB
330
1F
100
AcDbEntity
  8
0
  6
Continuous
 62
     7
370
    25
100
AcDbSpline
210
0.0
220
0.0
230
1.0
 70
     8
 71
     3
 72
    10
 73
     6
 74
     0
 42
0.00000001
 43
0.00000001
 40
0.0
 40
0.0
 40
0.0
 40
0.0
 40
0.5
 40
0.5
 40
1.0
 40
1.0
 40
1.0
 40
1.0
 10
98.92257778218688
 20
200.2835341160694
 30
0.0
 10
99.61543968445945
 20
198.9772791165187
 30
0.0
 10
100.1603591424963
 20
197.5682263679218
 30
0.0
 10
100.8938931491043
 20
194.6584354523175
 30
0.0
 10
101.0822066169328
 20
193.1588916157737
 30
0.0
 10
101.0916546004122
 20
191.679215892153
 30
0.0
  0
SPLINE
  5
1AC
330
1F
100
AcDbEntity
  8
0
  6
Continuous
 62
     7
370
    25
100
AcDbSpline
210
0.0
220
0.0
230
1.0
 70
     8
 71
     3
 72
    34
 73
    30
 74
     0
 42
0.00000001
 43
0.00000001
 40
0.0
 40
0.0
 40
0.0
 40
0.0
 40
0.0156250000000008
 40
0.0156250000000008
 40
0.0234375000000008
 40
0.0234375000000008
 40
0.0312500000000009
 40
0.0312500000000009
 40
0.0468750000000012
 40
0.0468750000000012
 40
0.0546875000000013
 40
0.0546875000000013
 40
0.0625000000000014
 40
0.0625000000000014
 40
0.0781250000000017
 40
0.0781250000000017
 40
0.0820312500000018
 40
0.0820312500000018
 40
0.0859375000000019
 40
0.0859375000000019
 40
0.093750000000002
 40
0.093750000000002
 40
0.1250000000000021
 40
0.1250000000000021
 40
0.250000000000002
 40
0.250000000000002
 40
0.5000000000000013
 40
0.5000000000000013
 40
1.0
 40
1.0
 40
1.0
 40
1.0
 10
130.8684573582806
 20
79.63577997088136
 30
0.0
 10
131.3297989635244
 20
79.85053405880718
 30
0.0
 10
131.7525662000145
 20
80.11871499098005
 30
0.0
 10
132.3259199579982
 20
80.58921356688148
 30
0.0
 10
132.5068194123152
 20
80.75717291281929
 30
0.0
 10
132.8458458444378
 20
81.11552176817955
 30
0.0
 10
133.0039189368136
 20
81.30608758127936
 30
0.0
 10
133.4336189964314
 20
81.90105124282249
 30
0.0
 10
133.6675726747622
 20
82.33425937941897
 30
0.0
 10
133.9384988500858
 20
83.03419902635864
 30
0.0
 10
134.0137597228131
 20
83.27174257927584
 30
0.0
 10
134.1284975286924
 20
83.73773625360131
 30
0.0
 10
134.1672470337532
 20
83.96187528274693
 30
0.0
 10
134.2444626639586
 20
84.68533173082824
 30
0.0
 10
134.2423119116561
 20
85.22893732786795
 30
0.0
 10
134.2410758872406
 20
85.97418090514056
 30
0.0
 10
134.2413658981399
 20
86.12640271118632
 30
0.0
 10
134.2432023756979
 20
86.42783263621878
 30
0.0
 10
134.2447029344738
 20
86.5770085159601
 30
0.0
 10
134.2498011823865
 20
87.02246496468977
 30
0.0
 10
134.2536373755836
 20
87.31539425089451
 30
0.0
 10
134.2705119254638
 20
88.78096315070925
 30
0.0
 10
134.2790394309513
 20
89.95769859391741
 30
0.0
 10
134.3182355599131
 20
95.84044385423434
 30
0.0
 10
134.3468230715583
 20
100.550265957778
 30
0.0
 10
134.4263436398745
 20
114.6747457062177
 30
0.0
 10
134.4692546514893
 20
124.0911193332304
 30
0.0
 10
134.5784725618798
 20
152.3403128404429
 30
0.0
 10
134.6244004892224
 20
171.1732207182849
 30
0.0
 10
134.6649676859377
 20
190.0059582506763
 30
0.0
  0
SPLINE
  5
1AD
330
1F
100
AcDbEntity
  8
0
  6
Continuous
 62
     7
370
    25
100
AcDbSpline
210
0.0
220
0.0
230
1.0
 70
     8
 71
     3
 72
    78
 73
    74
 74
     0
 42
0.00000001
 43
0.00000001
 40
0.0
 40
0.0
 40
0.0
 40
0.0
 40
0.0103660599161575
 40
0.0321713206562858
 40
0.0376215554269959
 40
0.064867290191936
 40
0.0757647277766505
 40
0.0866617674016931
 40
0.0976546337455523
 40
0.1086478587327976
 40
0.1196414616135619
 40
0.1306353332234561
 40
0.1416288345450296
 40
0.1526222002281052
 40
0.1691133551169451
 40
0.2135813853844882
 40
0.2330665443322476
 40
0.2428094552536823
 40
0.2827802359064673
 40
0.2978943647113786
 40
0.3054516313655704
 40
0.3601505326943475
 40
0.3647740754627307
 40
0.3693977199957122
 40
0.3971368553755251
 40
0.4261487120042899
 40
0.4333627242618198
 40
0.4376917197433414
 40
0.4492340015518826
 40
0.4633858133588275
 40
0.4669260991052278
 40
0.4681063582724623
 40
0.4802453601626304
 40
0.4923793642703129
 40
0.498232119288414
 40
0.4992081313164851
 40
0.5004217800534265
 40
0.5011347328661833
 40
0.5020853306835503
 40
0.5166349099333736
 40
0.5312099785105258
 40
0.5335882800653065
 40
0.5359664082950665
 40
0.5502247738720968
 40
0.5645493578582402
 40
0.5659822597242911
 40
0.5731456243603704
 40
0.5967502620592967
 40
0.6203499651011669
 40
0.6295359294196426
 40
0.6341288102620833
 40
0.6855528421639704
 40
0.6930589675873092
 40
0.7005649205248907
 40
0.7455973602859887
 40
0.755271431121141
 40
0.7649454242641625
 40
0.822986236409407
 40
0.8284829661906624
 40
0.8449731930514588
 40
0.8614620883621696
 40
0.8669585051925438
 40
0.8779516983839492
 40
0.8944409123601955
 40
0.8999373162740889
 40
0.9109295231391555
 40
0.9272701754086031
 40
0.9327173065820812
 40
0.9599543130432533
 40
0.9763006984857
 40
0.9872006456936245
 40
0.9981041763573885
 40
1.0
 40
1.0
 40
1.0
 40
1.0
 10
130.8684017659129
 20
79.63592627717495
 30
0.0
 10
130.8077186383826
 20
79.79500803557649
 30
0.0
 10
130.6193870668892
 20
80.28872216625842
 30
0.0
 10
130.3987147930517
 20
80.86668310790368
 30
0.0
 10
130.0771708393725
 20
81.70357832993987
 30
0.0
 10
129.8192662993265
 20
82.3730891787966
 30
0.0
 10
129.5275709760363
 20
83.12592850651431
 30
0.0
 10
129.3315110776515
 20
83.62897017722618
 30
0.0
 10
129.1341344977316
 20
84.13328216846855
 30
0.0
 10
128.9350019632674
 20
84.63868128006314
 30
0.0
 10
128.7348388859604
 20
85.14373240427314
 30
0.0
 10
128.5334324358281
 20
85.64830988105776
 30
0.0
 10
128.3307544678709
 20
86.15237637516573
 30
0.0
 10
128.0925272782228
 20
86.73974605460072
 30
0.0
 10
127.6431362103628
 20
87.83650351653664
 30
0.0
 10
127.1282289055027
 20
89.05762103522704
 30
0.0
 10
126.6409743472703
 20
90.16958072370511
 30
0.0
 10
126.1752191015046
 20
91.21002153253073
 30
0.0
 10
125.7251656232168
 20
92.17866849559128
 30
0.0
 10
125.2704928860389
 20
93.1050942941179
 30
0.0
 10
124.6970659370526
 20
94.24334178342049
 30
0.0
 10
124.1725241209326
 20
95.2137301678549
 30
0.0
 10
123.6267874047616
 20
96.11481446681421
 30
0.0
 10
123.3067160219577
 20
96.633300416691
 30
0.0
 10
122.7490101981245
 20
97.47725941660585
 30
0.0
 10
122.100606895122
 20
98.31083261591353
 30
0.0
 10
121.6488735496431
 20
98.80331153700429
 30
0.0
 10
121.3832517561134
 20
99.07555707970889
 30
0.0
 10
121.0217944741979
 20
99.41372564064258
 30
0.0
 10
120.6394516197303
 20
99.70908433588542
 30
0.0
 10
120.377031448829
 20
99.87600890315252
 30
0.0
 10
120.1387422805609
 20
100.0187253236604
 30
0.0
 10
119.7616572315502
 20
100.2066959369222
 30
0.0
 10
119.2796673068
 20
100.3416297492261
 30
0.0
 10
118.9679505336305
 20
100.3720239232675
 30
0.0
 10
118.8354857643843
 20
100.375583887735
 30
0.0
 10
118.7876560114341
 20
100.3757841449987
 30
0.0
 10
118.7402543206636
 20
100.3750312076655
 30
0.0
 10
118.4732735594655
 20
100.3662327718435
 30
0.0
 10
117.9797912909295
 20
100.2687803801527
 30
0.0
 10
117.5067440059263
 20
100.0463937769094
 30
0.0
 10
117.2333857874649
 20
99.88298999859694
 30
0.0
 10
116.9688576969083
 20
99.71507798744979
 30
0.0
 10
116.5623276927432
 20
99.40429273267851
 30
0.0
 10
116.2030410316788
 20
99.06357622277163
 30
0.0
 10
115.9404653994039
 20
98.79219575621221
 30
0.0
 10
115.5804497458178
 20
98.40238137926676
 30
0.0
 10
115.0197226863066
 20
97.70215117126375
 30
0.0
 10
114.4917023921332
 20
96.93723646969914
 30
0.0
 10
114.1601254204712
 20
96.41831552550576
 30
0.0
 10
113.5940842827479
 20
95.50538766473836
 30
0.0
 10
113.0870272525642
 20
94.58849228656533
 30
0.0
 10
112.5860150373117
 20
93.61549876761173
 30
0.0
 10
112.1397994209176
 20
92.73268986547187
 30
0.0
 10
111.6992592400798
 20
91.8070534213084
 30
0.0
 10
111.2594182501373
 20
90.84200315339075
 30
0.0
 10
110.7373267013043
 20
89.67895288759675
 30
0.0
 10
110.2631546413536
 20
88.56986287346844
 30
0.0
 10
109.7577528188006
 20
87.35231107565292
 30
0.0
 10
109.5170101004625
 20
86.76600602179818
 30
0.0
 10
109.2788646249022
 20
86.17864698025977
 30
0.0
 10
109.0762650472982
 20
85.67458926758931
 30
0.0
 10
108.8745829404709
 20
85.17015891502894
 30
0.0
 10
108.6745628896956
 20
84.66508076943369
 30
0.0
 10
108.4753883162706
 20
84.15973625354655
 30
0.0
 10
108.2781704758327
 20
83.65629764617671
 30
0.0
 10
108.0821196777095
 20
83.15338075826017
 30
0.0
 10
107.7905271501113
 20
82.40077946148539
 30
0.0
 10
107.5003355764846
 20
81.6477740973186
 30
0.0
 10
107.1789130915446
 20
80.81120708860148
 30
0.0
 10
106.9554664479515
 20
80.22519324488336
 30
0.0
 10
106.816585246441
 20
79.8614192485985
 30
0.0
 10
106.7417316229164
 20
79.66500995760964
 30
0.0
 10
106.7306444019664
 20
79.63591806995876
 30
0.0
  0
SPLINE
  5
1AE
330
1F
100
AcDbEntity
  8
0
  6
Continuous
 62
     7
370
    25
100
AcDbSpline
210
0.0
220
0.0
230
1.0
 70
     8
 71
     3
 72
    40
 73
    36
 74
     0
 42
0.00000001
 43
0.00000001
 40
0.0
 40
0.0
 40
0.0
 40
0.0
 40
0.5000000000000034
 40
0.5000000000000034
 40
0.7500000000000053
 40
0.7500000000000053
 40
0.8750000000000061
 40
0.8750000000000061
 40
0.9062500000000061
 40
0.9062500000000061
 40
0.9140625000000063
 40
0.9140625000000063
 40
0.9179687500000064
 40
0.9179687500000064
 40
0.9218750000000064
 40
0.9218750000000064
 40
0.9375000000000054
 40
0.9375000000000054
 40
0.9414062500000047
 40
0.9414062500000047
 40
0.945312500000004
 40
0.945312500000004
 40
0.9531250000000033
 40
0.9531250000000033
 40
0.9609375000000028
 40
0.9609375000000028
 40
0.9687500000000022
 40
0.9687500000000022
 40
0.9765625000000017
 40
0.9765625000000017
 40
0.9843750000000011
 40
0.9843750000000011
 40
0.9921875000000006
 40
0.9921875000000006
 40
1.0
 40
1.0
 40
1.0
 40
1.0
 10
102.9341584732051
 20
190.0058949009654
 30
0.0
 10
102.9750012802252
 20
171.1408251141533
 30
0.0
 10
103.0212069890829
 20
152.2755842913982
 30
0.0
 10
103.1307981401232
 20
123.9778906178909
 30
0.0
 10
103.1738237093252
 20
114.5453500563054
 30
0.0
 10
103.2535233302814
 20
100.396620285935
 30
0.0
 10
103.281895425743
 20
95.67837926428523
 30
0.0
 10
103.3215090460921
 20
89.78604515294357
 30
0.0
 10
103.3301308743544
 20
88.60815952517207
 30
0.0
 10
103.3478209041087
 20
87.13930449504021
 30
0.0
 10
103.3518101784573
 20
86.84497501843165
 30
0.0
 10
103.3562307058107
 20
86.39656566247446
 30
0.0
 10
103.3573945824304
 20
86.24609160474235
 30
0.0
 10
103.3581818657522
 20
85.94372941477195
 30
0.0
 10
103.3578183983862
 20
85.79260684250869
 30
0.0
 10
103.3563265785685
 20
85.06022957452883
 30
0.0
 10
103.36135863
 20
84.52578733557823
 30
0.0
 10
103.4399280653232
 20
83.93458532076886
 30
0.0
 10
103.4590960135784
 20
83.82088975135602
 30
0.0
 10
103.5061844603097
 20
83.59098622640643
 30
0.0
 10
103.5338358815971
 20
83.47611819652784
 30
0.0
 10
103.6284863398058
 20
83.13215997708554
 30
0.0
 10
103.7069933259329
 20
82.90352172040316
 30
0.0
 10
103.8913093947322
 20
82.45671382488511
 30
0.0
 10
103.9976997681685
 20
82.23787179314898
 30
0.0
 10
104.234257284221
 20
81.8198047681648
 30
0.0
 10
104.3639828513056
 20
81.62085877835155
 30
0.0
 10
104.6465986086123
 20
81.24267194737652
 30
0.0
 10
104.800360733195
 20
81.0622975075649
 30
0.0
 10
105.1351402371704
 20
80.71652758112927
 30
0.0
 10
105.3148777233653
 20
80.55254817766614
 30
0.0
 10
105.6907999512208
 20
80.24967700586188
 30
0.0
 10
105.8872450061758
 20
80.1103366081902
 30
0.0
 10
106.2937235325943
 20
79.8562931353984
 30
0.0
 10
106.5047965799074
 20
79.74088829253378
 30
0.0
 10
106.7305728016268
 20
79.63578871943628
 30
0.0
  0
SPLINE
  5
1AF
330
1F
100
AcDbEntity
  8
0
  6
Continuous
 62
     7
370
    25
100
AcDbSpline
210
0.0
220
0.0
230
1.0
 70
     8
 71
     3
 72
    14
 73
    10
 74
     0
 42
0.00000001
 43
0.00000001
 40
0.0
 40
0.0
 40
0.0
 40
0.0
 40
0.25
 40
0.25
 40
0.5
 40
0.5
 40
0.75
 40
0.75
 40
1.0
 40
1.0
 40
1.0
 40
1.0
 10
106.7309379373212
 20
79.63594266089908
 30
0.0
 10
106.667110029196
 20
79.49486888665267
 30
0.0
 10
106.6001965923009
 20
79.34611723899293
 30
0.0
 10
106.4732246430122
 20
79.06165228863318
 30
0.0
 10
106.4134859807029
 20
78.92663753047636
 30
0.0
 10
106.315353293206
 20
78.70207252977163
 30
0.0
 10
106.2772008840118
 20
78.61307518713207
 30
0.0
 10
106.2280830669095
 20
78.49457922906733
 30
0.0
 10
106.2169978846431
 20
78.46484067268975
 30
0.0
 10
106.2169073687532
 20
78.45964340861156
 30
0.0
  0
SPLINE
  5
1B0
330
1F
100
AcDbEntity
  8
0
  6
Continuous
 62
     7
370
    25
100
AcDbSpline
210
0.0
220
0.0
230
1.0
 70
     8
 71
     3
 72
    34
 73
    30
 74
     0
 42
0.00000001
 43
0.00000001
 40
0.0
 40
0.0
 40
0.0
 40
0.0
 40
0.0078125
 40
0.0078125
 40
0.015625
 40
0.015625
 40
0.0234374999999999
 40
0.0234374999999999
 40
0.0312499999999999
 40
0.0312499999999999
 40
0.0390624999999999
 40
0.0390624999999999
 40
0.0468749999999999
 40
0.0468749999999999
 40
0.0546874999999998
 40
0.0546874999999998
 40
0.0624999999999998
 40
0.0624999999999998
 40
0.0781249999999998
 40
0.0781249999999998
 40
0.0937499999999997
 40
0.0937499999999997
 40
0.1249999999999996
 40
0.1249999999999996
 40
0.2499999999999996
 40
0.2499999999999996
 40
0.4999999999999999
 40
0.4999999999999999
 40
1.0
 40
1.0
 40
1.0
 40
1.0
 10
106.2166298650419
 20
78.45976961478726
 30
0.0
 10
105.9340867495859
 20
78.58802823993003
 30
0.0
 10
105.6710490648919
 20
78.72867396074479
 30
0.0
 10
105.1645189369421
 20
79.03966837231549
 30
0.0
 10
104.9197193445987
 20
79.21094331968365
 30
0.0
 10
104.4505855054054
 20
79.58500864881037
 30
0.0
 10
104.2258107664425
 20
79.7884255813996
 30
0.0
 10
103.8062484660535
 20
80.22016059019369
 30
0.0
 10
103.6125257824709
 20
80.44746265808556
 30
0.0
 10
103.256500808808
 20
80.92554023474743
 30
0.0
 10
103.0940186861395
 20
81.17662297017932
 30
0.0
 10
102.800240829949
 20
81.70150217857616
 30
0.0
 10
102.6694613516954
 20
81.97489547539541
 30
0.0
 10
102.4448834276791
 20
82.53046871921465
 30
0.0
 10
102.349953145485
 20
82.81381875740665
 30
0.0
 10
102.1969592087609
 20
83.39285031579303
 30
0.0
 10
102.1401871555445
 20
83.68958101319937
 30
0.0
 10
102.0326176466913
 20
84.58839899540047
 30
0.0
 10
102.0368007630496
 20
85.18961748327509
 30
0.0
 10
102.0377887616335
 20
86.38630021502469
 30
0.0
 10
102.0277378538147
 20
86.98437111653385
 30
0.0
 10
102.0050041912486
 20
88.77941878307286
 30
0.0
 10
101.9947846710772
 20
89.97603960939573
 30
0.0
 10
101.9459132779111
 20
95.95855900921579
 30
0.0
 10
101.9058913183585
 20
100.7442711128115
 30
0.0
 10
101.7834676305433
 20
115.1023288954163
 30
0.0
 10
101.6998659359782
 20
124.6743204665181
 30
0.0
 10
101.4437209055069
 20
153.3905055187779
 30
0.0
 10
101.2668470391189
 20
172.534849682741
 30
0.0
 10
101.0916568482564
 20
191.6792158979197
 30
0.0
  0
SPLINE
  5
1B1
330
1F
100
AcDbEntity
  8
0
  6
Continuous
 62
     7
370
    25
100
AcDbSpline
210
0.0
220
0.0
230
1.0
 70
     8
 71
     3
 72
    32
 73
    28
 74
     0
 42
0.00000001
 43
0.00000001
 40
0.0
 40
0.0
 40
0.0
 40
0.0
 40
0.4999999999999986
 40
0.4999999999999986
 40
0.749999999999998
 40
0.749999999999998
 40
0.8749999999999979
 40
0.8749999999999979
 40
0.9062499999999979
 40
0.9062499999999979
 40
0.921874999999998
 40
0.921874999999998
 40
0.9374999999999984
 40
0.9374999999999984
 40
0.9453124999999986
 40
0.9453124999999986
 40
0.9531249999999988
 40
0.9531249999999988
 40
0.960937499999999
 40
0.960937499999999
 40
0.9687499999999992
 40
0.9687499999999992
 40
0.9765624999999994
 40
0.9765624999999994
 40
0.9843749999999996
 40
0.9843749999999996
 40
1.0
 40
1.0
 40
1.0
 40
1.0
 10
136.5073898592022
 20
191.6792136481222
 30
0.0
 10
136.3324877323661
 20
172.5671949515811
 30
0.0
 10
136.1559100271922
 20
153.4551986322766
 30
0.0
 10
135.9001613864418
 20
124.787534264956
 30
0.0
 10
135.8166806800858
 20
115.2317187014468
 30
0.0
 10
135.6944423220846
 20
100.8979196270314
 30
0.0
 10
135.6542491389178
 20
96.1202502347712
 30
0.0
 10
135.6057315665529
 20
90.14789455437662
 30
0.0
 10
135.5956446246263
 20
88.95329990613406
 30
0.0
 10
135.5737510655667
 20
87.16126191247447
 30
0.0
 10
135.5625788061175
 20
86.56428089066952
 30
0.0
 10
135.5608601864972
 20
85.36888589641653
 30
0.0
 10
135.5710327043708
 20
84.7692634149344
 30
0.0
 10
135.4862346898687
 20
83.87598981075311
 30
0.0
 10
135.4397084753479
 20
83.57858228768725
 30
0.0
 10
135.3011756748
 20
82.98803517567873
 30
0.0
 10
135.2106004397063
 20
82.69359768621639
 30
0.0
 10
134.9910358810297
 20
82.11353423263101
 30
0.0
 10
134.8631262833519
 20
81.83146093210836
 30
0.0
 10
134.5737218301862
 20
81.28968394690517
 30
0.0
 10
134.4119141583284
 20
81.02897322365882
 30
0.0
 10
134.0516508752553
 20
80.52795671748179
 30
0.0
 10
133.8522700455887
 20
80.28726746178954
 30
0.0
 10
133.426608869291
 20
79.83864889561806
 30
0.0
 10
133.2003729452062
 20
79.63022521206284
 30
0.0
 10
132.4849122997388
 20
79.04906360738335
 30
0.0
 10
131.9594442358143
 20
78.72170649145427
 30
0.0
 10
131.382419394731
 20
78.45976975370533
 30
0.0
  0
SPLINE
  5
1B2
330
1F
100
AcDbEntity
  8
0
  6
Continuous
 62
     7
370
    25
100
AcDbSpline
210
0.0
220
0.0
230
1.0
 70
     8
 71
     3
 72
    14
 73
    10
 74
     0
 42
0.00000001
 43
0.00000001
 40
0.0
 40
0.0
 40
0.0
 40
0.0
 40
0.25
 40
0.25
 40
0.5
 40
0.5
 40
0.75
 40
0.75
 40
1.0
 40
1.0
 40
1.0
 40
1.0
 10
130.868565730382
 20
79.63583117743967
 30
0.0
 10
130.9323862090935
 20
79.49477492571147
 30
0.0
 10
130.9992905232313
 20
79.346031491477
 30
0.0
 10
131.1262196131952
 20
79.06161303580275
 30
0.0
 10
131.1859282391426
 20
78.92662722104672
 30
0.0
 10
131.2839945555899
 20
78.7021127720661
 30
0.0
 10
131.3221110727155
 20
78.61313629384917
 30
0.0
 10
131.3711640340172
 20
78.49465930090787
 30
0.0
 10
131.3822207065337
 20
78.46491812858186
 30
0.0
 10
131.3822877339769
 20
78.45970998834339
 30
0.0
  0
SPLINE
  5
1B3
330
1F
100
AcDbEntity
  8
0
  6
Continuous
 62
     7
370
    25
100
AcDbSpline
210
0.0
220
0.0
230
1.0
 70
     8
 71
     3
 72
    20
 73
    16
 74
     0
 42
0.00000001
 43
0.00000001
 40
0.0
 40
0.0
 40
0.0
 40
0.0
 40
0.125
 40
0.125
 40
0.1875
 40
0.1875
 40
0.25
 40
0.25
 40
0.3125
 40
0.3125
 40
0.375
 40
0.375
 40
0.5
 40
0.5
 40
1.0
 40
1.0
 40
1.0
 40
1.0
 10
106.7306968150499
 20
79.63605562000278
 30
0.0
 10
107.1280160880826
 20
79.45160868434125
 30
0.0
 10
107.5429215685458
 20
79.30935988241869
 30
0.0
 10
108.1683668045607
 20
79.17374663289823
 30
0.0
 10
108.3791760956586
 20
79.14109970229092
 30
0.0
 10
108.8014014153226
 20
79.101550613282
 30
0.0
 10
109.0343586141527
 20
79.09363284745247
 30
0.0
 10
109.5354352399251
 20
79.08783164146313
 30
0.0
 10
109.8081581553406
 20
79.08814274346466
 30
0.0
 10
110.3401545329611
 20
79.08695637778543
 30
0.0
 10
110.6057357870532
 20
79.08655799915626
 30
0.0
 10
111.4016633301212
 20
79.08570037258472
 30
0.0
 10
111.9311965763221
 20
79.08550707114748
 30
0.0
 10
114.5778722599279
 20
79.08346674046236
 30
0.0
 10
116.6893289751267
 20
79.07891309022655
 30
0.0
 10
118.7981629554146
 20
79.07892148047424
 30
0.0
  0
SPLINE
  5
1B4
330
1F
100
AcDbEntity
  8
0
  6
Continuous
 62
     7
370
    25
100
AcDbSpline
210
0.0
220
0.0
230
1.0
 70
     8
 71
     3
 72
    20
 73
    16
 74
     0
 42
0.00000001
 43
0.00000001
 40
0.0
 40
0.0
 40
0.0
 40
0.0
 40
0.4999999999999989
 40
0.4999999999999989
 40
0.6249999999999988
 40
0.6249999999999988
 40
0.687499999999999
 40
0.687499999999999
 40
0.7499999999999992
 40
0.7499999999999992
 40
0.8124999999999994
 40
0.8124999999999994
 40
0.8749999999999996
 40
0.8749999999999996
 40
1.0
 40
1.0
 40
1.0
 40
1.0
 10
118.8009394599377
 20
79.07892149284268
 30
0.0
 10
120.9098850635806
 20
79.0789318925989
 30
0.0
 10
123.0205130508649
 20
79.08320800746665
 30
0.0
 10
125.668384903186
 20
79.08543273437793
 30
0.0
 10
126.1969035133346
 20
79.08559507941798
 30
0.0
 10
126.993232794151
 20
79.08638769457698
 30
0.0
 10
127.2591525936489
 20
79.08679574087124
 30
0.0
 10
127.791448511579
 20
79.08805203267855
 30
0.0
 10
128.0635293587285
 20
79.08775277903595
 30
0.0
 10
128.5645623902129
 20
79.093481310336
 30
0.0
 10
128.7979114572251
 20
79.10149262801069
 30
0.0
 10
129.2195974742869
 20
79.14089222408028
 30
0.0
 10
129.4303637204214
 20
79.17338606388994
 30
0.0
 10
130.0556256947844
 20
79.30923570423894
 30
0.0
 10
130.4710044198499
 20
79.45168815113121
 30
0.0
 10
130.8683264664136
 20
79.63606251993635
 30
0.0
  0
SPLINE
  5
1B5
330
1F
100
AcDbEntity
  8
0
  6
Continuous
 62
     7
370
    25
100
AcDbSpline
210
0.0
220
0.0
230
1.0
 70
     8
 71
     3
 72
    20
 73
    16
 74
     0
 42
0.00000001
 43
0.00000001
 40
0.0
 40
0.0
 40
0.0
 40
0.0
 40
0.1250000000000002
 40
0.1250000000000002
 40
0.1875000000000001
 40
0.1875000000000001
 40
0.2500000000000001
 40
0.2500000000000001
 40
0.3125
 40
0.3125
 40
0.3749999999999999
 40
0.3749999999999999
 40
0.4999999999999999
 40
0.4999999999999999
 40
1.0
 40
1.0
 40
1.0
 40
1.0
 10
131.3821772404491
 20
78.45965949277827
 30
0.0
 10
130.9015053730267
 20
78.2414853769689
 30
0.0
 10
130.3990370444416
 20
78.07674256218559
 30
0.0
 10
129.6284001355195
 20
77.91923407758603
 30
0.0
 10
129.368780523518
 20
77.88184107724574
 30
0.0
 10
128.8378529134887
 20
77.83810631409077
 30
0.0
 10
128.5713442776617
 20
77.83286302694087
 30
0.0
 10
128.0418186099754
 20
77.83186074421947
 30
0.0
 10
127.7790951820717
 20
77.83443847912882
 30
0.0
 10
127.2509984044833
 20
77.83668755145831
 30
0.0
 10
126.9865981659806
 20
77.83758584022027
 30
0.0
 10
126.1939770746338
 20
77.8397036961651
 30
0.0
 10
125.6669076390042
 20
77.84035063125289
 30
0.0
 10
123.0254486348149
 20
77.8411453730324
 30
0.0
 10
120.9137613724145
 20
77.83375176496524
 30
0.0
 10
118.8009142742732
 20
77.8337510956735
 30
0.0
  0
SPLINE
  5
1B6
330
1F
100
AcDbEntity
  8
0
  6
Continuous
 62
     7
370
    25
100
AcDbSpline
210
0.0
220
0.0
230
1.0
 70
     8
 71
     3
 72
    14
 73
    10
 74
     0
 42
0.00000001
 43
0.00000001
 40
0.0
 40
0.0
 40
0.0
 40
0.0
 40
0.25
 40
0.25
 40
0.5
 40
0.5
 40
0.75
 40
0.75
 40
1.0
 40
1.0
 40
1.0
 40
1.0
 10
118.8002455747158
 20
79.0789214887602
 30
0.0
 10
118.8002453767576
 20
78.92682908981644
 30
0.0
 10
118.8002446693669
 20
78.7676589310132
 30
0.0
 10
118.8002420575375
 20
78.46510308374077
 30
0.0
 10
118.8002401489517
 20
78.32241425743989
 30
0.0
 10
118.8002353999975
 20
78.08590414727846
 30
0.0
 10
118.8002325704384
 20
77.99262118904798
 30
0.0
 10
118.8002266239812
 20
77.86895239231212
 30
0.0
 10
118.8002235204017
 20
77.83832645167888
 30
0.0
 10
118.8002205725831
 20
77.83375109420673
 30
0.0
  0
SPLINE
  5
1B7
330
1F
100
AcDbEntity
  8
0
  6
Continuous
 62
     7
370
    25
100
AcDbSpline
210
0.0
220
0.0
230
1.0
 70
     8
 71
     3
 72
    20
 73
    16
 74
     0
 42
0.00000001
 43
0.00000001
 40
0.0
 40
0.0
 40
0.0
 40
0.0
 40
0.5000000000000009
 40
0.5000000000000009
 40
0.6250000000000011
 40
0.6250000000000011
 40
0.6875000000000012
 40
0.6875000000000012
 40
0.7500000000000013
 40
0.7500000000000013
 40
0.8125000000000014
 40
0.8125000000000014
 40
0.8750000000000016
 40
0.8750000000000016
 40
1.0
 40
1.0
 40
1.0
 40
1.0
 10
118.7981346794887
 20
77.83375109728594
 30
0.0
 10
116.6859856975971
 20
77.83375421525507
 30
0.0
 10
114.5725460968071
 20
77.84113692538311
 30
0.0
 10
111.9326521972206
 20
77.84034950753718
 30
0.0
 10
111.4046847468544
 20
77.83970045620917
 30
0.0
 10
110.6123060739492
 20
77.83758342811822
 30
0.0
 10
110.348148593751
 20
77.83668665771037
 30
0.0
 10
109.8201830943078
 20
77.83444134265818
 30
0.0
 10
109.5567070068935
 20
77.83186101590489
 30
0.0
 10
109.0273806319359
 20
77.83287652519394
 30
0.0
 10
108.7616859588137
 20
77.83807909475927
 30
0.0
 10
108.2300401301158
 20
77.88186104455983
 30
0.0
 10
107.9706048367516
 20
77.91924478027964
 30
0.0
 10
107.1997906862974
 20
78.07679767992845
 30
0.0
 10
106.6975708425083
 20
78.24147478064732
 30
0.0
 10
106.2168893941886
 20
78.45965154380735
 30
0.0
  0
CIRCLE
  5
1B8
330
1F
100
AcDbEntity
  8
0
  6
Continuous
 62
     7
370
    25
100
AcDbCircle
 10
152.9995244769
 20
210.8266356567
 30
0.0
 40
4.000000000000057
  0
CIRCLE
  5
1B9
330
1F
100
AcDbEntity
  8
0
  6
Continuous
 62
     7
370
    25
100
AcDbCircle
 10
152.9995244769
 20
210.8266356567
 30
0.0
 40
3.000000000000057
  0
LINE
  5
1BA
330
1F
100
AcDbEntity
  8
0
  6
Continuous
 62
     7
370
    25
100
AcDbLine
 10
159.9995244769
 20
217.8266356567
 30
0.0
 11
159.9995244769
 21
203.8266357374
 31
0.0
  0
LINE
  5
1BB
330
1F
100
AcDbEntity
  8
0
  6
Continuous
 62
     7
370
    25
100
AcDbLine
 10
142.4995244769
 20
203.8266356567
 30
0.0
 11
142.4995244769
 21
217.8266355761
 31
0.0
  0
LINE
  5
1BC
330
1F
100
AcDbEntity
  8
0
  6
Continuous
 62
     7
370
    25
100
AcDbLine
 10
160.6995244769
 20
213.1266356567
 30
0.0
 11
160.6995244769
 21
211.2266356567
 31
0.0
  0
SPLINE
  5
1BD
330
1F
100
AcDbEntity
  8
0
  6
Continuous
 62
     7
370
    25
100
AcDbSpline
210
0.0
220
0.0
230
1.0
 70
    24
 71
     3
 72
    12
 73
     8
 74
     0
 42
0.00000001
 43
0.00000001
 40
0.0
 40
0.0
 40
0.0
 40
0.0
 40
0.2499999999999967
 40
0.2499999999999967
 40
0.4999999999999933
 40
0.4999999999999933
 40
1.0
 40
1.0
 40
1.0
 40
1.0
 10
160.699524476874
 20
211.2266356567247
 30
0.0
 10
160.699524476874
 20
211.2266356567247
 30
0.0
 10
160.6817064357892
 20
211.2266356567247
 30
0.0
 10
160.6122418401484
 20
211.2266356567247
 30
0.0
 10
160.5607650323022
 20
211.2266356567247
 30
0.0
 10
160.3675714684021
 20
211.2266356567247
 30
0.0
 10
160.1855826003805
 20
211.2266356567247
 30
0.0
 10
159.999524476874
 20
211.2266356567247
 30
0.0
  0
LINE
  5
1BE
330
1F
100
AcDbEntity
  8
0
  6
Continuous
 62
     7
370
    25
100
AcDbLine
 10
160.6995244769
 20
210.4266356567
 30
0.0
 11
160.6995244769
 21
208.4266356567
 31
0.0
  0
SPLINE
  5
1BF
330
1F
100
AcDbEntity
  8
0
  6
Continuous
 62
     7
370
    25
100
AcDbSpline
210
0.0
220
0.0
230
1.0
 70
    24
 71
     3
 72
    10
 73
     6
 74
     0
 42
0.00000001
 43
0.00000001
 40
0.0
 40
0.0
 40
0.0
 40
0.0
 40
0.5
 40
0.5
 40
1.0
 40
1.0
 40
1.0
 40
1.0
 10
160.099524476874
 20
210.4266356567247
 30
0.0
 10
160.2589233344866
 20
210.4266356567247
 30
0.0
 10
160.4146150267954
 20
210.4266356567247
 30
0.0
 10
160.6353583067624
 20
210.4266356567247
 30
0.0
 10
160.699524476874
 20
210.4266356567247
 30
0.0
 10
160.699524476874
 20
210.4266356567247
 30
0.0
  0
LINE
  5
1C0
330
1F
100
AcDbEntity
  8
0
  6
Continuous
 62
     7
370
    25
100
AcDbLine
 10
160.0995244769
 20
210.4266356567
 30
0.0
 11
159.9995244769
 21
210.4266356567
 31
0.0
  0
SPLINE
  5
1C1
330
1F
100
AcDbEntity
  8
0
  6
Continuous
 62
     8
370
    25
100
AcDbSpline
210
0.0
220
0.0
230
1.0
 70
     8
 71
     3
 72
     9
 73
     5
 74
     0
 42
0.00000001
 43
0.00000001
 40
0.0
 40
0.0
 40
0.0
 40
0.0
 40
0.0045016307435174
 40
1.0
 40
1.0
 40
1.0
 40
1.0
 10
136.6508138015722
 20
191.6792159922988
 30
0.0
 10
136.651026672294
 20
191.6792159614156
 30
0.0
 10
136.6983141407452
 20
191.679209100987
 30
0.0
 10
136.6026388078511
 20
191.679202233113
 30
0.0
 10
136.5073941699768
 20
191.6791953961558
 30
0.0
  0
SPLINE
  5
1C2
330
1F
100
AcDbEntity
  8
0
  6
Continuous
 62
     8
370
    25
100
AcDbSpline
210
0.0
220
0.0
230
1.0
 70
     8
 71
     3
 72
     9
 73
     5
 74
     0
 42
0.00000001
 43
0.00000001
 40
0.0
 40
0.0
 40
0.0
 40
0.0
 40
0.9954912763757728
 40
1.0
 40
1.0
 40
1.0
 40
1.0
 10
101.0916547837711
 20
191.6791953961558
 30
0.0
 10
100.9964104823815
 20
191.6792022331134
 30
0.0
 10
100.9007348058087
 20
191.6792091010365
 30
0.0
 10
100.9480229491915
 20
191.6792159615134
 30
0.0
 10
100.9482361583607
 20
191.6792159924454
 30
0.0
  0
LINE
  5
1C3
330
1F
100
AcDbEntity
  8
0
  6
Continuous
 62
     8
370
    25
100
AcDbLine
 10
118.7975356491
 20
77.7651106819
 30
0.0
 11
118.7981346799
 21
77.8337511391
 31
0.0
  0
LINE
  5
1C4
330
1F
100
AcDbEntity
  8
0
  6
Continuous
 62
     8
370
    25
100
AcDbLine
 10
159.4995244769
 20
203.3266356567
 30
0.0
 11
159.4995244769
 21
218.3266356567
 31
0.0
  0
LINE
  5
1C5
330
1F
100
AcDbEntity
  8
0
  6
Continuous
 62
     8
370
    25
100
AcDbLine
 10
142.9995244769
 20
218.3266356567
 30
0.0
 11
142.9995244769
 21
203.3266356567
 31
0.0
  0
LINE
  5
1C6
330
1F
100
AcDbEntity
  8
0
  6
Continuous
 62
     8
370
    25
100
AcDbLine
 10
160.0995244769
 20
207.8266356567
 30
0.0
 11
160.0995244769
 21
210.4266356567
 31
0.0
  0
ENDSEC
  0
SECTION
  2
OBJECTS
  0
DICTIONARY
  5
C
330
0
100
AcDbDictionary
281
     1
  3
ACAD_GROUP
350
D
  3
ACAD_LAYOUT
350
1A
  3
ACAD_MLINESTYLE
350
17
  3
ACAD_PLOTSETTINGS
350
19
  3
ACAD_PLOTSTYLENAME
350
E
  3
ACAD_SCALELIST
350
47
  3
DWGPROPS
350
1C7
  0
DICTIONARY
  5
D
102
{ACAD_REACTORS
330
C
102
}
330
C
100
AcDbDictionary
281
     1
  0
DICTIONARY
  5
1A
102
{ACAD_REACTORS
330
C
102
}
330
C
100
AcDbDictionary
281
     1
  3
Layout1
350
1E
  3
Layout2
350
26
  3
Model
350
22
  0
DICTIONARY
  5
17
102
{ACAD_REACTORS
330
C
102
}
330
C
100
AcDbDictionary
281
     1
  3
Standard
350
18
  0
DICTIONARY
  5
19
102
{ACAD_REACTORS
330
C
102
}
330
C
100
AcDbDictionary
281
     1
  0
ACDBDICTIONARYWDFLT
  5
E
102
{ACAD_REACTORS
330
C
102
}
330
C
100
AcDbDictionary
281
     1
  3
Normal
350
F
100
AcDbDictionaryWithDefault
340
F
  0
DICTIONARY
  5
47
102
{ACAD_REACTORS
330
C
102
}
330
C
100
AcDbDictionary
281
     1
  3
A0
350
48
  3
A1
350
49
  3
A2
350
4A
  3
A3
350
4B
  3
A4
350
4C
  3
A5
350
4D
  3
A6
350
4E
  3
A7
350
4F
  3
A8
350
50
  3
A9
350
51
  3
B0
350
52
  3
B1
350
53
  3
B2
350
54
  3
B3
350
55
  3
B4
350
56
  3
B5
350
57
  3
B6
350
58
  3
B7
350
59
  3
B8
350
5A
  3
B9
350
5B
  3
C0
350
5C
  3
C1
350
5D
  3
C2
350
5E
  3
C3
350
5F
  3
C4
350
60
  3
C5
350
61
  3
C6
350
62
  3
C7
350
63
  3
C8
350
64
  3
C9
350
65
  3
D0
350
66
  3
D1
350
67
  3
D2
350
68
  0
XRECORD
  5
1C7
102
{ACAD_REACTORS
330
C
102
}
330
C
100
AcDbXrecord
280
     1
  1
DWGPROPS COOKIE
  2

  3

  4

  6

  7

  8
fue-task
  9

300
=
301
=
302
=
303
=
304
=
305
=
306
=
307
=
308
=
309
=
 40
0.0
 41
2459886.540044294
 42
2459886.540045729
  1

 90
        0
  0
LAYOUT
  5
1E
102
{ACAD_REACTORS
330
1A
102
}
330
1A
100
AcDbPlotSettings
  1

  2
none_device
  4

  6

 40
0.0
 41
0.0
 42
0.0
 43
0.0
 44
0.0
 45
0.0
 46
0.0
 47
0.0
 48
0.0
 49
0.0
140
0.0
141
0.0
142
1.0
143
1.0
 70
   688
 72
     1
 73
     0
 74
     5
  7

 75
    16
147
1.0
148
0.0
149
0.0
100
AcDbLayout
  1
Layout1
 70
     1
 71
     1
 10
0.0
 20
0.0
 11
420.0
 21
297.0
 12
0.0
 22
0.0
 32
0.0
 14
1.0000000000E+20
 24
1.0000000000E+20
 34
1.0000000000E+20
 15
-1.0000000000E+20
 25
-1.0000000000E+20
 35
-1.0000000000E+20
146
0.0
 13
0.0
 23
0.0
 33
0.0
 16
1.0
 26
0.0
 36
0.0
 17
0.0
 27
1.0
 37
0.0
 76
     0
330
1B
  0
LAYOUT
  5
26
102
{ACAD_REACTORS
330
1A
102
}
330
1A
100
AcDbPlotSettings
  1

  2
none_device
  4

  6

 40
0.0
 41
0.0
 42
0.0
 43
0.0
 44
0.0
 45
0.0
 46
0.0
 47
0.0
 48
0.0
 49
0.0
140
0.0
141
0.0
142
1.0
143
1.0
 70
   688
 72
     1
 73
     0
 74
     5
  7

 75
    16
147
1.0
148
0.0
149
0.0
100
AcDbLayout
  1
Layout2
 70
     1
 71
     2
 10
0.0
 20
0.0
 11
0.0
 21
0.0
 12
0.0
 22
0.0
 32
0.0
 14
0.0
 24
0.0
 34
0.0
 15
0.0
 25
0.0
 35
0.0
146
0.0
 13
0.0
 23
0.0
 33
0.0
 16
1.0
 26
0.0
 36
0.0
 17
0.0
 27
1.0
 37
0.0
 76
     0
330
23
  0
LAYOUT
  5
22
102
{ACAD_REACTORS
330
1A
102
}
330
1A
100
AcDbPlotSettings
  1

  2
none_device
  4
Letter_(8.50_x_11.00_Inches)
  6

 40
6.35
 41
6.35
 42
6.35000508
 43
6.35000508
 44
215.9
 45
279.4
 46
0.0
 47
0.0
 48
0.0
 49
0.0
140
0.0
141
0.0
142
1.0
143
1.0
 70
  1712
 72
     1
 73
     0
 74
     0
  7

 75
     0
147
1.0
148
0.0
149
0.0
100
AcDbLayout
  1
Model
 70
     1
 71
     0
 10
0.0
 20
0.0
 11
594.0
 21
841.0
 12
0.0
 22
0.0
 32
0.0
 14
0.0
 24
0.0
 34
0.0
 15
594.0
 25
841.0
 35
0.0
146
0.0
 13
0.0
 23
0.0
 33
0.0
 16
1.0
 26
0.0
 36
0.0
 17
0.0
 27
1.0
 37
0.0
 76
     0
330
1F
331
29
  0
MLINESTYLE
  5
18
102
{ACAD_REACTORS
330
17
102
}
330
17
100
AcDbMlineStyle
  2
Standard
 70
     0
  3

 62
   256
 51
90.0
 52
90.0
 71
     2
 49
0.5
 62
   256
  6
BYLAYER
 49
-0.5
 62
   256
  6
BYLAYER
  0
ACDBPLACEHOLDER
  5
F
102
{ACAD_REACTORS
330
E
102
}
330
E
  0
SCALE
  5
48
102
{ACAD_REACTORS
330
47
102
}
330
47
100
AcDbScale
 70
     0
300
1:1
140
1.0
141
1.0
290
     1
  0
SCALE
  5
49
102
{ACAD_REACTORS
330
47
102
}
330
47
100
AcDbScale
 70
     0
300
1:2
140
1.0
141
2.0
290
     0
  0
SCALE
  5
4A
102
{ACAD_REACTORS
330
47
102
}
330
47
100
AcDbScale
 70
     0
300
1:4
140
1.0
141
4.0
290
     0
  0
SCALE
  5
4B
102
{ACAD_REACTORS
330
47
102
}
330
47
100
AcDbScale
 70
     0
300
1:5
140
1.0
141
5.0
290
     0
  0
SCALE
  5
4C
102
{ACAD_REACTORS
330
47
102
}
330
47
100
AcDbScale
 70
     0
300
1:8
140
1.0
141
8.0
290
     0
  0
SCALE
  5
4D
102
{ACAD_REACTORS
330
47
102
}
330
47
100
AcDbScale
 70
     0
300
1:10
140
1.0
141
10.0
290
     0
  0
SCALE
  5
4E
102
{ACAD_REACTORS
330
47
102
}
330
47
100
AcDbScale
 70
     0
300
1:16
140
1.0
141
16.0
290
     0
  0
SCALE
  5
4F
102
{ACAD_REACTORS
330
47
102
}
330
47
100
AcDbScale
 70
     0
300
1:20
140
1.0
141
20.0
290
     0
  0
SCALE
  5
50
102
{ACAD_REACTORS
330
47
102
}
330
47
100
AcDbScale
 70
     0
300
1:30
140
1.0
141
30.0
290
     0
  0
SCALE
  5
51
102
{ACAD_REACTORS
330
47
102
}
330
47
100
AcDbScale
 70
     0
300
1:40
140
1.0
141
40.0
290
     0
  0
SCALE
  5
52
102
{ACAD_REACTORS
330
47
102
}
330
47
100
AcDbScale
 70
     0
300
1:50
140
1.0
141
50.0
290
     0
  0
SCALE
  5
53
102
{ACAD_REACTORS
330
47
102
}
330
47
100
AcDbScale
 70
     0
300
1:100
140
1.0
141
100.0
290
     0
  0
SCALE
  5
54
102
{ACAD_REACTORS
330
47
102
}
330
47
100
AcDbScale
 70
     0
300
2:1
140
2.0
141
1.0
290
     0
  0
SCALE
  5
55
102
{ACAD_REACTORS
330
47
102
}
330
47
100
AcDbScale
 70
     0
300
4:1
140
4.0
141
1.0
290
     0
  0
SCALE
  5
56
102
{ACAD_REACTORS
330
47
102
}
330
47
100
AcDbScale
 70
     0
300
8:1
140
8.0
141
1.0
290
     0
  0
SCALE
  5
57
102
{ACAD_REACTORS
330
47
102
}
330
47
100
AcDbScale
 70
     0
300
10:1
140
10.0
141
1.0
290
     0
  0
SCALE
  5
58
102
{ACAD_REACTORS
330
47
102
}
330
47
100
AcDbScale
 70
     0
300
100:1
140
100.0
141
1.0
290
     0
  0
SCALE
  5
59
102
{ACAD_REACTORS
330
47
102
}
330
47
100
AcDbScale
 70
     0
300
1/128" = 1'-0"
140
0.0078125
141
12.0
290
     0
  0
SCALE
  5
5A
102
{ACAD_REACTORS
330
47
102
}
330
47
100
AcDbScale
 70
     0
300
1/64" = 1'-0"
140
0.015625
141
12.0
290
     0
  0
SCALE
  5
5B
102
{ACAD_REACTORS
330
47
102
}
330
47
100
AcDbScale
 70
     0
300
1/32" = 1'-0"
140
0.03125
141
12.0
290
     0
  0
SCALE
  5
5C
102
{ACAD_REACTORS
330
47
102
}
330
47
100
AcDbScale
 70
     0
300
1/16" = 1'-0"
140
0.0625
141
12.0
290
     0
  0
SCALE
  5
5D
102
{ACAD_REACTORS
330
47
102
}
330
47
100
AcDbScale
 70
     0
300
3/32" = 1'-0"
140
0.09375
141
12.0
290
     0
  0
SCALE
  5
5E
102
{ACAD_REACTORS
330
47
102
}
330
47
100
AcDbScale
 70
     0
300
1/8" = 1'-0"
140
0.125
141
12.0
290
     0
  0
SCALE
  5
5F
102
{ACAD_REACTORS
330
47
102
}
330
47
100
AcDbScale
 70
     0
300
3/16" = 1'-0"
140
0.1875
141
12.0
290
     0
  0
SCALE
  5
60
102
{ACAD_REACTORS
330
47
102
}
330
47
100
AcDbScale
 70
     0
300
1/4" = 1'-0"
140
0.25
141
12.0
290
     0
  0
SCALE
  5
61
102
{ACAD_REACTORS
330
47
102
}
330
47
100
AcDbScale
 70
     0
300
3/8" = 1'-0"
140
0.375
141
12.0
290
     0
  0
SCALE
  5
62
102
{ACAD_REACTORS
330
47
102
}
330
47
100
AcDbScale
 70
     0
300
1/2" = 1'-0"
140
0.5
141
12.0
290
     0
  0
SCALE
  5
63
102
{ACAD_REACTORS
330
47
102
}
330
47
100
AcDbScale
 70
     0
300
3/4" = 1'-0"
140
0.75
141
12.0
290
     0
  0
SCALE
  5
64
102
{ACAD_REACTORS
330
47
102
}
330
47
100
AcDbScale
 70
     0
300
1" = 1'-0"
140
1.0
141
12.0
290
     0
  0
SCALE
  5
65
102
{ACAD_REACTORS
330
47
102
}
330
47
100
AcDbScale
 70
     0
300
1-1/2" = 1'-0"
140
1.5
141
12.0
290
     0
  0
SCALE
  5
66
102
{ACAD_REACTORS
330
47
102
}
330
47
100
AcDbScale
 70
     0
300
3" = 1'-0"
140
3.0
141
12.0
290
     0
  0
SCALE
  5
67
102
{ACAD_REACTORS
330
47
102
}
330
47
100
AcDbScale
 70
     0
300
6" = 1'-0"
140
6.0
141
12.0
290
     0
  0
SCALE
  5
68
102
{ACAD_REACTORS
330
47
102
}
330
47
100
AcDbScale
 70
     0
300
1'-0" = 1'-0"
140
12.0
141
12.0
290
     0
  0
ENDSEC
  0
EOF
