  0
SECTION
  2
HEADER
  9
$ACADVER
  1
AC1024
  9
$ACADMAINTVER
 70
     6
  9
$DWGCODEPAGE
  3
ANSI_1252
  9
$INSBASE
 10
0.0
 20
0.0
 30
0.0
  9
$EXTMIN
 10
0.0
 20
0.0
 30
0.0
  9
$EXTMAX
 10
594.0
 20
841.0
 30
0.0
  9
$LIMMIN
 10
0.0
 20
0.0
  9
$LIMMAX
 10
594.0
 20
841.0
  9
$ORTHOMODE
 70
     0
  9
$REGENMODE
 70
     1
  9
$FILLMODE
 70
     1
  9
$QTEXTMODE
 70
     0
  9
$MIRRTEXT
 70
     1
  9
$LTSCALE
 40
1.0
  9
$ATTMODE
 70
     1
  9
$TEXTSIZE
 40
10.0
  9
$TRACEWID
 40
1.0
  9
$TEXTSTYLE
  7
Standard
  9
$CLAYER
  8
0
  9
$CELTYPE
  6
ByLayer
  9
$CECOLOR
 62
   256
  9
$CELTSCALE
 40
1.0
  9
$DISPSILH
 70
     0
  9
$DIMSCALE
 40
1.0
  9
$DIMASZ
 40
2.5
  9
$DIMEXO
 40
0.0
  9
$DIMDLI
 40
3.75
  9
$DIMRND
 40
0.0
  9
$DIMDLE
 40
0.0
  9
$DIMEXE
 40
1.0
  9
$DIMTP
 40
0.0
  9
$DIMTM
 40
0.0
  9
$DIMTXT
 40
3.5
  9
$DIMCEN
 40
2.5
  9
$DIMTSZ
 40
0.0
  9
$DIMTOL
 70
     0
  9
$DIMLIM
 70
     0
  9
$DIMTIH
 70
     1
  9
$DIMTOH
 70
     1
  9
$DIMSE1
 70
     0
  9
$DIMSE2
 70
     0
  9
$DIMTAD
 70
     1
  9
$DIMZIN
 70
     0
  9
$DIMBLK
  1

  9
$DIMASO
 70
     1
  9
$DIMSHO
 70
     1
  9
$DIMPOST
  1

  9
$DIMAPOST
  1

  9
$DIMALT
 70
     0
  9
$DIMALTD
 70
     3
  9
$DIMALTF
 40
0.0393700787
  9
$DIMLFAC
 40
1.0
  9
$DIMTOFL
 70
     1
  9
$DIMTVP
 40
0.0
  9
$DIMTIX
 70
     0
  9
$DIMSOXD
 70
     0
  9
$DIMSAH
 70
     0
  9
$DIMBLK1
  1

  9
$DIMBLK2
  1

  9
$DIMSTYLE
  2
ISO-25
  9
$DIMCLRD
 70
     0
  9
$DIMCLRE
 70
     0
  9
$DIMCLRT
 70
     0
  9
$DIMTFAC
 40
1.0
  9
$DIMGAP
 40
1.5
  9
$DIMJUST
 70
     0
  9
$DIMSD1
 70
     0
  9
$DIMSD2
 70
     0
  9
$DIMTOLJ
 70
     0
  9
$DIMTZIN
 70
     0
  9
$DIMALTZ
 70
     0
  9
$DIMALTTZ
 70
     0
  9
$DIMUPT
 70
     0
  9
$DIMDEC
 70
     2
  9
$DIMTDEC
 70
     2
  9
$DIMALTU
 70
     2
  9
$DIMALTTD
 70
     3
  9
$DIMTXSTY
  7
Standard
  9
$DIMAUNIT
 70
     0
  9
$DIMADEC
 70
     2
  9
$DIMALTRND
 40
0.0
  9
$DIMAZIN
 70
     0
  9
$DIMDSEP
 70
    44
  9
$DIMATFIT
 70
     3
  9
$DIMFRAC
 70
     0
  9
$DIMLDRBLK
  1

  9
$DIMLUNIT
 70
     2
  9
$DIMLWD
 70
    -2
  9
$DIMLWE
 70
    -2
  9
$DIMTMOVE
 70
     0
  9
$DIMFXL
 40
1.0
  9
$DIMFXLON
 70
     0
  9
$DIMJOGANG
 40
0.7853981634
  9
$DIMTFILL
 70
     0
  9
$DIMTFILLCLR
 70
     0
  9
$DIMARCSYM
 70
     0
  9
$DIMLTYPE
  6

  9
$DIMLTEX1
  6

  9
$DIMLTEX2
  6

  9
$DIMTXTDIRECTION
 70
     0
  9
$LUNITS
 70
     2
  9
$LUPREC
 70
     2
  9
$SKETCHINC
 40
1.0
  9
$FILLETRAD
 40
10.0
  9
$AUNITS
 70
     0
  9
$AUPREC
 70
     2
  9
$MENU
  1
.
  9
$ELEVATION
 40
0.0
  9
$PELEVATION
 40
0.0
  9
$THICKNESS
 40
0.0
  9
$LIMCHECK
 70
     0
  9
$CHAMFERA
 40
10.0
  9
$CHAMFERB
 40
10.0
  9
$CHAMFERC
 40
20.0
  9
$CHAMFERD
 40
0.0
  9
$SKPOLY
 70
     0
  9
$TDCREATE
 40
2456170.294640336
  9
$TDUCREATE
 40
2456170.211307002
  9
$TDUPDATE
 40
2456170.294640347
  9
$TDUUPDATE
 40
2456170.211307014
  9
$TDINDWG
 40
0.0000000116
  9
$TDUSRTIMER
 40
0.0000000116
  9
$USRTIMER
 70
     1
  9
$ANGBASE
 50
0.0
  9
$ANGDIR
 70
     0
  9
$PDMODE
 70
     0
  9
$PDSIZE
 40
-1.0
  9
$PLINEWID
 40
0.0
  9
$SPLFRAME
 70
     0
  9
$SPLINETYPE
 70
     6
  9
$SPLINESEGS
 70
     8
  9
$HANDSEED
  5
102
  9
$SURFTAB1
 70
     6
  9
$SURFTAB2
 70
     6
  9
$SURFTYPE
 70
     6
  9
$SURFU
 70
     6
  9
$SURFV
 70
     6
  9
$UCSBASE
  2

  9
$UCSNAME
  2

  9
$UCSORG
 10
0.0
 20
0.0
 30
0.0
  9
$UCSXDIR
 10
1.0
 20
0.0
 30
0.0
  9
$UCSYDIR
 10
0.0
 20
1.0
 30
0.0
  9
$UCSORTHOREF
  2

  9
$UCSORTHOVIEW
 70
     0
  9
$UCSORGTOP
 10
0.0
 20
0.0
 30
0.0
  9
$UCSORGBOTTOM
 10
0.0
 20
0.0
 30
0.0
  9
$UCSORGLEFT
 10
0.0
 20
0.0
 30
0.0
  9
$UCSORGRIGHT
 10
0.0
 20
0.0
 30
0.0
  9
$UCSORGFRONT
 10
0.0
 20
0.0
 30
0.0
  9
$UCSORGBACK
 10
0.0
 20
0.0
 30
0.0
  9
$PUCSBASE
  2

  9
$PUCSNAME
  2

  9
$PUCSORG
 10
0.0
 20
0.0
 30
0.0
  9
$PUCSXDIR
 10
1.0
 20
0.0
 30
0.0
  9
$PUCSYDIR
 10
0.0
 20
1.0
 30
0.0
  9
$PUCSORTHOREF
  2

  9
$PUCSORTHOVIEW
 70
     0
  9
$PUCSORGTOP
 10
0.0
 20
0.0
 30
0.0
  9
$PUCSORGBOTTOM
 10
0.0
 20
0.0
 30
0.0
  9
$PUCSORGLEFT
 10
0.0
 20
0.0
 30
0.0
  9
$PUCSORGRIGHT
 10
0.0
 20
0.0
 30
0.0
  9
$PUCSORGFRONT
 10
0.0
 20
0.0
 30
0.0
  9
$PUCSORGBACK
 10
0.0
 20
0.0
 30
0.0
  9
$USERI1
 70
     0
  9
$USERI2
 70
     0
  9
$USERI3
 70
     0
  9
$USERI4
 70
     0
  9
$USERI5
 70
     0
  9
$USERR1
 40
0.0
  9
$USERR2
 40
0.0
  9
$USERR3
 40
0.0
  9
$USERR4
 40
0.0
  9
$USERR5
 40
0.0
  9
$WORLDVIEW
 70
     1
  9
$SHADEDGE
 70
     3
  9
$SHADEDIF
 70
    70
  9
$TILEMODE
 70
     1
  9
$MAXACTVP
 70
    64
  9
$PINSBASE
 10
0.0
 20
0.0
 30
0.0
  9
$PLIMCHECK
 70
     0
  9
$PEXTMIN
 10
1.0000000000E+20
 20
1.0000000000E+20
 30
1.0000000000E+20
  9
$PEXTMAX
 10
-1.0000000000E+20
 20
-1.0000000000E+20
 30
-1.0000000000E+20
  9
$PLIMMIN
 10
0.0
 20
0.0
  9
$PLIMMAX
 10
420.0
 20
297.0
  9
$UNITMODE
 70
     0
  9
$VISRETAIN
 70
     1
  9
$PLINEGEN
 70
     0
  9
$PSLTSCALE
 70
     1
  9
$TREEDEPTH
 70
  3020
  9
$CMLSTYLE
  2
Standard
  9
$CMLJUST
 70
     0
  9
$CMLSCALE
 40
20.0
  9
$PROXYGRAPHICS
 70
     1
  9
$MEASUREMENT
 70
     1
  9
$CELWEIGHT
370
    -1
  9
$ENDCAPS
280
     0
  9
$JOINSTYLE
280
     0
  9
$LWDISPLAY
290
     1
  9
$INSUNITS
 70
     4
  9
$HYPERLINKBASE
  1

  9
$STYLESHEET
  1

  9
$XEDIT
290
     1
  9
$CEPSNTYPE
380
     0
  9
$PSTYLEMODE
290
     1
  9
$FINGERPRINTGUID
  2
{476961CB-803A-46DC-A4EB-C50AE61BE032}
  9
$VERSIONGUID
  2
{FAEB1C32-E019-11D5-929B-00C0DF256EC4}
  9
$EXTNAMES
290
     1
  9
$PSVPSCALE
 40
0.0
  9
$OLESTARTUP
290
     0
  9
$SORTENTS
280
   127
  9
$INDEXCTL
280
     0
  9
$HIDETEXT
280
     1
  9
$XCLIPFRAME
280
     2
  9
$HALOGAP
280
     0
  9
$OBSCOLOR
 70
   257
  9
$OBSLTYPE
280
     0
  9
$INTERSECTIONDISPLAY
280
     0
  9
$INTERSECTIONCOLOR
 70
   257
  9
$DIMASSOC
280
     2
  9
$PROJECTNAME
  1

  9
$CAMERADISPLAY
290
     0
  9
$LENSLENGTH
 40
50.0
  9
$CAMERAHEIGHT
 40
0.0
  9
$STEPSPERSEC
 40
2.0
  9
$STEPSIZE
 40
6.0
  9
$3DDWFPREC
 40
2.0
  9
$PSOLWIDTH
 40
5.0
  9
$PSOLHEIGHT
 40
80.0
  9
$LOFTANG1
 40
1.5707963268
  9
$LOFTANG2
 40
1.5707963268
  9
$LOFTMAG1
 40
0.0
  9
$LOFTMAG2
 40
0.0
  9
$LOFTPARAM
 70
     7
  9
$LOFTNORMALS
280
     1
  9
$LATITUDE
 40
37.795
  9
$LONGITUDE
 40
-122.394
  9
$NORTHDIRECTION
 40
0.0
  9
$TIMEZONE
 70
 -8000
  9
$LIGHTGLYPHDISPLAY
280
     1
  9
$TILEMODELIGHTSYNCH
280
     1
  9
$SOLIDHIST
280
     1
  9
$SHOWHIST
280
     1
  9
$DWFFRAME
280
     2
  9
$DGNFRAME
280
     2
  9
$REALWORLDSCALE
290
     1
  9
$INTERFERECOLOR
 62
   256
  9
$CSHADOW
280
     0
  9
$SHADOWPLANELOCATION
 40
0.0
  0
ENDSEC
  0
SECTION
  2
CLASSES
  0
CLASS
  1
ACDBDICTIONARYWDFLT
  2
AcDbDictionaryWithDefault
  3
ObjectDBX Classes
 90
        0
 91
        4
280
     0
281
     0
  0
CLASS
  1
VISUALSTYLE
  2
AcDbVisualStyle
  3
ObjectDBX Classes
 90
     4095
 91
        4
280
     0
281
     0
  0
CLASS
  1
MATERIAL
  2
AcDbMaterial
  3
ObjectDBX Classes
 90
     1153
 91
        4
280
     0
281
     0
  0
ENDSEC
  0
SECTION
  2
TABLES
  0
TABLE
  2
VPORT
  5
8
330
0
100
AcDbSymbolTable
 70
     1
  0
VPORT
  5
29
330
8
100
AcDbSymbolTableRecord
100
AcDbViewportTableRecord
  2
*Active
 70
     0
 10
0.0
 20
0.0
 11
1.0
 21
1.0
 12
297.0
 22
420.5
 13
0.0
 23
0.0
 14
10.0
 24
10.0
 15
10.0
 25
10.0
 16
0.0
 26
0.0
 36
1.0
 17
0.0
 27
0.0
 37
0.0
 40
841.0
 41
0.7063020214
 42
50.0
 43
0.0
 44
0.0
 50
0.0
 51
0.0
 71
     0
 72
  2000
 73
     1
 74
     3
 75
     0
 76
     0
 77
     0
 78
     0
281
     0
 65
     1
110
0.0
120
0.0
130
0.0
111
1.0
121
0.0
131
0.0
112
0.0
122
1.0
132
0.0
 79
     0
146
0.0
 60
     3
 61
     5
292
     1
282
     1
141
0.0
142
0.0
 63
   250
  0
ENDTAB
  0
TABLE
  2
LTYPE
  5
5
330
0
100
AcDbSymbolTable
 70
     6
  0
LTYPE
  5
14
330
5
100
AcDbSymbolTableRecord
100
AcDbLinetypeTableRecord
  2
ByBlock
 70
     0
  3

 72
    65
 73
     0
 40
0.0
  0
LTYPE
  5
15
330
5
100
AcDbSymbolTableRecord
100
AcDbLinetypeTableRecord
  2
ByLayer
 70
     0
  3

 72
    65
 73
     0
 40
0.0
  0
LTYPE
  5
16
330
5
100
AcDbSymbolTableRecord
100
AcDbLinetypeTableRecord
  2
Continuous
 70
     0
  3
Solid line
 72
    65
 73
     0
 40
0.0
  0
LTYPE
  5
3F
330
5
100
AcDbSymbolTableRecord
100
AcDbLinetypeTableRecord
  2
HIDDEN
 70
     0
  3
Hidden __ __ __ __ __ __ __ __ __ __ __ __ __ __
 72
    65
 73
     2
 40
1.905
 49
1.27
 74
     0
 49
-0.635
 74
     0
  0
LTYPE
  5
40
330
5
100
AcDbSymbolTableRecord
100
AcDbLinetypeTableRecord
  2
PHANTOM
 70
     0
  3
Phantom ______  __  __  ______  __  __  ______
 72
    65
 73
     6
 40
12.7
 49
6.35
 74
     0
 49
-1.27
 74
     0
 49
1.27
 74
     0
 49
-1.27
 74
     0
 49
1.27
 74
     0
 49
-1.27
 74
     0
  0
LTYPE
  5
41
330
5
100
AcDbSymbolTableRecord
100
AcDbLinetypeTableRecord
  2
CENTER
 70
     0
  3
Center ____ _ ____ _ ____ _ ____ _ ____ _ ____
 72
    65
 73
     4
 40
10.16
 49
6.35
 74
     0
 49
-1.27
 74
     0
 49
1.27
 74
     0
 49
-1.27
 74
     0
  0
LTYPE
  5
42
330
5
100
AcDbSymbolTableRecord
100
AcDbLinetypeTableRecord
  2
CENTERX2
 70
     0
  3
Center (2x) ________  __  ________  __  _____
 72
    65
 73
     4
 40
20.32
 49
12.7
 74
     0
 49
-2.54
 74
     0
 49
2.54
 74
     0
 49
-2.54
 74
     0
  0
LTYPE
  5
43
330
5
100
AcDbSymbolTableRecord
100
AcDbLinetypeTableRecord
  2
DOT2
 70
     0
  3
Dot (.5x) ........................................
 72
    65
 73
     2
 40
0.635
 49
0.0
 74
     0
 49
-0.635
 74
     0
  0
ENDTAB
  0
TABLE
  2
LAYER
  5
2
330
0
100
AcDbSymbolTable
 70
     1
  0
LAYER
  5
10
330
2
100
AcDbSymbolTableRecord
100
AcDbLayerTableRecord
  2
0
 70
     0
 62
     7
  6
Continuous
370
    -3
390
F
347
3E
  0
ENDTAB
  0
TABLE
  2
STYLE
  5
3
330
0
100
AcDbSymbolTable
 70
     3
  0
STYLE
  5
11
330
3
100
AcDbSymbolTableRecord
100
AcDbTextStyleTableRecord
  2
Standard
 70
     0
 40
0.0
 41
1.0
 50
0.0
 71
     0
 42
2.5
  3
txt
  4

  0
STYLE
  5
47
330
3
100
AcDbSymbolTableRecord
100
AcDbTextStyleTableRecord
  2
SLDTEXTSTYLE0
 70
     0
 40
0.0
 41
0.96
 50
0.0
 71
     0
 42
0.2
  3
ISOCP3
  4

  0
STYLE
  5
5E
330
3
100
AcDbSymbolTableRecord
100
AcDbTextStyleTableRecord
  2
SLDTEXTSTYLE1
 70
     0
 40
0.0
 41
0.605
 50
0.0
 71
     0
 42
0.2
  3
TXT
  4

  0
ENDTAB
  0
TABLE
  2
VIEW
  5
6
330
0
100
AcDbSymbolTable
 70
     0
  0
ENDTAB
  0
TABLE
  2
UCS
  5
7
330
0
100
AcDbSymbolTable
 70
     0
  0
ENDTAB
  0
TABLE
  2
APPID
  5
9
330
0
100
AcDbSymbolTable
 70
     1
  0
APPID
  5
12
330
9
100
AcDbSymbolTableRecord
100
AcDbRegAppTableRecord
  2
ACAD
 70
     0
  0
ENDTAB
  0
TABLE
  2
DIMSTYLE
  5
A
330
0
100
AcDbSymbolTable
 70
     2
100
AcDbDimStyleTable
  0
DIMSTYLE
105
27
330
A
100
AcDbSymbolTableRecord
100
AcDbDimStyleTableRecord
  2
ISO-25
 70
     0
 41
2.5
 42
0.625
 43
3.75
 44
1.25
 73
     0
 74
     0
 77
     1
 78
     8
140
2.5
141
2.5
143
0.0393700787
147
0.625
171
     3
172
     1
178
     0
271
     2
272
     2
274
     3
278
    44
283
     0
284
     8
340
11
  0
DIMSTYLE
105
48
102
{ACAD_REACTORS
330
46
330
53
102
}
330
A
100
AcDbSymbolTableRecord
100
AcDbDimStyleTableRecord
  2
SLDDIMSTYLE0
 70
     0
 41
2.5
 44
0.0
 45
0.000000001
 73
     0
 74
     0
 77
     1
 78
    12
 79
     3
140
6.0
147
1.5
173
     1
178
     0
271
     2
272
     2
276
     2
284
    12
340
47
  0
ENDTAB
  0
TABLE
  2
BLOCK_RECORD
  5
1
330
0
100
AcDbSymbolTable
 70
     3
  0
BLOCK_RECORD
  5
1F
330
1
100
AcDbSymbolTableRecord
100
AcDbBlockTableRecord
  2
*Model_Space
340
22
 70
     0
280
     1
281
     0
  0
BLOCK_RECORD
  5
1B
330
1
100
AcDbSymbolTableRecord
100
AcDbBlockTableRecord
  2
*Paper_Space
340
1E
 70
     0
280
     1
281
     0
  0
BLOCK_RECORD
  5
23
330
1
100
AcDbSymbolTableRecord
100
AcDbBlockTableRecord
  2
*Paper_Space0
340
26
 70
     0
280
     1
281
     0
  0
BLOCK_RECORD
  5
49
330
1
100
AcDbSymbolTableRecord
100
AcDbBlockTableRecord
  2
*D1
340
0
 70
     0
280
     1
281
     0
  0
BLOCK_RECORD
  5
54
330
1
100
AcDbSymbolTableRecord
100
AcDbBlockTableRecord
  2
*D2
340
0
 70
     0
280
     1
281
     0
  0
ENDTAB
  0
ENDSEC
  0
SECTION
  2
BLOCKS
  0
BLOCK
  5
20
330
1F
100
AcDbEntity
  8
0
100
AcDbBlockBegin
  2
*Model_Space
 70
     0
 10
0.0
 20
0.0
 30
0.0
  3
*Model_Space
  1

  0
ENDBLK
  5
21
330
1F
100
AcDbEntity
  8
0
100
AcDbBlockEnd
  0
BLOCK
  5
1C
330
1B
100
AcDbEntity
 67
     1
  8
0
100
AcDbBlockBegin
  2
*Paper_Space
 70
     0
 10
0.0
 20
0.0
 30
0.0
  3
*Paper_Space
  1

  0
ENDBLK
  5
1D
330
1B
100
AcDbEntity
 67
     1
  8
0
100
AcDbBlockEnd
  0
BLOCK
  5
24
330
23
100
AcDbEntity
  8
0
100
AcDbBlockBegin
  2
*Paper_Space0
 70
     0
 10
0.0
 20
0.0
 30
0.0
  3
*Paper_Space0
  1

  0
ENDBLK
  5
25
330
23
100
AcDbEntity
  8
0
100
AcDbBlockEnd
  0
BLOCK
  5
4A
330
49
100
AcDbEntity
  8
0
100
AcDbBlockBegin
  2
*D1
 70
     1
 10
0.0
 20
0.0
 30
0.0
  3
*D1
  1

  0
SOLID
  5
4C
330
49
100
AcDbEntity
  8
0
  6
Continuous
 62
     7
370
     0
100
AcDbTrace
 10
42.7614395004
 20
152.0299240879
 30
0.0
 11
42.4614395004
 21
149.5299240879
 31
0.0
 12
43.0614395004
 22
149.5299240879
 32
0.0
 13
43.0614395004
 23
149.5299240879
 33
0.0
  0
SOLID
  5
4D
330
49
100
AcDbEntity
  8
0
  6
Continuous
 62
     7
370
     0
100
AcDbTrace
 10
42.7614395004
 20
52.0299240879
 30
0.0
 11
43.0614395004
 21
54.5299240879
 31
0.0
 12
42.4614395004
 22
54.5299240879
 32
0.0
 13
42.4614395004
 23
54.5299240879
 33
0.0
  0
LINE
  5
4E
330
49
100
AcDbEntity
  8
0
  6
Continuous
 62
     7
370
     0
100
AcDbLine
 10
56.6850079902
 20
152.0299240879
 30
0.0
 11
41.7614395004
 21
152.0299240879
 31
0.0
  0
LINE
  5
4F
330
49
100
AcDbEntity
  8
0
  6
Continuous
 62
     7
370
     0
100
AcDbLine
 10
56.6850079902
 20
52.0299240879
 30
0.0
 11
41.7614395004
 21
52.0299240879
 31
0.0
  0
LINE
  5
50
330
49
100
AcDbEntity
  8
0
  6
Continuous
 62
     7
370
     0
100
AcDbLine
 10
42.7614395004
 20
152.0299240879
 30
0.0
 11
42.7614395004
 21
52.0299240879
 31
0.0
  0
MTEXT
  5
51
330
49
100
AcDbEntity
  8
0
  6
Continuous
 62
     7
370
     0
100
AcDbMText
 10
35.0270332946
 20
91.6722208134
 30
0.1
 40
6.0
 41
0.0
 46
0.0
 71
     1
 72
     1
  1
100
  7
SLDTEXTSTYLE0
 11
-7.044195017643634E-15
 21
1.0
 31
0.0
 73
     1
 44
1.0
  0
MTEXT
  5
52
330
49
100
AcDbEntity
  8
0
  6
Continuous
 62
     7
370
     0
100
AcDbMText
 10
35.0270332946
 20
108.4388881795
 30
0.1
 40
6.0
 41
0.0
 46
0.0
 71
     1
 72
     1
  1
mm
  7
SLDTEXTSTYLE0
 11
-7.044195017643634E-15
 21
1.0
 31
0.0
 73
     1
 44
1.0
  0
ENDBLK
  5
4B
330
49
100
AcDbEntity
  8
0
100
AcDbBlockEnd
  0
BLOCK
  5
55
330
54
100
AcDbEntity
  8
0
100
AcDbBlockBegin
  2
*D2
 70
     1
 10
0.0
 20
0.0
 30
0.0
  3
*D2
  1

  0
SOLID
  5
57
330
54
100
AcDbEntity
  8
0
  6
Continuous
 62
     7
370
     0
100
AcDbTrace
 10
56.6850079902
 20
38.4602342313
 30
0.0
 11
59.1850079902
 21
38.1602342313
 31
0.0
 12
59.1850079902
 22
38.7602342313
 32
0.0
 13
59.1850079902
 23
38.7602342313
 33
0.0
  0
SOLID
  5
58
330
54
100
AcDbEntity
  8
0
  6
Continuous
 62
     7
370
     0
100
AcDbTrace
 10
156.6850079902
 20
38.4602342313
 30
0.0
 11
154.1850079902
 21
38.7602342313
 31
0.0
 12
154.1850079902
 22
38.1602342313
 32
0.0
 13
154.1850079902
 23
38.1602342313
 33
0.0
  0
LINE
  5
59
330
54
100
AcDbEntity
  8
0
  6
Continuous
 62
     7
370
     0
100
AcDbLine
 10
56.6850079902
 20
52.0299240879
 30
0.0
 11
56.6850079902
 21
37.4602342313
 31
0.0
  0
LINE
  5
5A
330
54
100
AcDbEntity
  8
0
  6
Continuous
 62
     7
370
     0
100
AcDbLine
 10
156.6850079902
 20
52.0299240879
 30
0.0
 11
156.6850079902
 21
37.4602342313
 31
0.0
  0
LINE
  5
5B
330
54
100
AcDbEntity
  8
0
  6
Continuous
 62
     7
370
     0
100
AcDbLine
 10
56.6850079902
 20
38.4602342313
 30
0.0
 11
156.6850079902
 21
38.4602342313
 31
0.0
  0
MTEXT
  5
5C
330
54
100
AcDbEntity
  8
0
  6
Continuous
 62
     7
370
     0
100
AcDbMText
 10
91.2668151533
 20
46.1946404371
 30
0.1
 40
6.0
 41
0.0
 46
0.0
 71
     1
 72
     1
  1
100
  7
SLDTEXTSTYLE0
 73
     1
 44
1.0
  0
MTEXT
  5
5D
330
54
100
AcDbEntity
  8
0
  6
Continuous
 62
     7
370
     0
100
AcDbMText
 10
108.0334825193
 20
46.1946404371
 30
0.1
 40
6.0
 41
0.0
 46
0.0
 71
     1
 72
     1
  1
mm
  7
SLDTEXTSTYLE0
 73
     1
 44
1.0
  0
ENDBLK
  5
56
330
54
100
AcDbEntity
  8
0
100
AcDbBlockEnd
  0
ENDSEC
  0
SECTION
  2
ENTITIES
  0
LINE
  5
44
330
1F
100
AcDbEntity
  8
0
  6
Continuous
 62
     7
370
     0
100
AcDbLine
 10
56.6850079902
 20
152.0299240879
 30
0.0
 11
56.6850079902
 21
52.0299240879
 31
0.0
  0
LINE
  5
45
330
1F
100
AcDbEntity
  8
0
  6
Continuous
 62
     7
370
     0
100
AcDbLine
 10
56.6850079902
 20
52.0299240879
 30
0.0
 11
156.6850079902
 21
52.0299240879
 31
0.0
  0
DIMENSION
  5
46
330
1F
100
AcDbEntity
  8
0
  6
Continuous
 62
     7
370
     0
100
AcDbDimension
280
     0
  2
*D1
 10
42.7614395004
 20
52.0299240879
 30
0.0
 11
42.7614395004
 21
105.4472211621
 31
0.0
 70
   160
  1
<>mm
 71
     2
 42
-1.0
 73
     0
 74
     0
 75
     0
  3
SLDDIMSTYLE0
100
AcDbAlignedDimension
 13
56.6850079902
 23
152.0299240879
 33
0.0
 14
56.6850079902
 24
52.0299240879
 34
0.0
 50
90.0
100
AcDbRotatedDimension
  0
DIMENSION
  5
53
330
1F
100
AcDbEntity
  8
0
  6
Continuous
 62
     7
370
     0
100
AcDbDimension
280
     0
  2
*D2
 10
156.6850079902
 20
38.4602342313
 30
0.0
 11
105.0418155019
 21
38.4602342313
 31
0.0
 70
   160
  1
<>mm
 71
     2
 42
-1.0
 73
     0
 74
     0
 75
     0
  3
SLDDIMSTYLE0
100
AcDbAlignedDimension
 13
56.6850079902
 23
52.0299240879
 33
0.0
 14
156.6850079902
 24
52.0299240879
 34
0.0
100
AcDbRotatedDimension
  0
MTEXT
  5
5F
330
1F
100
AcDbEntity
  8
0
  6
Continuous
 62
     7
370
     0
100
AcDbMText
 10
270.1271774126
 20
46.9989934313
 30
0.0
 40
10.0
 41
0.0
 46
0.0
 71
     1
 72
     1
  1
33 930 05 75
  7
SLDTEXTSTYLE1
 73
     1
 44
1.0
  0
MTEXT
  5
60
330
1F
100
AcDbEntity
  8
0
  6
Continuous
 62
     7
370
     0
100
AcDbMText
 10
412.8252631579
 20
48.4342449499
 30
0.0
 40
10.0
 41
0.0
 46
0.0
 71
     1
 72
     1
  1
KLUDI GmbH & Co KG
  7
SLDTEXTSTYLE1
 73
     1
 44
1.0
  0
LINE
  5
61
330
1F
100
AcDbEntity
  8
0
  6
Continuous
 62
     7
370
    15
100
AcDbLine
 10
196.4382589708
 20
423.84089848
 30
0.0
 11
196.4382589708
 21
522.8484607513
 31
0.0
  0
LINE
  5
62
330
1F
100
AcDbEntity
  8
0
  6
Continuous
 62
     7
370
    15
100
AcDbLine
 10
172.3662589708
 20
522.8484607513
 30
0.0
 11
172.3662589708
 21
423.8375666155
 31
0.0
  0
LINE
  5
63
330
1F
100
AcDbEntity
  8
0
  6
Continuous
 62
     7
370
    15
100
AcDbLine
 10
174.8737589708
 20
509.5300343642
 30
0.0
 11
174.8737589708
 21
501.8283717029
 31
0.0
  0
LINE
  5
64
330
1F
100
AcDbEntity
  8
0
  6
Continuous
 62
     7
370
    15
100
AcDbLine
 10
193.9307589708
 20
501.8283717029
 30
0.0
 11
193.9307589708
 21
509.5158769387
 31
0.0
  0
SPLINE
  5
65
330
1F
100
AcDbEntity
  8
0
  6
Continuous
 62
     7
370
    15
100
AcDbSpline
210
0.0
220
0.0
230
1.0
 70
     8
 71
     3
 72
     9
 73
     5
 74
     0
 42
0.00000001
 43
0.00000001
 40
0.0
 40
0.0
 40
0.0
 40
0.0
 40
0.5080814542460342
 40
1.0
 40
1.0
 40
1.0
 40
1.0
 10
185.843961063841
 20
547.3963926353438
 30
0.0
 10
185.6099369777668
 20
547.4878524283866
 30
0.0
 10
185.1493334975209
 20
547.6678625277093
 30
0.0
 10
184.648585967535
 20
547.6882988079813
 30
0.0
 10
184.4022589707944
 20
547.6983517932531
 30
0.0
  0
SPLINE
  5
66
330
1F
100
AcDbEntity
  8
0
  6
Continuous
 62
     7
370
    15
100
AcDbSpline
210
0.0
220
0.0
230
1.0
 70
     8
 71
     3
 72
     9
 73
     5
 74
     0
 42
0.00000001
 43
0.00000001
 40
0.0
 40
0.0
 40
0.0
 40
0.0
 40
0.4248533697257419
 40
1.0
 40
1.0
 40
1.0
 40
1.0
 10
184.4022589707944
 20
547.6983517932531
 30
0.0
 10
184.2205538562693
 20
547.6932186609921
 30
0.0
 10
183.7928648523141
 20
547.6811365342471
 30
0.0
 10
183.39046489212
 20
547.5460811910901
 30
0.0
 10
183.1590259109919
 20
547.4684045655729
 30
0.0
  0
LINE
  5
67
330
1F
100
AcDbEntity
  8
0
  6
Continuous
 62
     7
370
    15
100
AcDbLine
 10
187.9127589708
 20
533.0135494335
 30
0.0
 11
187.9127589708
 21
544.5400624863
 31
0.0
  0
LINE
  5
68
330
1F
100
AcDbEntity
  8
0
  6
Continuous
 62
     7
370
    15
100
AcDbLine
 10
180.8917589708
 20
544.5400624863
 30
0.0
 11
180.8917589708
 21
533.0135494335
 31
0.0
  0
LINE
  5
69
330
1F
100
AcDbEntity
  8
0
  6
Continuous
 62
     7
370
    15
100
AcDbLine
 10
206.9697589708
 20
489.1589284755
 30
0.0
 11
206.9697589708
 21
517.5058967524
 31
0.0
  0
LINE
  5
6A
330
1F
100
AcDbEntity
  8
0
  6
Continuous
 62
     7
370
    15
100
AcDbLine
 10
161.8347589708
 20
517.5058967524
 30
0.0
 11
161.8347589708
 21
489.1589118947
 31
0.0
  0
ARC
  5
6B
330
1F
100
AcDbEntity
  8
0
  6
Continuous
 62
     7
370
    15
100
AcDbCircle
 10
162.3763789708
 20
517.5058967524
 30
0.0
 40
0.5416199999999947
100
AcDbArc
 50
90.0
 51
180.0
  0
ARC
  5
6C
330
1F
100
AcDbEntity
  8
0
  6
Continuous
 62
     7
370
    15
100
AcDbCircle
 10
206.4281389708
 20
517.5058967524
 30
0.0
 40
0.5416199999999947
100
AcDbArc
 50
0.0
 51
90.0
  0
LINE
  5
6D
330
1F
100
AcDbEntity
  8
0
  6
Continuous
 62
     7
370
    15
100
AcDbLine
 10
206.9697589708
 20
356.1633167524
 30
0.0
 11
206.4682589708
 21
405.8118167524
 31
0.0
  0
LINE
  5
6E
330
1F
100
AcDbEntity
  8
0
  6
Continuous
 62
     7
370
    15
100
AcDbLine
 10
162.3362589708
 20
405.8118167524
 30
0.0
 11
161.8347589708
 21
356.1633167524
 31
0.0
  0
ARC
  5
6F
330
1F
100
AcDbEntity
  8
0
  6
Continuous
 62
     7
370
    15
100
AcDbCircle
 10
184.4023820037
 20
483.8186030552
 30
0.0
 40
22.06599999999998
100
AcDbArc
 50
166.5248107674
 51
180.1875162307
  0
ARC
  5
70
330
1F
100
AcDbEntity
  8
0
  6
Continuous
 62
     7
370
    15
100
AcDbCircle
 10
184.4023820037
 20
483.8186030552
 30
0.0
 40
22.06600000000001
100
AcDbArc
 50
0.0
 51
13.4751892326
  0
LINE
  5
71
330
1F
100
AcDbEntity
  8
0
  6
Continuous
 62
     7
370
    15
100
AcDbLine
 10
162.3362589708
 20
483.7449167524
 30
0.0
 11
162.3362589708
 21
481.7389167524
 31
0.0
  0
LINE
  5
72
330
1F
100
AcDbEntity
  8
0
  6
Continuous
 62
     7
370
    15
100
AcDbLine
 10
206.4682589708
 20
481.7389167524
 30
0.0
 11
206.4682589708
 21
483.7449167524
 31
0.0
  0
LINE
  5
73
330
1F
100
AcDbEntity
  8
0
  6
Continuous
 62
     7
370
    15
100
AcDbLine
 10
162.3262289708
 20
445.6309167524
 30
0.0
 11
162.3262289708
 21
406.3133167524
 31
0.0
  0
LINE
  5
74
330
1F
100
AcDbEntity
  8
0
  6
Continuous
 62
     7
370
    15
100
AcDbLine
 10
206.4782889708
 20
406.3133167524
 30
0.0
 11
206.4782889708
 21
445.6309167524
 31
0.0
  0
LINE
  5
75
330
1F
100
AcDbEntity
  8
0
  6
Continuous
 62
     7
370
    15
100
AcDbLine
 10
206.4682589708
 20
446.6339167524
 30
0.0
 11
206.4682589708
 21
481.7389167524
 31
0.0
  0
LINE
  5
76
330
1F
100
AcDbEntity
  8
0
  6
Continuous
 62
     7
370
    15
100
AcDbLine
 10
162.3362589708
 20
481.7389167524
 30
0.0
 11
162.3362589708
 21
446.6339167524
 31
0.0
  0
LINE
  5
77
330
1F
100
AcDbEntity
  8
0
  6
Continuous
 62
     7
370
    15
100
AcDbLine
 10
205.4652589708
 20
405.8118167524
 30
0.0
 11
205.4652589708
 21
406.3133167524
 31
0.0
  0
LINE
  5
78
330
1F
100
AcDbEntity
  8
0
  6
Continuous
 62
     7
370
    15
100
AcDbLine
 10
163.3392589708
 20
406.3133167524
 30
0.0
 11
163.3392589708
 21
405.8118167524
 31
0.0
  0
LINE
  5
79
330
1F
100
AcDbEntity
  8
0
  6
Continuous
 62
     7
370
    15
100
AcDbLine
 10
205.4652589708
 20
445.6309167524
 30
0.0
 11
205.4652589708
 21
446.6339167524
 31
0.0
  0
LINE
  5
7A
330
1F
100
AcDbEntity
  8
0
  6
Continuous
 62
     7
370
    15
100
AcDbLine
 10
163.3392589708
 20
446.6339167524
 30
0.0
 11
163.3392589708
 21
445.6309167524
 31
0.0
  0
LWPOLYLINE
  5
7B
330
1F
100
AcDbEntity
  8
0
  6
Continuous
 62
     7
370
    15
100
AcDbPolyline
 90
       11
 70
   128
 43
0.0
 10
184.4022589708
 20
533.4756179789
 10
186.3329691472
 20
533.3379990839
 10
188.2136749442
 20
532.928706656
 10
189.9956670695
 20
532.2583411541
 10
191.6327928632
 20
531.3442646925
 10
193.082651627
 20
530.2101513714
 10
194.3076927807
 20
528.8853741303
 10
195.2761884018
 20
527.4042440036
 10
195.9630549624
 20
525.8051214838
 10
196.3505029794
 20
524.129423004
 10
196.4382589708
 20
522.8484607513
  0
LWPOLYLINE
  5
7C
330
1F
100
AcDbEntity
  8
0
  6
Continuous
 62
     7
370
    15
100
AcDbPolyline
 90
       11
 70
   128
 43
0.0
 10
172.3662589708
 20
522.8484607513
 10
172.4540149621
 20
524.129423004
 10
172.8414629792
 20
525.8051214838
 10
173.5283295398
 20
527.4042440036
 10
174.4968251609
 20
528.8853741303
 10
175.7218663146
 20
530.2101513714
 10
177.1717250784
 20
531.3442646925
 10
178.8088508721
 20
532.2583411541
 10
180.5908429974
 20
532.928706656
 10
182.4715487944
 20
533.3379990839
 10
184.4022589708
 20
533.4756179789
  0
LWPOLYLINE
  5
7D
330
1F
100
AcDbEntity
  8
0
  6
Continuous
 62
     7
370
    15
100
AcDbPolyline
 90
       28
 70
   128
 43
0.0
 10
193.9183495514
 20
509.5157582334
 10
193.9037317374
 20
509.8359182509
 10
193.7640445041
 20
510.1767728773
 10
193.439758397
 20
510.4215082166
 10
192.9543881518
 20
510.5174506221
 10
192.5376071135
 20
510.5196631225
 10
192.054411248
 20
510.4854173321
 10
191.4970323238
 20
510.4242540416
 10
190.8713859867
 20
510.3454879716
 10
190.2043403921
 20
510.2602909286
 10
189.4723965496
 20
510.1719813869
 10
188.6591909286
 20
510.0845706283
 10
187.7788793148
 20
510.0054072568
 10
186.5622981458
 20
509.9250140479
 10
185.2493330297
 20
509.8775731239
 10
183.9449548139
 20
509.8714518952
 10
182.6137467267
 20
509.9074087353
 10
181.4236654539
 20
509.9753145105
 10
180.2796624961
 20
510.071403387
 10
179.1493039865
 20
510.1932960062
 10
178.1194670512
 20
510.321506233
 10
177.0684107648
 20
510.4522010525
 10
176.186898369
 20
510.5222971226
 10
175.6003251272
 20
510.4877209924
 10
175.1637740288
 20
510.3063656537
 10
174.9507011406
 20
510.0102791864
 10
174.8737589708
 20
509.5300343642
 10
174.8737589708
 20
509.5300343642
  0
SPLINE
  5
7E
330
1F
100
AcDbEntity
  8
0
  6
Continuous
 62
     7
370
    15
100
AcDbSpline
210
0.0
220
0.0
230
1.0
 70
     8
 71
     3
 72
    22
 73
    18
 74
     0
 42
0.00000001
 43
0.00000001
 40
0.0
 40
0.0
 40
0.0
 40
0.0
 40
0.0516341857160634
 40
0.1036287823421406
 40
0.1567576798637384
 40
0.2102774956233054
 40
0.2619113280774238
 40
0.3669350069605231
 40
0.4204585524748288
 40
0.4718777991819178
 40
0.5766160971046619
 40
0.6301140520879461
 40
0.6788190138619036
 40
0.7780912194398458
 40
0.8287994759895468
 40
0.9211899625345175
 40
1.0
 40
1.0
 40
1.0
 40
1.0
 10
184.4022589707934
 20
412.1018020779844
 30
0.0
 10
184.7344251255722
 20
412.1084971190546
 30
0.0
 10
185.4010759825118
 20
412.1219339331383
 30
0.0
 10
186.4025343569372
 20
412.2316496284595
 30
0.0
 10
187.4017205029063
 20
412.4097407405807
 30
0.0
 10
188.3770046483434
 20
412.6615782238072
 30
0.0
 10
189.6338454307651
 20
413.0898005485791
 30
0.0
 10
190.8239765122078
 20
413.659245209261
 30
0.0
 10
191.9150694776379
 20
414.3653166755855
 30
0.0
 10
192.9336997330784
 20
415.1599203258747
 30
0.0
 10
193.8369524881205
 20
416.0874969374111
 30
0.0
 10
194.5882657911335
 20
417.1209618301226
 30
0.0
 10
195.2274445051173
 20
418.1958623674234
 30
0.0
 10
195.7219878129373
 20
419.3477412180671
 30
0.0
 10
196.1441917086671
 20
420.826078313038
 30
0.0
 10
196.3977526377373
 20
422.2313880153794
 30
0.0
 10
196.4148965458148
 20
423.333960652116
 30
0.0
 10
196.422788531226
 20
423.8415162878938
 30
0.0
  0
SPLINE
  5
7F
330
1F
100
AcDbEntity
  8
0
  6
Continuous
 62
     7
370
    15
100
AcDbSpline
210
0.0
220
0.0
230
1.0
 70
     8
 71
     3
 72
    22
 73
    18
 74
     0
 42
0.00000001
 43
0.00000001
 40
0.0
 40
0.0
 40
0.0
 40
0.0
 40
0.0343089983105152
 40
0.1342527990352638
 40
0.1851397616945776
 40
0.2343901490146132
 40
0.3348200135920582
 40
0.3861437730051283
 40
0.5256760446131878
 40
0.5732895206608202
 40
0.6220502413245582
 40
0.7210702325571232
 40
0.7714246684029694
 40
0.8273722045356837
 40
0.8837758672370711
 40
0.9416339883969979
 40
1.0
 40
1.0
 40
1.0
 40
1.0
 10
172.3724826864371
 20
423.8376422903336
 30
0.0
 10
172.3729853840223
 20
423.6170239881117
 30
0.0
 10
172.3749524644153
 20
422.7537337129594
 30
0.0
 10
172.5164197294896
 20
421.5671689822494
 30
0.0
 10
172.7952431922938
 20
420.3227077210224
 30
0.0
 10
173.1727628760443
 20
419.1097778614857
 30
0.0
 10
173.6974936919761
 20
417.9587277937124
 30
0.0
 10
174.6605613834709
 20
416.4338577000899
 30
0.0
 10
175.6556211172478
 20
415.337818426988
 30
0.0
 10
176.7941507347341
 20
414.4366036785193
 30
0.0
 10
177.7988422679387
 20
413.7660659696163
 30
0.0
 10
178.9056658131883
 20
413.2064457244267
 30
0.0
 10
180.118798024834
 20
412.757516080477
 30
0.0
 10
181.11246238042
 20
412.4749109419974
 30
0.0
 10
182.1788422397728
 20
412.2631422760039
 30
0.0
 10
183.2793730191817
 20
412.1273453284947
 30
0.0
 10
184.026874811976
 20
412.1103412636359
 30
0.0
 10
184.4022589707934
 20
412.1018020779844
 30
0.0
  0
LWPOLYLINE
  5
80
330
1F
100
AcDbEntity
  8
0
  6
Continuous
 62
     7
370
    15
100
AcDbPolyline
 90
       36
 70
   128
 43
0.0
 10
174.8737589708
 20
501.8283717029
 10
175.0268858858
 20
502.6271209357
 10
175.4813450059
 20
503.4001977108
 10
176.222529641
 20
504.1227547048
 10
177.226617507
 20
504.7715683412
 10
178.4613363938
 20
505.325785216
 10
179.8870014204
 20
505.7675923429
 10
181.4577905399
 20
506.0827896772
 10
183.1232172974
 20
506.2612465172
 10
184.8297535068
 20
506.2972271133
 10
186.52254969
 20
506.1895750196
 10
188.1471979849
 20
505.9417502628
 10
189.6514808586
 20
505.5617181346
 10
190.9870494217
 20
505.0616931803
 10
192.1109774017
 20
504.4577466134
 10
192.9871408286
 20
503.7692897733
 10
193.5873790889
 20
503.0184502295
 10
193.8924000311
 20
502.2293605826
 10
193.8924000311
 20
501.4273828233
 10
193.5873790889
 20
500.6382931764
 10
192.9871408286
 20
499.8874536326
 10
192.1109774017
 20
499.1989967925
 10
190.9870494217
 20
498.5950502256
 10
189.6514808586
 20
498.0950252713
 10
188.1471979849
 20
497.7149931431
 10
186.52254969
 20
497.4671683863
 10
184.8297535068
 20
497.3595162926
 10
183.1232172974
 20
497.3954968887
 10
181.4577905399
 20
497.5739537287
 10
179.8870014204
 20
497.889151063
 10
178.4613363938
 20
498.3309581898
 10
177.226617507
 20
498.8851750647
 10
176.222529641
 20
499.5339887011
 10
175.4813450059
 20
500.2565456951
 10
175.0268858858
 20
501.0296224702
 10
174.8737589708
 20
501.8283717029
  0
LWPOLYLINE
  5
81
330
1F
100
AcDbEntity
  8
0
  6
Continuous
 62
     7
370
    15
100
AcDbPolyline
 90
       20
 70
   128
 43
0.0
 10
185.8850716974
 20
547.3495674115
 10
186.3797940346
 20
547.1010618837
 10
187.14687839
 20
546.472623698
 10
187.6700912654
 20
545.6724689677
 10
187.9029429008
 20
544.7716949521
 10
187.8247434065
 20
543.8503393755
 10
187.4424411508
 20
542.990268724
 10
186.7900053667
 20
542.2679040494
 10
185.925407837
 20
541.7474306232
 10
184.9254718462
 20
541.4750947933
 10
183.8790460954
 20
541.4750947933
 10
182.8791101046
 20
541.7474306232
 10
182.0145125748
 20
542.2679040494
 10
181.3620767908
 20
542.990268724
 10
180.9797745351
 20
543.8503393755
 10
180.9015750408
 20
544.7716949521
 10
181.1344266762
 20
545.6724689677
 10
181.6576395516
 20
546.472623698
 10
182.424723907
 20
547.1010618837
 10
183.1247068339
 20
547.4271081544
  0
SPLINE
  5
82
330
1F
100
AcDbEntity
  8
0
  6
Continuous
 62
     7
370
    15
100
AcDbSpline
210
0.0
220
0.0
230
1.0
 70
     8
 71
     3
 72
    10
 73
     6
 74
     0
 42
0.00000001
 43
0.00000001
 40
0.0
 40
0.0
 40
0.0
 40
0.0
 40
0.1896226070059881
 40
0.5960839714157049
 40
1.0
 40
1.0
 40
1.0
 40
1.0
 10
161.8520227876666
 20
489.158911894663
 30
0.0
 10
161.8485227823771
 20
489.1331024549785
 30
0.0
 10
161.8375204178076
 20
489.0519697590934
 30
0.0
 10
161.9607455046074
 20
488.980058077978
 30
0.0
 10
162.1614010273604
 20
488.9670168737758
 30
0.0
 10
162.2614136666129
 20
488.9605167524065
 30
0.0
  0
SPLINE
  5
83
330
1F
100
AcDbEntity
  8
0
  6
Continuous
 62
     7
370
    15
100
AcDbSpline
210
0.0
220
0.0
230
1.0
 70
     8
 71
     3
 72
    10
 73
     6
 74
     0
 42
0.00000001
 43
0.00000001
 40
0.0
 40
0.0
 40
0.0
 40
0.0
 40
0.3920931067245067
 40
0.7869605347462273
 40
1.0
 40
1.0
 40
1.0
 40
1.0
 10
206.5431042749741
 20
488.9605167524065
 30
0.0
 10
206.6407056022142
 20
488.9665969069582
 30
0.0
 10
206.8365988514439
 20
488.9788002372264
 30
0.0
 10
206.9632536732683
 20
489.0491558194222
 30
0.0
 10
206.9552666263115
 20
489.1304419517354
 30
0.0
 10
206.9524675854856
 20
489.1589284754976
 30
0.0
  0
LINE
  5
84
330
1F
100
AcDbEntity
  8
0
  6
Continuous
 62
     7
370
    15
100
AcDbLine
 10
162.2614136666
 20
488.9605167524
 30
0.0
 11
172.3662589708
 21
488.9605167524
 31
0.0
  0
LINE
  5
85
330
1F
100
AcDbEntity
  8
0
  6
Continuous
 62
     7
370
    15
100
AcDbLine
 10
196.4382589708
 20
488.9605167524
 30
0.0
 11
206.543104275
 21
488.9605167524
 31
0.0
  0
LINE
  5
86
330
1F
100
AcDbEntity
  8
0
  6
Continuous
 62
     7
370
    15
100
AcDbLine
 10
162.3763789708
 20
518.0475167524
 30
0.0
 11
172.3662589708
 21
518.0475167524
 31
0.0
  0
LINE
  5
87
330
1F
100
AcDbEntity
  8
0
  6
Continuous
 62
     7
370
    15
100
AcDbLine
 10
196.4382589708
 20
518.0475167524
 30
0.0
 11
206.4281389019
 21
518.0475167524
 31
0.0
  0
LINE
  5
88
330
1F
100
AcDbEntity
  8
0
  6
Continuous
 62
     7
370
    15
100
AcDbLine
 10
162.3362589708
 20
405.8118167524
 30
0.0
 11
206.4682589708
 21
405.8118167524
 31
0.0
  0
LINE
  5
89
330
1F
100
AcDbEntity
  8
0
  6
Continuous
 62
     7
370
    15
100
AcDbLine
 10
161.8347589708
 20
356.1633167524
 30
0.0
 11
206.9697589708
 21
356.1633167524
 31
0.0
  0
LINE
  5
8A
330
1F
100
AcDbEntity
  8
0
  6
Continuous
 62
     7
370
    15
100
AcDbLine
 10
162.3262289708
 20
406.3133167524
 30
0.0
 11
206.4782889708
 21
406.3133167524
 31
0.0
  0
LINE
  5
8B
330
1F
100
AcDbEntity
  8
0
  6
Continuous
 62
     7
370
    15
100
AcDbLine
 10
162.3262289708
 20
445.6309167524
 30
0.0
 11
172.3662589708
 21
445.6309167524
 31
0.0
  0
LINE
  5
8C
330
1F
100
AcDbEntity
  8
0
  6
Continuous
 62
     7
370
    15
100
AcDbLine
 10
196.4382589708
 20
445.6309167524
 30
0.0
 11
206.4782889708
 21
445.6309167524
 31
0.0
  0
LINE
  5
8D
330
1F
100
AcDbEntity
  8
0
  6
Continuous
 62
     7
370
    15
100
AcDbLine
 10
163.8021023753
 20
446.6339167524
 30
0.0
 11
162.3362589708
 21
446.6339167524
 31
0.0
  0
LINE
  5
8E
330
1F
100
AcDbEntity
  8
0
  6
Continuous
 62
     7
370
    15
100
AcDbLine
 10
206.4682589708
 20
446.6339167524
 30
0.0
 11
196.4382589708
 21
446.6339167524
 31
0.0
  0
LINE
  5
8F
330
1F
100
AcDbEntity
  8
0
  6
Continuous
 62
     7
370
    15
100
AcDbLine
 10
172.3662589708
 20
446.6339167524
 30
0.0
 11
163.8021023753
 21
446.6339167524
 31
0.0
  0
LWPOLYLINE
  5
90
330
1F
100
AcDbEntity
  8
0
  6
Continuous
 62
     8
370
     0
100
AcDbPolyline
 90
       39
 70
   128
 43
0.0
 10
184.4022589708
 20
533.2682597498
 10
182.5037426692
 20
533.1293583673
 10
180.6570129433
 20
532.7164430872
 10
178.9124437658
 20
532.040777162
 10
177.3176224363
 20
531.1207909969
 10
175.9160515231
 20
529.9815794162
 10
174.7459622273
 20
528.6542171421
 10
173.8392715345
 20
527.1749111573
 10
173.2207116033
 20
525.5840130728
 10
172.9071551362
 20
523.9249184411
 10
172.9071551362
 20
522.2428830389
 10
173.2207116033
 20
520.5837884073
 10
173.8392715345
 20
518.9928903227
 10
174.7459622273
 20
517.5135843379
 10
175.9160515231
 20
516.1862220638
 10
177.3176224363
 20
515.0470104831
 10
178.9124437658
 20
514.127024318
 10
180.6570129433
 20
513.4513583928
 10
182.5037426692
 20
513.0384431128
 10
184.4022589708
 20
512.8995417302
 10
186.3007752724
 20
513.0384431128
 10
188.1475049983
 20
513.4513583928
 10
189.8920741758
 20
514.127024318
 10
191.4868955053
 20
515.0470104831
 10
192.8884664185
 20
516.1862220638
 10
194.0585557143
 20
517.5135843379
 10
194.9652464071
 20
518.9928903227
 10
195.5838063383
 20
520.5837884073
 10
195.8973628054
 20
522.2428830389
 10
195.8973628054
 20
523.9249184411
 10
195.5838063383
 20
525.5840130728
 10
194.9652464071
 20
527.1749111573
 10
194.0585557143
 20
528.6542171421
 10
192.8884664185
 20
529.9815794162
 10
191.4868955053
 20
531.1207909969
 10
189.8920741758
 20
532.040777162
 10
188.1475049983
 20
532.7164430872
 10
186.3007752724
 20
533.1293583673
 10
184.4022589708
 20
533.2682597498
  0
LWPOLYLINE
  5
91
330
1F
100
AcDbEntity
  8
0
  6
Continuous
 62
     8
370
    15
100
AcDbPolyline
 90
       22
 70
   128
 43
0.0
 10
196.4382589708
 20
522.8484607513
 10
196.4284977528
 20
522.4205482748
 10
196.1950192588
 20
520.7227562539
 10
195.6561144678
 20
519.080018863
 10
194.8257407307
 20
517.5348821375
 10
193.7254042914
 20
516.1273643069
 10
192.3836032854
 20
514.8939193439
 10
190.8350896541
 20
513.866492825
 10
189.1199690871
 20
513.0716945573
 10
187.2826623062
 20
512.5301093986
 10
185.3707545919
 20
512.2557641199
 10
183.4337633497
 20
512.2557641199
 10
181.5218556354
 20
512.5301093986
 10
179.6845488545
 20
513.0716945573
 10
177.9694282875
 20
513.866492825
 10
176.4209146562
 20
514.8939193439
 10
175.0791136502
 20
516.1273643069
 10
173.9787772108
 20
517.5348821375
 10
173.1484034738
 20
519.080018863
 10
172.6094986828
 20
520.7227562539
 10
172.3760201888
 20
522.4205482748
 10
172.3662589708
 20
522.8484607513
  0
LWPOLYLINE
  5
92
330
1F
100
AcDbEntity
  8
0
  6
Continuous
 62
     8
370
     0
100
AcDbPolyline
 90
       20
 70
   128
 43
0.0
 10
184.4022589708
 20
547.432291782
 10
183.425238268
 20
547.2883396091
 10
182.5540929183
 20
546.8720825421
 10
181.8832250377
 20
546.228628493
 10
181.4853335706
 20
545.4277056923
 10
181.4035362313
 20
544.5561065531
 10
181.6466970309
 20
543.7082823662
 10
182.1884657236
 20
542.9761080378
 10
182.9701332651
 20
542.4389260172
 10
183.9069938486
 20
542.1549483114
 10
184.8975240929
 20
542.1549483114
 10
185.8343846764
 20
542.4389260172
 10
186.616052218
 20
542.9761080378
 10
187.1578209107
 20
543.7082823662
 10
187.4009817103
 20
544.5561065531
 10
187.319184371
 20
545.4277056923
 10
186.9212929039
 20
546.228628493
 10
186.2504250233
 20
546.8720825421
 10
185.3792796736
 20
547.2883396091
 10
184.4022589708
 20
547.432291782
  0
LINE
  5
93
330
1F
100
AcDbEntity
  8
0
  6
Continuous
 62
     8
370
    15
100
AcDbLine
 10
162.3362589708
 20
481.7389167524
 30
0.0
 11
172.3662589708
 21
481.7389167524
 31
0.0
  0
LINE
  5
94
330
1F
100
AcDbEntity
  8
0
  6
Continuous
 62
     8
370
    15
100
AcDbLine
 10
196.4382589708
 20
481.7389167524
 30
0.0
 11
206.4682589708
 21
481.7389167524
 31
0.0
  0
LINE
  5
95
330
1F
100
AcDbEntity
  8
0
  6
Continuous
 62
     7
370
    15
100
AcDbLine
 10
335.3673623244
 20
356.1633167524
 30
0.0
 11
334.8658623244
 21
405.8118167524
 31
0.0
  0
LINE
  5
96
330
1F
100
AcDbEntity
  8
0
  6
Continuous
 62
     7
370
    15
100
AcDbLine
 10
290.7338623244
 20
405.8118167524
 30
0.0
 11
290.2323623244
 21
356.1633167524
 31
0.0
  0
LINE
  5
97
330
1F
100
AcDbEntity
  8
0
  6
Continuous
 62
     7
370
    15
100
AcDbLine
 10
335.3673623244
 20
512.79058331
 30
0.0
 11
335.3673623244
 21
517.5058967524
 31
0.0
  0
LINE
  5
98
330
1F
100
AcDbEntity
  8
0
  6
Continuous
 62
     7
370
    15
100
AcDbLine
 10
335.3673623244
 20
501.2840582661
 30
0.0
 11
335.3673623244
 21
503.704185152
 31
0.0
  0
LINE
  5
99
330
1F
100
AcDbEntity
  8
0
  6
Continuous
 62
     7
370
    15
100
AcDbLine
 10
335.3673623244
 20
488.9605167524
 30
0.0
 11
335.3673623244
 21
493.2867752387
 31
0.0
  0
LINE
  5
9A
330
1F
100
AcDbEntity
  8
0
  6
Continuous
 62
     7
370
    15
100
AcDbLine
 10
290.2323623244
 20
517.5058967524
 30
0.0
 11
290.2323623244
 21
492.9362387703
 31
0.0
  0
ARC
  5
9B
330
1F
100
AcDbEntity
  8
0
  6
Continuous
 62
     7
370
    15
100
AcDbCircle
 10
290.7739823244
 20
517.5058967524
 30
0.0
 40
0.5416199999999662
100
AcDbArc
 50
90.0
 51
180.0
  0
ARC
  5
9C
330
1F
100
AcDbEntity
  8
0
  6
Continuous
 62
     7
370
    15
100
AcDbCircle
 10
334.8257423244
 20
517.5058967524
 30
0.0
 40
0.5416200000000231
100
AcDbArc
 50
0.0
 51
90.0
  0
ARC
  5
9D
330
1F
100
AcDbEntity
  8
0
  6
Continuous
 62
     7
370
    15
100
AcDbCircle
 10
312.7998623244
 20
483.8186030552
 30
0.0
 40
22.06600000000003
100
AcDbArc
 50
156.7425913174
 51
180.1875285179
  0
ARC
  5
9E
330
1F
100
AcDbEntity
  8
0
  6
Continuous
 62
     7
370
    15
100
AcDbCircle
 10
312.7998623244
 20
483.8186030552
 30
0.0
 40
22.06600000000001
100
AcDbArc
 50
0.0
 51
13.4751892326
  0
LINE
  5
9F
330
1F
100
AcDbEntity
  8
0
  6
Continuous
 62
     7
370
    15
100
AcDbLine
 10
290.7338623244
 20
483.7449167524
 30
0.0
 11
290.7338623244
 21
481.7389167524
 31
0.0
  0
LINE
  5
A0
330
1F
100
AcDbEntity
  8
0
  6
Continuous
 62
     7
370
    15
100
AcDbLine
 10
334.8658623244
 20
481.7389167524
 30
0.0
 11
334.8658623244
 21
483.7449167524
 31
0.0
  0
LINE
  5
A1
330
1F
100
AcDbEntity
  8
0
  6
Continuous
 62
     7
370
    15
100
AcDbLine
 10
290.7238323244
 20
445.6309167524
 30
0.0
 11
290.7238323244
 21
406.3133167524
 31
0.0
  0
LINE
  5
A2
330
1F
100
AcDbEntity
  8
0
  6
Continuous
 62
     7
370
    15
100
AcDbLine
 10
334.8758923244
 20
439.3422125627
 30
0.0
 11
334.8758923244
 21
445.6309167524
 31
0.0
  0
LINE
  5
A3
330
1F
100
AcDbEntity
  8
0
  6
Continuous
 62
     7
370
    15
100
AcDbLine
 10
334.8758923244
 20
406.3133167524
 30
0.0
 11
334.8758923244
 21
412.101802078
 31
0.0
  0
LINE
  5
A4
330
1F
100
AcDbEntity
  8
0
  6
Continuous
 62
     7
370
    15
100
AcDbLine
 10
334.8658623244
 20
446.6339167524
 30
0.0
 11
334.8658623244
 21
481.7389167524
 31
0.0
  0
LINE
  5
A5
330
1F
100
AcDbEntity
  8
0
  6
Continuous
 62
     7
370
    15
100
AcDbLine
 10
290.7338623244
 20
481.7389167524
 30
0.0
 11
290.7338623244
 21
446.6339167524
 31
0.0
  0
LINE
  5
A6
330
1F
100
AcDbEntity
  8
0
  6
Continuous
 62
     7
370
    15
100
AcDbLine
 10
333.8628623244
 20
445.6309167524
 30
0.0
 11
333.8628623244
 21
446.6339167524
 31
0.0
  0
LINE
  5
A7
330
1F
100
AcDbEntity
  8
0
  6
Continuous
 62
     7
370
    15
100
AcDbLine
 10
291.7368623244
 20
446.6339167524
 30
0.0
 11
291.7368623244
 21
445.6309167524
 31
0.0
  0
LINE
  5
A8
330
1F
100
AcDbEntity
  8
0
  6
Continuous
 62
     7
370
    15
100
AcDbLine
 10
333.8628623244
 20
405.8118167524
 30
0.0
 11
333.8628623244
 21
406.3133167524
 31
0.0
  0
LINE
  5
A9
330
1F
100
AcDbEntity
  8
0
  6
Continuous
 62
     7
370
    15
100
AcDbLine
 10
291.7368623244
 20
406.3133167524
 30
0.0
 11
291.7368623244
 21
405.8118167524
 31
0.0
  0
LINE
  5
AA
330
1F
100
AcDbEntity
  8
0
  6
Continuous
 62
     7
370
    15
100
AcDbLine
 10
518.7311538158
 20
509.8593786735
 30
0.0
 11
523.1732883905
 21
512.2213035236
 31
0.0
  0
LINE
  5
AB
330
1F
100
AcDbEntity
  8
0
  6
Continuous
 62
     7
370
    15
100
AcDbLine
 10
334.8758923244
 20
412.101802078
 30
0.0
 11
501.9390946292
 21
500.930882427
 31
0.0
  0
LINE
  5
AC
330
1F
100
AcDbEntity
  8
0
  6
Continuous
 62
     7
370
    15
100
AcDbLine
 10
511.8721689312
 20
533.4756179789
 30
0.0
 11
334.8596290015
 21
439.356380976
 31
0.0
  0
ARC
  5
AD
330
1F
100
AcDbEntity
  8
0
  6
Continuous
 62
     7
370
    15
100
AcDbCircle
 10
512.1076089199
 20
533.0328197611
 30
0.0
 40
0.5014999999999684
100
AcDbArc
 50
28.0
 51
118.0
  0
ARC
  5
AE
330
1F
100
AcDbEntity
  8
0
  6
Continuous
 62
     7
370
    15
100
AcDbCircle
 10
522.9378484018
 20
512.6641017414
 30
0.0
 40
0.5015000000000154
100
AcDbArc
 50
298.0
 51
28.0
  0
LINE
  5
AF
330
1F
100
AcDbEntity
  8
0
  6
Continuous
 62
     7
370
    15
100
AcDbLine
 10
501.9159354856
 20
500.9351074152
 30
0.0
 11
503.8195060282
 21
497.3550119169
 31
0.0
  0
LINE
  5
B0
330
1F
100
AcDbEntity
  8
0
  6
Continuous
 62
     7
370
    15
100
AcDbLine
 10
520.6458383053
 20
506.3017314889
 30
0.0
 11
518.7415647753
 21
509.883149114
 31
0.0
  0
SPLINE
  5
B1
330
1F
100
AcDbEntity
  8
0
  6
Continuous
 62
     7
370
    15
100
AcDbSpline
210
0.0
220
0.0
230
1.0
 70
     8
 71
     3
 72
    11
 73
     7
 74
     0
 42
0.00000001
 43
0.00000001
 40
0.0
 40
0.0
 40
0.0
 40
0.0
 40
0.2500000098113463
 40
0.5000000120034132
 40
0.7500000082681149
 40
1.0
 40
1.0
 40
1.0
 40
1.0
 10
335.3673623236475
 20
503.704185156852
 30
0.0
 10
335.3708985510581
 20
503.7494390787214
 30
0.0
 10
335.3779710057715
 20
503.839946921081
 30
0.0
 10
335.4343635615142
 20
503.9652583461773
 30
0.0
 10
335.5185322815755
 20
504.0738801684054
 30
0.0
 10
335.5951256512231
 20
504.1226156361919
 30
0.0
 10
335.6334223356998
 20
504.1469833698643
 30
0.0
  0
SPLINE
  5
B2
330
1F
100
AcDbEntity
  8
0
  6
Continuous
 62
     7
370
    15
100
AcDbSpline
210
0.0
220
0.0
230
1.0
 70
     8
 71
     3
 72
    15
 73
    11
 74
     0
 42
0.00000001
 43
0.00000001
 40
0.0
 40
0.0
 40
0.0
 40
0.0
 40
0.1250000002991199
 40
0.2500000004106689
 40
0.3750000003912564
 40
0.5000000002883666
 40
0.6250000001461901
 40
0.7500000000116844
 40
0.874999999940218
 40
1.0
 40
1.0
 40
1.0
 40
1.0
 10
336.1043023131729
 20
512.3491290208203
 30
0.0
 10
336.0647959192497
 20
512.3317653581216
 30
0.0
 10
335.9857831314626
 20
512.2970380327503
 30
0.0
 10
335.8554030844171
 20
512.2853840917046
 30
0.0
 10
335.7270120405016
 20
512.3050201417249
 30
0.0
 10
335.6077171972771
 20
512.357308761571
 30
0.0
 10
335.5055435497501
 20
512.4380918361414
 30
0.0
 10
335.4279300025992
 20
512.5422358322178
 30
0.0
 10
335.3770100973385
 20
512.6628257748431
 30
0.0
 10
335.3705782487453
 20
512.7488934173946
 30
0.0
 10
335.367362324447
 20
512.791927238693
 30
0.0
  0
LINE
  5
B3
330
1F
100
AcDbEntity
  8
0
  6
Continuous
 62
     7
370
    15
100
AcDbLine
 10
335.3649920506
 20
493.2734167524
 30
0.0
 11
335.7685623244
 21
493.2734167524
 31
0.0
  0
LINE
  5
B4
330
1F
100
AcDbEntity
  8
0
  6
Continuous
 62
     7
370
    15
100
AcDbLine
 10
335.7685623244
 20
501.2974167524
 30
0.0
 11
335.3649920506
 21
501.2974167524
 31
0.0
  0
LINE
  5
B5
330
1F
100
AcDbEntity
  8
0
  6
Continuous
 62
     7
370
    15
100
AcDbLine
 10
335.7685623244
 20
493.2734167524
 30
0.0
 11
336.3709113365
 21
493.4926538634
 31
0.0
  0
LINE
  5
B6
330
1F
100
AcDbEntity
  8
0
  6
Continuous
 62
     7
370
    15
100
AcDbLine
 10
336.3709113365
 20
501.0781796414
 30
0.0
 11
335.7685623244
 21
501.2974167524
 31
0.0
  0
LINE
  5
B7
330
1F
100
AcDbEntity
  8
0
  6
Continuous
 62
     7
370
    15
100
AcDbLine
 10
335.6334223357
 20
504.1469833698
 30
0.0
 11
405.7722789576
 21
541.4404749616
 31
0.0
  0
LINE
  5
B8
330
1F
100
AcDbEntity
  8
0
  6
Continuous
 62
     7
370
    15
100
AcDbLine
 10
402.4761191153
 20
547.6396500111
 30
0.0
 11
336.104183282
 21
512.3490657308
 31
0.0
  0
ARC
  5
B9
330
1F
100
AcDbEntity
  8
0
  6
Continuous
 62
     7
370
    15
100
AcDbCircle
 10
336.3023020957
 20
500.8896773017
 30
0.0
 40
0.2006000000000085
100
AcDbArc
 50
0.0
 51
70.0
  0
ARC
  5
BA
330
1F
100
AcDbEntity
  8
0
  6
Continuous
 62
     7
370
    15
100
AcDbCircle
 10
336.3023020957
 20
493.6811562032
 30
0.0
 40
0.2006000000000085
100
AcDbArc
 50
290.0
 51
0.0
  0
LINE
  5
BB
330
1F
100
AcDbEntity
  8
0
  6
Continuous
 62
     7
370
    15
100
AcDbLine
 10
336.5029020957
 20
493.6811562032
 30
0.0
 11
336.5029020957
 21
500.8896773017
 31
0.0
  0
ARC
  5
BC
330
1F
100
AcDbEntity
  8
0
  6
Continuous
 62
     7
370
    15
100
AcDbCircle
 10
402.711559104
 20
547.1968517933
 30
0.0
 40
0.5015000000000688
100
AcDbArc
 50
28.0
 51
118.0
  0
ARC
  5
BD
330
1F
100
AcDbEntity
  8
0
  6
Continuous
 62
     7
370
    15
100
AcDbCircle
 10
405.5368389689
 20
541.8832731794
 30
0.0
 40
0.5015000000000954
100
AcDbArc
 50
298.0
 51
28.0
  0
LINE
  5
BE
330
1F
100
AcDbEntity
  8
0
  6
Continuous
 62
     7
370
    15
100
AcDbLine
 10
312.7998623244
 20
356.1633167524
 30
0.0
 11
335.3673623244
 21
356.1633167524
 31
0.0
  0
LINE
  5
BF
330
1F
100
AcDbEntity
  8
0
  6
Continuous
 62
     7
370
    15
100
AcDbLine
 10
290.2323623244
 20
356.1633167524
 30
0.0
 11
312.7998623244
 21
356.1633167524
 31
0.0
  0
LINE
  5
C0
330
1F
100
AcDbEntity
  8
0
  6
Continuous
 62
     7
370
    15
100
AcDbLine
 10
312.7998623244
 20
405.8118167524
 30
0.0
 11
334.8658623244
 21
405.8118167524
 31
0.0
  0
LINE
  5
C1
330
1F
100
AcDbEntity
  8
0
  6
Continuous
 62
     7
370
    15
100
AcDbLine
 10
290.7338623244
 20
405.8118167524
 30
0.0
 11
312.7998623244
 21
405.8118167524
 31
0.0
  0
SPLINE
  5
C2
330
1F
100
AcDbEntity
  8
0
  6
Continuous
 62
     7
370
    15
100
AcDbSpline
210
0.0
220
0.0
230
1.0
 70
     8
 71
     3
 72
    12
 73
     8
 74
     0
 42
0.00000001
 43
0.00000001
 40
0.0
 40
0.0
 40
0.0
 40
0.0
 40
0.5
 40
0.5
 40
0.75
 40
0.75
 40
1.0
 40
1.0
 40
1.0
 40
1.0
 10
308.4589026902757
 20
489.7224079388442
 30
0.0
 10
309.8889486716502
 20
489.4702522486742
 30
0.0
 10
311.3309332961929
 20
489.2799138211047
 30
0.0
 10
313.5119162319777
 20
489.0885932845875
 30
0.0
 10
314.2419229468811
 20
489.0405378188893
 30
0.0
 10
315.7081238892247
 20
488.9763806891458
 30
0.0
 10
316.4415963185558
 20
488.9605167524065
 30
0.0
 10
317.1673588002723
 20
488.9605167524065
 30
0.0
  0
LINE
  5
C3
330
1F
100
AcDbEntity
  8
0
  6
Continuous
 62
     7
370
    15
100
AcDbLine
 10
290.2323623244
 20
492.9362387703
 30
0.0
 11
308.4589026903
 21
489.7224079388
 31
0.0
  0
LINE
  5
C4
330
1F
100
AcDbEntity
  8
0
  6
Continuous
 62
     7
370
    15
100
AcDbLine
 10
317.1673588003
 20
488.9605167524
 30
0.0
 11
335.3673623244
 21
488.9605167524
 31
0.0
  0
SPLINE
  5
C5
330
1F
100
AcDbEntity
  8
0
  6
Continuous
 62
     7
370
    15
100
AcDbSpline
210
0.0
220
0.0
230
1.0
 70
     8
 71
     3
 72
    21
 73
    17
 74
     0
 42
0.00000001
 43
0.00000001
 40
0.0
 40
0.0
 40
0.0
 40
0.0
 40
0.067022303881781
 40
0.1260260312117843
 40
0.1858968155267927
 40
0.3016510981980042
 40
0.3603880736277664
 40
0.4199589237359544
 40
0.5370690596767406
 40
0.5964944021042816
 40
0.6567681224081132
 40
0.7155267502797928
 40
0.7746961432792707
 40
0.8351694123536814
 40
0.8960975169414475
 40
1.0
 40
1.0
 40
1.0
 40
1.0
 10
335.364991681407
 20
501.2840582661382
 30
0.0
 10
335.3653849935106
 20
501.2862885041206
 30
0.0
 10
335.3661245616928
 20
501.2904821534776
 30
0.0
 10
335.3565846962733
 20
501.2365051211817
 30
0.0
 10
335.3398679309706
 20
501.1403852388886
 30
0.0
 10
335.3140883076222
 20
500.9880345585843
 30
0.0
 10
335.2820685917733
 20
500.7871973721173
 30
0.0
 10
335.2463531001442
 20
500.5526617391304
 30
0.0
 10
335.206702395223
 20
500.270750580759
 30
0.0
 10
335.1664467006358
 20
499.9480131517178
 30
0.0
 10
335.1366719623139
 20
499.6857269861974
 30
0.0
 10
335.1083711257166
 20
499.4067704751828
 30
0.0
 10
335.0822028078121
 20
499.1124737538786
 30
0.0
 10
335.0588554483598
 20
498.8010593631433
 30
0.0
 10
335.0338530483159
 20
498.3989393761353
 30
0.0
 10
335.0230942391545
 20
498.0914219597427
 30
0.0
 10
335.016312324447
 20
497.8975755165358
 30
0.0
  0
SPLINE
  5
C6
330
1F
100
AcDbEntity
  8
0
  6
Continuous
 62
     7
370
    15
100
AcDbSpline
210
0.0
220
0.0
230
1.0
 70
     8
 71
     3
 72
    23
 73
    19
 74
     0
 42
0.00000001
 43
0.00000001
 40
0.0
 40
0.0
 40
0.0
 40
0.0
 40
0.0581444647777255
 40
0.1166995879643514
 40
0.1765423659239685
 40
0.236826469627354
 40
0.3538286754682184
 40
0.4132017386971527
 40
0.4734230196220365
 40
0.5320894762631385
 40
0.5911625881114373
 40
0.6515234898354535
 40
0.7123325721332718
 40
0.7708662979788657
 40
0.8302552745765558
 40
0.8900807791778418
 40
0.9508057600542936
 40
1.0
 40
1.0
 40
1.0
 40
1.0
 10
335.016312324447
 20
496.6732579882772
 30
0.0
 10
335.0197730847141
 20
496.5645453825695
 30
0.0
 10
335.0267190476489
 20
496.3463523638337
 30
0.0
 10
335.0429606930903
 20
496.0241097548644
 30
0.0
 10
335.0631638960561
 20
495.7067528174612
 30
0.0
 10
335.0948112125869
 20
495.3011587918186
 30
0.0
 10
335.1320424660717
 20
494.9224760331504
 30
0.0
 10
335.1717220014059
 20
494.5789717078671
 30
0.0
 10
335.2020558375797
 20
494.3393026729651
 30
0.0
 10
335.2319053227151
 20
494.1208482442188
 30
0.0
 10
335.2605372847991
 20
493.9242749530943
 30
0.0
 10
335.2874282915009
 20
493.7494036471806
 30
0.0
 10
335.3113637804137
 20
493.6006343955738
 30
0.0
 10
335.331624683816
 20
493.479086871807
 30
0.0
 10
335.3478880444992
 20
493.3841920816573
 30
0.0
 10
335.3593253366777
 20
493.3187480431912
 30
0.0
 10
335.3670617913613
 20
493.2750930446572
 30
0.0
 10
335.3656317120198
 20
493.2831633716912
 30
0.0
 10
335.364991681407
 20
493.2867752386747
 30
0.0
  0
LINE
  5
C7
330
1F
100
AcDbEntity
  8
0
  6
Continuous
 62
     7
370
    15
100
AcDbLine
 10
312.7998623244
 20
518.0475167524
 30
0.0
 11
334.8257423244
 21
518.0475167524
 31
0.0
  0
LINE
  5
C8
330
1F
100
AcDbEntity
  8
0
  6
Continuous
 62
     7
370
    15
100
AcDbLine
 10
290.7739823244
 20
518.0475167524
 30
0.0
 11
312.7998623244
 21
518.0475167524
 31
0.0
  0
LINE
  5
C9
330
1F
100
AcDbEntity
  8
0
  6
Continuous
 62
     7
370
    15
100
AcDbLine
 10
290.7238323244
 20
406.3133167524
 30
0.0
 11
334.8758923244
 21
406.3133167524
 31
0.0
  0
LWPOLYLINE
  5
CA
330
1F
100
AcDbEntity
  8
0
  6
Continuous
 62
     7
370
    15
100
AcDbPolyline
 90
       32
 70
   128
 43
0.0
 10
334.8671536226
 20
439.3422125627
 10
334.8540012913
 20
439.3078604564
 10
334.7482584725
 20
439.0301794864
 10
334.5765700544
 20
438.5736408318
 10
334.3435146064
 20
437.9416812402
 10
334.1347978106
 20
437.3624231533
 10
333.9051022345
 20
436.7085176835
 10
333.6566885744
 20
435.979122778
 10
333.3982883507
 20
435.1916878834
 10
333.0407650589
 20
434.0425484054
 10
332.685795974
 20
432.8113969998
 10
332.3403896388
 20
431.4895039808
 10
332.0220874293
 20
430.1019131687
 10
331.7506111346
 20
428.6923757478
 10
331.5310042335
 20
427.2315147456
 10
331.3762933723
 20
425.6981522971
 10
331.3079956819
 20
424.1255153623
 10
331.3156173485
 20
423.1728589443
 10
331.5874746507
 20
420.3169837356
 10
331.7570103257
 20
419.4208256997
 10
332.4702218649
 20
416.9044425303
 10
332.8567664932
 20
415.9020793514
 10
333.1917660644
 20
415.1384979703
 10
333.5241603745
 20
414.4501252902
 10
333.7855424937
 20
413.946774094
 10
334.2545373893
 20
413.1097042266
 10
334.4507227203
 20
412.7804682526
 10
334.6296348162
 20
412.4894311525
 10
334.7630266548
 20
412.2776905281
 10
334.8472340722
 20
412.1461883951
 10
334.8758923244
 20
412.101802078
 10
334.8758923244
 20
412.101802078
  0
LINE
  5
CB
330
1F
100
AcDbEntity
  8
0
  6
Continuous
 62
     7
370
    15
100
AcDbLine
 10
290.7238323244
 20
445.6309167524
 30
0.0
 11
334.8758923244
 21
445.6309167524
 31
0.0
  0
LINE
  5
CC
330
1F
100
AcDbEntity
  8
0
  6
Continuous
 62
     7
370
    15
100
AcDbLine
 10
320.7082062878
 20
446.6339167524
 30
0.0
 11
290.7338623244
 21
446.6339167524
 31
0.0
  0
LINE
  5
CD
330
1F
100
AcDbEntity
  8
0
  6
Continuous
 62
     7
370
    15
100
AcDbLine
 10
334.8658623244
 20
446.6339167524
 30
0.0
 11
320.7082062878
 21
446.6339167524
 31
0.0
  0
SPLINE
  5
CE
330
1F
100
AcDbEntity
  8
0
  6
Continuous
 62
     7
370
    15
100
AcDbSpline
210
0.0
220
0.0
230
1.0
 70
     8
 71
     3
 72
    20
 73
    16
 74
     0
 42
0.00000001
 43
0.00000001
 40
0.0
 40
0.0
 40
0.0
 40
0.0
 40
0.0677701608508648
 40
0.137718075121853
 40
0.228964700539732
 40
0.3227339561003411
 40
0.3839006289032651
 40
0.4454959768407609
 40
0.508415909238978
 40
0.5718120829807996
 40
0.6707102111515798
 40
0.7721985719409208
 40
0.8552247492653466
 40
0.9405574437897354
 40
1.0
 40
1.0
 40
1.0
 40
1.0
 10
508.1376254903038
 20
509.5300343641963
 30
0.0
 10
507.8289295976965
 20
509.3484645106502
 30
0.0
 10
507.2016180553576
 20
508.9794901653548
 30
0.0
 10
506.2937820188644
 20
508.197525101329
 30
0.0
 10
505.4237630762732
 20
507.2363619280334
 30
0.0
 10
504.7226532181663
 20
506.2639342643501
 30
0.0
 10
504.1845819702444
 20
505.4161379015088
 30
0.0
 10
503.7700366697897
 20
504.7049006856898
 30
0.0
 10
503.3937352693756
 20
504.0130072682992
 30
0.0
 10
502.9919878603147
 20
503.2310862663767
 30
0.0
 10
502.5934232414597
 20
502.4072699555417
 30
0.0
 10
502.2630760134458
 20
501.6889273080526
 30
0.0
 10
502.047934060913
 20
501.2074156269406
 30
0.0
 10
501.935178191868
 20
500.950560853656
 30
0.0
 10
501.9330928694332
 20
500.9457540000529
 30
0.0
 10
501.932236667179
 20
500.9437803777379
 30
0.0
  0
SPLINE
  5
CF
330
1F
100
AcDbEntity
  8
0
  6
Continuous
 62
     7
370
    15
100
AcDbSpline
210
0.0
220
0.0
230
1.0
 70
     8
 71
     3
 72
    19
 73
    15
 74
     0
 42
0.00000001
 43
0.00000001
 40
0.0
 40
0.0
 40
0.0
 40
0.0
 40
0.0289048746619715
 40
0.1140268077323103
 40
0.1932236034168715
 40
0.2743318923057645
 40
0.3618754794067649
 40
0.4511855691710457
 40
0.5568603411005819
 40
0.6647817911134867
 40
0.7558597038586475
 40
0.8489533844729777
 40
0.9231911586993651
 40
1.0
 40
1.0
 40
1.0
 40
1.0
 10
518.7235939455355
 20
509.8735967215704
 30
0.0
 10
518.7304656932356
 20
509.8723416583415
 30
0.0
 10
518.757574043053
 20
509.8673905608131
 30
0.0
 10
518.5698479083693
 20
509.9017311424868
 30
0.0
 10
518.179816049656
 20
509.9710888095711
 30
0.0
 10
517.5888304360324
 20
510.0713207991245
 30
0.0
 10
516.8079385980966
 20
510.1933998103377
 30
0.0
 10
515.7919276954532
 20
510.3318783812801
 30
0.0
 10
514.550291918523
 20
510.4629353121142
 30
0.0
 10
513.170897197778
 20
510.5378673378995
 30
0.0
 10
511.7602977605902
 20
510.5113257058157
 30
0.0
 10
510.4642123504268
 20
510.3513674839285
 30
0.0
 10
509.2276596099141
 20
510.0431298866035
 30
0.0
 10
508.5050700925577
 20
509.7029960878317
 30
0.0
 10
508.1376254903038
 20
509.5300343641963
 30
0.0
  0
LINE
  5
D0
330
1F
100
AcDbEntity
  8
0
  6
Continuous
 62
     7
370
    15
100
AcDbLine
 10
512.5504071377
 20
533.2682597498
 30
0.0
 11
523.3806466196
 21
512.8995417302
 31
0.0
  0
LINE
  5
D1
330
1F
100
AcDbEntity
  8
0
  6
Continuous
 62
     7
370
    15
100
AcDbLine
 10
512.2326721668
 20
501.8283717029
 30
0.0
 11
520.6458383053
 21
506.3017314889
 31
0.0
  0
LINE
  5
D2
330
1F
100
AcDbEntity
  8
0
  6
Continuous
 62
     7
370
    15
100
AcDbLine
 10
503.8195060282
 20
497.3550119169
 30
0.0
 11
512.2326721668
 21
501.8283717029
 31
0.0
  0
LINE
  5
D3
330
1F
100
AcDbEntity
  8
0
  6
Continuous
 62
     7
370
    15
100
AcDbLine
 10
335.0163123244
 20
496.6732579883
 30
0.0
 11
335.0163123244
 21
497.8975755165
 31
0.0
  0
LINE
  5
D4
330
1F
100
AcDbEntity
  8
0
  6
Continuous
 62
     7
370
    15
100
AcDbLine
 10
335.7685623244
 20
493.2734167524
 30
0.0
 11
335.7685623244
 21
501.2974167524
 31
0.0
  0
LINE
  5
D5
330
1F
100
AcDbEntity
  8
0
  6
Continuous
 62
     7
370
    15
100
AcDbLine
 10
403.1543573219
 20
547.432291782
 30
0.0
 11
405.9796370166
 21
542.1187134882
 31
0.0
  0
SPLINE
  5
D6
330
1F
100
AcDbEntity
  8
0
  6
Continuous
 62
     8
370
     0
100
AcDbSpline
210
0.0
220
0.0
230
1.0
 70
     8
 71
     3
 72
    28
 73
    24
 74
     0
 42
0.00000001
 43
0.00000001
 40
0.0
 40
0.0
 40
0.0
 40
0.0
 40
0.0058352086247612
 40
0.0523378038418967
 40
0.1002464094821073
 40
0.1470149418808456
 40
0.195122542855046
 40
0.2432096634683674
 40
0.2925681376363058
 40
0.3433558031577134
 40
0.3953710680164407
 40
0.4506267078186854
 40
0.5071476615638295
 40
0.5681401651078934
 40
0.6306042195155965
 40
0.6956210853775789
 40
0.7626155847922393
 40
0.8131546779214314
 40
0.865045528811153
 40
0.9107980633627645
 40
0.9580758775808905
 40
0.9988376531791066
 40
0.9999999999999999
 40
0.9999999999999999
 40
0.9999999999999999
 40
0.9999999999999999
 10
335.367362324447
 20
503.7041851519641
 30
0.0
 10
335.367333626121
 20
503.7043610905858
 30
0.0
 10
335.3670762218955
 20
503.7059391388888
 30
0.0
 10
335.3591959183795
 20
503.7539091277033
 30
0.0
 10
335.331933182354
 20
503.924887349481
 30
0.0
 10
335.290816688084
 20
504.1987212381067
 30
0.0
 10
335.2406905104326
 20
504.5642290353647
 30
0.0
 10
335.1859611118541
 20
505.0180493868759
 30
0.0
 10
335.1321399205262
 20
505.549595717692
 30
0.0
 10
335.0843222964775
 20
506.1515845980947
 30
0.0
 10
335.0470491742495
 20
506.8190360237455
 30
0.0
 10
335.0248985430846
 20
507.538218767717
 30
0.0
 10
335.02106140367
 20
508.3083116724399
 30
0.0
 10
335.0379384280466
 20
509.1052888478873
 30
0.0
 10
335.0759521165376
 20
509.9147560571294
 30
0.0
 10
335.1321526110663
 20
510.702827381893
 30
0.0
 10
335.1950034796555
 20
511.3737873271838
 30
0.0
 10
335.2544847762568
 20
511.9140253240651
 30
0.0
 10
335.3022304556585
 20
512.3046225554947
 30
0.0
 10
335.3401658634019
 20
512.5939582286933
 30
0.0
 10
335.3610507928256
 20
512.7465829191103
 30
0.0
 10
335.3694664405281
 20
512.8071425470084
 30
0.0
 10
335.3672382418833
 20
512.7910300297774
 30
0.0
 10
335.3671764650479
 20
512.7905833100347
 30
0.0
  0
LINE
  5
D7
330
1F
100
AcDbEntity
  8
0
  6
Continuous
 62
     8
370
    15
100
AcDbLine
 10
290.7338623244
 20
481.7389167524
 30
0.0
 11
334.8658623244
 21
481.7389167524
 31
0.0
  0
LINE
  5
D8
330
1F
100
AcDbEntity
  8
0
  6
Continuous
 62
     8
370
     0
100
AcDbLine
 10
523.1732883905
 20
512.2213035236
 30
0.0
 11
511.8721689312
 21
533.4756179789
 31
0.0
  0
SPLINE
  5
D9
330
1F
100
AcDbEntity
  8
0
  6
Continuous
 62
     8
370
     0
100
AcDbSpline
210
0.0
220
0.0
230
1.0
 70
     8
 71
     3
 72
    26
 73
    22
 74
     0
 42
0.00000001
 43
0.00000001
 40
0.0
 40
0.0
 40
0.0
 40
0.0
 40
0.041660603500914
 40
0.0872204585270307
 40
0.134458127564822
 40
0.1851867092272232
 40
0.2373815225838292
 40
0.3029969600772072
 40
0.3706503786425209
 40
0.4321501715635852
 40
0.4950771159566891
 40
0.5504753248544213
 40
0.6070871949004722
 40
0.6577013827903396
 40
0.7095050189030607
 40
0.757263248686263
 40
0.8062640710526257
 40
0.8526946691321579
 40
0.900435438043092
 40
0.949393662577842
 40
1.0
 40
1.0
 40
1.0
 40
1.0
 10
336.1042597473126
 20
512.3489243689394
 30
0.0
 10
336.1024218757311
 20
512.3401452558275
 30
0.0
 10
336.0985741157714
 20
512.3217653427506
 30
0.0
 10
336.0667141026404
 20
512.1676070371335
 30
0.0
 10
336.0155675463505
 20
511.9122688579412
 30
0.0
 10
335.9470918636574
 20
511.5534114766421
 30
0.0
 10
335.8610977103443
 20
511.0695067379801
 30
0.0
 10
335.763270305297
 20
510.4579312570525
 30
0.0
 10
335.6671717994407
 20
509.7504160045451
 30
0.0
 10
335.5864848489106
 20
509.0112441796816
 30
0.0
 10
335.5285573283849
 20
508.2965415217016
 30
0.0
 10
335.4919003592726
 20
507.5957588475213
 30
0.0
 10
335.4765146003745
 20
506.9523366420684
 30
0.0
 10
335.4787734291523
 20
506.3463899707734
 30
0.0
 10
335.4948374512941
 20
505.8091691661901
 30
0.0
 10
335.5208962004797
 20
505.3273247011452
 30
0.0
 10
335.5514955498484
 20
504.9232364036248
 30
0.0
 10
335.5827132921835
 20
504.5916108475451
 30
0.0
 10
335.6095704812203
 20
504.3446031796452
 30
0.0
 10
335.6294106016521
 20
504.1789722055592
 30
0.0
 10
335.6320704148769
 20
504.1577633399618
 30
0.0
 10
335.6334223357098
 20
504.1469833697829
 30
0.0
  0
SPLINE
  5
DA
330
1F
100
AcDbEntity
  8
0
  6
Continuous
 62
     7
370
    15
100
AcDbSpline
210
0.0
220
0.0
230
1.0
 70
     8
 71
     3
 72
    13
 73
     9
 74
     0
 42
0.00000001
 43
0.00000001
 40
0.0
 40
0.0
 40
0.0
 40
0.0
 40
0.1671907519098675
 40
0.3600329774921379
 40
0.5564739400233794
 40
0.7382827545872517
 40
0.8999439763348718
 40
1.0
 40
1.0
 40
1.0
 40
1.0
 10
184.6071442391816
 20
203.2265850955457
 30
0.0
 10
184.8905857607822
 20
203.2421921472942
 30
0.0
 10
185.5009562136991
 20
203.2758007844151
 30
0.0
 10
186.3594765372584
 20
203.4944099159578
 30
0.0
 10
187.0965272334725
 20
203.8294493496041
 30
0.0
 10
187.6031628005801
 20
204.2614664123616
 30
0.0
 10
187.890927365339
 20
204.7183255485279
 30
0.0
 10
187.8857834481953
 20
205.0237321102193
 30
0.0
 10
187.8838168987818
 20
205.1404908133604
 30
0.0
  0
SPLINE
  5
DB
330
1F
100
AcDbEntity
  8
0
  6
Continuous
 62
     7
370
    15
100
AcDbSpline
210
0.0
220
0.0
230
1.0
 70
     8
 71
     3
 72
    14
 73
    10
 74
     0
 42
0.00000001
 43
0.00000001
 40
0.0
 40
0.0
 40
0.0
 40
0.0
 40
0.1300461576393473
 40
0.2787653628511862
 40
0.4400088836690753
 40
0.6184520151507695
 40
0.7988610132746368
 40
0.9773503431444424
 40
1.0
 40
1.0
 40
1.0
 40
1.0
 10
180.9114228656843
 20
205.1213421062477
 30
0.0
 10
180.9253171376025
 20
204.9583955454119
 30
0.0
 10
180.9551007300066
 20
204.6091052781612
 30
0.0
 10
181.3057378815268
 20
204.1530302983749
 30
0.0
 10
181.8387420449528
 20
203.7577684775045
 30
0.0
 10
182.5883723988644
 20
203.4441740748259
 30
0.0
 10
183.4979788053581
 20
203.2599413073594
 30
0.0
 10
184.2053498356221
 20
203.1900552911081
 30
0.0
 10
184.5664786128054
 20
203.2228879126937
 30
0.0
 10
184.6071442391816
 20
203.2265850955457
 30
0.0
  0
LINE
  5
DC
330
1F
100
AcDbEntity
  8
0
  6
Continuous
 62
     7
370
    15
100
AcDbLine
 10
180.8917589708
 20
273.7347592782
 30
0.0
 11
180.8917589708
 21
205.1300216029
 31
0.0
  0
LINE
  5
DD
330
1F
100
AcDbEntity
  8
0
  6
Continuous
 62
     7
370
    15
100
AcDbLine
 10
187.9127589708
 20
205.1300216029
 30
0.0
 11
187.9127589708
 21
273.734632313
 31
0.0
  0
SPLINE
  5
DE
330
1F
100
AcDbEntity
  8
0
  6
Continuous
 62
     7
370
    15
100
AcDbSpline
210
0.0
220
0.0
230
1.0
 70
     8
 71
     3
 72
    13
 73
     9
 74
     0
 42
0.00000001
 43
0.00000001
 40
0.0
 40
0.0
 40
0.0
 40
0.0
 40
0.1519127115600136
 40
0.3499576961738566
 40
0.5486035208567376
 40
0.7456575823265227
 40
0.9375508778009574
 40
1.0
 40
1.0
 40
1.0
 40
1.0
 10
192.7816883849074
 20
87.47028057083108
 30
0.0
 10
193.1151191921653
 20
87.63199918807275
 30
0.0
 10
193.8832358029681
 20
88.00454651566065
 30
0.0
 10
194.8396626708223
 20
88.70267039549982
 30
0.0
 10
195.6656231082
 20
89.53264025718579
 30
0.0
 10
196.1965430498557
 20
90.43569502743836
 30
0.0
 10
196.4456524894966
 20
91.17724939418929
 30
0.0
 10
196.4143884899553
 20
91.60017392704529
 30
0.0
 10
196.4067121874901
 20
91.70401529992712
 30
0.0
  0
SPLINE
  5
DF
330
1F
100
AcDbEntity
  8
0
  6
Continuous
 62
     7
370
    15
100
AcDbSpline
210
0.0
220
0.0
230
1.0
 70
     8
 71
     3
 72
    14
 73
    10
 74
     0
 42
0.00000001
 43
0.00000001
 40
0.0
 40
0.0
 40
0.0
 40
0.0
 40
0.1243219131945843
 40
0.2790000015050397
 40
0.4379952774895408
 40
0.6013635950609095
 40
0.7667653172131587
 40
0.9322493974872215
 40
1.0
 40
1.0
 40
1.0
 40
1.0
 10
172.4190624441003
 20
91.29410481599558
 30
0.0
 10
172.4633439207083
 20
91.04954786893828
 30
0.0
 10
172.5627192578698
 20
90.50071953414376
 30
0.0
 10
173.0343244486326
 20
89.69229369000205
 30
0.0
 10
173.7586268614352
 20
88.87954515702013
 30
0.0
 10
174.7359791540475
 20
88.12771835058429
 30
0.0
 10
175.948994430529
 20
87.4631077090929
 30
0.0
 10
177.0559124339359
 20
86.98709037163445
 30
0.0
 10
177.7985912201237
 20
86.77798827077234
 30
0.0
 10
178.0143264385589
 20
86.717247761896
 30
0.0
  0
LINE
  5
E0
330
1F
100
AcDbEntity
  8
0
  6
Continuous
 62
     7
370
    15
100
AcDbLine
 10
172.3662589708
 20
277.3643934053
 30
0.0
 11
172.3662589708
 21
91.7314919785
 31
0.0
  0
LINE
  5
E1
330
1F
100
AcDbEntity
  8
0
  6
Continuous
 62
     7
370
    15
100
AcDbLine
 10
196.4382589708
 20
91.7314919785
 30
0.0
 11
196.4382589708
 21
277.3643934053
 31
0.0
  0
SPLINE
  5
E2
330
1F
100
AcDbEntity
  8
0
  6
Continuous
 62
     7
370
    15
100
AcDbSpline
210
0.0
220
0.0
230
1.0
 70
     8
 71
     3
 72
    20
 73
    16
 74
     0
 42
0.00000001
 43
0.00000001
 40
0.0
 40
0.0
 40
0.0
 40
0.0
 40
0.0084169153016424
 40
0.2505502769628284
 40
0.3667740804362041
 40
0.4018181484708704
 40
0.4138095163407582
 40
0.4224182956911449
 40
0.431031589033195
 40
0.4512811791443729
 40
0.4902450115504114
 40
0.6140915696345016
 40
0.7764411717286815
 40
0.9406398644778252
 40
1.0
 40
1.0
 40
1.0
 40
1.0
 10
180.5038329593938
 20
274.2260590524632
 30
0.0
 10
180.5033218615037
 20
274.2261473566587
 30
0.0
 10
180.4881077701965
 20
274.2287759491816
 30
0.0
 10
180.4851508633483
 20
274.2293650021888
 30
0.0
 10
180.4807817573337
 20
274.2301370107263
 30
0.0
 10
180.4836626795034
 20
274.2296186144048
 30
0.0
 10
180.4885493600146
 20
274.228667387884
 30
0.0
 10
180.4940251189331
 20
274.2275513714069
 30
0.0
 10
180.5057930410455
 20
274.2249863350452
 30
0.0
 10
180.5320410022299
 20
274.2183963240966
 30
0.0
 10
180.6002253502434
 20
274.1959650385428
 30
0.0
 10
180.7150967542937
 20
274.1323551471182
 30
0.0
 10
180.8319473775689
 20
273.9955505010979
 30
0.0
 10
180.893761630637
 20
273.8475029572114
 30
0.0
 10
180.8860210405141
 20
273.7590770643005
 30
0.0
 10
180.883965731483
 20
273.7355979065886
 30
0.0
  0
SPLINE
  5
E3
330
1F
100
AcDbEntity
  8
0
  6
Continuous
 62
     7
370
    15
100
AcDbSpline
210
0.0
220
0.0
230
1.0
 70
     8
 71
     3
 72
    11
 73
     7
 74
     0
 42
0.00000001
 43
0.00000001
 40
0.0
 40
0.0
 40
0.0
 40
0.0
 40
0.2004110491550377
 40
0.6056374089883324
 40
0.9400506792911039
 40
0.9999999999999999
 40
0.9999999999999999
 40
0.9999999999999999
 40
0.9999999999999999
 10
187.9217124840082
 20
273.7359640986349
 30
0.0
 10
187.9191064590619
 20
273.7612017689563
 30
0.0
 10
187.9112311138507
 20
273.8374694065279
 30
0.0
 10
187.9568216985954
 20
273.9505001866586
 30
0.0
 10
188.0066409039264
 20
274.0390839180697
 30
0.0
 10
188.0431644520067
 20
274.0725926077438
 30
0.0
 10
188.0487166061593
 20
274.0776864559678
 30
0.0
  0
LINE
  5
E4
330
1F
100
AcDbEntity
  8
0
  6
Continuous
 62
     7
370
    15
100
AcDbLine
 10
180.3902589708
 20
274.2379083149
 30
0.0
 11
180.3902589708
 21
273.4856583149
 31
0.0
  0
LINE
  5
E5
330
1F
100
AcDbEntity
  8
0
  6
Continuous
 62
     7
370
    15
100
AcDbLine
 10
188.4142589708
 20
273.4856583149
 30
0.0
 11
188.4142589708
 21
274.2379083149
 31
0.0
  0
LINE
  5
E6
330
1F
100
AcDbEntity
  8
0
  6
Continuous
 62
     7
370
    15
100
AcDbLine
 10
180.3902589708
 20
273.4856583149
 30
0.0
 11
180.6094960818
 21
272.8833093029
 31
0.0
  0
LINE
  5
E7
330
1F
100
AcDbEntity
  8
0
  6
Continuous
 62
     7
370
    15
100
AcDbLine
 10
188.1950218598
 20
272.8833093029
 30
0.0
 11
188.4142589708
 21
273.4856583149
 31
0.0
  0
ARC
  5
E8
330
1F
100
AcDbEntity
  8
0
  6
Continuous
 62
     7
370
    15
100
AcDbCircle
 10
188.00651952
 20
272.9519185436
 30
0.0
 40
0.2006000000000125
100
AcDbArc
 50
270.0
 51
340.0
  0
ARC
  5
E9
330
1F
100
AcDbEntity
  8
0
  6
Continuous
 62
     7
370
    15
100
AcDbCircle
 10
180.7979984215
 20
272.9519185436
 30
0.0
 40
0.2006000000000125
100
AcDbArc
 50
200.0
 51
270.0
  0
LINE
  5
EA
330
1F
100
AcDbEntity
  8
0
  6
Continuous
 62
     7
370
    15
100
AcDbLine
 10
180.7979984215
 20
272.7513185436
 30
0.0
 11
180.8917589708
 21
272.7513185436
 31
0.0
  0
LINE
  5
EB
330
1F
100
AcDbEntity
  8
0
  6
Continuous
 62
     7
370
    15
100
AcDbLine
 10
187.9127589708
 20
272.7513185436
 30
0.0
 11
188.00651952
 21
272.7513185436
 31
0.0
  0
ARC
  5
EC
330
1F
100
AcDbEntity
  8
0
  6
Continuous
 62
     7
370
    15
100
AcDbCircle
 10
184.3418470205
 20
107.5603886093
 30
0.0
 40
21.72349589026553
100
AcDbArc
 50
253.4910475402
 51
291.7761449139
  0
LWPOLYLINE
  5
ED
330
1F
100
AcDbEntity
  8
0
  6
Continuous
 62
     7
370
    15
100
AcDbPolyline
 90
        3
 70
   128
 43
0.0
 10
172.3939558063
 20
91.3483758243
 10
172.3760201888
 20
91.5039668788
 10
172.3662589708
 20
91.7314919785
  0
CIRCLE
  5
EE
330
1F
100
AcDbEntity
  8
0
  6
Continuous
 62
     7
370
    15
100
AcDbCircle
 10
184.4022589708
 20
296.4543583149
 30
0.0
 40
22.5675
  0
SPLINE
  5
EF
330
1F
100
AcDbEntity
  8
0
  6
Continuous
 62
     7
370
    15
100
AcDbSpline
210
0.0
220
0.0
230
1.0
 70
     8
 71
     3
 72
    18
 73
    14
 74
     0
 42
0.00000001
 43
0.00000001
 40
0.0
 40
0.0
 40
0.0
 40
0.0
 40
0.0129237289871538
 40
0.1159169510692806
 40
0.222024183091657
 40
0.3256063986928943
 40
0.4321543624751052
 40
0.5386569666736953
 40
0.647975344881976
 40
0.7604590737933387
 40
0.8756616705568305
 40
0.9980409991699909
 40
1.0
 40
1.0
 40
1.0
 40
1.0
 10
184.4022589707937
 20
273.8868583148922
 30
0.0
 10
184.376332228556
 20
273.8868870129523
 30
0.0
 10
184.143787201162
 20
273.8871444147939
 30
0.0
 10
183.6984150959231
 20
273.8950248366094
 30
0.0
 10
183.092374537618
 20
273.9222870366353
 30
0.0
 10
182.5182042243065
 20
273.9634054900775
 30
0.0
 10
181.9974730977558
 20
274.0135242007827
 30
0.0
 10
181.5358114178763
 20
274.0682818679549
 30
0.0
 10
181.1464888798322
 20
274.1219938366833
 30
0.0
 10
180.8339841472453
 20
274.170236189641
 30
0.0
 10
180.6197130433936
 20
274.2058438170101
 30
0.0
 10
180.5109292337984
 20
274.2248774370478
 30
0.0
 10
180.5039539983552
 20
274.2261044561688
 30
0.0
 10
180.5038441006906
 20
274.2261237883529
 30
0.0
  0
SPLINE
  5
F0
330
1F
100
AcDbEntity
  8
0
  6
Continuous
 62
     7
370
    15
100
AcDbSpline
210
0.0
220
0.0
230
1.0
 70
     8
 71
     3
 72
     9
 73
     5
 74
     0
 42
0.00000001
 43
0.00000001
 40
0.0
 40
0.0
 40
0.0
 40
0.0
 40
0.0780725682678022
 40
1.0
 40
1.0
 40
1.0
 40
1.0
 10
185.0621902860059
 20
273.8970966783053
 30
0.0
 10
185.0454702470055
 20
273.8964129326878
 30
0.0
 10
184.8313100192671
 20
273.8876551111808
 30
0.0
 10
184.6080700355978
 20
273.8872405293004
 30
0.0
 10
184.4022589707937
 20
273.8868583148922
 30
0.0
  0
LINE
  5
F1
330
1F
100
AcDbEntity
  8
0
  6
Continuous
 62
     7
370
    15
100
AcDbLine
 10
188.367281751
 20
274.2379083149
 30
0.0
 11
188.4142589708
 21
274.2379083149
 31
0.0
  0
LINE
  5
F2
330
1F
100
AcDbEntity
  8
0
  6
Continuous
 62
     7
370
    15
100
AcDbLine
 10
180.3902589708
 20
274.2379083149
 30
0.0
 11
180.4372361906
 21
274.2379083149
 31
0.0
  0
LINE
  5
F3
330
1F
100
AcDbEntity
  8
0
  6
Continuous
 62
     7
370
    15
100
AcDbLine
 10
180.3902589708
 20
273.4856583149
 30
0.0
 11
180.8917589708
 21
273.4856583149
 31
0.0
  0
LINE
  5
F4
330
1F
100
AcDbEntity
  8
0
  6
Continuous
 62
     7
370
    15
100
AcDbLine
 10
187.9127589708
 20
273.4856583149
 30
0.0
 11
188.4142589708
 21
273.4856583149
 31
0.0
  0
LWPOLYLINE
  5
F5
330
1F
100
AcDbEntity
  8
0
  6
Continuous
 62
     8
370
    15
100
AcDbPolyline
 90
        7
 70
   128
 43
0.0
 10
184.4022589708
 20
206.778101524
 10
185.4369970106
 20
206.7048819573
 10
186.3797940346
 20
206.4917291369
 10
187.14687839
 20
206.1575826264
 10
187.6700912654
 20
205.7321328095
 10
187.9029429008
 20
205.2531827696
 10
187.9127153363
 20
205.1382387729
  0
LWPOLYLINE
  5
F6
330
1F
100
AcDbEntity
  8
0
  6
Continuous
 62
     8
370
    15
100
AcDbPolyline
 90
        7
 70
   128
 43
0.0
 10
180.8917896378
 20
205.1231328045
 10
180.9015750408
 20
205.2531827696
 10
181.1344266762
 20
205.7321328095
 10
181.6576395516
 20
206.1575826264
 10
182.424723907
 20
206.4917291369
 10
183.367520931
 20
206.7048819573
 10
184.4022589708
 20
206.778101524
  0
LWPOLYLINE
  5
F7
330
1F
100
AcDbEntity
  8
0
  6
Continuous
 62
     8
370
     0
100
AcDbPolyline
 90
       20
 70
   128
 43
0.0
 10
184.4022589708
 20
206.0998633175
 10
183.425238268
 20
206.0233225895
 10
182.5540929183
 20
205.8019947809
 10
181.8832250377
 20
205.4598641942
 10
181.4853335706
 20
205.034005987
 10
181.4035362313
 20
204.570568504
 10
181.6466970309
 20
204.1197723875
 10
182.1884657236
 20
203.7304683915
 10
182.9701332651
 20
203.4448436446
 10
183.9069938486
 20
203.2938500201
 10
184.8975240929
 20
203.2938500201
 10
185.8343846764
 20
203.4448436446
 10
186.616052218
 20
203.7304683915
 10
187.1578209107
 20
204.1197723875
 10
187.4009817103
 20
204.570568504
 10
187.319184371
 20
205.034005987
 10
186.9212929039
 20
205.4598641942
 10
186.2504250233
 20
205.8019947809
 10
185.3792796736
 20
206.0233225895
 10
184.4022589708
 20
206.0998633175
  0
SPLINE
  5
F8
330
1F
100
AcDbEntity
  8
0
  6
Continuous
 62
     8
370
     0
100
AcDbSpline
210
0.0
220
0.0
230
1.0
 70
     8
 71
     3
 72
    28
 73
    24
 74
     0
 42
0.00000001
 43
0.00000001
 40
0.0
 40
0.0
 40
0.0
 40
0.0
 40
0.0116680606312838
 40
0.0775392167681541
 40
0.1358809541801724
 40
0.1955016923591561
 40
0.2448094085015165
 40
0.2950640411373993
 40
0.3369262989936285
 40
0.3796524496695214
 40
0.4194353322417987
 40
0.4603342347958818
 40
0.4998548983099449
 40
0.5407181904344243
 40
0.5852045455079483
 40
0.6313291812526444
 40
0.6808624753097958
 40
0.7318274531098184
 40
0.7958968328073998
 40
0.8619561738327174
 40
0.9220068834600051
 40
0.9834511174321895
 40
1.0
 40
1.0
 40
1.0
 40
1.0
 10
187.9030267054416
 20
273.7349125524764
 30
0.0
 10
187.9060771809108
 20
273.7327688873808
 30
0.0
 10
187.9263488855355
 20
273.7185233226909
 30
0.0
 10
187.8380600110611
 20
273.6693780296786
 30
0.0
 10
187.6490106259622
 20
273.5923191971049
 30
0.0
 10
187.3734189791688
 20
273.5083623468432
 30
0.0
 10
187.0327680169424
 20
273.4236040230322
 30
0.0
 10
186.6638919614606
 20
273.3479821059494
 30
0.0
 10
186.2555715726337
 20
273.2803935823212
 30
0.0
 10
185.8326315786972
 20
273.2256638934996
 30
0.0
 10
185.3733781325909
 20
273.1829785682479
 30
0.0
 10
184.8964563735164
 20
273.1561344261872
 30
0.0
 10
184.3990607645511
 20
273.1468016329348
 30
0.0
 10
183.8868131790144
 20
273.1565597724618
 30
0.0
 10
183.3665152411651
 20
273.1872302798175
 30
0.0
 10
182.8522699011681
 20
273.2387351487224
 30
0.0
 10
182.3713752743442
 20
273.3071022022357
 30
0.0
 10
181.9061589747663
 20
273.3931464067885
 30
0.0
 10
181.491124479476
 20
273.4908725567951
 30
0.0
 10
181.1687859088111
 20
273.5873269281262
 30
0.0
 10
180.9711893041315
 20
273.6667966222385
 30
0.0
 10
180.8858925694149
 20
273.7157681466134
 30
0.0
 10
180.8988483491047
 20
273.7315551363805
 30
0.0
 10
180.9015973567886
 20
273.7349048812213
 30
0.0
  0
LWPOLYLINE
  5
F9
330
1F
100
AcDbEntity
  8
0
  6
Continuous
 62
     8
370
     0
100
AcDbPolyline
 90
       17
 70
   128
 43
0.0
 10
184.4022589708
 20
96.7038135016
 10
182.5037426692
 20
96.6299583264
 10
180.6570129433
 20
96.4104073775
 10
178.9124437658
 20
96.0511494325
 10
177.3176224363
 20
95.5619841115
 10
175.9160515231
 20
94.9562545694
 10
174.7459622273
 20
94.250483529
 10
173.8392715345
 20
93.4639225846
 10
173.2207116033
 20
92.6180270682
 10
172.9071551362
 20
91.7358708045
 10
172.9071551362
 20
90.8415167168
 10
173.2207116033
 20
89.9593604531
 10
173.8392715345
 20
89.1134649368
 10
174.7459622273
 20
88.3269039923
 10
175.9160515231
 20
87.621132952
 10
177.3176224363
 20
87.0154034098
 10
178.1687864062
 20
86.7324363252
  0
LWPOLYLINE
  5
FA
330
1F
100
AcDbEntity
  8
0
  6
Continuous
 62
     8
370
     0
100
AcDbPolyline
 90
       16
 70
   128
 43
0.0
 10
192.4008562129
 20
87.3870734497
 10
192.8884664185
 20
87.621132952
 10
194.0585557143
 20
88.3269039923
 10
194.9652464071
 20
89.1134649368
 10
195.5838063383
 20
89.9593604531
 10
195.8973628054
 20
90.8415167168
 10
195.8973628054
 20
91.7358708045
 10
195.5838063383
 20
92.6180270682
 10
194.9652464071
 20
93.4639225846
 10
194.0585557143
 20
94.250483529
 10
192.8884664185
 20
94.9562545694
 10
191.4868955053
 20
95.5619841115
 10
189.8920741758
 20
96.0511494325
 10
188.1475049983
 20
96.4104073775
 10
186.3007752724
 20
96.6299583264
 10
184.4022589708
 20
96.7038135016
  0
LWPOLYLINE
  5
FB
330
1F
100
AcDbEntity
  8
0
  6
Continuous
 62
     8
370
    15
100
AcDbPolyline
 90
       11
 70
   128
 43
0.0
 10
184.4022589708
 20
97.3820517082
 10
186.3329691472
 20
97.3088784437
 10
188.2136749442
 20
97.0912537995
 10
189.9956670695
 20
96.7348141395
 10
191.6327928632
 20
96.2487910636
 10
193.082651627
 20
95.6457723142
 10
194.3076927807
 20
94.9413757602
 10
195.2761884018
 20
94.1538449024
 10
195.9630549624
 20
93.3035763762
 10
196.3505029794
 20
92.4125916899
 10
196.4381635487
 20
91.7089916422
  0
LWPOLYLINE
  5
FC
330
1F
100
AcDbEntity
  8
0
  6
Continuous
 62
     8
370
    15
100
AcDbPolyline
 90
       11
 70
   128
 43
0.0
 10
172.3662589708
 20
91.7314919785
 10
172.4540149621
 20
92.4125916899
 10
172.8414629792
 20
93.3035763762
 10
173.5283295398
 20
94.1538449024
 10
174.4968251609
 20
94.9413757602
 10
175.7218663146
 20
95.6457723142
 10
177.1717250784
 20
96.2487910636
 10
178.8088508721
 20
96.7348141395
 10
180.5908429974
 20
97.0912537995
 10
182.4715487944
 20
97.3088784437
 10
184.4022589708
 20
97.3820517082
  0
CIRCLE
  5
FD
330
1F
100
AcDbEntity
  8
0
  6
Continuous
 62
     8
370
     0
100
AcDbCircle
 10
184.4022589708
 20
296.4543583149
 30
0.0
 40
22.02588
  0
LINE
  5
FE
330
1F
100
AcDbEntity
  8
0
  6
Continuous
 62
     8
370
     0
100
AcDbLine
 10
180.6094960818
 20
272.8833093029
 30
0.0
 11
180.8917589708
 21
272.8833093029
 31
0.0
  0
LINE
  5
FF
330
1F
100
AcDbEntity
  8
0
  6
Continuous
 62
     8
370
     0
100
AcDbLine
 10
187.9127589708
 20
272.8833093029
 30
0.0
 11
188.1950218598
 21
272.8833093029
 31
0.0
  0
ENDSEC
  0
SECTION
  2
OBJECTS
  0
DICTIONARY
  5
C
330
0
100
AcDbDictionary
281
     1
  3
ACAD_GROUP
350
D
  3
ACAD_LAYOUT
350
1A
  3
ACAD_MATERIAL
350
3B
  3
ACAD_MLEADERSTYLE
350
101
  3
ACAD_MLINESTYLE
350
17
  3
ACAD_PLOTSETTINGS
350
19
  3
ACAD_PLOTSTYLENAME
350
E
  3
ACAD_TABLESTYLE
350
100
  3
ACAD_VISUALSTYLE
350
2A
  0
DICTIONARY
  5
D
102
{ACAD_REACTORS
330
C
102
}
330
C
100
AcDbDictionary
281
     1
  0
DICTIONARY
  5
1A
102
{ACAD_REACTORS
330
C
102
}
330
C
100
AcDbDictionary
281
     1
  3
Layout1
350
1E
  3
Layout2
350
26
  3
Model
350
22
  0
DICTIONARY
  5
3B
102
{ACAD_REACTORS
330
C
102
}
330
C
100
AcDbDictionary
281
     1
  3
ByBlock
350
3D
  3
ByLayer
350
3C
  3
Global
350
3E
  0
DICTIONARY
  5
101
102
{ACAD_REACTORS
330
C
102
}
330
C
100
AcDbDictionary
281
     1
  0
DICTIONARY
  5
17
102
{ACAD_REACTORS
330
C
102
}
330
C
100
AcDbDictionary
281
     1
  3
Standard
350
18
  0
DICTIONARY
  5
19
102
{ACAD_REACTORS
330
C
102
}
330
C
100
AcDbDictionary
281
     1
  0
ACDBDICTIONARYWDFLT
  5
E
102
{ACAD_REACTORS
330
C
102
}
330
C
100
AcDbDictionary
281
     1
  3
Normal
350
F
100
AcDbDictionaryWithDefault
340
F
  0
DICTIONARY
  5
100
102
{ACAD_REACTORS
330
C
102
}
330
C
100
AcDbDictionary
281
     1
  0
DICTIONARY
  5
2A
102
{ACAD_REACTORS
330
C
102
}
330
C
100
AcDbDictionary
281
     1
  3
2dWireframe
350
2F
  3
3D Hidden
350
31
  3
3dWireframe
350
30
  3
Basic
350
32
  3
Brighten
350
36
  3
ColorChange
350
3A
  3
Conceptual
350
34
  3
Dim
350
35
  3
Facepattern
350
39
  3
Flat
350
2B
  3
FlatWithEdges
350
2C
  3
Gouraud
350
2D
  3
GouraudWithEdges
350
2E
  3
Linepattern
350
38
  3
Realistic
350
33
  3
Thicken
350
37
  0
LAYOUT
  5
1E
102
{ACAD_REACTORS
330
1A
102
}
330
1A
100
AcDbPlotSettings
  1

  2
none_device
  4

  6

 40
0.0
 41
0.0
 42
0.0
 43
0.0
 44
0.0
 45
0.0
 46
0.0
 47
0.0
 48
0.0
 49
0.0
140
0.0
141
0.0
142
1.0
143
1.0
 70
   688
 72
     0
 73
     0
 74
     5
  7

 75
    16
 76
     0
 77
     2
 78
   300
147
1.0
148
0.0
149
0.0
100
AcDbLayout
  1
Layout1
 70
     1
 71
     1
 10
0.0
 20
0.0
 11
420.0
 21
297.0
 12
0.0
 22
0.0
 32
0.0
 14
1.0000000000E+20
 24
1.0000000000E+20
 34
1.0000000000E+20
 15
-1.0000000000E+20
 25
-1.0000000000E+20
 35
-1.0000000000E+20
146
0.0
 13
0.0
 23
0.0
 33
0.0
 16
1.0
 26
0.0
 36
0.0
 17
0.0
 27
1.0
 37
0.0
 76
     0
330
1B
  0
LAYOUT
  5
26
102
{ACAD_REACTORS
330
1A
102
}
330
1A
100
AcDbPlotSettings
  1

  2
none_device
  4

  6

 40
0.0
 41
0.0
 42
0.0
 43
0.0
 44
0.0
 45
0.0
 46
0.0
 47
0.0
 48
0.0
 49
0.0
140
0.0
141
0.0
142
1.0
143
1.0
 70
   688
 72
     0
 73
     0
 74
     5
  7

 75
    16
 76
     0
 77
     2
 78
   300
147
1.0
148
0.0
149
0.0
100
AcDbLayout
  1
Layout2
 70
     1
 71
     2
 10
0.0
 20
0.0
 11
0.0
 21
0.0
 12
0.0
 22
0.0
 32
0.0
 14
0.0
 24
0.0
 34
0.0
 15
0.0
 25
0.0
 35
0.0
146
0.0
 13
0.0
 23
0.0
 33
0.0
 16
1.0
 26
0.0
 36
0.0
 17
0.0
 27
1.0
 37
0.0
 76
     0
330
23
  0
LAYOUT
  5
22
102
{ACAD_REACTORS
330
1A
102
}
330
1A
100
AcDbPlotSettings
  1

  2
none_device
  4

  6

 40
0.0
 41
0.0
 42
0.0
 43
0.0
 44
0.0
 45
0.0
 46
0.0
 47
0.0
 48
0.0
 49
0.0
140
0.0
141
0.0
142
1.0
143
1.0
 70
  1712
 72
     0
 73
     0
 74
     0
  7

 75
     0
 76
     0
 77
     2
 78
   300
147
1.0
148
0.0
149
0.0
100
AcDbLayout
  1
Model
 70
     1
 71
     0
 10
0.0
 20
0.0
 11
594.0
 21
841.0
 12
0.0
 22
0.0
 32
0.0
 14
0.0
 24
0.0
 34
0.0
 15
594.0
 25
841.0
 35
0.0
146
0.0
 13
0.0
 23
0.0
 33
0.0
 16
1.0
 26
0.0
 36
0.0
 17
0.0
 27
1.0
 37
0.0
 76
     0
330
1F
331
29
  0
MATERIAL
  5
3D
102
{ACAD_REACTORS
330
3B
102
}
330
3B
100
AcDbMaterial
  1
ByBlock
 72
     1
 94
      127
  0
MATERIAL
  5
3C
102
{ACAD_REACTORS
330
3B
102
}
330
3B
100
AcDbMaterial
  1
ByLayer
 72
     1
 94
      127
  0
MATERIAL
  5
3E
102
{ACAD_REACTORS
330
3B
102
}
330
3B
100
AcDbMaterial
  1
Global
 72
     1
 94
      127
  0
MLINESTYLE
  5
18
102
{ACAD_REACTORS
330
17
102
}
330
17
100
AcDbMlineStyle
  2
Standard
 70
     0
  3

 62
   256
 51
90.0
 52
90.0
 71
     2
 49
0.5
 62
   256
  6
BYLAYER
 49
-0.5
 62
   256
  6
BYLAYER
  0
ACDBPLACEHOLDER
  5
F
102
{ACAD_REACTORS
330
E
102
}
330
E
  0
VISUALSTYLE
  5
2F
102
{ACAD_REACTORS
330
2A
102
}
330
2A
100
AcDbVisualStyle
  2
2dWireframe
 70
     4
177
     2
291
     0
 71
     0
176
     1
 72
     2
176
     1
 73
     0
176
     1
 90
        0
176
     1
 40
-0.6
176
     1
 41
-30.0
176
     1
 62
     5
 63
     7
421
 16777215
176
     1
 74
     1
176
     1
 91
        4
176
     1
 64
     7
176
     1
 65
   257
176
     1
 75
     1
176
     1
175
     1
176
     1
 42
1.0
176
     1
 92
        0
176
     1
 66
   257
176
     1
 43
1.0
176
     1
 76
     1
176
     1
 77
     6
176
     1
 78
     2
176
     1
 67
     7
176
     1
 79
     5
176
     1
170
     0
176
     1
171
     0
176
     1
290
     0
176
     1
 93
        1
176
     1
 44
0.0
176
     1
173
     0
176
     1
  0
VISUALSTYLE
  5
31
102
{ACAD_REACTORS
330
2A
102
}
330
2A
100
AcDbVisualStyle
  2
3D Hidden
 70
     6
177
     2
291
     0
 71
     1
176
     1
 72
     2
176
     1
 73
     2
176
     1
 90
        0
176
     1
 40
-0.6
176
     1
 41
-30.0
176
     1
 62
     5
 63
     7
421
 16777215
176
     1
 74
     2
176
     1
 91
        2
176
     1
 64
     7
176
     1
 65
   257
176
     1
 75
     2
176
     1
175
     1
176
     1
 42
40.0
176
     1
 92
        0
176
     1
 66
   257
176
     1
 43
1.0
176
     1
 76
     1
176
     1
 77
     6
176
     1
 78
     2
176
     1
 67
     7
176
     1
 79
     3
176
     1
170
     0
176
     1
171
     0
176
     1
290
     0
176
     1
 93
        1
176
     1
 44
0.0
176
     1
173
     0
176
     1
  0
VISUALSTYLE
  5
30
102
{ACAD_REACTORS
330
2A
102
}
330
2A
100
AcDbVisualStyle
  2
3dWireframe
 70
     5
177
     2
291
     0
 71
     0
176
     1
 72
     2
176
     1
 73
     0
176
     1
 90
        0
176
     1
 40
-0.6
176
     1
 41
-30.0
176
     1
 62
     5
 63
     7
421
 16777215
176
     1
 74
     1
176
     1
 91
        4
176
     1
 64
     7
176
     1
 65
   257
176
     1
 75
     1
176
     1
175
     1
176
     1
 42
1.0
176
     1
 92
        0
176
     1
 66
   257
176
     1
 43
1.0
176
     1
 76
     1
176
     1
 77
     6
176
     1
 78
     2
176
     1
 67
     7
176
     1
 79
     5
176
     1
170
     0
176
     1
171
     0
176
     1
290
     0
176
     1
 93
        1
176
     1
 44
0.0
176
     1
173
     0
176
     1
  0
VISUALSTYLE
  5
32
102
{ACAD_REACTORS
330
2A
102
}
330
2A
100
AcDbVisualStyle
  2
Basic
 70
     7
177
     2
291
     1
 71
     1
176
     1
 72
     0
176
     1
 73
     1
176
     1
 90
        0
176
     1
 40
-0.6
176
     1
 41
-30.0
176
     1
 62
     5
 63
     7
421
 16777215
176
     1
 74
     0
176
     1
 91
        4
176
     1
 64
     7
176
     1
 65
   257
176
     1
 75
     1
176
     1
175
     1
176
     1
 42
1.0
176
     1
 92
        8
176
     1
 66
     7
176
     1
 43
1.0
176
     1
 76
     1
176
     1
 77
     6
176
     1
 78
     2
176
     1
 67
     7
176
     1
 79
     5
176
     1
170
     0
176
     1
171
     0
176
     1
290
     0
176
     1
 93
        1
176
     1
 44
0.0
176
     1
173
     0
176
     1
  0
VISUALSTYLE
  5
36
102
{ACAD_REACTORS
330
2A
102
}
330
2A
100
AcDbVisualStyle
  2
Brighten
 70
    12
177
     2
291
     1
 71
     2
176
     1
 72
     2
176
     1
 73
     0
176
     1
 90
        0
176
     1
 40
-0.6
176
     1
 41
-30.0
176
     1
 62
     5
 63
     7
421
 16777215
176
     1
 74
     1
176
     1
 91
        4
176
     1
 64
     7
176
     1
 65
   257
176
     1
 75
     1
176
     1
175
     1
176
     1
 42
1.0
176
     1
 92
        8
176
     1
 66
     7
176
     1
 43
1.0
176
     1
 76
     1
176
     1
 77
     6
176
     1
 78
     2
176
     1
 67
     7
176
     1
 79
     5
176
     1
170
     0
176
     1
171
     0
176
     1
290
     0
176
     1
 93
        1
176
     1
 44
50.0
176
     1
173
     0
176
     1
  0
VISUALSTYLE
  5
3A
102
{ACAD_REACTORS
330
2A
102
}
330
2A
100
AcDbVisualStyle
  2
ColorChange
 70
    16
177
     2
291
     1
 71
     2
176
     1
 72
     2
176
     1
 73
     3
176
     1
 90
        0
176
     1
 40
-0.6
176
     1
 41
-30.0
176
     1
 62
     5
 63
     8
421
  8421504
176
     1
 74
     1
176
     1
 91
        4
176
     1
 64
     7
176
     1
 65
   257
176
     1
 75
     1
176
     1
175
     1
176
     1
 42
1.0
176
     1
 92
        8
176
     1
 66
     8
424
  8421504
176
     1
 43
1.0
176
     1
 76
     1
176
     1
 77
     6
176
     1
 78
     2
176
     1
 67
     7
176
     1
 79
     5
176
     1
170
     0
176
     1
171
     0
176
     1
290
     0
176
     1
 93
        1
176
     1
 44
0.0
176
     1
173
     0
176
     1
  0
VISUALSTYLE
  5
34
102
{ACAD_REACTORS
330
2A
102
}
330
2A
100
AcDbVisualStyle
  2
Conceptual
 70
     9
177
     2
291
     0
 71
     3
176
     1
 72
     2
176
     1
 73
     0
176
     1
 90
        0
176
     1
 40
-0.6
176
     1
 41
-30.0
176
     1
 62
     5
 63
     7
421
 16777215
176
     1
 74
     2
176
     1
 91
        2
176
     1
 64
     7
176
     1
 65
   257
176
     1
 75
     1
176
     1
175
     1
176
     1
 42
40.0
176
     1
 92
        8
176
     1
 66
     7
176
     1
 43
1.0
176
     1
 76
     1
176
     1
 77
     6
176
     1
 78
     2
176
     1
 67
     7
176
     1
 79
     3
176
     1
170
     0
176
     1
171
     0
176
     1
290
     0
176
     1
 93
        1
176
     1
 44
0.0
176
     1
173
     0
176
     1
  0
VISUALSTYLE
  5
35
102
{ACAD_REACTORS
330
2A
102
}
330
2A
100
AcDbVisualStyle
  2
Dim
 70
    11
177
     2
291
     1
 71
     2
176
     1
 72
     2
176
     1
 73
     0
176
     1
 90
        0
176
     1
 40
-0.6
176
     1
 41
-30.0
176
     1
 62
     5
 63
     7
421
 16777215
176
     1
 74
     1
176
     1
 91
        4
176
     1
 64
     7
176
     1
 65
   257
176
     1
 75
     1
176
     1
175
     1
176
     1
 42
1.0
176
     1
 92
        8
176
     1
 66
     7
176
     1
 43
1.0
176
     1
 76
     1
176
     1
 77
     6
176
     1
 78
     2
176
     1
 67
     7
176
     1
 79
     5
176
     1
170
     0
176
     1
171
     0
176
     1
290
     0
176
     1
 93
        1
176
     1
 44
-50.0
176
     1
173
     0
176
     1
  0
VISUALSTYLE
  5
39
102
{ACAD_REACTORS
330
2A
102
}
330
2A
100
AcDbVisualStyle
  2
Facepattern
 70
    15
177
     2
291
     1
 71
     2
176
     1
 72
     2
176
     1
 73
     0
176
     1
 90
        0
176
     1
 40
-0.6
176
     1
 41
-30.0
176
     1
 62
     5
 63
     7
421
 16777215
176
     1
 74
     1
176
     1
 91
        4
176
     1
 64
     7
176
     1
 65
   257
176
     1
 75
     1
176
     1
175
     1
176
     1
 42
1.0
176
     1
 92
        8
176
     1
 66
     7
176
     1
 43
1.0
176
     1
 76
     1
176
     1
 77
     6
176
     1
 78
     2
176
     1
 67
     7
176
     1
 79
     5
176
     1
170
     0
176
     1
171
     0
176
     1
290
     0
176
     1
 93
        1
176
     1
 44
0.0
176
     1
173
     0
176
     1
  0
VISUALSTYLE
  5
2B
102
{ACAD_REACTORS
330
2A
102
}
330
2A
100
AcDbVisualStyle
  2
Flat
 70
     0
177
     2
291
     1
 71
     2
176
     1
 72
     1
176
     1
 73
     1
176
     1
 90
        2
176
     1
 40
-0.6
176
     1
 41
30.0
176
     1
 62
     5
 63
     7
421
 16777215
176
     1
 74
     0
176
     1
 91
        4
176
     1
 64
     7
176
     1
 65
   257
176
     1
 75
     1
176
     1
175
     1
176
     1
 42
1.0
176
     1
 92
        8
176
     1
 66
     7
176
     1
 43
1.0
176
     1
 76
     1
176
     1
 77
     6
176
     1
 78
     2
176
     1
 67
     7
176
     1
 79
     5
176
     1
170
     0
176
     1
171
     0
176
     1
290
     0
176
     1
 93
       13
176
     1
 44
0.0
176
     1
173
     0
176
     1
  0
VISUALSTYLE
  5
2C
102
{ACAD_REACTORS
330
2A
102
}
330
2A
100
AcDbVisualStyle
  2
FlatWithEdges
 70
     1
177
     2
291
     1
 71
     2
176
     1
 72
     1
176
     1
 73
     1
176
     1
 90
        2
176
     1
 40
-0.6
176
     1
 41
30.0
176
     1
 62
     5
 63
     7
421
 16777215
176
     1
 74
     1
176
     1
 91
        4
176
     1
 64
     7
176
     1
 65
   257
176
     1
 75
     1
176
     1
175
     1
176
     1
 42
1.0
176
     1
 92
        0
176
     1
 66
   257
176
     1
 43
1.0
176
     1
 76
     1
176
     1
 77
     6
176
     1
 78
     2
176
     1
 67
     7
176
     1
 79
     5
176
     1
170
     0
176
     1
171
     0
176
     1
290
     0
176
     1
 93
       13
176
     1
 44
0.0
176
     1
173
     0
176
     1
  0
VISUALSTYLE
  5
2D
102
{ACAD_REACTORS
330
2A
102
}
330
2A
100
AcDbVisualStyle
  2
Gouraud
 70
     2
177
     2
291
     1
 71
     2
176
     1
 72
     2
176
     1
 73
     1
176
     1
 90
        2
176
     1
 40
-0.6
176
     1
 41
30.0
176
     1
 62
     5
 63
     7
421
 16777215
176
     1
 74
     0
176
     1
 91
        4
176
     1
 64
     7
176
     1
 65
   257
176
     1
 75
     1
176
     1
175
     1
176
     1
 42
1.0
176
     1
 92
        0
176
     1
 66
     7
176
     1
 43
1.0
176
     1
 76
     1
176
     1
 77
     6
176
     1
 78
     2
176
     1
 67
     7
176
     1
 79
     5
176
     1
170
     0
176
     1
171
     0
176
     1
290
     0
176
     1
 93
       13
176
     1
 44
0.0
176
     1
173
     0
176
     1
  0
VISUALSTYLE
  5
2E
102
{ACAD_REACTORS
330
2A
102
}
330
2A
100
AcDbVisualStyle
  2
GouraudWithEdges
 70
     3
177
     2
291
     1
 71
     2
176
     1
 72
     2
176
     1
 73
     1
176
     1
 90
        2
176
     1
 40
-0.6
176
     1
 41
30.0
176
     1
 62
     5
 63
     7
421
 16777215
176
     1
 74
     1
176
     1
 91
        4
176
     1
 64
     7
176
     1
 65
   257
176
     1
 75
     1
176
     1
175
     1
176
     1
 42
1.0
176
     1
 92
        0
176
     1
 66
   257
176
     1
 43
1.0
176
     1
 76
     1
176
     1
 77
     6
176
     1
 78
     2
176
     1
 67
     7
176
     1
 79
     5
176
     1
170
     0
176
     1
171
     0
176
     1
290
     0
176
     1
 93
       13
176
     1
 44
0.0
176
     1
173
     0
176
     1
  0
VISUALSTYLE
  5
38
102
{ACAD_REACTORS
330
2A
102
}
330
2A
100
AcDbVisualStyle
  2
Linepattern
 70
    14
177
     2
291
     1
 71
     2
176
     1
 72
     2
176
     1
 73
     0
176
     1
 90
        0
176
     1
 40
-0.6
176
     1
 41
-30.0
176
     1
 62
     5
 63
     7
421
 16777215
176
     1
 74
     1
176
     1
 91
        4
176
     1
 64
     7
176
     1
 65
   257
176
     1
 75
     7
176
     1
175
     7
176
     1
 42
1.0
176
     1
 92
        8
176
     1
 66
     7
176
     1
 43
1.0
176
     1
 76
     1
176
     1
 77
     6
176
     1
 78
     2
176
     1
 67
     7
176
     1
 79
     5
176
     1
170
     0
176
     1
171
     0
176
     1
290
     0
176
     1
 93
        1
176
     1
 44
0.0
176
     1
173
     0
176
     1
  0
VISUALSTYLE
  5
33
102
{ACAD_REACTORS
330
2A
102
}
330
2A
100
AcDbVisualStyle
  2
Realistic
 70
     8
177
     2
291
     0
 71
     2
176
     1
 72
     2
176
     1
 73
     0
176
     1
 90
        0
176
     1
 40
-0.6
176
     1
 41
-30.0
176
     1
 62
     5
 63
     7
421
 16777215
176
     1
 74
     1
176
     1
 91
        0
176
     1
 64
     7
176
     1
 65
   257
176
     1
 75
     1
176
     1
175
     1
176
     1
 42
1.0
176
     1
 92
        8
176
     1
 66
     8
424
  7895160
176
     1
 43
1.0
176
     1
 76
     1
176
     1
 77
     6
176
     1
 78
     2
176
     1
 67
     7
176
     1
 79
     5
176
     1
170
     0
176
     1
171
     0
176
     1
290
     0
176
     1
 93
       13
176
     1
 44
0.0
176
     1
173
     0
176
     1
  0
VISUALSTYLE
  5
37
102
{ACAD_REACTORS
330
2A
102
}
330
2A
100
AcDbVisualStyle
  2
Thicken
 70
    13
177
     2
291
     1
 71
     2
176
     1
 72
     2
176
     1
 73
     0
176
     1
 90
        0
176
     1
 40
-0.6
176
     1
 41
-30.0
176
     1
 62
     5
 63
     7
421
 16777215
176
     1
 74
     1
176
     1
 91
        4
176
     1
 64
     7
176
     1
 65
   257
176
     1
 75
     1
176
     1
175
     1
176
     1
 42
1.0
176
     1
 92
       12
176
     1
 66
     7
176
     1
 43
1.0
176
     1
 76
     1
176
     1
 77
     6
176
     1
 78
     2
176
     1
 67
     7
176
     1
 79
     5
176
     1
170
     0
176
     1
171
     0
176
     1
290
     0
176
     1
 93
        1
176
     1
 44
0.0
176
     1
173
     0
176
     1
  0
ENDSEC
  0
EOF
