  0
SECTION
  2
HEADER
  9
$ACADVER
  1
AC1015
  9
$ACADMAINTVER
 70
     6
  9
$DWGCODEPAGE
  3
ANSI_1252
  9
$INSBASE
 10
0.0
 20
0.0
 30
0.0
  9
$EXTMIN
 10
0.0
 20
0.0
 30
0.0
  9
$EXTMAX
 10
594.0
 20
841.0
 30
0.0
  9
$LIMMIN
 10
0.0
 20
0.0
  9
$LIMMAX
 10
594.0
 20
841.0
  9
$ORTHOMODE
 70
     0
  9
$REGENMODE
 70
     1
  9
$FILLMODE
 70
     1
  9
$QTEXTMODE
 70
     0
  9
$MIRRTEXT
 70
     1
  9
$LTSCALE
 40
1.0
  9
$ATTMODE
 70
     1
  9
$TEXTSIZE
 40
10.0
  9
$TRACEWID
 40
1.0
  9
$TEXTSTYLE
  7
Standard
  9
$CLAYER
  8
0
  9
$CELTYPE
  6
ByLayer
  9
$CECOLOR
 62
   256
  9
$CELTSCALE
 40
1.0
  9
$DISPSILH
 70
     0
  9
$DIMSCALE
 40
1.0
  9
$DIMASZ
 40
2.5
  9
$DIMEXO
 40
0.0
  9
$DIMDLI
 40
3.75
  9
$DIMRND
 40
0.0
  9
$DIMDLE
 40
0.0
  9
$DIMEXE
 40
1.0
  9
$DIMTP
 40
0.0
  9
$DIMTM
 40
0.0
  9
$DIMTXT
 40
3.5
  9
$DIMCEN
 40
2.5
  9
$DIMTSZ
 40
0.0
  9
$DIMTOL
 70
     0
  9
$DIMLIM
 70
     0
  9
$DIMTIH
 70
     1
  9
$DIMTOH
 70
     1
  9
$DIMSE1
 70
     0
  9
$DIMSE2
 70
     0
  9
$DIMTAD
 70
     1
  9
$DIMZIN
 70
     0
  9
$DIMBLK
  1

  9
$DIMASO
 70
     1
  9
$DIMSHO
 70
     1
  9
$DIMPOST
  1

  9
$DIMAPOST
  1

  9
$DIMALT
 70
     0
  9
$DIMALTD
 70
     3
  9
$DIMALTF
 40
0.0393700787
  9
$DIMLFAC
 40
1.0
  9
$DIMTOFL
 70
     1
  9
$DIMTVP
 40
0.0
  9
$DIMTIX
 70
     0
  9
$DIMSOXD
 70
     0
  9
$DIMSAH
 70
     0
  9
$DIMBLK1
  1

  9
$DIMBLK2
  1

  9
$DIMSTYLE
  2
ISO-25
  9
$DIMCLRD
 70
     0
  9
$DIMCLRE
 70
     0
  9
$DIMCLRT
 70
     0
  9
$DIMTFAC
 40
1.0
  9
$DIMGAP
 40
1.5
  9
$DIMJUST
 70
     0
  9
$DIMSD1
 70
     0
  9
$DIMSD2
 70
     0
  9
$DIMTOLJ
 70
     0
  9
$DIMTZIN
 70
     0
  9
$DIMALTZ
 70
     0
  9
$DIMALTTZ
 70
     0
  9
$DIMUPT
 70
     0
  9
$DIMDEC
 70
     2
  9
$DIMTDEC
 70
     2
  9
$DIMALTU
 70
     2
  9
$DIMALTTD
 70
     3
  9
$DIMTXSTY
  7
Standard
  9
$DIMAUNIT
 70
     0
  9
$DIMADEC
 70
     2
  9
$DIMALTRND
 40
0.0
  9
$DIMAZIN
 70
     0
  9
$DIMDSEP
 70
    44
  9
$DIMATFIT
 70
     3
  9
$DIMFRAC
 70
     0
  9
$DIMLDRBLK
  1

  9
$DIMLUNIT
 70
     2
  9
$DIMLWD
 70
    -2
  9
$DIMLWE
 70
    -2
  9
$DIMTMOVE
 70
     0
  9
$LUNITS
 70
     2
  9
$LUPREC
 70
     2
  9
$SKETCHINC
 40
1.0
  9
$FILLETRAD
 40
10.0
  9
$AUNITS
 70
     0
  9
$AUPREC
 70
     2
  9
$MENU
  1
.
  9
$ELEVATION
 40
0.0
  9
$PELEVATION
 40
0.0
  9
$THICKNESS
 40
0.0
  9
$LIMCHECK
 70
     0
  9
$CHAMFERA
 40
0.0
  9
$CHAMFERB
 40
0.0
  9
$CHAMFERC
 40
0.0
  9
$CHAMFERD
 40
0.0
  9
$SKPOLY
 70
     0
  9
$TDCREATE
 40
2457996.434615706
  9
$TDUCREATE
 40
2457996.351282373
  9
$TDUPDATE
 40
2457996.434617986
  9
$TDUUPDATE
 40
2457996.351284653
  9
$TDINDWG
 40
0.0000000116
  9
$TDUSRTIMER
 40
0.0000000116
  9
$USRTIMER
 70
     1
  9
$ANGBASE
 50
0.0
  9
$ANGDIR
 70
     0
  9
$PDMODE
 70
     0
  9
$PDSIZE
 40
-1.0
  9
$PLINEWID
 40
0.0
  9
$SPLFRAME
 70
     0
  9
$SPLINETYPE
 70
     6
  9
$SPLINESEGS
 70
     8
  9
$HANDSEED
  5
1ED
  9
$SURFTAB1
 70
     6
  9
$SURFTAB2
 70
     6
  9
$SURFTYPE
 70
     6
  9
$SURFU
 70
     6
  9
$SURFV
 70
     6
  9
$UCSBASE
  2

  9
$UCSNAME
  2

  9
$UCSORG
 10
0.0
 20
0.0
 30
0.0
  9
$UCSXDIR
 10
1.0
 20
0.0
 30
0.0
  9
$UCSYDIR
 10
0.0
 20
1.0
 30
0.0
  9
$UCSORTHOREF
  2

  9
$UCSORTHOVIEW
 70
     0
  9
$UCSORGTOP
 10
0.0
 20
0.0
 30
0.0
  9
$UCSORGBOTTOM
 10
0.0
 20
0.0
 30
0.0
  9
$UCSORGLEFT
 10
0.0
 20
0.0
 30
0.0
  9
$UCSORGRIGHT
 10
0.0
 20
0.0
 30
0.0
  9
$UCSORGFRONT
 10
0.0
 20
0.0
 30
0.0
  9
$UCSORGBACK
 10
0.0
 20
0.0
 30
0.0
  9
$PUCSBASE
  2

  9
$PUCSNAME
  2

  9
$PUCSORG
 10
0.0
 20
0.0
 30
0.0
  9
$PUCSXDIR
 10
1.0
 20
0.0
 30
0.0
  9
$PUCSYDIR
 10
0.0
 20
1.0
 30
0.0
  9
$PUCSORTHOREF
  2

  9
$PUCSORTHOVIEW
 70
     0
  9
$PUCSORGTOP
 10
0.0
 20
0.0
 30
0.0
  9
$PUCSORGBOTTOM
 10
0.0
 20
0.0
 30
0.0
  9
$PUCSORGLEFT
 10
0.0
 20
0.0
 30
0.0
  9
$PUCSORGRIGHT
 10
0.0
 20
0.0
 30
0.0
  9
$PUCSORGFRONT
 10
0.0
 20
0.0
 30
0.0
  9
$PUCSORGBACK
 10
0.0
 20
0.0
 30
0.0
  9
$USERI1
 70
     0
  9
$USERI2
 70
     0
  9
$USERI3
 70
     0
  9
$USERI4
 70
     0
  9
$USERI5
 70
     0
  9
$USERR1
 40
0.0
  9
$USERR2
 40
0.0
  9
$USERR3
 40
0.0
  9
$USERR4
 40
0.0
  9
$USERR5
 40
0.0
  9
$WORLDVIEW
 70
     1
  9
$SHADEDGE
 70
     3
  9
$SHADEDIF
 70
    70
  9
$TILEMODE
 70
     1
  9
$MAXACTVP
 70
    64
  9
$PINSBASE
 10
0.0
 20
0.0
 30
0.0
  9
$PLIMCHECK
 70
     0
  9
$PEXTMIN
 10
1.0000000000E+20
 20
1.0000000000E+20
 30
1.0000000000E+20
  9
$PEXTMAX
 10
-1.0000000000E+20
 20
-1.0000000000E+20
 30
-1.0000000000E+20
  9
$PLIMMIN
 10
0.0
 20
0.0
  9
$PLIMMAX
 10
420.0
 20
297.0
  9
$UNITMODE
 70
     0
  9
$VISRETAIN
 70
     1
  9
$PLINEGEN
 70
     0
  9
$PSLTSCALE
 70
     1
  9
$TREEDEPTH
 70
  3020
  9
$CMLSTYLE
  2
Standard
  9
$CMLJUST
 70
     0
  9
$CMLSCALE
 40
20.0
  9
$PROXYGRAPHICS
 70
     1
  9
$MEASUREMENT
 70
     1
  9
$CELWEIGHT
370
    -1
  9
$ENDCAPS
280
     0
  9
$JOINSTYLE
280
     0
  9
$LWDISPLAY
290
     1
  9
$INSUNITS
 70
     4
  9
$HYPERLINKBASE
  1

  9
$STYLESHEET
  1

  9
$XEDIT
290
     1
  9
$CEPSNTYPE
380
     0
  9
$PSTYLEMODE
290
     1
  9
$FINGERPRINTGUID
  2
{C0EEC438-71BF-454D-85C1-C02E0F34E769}
  9
$VERSIONGUID
  2
{FAEB1C32-E019-11D5-929B-00C0DF256EC4}
  9
$EXTNAMES
290
     1
  9
$PSVPSCALE
 40
0.0
  9
$OLESTARTUP
290
     0
  0
ENDSEC
  0
SECTION
  2
CLASSES
  0
CLASS
  1
ACDBDICTIONARYWDFLT
  2
AcDbDictionaryWithDefault
  3
ObjectDBX Classes
 90
        0
280
     0
281
     0
  0
CLASS
  1
VISUALSTYLE
  2
AcDbVisualStyle
  3
ObjectDBX Classes
 90
     4095
280
     0
281
     0
  0
CLASS
  1
MATERIAL
  2
AcDbMaterial
  3
ObjectDBX Classes
 90
     1153
280
     0
281
     0
  0
CLASS
  1
SCALE
  2
AcDbScale
  3
ObjectDBX Classes
 90
     1153
280
     0
281
     0
  0
CLASS
  1
TABLESTYLE
  2
AcDbTableStyle
  3
ObjectDBX Classes
 90
     4095
280
     0
281
     0
  0
CLASS
  1
MLEADERSTYLE
  2
AcDbMLeaderStyle
  3
ACDB_MLEADERSTYLE_CLASS
 90
     4095
280
     0
281
     0
  0
CLASS
  1
SUN
  2
AcDbSun
  3
SCENEOE
 90
     1153
280
     0
281
     0
  0
CLASS
  1
ACDBPLACEHOLDER
  2
AcDbPlaceHolder
  3
ObjectDBX Classes
 90
        0
280
     0
281
     0
  0
CLASS
  1
LAYOUT
  2
AcDbLayout
  3
ObjectDBX Classes
 90
        0
280
     0
281
     0
  0
ENDSEC
  0
SECTION
  2
TABLES
  0
TABLE
  2
VPORT
  5
8
330
0
100
AcDbSymbolTable
 70
     1
  0
VPORT
  5
29
330
8
100
AcDbSymbolTableRecord
100
AcDbViewportTableRecord
  2
*Active
 70
     0
 10
0.0
 20
0.0
 11
1.0
 21
1.0
 12
297.0
 22
420.5
 13
0.0
 23
0.0
 14
10.0
 24
10.0
 15
10.0
 25
10.0
 16
0.0
 26
0.0
 36
1.0
 17
0.0
 27
0.0
 37
0.0
 40
841.0
 41
0.7063020214
 42
50.0
 43
0.0
 44
0.0
 50
0.0
 51
0.0
 71
     0
 72
  2000
 73
     1
 74
     3
 75
     0
 76
     0
 77
     0
 78
     0
281
     0
 65
     1
110
0.0
120
0.0
130
0.0
111
1.0
121
0.0
131
0.0
112
0.0
122
1.0
132
0.0
 79
     0
146
0.0
  0
ENDTAB
  0
TABLE
  2
LTYPE
  5
5
330
0
100
AcDbSymbolTable
 70
     6
  0
LTYPE
  5
14
330
5
100
AcDbSymbolTableRecord
100
AcDbLinetypeTableRecord
  2
ByBlock
 70
     0
  3

 72
    65
 73
     0
 40
0.0
  0
LTYPE
  5
15
330
5
100
AcDbSymbolTableRecord
100
AcDbLinetypeTableRecord
  2
ByLayer
 70
     0
  3

 72
    65
 73
     0
 40
0.0
  0
LTYPE
  5
16
330
5
100
AcDbSymbolTableRecord
100
AcDbLinetypeTableRecord
  2
Continuous
 70
     0
  3
Solid line
 72
    65
 73
     0
 40
0.0
  0
LTYPE
  5
6E
330
5
100
AcDbSymbolTableRecord
100
AcDbLinetypeTableRecord
  2
HIDDEN
 70
     0
  3
Hidden __ __ __ __ __ __ __ __ __ __ __ __ __ __
 72
    65
 73
     2
 40
1.905
 49
1.27
 74
     0
 49
-0.635
 74
     0
  0
LTYPE
  5
6F
330
5
100
AcDbSymbolTableRecord
100
AcDbLinetypeTableRecord
  2
PHANTOM
 70
     0
  3
Phantom ______  __  __  ______  __  __  ______
 72
    65
 73
     6
 40
12.7
 49
6.35
 74
     0
 49
-1.27
 74
     0
 49
1.27
 74
     0
 49
-1.27
 74
     0
 49
1.27
 74
     0
 49
-1.27
 74
     0
  0
LTYPE
  5
70
330
5
100
AcDbSymbolTableRecord
100
AcDbLinetypeTableRecord
  2
CENTER
 70
     0
  3
Center ____ _ ____ _ ____ _ ____ _ ____ _ ____
 72
    65
 73
     4
 40
10.16
 49
6.35
 74
     0
 49
-1.27
 74
     0
 49
1.27
 74
     0
 49
-1.27
 74
     0
  0
LTYPE
  5
71
330
5
100
AcDbSymbolTableRecord
100
AcDbLinetypeTableRecord
  2
CENTERX2
 70
     0
  3
Center (2x) ________  __  ________  __  _____
 72
    65
 73
     4
 40
20.32
 49
12.7
 74
     0
 49
-2.54
 74
     0
 49
2.54
 74
     0
 49
-2.54
 74
     0
  0
LTYPE
  5
72
330
5
100
AcDbSymbolTableRecord
100
AcDbLinetypeTableRecord
  2
DOT2
 70
     0
  3
Dot (.5x) ........................................
 72
    65
 73
     2
 40
0.635
 49
0.0
 74
     0
 49
-0.635
 74
     0
  0
ENDTAB
  0
TABLE
  2
LAYER
  5
2
330
0
100
AcDbSymbolTable
 70
     1
  0
LAYER
  5
10
330
2
100
AcDbSymbolTableRecord
100
AcDbLayerTableRecord
  2
0
 70
     0
 62
     7
  6
Continuous
370
    -3
390
F
  0
ENDTAB
  0
TABLE
  2
STYLE
  5
3
330
0
100
AcDbSymbolTable
 70
     3
  0
STYLE
  5
11
330
3
100
AcDbSymbolTableRecord
100
AcDbTextStyleTableRecord
  2
Standard
 70
     0
 40
0.0
 41
1.0
 50
0.0
 71
     0
 42
10.0
  3
txt
  4

  0
STYLE
  5
76
330
3
100
AcDbSymbolTableRecord
100
AcDbTextStyleTableRecord
  2
SLDTEXTSTYLE0
 70
     0
 40
0.0
 41
0.96
 50
0.0
 71
     0
 42
10.0
  3
ISOCP3
  4

  0
STYLE
  5
8D
330
3
100
AcDbSymbolTableRecord
100
AcDbTextStyleTableRecord
  2
SLDTEXTSTYLE1
 70
     0
 40
0.0
 41
0.605
 50
0.0
 71
     0
 42
10.0
  3
TXT
  4

  0
ENDTAB
  0
TABLE
  2
VIEW
  5
6
330
0
100
AcDbSymbolTable
 70
     0
  0
ENDTAB
  0
TABLE
  2
UCS
  5
7
330
0
100
AcDbSymbolTable
 70
     0
  0
ENDTAB
  0
TABLE
  2
APPID
  5
9
330
0
100
AcDbSymbolTable
 70
     1
  0
APPID
  5
12
330
9
100
AcDbSymbolTableRecord
100
AcDbRegAppTableRecord
  2
ACAD
 70
     0
  0
ENDTAB
  0
TABLE
  2
DIMSTYLE
  5
A
330
0
100
AcDbSymbolTable
 70
     2
100
AcDbDimStyleTable
  0
DIMSTYLE
105
27
330
A
100
AcDbSymbolTableRecord
100
AcDbDimStyleTableRecord
  2
ISO-25
 70
     0
 41
2.5
 42
0.625
 43
3.75
 44
1.25
 73
     0
 74
     0
 77
     1
 78
     8
140
2.5
141
2.5
143
0.0393700787
147
0.625
171
     3
172
     1
178
     0
271
     2
272
     2
274
     3
278
    44
283
     0
284
     8
340
11
  0
DIMSTYLE
105
77
102
{ACAD_REACTORS
330
75
330
82
102
}
330
A
100
AcDbSymbolTableRecord
100
AcDbDimStyleTableRecord
  2
SLDDIMSTYLE0
 70
     0
 41
2.5
 44
0.0
 45
0.000000001
 73
     0
 74
     0
 77
     1
 78
    12
 79
     3
140
6.0
147
1.5
173
     1
178
     0
271
     2
272
     2
276
     2
284
    12
340
76
  0
ENDTAB
  0
TABLE
  2
BLOCK_RECORD
  5
1
330
0
100
AcDbSymbolTable
 70
     3
  0
BLOCK_RECORD
  5
1F
330
1
100
AcDbSymbolTableRecord
100
AcDbBlockTableRecord
  2
*Model_Space
340
22
  0
BLOCK_RECORD
  5
1B
330
1
100
AcDbSymbolTableRecord
100
AcDbBlockTableRecord
  2
*Paper_Space
340
1E
  0
BLOCK_RECORD
  5
23
330
1
100
AcDbSymbolTableRecord
100
AcDbBlockTableRecord
  2
*Paper_Space0
340
26
  0
BLOCK_RECORD
  5
78
330
1
100
AcDbSymbolTableRecord
100
AcDbBlockTableRecord
  2
_D
340
0
  0
BLOCK_RECORD
  5
83
330
1
100
AcDbSymbolTableRecord
100
AcDbBlockTableRecord
  2
_D_1
340
0
  0
ENDTAB
  0
ENDSEC
  0
SECTION
  2
BLOCKS
  0
BLOCK
  5
20
330
1F
100
AcDbEntity
  8
0
100
AcDbBlockBegin
  2
*Model_Space
 70
     0
 10
0.0
 20
0.0
 30
0.0
  3
*Model_Space
  1

  0
ENDBLK
  5
21
330
1F
100
AcDbEntity
  8
0
100
AcDbBlockEnd
  0
BLOCK
  5
1C
330
1B
100
AcDbEntity
 67
     1
  8
0
100
AcDbBlockBegin
  2
*Paper_Space
 70
     0
 10
0.0
 20
0.0
 30
0.0
  3
*Paper_Space
  1

  0
ENDBLK
  5
1D
330
1B
100
AcDbEntity
 67
     1
  8
0
100
AcDbBlockEnd
  0
BLOCK
  5
24
330
23
100
AcDbEntity
  8
0
100
AcDbBlockBegin
  2
*Paper_Space0
 70
     0
 10
0.0
 20
0.0
 30
0.0
  3
*Paper_Space0
  1

  0
ENDBLK
  5
25
330
23
100
AcDbEntity
  8
0
100
AcDbBlockEnd
  0
BLOCK
  5
79
330
78
100
AcDbEntity
  8
0
100
AcDbBlockBegin
  2
_D
 70
     0
 10
0.0
 20
0.0
 30
0.0
  3
_D
  1

  0
SOLID
  5
7B
330
78
100
AcDbEntity
  8
0
  6
Continuous
 62
     7
370
    18
100
AcDbTrace
 10
42.7614395004
 20
152.0299240879
 30
0.0
 11
42.4614395004
 21
149.5299240879
 31
0.0
 12
43.0614395004
 22
149.5299240879
 32
0.0
 13
43.0614395004
 23
149.5299240879
 33
0.0
  0
SOLID
  5
7C
330
78
100
AcDbEntity
  8
0
  6
Continuous
 62
     7
370
    18
100
AcDbTrace
 10
42.7614395004
 20
52.0299240879
 30
0.0
 11
43.0614395004
 21
54.5299240879
 31
0.0
 12
42.4614395004
 22
54.5299240879
 32
0.0
 13
42.4614395004
 23
54.5299240879
 33
0.0
  0
LINE
  5
7D
330
78
100
AcDbEntity
  8
0
  6
Continuous
 62
     7
370
    18
100
AcDbLine
 10
56.6850079902
 20
152.0299240879
 30
0.0
 11
41.7614395004
 21
152.0299240879
 31
0.0
  0
LINE
  5
7E
330
78
100
AcDbEntity
  8
0
  6
Continuous
 62
     7
370
    18
100
AcDbLine
 10
56.6850079902
 20
52.0299240879
 30
0.0
 11
41.7614395004
 21
52.0299240879
 31
0.0
  0
LINE
  5
7F
330
78
100
AcDbEntity
  8
0
  6
Continuous
 62
     7
370
    18
100
AcDbLine
 10
42.7614395004
 20
152.0299240879
 30
0.0
 11
42.7614395004
 21
52.0299240879
 31
0.0
  0
MTEXT
  5
80
330
78
100
AcDbEntity
  8
0
  6
Continuous
 62
     7
370
    18
100
AcDbMText
 10
35.0270332946
 20
94.3680541463
 30
0.0
 40
6.0
 41
0.0
 71
     1
 72
     1
  1
100
  7
SLDTEXTSTYLE0
 11
-7.044195017643634E-15
 21
1.0
 31
0.0
 73
     1
 44
1.0
  0
MTEXT
  5
81
330
78
100
AcDbEntity
  8
0
  6
Continuous
 62
     7
370
    18
100
AcDbMText
 10
35.0270332946
 20
105.7430548466
 30
0.0
 40
6.0
 41
0.0
 71
     1
 72
     1
  1
mm
  7
SLDTEXTSTYLE0
 11
-7.044195017643634E-15
 21
1.0
 31
0.0
 73
     1
 44
1.0
  0
ENDBLK
  5
7A
330
78
100
AcDbEntity
  8
0
100
AcDbBlockEnd
  0
BLOCK
  5
84
330
83
100
AcDbEntity
  8
0
100
AcDbBlockBegin
  2
_D_1
 70
     0
 10
0.0
 20
0.0
 30
0.0
  3
_D_1
  1

  0
SOLID
  5
86
330
83
100
AcDbEntity
  8
0
  6
Continuous
 62
     7
370
    18
100
AcDbTrace
 10
56.6850079902
 20
38.4602342313
 30
0.0
 11
59.1850079902
 21
38.1602342313
 31
0.0
 12
59.1850079902
 22
38.7602342313
 32
0.0
 13
59.1850079902
 23
38.7602342313
 33
0.0
  0
SOLID
  5
87
330
83
100
AcDbEntity
  8
0
  6
Continuous
 62
     7
370
    18
100
AcDbTrace
 10
156.6850079902
 20
38.4602342313
 30
0.0
 11
154.1850079902
 21
38.7602342313
 31
0.0
 12
154.1850079902
 22
38.1602342313
 32
0.0
 13
154.1850079902
 23
38.1602342313
 33
0.0
  0
LINE
  5
88
330
83
100
AcDbEntity
  8
0
  6
Continuous
 62
     7
370
    18
100
AcDbLine
 10
56.6850079902
 20
52.0299240879
 30
0.0
 11
56.6850079902
 21
37.4602342313
 31
0.0
  0
LINE
  5
89
330
83
100
AcDbEntity
  8
0
  6
Continuous
 62
     7
370
    18
100
AcDbLine
 10
156.6850079902
 20
52.0299240879
 30
0.0
 11
156.6850079902
 21
37.4602342313
 31
0.0
  0
LINE
  5
8A
330
83
100
AcDbEntity
  8
0
  6
Continuous
 62
     7
370
    18
100
AcDbLine
 10
56.6850079902
 20
38.4602342313
 30
0.0
 11
156.6850079902
 21
38.4602342313
 31
0.0
  0
MTEXT
  5
8B
330
83
100
AcDbEntity
  8
0
  6
Continuous
 62
     7
370
    18
100
AcDbMText
 10
93.9626484861
 20
46.1946404371
 30
0.0
 40
6.0
 41
0.0
 71
     1
 72
     1
  1
100
  7
SLDTEXTSTYLE0
 73
     1
 44
1.0
  0
MTEXT
  5
8C
330
83
100
AcDbEntity
  8
0
  6
Continuous
 62
     7
370
    18
100
AcDbMText
 10
105.3376491864
 20
46.1946404371
 30
0.0
 40
6.0
 41
0.0
 71
     1
 72
     1
  1
mm
  7
SLDTEXTSTYLE0
 73
     1
 44
1.0
  0
ENDBLK
  5
85
330
83
100
AcDbEntity
  8
0
100
AcDbBlockEnd
  0
ENDSEC
  0
SECTION
  2
ENTITIES
  0
LINE
  5
73
330
1F
100
AcDbEntity
  8
0
  6
Continuous
 62
     7
370
    18
100
AcDbLine
 10
56.6850079902
 20
152.0299240879
 30
0.0
 11
56.6850079902
 21
52.0299240879
 31
0.0
  0
LINE
  5
74
330
1F
100
AcDbEntity
  8
0
  6
Continuous
 62
     7
370
    18
100
AcDbLine
 10
56.6850079902
 20
52.0299240879
 30
0.0
 11
156.6850079902
 21
52.0299240879
 31
0.0
  0
DIMENSION
  5
75
330
1F
100
AcDbEntity
  8
0
  6
Continuous
 62
     7
370
    18
100
AcDbDimension
  2
_D
 10
42.7614395004
 20
52.0299240879
 30
0.0
 11
42.7614395004
 21
105.4472211621
 31
0.0
 70
   160
  1
<>mm
 71
     2
 42
-1.0
  3
SLDDIMSTYLE0
100
AcDbAlignedDimension
 13
56.6850079902
 23
152.0299240879
 33
0.0
 14
56.6850079902
 24
52.0299240879
 34
0.0
 50
90.0
100
AcDbRotatedDimension
  0
DIMENSION
  5
82
330
1F
100
AcDbEntity
  8
0
  6
Continuous
 62
     7
370
    18
100
AcDbDimension
  2
_D_1
 10
156.6850079902
 20
38.4602342313
 30
0.0
 11
105.0418155019
 21
38.4602342313
 31
0.0
 70
   160
  1
<>mm
 71
     2
 42
-1.0
  3
SLDDIMSTYLE0
100
AcDbAlignedDimension
 13
56.6850079902
 23
52.0299240879
 33
0.0
 14
156.6850079902
 24
52.0299240879
 34
0.0
100
AcDbRotatedDimension
  0
MTEXT
  5
8E
330
1F
100
AcDbEntity
  8
0
  6
Continuous
 62
     7
370
     0
100
AcDbMText
 10
412.8252631579
 20
48.4342449499
 30
0.0
 40
10.0
 41
0.0
 71
     1
 72
     1
  1
KLUDI GmbH & Co KG
  7
SLDTEXTSTYLE1
 73
     1
 44
1.0
  0
MTEXT
  5
8F
330
1F
100
AcDbEntity
  8
0
  6
Continuous
 62
     7
370
     0
100
AcDbMText
 10
210.0873490389
 20
48.4342449499
 30
0.0
 40
10.0
 41
0.0
 71
     1
 72
     1
  1
40 290 05 75
  7
SLDTEXTSTYLE1
 73
     1
 44
1.0
  0
SPLINE
  5
90
330
1F
100
AcDbEntity
  8
0
  6
Continuous
 62
     7
370
    25
100
AcDbSpline
210
0.0
220
0.0
230
1.0
 70
     8
 71
     3
 72
     9
 73
     5
 74
     0
 42
0.000000001
 43
0.00000001
 40
0.0
 40
0.0
 40
0.0
 40
0.0
 40
0.5000044164742602
 40
1.0
 40
1.0
 40
1.0
 40
1.0
 10
343.9732454815803
 20
292.9518456218549
 30
0.0
 10
344.1048938223217
 20
298.0141873054647
 30
0.0
 10
344.3681881781392
 20
308.1387812426672
 30
0.0
 10
344.4071830849454
 20
318.2636434734756
 30
0.0
 10
344.4266803661285
 20
323.3260298726864
 30
0.0
  0
SPLINE
  5
91
330
1F
100
AcDbEntity
  8
0
  6
Continuous
 62
     7
370
    25
100
AcDbSpline
210
0.0
220
0.0
230
1.0
 70
     8
 71
     3
 72
    19
 73
    15
 74
     0
 42
0.000000001
 43
0.00000001
 40
0.0
 40
0.0
 40
0.0
 40
0.0
 40
0.1473621207670681
 40
0.2810988007055467
 40
0.3361019456570908
 40
0.3811300664792486
 40
0.4011799048334272
 40
0.4211292648859875
 40
0.4648337736849885
 40
0.5174251804384705
 40
0.5795233859275845
 40
0.7272521231966335
 40
0.8931283908897251
 40
1.0
 40
1.0
 40
1.0
 40
1.0
 10
302.3002036014495
 20
448.675298189909
 30
0.0
 10
302.2556102655171
 20
448.4520492681223
 30
0.0
 10
302.1705467961204
 20
448.0261935336472
 30
0.0
 10
302.0847351545451
 20
447.4175564273945
 30
0.0
 10
302.0075020062395
 20
446.7910182069397
 30
0.0
 10
301.948107493309
 20
446.3338745508565
 30
0.0
 10
301.8860484244511
 20
445.9218395891546
 30
0.0
 10
301.8149065196728
 20
445.4893068337678
 30
0.0
 10
301.7039651375422
 20
444.8945599260789
 30
0.0
 10
301.5520790417617
 20
444.1788519072236
 30
0.0
 10
301.3017825289262
 20
443.0973074079906
 30
0.0
 10
300.9556302237386
 20
441.6909503288491
 30
0.0
 10
300.6106305226546
 20
440.1982856166688
 30
0.0
 10
300.4165049376012
 20
439.1179468674265
 30
0.0
 10
300.3404401341377
 20
438.6946345327206
 30
0.0
  0
SPLINE
  5
92
330
1F
100
AcDbEntity
  8
0
  6
Continuous
 62
     7
370
    25
100
AcDbSpline
210
0.0
220
0.0
230
1.0
 70
     8
 71
     3
 72
    17
 73
    13
 74
     0
 42
0.000000001
 43
0.00000001
 40
0.0
 40
0.0
 40
0.0
 40
0.0
 40
0.3394265501075722
 40
0.4470781905077165
 40
0.4650577753831468
 40
0.4804424364156971
 40
0.4945538980015298
 40
0.5088223026042187
 40
0.5244101162168102
 40
0.5843363507750683
 40
0.6982184386041246
 40
0.9999999999999999
 40
0.9999999999999999
 40
0.9999999999999999
 40
0.9999999999999999
 10
303.6186173656879
 20
449.8485113141842
 30
0.0
 10
303.4841778300761
 20
449.8253377265547
 30
0.0
 10
303.3070998015748
 20
449.7948144642414
 30
0.0
 10
303.0405983752415
 20
449.6641951165018
 30
0.0
 10
302.9090550814396
 20
449.5744153721849
 30
0.0
 10
302.8575665281936
 20
449.535948612656
 30
0.0
 10
302.8068660190112
 20
449.4947151405945
 30
0.0
 10
302.7583937310337
 20
449.4517903393626
 30
0.0
 10
302.6723403941951
 20
449.3690522457779
 30
0.0
 10
302.5521279555844
 20
449.2277679682658
 30
0.0
 10
302.3803526066306
 20
448.9595213339681
 30
0.0
 10
302.3288071717327
 20
448.7701091507918
 30
0.0
 10
302.2913839766679
 20
448.6325914619275
 30
0.0
  0
SPLINE
  5
93
330
1F
100
AcDbEntity
  8
0
  6
Continuous
 62
     7
370
    25
100
AcDbSpline
210
0.0
220
0.0
230
1.0
 70
     8
 71
     3
 72
     9
 73
     5
 74
     0
 42
0.000000001
 43
0.00000001
 40
0.0
 40
0.0
 40
0.0
 40
0.0
 40
0.498856322706122
 40
0.9999999999999999
 40
0.9999999999999999
 40
0.9999999999999999
 40
0.9999999999999999
 10
409.1893602261243
 20
449.7412527559109
 30
0.0
 10
409.1898219372318
 20
449.7583196067747
 30
0.0
 10
409.1907474764833
 20
449.7925315633783
 30
0.0
 10
409.1896099269266
 20
449.82728177039
 30
0.0
 10
409.1890398511587
 20
449.8446966169186
 30
0.0
  0
ARC
  5
94
330
1F
100
AcDbEntity
  8
0
  6
Continuous
 62
     7
370
    25
100
AcDbCircle
 10
321.2094431633
 20
414.6117484662
 30
0.0
 40
21.64486082191335
100
AcDbArc
 50
144.9802476932
 51
170.9531540197
  0
ARC
  5
95
330
1F
100
AcDbEntity
  8
0
  6
Continuous
 62
     7
370
    25
100
AcDbCircle
 10
321.2094431633
 20
414.6117484662
 30
0.0
 40
21.64486082191332
100
AcDbArc
 50
9.0468459803
 51
9.5739963405
  0
SPLINE
  5
96
330
1F
100
AcDbEntity
  8
0
  6
Continuous
 62
     7
370
    25
100
AcDbSpline
210
0.0
220
0.0
230
1.0
 70
     8
 71
     3
 72
    13
 73
     9
 74
     0
 42
0.000000001
 43
0.00000001
 40
0.0
 40
0.0
 40
0.0
 40
0.0
 40
0.2961533870898918
 40
0.5530169382226002
 40
0.6682030111214161
 40
0.7775642924935112
 40
0.8860869418105327
 40
1.0
 40
1.0
 40
1.0
 40
1.0
 10
405.7854432711301
 20
446.2288553474255
 30
0.0
 10
406.2758144354698
 20
446.3552106293298
 30
0.0
 10
407.1915006025622
 20
446.591157993679
 30
0.0
 10
408.0954247757703
 20
447.2261530665714
 30
0.0
 10
408.6172948967387
 20
447.892010854341
 30
0.0
 10
408.8946883262617
 20
448.4570052708359
 30
0.0
 10
409.0751149222243
 20
449.1021591117192
 30
0.0
 10
409.1058055197972
 20
449.5591602517438
 30
0.0
 10
409.1215226897893
 20
449.7931982038327
 30
0.0
  0
LINE
  5
97
330
1F
100
AcDbEntity
  8
0
  6
Continuous
 62
     7
370
    25
100
AcDbLine
 10
299.7094430128
 20
416.4428124783
 30
0.0
 11
299.7094430128
 21
415.1366064904
 31
0.0
  0
LINE
  5
98
330
1F
100
AcDbEntity
  8
0
  6
Continuous
 62
     7
370
    25
100
AcDbLine
 10
342.7094426105
 20
415.6787479875
 30
0.0
 11
342.7094426105
 21
416.4428124783
 31
0.0
  0
ARC
  5
99
330
1F
100
AcDbEntity
  8
0
  6
Continuous
 62
     7
370
    25
100
AcDbCircle
 10
332.7094431633
 20
416.4428092412
 30
0.0
 40
10.00000000000001
100
AcDbArc
 50
0.0
 51
9.0468459803
  0
ARC
  5
9A
330
1F
100
AcDbEntity
  8
0
  6
Continuous
 62
     7
370
    25
100
AcDbCircle
 10
309.7094431633
 20
416.4428092412
 30
0.0
 40
10.0
100
AcDbArc
 50
170.9531540197
 51
180.0
  0
SPLINE
  5
9B
330
1F
100
AcDbEntity
  8
0
  6
Continuous
 62
     7
370
    25
100
AcDbSpline
210
0.0
220
0.0
230
1.0
 70
     8
 71
     3
 72
    10
 73
     6
 74
     0
 42
0.000000001
 43
0.00000001
 40
0.0
 40
0.0
 40
0.0
 40
0.0
 40
0.2375370926799378
 40
0.6553441855337525
 40
1.0
 40
1.0
 40
1.0
 40
1.0
 10
309.5518387952743
 20
450.2845639941998
 30
0.0
 10
309.0425710869636
 20
450.2624759806332
 30
0.0
 10
307.6375457591038
 20
450.2015370716925
 30
0.0
 10
305.6156990085668
 20
450.0609381163342
 30
0.0
 10
304.2462362812911
 20
449.9096439103633
 30
0.0
 10
303.6271985718904
 20
449.8412544486828
 30
0.0
  0
SPLINE
  5
9C
330
1F
100
AcDbEntity
  8
0
  6
Continuous
 62
     7
370
    25
100
AcDbSpline
210
0.0
220
0.0
230
1.0
 70
     8
 71
     3
 72
    11
 73
     7
 74
     0
 42
0.000000001
 43
0.00000001
 40
0.0
 40
0.0
 40
0.0
 40
0.0
 40
0.0305007036895809
 40
0.3981224242149423
 40
0.8316033173450121
 40
1.0
 40
1.0
 40
1.0
 40
1.0
 10
320.0674128882802
 20
450.5253220556088
 30
0.0
 10
320.0171918757972
 20
450.5247779520327
 30
0.0
 10
319.3616623693384
 20
450.5176758262277
 30
0.0
 10
317.9225824518574
 20
450.5004147247373
 30
0.0
 10
316.299455163283
 20
450.4800999896455
 30
0.0
 10
315.2973225320924
 20
450.4595469316716
 30
0.0
 10
315.016940245956
 20
450.4537964818783
 30
0.0
  0
LINE
  5
9D
330
1F
100
AcDbEntity
  8
0
  6
Continuous
 62
     7
370
    25
100
AcDbLine
 10
344.5002045581
 20
434.2924887894
 30
0.0
 11
344.5002045581
 21
437.4553049562
 31
0.0
  0
LINE
  5
9E
330
1F
100
AcDbEntity
  8
0
  6
Continuous
 62
     7
370
    25
100
AcDbLine
 10
344.5002045581
 20
418.2117516754
 30
0.0
 11
344.5002045581
 21
426.3316030262
 31
0.0
  0
SPLINE
  5
9F
330
1F
100
AcDbEntity
  8
0
  6
Continuous
 62
     7
370
    25
100
AcDbSpline
210
0.0
220
0.0
230
1.0
 70
     8
 71
     3
 72
    15
 73
    11
 74
     0
 42
0.000000001
 43
0.00000001
 40
0.0
 40
0.0
 40
0.0
 40
0.0
 40
0.1440437698581061
 40
0.2773102970447152
 40
0.4023228734052552
 40
0.5230935013157684
 40
0.641775464553706
 40
0.7601227977400432
 40
0.8793594912977889
 40
1.0
 40
1.0
 40
1.0
 40
1.0
 10
344.5000760355888
 20
437.4553049562283
 30
0.0
 10
344.500024225857
 20
437.9606761779258
 30
0.0
 10
344.4999244827571
 20
438.9336071401245
 30
0.0
 10
344.6701314894793
 20
440.3440442413007
 30
0.0
 10
345.1598647612835
 20
441.598152473527
 30
0.0
 10
345.9268287726833
 20
442.638080785857
 30
0.0
 10
346.8991089136783
 20
443.4504823517764
 30
0.0
 10
348.0198944437653
 20
444.0220766781066
 30
0.0
 10
349.2361320770333
 20
444.3762550636863
 30
0.0
 10
350.0774573482685
 20
444.436902702612
 30
0.0
 10
350.5005817959009
 20
444.467403983862
 30
0.0
  0
LINE
  5
A0
330
1F
100
AcDbEntity
  8
0
  6
Continuous
 62
     7
370
    25
100
AcDbLine
 10
450.7740382204
 20
398.5788310526
 30
0.0
 11
449.0853790292
 21
402.5570536611
 31
0.0
  0
LINE
  5
A1
330
1F
100
AcDbEntity
  8
0
  6
Continuous
 62
     7
370
    25
100
AcDbLine
 10
427.1221105108
 20
392.8759778498
 30
0.0
 11
428.6819193611
 21
389.2012844441
 31
0.0
  0
LINE
  5
A2
330
1F
100
AcDbEntity
  8
0
  6
Continuous
 62
     7
370
    25
100
AcDbLine
 10
450.0791225681
 20
397.6566503403
 30
0.0
 11
450.7740382204
 21
398.5788310526
 31
0.0
  0
LINE
  5
A3
330
1F
100
AcDbEntity
  8
0
  6
Continuous
 62
     7
370
    25
100
AcDbLine
 10
428.6819193611
 20
389.2012844441
 30
0.0
 11
429.8280198226
 21
389.0605653284
 31
0.0
  0
SPLINE
  5
A4
330
1F
100
AcDbEntity
  8
0
  6
Continuous
 62
     7
370
    25
100
AcDbSpline
210
0.0
220
0.0
230
1.0
 70
     8
 71
     3
 72
    12
 73
     8
 74
     0
 42
0.000000001
 43
0.00000001
 40
0.0
 40
0.0
 40
0.0
 40
0.0
 40
0.2237594787629302
 40
0.4597448790276695
 40
0.6853540387970118
 40
0.9132772459334655
 40
1.0
 40
1.0
 40
1.0
 40
1.0
 10
409.1747049340902
 20
449.6671343801327
 30
0.0
 10
409.1532465491157
 20
449.4119141858091
 30
0.0
 10
409.109157321438
 20
448.8875289038385
 30
0.0
 10
408.8232141653201
 20
448.1436625664931
 30
0.0
 10
408.3590461014325
 20
447.5091626051313
 30
0.0
 10
407.9101332174405
 20
447.0587942233752
 30
0.0
 10
407.5747277038984
 20
446.9258790921473
 30
0.0
 10
407.4822831997571
 20
446.8892450092144
 30
0.0
  0
SPLINE
  5
A5
330
1F
100
AcDbEntity
  8
0
  6
Continuous
 62
     7
370
    25
100
AcDbSpline
210
0.0
220
0.0
230
1.0
 70
     8
 71
     3
 72
     9
 73
     5
 74
     0
 42
0.000000001
 43
0.00000001
 40
0.0
 40
0.0
 40
0.0
 40
0.0
 40
0.5000114120491607
 40
0.9999999999999999
 40
0.9999999999999999
 40
0.9999999999999999
 40
0.9999999999999999
 10
408.0631453642545
 20
451.0853076932736
 30
0.0
 10
406.3607934426871
 20
451.1860709922354
 30
0.0
 10
402.9561673070737
 20
451.3875929906013
 30
0.0
 10
399.5492292577573
 20
451.3555152859903
 30
0.0
 10
397.8457991132436
 20
451.3394767997571
 30
0.0
  0
SPLINE
  5
A6
330
1F
100
AcDbEntity
  8
0
  6
Continuous
 62
     7
370
    25
100
AcDbSpline
210
0.0
220
0.0
230
1.0
 70
     8
 71
     3
 72
    11
 73
     7
 74
     0
 42
0.000000001
 43
0.00000001
 40
0.0
 40
0.0
 40
0.0
 40
0.0
 40
0.31748606739165
 40
0.5863954110784539
 40
0.8122004457646161
 40
1.0
 40
1.0
 40
1.0
 40
1.0
 10
409.1770965704618
 20
449.9732787368603
 30
0.0
 10
409.1762355586293
 20
449.9916466383374
 30
0.0
 10
409.1746452734506
 20
450.0255720739506
 30
0.0
 10
409.0934334298113
 20
450.3155444435183
 30
0.0
 10
408.8169253045327
 20
450.8374732615287
 30
0.0
 10
408.250602312027
 20
451.0118520447435
 30
0.0
 10
407.9934600839315
 20
451.091029739172
 30
0.0
  0
SPLINE
  5
A7
330
1F
100
AcDbEntity
  8
0
  6
Continuous
 62
     7
370
    25
100
AcDbSpline
210
0.0
220
0.0
230
1.0
 70
     8
 71
     3
 72
    22
 73
    18
 74
     0
 42
0.000000001
 43
0.00000001
 40
0.0
 40
0.0
 40
0.0
 40
0.0
 40
0.0021503366616325
 40
0.0048356859210263
 40
0.0092315946066202
 40
0.0182640499259695
 40
0.0411289616343018
 40
0.09734981620607
 40
0.1577007921515726
 40
0.2020238336255417
 40
0.2312107221372445
 40
0.263388246621296
 40
0.3201403862506977
 40
0.4088951439728912
 40
0.5692421474954276
 40
0.8732107615718879
 40
1.0
 40
1.0
 40
1.0
 40
1.0
 10
454.6214137324987
 20
413.3459488509007
 30
0.0
 10
454.6216158955903
 20
413.3466434950245
 30
0.0
 10
454.6220705207813
 20
413.3482056135845
 30
0.0
 10
454.6260025414307
 20
413.3619988646341
 30
0.0
 10
454.6347390799488
 20
413.3943084978562
 30
0.0
 10
454.6557140056831
 20
413.4832526446893
 30
0.0
 10
454.6905344287046
 20
413.723148382917
 30
0.0
 10
454.6519497106235
 20
414.1262255175333
 30
0.0
 10
454.4507490835456
 20
414.5406883707338
 30
0.0
 10
454.1956004053899
 20
414.8009930153918
 30
0.0
 10
454.0375820564216
 20
414.9128958849739
 30
0.0
 10
453.9192014813601
 20
414.9814712177596
 30
0.0
 10
453.8122552223542
 20
415.0306015756007
 30
0.0
 10
453.6957115134251
 20
415.0737248234821
 30
0.0
 10
453.5506702361853
 20
415.1139970590456
 30
0.0
 10
453.393231121715
 20
415.1361395092978
 30
0.0
 10
453.3574378914943
 20
415.1387625136481
 30
0.0
 10
453.3469025144277
 20
415.1395345685788
 30
0.0
  0
LINE
  5
A8
330
1F
100
AcDbEntity
  8
0
  6
Continuous
 62
     7
370
    25
100
AcDbLine
 10
453.3602837572
 20
415.1323000548
 30
0.0
 11
449.6420864114
 21
415.4018024562
 31
0.0
  0
LINE
  5
A9
330
1F
100
AcDbEntity
  8
0
  6
Continuous
 62
     7
370
    25
100
AcDbLine
 10
449.4237098942
 20
415.4142076729
 30
0.0
 11
439.0316475281
 21
415.6349907277
 31
0.0
  0
LINE
  5
AA
330
1F
100
AcDbEntity
  8
0
  6
Continuous
 62
     7
370
    25
100
AcDbLine
 10
344.5004634658
 20
426.3300384043
 30
0.0
 11
345.0507521728
 21
426.5303249119
 31
0.0
  0
LINE
  5
AB
330
1F
100
AcDbEntity
  8
0
  6
Continuous
 62
     7
370
    25
100
AcDbLine
 10
345.0507521728
 20
434.0931708572
 30
0.0
 11
344.5003666082
 21
434.2934871672
 31
0.0
  0
ARC
  5
AC
330
1F
100
AcDbEntity
  8
0
  6
Continuous
 62
     7
370
    25
100
AcDbCircle
 10
344.9823474561
 20
433.9052285751
 30
0.0
 40
0.2000000000000553
100
AcDbArc
 50
0.0
 51
70.0
  0
ARC
  5
AD
330
1F
100
AcDbEntity
  8
0
  6
Continuous
 62
     7
370
    25
100
AcDbCircle
 10
344.9823474561
 20
426.7182683573
 30
0.0
 40
0.1999999999999886
100
AcDbArc
 50
290.0
 51
0.0
  0
LINE
  5
AE
330
1F
100
AcDbEntity
  8
0
  6
Continuous
 62
     7
370
    25
100
AcDbLine
 10
345.1823480526
 20
426.718273258
 30
0.0
 11
345.1823480526
 21
433.9052225111
 31
0.0
  0
LINE
  5
AF
330
1F
100
AcDbEntity
  8
0
  6
Continuous
 62
     7
370
    25
100
AcDbLine
 10
291.8060664186
 20
329.635885602
 30
0.0
 11
296.2667420605
 21
317.3802784292
 31
0.0
  0
LINE
  5
B0
330
1F
100
AcDbEntity
  8
0
  6
Continuous
 62
     7
370
    25
100
AcDbLine
 10
296.4676842192
 20
328.5234133361
 30
0.0
 11
295.564835901
 21
331.0039649365
 31
0.0
  0
ARC
  5
B1
330
1F
100
AcDbEntity
  8
0
  6
Continuous
 62
     7
370
    25
100
AcDbCircle
 10
289.9266810419
 20
328.9518456219
 30
0.0
 40
2.0
100
AcDbArc
 50
20.0
 51
90.0
  0
ARC
  5
B2
330
1F
100
AcDbEntity
  8
0
  6
Continuous
 62
     7
370
    25
100
AcDbCircle
 10
289.9266810419
 20
328.9518456219
 30
0.0
 40
6.0
100
AcDbArc
 50
20.0
 51
90.0
  0
LINE
  5
B3
330
1F
100
AcDbEntity
  8
0
  6
Continuous
 62
     7
370
    25
100
AcDbLine
 10
276.9266795466
 20
330.9518444
 30
0.0
 11
289.9266816774
 21
330.9518444
 31
0.0
  0
LINE
  5
B4
330
1F
100
AcDbEntity
  8
0
  6
Continuous
 62
     7
370
    25
100
AcDbLine
 10
289.9266816774
 20
334.9518450556
 30
0.0
 11
276.9266795466
 21
334.9518450556
 31
0.0
  0
LINE
  5
B5
330
1F
100
AcDbEntity
  8
0
  6
Continuous
 62
     7
370
    25
100
AcDbLine
 10
300.4238586971
 20
439.1436214207
 30
0.0
 11
300.3452979127
 21
438.7543583868
 31
0.0
  0
LINE
  5
B6
330
1F
100
AcDbEntity
  8
0
  6
Continuous
 62
     7
370
    25
100
AcDbLine
 10
298.0040870706
 20
413.7239466069
 30
0.0
 11
296.4676842192
 21
328.5234133361
 31
0.0
  0
LINE
  5
B7
330
1F
100
AcDbEntity
  8
0
  6
Continuous
 62
     7
370
    25
100
AcDbLine
 10
344.4266803661
 20
323.3190915195
 30
0.0
 11
344.4267083058
 21
350.2918454466
 31
0.0
  0
SPLINE
  5
B8
330
1F
100
AcDbEntity
  8
0
  6
Continuous
 62
     7
370
    25
100
AcDbSpline
210
0.0
220
0.0
230
1.0
 70
    24
 71
     3
 72
    23
 73
    19
 74
     0
 42
0.000000001
 43
0.00000001
 40
0.7822437799654349
 40
0.7822437799654349
 40
0.7822437799654349
 40
0.7822437799654349
 40
0.8366828335378016
 40
0.891121889025201
 40
0.9455609445126005
 40
1.0
 40
1.0
 40
1.0
 40
1.035280470549814
 40
1.070560941099629
 40
1.105841411649443
 40
1.141121882199258
 40
1.158762117474165
 40
1.176402352749072
 40
1.19404258802398
 40
1.211682823298887
 40
1.246963293848701
 40
1.282243764398516
 40
1.282243764398516
 40
1.282243764398516
 40
1.282243764398516
 10
344.4266481398369
 20
292.9518456218549
 30
0.0
 10
344.426648174477
 20
292.9518456218549
 30
0.0
 10
343.499907634877
 20
292.9518456218549
 30
0.0
 10
339.4775024045649
 20
292.9518456218549
 30
0.0
 10
333.2536538576019
 20
292.9518456218548
 30
0.0
 10
328.0865470520725
 20
292.9518456218548
 30
0.0
 10
325.3912299068857
 20
292.9518456218548
 30
0.0
 10
323.6444682059009
 20
292.9518456218548
 30
0.0
 10
320.0541883520252
 20
292.9518456218548
 30
0.0
 10
314.6446117705356
 20
292.9518456218548
 30
0.0
 10
309.4860432924654
 20
292.9518456218548
 30
0.0
 10
305.6184478610819
 20
292.9518456218548
 30
0.0
 10
302.9040270224559
 20
292.9518456218548
 30
0.0
 10
301.0833009697229
 20
292.9518456218548
 30
0.0
 10
299.5029263162226
 20
292.9518456218547
 30
0.0
 10
297.7411182674948
 20
292.9518456218547
 30
0.0
 10
296.2330727932755
 20
292.9518456218547
 30
0.0
 10
295.8262299070058
 20
292.9518456218547
 30
0.0
 10
295.8262299070058
 20
292.9518456218547
 30
0.0
  0
LINE
  5
B9
330
1F
100
AcDbEntity
  8
0
  6
Continuous
 62
     7
370
    25
100
AcDbLine
 10
296.2667420605
 20
317.3802784292
 30
0.0
 11
295.826230208
 21
292.9518456219
 31
0.0
  0
SPLINE
  5
BA
330
1F
100
AcDbEntity
  8
0
  6
Continuous
 62
     7
370
    25
100
AcDbSpline
210
0.0
220
0.0
230
1.0
 70
     8
 71
     3
 72
    34
 73
    30
 74
     0
 42
0.000000001
 43
0.00000001
 40
0.0
 40
0.0
 40
0.0
 40
0.0
 40
0.03125
 40
0.03125
 40
0.0625000000000001
 40
0.0625000000000001
 40
0.1250000000000002
 40
0.1250000000000002
 40
0.1875000000000002
 40
0.1875000000000002
 40
0.2500000000000003
 40
0.2500000000000003
 40
0.3750000000000013
 40
0.3750000000000013
 40
0.5000000000000022
 40
0.5000000000000022
 40
0.6250000000000032
 40
0.6250000000000032
 40
0.7500000000000032
 40
0.7500000000000032
 40
0.8125000000000024
 40
0.8125000000000024
 40
0.8750000000000017
 40
0.8750000000000017
 40
0.9375000000000008
 40
0.9375000000000008
 40
0.9687500000000004
 40
0.9687500000000004
 40
1.0
 40
1.0
 40
1.0
 40
1.0
 10
296.2667426442741
 20
317.3802783317798
 30
0.0
 10
296.2667426431468
 20
317.3802783120055
 30
0.0
 10
296.2684647884136
 20
317.4162725810032
 30
0.0
 10
296.2740591441844
 20
317.5351441185102
 30
0.0
 10
296.2778939583546
 20
317.6173983650819
 30
0.0
 10
296.2904599051152
 20
317.8928841381378
 30
0.0
 10
296.3003155758934
 20
318.1166061222249
 30
0.0
 10
296.3195950454067
 20
318.5787334381495
 30
0.0
 10
296.3291994018474
 20
318.8206397359525
 30
0.0
 10
296.3478041935096
 20
319.3173919052022
 30
0.0
 10
296.3567435507808
 20
319.5706001990312
 30
0.0
 10
296.3819915417894
 20
320.3325243554174
 30
0.0
 10
296.396874358983
 20
320.8473873990014
 30
0.0
 10
296.4226347173943
 20
321.8864107345378
 30
0.0
 10
296.4335378100081
 20
322.4126136353818
 30
0.0
 10
296.4511584303923
 20
323.4539745454458
 30
0.0
 10
296.4579455296291
 20
323.971351651309
 30
0.0
 10
296.4678938750927
 20
324.999139714332
 30
0.0
 10
296.4710528979193
 20
325.5096311964447
 30
0.0
 10
296.4733673903784
 20
326.2680270335748
 30
0.0
 10
296.4737347715288
 20
326.519587507912
 30
0.0
 10
296.4737174039855
 20
327.0190937123828
 30
0.0
 10
296.4733257462883
 20
327.2664722170853
 30
0.0
 10
296.4719397221589
 20
327.7402884732094
 30
0.0
 10
296.4709371175208
 20
327.9668332333907
 30
0.0
 10
296.4693506831389
 20
328.2597152535212
 30
0.0
 10
296.4688139358349
 20
328.3484923895196
 30
0.0
 10
296.4679696631156
 20
328.4816750138643
 30
0.0
 10
296.4676844228144
 20
328.5234129530519
 30
0.0
 10
296.4676844231796
 20
328.5234129322632
 30
0.0
  0
ARC
  5
BB
330
1F
100
AcDbEntity
  8
0
  6
Continuous
 62
     7
370
    25
100
AcDbCircle
 10
299.4038599907
 20
413.6987056937
 30
0.0
 40
1.400000000000044
100
AcDbArc
 50
95.9354191866
 51
178.9669093514
  0
SPLINE
  5
BC
330
1F
100
AcDbEntity
  8
0
  6
Continuous
 62
     7
370
    25
100
AcDbSpline
210
0.0
220
0.0
230
1.0
 70
     8
 71
     3
 72
    22
 73
    18
 74
     0
 42
0.000000001
 43
0.00000001
 40
0.0
 40
0.0
 40
0.0
 40
0.0
 40
0.125
 40
0.187590640397055
 40
0.25
 40
0.3126362219945645
 40
0.375
 40
0.4389352287297147
 40
0.5
 40
0.5626105900150274
 40
0.625
 40
0.6875142232330562
 40
0.75
 40
0.8122341968223599
 40
0.875
 40
0.9373977961895725
 40
1.0
 40
1.0
 40
1.0
 40
1.0
 10
344.4267089137235
 20
350.291845621855
 30
0.0
 10
344.4267228697823
 20
353.2569036637454
 30
0.0
 10
344.4361994562277
 20
357.7052785194188
 30
0.0
 10
344.919230556842
 20
363.3471281270943
 30
0.0
 10
345.5800963036099
 20
367.3788416250915
 30
0.0
 10
346.60093190745
 20
371.1437678396049
 30
0.0
 10
348.0158508689191
 20
374.6315631343646
 30
0.0
 10
349.8274143119988
 20
377.7380866818733
 30
0.0
 10
352.0354610126459
 20
380.4758304759355
 30
0.0
 10
354.6017654216996
 20
382.8027182163178
 30
0.0
 10
357.5373185334489
 20
384.7534534002772
 30
0.0
 10
360.7853844261284
 20
386.3102738671234
 30
0.0
 10
364.2960830589415
 20
387.5031483237405
 30
0.0
 10
368.0272685104873
 20
388.3650657116755
 30
0.0
 10
371.9175594249245
 20
388.9561253629166
 30
0.0
 10
375.9206695207323
 20
389.3403215307836
 30
0.0
 10
378.6200222241817
 20
389.5245057094509
 30
0.0
 10
379.9716966236639
 20
389.6156369675631
 30
0.0
  0
SPLINE
  5
BD
330
1F
100
AcDbEntity
  8
0
  6
Continuous
 62
     7
370
    25
100
AcDbSpline
210
0.0
220
0.0
230
1.0
 70
    24
 71
     3
 72
     8
 73
     4
 74
     0
 42
0.000000001
 43
0.00000001
 40
0.0
 40
0.0
 40
0.0
 40
0.0
 40
1.0
 40
1.0
 40
1.0
 40
1.0
 10
336.4743538214112
 20
418.2117484661987
 30
0.0
 10
335.3964203224336
 20
418.2117484661987
 30
0.0
 10
334.2407876753402
 20
418.2117484661986
 30
0.0
 10
333.0088577529718
 20
418.2117484661986
 30
0.0
  0
SPLINE
  5
BE
330
1F
100
AcDbEntity
  8
0
  6
Continuous
 62
     7
370
    25
100
AcDbSpline
210
0.0
220
0.0
230
1.0
 70
     8
 71
     3
 72
    14
 73
    10
 74
     0
 42
0.000000001
 43
0.00000001
 40
0.0
 40
0.0
 40
0.0
 40
0.0
 40
0.2500000000000005
 40
0.2500000000000005
 40
0.3750000000000002
 40
0.3750000000000002
 40
0.5
 40
0.5
 40
1.0
 40
1.0
 40
1.0
 40
1.0
 10
333.0088577529718
 20
418.2117484661987
 30
0.0
 10
332.2067997265769
 20
418.2117484661987
 30
0.0
 10
331.3833820816036
 20
418.2438841705313
 30
0.0
 10
330.1192626245399
 20
418.3482422187036
 30
0.0
 10
329.6930342215359
 20
418.3923923411069
 30
0.0
 10
328.8310777866532
 20
418.5008945579095
 30
0.0
 10
328.3958835758425
 20
418.5652582948751
 30
0.0
 10
326.2255034684583
 20
418.9356717405379
 30
0.0
 10
324.4850170532238
 20
419.3888395882564
 30
0.0
 10
322.7482534532017
 20
420.0209698426214
 30
0.0
  0
SPLINE
  5
BF
330
1F
100
AcDbEntity
  8
0
  6
Continuous
 62
     7
370
    25
100
AcDbSpline
210
0.0
220
0.0
230
1.0
 70
    24
 71
     3
 72
     8
 73
     4
 74
     0
 42
0.000000001
 43
0.00000001
 40
0.0
 40
0.0
 40
0.0
 40
0.0
 40
1.0
 40
1.0
 40
1.0
 40
1.0
 10
322.7482534532017
 20
420.0209698426214
 30
0.0
 10
322.2381745539001
 20
420.2066233790944
 30
0.0
 10
321.7274781049812
 20
420.3925016852615
 30
0.0
 10
321.2161706364143
 20
420.5786023843779
 30
0.0
  0
SPLINE
  5
C0
330
1F
100
AcDbEntity
  8
0
  6
Continuous
 62
     7
370
    25
100
AcDbSpline
210
0.0
220
0.0
230
1.0
 70
     8
 71
     3
 72
     8
 73
     4
 74
     0
 42
0.000000001
 43
0.00000001
 40
0.0013999840203585
 40
0.0013999840203585
 40
0.0013999840203585
 40
0.0013999840203585
 40
0.6262686277567391
 40
0.6262686277567391
 40
0.6262686277567391
 40
0.6262686277567391
 10
302.2913842212611
 20
448.6325897257722
 30
0.0
 10
300.9791626413153
 20
442.2783034295976
 30
0.0
 10
299.6680890030832
 20
435.9221077047577
 30
0.0
 10
298.8705354274445
 20
428.7117484661985
 30
0.0
  0
SPLINE
  5
C1
330
1F
100
AcDbEntity
  8
0
  6
Continuous
 62
     7
370
    25
100
AcDbSpline
210
0.0
220
0.0
230
1.0
 70
     8
 71
     3
 72
    38
 73
    34
 74
     0
 42
0.000000001
 43
0.00000001
 40
0.0
 40
0.0
 40
0.0
 40
0.0
 40
0.1250000000000021
 40
0.1250000000000021
 40
0.1875000000000032
 40
0.1875000000000032
 40
0.2500000000000042
 40
0.2500000000000042
 40
0.2812500000000049
 40
0.2812500000000049
 40
0.3125000000000055
 40
0.3125000000000055
 40
0.3750000000000065
 40
0.3750000000000065
 40
0.4375000000000074
 40
0.4375000000000074
 40
0.4687500000000074
 40
0.4687500000000074
 40
0.5000000000000074
 40
0.5000000000000074
 40
0.5625000000000074
 40
0.5625000000000074
 40
0.593750000000007
 40
0.593750000000007
 40
0.6250000000000067
 40
0.6250000000000067
 40
0.7500000000000041
 40
0.7500000000000041
 40
0.8125000000000029
 40
0.8125000000000029
 40
0.8750000000000017
 40
0.8750000000000017
 40
1.0
 40
1.0
 40
1.0
 40
1.0
 10
298.8705354272309
 20
428.7117484682399
 30
0.0
 10
298.8705058111353
 20
428.7117592476172
 30
0.0
 10
298.9572189633668
 20
428.6801982393218
 30
0.0
 10
299.2458209366487
 20
428.5751557114967
 30
0.0
 10
299.3684964244349
 20
428.5305054854685
 30
0.0
 10
299.6714281006818
 20
428.4202473722981
 30
0.0
 10
299.8503818595555
 20
428.3551135307582
 30
0.0
 10
300.1681932743188
 20
428.2394396356743
 30
0.0
 10
300.2829369596244
 20
428.197676349653
 30
0.0
 10
300.532881186764
 20
428.1067040907475
 30
0.0
 10
300.6685077837824
 20
428.0573400464581
 30
0.0
 10
301.1079193334608
 20
427.8974073217823
 30
0.0
 10
301.4411241106557
 20
427.7761307009681
 30
0.0
 10
302.1941149230347
 20
427.5020644585862
 30
0.0
 10
302.6143306819823
 20
427.3491184303597
 30
0.0
 10
303.3138658355027
 20
427.0945084566553
 30
0.0
 10
303.559480148786
 20
427.0051121575106
 30
0.0
 10
304.0693953022404
 20
426.8195182196519
 30
0.0
 10
304.3328902836326
 20
426.7236138895465
 30
0.0
 10
305.1479789938451
 20
426.4269458607428
 30
0.0
 10
305.7238785207914
 20
426.2173355750064
 30
0.0
 10
306.6327861248017
 20
425.8865202614485
 30
0.0
 10
306.9433186191244
 20
425.7734956767424
 30
0.0
 10
307.5790233473093
 20
425.5421180779009
 30
0.0
 10
307.905295265091
 20
425.4233648115514
 30
0.0
 10
309.5565728052714
 20
424.8223489384134
 30
0.0
 10
310.9369908676364
 20
424.3199178528691
 30
0.0
 10
313.0745401323874
 20
423.5419135462222
 30
0.0
 10
313.7983543958387
 20
423.2784666991887
 30
0.0
 10
315.2658399642262
 20
422.7443456330804
 30
0.0
 10
316.0054055456906
 20
422.4751657751395
 30
0.0
 10
318.2268123613521
 20
421.6666398160427
 30
0.0
 10
319.7166345625737
 20
421.1243888804835
 30
0.0
 10
321.2161706364143
 20
420.5786023843971
 30
0.0
  0
LINE
  5
C2
330
1F
100
AcDbEntity
  8
0
  6
Continuous
 62
     7
370
    25
100
AcDbLine
 10
426.8916715035
 20
392.779030895
 30
0.0
 11
379.9716960737
 21
389.6156335829
 31
0.0
  0
SPLINE
  5
C3
330
1F
100
AcDbEntity
  8
0
  6
Continuous
 62
     7
370
    25
100
AcDbSpline
210
0.0
220
0.0
230
1.0
 70
     8
 71
     3
 72
    10
 73
     6
 74
     0
 42
0.000000001
 43
0.00000001
 40
0.0
 40
0.0
 40
0.0
 40
0.0
 40
0.5
 40
0.5
 40
1.0
 40
1.0
 40
1.0
 40
1.0
 10
427.9716966236638
 20
393.2303768353437
 30
0.0
 10
427.6138679823091
 20
393.0834939507039
 30
0.0
 10
427.3470274227205
 20
392.9708917418507
 30
0.0
 10
426.9855195831197
 20
392.818354441005
 30
0.0
 10
426.8916714554716
 20
392.7790293045497
 30
0.0
 10
426.8916714888909
 20
392.7790292325219
 30
0.0
  0
LINE
  5
C4
330
1F
100
AcDbEntity
  8
0
  6
Continuous
 62
     7
370
    25
100
AcDbLine
 10
344.7629008541
 20
444.2971135137
 30
0.0
 11
396.4303601632
 21
445.8305622099
 31
0.0
  0
SPLINE
  5
C5
330
1F
100
AcDbEntity
  8
0
  6
Continuous
 62
     7
370
    25
100
AcDbSpline
210
0.0
220
0.0
230
1.0
 70
     8
 71
     3
 72
     8
 73
     4
 74
     0
 42
0.000000001
 43
0.00000001
 40
0.0668195392077385
 40
0.0668195392077385
 40
0.0668195392077385
 40
0.0668195392077385
 40
0.0908119718754291
 40
0.0908119718754291
 40
0.0908119718754291
 40
0.0908119718754291
 10
299.259089597183
 20
415.0912004094202
 30
0.0
 10
299.408510378427
 20
415.1067349066437
 30
0.0
 10
299.5586207651471
 20
415.1218679995173
 30
0.0
 10
299.7094431633024
 20
415.1366099905313
 30
0.0
  0
SPLINE
  5
C6
330
1F
100
AcDbEntity
  8
0
  6
Continuous
 62
     7
370
    25
100
AcDbSpline
210
0.0
220
0.0
230
1.0
 70
     8
 71
     3
 72
    30
 73
    26
 74
     0
 42
0.000000001
 43
0.00000001
 40
0.0
 40
0.0
 40
0.0
 40
0.0
 40
0.1250000000000003
 40
0.1250000000000003
 40
0.1875000000000005
 40
0.1875000000000005
 40
0.2500000000000007
 40
0.2500000000000007
 40
0.375000000000001
 40
0.375000000000001
 40
0.4375000000000011
 40
0.4375000000000011
 40
0.5000000000000012
 40
0.5000000000000012
 40
0.625000000000001
 40
0.625000000000001
 40
0.6875000000000008
 40
0.6875000000000008
 40
0.7500000000000007
 40
0.7500000000000007
 40
0.8125000000000004
 40
0.8125000000000004
 40
0.8750000000000003
 40
0.8750000000000003
 40
1.0
 40
1.0
 40
1.0
 40
1.0
 10
321.1422410822402
 20
415.1066559860463
 30
0.0
 10
319.7254732700464
 20
415.1084323883269
 30
0.0
 10
318.3327703771001
 20
415.1136496614278
 30
0.0
 10
316.2783294137509
 20
415.1255657891783
 30
0.0
 10
315.5993274085334
 20
415.1302340770309
 30
0.0
 10
314.2532076071833
 20
415.140769401886
 30
0.0
 10
313.5841385027765
 20
415.1466311036787
 30
0.0
 10
311.6379010280834
 20
415.1645457809435
 30
0.0
 10
310.4074102295424
 20
415.1769733136536
 30
0.0
 10
308.6611820976268
 20
415.1924818951963
 30
0.0
 10
308.0941377962602
 20
415.1971484221496
 30
0.0
 10
307.002090888393
 20
415.2045883787079
 30
0.0
 10
306.4824567838407
 20
415.2072881496423
 30
0.0
 10
305.0002144436145
 20
415.2123895238759
 30
0.0
 10
304.1135457357797
 20
415.2116341688016
 30
0.0
 10
302.939203967393
 20
415.2039062610975
 30
0.0
 10
302.5742659905656
 20
415.2003308446438
 30
0.0
 10
301.9129057363006
 20
415.1919663074245
 30
0.0
 10
301.6141672948082
 20
415.1871585427577
 30
0.0
 10
301.0795550009019
 20
415.1769634051974
 30
0.0
 10
300.8436816418595
 20
415.1715779590581
 30
0.0
 10
300.4355956292582
 20
415.161089670755
 30
0.0
 10
300.2628551763768
 20
415.1559714445073
 30
0.0
 10
299.8481307405955
 20
415.1426507100421
 30
0.0
 10
299.7094431633024
 20
415.1366099905289
 30
0.0
 10
299.7094431633024
 20
415.1366099905313
 30
0.0
  0
SPLINE
  5
C7
330
1F
100
AcDbEntity
  8
0
  6
Continuous
 62
     7
370
    25
100
AcDbSpline
210
0.0
220
0.0
230
1.0
 70
     8
 71
     3
 72
    16
 73
    12
 74
     0
 42
0.000000001
 43
0.00000001
 40
0.0
 40
0.0
 40
0.0
 40
0.0
 40
0.0060981017835584
 40
0.0285364955562963
 40
0.0509748893282578
 40
0.0958516768723777
 40
0.1968244488464421
 40
0.3735267998010404
 40
0.6827559139715865
 40
0.9974045443558867
 40
1.0
 40
1.0
 40
1.0
 40
1.0
 10
439.0316447788124
 20
415.6360751712328
 30
0.0
 10
438.835850585227
 20
415.6361605959989
 30
0.0
 10
437.9196179060247
 20
415.636560347191
 30
0.0
 10
436.2829467191808
 20
415.637323115457
 30
0.0
 10
433.401192734774
 20
415.6385882458622
 30
0.0
 10
427.9979040079542
 20
415.6409816680502
 30
0.0
 10
417.6416006241812
 20
415.6455660480738
 30
0.0
 10
398.7976312005478
 20
415.6539106745917
 30
0.0
 10
373.0930854061349
 20
415.6652918850997
 30
0.0
 10
352.9786594368386
 20
415.6741983738818
 30
0.0
 10
342.7927764961715
 20
415.6787085388834
 30
0.0
 10
342.709443162209
 20
415.6787454377059
 30
0.0
  0
SPLINE
  5
C8
330
1F
100
AcDbEntity
  8
0
  6
Continuous
 62
     7
370
    25
100
AcDbSpline
210
0.0
220
0.0
230
1.0
 70
     8
 71
     3
 72
    31
 73
    27
 74
     0
 42
0.000000001
 43
0.00000001
 40
0.0
 40
0.0
 40
0.0
 40
0.0
 40
0.1250000000000002
 40
0.1250000000000002
 40
0.1875000000000003
 40
0.1875000000000003
 40
0.2500000000000004
 40
0.2500000000000004
 40
0.3750000000000005
 40
0.3750000000000005
 40
0.4375000000000004
 40
0.4375000000000004
 40
0.5000000000000003
 40
0.5000000000000003
 40
0.6250000000000003
 40
0.6250000000000003
 40
0.6562500000000002
 40
0.6562500000000002
 40
0.6875000000000002
 40
0.6875000000000002
 40
0.7500000000000002
 40
0.8125000000000002
 40
0.8125000000000002
 40
0.8750000000000002
 40
0.8750000000000002
 40
1.0
 40
1.0
 40
1.0
 40
1.0
 10
321.1422410822402
 20
415.1066559860464
 30
0.0
 10
322.5650213313958
 20
415.1047564742856
 30
0.0
 10
323.9643326912265
 20
415.1140034688258
 30
0.0
 10
326.0295718801192
 20
415.1415644480367
 30
0.0
 10
326.7123222419235
 20
415.1529951296082
 30
0.0
 10
328.0662481882972
 20
415.17955504405
 30
0.0
 10
328.739107604939
 20
415.1947399581218
 30
0.0
 10
330.6964336879763
 20
415.2434308554486
 30
0.0
 10
331.9345719885231
 20
415.2802146086634
 30
0.0
 10
333.6926128768333
 20
415.3369370197262
 30
0.0
 10
334.2640830275144
 20
415.3561999149795
 30
0.0
 10
335.3628084548416
 20
415.394361847956
 30
0.0
 10
335.8857988156128
 20
415.4131058896867
 30
0.0
 10
337.3780850031217
 20
415.4676864199315
 30
0.0
 10
338.2714272904765
 20
415.5018566678804
 30
0.0
 10
339.257991729594
 20
415.5402739888257
 30
0.0
 10
339.4491942806537
 20
415.5477620984877
 30
0.0
 10
339.8146348737363
 20
415.5621381577786
 30
0.0
 10
339.9891816456555
 20
415.569037938507
 30
0.0
 10
340.4887440897713
 20
415.5888585837678
 30
0.0
 10
341.0907337105421
 20
415.6129444193601
 30
0.0
 10
341.5663674755538
 20
415.6321779968119
 30
0.0
 10
341.9779019617299
 20
415.6488707813526
 30
0.0
 10
342.1522007429739
 20
415.6559705516345
 30
0.0
 10
342.5697949980092
 20
415.6730095038423
 30
0.0
 10
342.7094334966703
 20
415.6787450415679
 30
0.0
 10
342.7094431628053
 20
415.6787454377057
 30
0.0
  0
SPLINE
  5
C9
330
1F
100
AcDbEntity
  8
0
  6
Continuous
 62
     7
370
    25
100
AcDbSpline
210
0.0
220
0.0
230
1.0
 70
     8
 71
     3
 72
    19
 73
    15
 74
     0
 42
0.000000001
 43
0.00000001
 40
0.0
 40
0.0
 40
0.0
 40
0.0
 40
0.045634231090369
 40
0.0922487939364959
 40
0.1398584373080106
 40
0.1884661110016039
 40
0.2380840020110664
 40
0.2887201062265099
 40
0.3921134905201419
 40
0.5020106934631642
 40
0.606871224088725
 40
0.720217435672687
 40
0.9418907164899856
 40
1.0
 40
1.0
 40
1.0
 40
1.0
 10
449.2541781484866
 20
402.7992291053358
 30
0.0
 10
449.3525929747975
 20
402.9470486123486
 30
0.0
 10
449.5515368118192
 20
403.2458631407496
 30
0.0
 10
449.843699828487
 20
403.7050805291007
 30
0.0
 10
450.1351198104101
 20
404.1783878366981
 30
0.0
 10
450.4254960725448
 20
404.6659963140062
 30
0.0
 10
450.7148108356751
 20
405.1678736101352
 30
0.0
 10
451.1012234676286
 20
405.8597732410622
 30
0.0
 10
451.584890106748
 20
406.7659151937991
 30
0.0
 10
452.1433814973545
 20
407.8709320292672
 30
0.0
 10
452.6982979912212
 20
409.0208748317676
 30
0.0
 10
453.4187166615841
 20
410.5736897191291
 30
0.0
 10
454.038063873857
 20
411.9726341914555
 30
0.0
 10
454.4712192220954
 20
412.9714957467899
 30
0.0
 10
454.5611831803398
 20
413.178953739913
 30
0.0
  0
SPLINE
  5
CA
330
1F
100
AcDbEntity
  8
0
  6
Continuous
 62
     7
370
    25
100
AcDbSpline
210
0.0
220
0.0
230
1.0
 70
     8
 71
     3
 72
    52
 73
    48
 74
     0
 42
0.000000001
 43
0.00000001
 40
0.0
 40
0.0
 40
0.0
 40
0.0
 40
0.0624999999999998
 40
0.0624999999999998
 40
0.0937499999999996
 40
0.0937499999999996
 40
0.1249999999999994
 40
0.1249999999999994
 40
0.1874999999999993
 40
0.1874999999999993
 40
0.2187499999999995
 40
0.2187499999999995
 40
0.2499999999999997
 40
0.2499999999999997
 40
0.3125000000000002
 40
0.3125000000000002
 40
0.3437500000000006
 40
0.3437500000000006
 40
0.375000000000001
 40
0.375000000000001
 40
0.4375000000000018
 40
0.4375000000000018
 40
0.4687500000000017
 40
0.4687500000000017
 40
0.5000000000000014
 40
0.5000000000000014
 40
0.5625000000000013
 40
0.5625000000000013
 40
0.5937500000000016
 40
0.5937500000000016
 40
0.6250000000000017
 40
0.6250000000000017
 40
0.6875000000000014
 40
0.6875000000000014
 40
0.7500000000000012
 40
0.7500000000000012
 40
0.8125000000000012
 40
0.8125000000000012
 40
0.8437500000000012
 40
0.8437500000000012
 40
0.8750000000000012
 40
0.8750000000000012
 40
0.9375000000000007
 40
0.9375000000000007
 40
0.9687500000000003
 40
0.9687500000000003
 40
1.0
 40
1.0
 40
1.0
 40
1.0
 10
427.9717154531339
 20
393.2303891050968
 30
0.0
 10
428.2458372679081
 20
393.3429204220558
 30
0.0
 10
428.5665866366534
 20
393.4740863804604
 30
0.0
 10
429.1170055214538
 20
393.6975151473878
 30
0.0
 10
429.3120983661062
 20
393.7764395801573
 30
0.0
 10
429.7263161757133
 20
393.9429340836925
 30
0.0
 10
429.9454960791391
 20
394.0305118383027
 30
0.0
 10
430.6269750029825
 20
394.3000948429562
 30
0.0
 10
431.1169264580458
 20
394.4905539463514
 30
0.0
 10
431.9062624651212
 20
394.7877796608619
 30
0.0
 10
432.1784964454592
 20
394.8887723867833
 30
0.0
 10
432.7420165029793
 20
395.0938098587702
 30
0.0
 10
433.0330108371075
 20
395.1977169253705
 30
0.0
 10
433.9180923215372
 20
395.5067059597089
 30
0.0
 10
434.5296585425481
 20
395.7108625180566
 30
0.0
 10
435.4796155860587
 20
396.0115972445292
 30
0.0
 10
435.8017161270489
 20
396.1109636977297
 30
0.0
 10
436.4569779982882
 20
396.308148683195
 30
0.0
 10
436.7892325650253
 20
396.405667855446
 30
0.0
 10
437.7835059257119
 20
396.6918284117374
 30
0.0
 10
438.4490148418992
 20
396.8755749339966
 30
0.0
 10
439.4479564636459
 20
397.1523302696796
 30
0.0
 10
439.7810234269411
 20
397.2448690244036
 30
0.0
 10
440.4466253718155
 20
397.4330524692579
 30
0.0
 10
440.7772460196932
 20
397.5281434317745
 30
0.0
 10
441.7491062502441
 20
397.8168871037818
 30
0.0
 10
442.3754365650622
 20
398.0154966092022
 30
0.0
 10
443.2766639404735
 20
398.339381794944
 30
0.0
 10
443.5706628433458
 20
398.4516829581457
 30
0.0
 10
444.1447011329116
 20
398.6871708566545
 30
0.0
 10
444.423153352563
 20
398.8097736360638
 30
0.0
 10
445.2181612899822
 20
399.1868106695361
 30
0.0
 10
445.700338763959
 20
399.4533937269746
 30
0.0
 10
446.5732095410655
 20
400.0130401956586
 30
0.0
 10
446.9655249946866
 20
400.3082362654581
 30
0.0
 10
447.6409116866117
 20
400.8850162986553
 30
0.0
 10
447.9283648003305
 20
401.1685712960766
 30
0.0
 10
448.2961468977844
 20
401.5658197645993
 30
0.0
 10
448.408390844131
 20
401.6938862205885
 30
0.0
 10
448.60965322869
 20
401.9327016217321
 30
0.0
 10
448.6991292196616
 20
402.0438928065972
 30
0.0
 10
448.9368008581218
 20
402.348326838224
 30
0.0
 10
449.0545868563124
 20
402.5125593861098
 30
0.0
 10
449.1740164306167
 20
402.6823111808397
 30
0.0
 10
449.2042278463781
 20
402.7261945591285
 30
0.0
 10
449.2442621327083
 20
402.7844185881979
 30
0.0
 10
449.2541620732474
 20
402.7992518388106
 30
0.0
 10
449.2541782008978
 20
402.7992291832356
 30
0.0
  0
LINE
  5
CB
330
1F
100
AcDbEntity
  8
0
  6
Continuous
 62
     7
370
    25
100
AcDbLine
 10
409.1869164357
 20
449.7411782501
 30
0.0
 11
409.189345325
 21
449.7412974594
 31
0.0
  0
SPLINE
  5
CC
330
1F
100
AcDbEntity
  8
0
  6
Continuous
 62
     7
370
    25
100
AcDbSpline
210
0.0
220
0.0
230
1.0
 70
    24
 71
     3
 72
    15
 73
    11
 74
     0
 42
0.000000001
 43
0.00000001
 40
0.0
 40
0.0
 40
0.0
 40
0.0
 40
0.2499999999999999
 40
0.2499999999999999
 40
0.4999999999999999
 40
0.4999999999999999
 40
0.7499999999999998
 40
0.7499999999999998
 40
0.8124999999999998
 40
1.0
 40
1.0
 40
1.0
 40
1.0
 10
396.4303630697203
 20
445.8305649214009
 30
0.0
 10
397.5125725148152
 20
445.8626841479029
 30
0.0
 10
398.541762945423
 20
445.89322980679
 30
0.0
 10
400.4118486115146
 20
445.9487326536367
 30
0.0
 10
401.2527438469984
 20
445.9736898415963
 30
0.0
 10
402.6639819566922
 20
446.01557441089
 30
0.0
 10
403.2343248309023
 20
446.0325017922241
 30
0.0
 10
403.7267474690252
 20
446.0471165549397
 30
0.0
 10
404.0765843885955
 20
446.0574994723216
 30
0.0
 10
404.2397343986855
 20
446.0623416515796
 30
0.0
 10
404.2397343986855
 20
446.0623416515796
 30
0.0
  0
LINE
  5
CD
330
1F
100
AcDbEntity
  8
0
  6
Continuous
 62
     7
370
    25
100
AcDbLine
 10
396.3860366592
 20
451.3248736618
 30
0.0
 11
321.2147347029
 21
450.5376453159
 31
0.0
  0
LINE
  5
CE
330
1F
100
AcDbEntity
  8
0
  6
Continuous
 62
     7
370
    25
100
AcDbLine
 10
303.6186173657
 20
449.8485113142
 30
0.0
 11
304.0170017729
 21
449.8816663978
 31
0.0
  0
SPLINE
  5
CF
330
1F
100
AcDbEntity
  8
0
  6
Continuous
 62
     7
370
    25
100
AcDbSpline
210
0.0
220
0.0
230
1.0
 70
     8
 71
     3
 72
     9
 73
     5
 74
     0
 42
0.000000001
 43
0.00000001
 40
0.0
 40
0.0
 40
0.0
 40
0.0
 40
0.6956584730612021
 40
1.0
 40
1.0
 40
1.0
 40
1.0
 10
308.0003382736741
 20
450.2118016240902
 30
0.0
 10
309.6267166521797
 20
450.2908134277613
 30
0.0
 10
311.9646144015579
 20
450.4043918670828
 30
0.0
 10
314.3048985533675
 20
450.4322726774379
 30
0.0
 10
315.0171442055998
 20
450.4407579658337
 30
0.0
  0
SPLINE
  5
D0
330
1F
100
AcDbEntity
  8
0
  6
Continuous
 62
     7
370
    25
100
AcDbSpline
210
0.0
220
0.0
230
1.0
 70
     8
 71
     3
 72
    10
 73
     6
 74
     0
 42
0.000000001
 43
0.00000001
 40
0.0
 40
0.0
 40
0.0
 40
0.0
 40
0.4878060726306533
 40
0.992163269898735
 40
1.0
 40
1.0
 40
1.0
 40
1.0
 10
344.4502037117181
 20
434.019246196539
 30
0.0
 10
344.4633540081495
 20
434.0926242114761
 30
0.0
 10
344.4901007869198
 20
434.2418699370287
 30
0.0
 10
344.5043915849434
 20
434.3158766549012
 30
0.0
 10
344.5000713559517
 20
434.2928412385521
 30
0.0
 10
344.5000052550731
 20
434.2924887893506
 30
0.0
  0
SPLINE
  5
D1
330
1F
100
AcDbEntity
  8
0
  6
Continuous
 62
     7
370
    25
100
AcDbSpline
210
0.0
220
0.0
230
1.0
 70
     8
 71
     3
 72
    32
 73
    28
 74
     0
 42
0.000000001
 43
0.00000001
 40
0.0
 40
0.0
 40
0.0
 40
0.0
 40
0.1250000000000041
 40
0.1250000000000041
 40
0.1875000000000034
 40
0.1875000000000034
 40
0.2500000000000028
 40
0.2500000000000028
 40
0.3125000000000022
 40
0.3125000000000022
 40
0.3750000000000016
 40
0.3750000000000016
 40
0.4375000000000009
 40
0.4375000000000009
 40
0.5000000000000003
 40
0.5000000000000003
 40
0.625000000000008
 40
0.625000000000008
 40
0.6875000000000075
 40
0.6875000000000075
 40
0.7500000000000071
 40
0.7500000000000071
 40
0.8125000000000068
 40
0.8125000000000068
 40
0.8750000000000063
 40
0.8750000000000063
 40
1.0
 40
1.0
 40
1.0
 40
1.0
 10
344.4502041148206
 20
426.6068574992299
 30
0.0
 10
344.4257119350463
 20
426.7573074045651
 30
0.0
 10
344.3944009674554
 20
426.9578872831485
 30
0.0
 10
344.3432052328354
 20
427.3323573140114
 30
0.0
 10
344.3254767094691
 20
427.4695435340944
 30
0.0
 10
344.2908750310326
 20
427.7600793783646
 30
0.0
 10
344.2738576593644
 20
427.9144267287659
 30
0.0
 10
344.2414881389536
 20
428.2414707187631
 30
0.0
 10
344.2260393937177
 20
428.4156367743415
 30
0.0
 10
344.1987610224726
 20
428.7726334761991
 30
0.0
 10
344.1868377130256
 20
428.9560900756648
 30
0.0
 10
344.1671738335665
 20
429.3328564953611
 30
0.0
 10
344.1594019299055
 20
429.5273605732629
 30
0.0
 10
344.1489528585033
 20
429.921351247748
 30
0.0
 10
344.1463111742457
 20
430.1183751705459
 30
0.0
 10
344.1461661052085
 20
430.70953020296
 30
0.0
 10
344.1569547938529
 20
431.1095519821972
 30
0.0
 10
344.186280054816
 20
431.6745336532921
 30
0.0
 10
344.1981713469924
 20
431.8580335136256
 30
0.0
 10
344.2254553192609
 20
432.215275869417
 30
0.0
 10
344.2408880087942
 20
432.3890050522769
 30
0.0
 10
344.273267510998
 20
432.7153412396707
 30
0.0
 10
344.290324680294
 20
432.8695026974533
 30
0.0
 10
344.3250720261624
 20
433.1598851564692
 30
0.0
 10
344.3429063100377
 20
433.2970662662621
 30
0.0
 10
344.394173758826
 20
433.6696354058098
 30
0.0
 10
344.4256074939526
 20
433.8694407256747
 30
0.0
 10
344.4502041148176
 20
434.0192498654467
 30
0.0
  0
SPLINE
  5
D2
330
1F
100
AcDbEntity
  8
0
  6
Continuous
 62
     7
370
    25
100
AcDbSpline
210
0.0
220
0.0
230
1.0
 70
     8
 71
     3
 72
     9
 73
     5
 74
     0
 42
0.000000001
 43
0.00000001
 40
0.0
 40
0.0
 40
0.0
 40
0.0
 40
0.4849792588945943
 40
1.0
 40
1.0
 40
1.0
 40
1.0
 10
344.4998953590093
 20
426.3316030261822
 30
0.0
 10
344.4978485924045
 20
426.3420227835612
 30
0.0
 10
344.4936282745924
 20
426.3635077382018
 30
0.0
 10
344.464965589194
 20
426.5241322966323
 30
0.0
 10
344.4502037117181
 20
426.606857275755
 30
0.0
  0
SPLINE
  5
D3
330
1F
100
AcDbEntity
  8
0
  6
Continuous
 62
     7
370
    25
100
AcDbSpline
210
0.0
220
0.0
230
1.0
 70
    24
 71
     3
 72
    18
 73
    14
 74
     0
 42
0.000000001
 43
0.00000001
 40
0.0
 40
0.0
 40
0.0
 40
0.0
 40
0.0551179825576431
 40
0.1550009136034176
 40
0.2514231893276347
 40
0.3485193484005719
 40
0.4477291184915201
 40
0.5476694726362833
 40
0.6439557518184569
 40
0.7409072572880196
 40
0.8399627763549579
 40
0.9397437435225348
 40
1.0
 40
1.0
 40
1.0
 40
1.0
 10
344.4793392071424
 20
418.2117516753979
 30
0.0
 10
344.4823901159381
 20
418.2117516753979
 30
0.0
 10
344.49096977776
 20
418.211751675398
 30
0.0
 10
344.3202402594579
 20
418.2117516753979
 30
0.0
 10
343.9891293891915
 20
418.2117516753979
 30
0.0
 10
343.4919926822635
 20
418.2117516753979
 30
0.0
 10
342.8339703161686
 20
418.2117516753979
 30
0.0
 10
342.0212139955803
 20
418.2117516753979
 30
0.0
 10
341.0688254081503
 20
418.2117516753979
 30
0.0
 10
339.9831883023821
 20
418.2117516753979
 30
0.0
 10
338.7497521181568
 20
418.2117516753979
 30
0.0
 10
337.5648056391708
 20
418.2117516753979
 30
0.0
 10
336.7727976888886
 20
418.2117516753979
 30
0.0
 10
336.4745956012903
 20
418.2117516753979
 30
0.0
  0
LINE
  5
D4
330
1F
100
AcDbEntity
  8
0
  6
Continuous
 62
     7
370
    25
100
AcDbLine
 10
426.8916715035
 20
392.779030895
 30
0.0
 11
426.9176591286
 21
392.789886391
 31
0.0
  0
LINE
  5
D5
330
1F
100
AcDbEntity
  8
0
  6
Continuous
 62
     7
370
    25
100
AcDbLine
 10
435.3133980283
 20
392.0161808489
 30
0.0
 11
433.9760560641
 21
395.1667482612
 31
0.0
  0
LWPOLYLINE
  5
D6
330
1F
100
AcDbEntity
  8
0
  6
Continuous
 62
     7
370
    25
100
AcDbPolyline
 90
        9
 70
   128
 43
0.0
 10
435.3133980283
 20
392.0161808489
 10
433.897057558
 20
391.4149785993
 10
432.6030258188
 20
390.865699446
 10
431.4584527263
 20
390.3798545358
 10
430.4873291502
 20
389.9676362632
 10
429.7100473294
 20
389.6377022026
 10
429.1428942332
 20
389.3969590423
 10
428.7977758894
 20
389.2504657266
 10
428.6819193611
 20
389.2012844441
  0
LWPOLYLINE
  5
D7
330
1F
100
AcDbEntity
  8
0
  6
Continuous
 62
     7
370
    25
100
AcDbPolyline
 90
        9
 70
   128
 43
0.0
 10
450.7740382204
 20
398.5788310526
 10
450.6581965933
 20
398.5296572206
 10
450.3130707988
 20
398.3831639049
 10
449.7459177026
 20
398.1424207447
 10
448.9686284313
 20
397.8124866841
 10
447.9975197563
 20
397.4002684114
 10
446.8529317627
 20
396.9144235013
 10
445.5589000234
 20
396.3651443479
 10
444.1425670037
 20
395.7639420984
  0
LINE
  5
D8
330
1F
100
AcDbEntity
  8
0
  6
Continuous
 62
     7
370
    25
100
AcDbLine
 10
443.0788774142
 20
398.2698331235
 30
0.0
 11
444.1425670037
 21
395.7639420984
 31
0.0
  0
LWPOLYLINE
  5
D9
330
1F
100
AcDbEntity
  8
0
  6
Continuous
 62
     7
370
    25
100
AcDbPolyline
 90
        4
 70
   128
 43
0.0
 10
433.9760560641
 20
395.1667482612
 10
435.0382778892
 20
395.6176275966
 10
436.135875071
 20
396.0835347531
 10
437.1130857715
 20
396.4983383773
  0
LWPOLYLINE
  5
DA
330
1F
100
AcDbEntity
  8
0
  6
Continuous
 62
     7
370
    25
100
AcDbPolyline
 90
       12
 70
   128
 43
0.0
 10
450.0791225681
 20
397.6566503403
 10
450.0508103618
 20
397.6446325538
 10
449.8252514848
 20
397.5488851426
 10
449.3791852245
 20
397.3595435379
 10
448.7225506553
 20
397.0808173178
 10
447.8700403223
 20
396.7189500687
 10
446.8406979093
 20
396.2820182202
 10
445.6575010071
 20
395.7797820328
 10
444.3468842754
 20
395.2234546302
 10
442.9381284961
 20
394.625478482
 10
441.4627049217
 20
393.9991975782
 10
439.95356747
 20
393.3586041091
  0
SPLINE
  5
DB
330
1F
100
AcDbEntity
  8
0
  6
Continuous
 62
     7
370
    25
100
AcDbSpline
210
0.0
220
0.0
230
1.0
 70
     8
 71
     3
 72
     8
 73
     4
 74
     0
 42
0.000000001
 43
0.00000001
 40
0.0
 40
0.0
 40
0.0
 40
0.0
 40
1.0
 40
1.0
 40
1.0
 40
1.0
 10
444.1425674347464
 20
395.7639413465353
 30
0.0
 10
442.8299650104568
 20
394.8105247768178
 30
0.0
 10
441.4434246332246
 20
393.991012745604
 30
0.0
 10
439.9535699634108
 20
393.3586069584558
 30
0.0
  0
SPLINE
  5
DC
330
1F
100
AcDbEntity
  8
0
  6
Continuous
 62
     7
370
    25
100
AcDbSpline
210
0.0
220
0.0
230
1.0
 70
     8
 71
     3
 72
    10
 73
     6
 74
     0
 42
0.000000001
 43
0.00000001
 40
0.0
 40
0.0
 40
0.0
 40
0.0
 40
0.5
 40
0.5
 40
1.0
 40
1.0
 40
1.0
 40
1.0
 10
439.9535699634108
 20
393.3586069584558
 30
0.0
 10
439.210377494256
 20
393.0431404717029
 30
0.0
 10
438.4377813258927
 20
392.7727304470006
 30
0.0
 10
436.885845634751
 20
392.3302132194298
 30
0.0
 10
436.1024598621398
 20
392.1554128060727
 30
0.0
 10
435.3133950476472
 20
392.0161800202385
 30
0.0
  0
LWPOLYLINE
  5
DD
330
1F
100
AcDbEntity
  8
0
  6
Continuous
 62
     7
370
    25
100
AcDbPolyline
 90
       12
 70
   128
 43
0.0
 10
439.95356747
 20
393.3586041091
 10
438.444437469
 20
392.7180180905
 10
436.9690138945
 20
392.0917371867
 10
435.5602581153
 20
391.493753588
 10
434.2496413836
 20
390.937433636
 10
433.0664444813
 20
390.4351974485
 10
432.0370946178
 20
389.9982656
 10
431.1845842848
 20
389.6363909004
 10
430.5279571662
 20
389.3576721309
 10
430.0818834552
 20
389.1683230756
 10
429.8563320288
 20
389.0725831149
 10
429.8280198226
 20
389.0605653284
  0
LINE
  5
DE
330
1F
100
AcDbEntity
  8
0
  6
Continuous
 62
     7
370
    25
100
AcDbLine
 10
407.9935271392
 20
451.0911489485
 30
0.0
 11
407.6859373698
 21
451.103308296
 31
0.0
  0
LINE
  5
DF
330
1F
100
AcDbEntity
  8
0
  6
Continuous
 62
     7
370
    25
100
AcDbLine
 10
399.052293981
 20
451.3370479105
 30
0.0
 11
396.3860366592
 21
451.3248736618
 31
0.0
  0
LWPOLYLINE
  5
E0
330
1F
100
AcDbEntity
  8
0
  6
Continuous
 62
     7
370
    25
100
AcDbPolyline
 90
        3
 70
   128
 43
0.0
 10
454.561183239
 20
413.1789515374
 10
454.6557609091
 20
413.4957129715
 10
454.6754155407
 20
413.6831621287
  0
LINE
  5
E1
330
1F
100
AcDbEntity
  8
0
  6
Continuous
 62
     7
370
    25
100
AcDbLine
 10
344.4502037117
 20
426.6068572758
 30
0.0
 11
344.4502037117
 21
434.0192461965
 31
0.0
  0
LINE
  5
E2
330
1F
100
AcDbEntity
  8
0
  6
Continuous
 62
     7
370
    25
100
AcDbLine
 10
276.9266795466
 20
330.9518444
 30
0.0
 11
276.9266795466
 21
334.9518450556
 31
0.0
  0
SPLINE
  5
E3
330
1F
100
AcDbEntity
  8
0
  6
Continuous
 62
     8
370
    18
100
AcDbSpline
210
0.0
220
0.0
230
1.0
 70
     8
 71
     3
 72
    36
 73
    32
 74
     0
 42
0.000000001
 43
0.00000001
 40
0.0
 40
0.0
 40
0.0
 40
0.0
 40
0.1250000000000005
 40
0.1250000000000005
 40
0.1875000000000007
 40
0.1875000000000007
 40
0.2500000000000009
 40
0.2500000000000009
 40
0.3750000000000013
 40
0.3750000000000013
 40
0.4062500000000014
 40
0.4062500000000014
 40
0.4375000000000016
 40
0.4375000000000016
 40
0.5000000000000018
 40
0.5000000000000018
 40
0.5625000000000019
 40
0.5625000000000019
 40
0.5937500000000018
 40
0.5937500000000018
 40
0.6250000000000017
 40
0.6250000000000017
 40
0.6875000000000012
 40
0.6875000000000012
 40
0.7187500000000011
 40
0.7187500000000011
 40
0.750000000000001
 40
0.750000000000001
 40
0.8750000000000006
 40
0.8750000000000006
 40
1.0
 40
1.0
 40
1.0
 40
1.0
 10
321.1439050889422
 20
413.6873295979922
 30
0.0
 10
319.5778552811504
 20
413.6877360443787
 30
0.0
 10
318.0258476101142
 20
413.6887634199283
 30
0.0
 10
315.7185161013503
 20
413.6902266972824
 30
0.0
 10
314.9529012849746
 20
413.6907476779611
 30
0.0
 10
313.4291079361853
 20
413.6917835348822
 30
0.0
 10
312.6747708913
 20
413.6922943114934
 30
0.0
 10
310.4618635869445
 20
413.6937858589358
 30
0.0
 10
309.0434735550228
 20
413.6947206525899
 30
0.0
 10
307.358708273271
 20
413.6960107157255
 30
0.0
 10
307.0250548047377
 20
413.6962762599171
 30
0.0
 10
306.3748566622886
 20
413.6968236783864
 30
0.0
 10
306.0580661618515
 20
413.697105663269
 30
0.0
 10
305.1332506066989
 20
413.69799276099
 30
0.0
 10
304.5509869575534
 20
413.6986485890897
 30
0.0
 10
303.4549653198958
 20
413.7003184537281
 30
0.0
 10
302.9413940362231
 20
413.7013694360847
 30
0.0
 10
302.224060212622
 20
413.7031527079853
 30
0.0
 10
301.9948753353816
 20
413.7037732004746
 30
0.0
 10
301.5605065021353
 20
413.7050274508144
 30
0.0
 10
301.3545064624241
 20
413.7056663248496
 30
0.0
 10
300.7681586328404
 20
413.7076340065832
 30
0.0
 10
300.4195147981746
 20
413.7090361742046
 30
0.0
 10
299.954165970027
 20
413.7112432055899
 30
0.0
 10
299.8086454601812
 20
413.7119911155029
 30
0.0
 10
299.5360256326853
 20
413.7134830421048
 30
0.0
 10
299.4086288284456
 20
413.714228845391
 30
0.0
 10
298.8208201342222
 20
413.7178382197164
 30
0.0
 10
298.5041980383035
 20
413.7202976534927
 30
0.0
 10
298.0948498557311
 20
413.7232675437357
 30
0.0
 10
298.0040875565359
 20
413.723947491876
 30
0.0
 10
298.0040875621591
 20
413.7239474925721
 30
0.0
  0
LINE
  5
E4
330
1F
100
AcDbEntity
  8
0
  6
Continuous
 62
     8
370
    18
100
AcDbLine
 10
344.4266487012
 20
292.9518456829
 30
0.0
 11
344.4266803661
 21
323.3190915195
 31
0.0
  0
SPLINE
  5
E5
330
1F
100
AcDbEntity
  8
0
  6
Continuous
 62
     8
370
    18
100
AcDbSpline
210
0.0
220
0.0
230
1.0
 70
     8
 71
     3
 72
    39
 73
    35
 74
     0
 42
0.000000001
 43
0.00000001
 40
0.0
 40
0.0
 40
0.0
 40
0.0
 40
0.015625
 40
0.015625
 40
0.0312500000000001
 40
0.0625000000000001
 40
0.0625000000000001
 40
0.1250000000000003
 40
0.1250000000000003
 40
0.2500000000000006
 40
0.2500000000000006
 40
0.2812500000000006
 40
0.2812500000000006
 40
0.3125000000000007
 40
0.3125000000000007
 40
0.3750000000000008
 40
0.3750000000000008
 40
0.4375000000000009
 40
0.4375000000000009
 40
0.500000000000001
 40
0.500000000000001
 40
0.5625000000000011
 40
0.5625000000000011
 40
0.5937500000000012
 40
0.5937500000000012
 40
0.6250000000000012
 40
0.6250000000000012
 40
0.7500000000000009
 40
0.7500000000000009
 40
0.8125000000000007
 40
0.8125000000000007
 40
0.8750000000000004
 40
0.8750000000000004
 40
1.0
 40
1.0
 40
1.0
 40
1.0
 10
299.259089597183
 20
415.0912004094202
 30
0.0
 10
299.2590895964526
 20
415.0912004124834
 30
0.0
 10
299.2604119542926
 20
415.0912026469695
 30
0.0
 10
299.2657794736498
 20
415.0912107320739
 30
0.0
 10
299.2779154579887
 20
415.091228216126
 30
0.0
 10
299.3026612084453
 20
415.0912573771551
 30
0.0
 10
299.3699588888309
 20
415.091314431002
 30
0.0
 10
299.4385448983411
 20
415.0913531373822
 30
0.0
 10
299.7240782015479
 20
415.0912602112359
 30
0.0
 10
300.018508819104
 20
415.090801714245
 30
0.0
 10
300.5664516230823
 20
415.0898489678551
 30
0.0
 10
300.685431885498
 20
415.0896421159455
 30
0.0
 10
300.9403666350535
 20
415.0892170086005
 30
0.0
 10
301.0765464353317
 20
415.0889987199479
 30
0.0
 10
301.5123859036074
 20
415.0883483422321
 30
0.0
 10
301.8393628059792
 20
415.0879384545559
 30
0.0
 10
302.5740344617766
 20
415.0871177597692
 30
0.0
 10
302.982996516239
 20
415.086665380014
 30
0.0
 10
303.8860411360187
 20
415.0855932497165
 30
0.0
 10
304.3715958607845
 20
415.085036323053
 30
0.0
 10
305.4090678598336
 20
415.0840488088058
 30
0.0
 10
305.9607870118257
 20
415.0835814996968
 30
0.0
 10
306.8377832835326
 20
415.082749149547
 30
0.0
 10
307.1382958230645
 20
415.0824495356468
 30
0.0
 10
307.755222208974
 20
415.0818086630453
 30
0.0
 10
308.0715739735398
 20
415.0814673827423
 30
0.0
 10
309.6688623309228
 20
415.0796965525371
 30
0.0
 10
311.0136452793927
 20
415.0780570764279
 30
0.0
 10
313.1107436567727
 20
415.0756465530656
 30
0.0
 10
313.8256647246529
 20
415.074850818647
 30
0.0
 10
315.267945237107
 20
415.0733933748736
 30
0.0
 10
315.9925365704631
 20
415.0727413634738
 30
0.0
 10
318.1760492632505
 20
415.0711252457765
 30
0.0
 10
319.6445085294757
 20
415.07033661975
 30
0.0
 10
321.125979766492
 20
415.0704835851665
 30
0.0
  0
LINE
  5
E6
330
1F
100
AcDbEntity
  8
0
  6
Continuous
 62
     8
370
    18
100
AcDbLine
 10
321.1627374502
 20
413.6869246719
 30
0.0
 11
321.143719494
 21
413.6869395731
 31
0.0
  0
SPLINE
  5
E7
330
1F
100
AcDbEntity
  8
0
  6
Continuous
 62
     8
370
    18
100
AcDbSpline
210
0.0
220
0.0
230
1.0
 70
     8
 71
     3
 72
    12
 73
     8
 74
     0
 42
0.000000001
 43
0.00000001
 40
0.0
 40
0.0
 40
0.0
 40
0.0
 40
0.5
 40
0.5
 40
0.75
 40
0.75
 40
1.0
 40
1.0
 40
1.0
 40
1.0
 10
357.7950529596604
 20
413.6588559082286
 30
0.0
 10
351.6896330765062
 20
413.6610106211514
 30
0.0
 10
345.5842466505234
 20
413.6665694799092
 30
0.0
 10
336.4261487346478
 20
413.6729437302862
 30
0.0
 10
333.3734499661998
 20
413.6743556366992
 30
0.0
 10
327.2680537391838
 20
413.6793024751792
 30
0.0
 10
324.2153736369701
 20
413.6841824983295
 30
0.0
 10
321.1627374862583
 20
413.6869242634264
 30
0.0
  0
SPLINE
  5
E8
330
1F
100
AcDbEntity
  8
0
  6
Continuous
 62
     8
370
    18
100
AcDbSpline
210
0.0
220
0.0
230
1.0
 70
     8
 71
     3
 72
    10
 73
     6
 74
     0
 42
0.000000001
 43
0.00000001
 40
0.0
 40
0.0
 40
0.0
 40
0.0
 40
0.5
 40
0.5
 40
1.0
 40
1.0
 40
1.0
 40
1.0
 10
379.97169657623
 20
413.6682865536727
 30
0.0
 10
376.2755630603683
 20
413.6685706889128
 30
0.0
 10
372.579400016208
 20
413.6677347042081
 30
0.0
 10
365.1870320734092
 20
413.6659752080896
 30
0.0
 10
361.4908137413574
 20
413.6679010680701
 30
0.0
 10
357.7946721649258
 20
413.658979525911
 30
0.0
  0
LINE
  5
E9
330
1F
100
AcDbEntity
  8
0
  6
Continuous
 62
     8
370
    18
100
AcDbLine
 10
321.1230961705
 20
415.0705570934
 30
0.0
 11
321.1422411358
 21
415.0705570934
 31
0.0
  0
SPLINE
  5
EA
330
1F
100
AcDbEntity
  8
0
  6
Continuous
 62
     8
370
    18
100
AcDbSpline
210
0.0
220
0.0
230
1.0
 70
     8
 71
     3
 72
    10
 73
     6
 74
     0
 42
0.000000001
 43
0.00000001
 40
0.0
 40
0.0
 40
0.0
 40
0.0
 40
0.5
 40
0.5
 40
1.0
 40
1.0
 40
1.0
 40
1.0
 10
321.1422410822402
 20
415.0705601901386
 30
0.0
 10
327.2479034336291
 20
415.0714535986362
 30
0.0
 10
333.3537381523632
 20
415.0713626188872
 30
0.0
 10
345.5653207673153
 20
415.0716747425664
 30
0.0
 10
351.6711010628472
 20
415.0718930519021
 30
0.0
 10
357.7769130328035
 20
415.0719277361022
 30
0.0
  0
SPLINE
  5
EB
330
1F
100
AcDbEntity
  8
0
  6
Continuous
 62
     8
370
    18
100
AcDbSpline
210
0.0
220
0.0
230
1.0
 70
     8
 71
     3
 72
    24
 73
    20
 74
     0
 42
0.000000001
 43
0.00000001
 40
0.0
 40
0.0
 40
0.0
 40
0.0
 40
0.125
 40
0.125
 40
0.1874999999999999
 40
0.1874999999999999
 40
0.2499999999999999
 40
0.2499999999999999
 40
0.3749999999999998
 40
0.3749999999999998
 40
0.4999999999999997
 40
0.4999999999999997
 40
0.6249999999999999
 40
0.6249999999999999
 40
0.7499999999999999
 40
0.7499999999999999
 40
0.875
 40
0.875
 40
1.0
 40
1.0
 40
1.0
 40
1.0
 10
321.2128542580806
 20
448.7052667307593
 30
0.0
 10
319.8304499974543
 20
448.6896334627195
 30
0.0
 10
318.4959406853791
 20
448.6717173333001
 30
0.0
 10
316.3911773980419
 20
448.6412013947319
 30
0.0
 10
315.6716541589257
 20
448.6305594303696
 30
0.0
 10
314.1962230096645
 20
448.6096231242263
 30
0.0
 10
313.4432869054822
 20
448.5994857355607
 30
0.0
 10
311.2419883171646
 20
448.5729958874251
 30
0.0
 10
309.8253982066848
 20
448.5594734528452
 30
0.0
 10
307.3084119818147
 20
448.5417768193983
 30
0.0
 10
306.1926890826188
 20
448.5373836451149
 30
0.0
 10
304.3552069741942
 20
448.5357705015817
 30
0.0
 10
303.6398939252396
 20
448.5386162337738
 30
0.0
 10
302.7023771191629
 20
448.552112498908
 30
0.0
 10
302.4978405140591
 20
448.5632446311754
 30
0.0
 10
302.3400356739275
 20
448.5895508055503
 30
0.0
 10
302.3356487105065
 20
448.6041910327897
 30
0.0
 10
302.2997962950857
 20
448.6261848353046
 30
0.0
 10
302.291384918311
 20
448.6325944449219
 30
0.0
 10
302.2913842212611
 20
448.6325897257723
 30
0.0
  0
SPLINE
  5
EC
330
1F
100
AcDbEntity
  8
0
  6
Continuous
 62
     8
370
    18
100
AcDbSpline
210
0.0
220
0.0
230
1.0
 70
     8
 71
     3
 72
    10
 73
     6
 74
     0
 42
0.000000001
 43
0.00000001
 40
0.0
 40
0.0
 40
0.0
 40
0.0
 40
0.5
 40
0.5
 40
1.0
 40
1.0
 40
1.0
 40
1.0
 10
340.0380820147758
 20
448.8818557324983
 30
0.0
 10
336.9040874163911
 20
448.8499327285197
 30
0.0
 10
333.7614070215025
 20
448.8141498359385
 30
0.0
 10
327.488827500679
 20
448.761333951807
 30
0.0
 10
324.3530929141051
 20
448.7416668737001
 30
0.0
 10
321.2147680512807
 20
448.7054804442497
 30
0.0
  0
SPLINE
  5
ED
330
1F
100
AcDbEntity
  8
0
  6
Continuous
 62
     8
370
    18
100
AcDbSpline
210
0.0
220
0.0
230
1.0
 70
     8
 71
     3
 72
    43
 73
    39
 74
     0
 42
0.000000001
 43
0.00000001
 40
0.0
 40
0.0
 40
0.0
 40
0.0
 40
0.0205282890803572
 40
0.040763942450717
 40
0.0607118193738483
 40
0.0803697316221612
 40
0.0997337777087014
 40
0.1408590872330643
 40
0.1803167060628892
 40
0.2075110767361476
 40
0.2342388321476568
 40
0.286496106525562
 40
0.3119452391513187
 40
0.3497094686330874
 40
0.3746587739869406
 40
0.3870841411691814
 40
0.4375520820447036
 40
0.4627304285819359
 40
0.4753186170218086
 40
0.5004736428805858
 40
0.5382447319656241
 40
0.5888801455420477
 40
0.6296129204153815
 40
0.6706491497447843
 40
0.6982469489454126
 40
0.7250383618020495
 40
0.7452722884098404
 40
0.7520207630424414
 40
0.7655548876169894
 40
0.8065647371005212
 40
0.8194476827065035
 40
0.8453991691107862
 40
0.8650575801911088
 40
0.8716456960273051
 40
0.8845550674858105
 40
0.9109848611261377
 40
0.9550668562724818
 40
1.0
 40
1.0
 40
1.0
 40
1.0
 10
340.0380689886009
 20
448.8821793730107
 30
0.0
 10
340.0411618091477
 20
448.8193174103461
 30
0.0
 10
340.0473033613388
 20
448.6944895974501
 30
0.0
 10
340.0638934268377
 20
448.5093936481018
 30
0.0
 10
340.0856928889459
 20
448.3279571575812
 30
0.0
 10
340.1130743645303
 20
448.1505214973645
 30
0.0
 10
340.1581051153286
 20
447.9116899795216
 30
0.0
 10
340.2296774144021
 20
447.6191669889367
 30
0.0
 10
340.3284424549175
 20
447.3145699748844
 30
0.0
 10
340.4287175307722
 20
447.0603618032828
 30
0.0
 10
340.5555879814671
 20
446.7812616618305
 30
0.0
 10
340.6979948920729
 20
446.5221526662397
 30
0.0
 10
340.8710338802109
 20
446.254708036557
 30
0.0
 10
341.0120787570636
 20
446.0623697810787
 30
0.0
 10
341.1385759144579
 20
445.9088106257407
 30
0.0
 10
341.2903043856095
 20
445.7364728269704
 30
0.0
 10
341.4486370479241
 20
445.5756696892588
 30
0.0
 10
341.6124613073658
 20
445.4288399491269
 30
0.0
 10
341.7309269066071
 20
445.3290910648832
 30
0.0
 10
341.874869106945
 20
445.2152435476495
 30
0.0
 10
342.0949818582133
 20
445.0584730776854
 30
0.0
 10
342.3492215025217
 20
444.9022781904389
 30
0.0
 10
342.6120957615037
 20
444.7641294915188
 30
0.0
 10
342.8299975957527
 20
444.6653495421035
 30
0.0
 10
343.0199816446335
 20
444.5897848984816
 30
0.0
 10
343.1682550991866
 20
444.5370599593493
 30
0.0
 10
343.2748194285656
 20
444.5029272868849
 30
0.0
 10
343.3549354932417
 20
444.4788396122072
 30
0.0
 10
343.4759715400013
 20
444.4442531581519
 30
0.0
 10
343.6084200818338
 20
444.4115641886189
 30
0.0
 10
343.7641507675112
 20
444.378877378088
 30
0.0
 10
343.8776241064532
 20
444.3580593620802
 30
0.0
 10
343.978222655399
 20
444.3426699663275
 30
0.0
 10
344.0533372179974
 20
444.3324635787604
 30
0.0
 10
344.1412778366741
 20
444.3216530365838
 30
0.0
 10
344.2998850572377
 20
444.3062844817472
 30
0.0
 10
344.5165539610265
 20
444.2941504743017
 30
0.0
 10
344.6802736962872
 20
444.2960856422482
 30
0.0
 10
344.7629162949346
 20
444.2970624781053
 30
0.0
  0
SPLINE
  5
EE
330
1F
100
AcDbEntity
  8
0
  6
Continuous
 62
     8
370
    18
100
AcDbSpline
210
0.0
220
0.0
230
1.0
 70
     8
 71
     3
 72
    11
 73
     7
 74
     0
 42
0.000000001
 43
0.00000001
 40
0.0
 40
0.0
 40
0.0
 40
0.0
 40
0.0176053512631304
 40
0.0176053512631304
 40
0.0176053512631304
 40
0.0221786404277094
 40
0.0221786404277094
 40
0.0221786404277094
 40
0.0221786404277094
 10
357.7765677098971
 20
415.0719336426673
 30
0.0
 10
363.6444342925265
 20
415.071954478222
 30
0.0
 10
369.5124286852682
 20
415.0712129778047
 30
0.0
 10
375.3803026090076
 20
415.0711903248887
 30
0.0
 10
376.9045827037002
 20
415.0711844404083
 30
0.0
 10
378.428857485134
 20
415.0712098518546
 30
0.0
 10
379.9531283866012
 20
415.0712570142061
 30
0.0
  0
SPLINE
  5
EF
330
1F
100
AcDbEntity
  8
0
  6
Continuous
 62
     8
370
    18
100
AcDbSpline
210
0.0
220
0.0
230
1.0
 70
     8
 71
     3
 72
    12
 73
     8
 74
     0
 42
0.000000001
 43
0.00000001
 40
0.0
 40
0.0
 40
0.0
 40
0.0
 40
0.2499999999999998
 40
0.2499999999999998
 40
0.4999999999999999
 40
0.4999999999999999
 40
1.0
 40
1.0
 40
1.0
 40
1.0
 10
340.0163979955167
 20
450.2132301400912
 30
0.0
 10
344.7118638070404
 20
450.2696027372428
 30
0.0
 10
349.4070403115456
 20
450.3259954969971
 30
0.0
 10
358.7967206272485
 20
450.4388708323086
 30
0.0
 10
363.4915618369805
 20
450.4953036875629
 30
0.0
 10
377.5760868960189
 20
450.664594226677
 30
0.0
 10
386.9657734489251
 20
450.7774390798558
 30
0.0
 10
396.3554647318753
 20
450.8902642399378
 30
0.0
  0
SPLINE
  5
F0
330
1F
100
AcDbEntity
  8
0
  6
Continuous
 62
     8
370
    18
100
AcDbSpline
210
0.0
220
0.0
230
1.0
 70
     8
 71
     3
 72
    12
 73
     8
 74
     0
 42
0.000000001
 43
0.00000001
 40
0.0
 40
0.0
 40
0.0
 40
0.0
 40
0.5000000000000001
 40
0.5000000000000001
 40
0.7500000000000002
 40
0.7500000000000002
 40
1.0
 40
1.0
 40
1.0
 40
1.0
 10
396.389486390626
 20
449.552855079854
 30
0.0
 10
386.999796544647
 20
449.4416944249575
 30
0.0
 10
377.6101100564604
 20
449.3301607833433
 30
0.0
 10
363.5255862716238
 20
449.1624835950597
 30
0.0
 10
358.8307464146012
 20
449.1065532481292
 30
0.0
 10
349.4410632971627
 20
448.9945278460232
 30
0.0
 10
344.7398926915137
 20
448.9384510392576
 30
0.0
 10
340.0380986330304
 20
448.8824989962848
 30
0.0
  0
SPLINE
  5
F1
330
1F
100
AcDbEntity
  8
0
  6
Continuous
 62
     8
370
    18
100
AcDbSpline
210
0.0
220
0.0
230
1.0
 70
     8
 71
     3
 72
    10
 73
     6
 74
     0
 42
0.000000001
 43
0.00000001
 40
0.0
 40
0.0
 40
0.0
 40
0.0
 40
0.4999999999999999
 40
0.4999999999999999
 40
1.0
 40
1.0
 40
1.0
 40
1.0
 10
321.2147346448548
 20
449.9898328663846
 30
0.0
 10
324.3482497793804
 20
450.0271821712843
 30
0.0
 10
327.4821232985034
 20
450.0643587559148
 30
0.0
 10
333.7500073573888
 20
450.1383269812412
 30
0.0
 10
336.8827693578601
 20
450.1761636368755
 30
0.0
 10
340.018299715522
 20
450.213224103412
 30
0.0
  0
LINE
  5
F2
330
1F
100
AcDbEntity
  8
0
  6
Continuous
 62
     8
370
    18
100
AcDbLine
 10
379.9534831295
 20
415.0712872503
 30
0.0
 11
427.9533494363
 21
415.0718981979
 31
0.0
  0
LWPOLYLINE
  5
F3
330
1F
100
AcDbEntity
  8
0
  6
Continuous
 62
     8
370
    18
100
AcDbPolyline
 90
        5
 70
   128
 43
0.0
 10
427.9717002163
 20
413.6428395865
 10
412.7973709354
 20
413.6516163705
 10
397.6230416546
 20
413.6594320295
 10
388.7973670015
 20
413.6635745523
 10
379.9716960737
 20
413.6674637554
  0
SPLINE
  5
F4
330
1F
100
AcDbEntity
  8
0
  6
Continuous
 62
     8
370
    18
100
AcDbSpline
210
0.0
220
0.0
230
1.0
 70
     8
 71
     3
 72
    24
 73
    20
 74
     0
 42
0.000000001
 43
0.00000001
 40
0.0
 40
0.0
 40
0.0
 40
0.0
 40
0.1250000000000003
 40
0.1250000000000003
 40
0.2500000000000003
 40
0.2500000000000003
 40
0.3750000000000004
 40
0.3750000000000004
 40
0.5000000000000004
 40
0.5000000000000004
 40
0.6250000000000004
 40
0.6250000000000004
 40
0.7500000000000002
 40
0.7500000000000002
 40
0.8125000000000002
 40
0.8125000000000002
 40
0.8750000000000002
 40
0.8750000000000002
 40
1.0
 40
1.0
 40
1.0
 40
1.0
 10
303.6186179064856
 20
449.8485053251481
 30
0.0
 10
303.6186224436049
 20
449.848505854404
 30
0.0
 10
303.6218724038305
 20
449.847732111566
 30
0.0
 10
303.6391567203736
 20
449.8453355197765
 30
0.0
 10
303.6318387925215
 20
449.8444797372289
 30
0.0
 10
303.7638156420318
 20
449.8378244022379
 30
0.0
 10
303.9496567495144
 20
449.833321363419
 30
0.0
 10
304.7884821739985
 20
449.830666109606
 30
0.0
 10
305.4309161711464
 20
449.8324782250832
 30
0.0
 10
307.0927236791735
 20
449.8419682205263
 30
0.0
 10
308.1078061040988
 20
449.8496299675376
 30
0.0
 10
310.3935649226038
 20
449.8700536827862
 30
0.0
 10
311.6737896157804
 20
449.8828791605369
 30
0.0
 10
313.6778506690108
 20
449.9040674473376
 30
0.0
 10
314.3679839009795
 20
449.9117347570415
 30
0.0
 10
315.7420213468294
 20
449.9272212434244
 30
0.0
 10
316.4287605583854
 20
449.9349277259191
 30
0.0
 10
318.48399002333
 20
449.9578953039153
 30
0.0
 10
319.8469805770196
 20
449.9732675802405
 30
0.0
 10
321.2147346448569
 20
449.9898104445929
 30
0.0
  0
SPLINE
  5
F5
330
1F
100
AcDbEntity
  8
0
  6
Continuous
 62
     8
370
    18
100
AcDbSpline
210
0.0
220
0.0
230
1.0
 70
     8
 71
     3
 72
    12
 73
     8
 74
     0
 42
0.000000001
 43
0.00000001
 40
0.0
 40
0.0
 40
0.0
 40
0.0
 40
0.5
 40
0.5
 40
0.75
 40
0.75
 40
1.0
 40
1.0
 40
1.0
 40
1.0
 10
427.9535818870787
 20
415.0718982061079
 30
0.0
 10
430.2513770859308
 20
415.0719400281357
 30
0.0
 10
432.5491540839143
 20
415.0720836276899
 30
0.0
 10
435.9957444559577
 20
415.0727153426569
 30
0.0
 10
437.1446022169192
 20
415.0728242027311
 30
0.0
 10
439.4423771444994
 20
415.0729168252594
 30
0.0
 10
440.5913029940896
 20
415.0734663462923
 30
0.0
 10
441.7401682372296
 20
415.0732750444324
 30
0.0
  0
SPLINE
  5
F6
330
1F
100
AcDbEntity
  8
0
  6
Continuous
 62
     8
370
    18
100
AcDbSpline
210
0.0
220
0.0
230
1.0
 70
     8
 71
     3
 72
    32
 73
    28
 74
     0
 42
0.000000001
 43
0.00000001
 40
0.0
 40
0.0
 40
0.0
 40
0.0
 40
0.1250000000000044
 40
0.1250000000000044
 40
0.2500000000000087
 40
0.2500000000000087
 40
0.3125000000000088
 40
0.3125000000000088
 40
0.3437500000000089
 40
0.3437500000000089
 40
0.3750000000000089
 40
0.3750000000000089
 40
0.4375000000000053
 40
0.4375000000000053
 40
0.4687500000000036
 40
0.4687500000000036
 40
0.5000000000000019
 40
0.5000000000000019
 40
0.5625000000000018
 40
0.5625000000000018
 40
0.6250000000000016
 40
0.6250000000000016
 40
0.750000000000001
 40
0.750000000000001
 40
0.8750000000000006
 40
0.8750000000000006
 40
1.0
 40
1.0
 40
1.0
 40
1.0
 10
441.7403171249165
 20
415.0740622433177
 30
0.0
 10
442.574005170048
 20
415.0739182928225
 30
0.0
 10
443.4081268086316
 20
415.0733187230752
 30
0.0
 10
445.0751767996446
 20
415.066706482697
 30
0.0
 10
445.9102722360103
 20
415.0605065158753
 30
0.0
 10
447.1523097107662
 20
415.0528590917434
 30
0.0
 10
447.5612328057405
 20
415.0506716083083
 30
0.0
 10
448.1625297897734
 20
415.0491671857025
 30
0.0
 10
448.360928503861
 20
415.0489680962485
 30
0.0
 10
448.7532064286474
 20
415.0492430314023
 30
0.0
 10
448.9480838153374
 20
415.0497121629433
 30
0.0
 10
449.5176709810336
 20
415.0520446851609
 30
0.0
 10
449.8761732059729
 20
415.0547987353208
 30
0.0
 10
450.3807900706272
 20
415.0604831532684
 30
0.0
 10
450.5434297684374
 20
415.0626401091326
 30
0.0
 10
450.8569579397732
 20
415.0674511159099
 30
0.0
 10
451.0086518664098
 20
415.0701241352211
 30
0.0
 10
451.4388199872031
 20
415.0786656190984
 30
0.0
 10
451.6906793328948
 20
415.0850007371056
 30
0.0
 10
452.132989440348
 20
415.0976666766124
 30
0.0
 10
452.3246120832252
 20
415.1040521906959
 30
0.0
 10
452.7990870915761
 20
415.1205648934787
 30
0.0
 10
452.9844382150338
 20
415.1277052047984
 30
0.0
 10
453.2083234662268
 20
415.1381838946049
 30
0.0
 10
453.2473950348655
 20
415.1413902099638
 30
0.0
 10
453.3071532850265
 20
415.1431436044373
 30
0.0
 10
453.3251655993509
 20
415.1417530031391
 30
0.0
 10
453.3403789045992
 20
415.1405294325148
 30
0.0
  0
SPLINE
  5
F7
330
1F
100
AcDbEntity
  8
0
  6
Continuous
 62
     8
370
    18
100
AcDbSpline
210
0.0
220
0.0
230
1.0
 70
     8
 71
     3
 72
    14
 73
    10
 74
     0
 42
0.000000001
 43
0.00000001
 40
0.0
 40
0.0
 40
0.0
 40
0.0
 40
0.25
 40
0.25
 40
0.5
 40
0.5
 40
0.75
 40
0.75
 40
1.0
 40
1.0
 40
1.0
 40
1.0
 10
454.5172174800804
 20
413.2253087143509
 30
0.0
 10
454.5980828641677
 20
413.427198285513
 30
0.0
 10
454.6310156873402
 20
413.6481094647384
 30
0.0
 10
454.5940890600777
 20
414.0815081704451
 30
0.0
 10
454.524258343083
 20
414.2936584600908
 30
0.0
 10
454.2965504246281
 20
414.6642368277302
 30
0.0
 10
454.1388504076146
 20
414.8223765507779
 30
0.0
 10
453.7689291710375
 20
415.0510936745183
 30
0.0
 10
453.5569957951255
 20
415.1214931055671
 30
0.0
 10
453.3403788899347
 20
415.1405294336942
 30
0.0
  0
SPLINE
  5
F8
330
1F
100
AcDbEntity
  8
0
  6
Continuous
 62
     8
370
    18
100
AcDbSpline
210
0.0
220
0.0
230
1.0
 70
     8
 71
     3
 72
    36
 73
    32
 74
     0
 42
0.000000001
 43
0.00000001
 40
0.0
 40
0.0
 40
0.0
 40
0.0
 40
0.1249999999999969
 40
0.1249999999999969
 40
0.1874999999999954
 40
0.1874999999999954
 40
0.249999999999994
 40
0.249999999999994
 40
0.3749999999999909
 40
0.3749999999999909
 40
0.4062499999999905
 40
0.4062499999999905
 40
0.43749999999999
 40
0.43749999999999
 40
0.4999999999999911
 40
0.4999999999999911
 40
0.5624999999999922
 40
0.5624999999999922
 40
0.6249999999999933
 40
0.6249999999999933
 40
0.6562499999999939
 40
0.6562499999999939
 40
0.6874999999999944
 40
0.6874999999999944
 40
0.7499999999999956
 40
0.7499999999999956
 40
0.8124999999999967
 40
0.8124999999999967
 40
0.8749999999999978
 40
0.8749999999999978
 40
1.0
 40
1.0
 40
1.0
 40
1.0
 10
454.5172173492725
 20
413.2253087680489
 30
0.0
 10
454.5030112865159
 20
413.2311404862539
 30
0.0
 10
454.4863462638845
 20
413.2368359449343
 30
0.0
 10
454.4356736600706
 20
413.2339051028192
 30
0.0
 10
454.414122129817
 20
413.2312654363505
 30
0.0
 10
454.3464914984481
 20
413.2289008894897
 30
0.0
 10
454.2997786693176
 20
413.2291929467444
 30
0.0
 10
454.094184979848
 20
413.2337554761033
 30
0.0
 10
453.8713825130721
 20
413.2429769918633
 30
0.0
 10
453.4158072860966
 20
413.2652037484778
 30
0.0
 10
453.3157925964362
 20
413.2699489321185
 30
0.0
 10
453.1007554963957
 20
413.2798400802196
 30
0.0
 10
452.9853553361301
 20
413.2850002063119
 30
0.0
 10
452.6148877158863
 20
413.3012886384531
 30
0.0
 10
452.3357020135157
 20
413.3132959440706
 30
0.0
 10
451.7061554667949
 20
413.3422730256859
 30
0.0
 10
451.3636708305542
 20
413.3589827750704
 30
0.0
 10
450.6354956390841
 20
413.3931047769781
 30
0.0
 10
450.2485933607767
 20
413.4105022180179
 30
0.0
 10
449.6351784971112
 20
413.4365097986762
 30
0.0
 10
449.4241813625666
 20
413.4452357315396
 30
0.0
 10
448.9984133436179
 20
413.462191869884
 30
0.0
 10
448.7831324607605
 20
413.4703737223638
 30
0.0
 10
448.1306100130325
 20
413.4955716558548
 30
0.0
 10
447.6866019868973
 20
413.5129336260239
 30
0.0
 10
446.7854853108288
 20
413.5434467819605
 30
0.0
 10
446.3284370704791
 20
413.5570642916271
 30
0.0
 10
445.4164708085409
 20
413.5794035564772
 30
0.0
 10
444.9598631163579
 20
413.5882458887265
 30
0.0
 10
443.5894608069897
 20
413.6105357149433
 30
0.0
 10
442.675177384968
 20
413.6136870530335
 30
0.0
 10
441.7608586810694
 20
413.6171814463717
 30
0.0
  0
SPLINE
  5
F9
330
1F
100
AcDbEntity
  8
0
  6
Continuous
 62
     8
370
    18
100
AcDbSpline
210
0.0
220
0.0
230
1.0
 70
     8
 71
     3
 72
    12
 73
     8
 74
     0
 42
0.000000001
 43
0.00000001
 40
0.0
 40
0.0
 40
0.0
 40
0.0
 40
0.2499999999999992
 40
0.2499999999999992
 40
0.4999999999999984
 40
0.4999999999999984
 40
1.0
 40
1.0
 40
1.0
 40
1.0
 10
441.7607196438028
 20
413.6163287185839
 30
0.0
 10
440.6116786147163
 20
413.6207215029689
 30
0.0
 10
439.4625702727935
 20
413.6236662165679
 30
0.0
 10
437.1644341577051
 20
413.6298520760224
 30
0.0
 10
436.0153946269465
 20
413.6325564007587
 30
0.0
 10
432.5682528766368
 20
413.6387006324981
 30
0.0
 10
430.2701057325555
 20
413.641525365768
 30
0.0
 10
427.9719372873894
 20
413.642841112397
 30
0.0
  0
SPLINE
  5
FA
330
1F
100
AcDbEntity
  8
0
  6
Continuous
 62
     8
370
    18
100
AcDbSpline
210
0.0
220
0.0
230
1.0
 70
     8
 71
     3
 72
    10
 73
     6
 74
     0
 42
0.000000001
 43
0.00000001
 40
0.0
 40
0.0
 40
0.0
 40
0.0
 40
0.5
 40
0.5
 40
1.0
 40
1.0
 40
1.0
 40
1.0
 10
454.5611832209701
 20
413.1789538337785
 30
0.0
 10
454.5611843932402
 20
413.1789574773924
 30
0.0
 10
454.563088288028
 20
413.1874626370582
 30
0.0
 10
454.5506911637644
 20
413.2049591184743
 30
0.0
 10
454.5390230361162
 20
413.2162391080732
 30
0.0
 10
454.5171734701253
 20
413.2251988385854
 30
0.0
  0
SPLINE
  5
FB
330
1F
100
AcDbEntity
  8
0
  6
Continuous
 62
     8
370
    18
100
AcDbSpline
210
0.0
220
0.0
230
1.0
 70
     8
 71
     3
 72
    17
 73
    13
 74
     0
 42
0.000000001
 43
0.00000001
 40
0.0
 40
0.0
 40
0.0
 40
0.0
 40
0.1176196555194584
 40
0.24024723364742
 40
0.3698440535343529
 40
0.4367214722587921
 40
0.5044525005635437
 40
0.572125727995678
 40
0.6388469723137505
 40
0.7682036311689568
 40
0.8901277467659239
 40
1.0
 40
1.0
 40
1.0
 40
1.0
 10
396.4199740538297
 20
449.5532597062893
 30
0.0
 10
397.2522412495545
 20
449.5642282490195
 30
0.0
 10
398.9522112974628
 20
449.5866323449711
 30
0.0
 10
401.5588121957869
 20
449.6206185591047
 30
0.0
 10
403.7304806377734
 20
449.6500696857499
 30
0.0
 10
405.3406368770454
 20
449.6735664858513
 30
0.0
 10
406.4387912353995
 20
449.6903263490619
 30
0.0
 10
407.3415863339766
 20
449.7049656419562
 30
0.0
 10
408.2669513855892
 20
449.7210188037359
 30
0.0
 10
408.9288731742947
 20
449.7334271513691
 30
0.0
 10
409.184389043143
 20
449.7398179388005
 30
0.0
 10
409.1861036882021
 20
449.740740807336
 30
0.0
 10
409.1869164356885
 20
449.741178250105
 30
0.0
  0
SPLINE
  5
FC
330
1F
100
AcDbEntity
  8
0
  6
Continuous
 62
     8
370
    18
100
AcDbSpline
210
0.0
220
0.0
230
1.0
 70
     8
 71
     3
 72
    18
 73
    14
 74
     0
 42
0.000000001
 43
0.00000001
 40
0.0
 40
0.0
 40
0.0
 40
0.0
 40
0.25
 40
0.25
 40
0.375
 40
0.375
 40
0.5
 40
0.5
 40
0.625
 40
0.625
 40
0.75
 40
0.75
 40
1.0
 40
1.0
 40
1.0
 40
1.0
 10
396.3860337415112
 20
450.8906335064062
 30
0.0
 10
398.0034657569893
 20
450.9101728577219
 30
0.0
 10
399.6363312125035
 20
450.9335762601825
 30
0.0
 10
402.0183740591036
 20
450.9694473419043
 30
0.0
 10
402.8089044903852
 20
450.9817055607675
 30
0.0
 10
404.2740045834854
 20
451.0051541060539
 30
0.0
 10
404.9623849054453
 20
451.0165624742526
 30
0.0
 10
406.1022430513418
 20
451.0366195509645
 30
0.0
 10
406.5690013592624
 20
451.0455786732843
 30
0.0
 10
407.269092589115
 20
451.0599598759301
 30
0.0
 10
407.5133996257162
 20
451.0655729586255
 30
0.0
 10
407.9787645694528
 20
451.077454248239
 30
0.0
 10
407.9861986004236
 20
451.0795556290063
 30
0.0
 10
407.9891333061517
 20
451.0827497453499
 30
0.0
  0
SPLINE
  5
FD
330
1F
100
AcDbEntity
  8
0
  6
Continuous
 62
     8
370
    18
100
AcDbSpline
210
0.0
220
0.0
230
1.0
 70
     8
 71
     3
 72
    14
 73
    10
 74
     0
 42
0.000000001
 43
0.00000001
 40
0.0
 40
0.0
 40
0.0
 40
0.0
 40
0.25
 40
0.25
 40
0.5
 40
0.5
 40
0.75
 40
0.75
 40
1.0
 40
1.0
 40
1.0
 40
1.0
 10
407.9891333061517
 20
451.0827497453499
 30
0.0
 10
408.1387215945861
 20
451.0716437582054
 30
0.0
 10
408.2975622204679
 20
451.032979803229
 30
0.0
 10
408.6004005277477
 20
450.8893398441361
 30
0.0
 10
408.7434939261129
 20
450.7840602364749
 30
0.0
 10
408.9760750918347
 20
450.5241095618474
 30
0.0
 10
409.0648522420939
 20
450.370232735435
 30
0.0
 10
409.1740542079914
 20
450.0533446605672
 30
0.0
 10
409.1948809513926
 20
449.8911984867067
 30
0.0
 10
409.1893444834132
 20
449.7413010332141
 30
0.0
  0
SPLINE
  5
FE
330
1F
100
AcDbEntity
  8
0
  6
Continuous
 62
     8
370
    18
100
AcDbSpline
210
0.0
220
0.0
230
1.0
 70
     8
 71
     3
 72
     9
 73
     5
 74
     0
 42
0.000000001
 43
0.00000001
 40
0.0
 40
0.0
 40
0.0
 40
0.0
 40
0.7257890924840553
 40
1.0
 40
1.0
 40
1.0
 40
1.0
 10
409.1893453249631
 20
449.7412974593945
 30
0.0
 10
409.1586774184243
 20
449.3026791271305
 30
0.0
 10
409.1164228477006
 20
448.6983460821646
 30
0.0
 10
408.778836955706
 20
448.2107153361987
 30
0.0
 10
408.6862672218977
 20
448.0770016668149
 30
0.0
  0
LINE
  5
FF
330
1F
100
AcDbEntity
  8
0
  6
Continuous
 62
     8
370
    18
100
AcDbLine
 10
405.7886842737
 20
446.246930456
 30
0.0
 11
404.2397309193
 21
446.0623348711
 31
0.0
  0
SPLINE
  5
100
330
1F
100
AcDbEntity
  8
0
  6
Continuous
 62
     8
370
    18
100
AcDbSpline
210
0.0
220
0.0
230
1.0
 70
    24
 71
     3
 72
     9
 73
     5
 74
     0
 42
0.000000001
 43
0.00000001
 40
0.0
 40
0.0
 40
0.0
 40
0.0
 40
0.5
 40
1.0
 40
1.0
 40
1.0
 40
1.0
 10
396.3860337415114
 20
451.3248687664244
 30
0.0
 10
396.3860337415114
 20
451.3248687664244
 30
0.0
 10
396.3860337415114
 20
451.3143458270533
 30
0.0
 10
396.3860337415113
 20
451.2827770089398
 30
0.0
 10
396.3860337415113
 20
451.2617311301975
 30
0.0
  0
LINE
  5
101
330
1F
100
AcDbEntity
  8
0
  6
Continuous
 62
     8
370
    18
100
AcDbLine
 10
315.0171442056
 20
450.4407579658
 30
0.0
 11
321.2147347029
 21
450.5376453159
 31
0.0
  0
SPLINE
  5
102
330
1F
100
AcDbEntity
  8
0
  6
Continuous
 62
     8
370
    18
100
AcDbSpline
210
0.0
220
0.0
230
1.0
 70
     8
 71
     3
 72
     8
 73
     4
 74
     0
 42
0.000000001
 43
0.00000001
 40
0.0
 40
0.0
 40
0.0
 40
0.0
 40
1.0
 40
1.0
 40
1.0
 40
1.0
 10
409.1893975299934
 20
449.7427474222877
 30
0.0
 10
409.1894754970371
 20
449.7448814088225
 30
0.0
 10
409.1895125047778
 20
449.7459330008692
 30
0.0
 10
409.189512262496
 20
449.7459262620229
 30
0.0
  0
SPLINE
  5
103
330
1F
100
AcDbEntity
  8
0
  6
Continuous
 62
     8
370
    18
100
AcDbSpline
210
0.0
220
0.0
230
1.0
 70
     8
 71
     3
 72
     8
 73
     4
 74
     0
 42
0.000000001
 43
0.00000001
 40
0.0
 40
0.0
 40
0.0
 40
0.0
 40
1.0
 40
1.0
 40
1.0
 40
1.0
 10
407.9891426717288
 20
451.0827620365455
 30
0.0
 10
407.9921260679158
 20
451.0884341894518
 30
0.0
 10
407.9935355686797
 20
451.0911626331054
 30
0.0
 10
407.9935287127154
 20
451.0911486780609
 30
0.0
  0
SPLINE
  5
104
330
1F
100
AcDbEntity
  8
0
  6
Continuous
 62
     8
370
    18
100
AcDbSpline
210
0.0
220
0.0
230
1.0
 70
     8
 71
     3
 72
    10
 73
     6
 74
     0
 42
0.000000001
 43
0.00000001
 40
0.0
 40
0.0
 40
0.0
 40
0.0
 40
0.5
 40
0.5
 40
1.0
 40
1.0
 40
1.0
 40
1.0
 10
453.3403243672504
 20
415.140420842247
 30
0.0
 10
453.3657955095638
 20
415.1383816498441
 30
0.0
 10
453.3801187687703
 20
415.135939757973
 30
0.0
 10
453.3962372060852
 20
415.1314099756449
 30
0.0
 10
453.3964375810803
 20
415.1299323850931
 30
0.0
 10
453.3964373737755
 20
415.1299315196037
 30
0.0
  0
LINE
  5
105
330
1F
100
AcDbEntity
  8
0
  6
Continuous
 62
     8
370
    18
100
AcDbLine
 10
345.0507521728
 20
426.5303249119
 30
0.0
 11
345.0507521728
 21
434.0931708572
 31
0.0
  0
LWPOLYLINE
  5
106
330
1F
100
AcDbEntity
  8
0
  6
Continuous
 62
     8
370
    18
100
AcDbPolyline
 90
       10
 70
   128
 43
0.0
 10
291.8060664186
 20
329.635885602
 10
291.8778099218
 20
329.661999887
 10
292.1856697747
 20
329.7740491686
 10
292.6960829744
 20
329.9598256705
 10
293.3401148865
 20
330.1942358373
 10
294.0307874331
 20
330.4456184266
 10
294.6748212079
 20
330.6800285933
 10
295.1852325449
 20
330.8658013699
 10
295.4930923978
 20
330.9778543768
 10
295.564835901
 20
331.0039649365
  0
LINE
  5
107
330
1F
100
AcDbEntity
  8
0
  6
Continuous
 62
     8
370
    18
100
AcDbLine
 10
289.9266816774
 20
330.9518444
 30
0.0
 11
289.9266816774
 21
334.9518450556
 31
0.0
  0
LINE
  5
108
330
1F
100
AcDbEntity
  8
0
  6
Continuous
 62
     7
370
    25
100
AcDbLine
 10
155.1483566093
 20
397.040628886
 30
0.0
 11
155.1483566093
 21
397.547119355
 31
0.0
  0
LINE
  5
109
330
1F
100
AcDbEntity
  8
0
  6
Continuous
 62
     7
370
    25
100
AcDbLine
 10
131.1483564007
 20
397.536763048
 30
0.0
 11
131.1483564007
 21
397.040628886
 31
0.0
  0
LINE
  5
10A
330
1F
100
AcDbEntity
  8
0
  6
Continuous
 62
     7
370
    25
100
AcDbLine
 10
135.0143090042
 20
390.4428193925
 30
0.0
 11
135.6921465288
 21
390.198634064
 31
0.0
  0
LINE
  5
10B
330
1F
100
AcDbEntity
  8
0
  6
Continuous
 62
     7
370
    25
100
AcDbLine
 10
150.6045664812
 20
390.198634064
 30
0.0
 11
151.2824040058
 21
390.4428193925
 31
0.0
  0
SPLINE
  5
10C
330
1F
100
AcDbEntity
  8
0
  6
Continuous
 62
     7
370
    25
100
AcDbSpline
210
0.0
220
0.0
230
1.0
 70
     8
 71
     3
 72
     9
 73
     5
 74
     0
 42
0.000000001
 43
0.00000001
 40
0.0
 40
0.0
 40
0.0
 40
0.0
 40
0.5829181129318539
 40
1.0
 40
1.0
 40
1.0
 40
1.0
 10
123.2916353422236
 20
450.9670520780392
 30
0.0
 10
122.9880390299651
 20
450.9457034591017
 30
0.0
 10
122.4672174848401
 20
450.9090797576519
 30
0.0
 10
122.1592836014386
 20
450.7085772031461
 30
0.0
 10
122.0308499562573
 20
450.6249512193509
 30
0.0
  0
SPLINE
  5
10D
330
1F
100
AcDbEntity
  8
0
  6
Continuous
 62
     7
370
    25
100
AcDbSpline
210
0.0
220
0.0
230
1.0
 70
     8
 71
     3
 72
     9
 73
     5
 74
     0
 42
0.000000001
 43
0.00000001
 40
0.0
 40
0.0
 40
0.0
 40
0.0
 40
0.5468394119448918
 40
1.0
 40
1.0
 40
1.0
 40
1.0
 10
164.2658239382338
 20
450.6249810216732
 30
0.0
 10
164.1493840843829
 20
450.7115883656206
 30
0.0
 10
163.9364516378413
 20
450.8699663867645
 30
0.0
 10
163.2952551948082
 20
450.936786663363
 30
0.0
 10
163.0046902376246
 20
450.9670669792004
 30
0.0
  0
SPLINE
  5
10E
330
1F
100
AcDbEntity
  8
0
  6
Continuous
 62
     7
370
    25
100
AcDbSpline
210
0.0
220
0.0
230
1.0
 70
     8
 71
     3
 72
    14
 73
    10
 74
     0
 42
0.000000001
 43
0.00000001
 40
0.0
 40
0.0
 40
0.0
 40
0.0
 40
0.0960962302664751
 40
0.2104041256776799
 40
0.4754780962991491
 40
0.6156154376291828
 40
0.7542910871318125
 40
0.8918209365284859
 40
1.0
 40
1.0
 40
1.0
 40
1.0
 10
134.5414411428403
 20
451.2988413331814
 30
0.0
 10
134.2229514495236
 20
451.2956522069122
 30
0.0
 10
133.5256135282145
 20
451.2886695675049
 30
0.0
 10
131.83481754826
 20
451.2648273520064
 30
0.0
 10
129.8616286433052
 20
451.2233345740337
 30
0.0
 10
127.722079633865
 20
451.1606772095427
 30
0.0
 10
126.077404355892
 20
451.1010284465569
 30
0.0
 10
124.5896036766978
 20
451.0364989491248
 30
0.0
 10
123.7512316857539
 20
450.9909296979587
 30
0.0
 10
123.3821189182829
 20
450.9708667753048
 30
0.0
  0
SPLINE
  5
10F
330
1F
100
AcDbEntity
  8
0
  6
Continuous
 62
     7
370
    25
100
AcDbSpline
210
0.0
220
0.0
230
1.0
 70
     8
 71
     3
 72
    15
 73
    11
 74
     0
 42
0.000000001
 43
0.00000001
 40
0.0
 40
0.0
 40
0.0
 40
0.0
 40
0.0884335041436763
 40
0.2114984850022142
 40
0.3404662434293655
 40
0.4766216205089419
 40
0.6174298575545318
 40
0.7568334448435687
 40
0.8871594836477507
 40
1.0
 40
1.0
 40
1.0
 40
1.0
 10
162.9206178861689
 20
450.9707922694989
 30
0.0
 10
162.6113186081127
 20
450.9877145328304
 30
0.0
 10
161.8715952492498
 20
451.0281859931901
 30
0.0
 10
160.5789002483603
 20
451.0863522614436
 30
0.0
 10
159.0598761936818
 20
451.1446410021603
 30
0.0
 10
157.4577041120903
 20
451.1946637835483
 30
0.0
 10
155.8420488520165
 20
451.2356571835383
 30
0.0
 10
154.3017803305185
 20
451.2663878356856
 30
0.0
 10
152.9225672603329
 20
451.2869793502515
 30
0.0
 10
152.1252595035081
 20
451.2950815419135
 30
0.0
 10
151.7552718671989
 20
451.2988413331814
 30
0.0
  0
SPLINE
  5
110
330
1F
100
AcDbEntity
  8
0
  6
Continuous
 62
     7
370
    25
100
AcDbSpline
210
0.0
220
0.0
230
1.0
 70
     8
 71
     3
 72
     9
 73
     5
 74
     0
 42
0.000000001
 43
0.00000001
 40
0.0
 40
0.0
 40
0.0
 40
0.0
 40
0.5117752282764484
 40
1.0
 40
1.0
 40
1.0
 40
1.0
 10
143.1483565050193
 20
451.3523514030285
 30
0.0
 10
141.6704671986019
 20
451.3501817874306
 30
0.0
 10
138.7826968948408
 20
451.3459423958421
 30
0.0
 10
135.9330013302472
 20
451.3145535671133
 30
0.0
 10
134.5417093637418
 20
451.2992287633725
 30
0.0
  0
SPLINE
  5
111
330
1F
100
AcDbEntity
  8
0
  6
Continuous
 62
     7
370
    25
100
AcDbSpline
210
0.0
220
0.0
230
1.0
 70
     8
 71
     3
 72
     9
 73
     5
 74
     0
 42
0.000000001
 43
0.00000001
 40
0.0
 40
0.0
 40
0.0
 40
0.0
 40
0.4882247717235104
 40
1.0
 40
1.0
 40
1.0
 40
1.0
 10
151.7550036462974
 20
451.2992287633725
 30
0.0
 10
150.3637116797921
 20
451.3145535671133
 30
0.0
 10
147.5140161151982
 20
451.3459423958422
 30
0.0
 10
144.6262458114368
 20
451.3501817874306
 30
0.0
 10
143.1483565050193
 20
451.3523514030285
 30
0.0
  0
SPLINE
  5
112
330
1F
100
AcDbEntity
  8
0
  6
Continuous
 62
     7
370
    25
100
AcDbSpline
210
0.0
220
0.0
230
1.0
 70
     8
 71
     3
 72
    20
 73
    16
 74
     0
 42
0.000000001
 43
0.00000001
 40
0.0
 40
0.0
 40
0.0
 40
0.0
 40
0.1211450074655331
 40
0.2254057043878998
 40
0.3128906408665268
 40
0.3916767699153955
 40
0.4676328178746956
 40
0.5136681306258783
 40
0.5585980366644353
 40
0.6079907251975131
 40
0.6674533468408115
 40
0.7369857697215741
 40
0.81658785462002
 40
0.9062593287208985
 40
1.0
 40
1.0
 40
1.0
 40
1.0
 10
165.4620127904248
 20
449.3782306669064
 30
0.0
 10
165.3923337283608
 20
449.5165582828583
 30
0.0
 10
165.2626869654094
 20
449.7739344171479
 30
0.0
 10
165.0134666071526
 20
450.0105410795916
 30
0.0
 10
164.8819745843441
 20
450.1206154884221
 30
0.0
 10
164.8092159120544
 20
450.1801916622857
 30
0.0
 10
164.7440786920151
 20
450.2336452509699
 30
0.0
 10
164.6945624686724
 20
450.274167860808
 30
0.0
 10
164.6548427938151
 20
450.3066854813258
 30
0.0
 10
164.6125556098519
 20
450.3413328304729
 30
0.0
 10
164.5631069379919
 20
450.3818266268567
 30
0.0
 10
164.5054377083934
 20
450.429088881497
 30
0.0
 10
164.4393997453229
 20
450.483218451447
 30
0.0
 10
164.366723210417
 20
450.5428032690417
 30
0.0
 10
164.3160849586946
 20
450.5843371374808
 30
0.0
 10
164.2902041005921
 20
450.6055648086377
 30
0.0
  0
SPLINE
  5
113
330
1F
100
AcDbEntity
  8
0
  6
Continuous
 62
     7
370
    25
100
AcDbSpline
210
0.0
220
0.0
230
1.0
 70
     8
 71
     3
 72
    13
 73
     9
 74
     0
 42
0.000000001
 43
0.00000001
 40
0.0
 40
0.0
 40
0.0
 40
0.0
 40
0.2013258722302294
 40
0.3887710672583244
 40
0.5623372905759977
 40
0.7220275779610767
 40
0.867898423156449
 40
0.9999999999999999
 40
0.9999999999999999
 40
0.9999999999999999
 40
0.9999999999999999
 10
122.0064921456408
 20
450.6055499074765
 30
0.0
 10
121.9482689692689
 20
450.5578664145498
 30
0.0
 10
121.8358368900409
 20
450.4657870298668
 30
0.0
 10
121.6366296873406
 20
450.3010086403366
 30
0.0
 10
121.42427867317
 20
450.1188009202251
 30
0.0
 10
121.2065165800349
 20
449.9095203673473
 30
0.0
 10
120.9820627223737
 20
449.6755153567418
 30
0.0
 10
120.8821956876297
 20
449.4740588078688
 30
0.0
 10
120.8347356098723
 20
449.3783200738736
 30
0.0
  0
SPLINE
  5
114
330
1F
100
AcDbEntity
  8
0
  6
Continuous
 62
     7
370
    25
100
AcDbSpline
210
0.0
220
0.0
230
1.0
 70
     8
 71
     3
 72
    10
 73
     6
 74
     0
 42
0.000000001
 43
0.00000001
 40
0.0
 40
0.0
 40
0.0
 40
0.0
 40
0.3715683398254715
 40
0.5871770660665824
 40
1.0
 40
1.0
 40
1.0
 40
1.0
 10
167.4484567868542
 20
292.9518456218548
 30
0.0
 10
167.315946598736
 20
307.905720438262
 30
0.0
 10
167.1065451639427
 20
331.5368305192479
 30
0.0
 10
166.7520330777608
 20
371.782172049971
 30
0.0
 10
166.531357344559
 20
397.0735243708389
 30
0.0
 10
166.3863932865691
 20
413.687662279398
 30
0.0
  0
SPLINE
  5
115
330
1F
100
AcDbEntity
  8
0
  6
Continuous
 62
     7
370
    25
100
AcDbSpline
210
0.0
220
0.0
230
1.0
 70
     8
 71
     3
 72
    10
 73
     6
 74
     0
 42
0.000000001
 43
0.00000001
 40
0.0
 40
0.0
 40
0.0
 40
0.0
 40
0.4128228977013542
 40
0.6284316372474128
 40
1.0
 40
1.0
 40
1.0
 40
1.0
 10
119.9103197234702
 20
413.6876548288174
 30
0.0
 10
119.7653556580562
 20
397.0735194038181
 30
0.0
 10
119.544679902236
 20
371.7821695665914
 30
0.0
 10
119.1901678489118
 20
331.5368305193409
 30
0.0
 10
118.9807664123942
 20
307.9057204382808
 30
0.0
 10
118.848256223185
 20
292.9518456218548
 30
0.0
  0
SPLINE
  5
116
330
1F
100
AcDbEntity
  8
0
  6
Continuous
 62
     7
370
    25
100
AcDbSpline
210
0.0
220
0.0
230
1.0
 70
     8
 71
     3
 72
    13
 73
     9
 74
     0
 42
0.000000001
 43
0.00000001
 40
0.0
 40
0.0
 40
0.0
 40
0.0
 40
0.2070788423710284
 40
0.3727671782450314
 40
0.5307874124135759
 40
0.6794283273687645
 40
0.819056333368333
 40
1.0
 40
1.0
 40
1.0
 40
1.0
 10
165.7810596901011
 20
441.4641494510479
 30
0.0
 10
165.7538179975669
 20
442.1262090673961
 30
0.0
 10
165.7047796277348
 20
443.3179971428476
 30
0.0
 10
165.6354244570825
 20
444.9064187096765
 30
0.0
 10
165.5776498116751
 20
446.2011315702657
 30
0.0
 10
165.5366992964385
 20
447.2630486445693
 30
0.0
 10
165.514216268783
 20
448.218250481527
 30
0.0
 10
165.5158277304961
 20
448.5617279307256
 30
0.0
 10
165.5167373049092
 20
448.7556005475827
 30
0.0
  0
SPLINE
  5
117
330
1F
100
AcDbEntity
  8
0
  6
Continuous
 62
     7
370
    25
100
AcDbSpline
210
0.0
220
0.0
230
1.0
 70
     8
 71
     3
 72
    13
 73
     9
 74
     0
 42
0.000000001
 43
0.00000001
 40
0.0
 40
0.0
 40
0.0
 40
0.0
 40
0.0776196320977492
 40
0.3030377203267798
 40
0.520450690541046
 40
0.7333754774329929
 40
0.946484055858825
 40
0.9999999999999999
 40
0.9999999999999999
 40
0.9999999999999999
 40
0.9999999999999999
 10
165.4129320907425
 20
447.8344554660626
 30
0.0
 10
165.4062895094239
 20
447.7452862927445
 30
0.0
 10
165.3803559582659
 20
447.3971575748487
 30
0.0
 10
165.1264718092526
 20
446.7661578621087
 30
0.0
 10
164.6400761358792
 20
445.9089106065788
 30
0.0
 10
163.8700918965021
 20
445.1638517547481
 30
0.0
 10
163.13347298165
 20
444.7314497456085
 30
0.0
 10
162.7312161796858
 20
444.6283355362759
 30
0.0
 10
162.6504765975308
 20
444.6076388118573
 30
0.0
  0
SPLINE
  5
118
330
1F
100
AcDbEntity
  8
0
  6
Continuous
 62
     7
370
    25
100
AcDbSpline
210
0.0
220
0.0
230
1.0
 70
     8
 71
     3
 72
     9
 73
     5
 74
     0
 42
0.000000001
 43
0.00000001
 40
0.0
 40
0.0
 40
0.0
 40
0.0
 40
0.1151141208998527
 40
1.0
 40
1.0
 40
1.0
 40
1.0
 10
123.4645353782009
 20
444.6722800491162
 30
0.0
 10
123.431968784906
 20
444.6780200319255
 30
0.0
 10
123.1490617615076
 20
444.7278834436806
 30
0.0
 10
122.9675249916293
 20
444.9030045819288
 30
0.0
 10
122.8068856674265
 20
445.0579668042965
 30
0.0
  0
SPLINE
  5
119
330
1F
100
AcDbEntity
  8
0
  6
Continuous
 62
     7
370
    25
100
AcDbSpline
210
0.0
220
0.0
230
1.0
 70
     8
 71
     3
 72
    17
 73
    13
 74
     0
 42
0.000000001
 43
0.00000001
 40
0.0
 40
0.0
 40
0.0
 40
0.0
 40
0.0262107247307017
 40
0.1670688123578962
 40
0.3190719163942309
 40
0.4703520854492036
 40
0.5405285439635976
 40
0.608128112610811
 40
0.6788989319792899
 40
0.7606102102544968
 40
0.8844634407127423
 40
1.0
 40
1.0
 40
1.0
 40
1.0
 10
120.7451256143879
 20
448.8227898834057
 30
0.0
 10
120.745482221673
 20
448.7897258143021
 30
0.0
 10
120.7477552589965
 20
448.5789733527197
 30
0.0
 10
120.7676540415113
 20
448.2605043058167
 30
0.0
 10
120.7705436958632
 20
448.0034758469868
 30
0.0
 10
120.7733683647946
 20
447.687225538649
 30
0.0
 10
120.7507704857419
 20
447.0031611596343
 30
0.0
 10
120.7160202816805
 20
446.1957298230063
 30
0.0
 10
120.663560327155
 20
444.9934043035293
 30
0.0
 10
120.5905451598405
 20
443.2729893504627
 30
0.0
 10
120.5050696512203
 20
441.2399246641749
 30
0.0
 10
120.4455456690112
 20
439.7231185919869
 30
0.0
 10
120.4168176430296
 20
438.9910633323498
 30
0.0
  0
LINE
  5
11A
330
1F
100
AcDbEntity
  8
0
  6
Continuous
 62
     7
370
    25
100
AcDbLine
 10
121.6483557749
 20
416.4428124783
 30
0.0
 11
121.6483557749
 21
415.1064688919
 31
0.0
  0
LINE
  5
11B
330
1F
100
AcDbEntity
  8
0
  6
Continuous
 62
     7
370
    25
100
AcDbLine
 10
164.6483572352
 20
415.1068637727
 30
0.0
 11
164.6483572352
 21
416.4428124783
 31
0.0
  0
ARC
  5
11C
330
1F
100
AcDbEntity
  8
0
  6
Continuous
 62
     7
370
    25
100
AcDbCircle
 10
154.648356505
 20
416.4428092412
 30
0.0
 40
10.00000000000003
100
AcDbArc
 50
0.0
 51
9.0468459803
  0
ARC
  5
11D
330
1F
100
AcDbEntity
  8
0
  6
Continuous
 62
     7
370
    25
100
AcDbCircle
 10
131.648356505
 20
416.4428092412
 30
0.0
 40
10.0
100
AcDbArc
 50
170.9531540197
 51
180.0
  0
LWPOLYLINE
  5
11E
330
1F
100
AcDbEntity
  8
0
  6
Continuous
 62
     7
370
    25
100
AcDbPolyline
 90
        3
 70
   128
 43
0.0
 10
121.8270318734
 20
418.3401698826
 10
121.8269126642
 20
418.3394844292
 10
121.7727562564
 20
418.0152351616
  0
LINE
  5
11F
330
1F
100
AcDbEntity
  8
0
  6
Continuous
 62
     7
370
    25
100
AcDbLine
 10
164.5239567536
 20
418.0152351616
 30
0.0
 11
164.4698543626
 21
418.3391864059
 31
0.0
  0
LINE
  5
120
330
1F
100
AcDbEntity
  8
0
  6
Continuous
 62
     7
370
    25
100
AcDbLine
 10
165.552887522
 20
448.8275135515
 30
0.0
 11
165.4982431012
 21
449.2662037371
 31
0.0
  0
LINE
  5
121
330
1F
100
AcDbEntity
  8
0
  6
Continuous
 62
     7
370
    25
100
AcDbLine
 10
120.7984717715
 20
449.2662037371
 30
0.0
 11
120.7438254881
 21
448.8275135515
 31
0.0
  0
SPLINE
  5
122
330
1F
100
AcDbEntity
  8
0
  6
Continuous
 62
     7
370
    25
100
AcDbSpline
210
0.0
220
0.0
230
1.0
 70
     8
 71
     3
 72
    12
 73
     8
 74
     0
 42
0.000000001
 43
0.00000001
 40
0.0
 40
0.0
 40
0.0
 40
0.0
 40
0.1684586625807983
 40
0.4678417247529506
 40
0.7159094085018235
 40
0.9254723954883016
 40
1.0
 40
1.0
 40
1.0
 40
1.0
 10
166.3495259511303
 20
413.8571108339139
 30
0.0
 10
166.3452981723516
 20
413.936410666704
 30
0.0
 10
166.3335568271134
 20
414.1566413748005
 30
0.0
 10
166.1636234795072
 20
414.4602905820985
 30
0.0
 10
165.9295979096034
 20
414.724715226812
 30
0.0
 10
165.7259635436289
 20
414.8755671591539
 30
0.0
 10
165.6048553891023
 20
414.9268579881407
 30
0.0
 10
165.5730841833186
 20
414.9403134939976
 30
0.0
  0
LINE
  5
123
330
1F
100
AcDbEntity
  8
0
  6
Continuous
 62
     7
370
    25
100
AcDbLine
 10
166.3423696685
 20
420.7184697149
 30
0.0
 11
166.3261460292
 21
421.6399575231
 31
0.0
  0
LINE
  5
124
330
1F
100
AcDbEntity
  8
0
  6
Continuous
 62
     7
370
    25
100
AcDbLine
 10
119.9705520797
 20
421.6391379593
 30
0.0
 11
119.9543433416
 21
420.7184548137
 31
0.0
  0
SPLINE
  5
125
330
1F
100
AcDbEntity
  8
0
  6
Continuous
 62
     7
370
    25
100
AcDbSpline
210
0.0
220
0.0
230
1.0
 70
     8
 71
     3
 72
    29
 73
    25
 74
     0
 42
0.000000001
 43
0.00000001
 40
0.0
 40
0.0
 40
0.0
 40
0.0
 40
0.0388207954367045
 40
0.0807220485227877
 40
0.1232417679705234
 40
0.1641567278165238
 40
0.2053482987779794
 40
0.24696066348072
 40
0.2891484000850552
 40
0.3308798210936237
 40
0.372917538235434
 40
0.415980786898123
 40
0.4594347372857782
 40
0.4986011958463613
 40
0.5380867520286722
 40
0.5782280271736154
 40
0.6186932499200691
 40
0.6928554556737039
 40
0.7680388719385849
 40
0.8101420866382799
 40
0.8525457604010122
 40
0.8959799433879712
 40
0.9398216692619139
 40
1.0
 40
1.0
 40
1.0
 40
1.0
 10
131.9839455339145
 20
395.4003537652798
 30
0.0
 10
131.8587095110598
 20
395.4948777943368
 30
0.0
 10
131.5982998981203
 20
395.6914264011922
 30
0.0
 10
131.3015917246259
 20
395.9867642146443
 30
0.0
 10
131.0772749080982
 20
396.2798574774162
 30
0.0
 10
130.9398617059672
 20
396.5630780676615
 30
0.0
 10
130.8853873386741
 20
396.8373717447295
 30
0.0
 10
130.9145371447285
 20
397.1105755174954
 30
0.0
 10
131.0290236791203
 20
397.3861686533712
 30
0.0
 10
131.2291249203784
 20
397.6691549601694
 30
0.0
 10
131.5155202517102
 20
397.9668365051837
 30
0.0
 10
131.8918931448275
 20
398.288467280209
 30
0.0
 10
132.3430393623183
 20
398.6283477471478
 30
0.0
 10
132.8547215808231
 20
398.9837030410068
 30
0.0
 10
133.4163211950436
 20
399.3518645160067
 30
0.0
 10
134.044145840975
 20
399.7439731704422
 30
0.0
 10
134.9240142326686
 20
400.2673146598252
 30
0.0
 10
136.1152673515089
 20
400.9235959185236
 30
0.0
 10
137.4393012234617
 20
401.5464172271392
 30
0.0
 10
138.6120311383403
 20
401.9979152547262
 30
0.0
 10
139.5879471541228
 20
402.3081750931247
 30
0.0
 10
140.6091472783268
 20
402.5544474990471
 30
0.0
 10
141.7988296884089
 20
402.7533927289409
 30
0.0
 10
142.6536248379575
 20
402.7824290561028
 30
0.0
 10
143.148146249484
 20
402.799227332861
 30
0.0
  0
SPLINE
  5
126
330
1F
100
AcDbEntity
  8
0
  6
Continuous
 62
     7
370
    25
100
AcDbSpline
210
0.0
220
0.0
230
1.0
 70
     8
 71
     3
 72
    28
 73
    24
 74
     0
 42
0.000000001
 43
0.00000001
 40
0.0
 40
0.0
 40
0.0
 40
0.0
 40
0.0624981467140708
 40
0.1258434430117162
 40
0.22058945856092
 40
0.2784431374203313
 40
0.3200981735762047
 40
0.3620322062739646
 40
0.4049101673579073
 40
0.4481560820661816
 40
0.4885941182203915
 40
0.5293799709402779
 40
0.5707053313581261
 40
0.6127593623645842
 40
0.686880762555016
 40
0.7243496997293636
 40
0.7621399970011378
 40
0.8029702543104753
 40
0.8443528500024072
 40
0.8860186386803836
 40
0.9282696737533339
 40
0.969889302645223
 40
1.0
 40
1.0
 40
1.0
 40
1.0
 10
143.1485667605553
 20
402.799227332861
 30
0.0
 10
143.6602126110951
 20
402.7807822537643
 30
0.0
 10
144.6904395669306
 20
402.7436420763
 30
0.0
 10
146.4560602204521
 20
402.4053655741387
 30
0.0
 10
148.0991283192561
 20
401.8680200017813
 30
0.0
 10
149.46685090357
 20
401.2639393640758
 30
0.0
 10
150.4063468102443
 20
400.7935386881855
 30
0.0
 10
151.2001530260441
 20
400.3618873440656
 30
0.0
 10
151.9516753570343
 20
399.9259480846365
 30
0.0
 10
152.6358403295488
 20
399.5070674020595
 30
0.0
 10
153.2460719067815
 20
399.1144704590121
 30
0.0
 10
153.7813619895615
 20
398.7508548302686
 30
0.0
 10
154.2514738308231
 20
398.4075370680522
 30
0.0
 10
154.7495638415015
 20
398.0039164406388
 30
0.0
 10
155.0976630381469
 20
397.6458997554847
 30
0.0
 10
155.3026105114655
 20
397.3145683116585
 30
0.0
 10
155.3919779116513
 20
397.0611952671384
 30
0.0
 10
155.4084726946162
 20
396.7995808435281
 30
0.0
 10
155.3432133205628
 20
396.525207472779
 30
0.0
 10
155.1942096539147
 20
396.2404212860451
 30
0.0
 10
154.9579335223955
 20
395.9468458319066
 30
0.0
 10
154.6776537257325
 20
395.6741188223768
 30
0.0
 10
154.4425688412825
 20
395.5000514946575
 30
0.0
 10
154.3438857573103
 20
395.4269821403332
 30
0.0
  0
ARC
  5
127
330
1F
100
AcDbEntity
  8
0
  6
Continuous
 62
     7
370
    25
100
AcDbCircle
 10
137.781270115
 20
398.8798849638
 30
0.0
 40
8.879197556250224
100
AcDbArc
 50
230.6249144206
 51
251.8429400047
  0
ARC
  5
128
330
1F
100
AcDbEntity
  8
0
  6
Continuous
 62
     7
370
    25
100
AcDbCircle
 10
148.515442895
 20
398.8798849638
 30
0.0
 40
8.879197556250224
100
AcDbArc
 50
288.1570599953
 51
309.3750855794
  0
ARC
  5
129
330
1F
100
AcDbEntity
  8
0
  6
Continuous
 62
     7
370
    25
100
AcDbCircle
 10
152.8251248848
 20
397.0452108779
 30
0.0
 40
2.297730089694618
100
AcDbArc
 50
305.1617325459
 51
17.1503748216
  0
LINE
  5
12A
330
1F
100
AcDbEntity
  8
0
  6
Continuous
 62
     7
370
    25
100
AcDbLine
 10
154.1483564454
 20
398.4777564762
 30
0.0
 11
154.1483564454
 21
395.7639420984
 31
0.0
  0
LWPOLYLINE
  5
12B
330
1F
100
AcDbEntity
  8
0
  6
Continuous
 62
     7
370
    25
100
AcDbPolyline
 90
       17
 70
   128
 43
0.0
 10
154.1483564454
 20
395.7639420984
 10
153.3402301523
 20
396.3651443479
 10
152.3183215561
 20
396.9144235013
 10
151.1040641147
 20
397.4002684114
 10
149.7229295003
 20
397.8124866841
 10
148.2038874331
 20
398.1424207447
 10
146.5788014851
 20
398.3831639049
 10
144.8817587609
 20
398.5296572206
 10
143.148356505
 20
398.5788310526
 10
141.4149542491
 20
398.5296572206
 10
139.717911525
 20
398.3831639049
 10
138.0928255769
 20
398.1424207447
 10
136.5737835097
 20
397.8124866841
 10
135.1926488954
 20
397.4002684114
 10
133.9783914539
 20
396.9144235013
 10
132.9564828577
 20
396.3651443479
 10
132.1483565646
 20
395.7639420984
  0
LINE
  5
12C
330
1F
100
AcDbEntity
  8
0
  6
Continuous
 62
     7
370
    25
100
AcDbLine
 10
132.1483565646
 20
398.4756479619
 30
0.0
 11
132.1483565646
 21
395.7639420984
 31
0.0
  0
ARC
  5
12D
330
1F
100
AcDbEntity
  8
0
  6
Continuous
 62
     7
370
    25
100
AcDbCircle
 10
133.4707544116
 20
397.044505136
 30
0.0
 40
2.296673016898298
100
AcDbArc
 50
162.6336658852
 51
234.8451319147
  0
LWPOLYLINE
  5
12E
330
1F
100
AcDbEntity
  8
0
  6
Continuous
 62
     7
370
    25
100
AcDbPolyline
 90
       22
 70
   128
 43
0.0
 10
154.1483564454
 20
393.3586041091
 10
154.02549544
 20
393.9991975782
 10
153.6596570316
 20
394.625478482
 10
153.0590145069
 20
395.2234546302
 10
152.2369826364
 20
395.7797820328
 10
151.2119271013
 20
396.2820182202
 10
150.006744467
 20
396.7189500687
 10
148.6483564752
 20
397.0808173178
 10
147.1671079437
 20
397.3595435379
 10
145.5960866681
 20
397.5488851426
 10
143.9703875606
 20
397.6446325538
 10
142.3263254494
 20
397.6446325538
 10
140.7006263419
 20
397.5488851426
 10
139.1296050663
 20
397.3595435379
 10
137.6483565348
 20
397.0808173178
 10
136.289968543
 20
396.7189500687
 10
135.0847859087
 20
396.2820182202
 10
134.0597303736
 20
395.7797820328
 10
133.2376985031
 20
395.2234546302
 10
132.6370559785
 20
394.625478482
 10
132.27121757
 20
393.9991975782
 10
132.1483565646
 20
393.3586041091
  0
SPLINE
  5
12F
330
1F
100
AcDbEntity
  8
0
  6
Continuous
 62
     7
370
    25
100
AcDbSpline
210
0.0
220
0.0
230
1.0
 70
    24
 71
     3
 72
     8
 73
     4
 74
     0
 42
0.000000001
 43
0.00000001
 40
0.0
 40
0.0
 40
0.0
 40
0.0
 40
1.0
 40
1.0
 40
1.0
 40
1.0
 10
132.1483565050192
 20
395.7639413465353
 30
0.0
 10
132.1483565050192
 20
394.8105247768178
 30
0.0
 10
132.1483565050192
 20
393.991012745604
 30
0.0
 10
132.1483565050192
 20
393.3586069584558
 30
0.0
  0
SPLINE
  5
130
330
1F
100
AcDbEntity
  8
0
  6
Continuous
 62
     7
370
    25
100
AcDbSpline
210
0.0
220
0.0
230
1.0
 70
    24
 71
     3
 72
     8
 73
     4
 74
     0
 42
0.000000001
 43
0.00000001
 40
0.0
 40
0.0
 40
0.0
 40
0.0
 40
1.0
 40
1.0
 40
1.0
 40
1.0
 10
154.1483565050192
 20
395.7639413465353
 30
0.0
 10
154.1483565050192
 20
394.8105247768178
 30
0.0
 10
154.1483565050192
 20
393.991012745604
 30
0.0
 10
154.1483565050192
 20
393.3586069584558
 30
0.0
  0
LWPOLYLINE
  5
131
330
1F
100
AcDbEntity
  8
0
  6
Continuous
 62
     7
370
    25
100
AcDbPolyline
 90
       22
 70
   128
 43
0.0
 10
132.1483565646
 20
393.3586041091
 10
132.27121757
 20
392.7180180905
 10
132.6370559785
 20
392.0917371867
 10
133.2376985031
 20
391.493753588
 10
134.0597303736
 20
390.937433636
 10
135.0847859087
 20
390.4351974485
 10
136.289968543
 20
389.9982656
 10
137.6483565348
 20
389.6363909004
 10
139.1296050663
 20
389.3576721309
 10
140.7006263419
 20
389.1683230756
 10
142.3263254494
 20
389.0725831149
 10
143.9703875606
 20
389.0725831149
 10
145.5960866681
 20
389.1683230756
 10
147.1671079437
 20
389.3576721309
 10
148.6483564752
 20
389.6363909004
 10
150.006744467
 20
389.9982656
 10
151.2119271013
 20
390.4351974485
 10
152.2369826364
 20
390.937433636
 10
153.0590145069
 20
391.493753588
 10
153.6596570316
 20
392.0917371867
 10
154.02549544
 20
392.7180180905
 10
154.1483564454
 20
393.3586041091
  0
LINE
  5
132
330
1F
100
AcDbEntity
  8
0
  6
Continuous
 62
     7
370
    25
100
AcDbLine
 10
155.1483566093
 20
397.4593217132
 30
0.0
 11
155.1898144337
 21
397.5419561026
 31
0.0
  0
SPLINE
  5
133
330
1F
100
AcDbEntity
  8
0
  6
Continuous
 62
     7
370
    25
100
AcDbSpline
210
0.0
220
0.0
230
1.0
 70
     8
 71
     3
 72
     8
 73
     4
 74
     0
 42
0.000000001
 43
0.00000001
 40
0.0841390490982549
 40
0.0841390490982549
 40
0.0841390490982549
 40
0.0841390490982549
 40
0.0963595752834648
 40
0.0963595752834648
 40
0.0963595752834648
 40
0.0963595752834648
 10
121.398460324114
 20
415.0869354809922
 30
0.0
 10
121.3310517590252
 20
415.0815137589215
 30
0.0
 10
121.2642646907431
 20
415.0760553760869
 30
0.0
 10
121.1981075241794
 20
415.0705603324884
 30
0.0
  0
SPLINE
  5
134
330
1F
100
AcDbEntity
  8
0
  6
Continuous
 62
     7
370
    25
100
AcDbSpline
210
0.0
220
0.0
230
1.0
 70
     8
 71
     3
 72
     8
 73
     4
 74
     0
 42
0.000000001
 43
0.00000001
 40
0.0963595752832861
 40
0.0963595752832861
 40
0.0963595752832861
 40
0.0963595752832861
 40
0.1112997098745325
 40
0.1112997098745325
 40
0.1112997098745325
 40
0.1112997098745325
 10
121.398460324111
 20
415.0869354809919
 30
0.0
 10
121.4808702809137
 20
415.0935637763882
 30
0.0
 10
121.5642091358913
 20
415.100137278073
 30
0.0
 10
121.6484615313157
 20
415.1066559860463
 30
0.0
  0
SPLINE
  5
135
330
1F
100
AcDbEntity
  8
0
  6
Continuous
 62
     7
370
    25
100
AcDbSpline
210
0.0
220
0.0
230
1.0
 70
     8
 71
     3
 72
    31
 73
    27
 74
     0
 42
0.000000001
 43
0.00000001
 40
0.0
 40
0.0
 40
0.0
 40
0.0
 40
0.1250000000000002
 40
0.1250000000000002
 40
0.1875000000000003
 40
0.1875000000000003
 40
0.2500000000000004
 40
0.2500000000000004
 40
0.3750000000000005
 40
0.3750000000000005
 40
0.4375000000000004
 40
0.4375000000000004
 40
0.5000000000000003
 40
0.5000000000000003
 40
0.6250000000000003
 40
0.6250000000000003
 40
0.6562500000000002
 40
0.6562500000000002
 40
0.6875000000000002
 40
0.6875000000000002
 40
0.7500000000000002
 40
0.8125000000000002
 40
0.8125000000000002
 40
0.8750000000000002
 40
0.8750000000000002
 40
1.0
 40
1.0
 40
1.0
 40
1.0
 10
121.6484615313157
 20
415.1066559860464
 30
0.0
 10
121.644014356399
 20
415.1047564742856
 30
0.0
 10
121.7794790074246
 20
415.1140034688258
 30
0.0
 10
122.1838998078407
 20
415.1415644480367
 30
0.0
 10
122.3524945867501
 20
415.1529951296082
 30
0.0
 10
122.7588058496749
 20
415.17955504405
 30
0.0
 10
122.997626357921
 20
415.1947399581218
 30
0.0
 10
123.8031219744151
 20
415.2434308554486
 30
0.0
 10
124.4614222870762
 20
415.2802146086634
 30
0.0
 10
125.6293540049052
 20
415.3369370197262
 30
0.0
 10
126.0507051026278
 20
415.3561999149795
 30
0.0
 10
126.9484936541731
 20
415.394361847956
 30
0.0
 10
127.42106889083
 20
415.4131058896867
 30
0.0
 10
128.9076758757155
 20
415.4676864199315
 30
0.0
 10
129.989932978658
 20
415.5018566678804
 30
0.0
 10
131.4596768146675
 20
415.5402739888257
 30
0.0
 10
131.7603324825664
 20
415.5477620984877
 30
0.0
 10
132.3677046983387
 20
415.5621381577786
 30
0.0
 10
132.6747936523475
 20
415.569037938507
 30
0.0
 10
133.6060852363724
 20
415.5888585837678
 30
0.0
 10
134.8744925130522
 20
415.6129444193601
 30
0.0
 10
136.1955115362061
 20
415.6321779968119
 30
0.0
 10
137.5432213814826
 20
415.6488707813526
 30
0.0
 10
138.2336792356088
 20
415.6559705516345
 30
0.0
 10
140.3202899727488
 20
415.6730095038423
 30
0.0
 10
141.7265893858215
 20
415.6787450415679
 30
0.0
 10
143.1482103184392
 20
415.6787454377057
 30
0.0
  0
SPLINE
  5
136
330
1F
100
AcDbEntity
  8
0
  6
Continuous
 62
     7
370
    25
100
AcDbSpline
210
0.0
220
0.0
230
1.0
 70
     8
 71
     3
 72
     8
 73
     4
 74
     0
 42
0.000000001
 43
0.00000001
 40
0.9443501450596926
 40
0.9443501450596926
 40
0.9443501450596926
 40
0.9443501450596926
 40
0.9579305282132329
 40
0.9579305282132329
 40
0.9579305282132329
 40
0.9579305282132329
 10
165.0986071996688
 20
415.0705601901386
 30
0.0
 10
164.9515694193086
 20
415.0827732168087
 30
0.0
 10
164.8014200869071
 20
415.0948051487807
 30
0.0
 10
164.6482514786207
 20
415.1066559860544
 30
0.0
  0
SPLINE
  5
137
330
1F
100
AcDbEntity
  8
0
  6
Continuous
 62
     7
370
    25
100
AcDbSpline
210
0.0
220
0.0
230
1.0
 70
     8
 71
     3
 72
    33
 73
    29
 74
     0
 42
0.000000001
 43
0.00000001
 40
0.0
 40
0.0
 40
0.0
 40
0.0
 40
0.1249999999999997
 40
0.1249999999999997
 40
0.1874999999999995
 40
0.1874999999999995
 40
0.2499999999999993
 40
0.2499999999999993
 40
0.374999999999999
 40
0.374999999999999
 40
0.406249999999999
 40
0.406249999999999
 40
0.4374999999999991
 40
0.4374999999999991
 40
0.4999999999999991
 40
0.4999999999999991
 40
0.6249999999999996
 40
0.6249999999999996
 40
0.6562499999999996
 40
0.6562499999999996
 40
0.6874999999999996
 40
0.6874999999999996
 40
0.7499999999999997
 40
0.8124999999999997
 40
0.8124999999999997
 40
0.8749999999999998
 40
0.8749999999999998
 40
1.0
 40
1.0
 40
1.0
 40
1.0
 10
143.148502836766
 20
415.6787454377056
 30
0.0
 10
144.5695883462885
 20
415.6787450413239
 30
0.0
 10
145.967900153963
 20
415.6730148233585
 30
0.0
 10
148.0324702335952
 20
415.6562514610602
 30
0.0
 10
148.7151368316845
 20
415.6492942397531
 30
0.0
 10
150.0691466216179
 20
415.6326240189336
 30
0.0
 10
150.7408852938414
 20
415.6228837265161
 30
0.0
 10
152.6945170509215
 20
415.5902768911685
 30
0.0
 10
153.9307703258417
 20
415.5638625316869
 30
0.0
 10
155.3937673770117
 20
415.5257451728972
 30
0.0
 10
155.6822137162948
 20
415.5178664004082
 30
0.0
 10
156.2506578096107
 20
415.50161764329
 30
0.0
 10
156.5313545891227
 20
415.4932246820413
 30
0.0
 10
157.3524993863821
 20
415.4675967002951
 30
0.0
 10
157.8736957206918
 20
415.4498720504382
 30
0.0
 10
159.3608640417901
 20
415.3953308922815
 30
0.0
 10
160.2511484383574
 20
415.3570707007464
 30
0.0
 10
161.2339042245707
 20
415.3094407142326
 30
0.0
 10
161.4241214427653
 20
415.2999170514204
 30
0.0
 10
161.7872342499792
 20
415.2811991773754
 30
0.0
 10
161.9606552649229
 20
415.2719804299943
 30
0.0
 10
162.4569298317741
 20
415.2448848758591
 30
0.0
 10
163.0547730206558
 20
415.2102424618134
 30
0.0
 10
163.5264936329222
 20
415.1802858848949
 30
0.0
 10
163.9341066579527
 20
415.1536705786595
 30
0.0
 10
164.106406360732
 20
415.1419995404204
 30
0.0
 10
164.5172421167925
 20
415.1140059042081
 30
0.0
 10
164.6526986123638
 20
415.1047564919164
 30
0.0
 10
164.6482514787236
 20
415.1066559860464
 30
0.0
  0
SPLINE
  5
138
330
1F
100
AcDbEntity
  8
0
  6
Continuous
 62
     7
370
    25
100
AcDbSpline
210
0.0
220
0.0
230
1.0
 70
    24
 71
     3
 72
    10
 73
     6
 74
     0
 42
0.000000001
 43
0.00000001
 40
0.0
 40
0.0
 40
0.0
 40
0.0
 40
0.5
 40
0.5
 40
1.0
 40
1.0
 40
1.0
 40
1.0
 10
132.1483565050192
 20
393.3586069584558
 30
0.0
 10
132.1483565050192
 20
393.0431404717029
 30
0.0
 10
132.1483565050192
 20
392.7727304470006
 30
0.0
 10
132.1483565050192
 20
392.3302132194298
 30
0.0
 10
132.1483565050192
 20
392.1554128060727
 30
0.0
 10
132.1483565050192
 20
392.0161800202385
 30
0.0
  0
SPLINE
  5
139
330
1F
100
AcDbEntity
  8
0
  6
Continuous
 62
     7
370
    25
100
AcDbSpline
210
0.0
220
0.0
230
1.0
 70
    24
 71
     3
 72
    10
 73
     6
 74
     0
 42
0.000000001
 43
0.00000001
 40
0.0
 40
0.0
 40
0.0
 40
0.0
 40
0.5
 40
0.5
 40
1.0
 40
1.0
 40
1.0
 40
1.0
 10
154.1483565050192
 20
393.3586069584558
 30
0.0
 10
154.1483565050192
 20
393.0431404717029
 30
0.0
 10
154.1483565050192
 20
392.7727304470006
 30
0.0
 10
154.1483565050192
 20
392.3302132194298
 30
0.0
 10
154.1483565050192
 20
392.1554128060727
 30
0.0
 10
154.1483565050192
 20
392.0161800202385
 30
0.0
  0
LINE
  5
13A
330
1F
100
AcDbEntity
  8
0
  6
Continuous
 62
     7
370
    25
100
AcDbLine
 10
123.3822437155
 20
450.9685719965
 30
0.0
 11
123.2430221665
 21
450.9622241018
 31
0.0
  0
LINE
  5
13B
330
1F
100
AcDbEntity
  8
0
  6
Continuous
 62
     7
370
    25
100
AcDbLine
 10
163.0548941123
 20
450.9621048925
 30
0.0
 11
162.9204800504
 21
450.9682590721
 31
0.0
  0
SPLINE
  5
13C
330
1F
100
AcDbEntity
  8
0
  6
Continuous
 62
     7
370
    25
100
AcDbSpline
210
0.0
220
0.0
230
1.0
 70
     8
 71
     3
 72
     8
 73
     4
 74
     0
 42
0.000000001
 43
0.00000001
 40
0.0
 40
0.0
 40
0.0
 40
0.0
 40
0.9660390747218122
 40
0.9660390747218122
 40
0.9660390747218122
 40
0.9660390747218122
 10
126.5331411622908
 20
445.8305649214009
 30
0.0
 10
123.7128297796451
 20
445.8318064420058
 30
0.0
 10
121.6759365497561
 20
447.0212539679049
 30
0.0
 10
121.5408397826647
 20
449.5528547421155
 30
0.0
  0
SPLINE
  5
13D
330
1F
100
AcDbEntity
  8
0
  6
Continuous
 62
     7
370
    25
100
AcDbSpline
210
0.0
220
0.0
230
1.0
 70
     8
 71
     3
 72
     8
 73
     4
 74
     0
 42
0.000000001
 43
0.00000001
 40
0.0
 40
0.0
 40
0.0
 40
0.0
 40
0.9660391189136345
 40
0.9660391189136345
 40
0.9660391189136345
 40
0.9660391189136345
 10
159.7635718477477
 20
445.8305649214009
 30
0.0
 10
162.5838833594096
 20
445.8318064420627
 30
0.0
 10
164.6207766466393
 20
447.0212540767283
 30
0.0
 10
164.755873245914
 20
449.5528550895426
 30
0.0
  0
LINE
  5
13E
330
1F
100
AcDbEntity
  8
0
  6
Continuous
 62
     7
370
    25
100
AcDbLine
 10
151.7579401064
 20
451.2870545147
 30
0.0
 11
151.7573030817
 21
451.2885297296
 31
0.0
  0
LINE
  5
13F
330
1F
100
AcDbEntity
  8
0
  6
Continuous
 62
     7
370
    25
100
AcDbLine
 10
164.2905766296
 20
450.6052667854
 30
0.0
 11
164.2659189331
 21
450.6249065159
 31
0.0
  0
ARC
  5
140
330
1F
100
AcDbEntity
  8
0
  6
Continuous
 62
     7
370
    25
100
AcDbCircle
 10
121.3140799014
 20
413.675456857
 30
0.0
 40
1.399912358788412
100
AcDbArc
 50
94.7520392835
 51
179.5306386578
  0
SPLINE
  5
141
330
1F
100
AcDbEntity
  8
0
  6
Continuous
 62
     7
370
    25
100
AcDbSpline
210
0.0
220
0.0
230
1.0
 70
    24
 71
     3
 72
    24
 73
    20
 74
     0
 42
0.000000001
 43
0.00000001
 40
0.0
 40
0.0
 40
0.0
 40
0.0
 40
0.0640937366438819
 40
0.1136020308291464
 40
0.2145568948556699
 40
0.2782451784236607
 40
0.3536234032032981
 40
0.4291442813958612
 40
0.4979353647627637
 40
0.5373849233039577
 40
0.6054502802083087
 40
0.6439345507158883
 40
0.7035122854850403
 40
0.757057668872111
 40
0.8168170099001462
 40
0.8608915526449517
 40
0.9200994188719444
 40
0.9626075536183961
 40
1.0
 40
1.0
 40
1.0
 40
1.0
 10
143.1483564840505
 20
292.9518456218549
 30
0.0
 10
143.9639542683713
 20
292.9518456218549
 30
0.0
 10
145.4095489471992
 20
292.9518456218549
 30
0.0
 10
148.1137238793982
 20
292.9518456218549
 30
0.0
 10
150.7608928142899
 20
292.9518456218549
 30
0.0
 10
153.5910308366556
 20
292.9518456218549
 30
0.0
 10
155.9966956785621
 20
292.9518456218549
 30
0.0
 10
158.2850319454688
 20
292.9518456218549
 30
0.0
 10
160.0323162148876
 20
292.9518456218549
 30
0.0
 10
161.5735679815215
 20
292.9518456218549
 30
0.0
 10
162.7342223587124
 20
292.9518456218548
 30
0.0
 10
163.9096400513982
 20
292.9518456218548
 30
0.0
 10
164.85566431008
 20
292.9518456218548
 30
0.0
 10
165.7600609009677
 20
292.9518456218548
 30
0.0
 10
166.4176227083212
 20
292.9518456218548
 30
0.0
 10
166.9411185111072
 20
292.9518456218548
 30
0.0
 10
167.2433276835316
 20
292.9518456218548
 30
0.0
 10
167.4488880086132
 20
292.9518456218548
 30
0.0
 10
167.3907007614322
 20
292.9518456218548
 30
0.0
 10
167.3634698766303
 20
292.9518456218548
 30
0.0
  0
SPLINE
  5
142
330
1F
100
AcDbEntity
  8
0
  6
Continuous
 62
     7
370
    25
100
AcDbSpline
210
0.0
220
0.0
230
1.0
 70
    24
 71
     3
 72
    24
 73
    20
 74
     0
 42
0.000000001
 43
0.00000001
 40
0.0
 40
0.0
 40
0.0
 40
0.0
 40
0.0813183696699582
 40
0.1475788073817952
 40
0.2145671129607536
 40
0.2657514945839025
 40
0.3172711101810683
 40
0.365465185430586
 40
0.4291841891398985
 40
0.4840063580415589
 40
0.5801284481408965
 40
0.6438987122106182
 40
0.6926977231862956
 40
0.7443797041558186
 40
0.7964035531956223
 40
0.8608364437374167
 40
0.9091744919660674
 40
0.9603538550726062
 40
1.0
 40
1.0
 40
1.0
 40
1.0
 10
143.1483565259885
 20
292.9518456218549
 30
0.0
 10
142.1132574188348
 20
292.9518456218549
 30
0.0
 10
140.234731172235
 20
292.9518456218549
 30
0.0
 10
137.5449776405132
 20
292.9518456218549
 30
0.0
 10
135.2886486171693
 20
292.9518456218549
 30
0.0
 10
133.2803132503618
 20
292.9518456218549
 30
0.0
 10
131.5570052551449
 20
292.9518456218549
 30
0.0
 10
129.7683593480019
 20
292.9518456218549
 30
0.0
 10
128.0437446859706
 20
292.9518456218549
 30
0.0
 10
125.984696628181
 20
292.9518456218549
 30
0.0
 10
124.1455444803396
 20
292.9518456218548
 30
0.0
 10
122.6233561203205
 20
292.9518456218548
 30
0.0
 10
121.5834412862091
 20
292.9518456218548
 30
0.0
 10
120.7534377035015
 20
292.9518456218548
 30
0.0
 10
119.9984243762097
 20
292.9518456218548
 30
0.0
 10
119.438288543803
 20
292.9518456218548
 30
0.0
 10
119.068086914994
 20
292.9518456218548
 30
0.0
 10
118.8734510977986
 20
292.9518456218548
 30
0.0
 10
118.8657549846114
 20
292.9518456218548
 30
0.0
 10
118.8623955625128
 20
292.9518456218548
 30
0.0
  0
LINE
  5
143
330
1F
100
AcDbEntity
  8
0
  6
Continuous
 62
     7
370
    25
100
AcDbLine
 10
165.9310324269
 20
437.6503164528
 30
0.0
 11
165.777926721
 21
441.4640302418
 31
0.0
  0
LINE
  5
144
330
1F
100
AcDbEntity
  8
0
  6
Continuous
 62
     7
370
    25
100
AcDbLine
 10
120.3656805831
 20
437.6503164528
 30
0.0
 11
120.4195017147
 21
438.9909590242
 31
0.0
  0
CIRCLE
  5
145
330
1F
100
AcDbEntity
  8
0
  6
Continuous
 62
     7
370
    25
100
AcDbCircle
 10
143.148356505
 20
430.3117484662
 30
0.0
 40
3.569682227408603
  0
ARC
  5
146
330
1F
100
AcDbEntity
  8
0
  6
Continuous
 62
     7
370
    25
100
AcDbCircle
 10
143.148356505
 20
430.3117484662
 30
0.0
 40
4.000000000000026
100
AcDbArc
 50
112.047137569
 51
247.8534622059
  0
SPLINE
  5
147
330
1F
100
AcDbEntity
  8
0
  6
Continuous
 62
     7
370
    25
100
AcDbSpline
210
0.0
220
0.0
230
1.0
 70
     8
 71
     3
 72
    10
 73
     6
 74
     0
 42
0.000000001
 43
0.00000001
 40
0.0
 40
0.0
 40
0.0
 40
0.0
 40
0.5
 40
0.5
 40
1.0
 40
1.0
 40
1.0
 40
1.0
 10
141.646879440733
 20
434.0192498654467
 30
0.0
 10
142.1301144521106
 20
434.2023341898561
 30
0.0
 10
142.6312984720958
 20
434.2935997192296
 30
0.0
 10
143.6662336152561
 20
434.2935001503395
 30
0.0
 10
144.1665985557482
 20
434.2023341906812
 30
0.0
 10
144.6498335693059
 20
434.0192498654454
 30
0.0
  0
ARC
  5
148
330
1F
100
AcDbEntity
  8
0
  6
Continuous
 62
     7
370
    25
100
AcDbCircle
 10
143.148356505
 20
430.3117484662
 30
0.0
 40
4.000000000000057
100
AcDbArc
 50
292.1465377942
 51
67.952862431
  0
SPLINE
  5
149
330
1F
100
AcDbEntity
  8
0
  6
Continuous
 62
     7
370
    25
100
AcDbSpline
210
0.0
220
0.0
230
1.0
 70
     8
 71
     3
 72
    10
 73
     6
 74
     0
 42
0.000000001
 43
0.00000001
 40
0.0
 40
0.0
 40
0.0
 40
0.0
 40
0.5
 40
0.5
 40
1.0
 40
1.0
 40
1.0
 40
1.0
 10
144.6562633068978
 20
426.606857499268
 30
0.0
 10
144.1711279973558
 20
426.4220363185942
 30
0.0
 10
143.6673968211032
 20
426.3298678043088
 30
0.0
 10
142.6280191697852
 20
426.3300262503794
 30
0.0
 10
142.125585014343
 20
426.4220363179612
 30
0.0
 10
141.6404497031413
 20
426.6068574992667
 30
0.0
  0
SPLINE
  5
14A
330
1F
100
AcDbEntity
  8
0
  6
Continuous
 62
     7
370
    25
100
AcDbSpline
210
0.0
220
0.0
230
1.0
 70
    24
 71
     3
 72
    26
 73
    22
 74
     0
 42
0.000000001
 43
0.00000001
 40
0.2294549521418066
 40
0.2294549521418066
 40
0.2294549521418066
 40
0.2294549521418066
 40
0.2499769504868403
 40
0.2499769504868403
 40
0.3124769504868403
 40
0.3124769504868403
 40
0.3749769504868403
 40
0.3749769504868403
 40
0.4374769504868403
 40
0.4374769504868403
 40
0.4999769504868403
 40
0.4999769504868403
 40
0.5624769504868403
 40
0.5624769504868403
 40
0.6249769504868403
 40
0.6249769504868403
 40
0.6874769504868403
 40
0.6874769504868403
 40
0.7499769504868403
 40
0.7499769504868403
 40
0.7705219983450338
 40
0.7705219983450338
 40
0.7705219983450338
 40
0.7705219983450338
 10
160.6536093990775
 20
418.2117484661986
 30
0.0
 10
160.3647343285582
 20
418.2117484661986
 30
0.0
 10
160.0624516899322
 20
418.2117484661986
 30
0.0
 10
158.7842638665418
 20
418.2117484661987
 30
0.0
 10
157.6948811530114
 20
418.2117484661987
 30
0.0
 10
155.2747736703579
 20
418.2117484661987
 30
0.0
 10
153.943890788457
 20
418.2117484661986
 30
0.0
 10
151.0893603985195
 20
418.2117484661987
 30
0.0
 10
149.5659393247331
 20
418.2117484661987
 30
0.0
 10
146.4108456366341
 20
418.2117484661987
 30
0.0
 10
144.7798019961856
 20
418.2117484661987
 30
0.0
 10
141.5169110138534
 20
418.2117484661987
 30
0.0
 10
139.8858673734049
 20
418.2117484661987
 30
0.0
 10
136.7307736853059
 20
418.2117484661987
 30
0.0
 10
135.2073526115195
 20
418.2117484661987
 30
0.0
 10
132.352822221582
 20
418.2117484661986
 30
0.0
 10
131.0219393396812
 20
418.2117484661986
 30
0.0
 10
128.6018318570276
 20
418.2117484661986
 30
0.0
 10
127.5124491434973
 20
418.2117484661986
 30
0.0
 10
126.2339064550393
 20
418.2117484661986
 30
0.0
 10
125.9312996744367
 20
418.2117484661986
 30
0.0
 10
125.6421303018524
 20
418.2117484661986
 30
0.0
  0
SPLINE
  5
14B
330
1F
100
AcDbEntity
  8
0
  6
Continuous
 62
     7
370
    25
100
AcDbSpline
210
0.0
220
0.0
230
1.0
 70
     8
 71
     3
 72
     8
 73
     4
 74
     0
 42
0.000000001
 43
0.00000001
 40
0.0
 40
0.0
 40
0.0
 40
0.0
 40
1.0
 40
1.0
 40
1.0
 40
1.0
 10
166.3438453677028
 20
420.5786023844354
 30
0.0
 10
166.3389742158471
 20
420.3925016853208
 30
0.0
 10
166.3176086393594
 20
420.2066233790927
 30
0.0
 10
166.2795723619866
 20
420.0209698426214
 30
0.0
  0
SPLINE
  5
14C
330
1F
100
AcDbEntity
  8
0
  6
Continuous
 62
     7
370
    25
100
AcDbSpline
210
0.0
220
0.0
230
1.0
 70
     8
 71
     3
 72
    16
 73
    12
 74
     0
 42
0.000000001
 43
0.00000001
 40
0.0
 40
0.0
 40
0.0
 40
0.0
 40
0.2499999999999991
 40
0.2499999999999991
 40
0.3749999999999989
 40
0.3749999999999989
 40
0.4999999999999987
 40
0.4999999999999987
 40
0.7499999999999993
 40
0.7499999999999993
 40
1.0
 40
1.0
 40
1.0
 40
1.0
 10
166.2795723619866
 20
420.0209698426214
 30
0.0
 10
166.2148285471783
 20
419.7049578926087
 30
0.0
 10
166.1010158346099
 20
419.4328107989274
 30
0.0
 10
165.8539422368177
 20
419.0868075023264
 30
0.0
 10
165.7588570866083
 20
418.9818585256618
 30
0.0
 10
165.542518802722
 20
418.7923135515015
 30
0.0
 10
165.4212145868682
 20
418.7078539631783
 30
0.0
 10
165.0225630727372
 20
418.4869377314667
 30
0.0
 10
164.709342607662
 20
418.3815084850438
 30
0.0
 10
163.9860621922462
 20
418.2438828509055
 30
0.0
 10
163.57599154801
 20
418.2117484661987
 30
0.0
 10
163.1128474549207
 20
418.2117484661987
 30
0.0
  0
SPLINE
  5
14D
330
1F
100
AcDbEntity
  8
0
  6
Continuous
 62
     7
370
    25
100
AcDbSpline
210
0.0
220
0.0
230
1.0
 70
    24
 71
     3
 72
     8
 73
     4
 74
     0
 42
0.000000001
 43
0.00000001
 40
0.0
 40
0.0
 40
0.0
 40
0.0
 40
1.0
 40
1.0
 40
1.0
 40
1.0
 10
163.1128474549207
 20
418.2117484661986
 30
0.0
 10
162.4011507771214
 20
418.2117484661986
 30
0.0
 10
161.5820284857988
 20
418.2117484661987
 30
0.0
 10
160.6536297671356
 20
418.2117484661987
 30
0.0
  0
SPLINE
  5
14E
330
1F
100
AcDbEntity
  8
0
  6
Continuous
 62
     7
370
    25
100
AcDbSpline
210
0.0
220
0.0
230
1.0
 70
     8
 71
     3
 72
    14
 73
    10
 74
     0
 42
0.000000001
 43
0.00000001
 40
0.0
 40
0.0
 40
0.0
 40
0.0
 40
0.2500000000000005
 40
0.2500000000000005
 40
0.3750000000000002
 40
0.3750000000000002
 40
0.5
 40
0.5
 40
1.0
 40
1.0
 40
1.0
 40
1.0
 10
123.1838655551184
 20
418.2117484661987
 30
0.0
 10
122.7205962368456
 20
418.2117484661987
 30
0.0
 10
122.3088639212761
 20
418.2438841705313
 30
0.0
 10
121.763103263242
 20
418.3482422187036
 30
0.0
 10
121.5932072522964
 20
418.3923923411069
 30
0.0
 10
121.2772238851757
 20
418.5008945579095
 30
0.0
 10
121.1314395307184
 20
418.5652582948751
 30
0.0
 10
120.4701527266121
 20
418.9356717405379
 30
0.0
 10
120.1466500673062
 20
419.3888395882564
 30
0.0
 10
120.0171406480526
 20
420.0209698426214
 30
0.0
  0
SPLINE
  5
14F
330
1F
100
AcDbEntity
  8
0
  6
Continuous
 62
     7
370
    25
100
AcDbSpline
210
0.0
220
0.0
230
1.0
 70
     8
 71
     3
 72
     8
 73
     4
 74
     0
 42
0.000000001
 43
0.00000001
 40
0.0
 40
0.0
 40
0.0
 40
0.0
 40
1.0
 40
1.0
 40
1.0
 40
1.0
 10
120.0171406480526
 20
420.0209698426214
 30
0.0
 10
119.9791043706795
 20
420.2066233790944
 30
0.0
 10
119.9577387941911
 20
420.3925016852615
 30
0.0
 10
119.9528676423353
 20
420.5786023843779
 30
0.0
  0
SPLINE
  5
150
330
1F
100
AcDbEntity
  8
0
  6
Continuous
 62
     7
370
    25
100
AcDbSpline
210
0.0
220
0.0
230
1.0
 70
    24
 71
     3
 72
     8
 73
     4
 74
     0
 42
0.000000001
 43
0.00000001
 40
0.0
 40
0.0
 40
0.0
 40
0.0
 40
1.0
 40
1.0
 40
1.0
 40
1.0
 10
125.6430832429035
 20
418.2117484661987
 30
0.0
 10
124.7145099325002
 20
418.2117484661987
 30
0.0
 10
123.895429203276
 20
418.2117484661986
 30
0.0
 10
123.1838655551184
 20
418.2117484661986
 30
0.0
  0
SPLINE
  5
151
330
1F
100
AcDbEntity
  8
0
  6
Continuous
 62
     7
370
    25
100
AcDbSpline
210
0.0
220
0.0
230
1.0
 70
     8
 71
     3
 72
    14
 73
    10
 74
     0
 42
0.000000001
 43
0.00000001
 40
0.0
 40
0.0
 40
0.0
 40
0.0
 40
0.25
 40
0.25
 40
0.5
 40
0.5
 40
0.75
 40
0.75
 40
1.0
 40
1.0
 40
1.0
 40
1.0
 10
166.3827717837339
 20
413.687321240658
 30
0.0
 10
166.3812988885969
 20
413.8598355491515
 30
0.0
 10
166.3475840740625
 20
414.0320210185077
 30
0.0
 10
166.2201858063298
 20
414.3526746280342
 30
0.0
 10
166.1265417554283
 20
414.501043595045
 30
0.0
 10
165.8919049424024
 20
414.7539957878815
 30
0.0
 10
165.7509847497839
 20
414.8585007795397
 30
0.0
 10
165.4408132933683
 20
415.0095728971688
 30
0.0
 10
165.271657960764
 20
415.0560932988903
 30
0.0
 10
165.0997599462216
 20
415.0704829600337
 30
0.0
  0
LINE
  5
152
330
1F
100
AcDbEntity
  8
0
  6
Continuous
 62
     7
370
    25
100
AcDbLine
 10
165.0986051339
 20
415.0705570934
 30
0.0
 11
165.0989068824
 21
415.0705570934
 31
0.0
  0
SPLINE
  5
153
330
1F
100
AcDbEntity
  8
0
  6
Continuous
 62
     7
370
    25
100
AcDbSpline
210
0.0
220
0.0
230
1.0
 70
     8
 71
     3
 72
    14
 73
    10
 74
     0
 42
0.000000001
 43
0.00000001
 40
0.0
 40
0.0
 40
0.0
 40
0.0
 40
0.25
 40
0.25
 40
0.5
 40
0.5
 40
0.75
 40
0.75
 40
1.0
 40
1.0
 40
1.0
 40
1.0
 10
119.913060472359
 20
413.6873296431162
 30
0.0
 10
119.9145409801481
 20
413.8599092183625
 30
0.0
 10
119.9482890189193
 20
414.0321577885738
 30
0.0
 10
120.0757967384554
 20
414.3529076933509
 30
0.0
 10
120.1695169213527
 20
414.5013096753258
 30
0.0
 10
120.4043288859931
 20
414.7542784811628
 30
0.0
 10
120.5453479323104
 20
414.8587669480048
 30
0.0
 10
120.8557119915648
 20
415.0097482176476
 30
0.0
 10
121.0249608668643
 20
415.0561942543861
 30
0.0
 10
121.1969347936442
 20
415.0704833019833
 30
0.0
  0
SPLINE
  5
154
330
1F
100
AcDbEntity
  8
0
  6
Continuous
 62
     8
370
    18
100
AcDbSpline
210
0.0
220
0.0
230
1.0
 70
     8
 71
     3
 72
    36
 73
    32
 74
     0
 42
0.000000001
 43
0.00000001
 40
0.0
 40
0.0
 40
0.0
 40
0.0
 40
0.1250000000000032
 40
0.1250000000000032
 40
0.2500000000000065
 40
0.2500000000000065
 40
0.3125000000000078
 40
0.3125000000000078
 40
0.3750000000000092
 40
0.3750000000000092
 40
0.4375000000000103
 40
0.4375000000000103
 40
0.5000000000000114
 40
0.5000000000000114
 40
0.5312500000000122
 40
0.5312500000000122
 40
0.5625000000000131
 40
0.5625000000000131
 40
0.6250000000000114
 40
0.6250000000000114
 40
0.6875000000000099
 40
0.6875000000000099
 40
0.7500000000000082
 40
0.7500000000000082
 40
0.8750000000000052
 40
0.8750000000000052
 40
0.9375000000000026
 40
0.9375000000000026
 40
0.9687500000000013
 40
0.9687500000000013
 40
1.0
 40
1.0
 40
1.0
 40
1.0
 10
151.5589752467658
 20
415.1405294325148
 30
0.0
 10
152.3868865852298
 20
415.141744571428
 30
0.0
 10
153.2174831442926
 20
415.1431310560689
 30
0.0
 10
154.8739580530626
 20
415.1414275362869
 30
0.0
 10
155.7014886076334
 20
415.1382663048971
 30
0.0
 10
156.9345504306356
 20
415.1305374479714
 30
0.0
 10
157.3441645156876
 20
415.1274573411976
 30
0.0
 10
158.1591746398447
 20
415.1197991988176
 30
0.0
 10
158.5578883763475
 20
415.1152471205841
 30
0.0
 10
159.3279362690405
 20
415.1043002646314
 30
0.0
 10
159.7015487245512
 20
415.0979889460264
 30
0.0
 10
160.4139440262555
 20
415.0851725528793
 30
0.0
 10
160.7441979278177
 20
415.0788330738378
 30
0.0
 10
161.1983877074349
 20
415.0703670795155
 30
0.0
 10
161.342891554312
 20
415.0677166678818
 30
0.0
 10
161.6177895198785
 20
415.0628577413815
 30
0.0
 10
161.7488792126951
 20
415.060637247331
 30
0.0
 10
162.1145772807584
 20
415.0548268576874
 30
0.0
 10
162.3222372204672
 20
415.0520628562796
 30
0.0
 10
162.6721699530825
 20
415.0489468606173
 30
0.0
 10
162.8143668766975
 20
415.0486615321208
 30
0.0
 10
163.0283980052404
 20
415.0506811305914
 30
0.0
 10
163.1027345738392
 20
415.0528732448988
 30
0.0
 10
163.265866698507
 20
415.060474994749
 30
0.0
 10
163.2962802461944
 20
415.0666878905739
 30
0.0
 10
163.3313745798657
 20
415.0716600045612
 30
0.0
 10
163.3406453554913
 20
415.0726737837775
 30
0.0
 10
163.3532434905558
 20
415.0735405528815
 30
0.0
 10
163.3571757858706
 20
415.0737253275071
 30
0.0
 10
163.3646157399578
 20
415.0739680677382
 30
0.0
 10
163.3681492245977
 20
415.0740265037629
 30
0.0
 10
163.3714744586196
 20
415.0740622433177
 30
0.0
  0
SPLINE
  5
155
330
1F
100
AcDbEntity
  8
0
  6
Continuous
 62
     8
370
    18
100
AcDbSpline
210
0.0
220
0.0
230
1.0
 70
     8
 71
     3
 72
    36
 73
    32
 74
     0
 42
0.000000001
 43
0.00000001
 40
0.0
 40
0.0
 40
0.0
 40
0.0
 40
0.1250000000000116
 40
0.1250000000000116
 40
0.250000000000025
 40
0.250000000000025
 40
0.3125000000000298
 40
0.3125000000000298
 40
0.3437500000000321
 40
0.3437500000000321
 40
0.3750000000000345
 40
0.3750000000000345
 40
0.4375000000000358
 40
0.4375000000000358
 40
0.4687500000000349
 40
0.4687500000000349
 40
0.5000000000000339
 40
0.5000000000000339
 40
0.5625000000000298
 40
0.5625000000000298
 40
0.5937500000000276
 40
0.5937500000000276
 40
0.6250000000000255
 40
0.6250000000000255
 40
0.6875000000000213
 40
0.6875000000000213
 40
0.7500000000000169
 40
0.7500000000000169
 40
0.8750000000000085
 40
0.8750000000000085
 40
1.0
 40
1.0
 40
1.0
 40
1.0
 10
164.6563366857752
 20
413.6171814463717
 30
0.0
 10
164.6413906507525
 20
413.6136843555526
 30
0.0
 10
164.6254779047185
 20
413.6105207517644
 30
0.0
 10
164.5688204608789
 20
413.5807535860179
 30
0.0
 10
164.5241724383747
 20
413.5586551915297
 30
0.0
 10
164.3088866068159
 20
413.5131037077182
 30
0.0
 10
164.2120485777292
 20
413.4957458597842
 30
0.0
 10
164.0125202805008
 20
413.470368958693
 30
0.0
 10
163.9366180811026
 20
413.4620668962222
 30
0.0
 10
163.7680903786686
 20
413.4450702550513
 30
0.0
 10
163.6754358017828
 20
413.4364342586618
 30
0.0
 10
163.372100115892
 20
413.4104646989172
 30
0.0
 10
163.1362724138893
 20
413.3929310305807
 30
0.0
 10
162.7272487928551
 20
413.3669049167023
 30
0.0
 10
162.5817754143675
 20
413.3583034814371
 30
0.0
 10
162.2782327428557
 20
413.3420411209091
 30
0.0
 10
162.1194521470756
 20
413.3343686036906
 30
0.0
 10
161.622562052456
 20
413.3130217982657
 30
0.0
 10
161.2639874850566
 20
413.3010451760196
 30
0.0
 10
160.6865210719621
 20
413.2846546259063
 30
0.0
 10
160.4867780617046
 20
413.2794200771301
 30
0.0
 10
160.0818746579196
 20
413.2695248878077
 30
0.0
 10
159.8758955170796
 20
413.264842813746
 30
0.0
 10
159.248060650496
 20
413.2516303209093
 30
0.0
 10
158.8162185213128
 20
413.2442729706387
 30
0.0
 10
157.9303112056378
 20
413.2347288096735
 30
0.0
 10
157.478869514486
 20
413.2320878565201
 30
0.0
 10
156.1272101206387
 20
413.2276927303641
 30
0.0
 10
155.2197072517529
 20
413.2330188975557
 30
0.0
 10
153.4023407227977
 20
413.2367961050993
 30
0.0
 10
152.4924150380838
 20
413.2311160648421
 30
0.0
 10
151.5823050340036
 20
413.225308768049
 30
0.0
  0
SPLINE
  5
156
330
1F
100
AcDbEntity
  8
0
  6
Continuous
 62
     8
370
    18
100
AcDbSpline
210
0.0
220
0.0
230
1.0
 70
     8
 71
     3
 72
    32
 73
    28
 74
     0
 42
0.000000001
 43
0.00000001
 40
0.0
 40
0.0
 40
0.0
 40
0.0
 40
0.1250000000000044
 40
0.1250000000000044
 40
0.2500000000000087
 40
0.2500000000000087
 40
0.3125000000000088
 40
0.3125000000000088
 40
0.3437500000000089
 40
0.3437500000000089
 40
0.3750000000000089
 40
0.3750000000000089
 40
0.4375000000000053
 40
0.4375000000000053
 40
0.4687500000000036
 40
0.4687500000000036
 40
0.5000000000000019
 40
0.5000000000000019
 40
0.5625000000000018
 40
0.5625000000000018
 40
0.6250000000000016
 40
0.6250000000000016
 40
0.750000000000001
 40
0.750000000000001
 40
0.8750000000000006
 40
0.8750000000000006
 40
1.0
 40
1.0
 40
1.0
 40
1.0
 10
122.9252385514188
 20
415.0740622433177
 30
0.0
 10
122.9386317740149
 20
415.0739182928225
 30
0.0
 10
122.9536175814434
 20
415.0733187230752
 30
0.0
 10
123.000314725313
 20
415.066706482697
 30
0.0
 10
123.0301857367949
 20
415.0605065158753
 30
0.0
 10
123.1942742314012
 20
415.0528590917434
 30
0.0
 10
123.2690467034744
 20
415.0506716083083
 30
0.0
 10
123.4288977251712
 20
415.0491671857025
 30
0.0
 10
123.4902051364122
 20
415.0489680962485
 30
0.0
 10
123.6306519236049
 20
415.0492430314023
 30
0.0
 10
123.7101449054057
 20
415.0497121629433
 30
0.0
 10
123.9731115624012
 20
415.0520446851609
 30
0.0
 10
124.1797067057196
 20
415.0547987353208
 30
0.0
 10
124.5384504818951
 20
415.0604831532684
 30
0.0
 10
124.666237220703
 20
415.0626401091326
 30
0.0
 10
124.9391356112576
 20
415.0674511159099
 30
0.0
 10
125.0851700672739
 20
415.0701241352211
 30
0.0
 10
125.5437611788372
 20
415.0786656190984
 30
0.0
 10
125.8738070664715
 20
415.0850007371056
 30
0.0
 10
126.5766852192845
 20
415.0976666766124
 30
0.0
 10
126.9532224960305
 20
415.1040521906959
 30
0.0
 10
128.1092169923719
 20
415.1205648934787
 30
0.0
 10
128.9179596560821
 20
415.1277052047984
 30
0.0
 10
130.5746675850343
 20
415.1381838946049
 30
0.0
 10
131.4066478537378
 20
415.1413902099638
 30
0.0
 10
133.0715297758083
 20
415.1431436044373
 30
0.0
 10
133.90408183068
 20
415.1417530031391
 30
0.0
 10
134.7377377632725
 20
415.1405294325148
 30
0.0
  0
SPLINE
  5
157
330
1F
100
AcDbEntity
  8
0
  6
Continuous
 62
     8
370
    18
100
AcDbSpline
210
0.0
220
0.0
230
1.0
 70
     8
 71
     3
 72
    36
 73
    32
 74
     0
 42
0.000000001
 43
0.00000001
 40
0.0
 40
0.0
 40
0.0
 40
0.0
 40
0.1249999999999969
 40
0.1249999999999969
 40
0.1874999999999954
 40
0.1874999999999954
 40
0.249999999999994
 40
0.249999999999994
 40
0.3749999999999909
 40
0.3749999999999909
 40
0.4062499999999905
 40
0.4062499999999905
 40
0.43749999999999
 40
0.43749999999999
 40
0.4999999999999911
 40
0.4999999999999911
 40
0.5624999999999922
 40
0.5624999999999922
 40
0.6249999999999933
 40
0.6249999999999933
 40
0.6562499999999939
 40
0.6562499999999939
 40
0.6874999999999944
 40
0.6874999999999944
 40
0.7499999999999956
 40
0.7499999999999956
 40
0.8124999999999967
 40
0.8124999999999967
 40
0.8749999999999978
 40
0.8749999999999978
 40
1.0
 40
1.0
 40
1.0
 40
1.0
 10
134.7144079760347
 20
413.2253087680489
 30
0.0
 10
133.8004706883324
 20
413.2311404862539
 30
0.0
 10
132.8866486002264
 20
413.2368359449343
 30
0.0
 10
131.5171094506785
 20
413.2339051028192
 30
0.0
 10
131.0608135088849
 20
413.2312654363505
 30
0.0
 10
130.1493744854735
 20
413.2289008894897
 30
0.0
 10
129.6928490609133
 20
413.2291929467444
 30
0.0
 10
128.336993799635
 20
413.2337554761033
 30
0.0
 10
127.4565730996414
 20
413.2429769918633
 30
0.0
 10
126.4045213106375
 20
413.2652037484778
 30
0.0
 10
126.1966881385151
 20
413.2699489321185
 30
0.0
 10
125.7936186754678
 20
413.2798400802196
 30
0.0
 10
125.5974348322559
 20
413.2850002063119
 30
0.0
 10
125.0253629531151
 20
413.3012886384531
 30
0.0
 10
124.6658557665985
 20
413.3132959440706
 30
0.0
 10
123.9952549821371
 20
413.3422730256859
 30
0.0
 10
123.6932508772927
 20
413.3589827750704
 30
0.0
 10
123.1584466490506
 20
413.3931047769781
 30
0.0
 10
122.9240974077091
 20
413.4105022180179
 30
0.0
 10
122.6204337022369
 20
413.4365097986762
 30
0.0
 10
122.5269014722461
 20
413.4452357315396
 30
0.0
 10
122.3589375609338
 20
413.462191869884
 30
0.0
 10
122.2841980734275
 20
413.4703737223638
 30
0.0
 10
122.0859489479883
 20
413.4955716558548
 30
0.0
 10
121.9887004554593
 20
413.5129336260239
 30
0.0
 10
121.8443489293203
 20
413.5434467819605
 30
0.0
 10
121.7971359440445
 20
413.5570642916271
 30
0.0
 10
121.7319330875531
 20
413.5794035564772
 30
0.0
 10
121.7136250006877
 20
413.5882458887265
 30
0.0
 10
121.6712207736505
 20
413.6105357149433
 30
0.0
 10
121.6553108306617
 20
413.6136870530335
 30
0.0
 10
121.6403763242632
 20
413.6171814463717
 30
0.0
  0
SPLINE
  5
158
330
1F
100
AcDbEntity
  8
0
  6
Continuous
 62
     8
370
    18
100
AcDbSpline
210
0.0
220
0.0
230
1.0
 70
     8
 71
     3
 72
    12
 73
     8
 74
     0
 42
0.000000001
 43
0.00000001
 40
0.0
 40
0.0
 40
0.0
 40
0.0
 40
0.2499999999999992
 40
0.2499999999999992
 40
0.4999999999999984
 40
0.4999999999999984
 40
1.0
 40
1.0
 40
1.0
 40
1.0
 10
121.640411585121
 20
413.6163287185839
 30
0.0
 10
121.6216408389131
 20
413.6207215029689
 30
0.0
 10
121.6071177073513
 20
413.6236662165679
 30
0.0
 10
121.5728054960025
 20
413.6298520760224
 30
0.0
 10
121.5537224206801
 20
413.6325564007587
 30
0.0
 10
121.4977484049803
 20
413.6387006324981
 30
0.0
 10
121.463736777485
 20
413.641525365768
 30
0.0
 10
121.4309363152644
 20
413.642841112397
 30
0.0
  0
SPLINE
  5
159
330
1F
100
AcDbEntity
  8
0
  6
Continuous
 62
     8
370
    18
100
AcDbSpline
210
0.0
220
0.0
230
1.0
 70
     8
 71
     3
 72
    10
 73
     6
 74
     0
 42
0.000000001
 43
0.00000001
 40
0.0
 40
0.0
 40
0.0
 40
0.0
 40
0.5
 40
0.5
 40
1.0
 40
1.0
 40
1.0
 40
1.0
 10
143.1481653482071
 20
413.1789538337785
 30
0.0
 10
141.7424709319609
 20
413.1789574773924
 30
0.0
 10
140.3368102395174
 20
413.1874626370582
 30
0.0
 10
137.5255117673798
 20
413.2049591184743
 30
0.0
 10
136.1199189568098
 20
413.2162391080732
 30
0.0
 10
134.714417008893
 20
413.2251988385854
 30
0.0
  0
SPLINE
  5
15A
330
1F
100
AcDbEntity
  8
0
  6
Continuous
 62
     8
370
    18
100
AcDbSpline
210
0.0
220
0.0
230
1.0
 70
     8
 71
     3
 72
    16
 73
    12
 74
     0
 42
0.000000001
 43
0.00000001
 40
0.0
 40
0.0
 40
0.0
 40
0.0
 40
0.1645837771366928
 40
0.3289969064707156
 40
0.4253617849744329
 40
0.5216518362455204
 40
0.6179944053717863
 40
0.7142967623205531
 40
0.8105905567502618
 40
0.906963238700611
 40
1.0
 40
1.0
 40
1.0
 40
1.0
 10
121.4309347945284
 20
413.6428395865269
 30
0.0
 10
121.4892126079159
 20
412.3735896011569
 30
0.0
 10
121.6057078096541
 20
409.8364056454266
 30
0.0
 10
122.2016926182929
 20
406.5945802415717
 30
0.0
 10
123.0372309371054
 20
403.9651032709825
 30
0.0
 10
123.9599049383585
 20
401.9283779789834
 30
0.0
 10
125.1512871836523
 20
400.0358750475273
 30
0.0
 10
126.6039199745555
 20
398.3331595878178
 30
0.0
 10
128.3011575609015
 20
396.8769929162543
 30
0.0
 10
130.155829876559
 20
395.6686699766597
 30
0.0
 10
131.4920254584722
 20
395.0727670198779
 30
0.0
 10
132.1483565646243
 20
394.7800631282635
 30
0.0
  0
SPLINE
  5
15B
330
1F
100
AcDbEntity
  8
0
  6
Continuous
 62
     8
370
    18
100
AcDbSpline
210
0.0
220
0.0
230
1.0
 70
     8
 71
     3
 72
    10
 73
     6
 74
     0
 42
0.000000001
 43
0.00000001
 40
0.0
 40
0.0
 40
0.0
 40
0.0
 40
0.5
 40
0.5
 40
1.0
 40
1.0
 40
1.0
 40
1.0
 10
151.5822960011452
 20
413.2251988385852
 30
0.0
 10
150.1767909732197
 20
413.2162390884371
 30
0.0
 10
148.7712088377515
 20
413.2049591716813
 30
0.0
 10
145.9599100789947
 20
413.187462676607
 30
0.0
 10
144.5542423905342
 20
413.1789574773945
 30
0.0
 10
143.1485476618312
 20
413.1789538337786
 30
0.0
  0
SPLINE
  5
15C
330
1F
100
AcDbEntity
  8
0
  6
Continuous
 62
     8
370
    18
100
AcDbSpline
210
0.0
220
0.0
230
1.0
 70
     8
 71
     3
 72
    12
 73
     8
 74
     0
 42
0.000000001
 43
0.00000001
 40
0.0
 40
0.0
 40
0.0
 40
0.0
 40
0.5
 40
0.5
 40
0.75
 40
0.75
 40
1.0
 40
1.0
 40
1.0
 40
1.0
 10
164.865776694774
 20
413.6428411123969
 30
0.0
 10
164.8329762325534
 20
413.6415253657679
 30
0.0
 10
164.7989646050582
 20
413.6387006324983
 30
0.0
 10
164.7429905893584
 20
413.6325564007591
 30
0.0
 10
164.7239075140359
 20
413.6298520760224
 30
0.0
 10
164.6895953026871
 20
413.6236662165678
 30
0.0
 10
164.6750721711253
 20
413.6207215029689
 30
0.0
 10
164.6563014249174
 20
413.6163287185839
 30
0.0
  0
SPLINE
  5
15D
330
1F
100
AcDbEntity
  8
0
  6
Continuous
 62
     8
370
    18
100
AcDbSpline
210
0.0
220
0.0
230
1.0
 70
     8
 71
     3
 72
    16
 73
    12
 74
     0
 42
0.000000001
 43
0.00000001
 40
0.0
 40
0.0
 40
0.0
 40
0.0
 40
0.1645837771366928
 40
0.3289969064707156
 40
0.4253617849744329
 40
0.5216518362455204
 40
0.6179944053717863
 40
0.7142967623205531
 40
0.8105905567502618
 40
0.906963238700611
 40
1.0
 40
1.0
 40
1.0
 40
1.0
 10
164.8657782155108
 20
413.6428395865269
 30
0.0
 10
164.8075004021233
 20
412.3735896011569
 30
0.0
 10
164.6910052003851
 20
409.8364056454266
 30
0.0
 10
164.0950203917463
 20
406.5945802415717
 30
0.0
 10
163.2594820729338
 20
403.9651032709825
 30
0.0
 10
162.3368080716807
 20
401.9283779789834
 30
0.0
 10
161.1454258263869
 20
400.0358750475273
 30
0.0
 10
159.6927930354837
 20
398.3331595878178
 30
0.0
 10
157.9955554491376
 20
396.8769929162543
 30
0.0
 10
156.1408831334802
 20
395.6686699766597
 30
0.0
 10
154.8046875515671
 20
395.0727670198779
 30
0.0
 10
154.148356445415
 20
394.7800631282635
 30
0.0
  0
SPLINE
  5
15E
330
1F
100
AcDbEntity
  8
0
  6
Continuous
 62
     8
370
    18
100
AcDbSpline
210
0.0
220
0.0
230
1.0
 70
     8
 71
     3
 72
    10
 73
     6
 74
     0
 42
0.000000001
 43
0.00000001
 40
0.0
 40
0.0
 40
0.0
 40
0.0
 40
0.5
 40
0.5
 40
1.0
 40
1.0
 40
1.0
 40
1.0
 10
143.1483565050191
 20
415.1299315196038
 30
0.0
 10
144.5501908705285
 20
415.1299323850982
 30
0.0
 10
145.9520220552821
 20
415.1314100023498
 30
0.0
 10
148.7555776032557
 20
415.1359396908321
 30
0.0
 10
150.1574060762822
 20
415.1383816668741
 30
0.0
 10
151.5589752467657
 20
415.140420842247
 30
0.0
  0
LWPOLYLINE
  5
15F
330
1F
100
AcDbEntity
  8
0
  6
Continuous
 62
     8
370
    18
100
AcDbPolyline
 90
        9
 70
   128
 43
0.0
 10
143.1484459518
 20
413.1789515374
 10
143.148446108
 20
413.4957129715
 10
143.1484463087
 20
413.8258183954
 10
143.1484465428
 20
414.1508723257
 10
143.1484467971
 20
414.4527325986
 10
143.1484470576
 20
414.7145832537
 10
143.1484473096
 20
414.9218286035
 10
143.1484475392
 20
415.0628978966
 10
143.1484477335
 20
415.1299307702
  0
SPLINE
  5
160
330
1F
100
AcDbEntity
  8
0
  6
Continuous
 62
     8
370
    18
100
AcDbSpline
210
0.0
220
0.0
230
1.0
 70
     8
 71
     3
 72
    10
 73
     6
 74
     0
 42
0.000000001
 43
0.00000001
 40
0.0
 40
0.0
 40
0.0
 40
0.0
 40
0.5
 40
0.5
 40
1.0
 40
1.0
 40
1.0
 40
1.0
 10
134.7377377632726
 20
415.140420842247
 30
0.0
 10
136.1393186001401
 20
415.1383816498441
 30
0.0
 10
137.5410950308994
 20
415.135939757973
 30
0.0
 10
140.344706303571
 20
415.1314099756449
 30
0.0
 10
141.7465304799662
 20
415.1299323850931
 30
0.0
 10
143.1483565050191
 20
415.1299315196037
 30
0.0
  0
SPLINE
  5
161
330
1F
100
AcDbEntity
  8
0
  6
Continuous
 62
     8
370
    18
100
AcDbSpline
210
0.0
220
0.0
230
1.0
 70
    24
 71
     3
 72
    14
 73
    10
 74
     0
 42
0.000000001
 43
0.00000001
 40
0.1158548080587666
 40
0.1158548080587666
 40
0.1158548080587666
 40
0.1158548080587666
 40
0.2408548080587666
 40
0.3658548080587666
 40
0.6158548080587666
 40
0.7408548080587666
 40
0.8658548080587666
 40
0.9908548080587666
 40
1.0
 40
1.0
 40
1.0
 40
1.0
 10
134.7377377629167
 20
415.5609630084505
 30
0.0
 10
134.7377377629167
 20
415.5606420630263
 30
0.0
 10
134.7377377629169
 20
415.5598553136668
 30
0.0
 10
134.7377377629256
 20
415.5483830635388
 30
0.0
 10
134.7377377629591
 20
415.5080837102487
 30
0.0
 10
134.737737763039
 20
415.4139630520473
 30
0.0
 10
134.7377377631285
 20
415.3089969149232
 30
0.0
 10
134.7377377632152
 20
415.207545530901
 30
0.0
 10
134.7377377632688
 20
415.144853384114
 30
0.0
 10
134.7377377632725
 20
415.1405313943693
 30
0.0
  0
SPLINE
  5
162
330
1F
100
AcDbEntity
  8
0
  6
Continuous
 62
     8
370
    18
100
AcDbSpline
210
0.0
220
0.0
230
1.0
 70
    24
 71
     3
 72
     8
 73
     4
 74
     0
 42
0.000000001
 43
0.00000001
 40
0.0
 40
0.0
 40
0.0
 40
0.0
 40
0.8826893851978974
 40
0.8826893851978974
 40
0.8826893851978974
 40
0.8826893851978974
 10
151.5589752467657
 20
415.1404188805054
 30
0.0
 10
151.5589752471217
 20
415.5564276944573
 30
0.0
 10
151.5589752471217
 20
415.5588282320758
 30
0.0
 10
151.5589752471217
 20
415.5609630084505
 30
0.0
  0
SPLINE
  5
163
330
1F
100
AcDbEntity
  8
0
  6
Continuous
 62
     8
370
    18
100
AcDbSpline
210
0.0
220
0.0
230
1.0
 70
     8
 71
     3
 72
    13
 73
     9
 74
     0
 42
0.000000001
 43
0.00000001
 40
0.0
 40
0.0
 40
0.0
 40
0.0
 40
0.1250000008116108
 40
0.2500000016232217
 40
0.3750000024348325
 40
0.5000000032464433
 40
0.5000000032464433
 40
0.5000031314701916
 40
0.5000031314701916
 40
0.5000031314701916
 40
0.5000031314701916
 10
151.5589752471217
 20
415.5609630084505
 30
0.0
 10
150.8581730339592
 20
415.5739602351036
 30
0.0
 10
149.4564995387704
 20
415.596206254383
 30
0.0
 10
147.3538535817399
 20
415.6193945536666
 30
0.0
 10
145.2511246687664
 20
415.6330613160273
 30
0.0
 10
143.8492792256475
 20
415.6360742591846
 30
0.0
 10
143.1483389638744
 20
415.6360751711302
 30
0.0
 10
143.1483214227298
 20
415.6360751711521
 30
0.0
 10
143.1483038815851
 20
415.636075171173
 30
0.0
  0
SPLINE
  5
164
330
1F
100
AcDbEntity
  8
0
  6
Continuous
 62
     8
370
    18
100
AcDbSpline
210
0.0
220
0.0
230
1.0
 70
     8
 71
     3
 72
    16
 73
    12
 74
     0
 42
0.000000001
 43
0.00000001
 40
0.0
 40
0.0
 40
0.0
 40
0.0
 40
0.0060981017835584
 40
0.0285364955562963
 40
0.0509748893282578
 40
0.0958516768723777
 40
0.1968244488464421
 40
0.3735267998010404
 40
0.6827559139715865
 40
0.9974045443558867
 40
1.0
 40
1.0
 40
1.0
 40
1.0
 10
143.1484615886109
 20
415.6360751712328
 30
0.0
 10
143.1484223891995
 20
415.6361605959989
 30
0.0
 10
143.1482389528008
 20
415.636560347191
 30
0.0
 10
143.148400817001
 20
415.637323115457
 30
0.0
 10
143.1483313220725
 20
415.6385882458622
 30
0.0
 10
143.1483767264097
 20
415.6409816680502
 30
0.0
 10
143.1483449313258
 20
415.6455660480738
 30
0.0
 10
143.1483527540694
 20
415.6539106745917
 30
0.0
 10
143.1484321677418
 20
415.6652918850997
 30
0.0
 10
143.148187248559
 20
415.6741983738818
 30
0.0
 10
143.1482101312302
 20
415.6787085388834
 30
0.0
 10
143.1482103184392
 20
415.6787454377059
 30
0.0
  0
SPLINE
  5
165
330
1F
100
AcDbEntity
  8
0
  6
Continuous
 62
     8
370
    18
100
AcDbSpline
210
0.0
220
0.0
230
1.0
 70
     8
 71
     3
 72
    12
 73
     8
 74
     0
 42
0.000000001
 43
0.00000001
 40
0.0
 40
0.0
 40
0.0
 40
0.0
 40
0.5
 40
0.5
 40
0.75
 40
0.75
 40
1.0
 40
1.0
 40
1.0
 40
1.0
 10
122.7166487277062
 20
415.0718982061079
 30
0.0
 10
122.7494632388053
 20
415.0719400281357
 30
0.0
 10
122.7834772966934
 20
415.0720836276899
 30
0.0
 10
122.8394495935843
 20
415.0727153426569
 30
0.0
 10
122.8584833316309
 20
415.0728242027311
 30
0.0
 10
122.8926342535195
 20
415.0729168252594
 30
0.0
 10
122.9071751316801
 20
415.0734663462923
 30
0.0
 10
122.9257174503235
 20
415.0732750444324
 30
0.0
  0
LINE
  5
166
330
1F
100
AcDbEntity
  8
0
  6
Continuous
 62
     8
370
    18
100
AcDbLine
 10
122.0338134247
 20
415.0712872503
 30
0.0
 11
122.7166460979
 21
415.0718981979
 31
0.0
  0
SPLINE
  5
167
330
1F
100
AcDbEntity
  8
0
  6
Continuous
 62
     8
370
    18
100
AcDbSpline
210
0.0
220
0.0
230
1.0
 70
     8
 71
     3
 72
    11
 73
     7
 74
     0
 42
0.000000001
 43
0.00000001
 40
0.0
 40
0.0
 40
0.0
 40
0.0
 40
0.0176053512631304
 40
0.0176053512631304
 40
0.0176053512631304
 40
0.0221786404277094
 40
0.0221786404277094
 40
0.0221786404277094
 40
0.0221786404277094
 10
121.7297952479607
 20
415.0719336426673
 30
0.0
 10
121.8125727344706
 20
415.071954478222
 30
0.0
 10
121.8860982775264
 20
415.0712129778047
 30
0.0
 10
121.9683537261681
 20
415.0711903248887
 30
0.0
 10
121.9897209785451
 20
415.0711844404083
 30
0.0
 10
122.011468828066
 20
415.0712098518546
 30
0.0
 10
122.033482080912
 20
415.0712570142061
 30
0.0
  0
SPLINE
  5
168
330
1F
100
AcDbEntity
  8
0
  6
Continuous
 62
     8
370
    18
100
AcDbSpline
210
0.0
220
0.0
230
1.0
 70
     8
 71
     3
 72
    10
 73
     6
 74
     0
 42
0.000000001
 43
0.00000001
 40
0.0
 40
0.0
 40
0.0
 40
0.0
 40
0.5
 40
0.5
 40
1.0
 40
1.0
 40
1.0
 40
1.0
 10
121.1981058103702
 20
415.0705601901386
 30
0.0
 10
121.2946879404738
 20
415.0714535986362
 30
0.0
 10
121.3794501409138
 20
415.0713626188872
 30
0.0
 10
121.5549283199171
 20
415.0716747425664
 30
0.0
 10
121.643436512456
 20
415.0718930519021
 30
0.0
 10
121.7297284213132
 20
415.0719277361022
 30
0.0
  0
SPLINE
  5
169
330
1F
100
AcDbEntity
  8
0
  6
Continuous
 62
     8
370
    18
100
AcDbSpline
210
0.0
220
0.0
230
1.0
 70
     8
 71
     3
 72
    11
 73
     7
 74
     0
 42
0.000000001
 43
0.00000001
 40
0.0
 40
0.0
 40
0.0
 40
0.0
 40
0.028631821672147
 40
0.028631821672147
 40
0.028631821672147
 40
0.0366385323362245
 40
0.0366385323362245
 40
0.0366385323362245
 40
0.0366385323362245
 10
164.5669845887258
 20
415.0719277361022
 30
0.0
 10
164.701853238117
 20
415.07187352695
 30
0.0
 10
164.840103461051
 20
415.0715383858941
 30
0.0
 10
164.9779042371446
 20
415.0712370167303
 30
0.0
 10
165.0164393584886
 20
415.0711527407369
 30
0.0
 10
165.0563945653413
 20
415.0709506674045
 30
0.0
 10
165.0986071996688
 20
415.0705601901386
 30
0.0
  0
SPLINE
  5
16A
330
1F
100
AcDbEntity
  8
0
  6
Continuous
 62
     8
370
    18
100
AcDbSpline
210
0.0
220
0.0
230
1.0
 70
     8
 71
     3
 72
    10
 73
     6
 74
     0
 42
0.000000001
 43
0.00000001
 40
0.0
 40
0.0
 40
0.0
 40
0.0
 40
0.5
 40
0.5
 40
1.0
 40
1.0
 40
1.0
 40
1.0
 10
164.2632309291268
 20
415.0712570142062
 30
0.0
 10
164.3166087156105
 20
415.071142654827
 30
0.0
 10
164.3678683466316
 20
415.0712021547673
 30
0.0
 10
164.4671632282311
 20
415.0715868685644
 30
0.0
 10
164.5147775861028
 20
415.0719467666402
 30
0.0
 10
164.5669177620782
 20
415.0719336426673
 30
0.0
  0
LWPOLYLINE
  5
16B
330
1F
100
AcDbEntity
  8
0
  6
Continuous
 62
     8
370
    18
100
AcDbPolyline
 90
        5
 70
   128
 43
0.0
 10
163.5800669122
 20
415.0718981979
 10
163.7512086111
 20
415.0717119334
 10
163.9220392483
 20
415.0715480206
 10
164.0925942141
 20
415.0714064596
 10
164.2628995853
 20
415.0712872503
  0
SPLINE
  5
16C
330
1F
100
AcDbEntity
  8
0
  6
Continuous
 62
     8
370
    18
100
AcDbSpline
210
0.0
220
0.0
230
1.0
 70
     8
 71
     3
 72
    12
 73
     8
 74
     0
 42
0.000000001
 43
0.00000001
 40
0.0
 40
0.0
 40
0.0
 40
0.0
 40
0.25
 40
0.25
 40
0.5
 40
0.5
 40
1.0
 40
1.0
 40
1.0
 40
1.0
 10
163.3709955597149
 20
415.0732750444323
 30
0.0
 10
163.3895378783583
 20
415.0734663462923
 30
0.0
 10
163.4040787565189
 20
415.0729168252593
 30
0.0
 10
163.4382296784075
 20
415.0728242027311
 30
0.0
 10
163.4572634164541
 20
415.0727153426567
 30
0.0
 10
163.5132357133451
 20
415.0720836276901
 30
0.0
 10
163.5472497712332
 20
415.0719400281358
 30
0.0
 10
163.5800642823323
 20
415.071898206108
 30
0.0
  0
SPLINE
  5
16D
330
1F
100
AcDbEntity
  8
0
  6
Continuous
 62
     8
370
    18
100
AcDbSpline
210
0.0
220
0.0
230
1.0
 70
     8
 71
     3
 72
    17
 73
    13
 74
     0
 42
0.000000001
 43
0.00000001
 40
0.0
 40
0.0
 40
0.0
 40
0.0
 40
0.1535293304549223
 40
0.3069274644446264
 40
0.3952618829703782
 40
0.4835492373147945
 40
0.5718395837599611
 40
0.6601228264825857
 40
0.7484006324947644
 40
0.8367216968220019
 40
0.9250132158751433
 40
1.0
 40
1.0
 40
1.0
 40
1.0
 10
120.7487149315905
 20
413.6678735373326
 30
0.0
 10
120.7691776765795
 20
412.25412968375
 30
0.0
 10
120.8100856803886
 20
409.4278500727561
 30
0.0
 10
121.2256078962616
 20
405.8004111898705
 30
0.0
 10
121.9429227815528
 20
402.8422325950525
 30
0.0
 10
122.7939126497311
 20
400.5490813299231
 30
0.0
 10
123.9524137183006
 20
398.3932125125201
 30
0.0
 10
125.4221706753098
 20
396.435482547458
 30
0.0
 10
127.1708537846721
 20
394.7216628707159
 30
0.0
 10
129.145982204058
 20
393.280462557522
 30
0.0
 10
131.1719241300782
 20
392.139892774027
 30
0.0
 10
132.5734853490855
 20
391.5924134256677
 30
0.0
 10
133.2171628403496
 20
391.3409794328518
 30
0.0
  0
ARC
  5
16E
330
1F
100
AcDbEntity
  8
0
  6
Continuous
 62
     8
370
    18
100
AcDbCircle
 10
119.1459695847
 20
359.8001889692
 30
0.0
 40
53.8911132888071
100
AcDbArc
 50
87.5699496114
 51
88.2957451086
  0
ARC
  5
16F
330
1F
100
AcDbEntity
  8
0
  6
Continuous
 62
     8
370
    18
100
AcDbCircle
 10
167.0992069824
 20
361.228017425
 30
0.0
 40
52.46238448911568
100
AcDbArc
 50
91.6943718163
 51
92.4399334636
  0
SPLINE
  5
170
330
1F
100
AcDbEntity
  8
0
  6
Continuous
 62
     8
370
    18
100
AcDbSpline
210
0.0
220
0.0
230
1.0
 70
     8
 71
     3
 72
    17
 73
    13
 74
     0
 42
0.000000001
 43
0.00000001
 40
0.0
 40
0.0
 40
0.0
 40
0.0
 40
0.1536401383411781
 40
0.3067277286160386
 40
0.3949369963124334
 40
0.4830781964696392
 40
0.5712782603349686
 40
0.6594293862301427
 40
0.7475605024890682
 40
0.8357948698835288
 40
0.9239979703524448
 40
1.0
 40
1.0
 40
1.0
 40
1.0
 10
165.5483184534144
 20
413.6678735373326
 30
0.0
 10
165.5290088423078
 20
412.2516466840272
 30
0.0
 10
165.4904590647618
 20
409.424286265002
 30
0.0
 10
165.0711313579575
 20
405.7963031086584
 30
0.0
 10
164.3504421093613
 20
402.8415368715544
 30
0.0
 10
163.5004686191568
 20
400.5487302019771
 30
0.0
 10
162.3371855298477
 20
398.3967518137808
 30
0.0
 10
160.8728677467101
 20
396.4363028628638
 30
0.0
 10
159.1232273438601
 20
394.7245029161994
 30
0.0
 10
157.1504074034585
 20
393.2812574743806
 30
0.0
 10
155.1157679605281
 20
392.1354674037801
 30
0.0
 10
153.7051941113176
 20
391.5834286457896
 30
0.0
 10
153.0523127096724
 20
391.3279185650654
 30
0.0
  0
SPLINE
  5
171
330
1F
100
AcDbEntity
  8
0
  6
Continuous
 62
     8
370
    18
100
AcDbSpline
210
0.0
220
0.0
230
1.0
 70
     8
 71
     3
 72
    11
 73
     7
 74
     0
 42
0.000000001
 43
0.00000001
 40
0.0
 40
0.0
 40
0.0
 40
0.0
 40
0.3906185384028147
 40
0.6009285726126764
 40
0.8157110710329427
 40
1.0
 40
1.0
 40
1.0
 40
1.0
 10
121.5412872063946
 20
449.5532597062893
 30
0.0
 10
121.5496576794669
 20
449.7141838933892
 30
0.0
 10
121.5625348369514
 20
449.961750080207
 30
0.0
 10
121.7062291861167
 20
450.2651374630334
 30
0.0
 10
121.8498101397853
 20
450.4701696280337
 30
0.0
 10
121.9751906894099
 20
450.5743825094552
 30
0.0
 10
122.0330907183718
 20
450.6225074289151
 30
0.0
  0
SPLINE
  5
172
330
1F
100
AcDbEntity
  8
0
  6
Continuous
 62
     8
370
    18
100
AcDbSpline
210
0.0
220
0.0
230
1.0
 70
     8
 71
     3
 72
    13
 73
     9
 74
     0
 42
0.000000001
 43
0.00000001
 40
0.0
 40
0.0
 40
0.0
 40
0.0
 40
0.1741858022061503
 40
0.3486661594985656
 40
0.5251458502777477
 40
0.7015633456302179
 40
0.8779979003476206
 40
1.0
 40
1.0
 40
1.0
 40
1.0
 10
134.5291579294037
 20
451.0827446935482
 30
0.0
 10
133.7230297879838
 20
451.0813062596006
 30
0.0
 10
132.1094103105483
 20
451.0784269592564
 30
0.0
 10
129.683826759393
 20
451.0709963849555
 30
0.0
 10
127.321731358231
 20
451.0544309457382
 30
0.0
 10
125.2591782868619
 20
451.0278153001507
 30
0.0
 10
123.9215499632595
 20
450.9973761009079
 30
0.0
 10
123.5387385532266
 20
450.9769303154634
 30
0.0
 10
123.3822437155079
 20
450.968571996481
 30
0.0
  0
SPLINE
  5
173
330
1F
100
AcDbEntity
  8
0
  6
Continuous
 62
     8
370
    18
100
AcDbSpline
210
0.0
220
0.0
230
1.0
 70
     8
 71
     3
 72
    13
 73
     9
 74
     0
 42
0.000000001
 43
0.00000001
 40
0.0
 40
0.0
 40
0.0
 40
0.0
 40
0.121720603027554
 40
0.2974715488275584
 40
0.4737234527224367
 40
0.649869614583415
 40
0.824888708473026
 40
1.0
 40
1.0
 40
1.0
 40
1.0
 10
162.9204800504279
 20
450.9682590720959
 30
0.0
 10
162.7651453577603
 20
450.9766184330636
 30
0.0
 10
162.3855247309713
 20
450.9970477769248
 30
0.0
 10
161.0562246453596
 20
451.0274609902182
 30
0.0
 10
159.0003410778079
 20
451.054209997617
 30
0.0
 10
156.6364219451922
 20
451.0708985134984
 30
0.0
 10
154.2019343734506
 20
451.0783726828789
 30
0.0
 10
152.5791572834766
 20
451.0812871008467
 30
0.0
 10
151.7675550806355
 20
451.0827446935482
 30
0.0
  0
SPLINE
  5
174
330
1F
100
AcDbEntity
  8
0
  6
Continuous
 62
     8
370
    18
100
AcDbSpline
210
0.0
220
0.0
230
1.0
 70
     8
 71
     3
 72
    11
 73
     7
 74
     0
 42
0.000000001
 43
0.00000001
 40
0.0
 40
0.0
 40
0.0
 40
0.0
 40
0.3906046760142285
 40
0.6009071425217208
 40
0.8156820186758583
 40
1.0
 40
1.0
 40
1.0
 40
1.0
 10
164.7554258036446
 20
449.5532597062893
 30
0.0
 10
164.7470552923493
 20
449.7141838088979
 30
0.0
 10
164.7341780782942
 20
449.961749822823
 30
0.0
 10
164.5904840579188
 20
450.2651378104352
 30
0.0
 10
164.4468934791786
 20
450.4701805937199
 30
0.0
 10
164.3215018095109
 20
450.5744029388986
 30
0.0
 10
164.2635906266999
 20
450.6225372312375
 30
0.0
  0
LWPOLYLINE
  5
175
330
1F
100
AcDbEntity
  8
0
  6
Continuous
 62
     8
370
    18
100
AcDbPolyline
 90
        9
 70
   128
 43
0.0
 10
143.1483499413
 20
449.7459317205
 10
143.1483511865
 20
449.9934996126
 10
143.1483523866
 20
450.233795738
 10
143.148353498
 20
450.4581178186
 10
143.1483544806
 20
450.6583149193
 10
143.1483552986
 20
450.8271301744
 10
143.1483559224
 20
450.9584690092
 10
143.1483563295
 20
451.0475481508
 10
143.148356505
 20
451.0911489485
  0
SPLINE
  5
176
330
1F
100
AcDbEntity
  8
0
  6
Continuous
 62
     8
370
    18
100
AcDbSpline
210
0.0
220
0.0
230
1.0
 70
     8
 71
     3
 72
     8
 73
     4
 74
     0
 42
0.000000001
 43
0.00000001
 40
0.0
 40
0.0
 40
0.0
 40
0.0
 40
1.0
 40
1.0
 40
1.0
 40
1.0
 10
143.1483565050192
 20
451.0911486780609
 30
0.0
 10
146.0195115127516
 20
451.0911626331059
 30
0.0
 10
148.8906534167449
 20
451.0884341893374
 30
0.0
 10
151.7618577564511
 20
451.0827620365455
 30
0.0
  0
SPLINE
  5
177
330
1F
100
AcDbEntity
  8
0
  6
Continuous
 62
     8
370
    18
100
AcDbSpline
210
0.0
220
0.0
230
1.0
 70
     8
 71
     3
 72
     8
 73
     4
 74
     0
 42
0.000000001
 43
0.00000001
 40
0.0
 40
0.0
 40
0.0
 40
0.0
 40
1.0
 40
1.0
 40
1.0
 40
1.0
 10
134.5348552535873
 20
451.0827620365455
 30
0.0
 10
137.406059645992
 20
451.0884341894518
 30
0.0
 10
140.2772015447167
 20
451.0911626331054
 30
0.0
 10
143.1483565050193
 20
451.0911486780609
 30
0.0
  0
SPLINE
  5
178
330
1F
100
AcDbEntity
  8
0
  6
Continuous
 62
     8
370
    18
100
AcDbSpline
210
0.0
220
0.0
230
1.0
 70
     8
 71
     3
 72
    15
 73
    11
 74
     0
 42
0.000000001
 43
0.00000001
 40
0.0
 40
0.0
 40
0.0
 40
0.0
 40
0.2499999999999999
 40
0.2499999999999999
 40
0.4999999999999999
 40
0.4999999999999999
 40
0.7499999999999998
 40
0.7499999999999998
 40
0.8124999999999998
 40
1.0
 40
1.0
 40
1.0
 40
1.0
 10
126.5331411622908
 20
445.8305649214009
 30
0.0
 10
126.5492067574258
 20
445.8626841479029
 30
0.0
 10
126.7821383678052
 20
445.89322980679
 30
0.0
 10
127.5982100503741
 20
445.9487326536367
 30
0.0
 10
128.1813501225637
 20
445.9736898415963
 30
0.0
 10
129.6143151600739
 20
446.01557441089
 30
0.0
 10
130.4641401253946
 20
446.0325017922241
 30
0.0
 10
131.6408971598282
 20
446.0471165549397
 30
0.0
 10
132.6051979529316
 20
446.0574994723216
 30
0.0
 10
133.6506389621763
 20
446.0623416515796
 30
0.0
 10
134.4627428379212
 20
446.0623416515796
 30
0.0
  0
SPLINE
  5
179
330
1F
100
AcDbEntity
  8
0
  6
Continuous
 62
     8
370
    18
100
AcDbSpline
210
0.0
220
0.0
230
1.0
 70
     8
 71
     3
 72
    26
 73
    22
 74
     0
 42
0.000000001
 43
0.00000001
 40
0.0
 40
0.0
 40
0.0
 40
0.0
 40
0.020888040983904
 40
0.0417297757350735
 40
0.0625470702775162
 40
0.0833618676589801
 40
0.1041961188173938
 40
0.125071713323136
 40
0.1875634251708793
 40
0.2500999909328806
 40
0.3125917027798603
 40
0.3751282685426393
 40
0.5000080743070492
 40
0.6248878800714572
 40
0.6873795919197048
 40
0.7499161576812152
 40
0.8124078695295078
 40
0.8749444352909693
 40
0.9166290310503846
 40
0.9582556329718537
 40
1.0
 40
1.0
 40
1.0
 40
1.0
 10
151.8339701721173
 20
446.0623416515796
 30
0.0
 10
151.9198369777163
 20
446.0623176825233
 30
0.0
 10
152.0913802327059
 20
446.0622697975469
 30
0.0
 10
152.3482304963296
 20
446.0618857691277
 30
0.0
 10
152.6042410599793
 20
446.0612729538569
 30
0.0
 10
152.859409247714
 20
446.0604091283181
 30
0.0
 10
153.1137409077182
 20
446.059300106696
 30
0.0
 10
153.5353292420592
 20
446.057045949148
 30
0.0
 10
154.1185368110654
 20
446.0527611479874
 30
0.0
 10
154.8461585157602
 20
446.0451089144829
 30
0.0
 10
155.5457715739132
 20
446.0354063219983
 30
0.0
 10
156.4306605989281
 20
446.019847275597
 30
0.0
 10
157.4352338309909
 20
445.9957267374409
 30
0.0
 10
158.2629962415688
 20
445.9662901904502
 30
0.0
 10
158.8005620782515
 20
445.9402731791997
 30
0.0
 10
159.1379229809519
 20
445.919669890776
 30
0.0
 10
159.4066712886906
 20
445.8981946398369
 30
0.0
 10
159.5817688160852
 20
445.8785023220233
 30
0.0
 10
159.6869578888546
 20
445.8609838332078
 30
0.0
 10
159.7463407577525
 20
445.8458190982257
 30
0.0
 10
159.7578227448146
 20
445.8356544330193
 30
0.0
 10
159.7635718477478
 20
445.830564921401
 30
0.0
  0
LINE
  5
17A
330
1F
100
AcDbEntity
  8
0
  6
Continuous
 62
     8
370
    18
100
AcDbLine
 10
151.8339704874
 20
446.0623348711
 30
0.0
 11
134.4627425226
 21
446.0623348711
 31
0.0
  0
SPLINE
  5
17B
330
1F
100
AcDbEntity
  8
0
  6
Continuous
 62
     8
370
    18
100
AcDbSpline
210
0.0
220
0.0
230
1.0
 70
     8
 71
     3
 72
     9
 73
     5
 74
     0
 42
0.000000001
 43
0.00000001
 40
0.0
 40
0.0
 40
0.0
 40
0.0
 40
0.1945690296097501
 40
0.9999999999999999
 40
0.9999999999999999
 40
0.9999999999999999
 40
0.9999999999999999
 10
134.5387691783738
 20
451.2871737239666
 30
0.0
 10
134.5400948954388
 20
451.2918045463096
 30
0.0
 10
134.5469085032758
 20
451.3156049545877
 30
0.0
 10
134.5402300984123
 20
451.1865612668755
 30
0.0
 10
134.5348511043024
 20
451.0826254842587
 30
0.0
  0
SPLINE
  5
17C
330
1F
100
AcDbEntity
  8
0
  6
Continuous
 62
     8
370
    18
100
AcDbSpline
210
0.0
220
0.0
230
1.0
 70
     8
 71
     3
 72
     9
 73
     5
 74
     0
 42
0.000000001
 43
0.00000001
 40
0.0
 40
0.0
 40
0.0
 40
0.0
 40
0.1644879568873274
 40
1.0
 40
1.0
 40
1.0
 40
1.0
 10
151.7573030817341
 20
451.2885297296353
 30
0.0
 10
151.7562439055199
 20
451.2920463919014
 30
0.0
 10
151.7498046729199
 20
451.3134258432161
 30
0.0
 10
151.7563715094448
 20
451.1877572324477
 30
0.0
 10
151.7618581804466
 20
451.0827595947094
 30
0.0
  0
SPLINE
  5
17D
330
1F
100
AcDbEntity
  8
0
  6
Continuous
 62
     8
370
    18
100
AcDbSpline
210
0.0
220
0.0
230
1.0
 70
    24
 71
     3
 72
     9
 73
     5
 74
     0
 42
0.000000001
 43
0.00000001
 40
0.0
 40
0.0
 40
0.0
 40
0.0
 40
0.8459926722941732
 40
1.0
 40
1.0
 40
1.0
 40
1.0
 10
143.1483565050192
 20
451.0911489484616
 30
0.0
 10
143.1483565050192
 20
451.2172702781105
 30
0.0
 10
143.1483565050192
 20
451.3663511552614
 30
0.0
 10
143.1483565050193
 20
451.3459427956325
 30
0.0
 10
143.1483565050193
 20
451.3427997587033
 30
0.0
  0
SPLINE
  5
17E
330
1F
100
AcDbEntity
  8
0
  6
Continuous
 62
     8
370
    18
100
AcDbSpline
210
0.0
220
0.0
230
1.0
 70
     8
 71
     3
 72
    25
 73
    21
 74
     0
 42
0.000000001
 43
0.00000001
 40
0.0
 40
0.0
 40
0.0
 40
0.0
 40
0.0278278052389512
 40
0.0556241569726691
 40
0.0833977555545909
 40
0.1111573227319191
 40
0.1389115934799151
 40
0.1666693077739834
 40
0.194439202338185
 40
0.2222300024090759
 40
0.2500504135536149
 40
0.3750238770644359
 40
0.5000238038085687
 40
0.6249915239041719
 40
0.7499868255200524
 40
0.8000264490424543
 40
0.8499966169627688
 40
0.899948277864955
 40
0.9499324369253148
 40
1.0
 40
1.0
 40
1.0
 40
1.0
 10
125.7661283335988
 20
444.2971104450724
 30
0.0
 10
125.9053927700146
 20
444.3001398901154
 30
0.0
 10
126.18376423357
 20
444.3061953560484
 30
0.0
 10
126.6079003169749
 20
444.3149952747024
 30
0.0
 10
127.036490068773
 20
444.323579703888
 30
0.0
 10
127.4700271748431
 20
444.3319288768885
 30
0.0
 10
127.9083792001093
 20
444.3400480801943
 30
0.0
 10
128.3515819667193
 20
444.3479358979921
 30
0.0
 10
128.7996237628312
 20
444.3555926955787
 30
0.0
 10
129.2525148152687
 20
444.3630184144762
 30
0.0
 10
130.2427573238645
 20
444.3785834958173
 30
0.0
 10
131.8052568104057
 20
444.4003338870316
 30
0.0
 10
133.9862059946457
 20
444.4245850492916
 30
0.0
 10
136.2252380439339
 20
444.443633352231
 30
0.0
 10
138.0522850615239
 20
444.4545724781775
 30
0.0
 10
139.4343652502267
 20
444.4605003029562
 30
0.0
 10
140.3593323714975
 20
444.4635818446749
 30
0.0
 10
141.2867852704214
 20
444.465767067131
 30
0.0
 10
142.2167400492371
 20
444.4671356493708
 30
0.0
 10
142.8376451557339
 20
444.4673049208656
 30
0.0
 10
143.1483565050194
 20
444.4673896271661
 30
0.0
  0
SPLINE
  5
17F
330
1F
100
AcDbEntity
  8
0
  6
Continuous
 62
     8
370
    18
100
AcDbSpline
210
0.0
220
0.0
230
1.0
 70
     8
 71
     3
 72
    11
 73
     7
 74
     0
 42
0.000000001
 43
0.00000001
 40
0.0
 40
0.0
 40
0.0
 40
0.0
 40
0.125
 40
0.25
 40
0.375
 40
0.5
 40
0.5
 40
0.5
 40
0.5
 10
160.5305846764401
 20
444.2971104450724
 30
0.0
 10
159.2840307784773
 20
444.3245193911299
 30
0.0
 10
156.6425753316805
 20
444.3733950565695
 30
0.0
 10
152.3403575742841
 20
444.4272462259472
 30
0.0
 10
147.803113595099
 20
444.4599994177866
 30
0.0
 10
144.6999422017126
 20
444.4674008188101
 30
0.0
 10
143.1483565050195
 20
444.4674008188101
 30
0.0
  0
SPLINE
  5
180
330
1F
100
AcDbEntity
  8
0
  6
Continuous
 62
     8
370
    18
100
AcDbSpline
210
0.0
220
0.0
230
1.0
 70
     8
 71
     3
 72
    12
 73
     8
 74
     0
 42
0.000000001
 43
0.00000001
 40
0.0
 40
0.0
 40
0.0
 40
0.0
 40
0.25
 40
0.25
 40
0.5
 40
0.5
 40
1.0
 40
1.0
 40
1.0
 40
1.0
 10
165.5432651214202
 20
448.8824989962848
 30
0.0
 10
165.5210726501317
 20
448.938454412243
 30
0.0
 10
165.4549796112914
 20
448.9945312855119
 30
0.0
 10
165.3152569126456
 20
449.1065559935977
 30
0.0
 10
165.2453748462467
 20
449.1624859966417
 30
0.0
 10
165.0356934877991
 20
449.3301621518209
 30
0.0
 10
164.8958374846989
 20
449.4416951070061
 30
0.0
 10
164.7558732453969
 20
449.552855079854
 30
0.0
  0
ARC
  5
181
330
1F
100
AcDbEntity
  8
0
  6
Continuous
 62
     8
370
    18
100
AcDbCircle
 10
163.4863016381
 20
449.6206127537
 30
0.0
 40
1.27137792338639
100
AcDbArc
 50
356.9450962345
 51
50.7577159761
  0
SPLINE
  5
182
330
1F
100
AcDbEntity
  8
0
  6
Continuous
 62
     8
370
    18
100
AcDbSpline
210
0.0
220
0.0
230
1.0
 70
     8
 71
     3
 72
     9
 73
     5
 74
     0
 42
0.000000001
 43
0.00000001
 40
0.0
 40
0.0
 40
0.0
 40
0.0
 40
0.9468067050874724
 40
1.0
 40
1.0
 40
1.0
 40
1.0
 10
165.5432650971245
 20
448.8824988363095
 30
0.0
 10
165.5396392013854
 20
449.0455180866721
 30
0.0
 10
165.5358095963354
 20
449.2176960502276
 30
0.0
 10
165.4636902503374
 20
449.3691604950624
 30
0.0
 10
165.4598539846968
 20
449.3772173879452
 30
0.0
  0
SPLINE
  5
183
330
1F
100
AcDbEntity
  8
0
  6
Continuous
 62
     8
370
    18
100
AcDbSpline
210
0.0
220
0.0
230
1.0
 70
     8
 71
     3
 72
    12
 73
     8
 74
     0
 42
0.000000001
 43
0.00000001
 40
0.0
 40
0.0
 40
0.0
 40
0.0
 40
0.5000000000000001
 40
0.5000000000000001
 40
0.7500000000000002
 40
0.7500000000000002
 40
1.0
 40
1.0
 40
1.0
 40
1.0
 10
121.5408397646416
 20
449.552855079854
 30
0.0
 10
121.4008746667335
 20
449.4416944249575
 30
0.0
 10
121.2610178063888
 20
449.3301607833433
 30
0.0
 10
121.0513351628558
 20
449.1624835950597
 30
0.0
 10
120.9814526680924
 20
449.1065532481292
 30
0.0
 10
120.8417291138673
 20
448.9945278460232
 30
0.0
 10
120.775639021979
 20
448.9384510392576
 30
0.0
 10
120.7534478886188
 20
448.8824989962848
 30
0.0
  0
SPLINE
  5
184
330
1F
100
AcDbEntity
  8
0
  6
Continuous
 62
     8
370
    18
100
AcDbSpline
210
0.0
220
0.0
230
1.0
 70
     8
 71
     3
 72
    43
 73
    39
 74
     0
 42
0.000000001
 43
0.00000001
 40
0.0
 40
0.0
 40
0.0
 40
0.0
 40
0.0205282890803572
 40
0.040763942450717
 40
0.0607118193738483
 40
0.0803697316221612
 40
0.0997337777087014
 40
0.1408590872330643
 40
0.1803167060628892
 40
0.2075110767361476
 40
0.2342388321476568
 40
0.286496106525562
 40
0.3119452391513187
 40
0.3497094686330874
 40
0.3746587739869406
 40
0.3870841411691814
 40
0.4375520820447036
 40
0.4627304285819359
 40
0.4753186170218086
 40
0.5004736428805858
 40
0.5382447319656241
 40
0.5888801455420477
 40
0.6296129204153815
 40
0.6706491497447843
 40
0.6982469489454126
 40
0.7250383618020495
 40
0.7452722884098404
 40
0.7520207630424414
 40
0.7655548876169894
 40
0.8065647371005212
 40
0.8194476827065035
 40
0.8453991691107862
 40
0.8650575801911088
 40
0.8716456960273051
 40
0.8845550674858105
 40
0.9109848611261377
 40
0.9550668562724818
 40
1.0
 40
1.0
 40
1.0
 40
1.0
 10
120.7536320663543
 20
448.8821793730107
 30
0.0
 10
120.756263483104
 20
448.8193174103461
 30
0.0
 10
120.7614888051232
 20
448.6944895974501
 30
0.0
 10
120.7753475075263
 20
448.5093936481018
 30
0.0
 10
120.7935534137208
 20
448.3279571575812
 30
0.0
 10
120.8164666405097
 20
448.1505214973645
 30
0.0
 10
120.8542790208016
 20
447.9116899795216
 30
0.0
 10
120.9146881668691
 20
447.6191669889367
 30
0.0
 10
120.9991076397701
 20
447.3145699748844
 30
0.0
 10
121.0857990137187
 20
447.0603618032828
 30
0.0
 10
121.1964552294611
 20
446.7812616618305
 30
0.0
 10
121.322169187673
 20
446.5221526662397
 30
0.0
 10
121.4774802265467
 20
446.254708036557
 30
0.0
 10
121.605722567767
 20
446.0623697810787
 30
0.0
 10
121.7223593032881
 20
445.9088106257407
 30
0.0
 10
121.8635058953417
 20
445.7364728269704
 30
0.0
 10
122.0129475240242
 20
445.5756696892588
 30
0.0
 10
122.1708071058274
 20
445.4288399491269
 30
0.0
 10
122.286092489805
 20
445.3290910648832
 30
0.0
 10
122.4276124242097
 20
445.2152435476495
 30
0.0
 10
122.6478345498952
 20
445.0584730776854
 30
0.0
 10
122.9090309965145
 20
444.9022781904389
 30
0.0
 10
123.1864695583865
 20
444.7641294915188
 30
0.0
 10
123.4219527272512
 20
444.6653495421035
 30
0.0
 10
123.6315731594502
 20
444.5897848984816
 30
0.0
 10
123.7979205747533
 20
444.5370599593493
 30
0.0
 10
123.9191802963022
 20
444.5029272868849
 30
0.0
 10
124.0111302133531
 20
444.4788396122072
 30
0.0
 10
124.1508450950772
 20
444.4442531581519
 30
0.0
 10
124.3064653504481
 20
444.4115641886189
 30
0.0
 10
124.4927270208826
 20
444.378877378088
 30
0.0
 10
124.6302265147631
 20
444.3580593620802
 30
0.0
 10
124.7538979511992
 20
444.3426699663275
 30
0.0
 10
124.8470998957956
 20
444.3324635787604
 30
0.0
 10
124.9566767007033
 20
444.3216530365838
 30
0.0
 10
125.1569899371896
 20
444.3062844817472
 30
0.0
 10
125.437087484742
 20
444.2941504743017
 30
0.0
 10
125.6557132472427
 20
444.2960856422482
 30
0.0
 10
125.7660713608541
 20
444.2970624781053
 30
0.0
  0
SPLINE
  5
185
330
1F
100
AcDbEntity
  8
0
  6
Continuous
 62
     8
370
    18
100
AcDbSpline
210
0.0
220
0.0
230
1.0
 70
     8
 71
     3
 72
    24
 73
    20
 74
     0
 42
0.000000001
 43
0.00000001
 40
0.0
 40
0.0
 40
0.0
 40
0.0
 40
0.0400088573575245
 40
0.0725835779095107
 40
0.0979998281886935
 40
0.1164636425014544
 40
0.1281191322998145
 40
0.1973162736201295
 40
0.2554046599837315
 40
0.3837408284558522
 40
0.5122156709490175
 40
0.6410297244293831
 40
0.7071988437645389
 40
0.7699320945613144
 40
0.8344447619790253
 40
0.8981911465357297
 40
0.9316674355136744
 40
0.9655588873062304
 40
1.0
 40
1.0
 40
1.0
 40
1.0
 10
160.5305846764401
 20
444.2971104450724
 30
0.0
 10
160.6289037283406
 20
444.2959610466973
 30
0.0
 10
160.8072729454327
 20
444.2938758222739
 30
0.0
 10
161.045404213789
 20
444.301707829765
 30
0.0
 10
161.2297497536048
 20
444.3127200091445
 30
0.0
 10
161.3627109419213
 20
444.3238060062088
 30
0.0
 10
161.5993950277422
 20
444.3473864314467
 30
0.0
 10
161.9266240800926
 20
444.3948527601589
 30
0.0
 10
162.513152913992
 20
444.5272125334583
 30
0.0
 10
163.2058519194812
 20
444.7779319354562
 30
0.0
 10
163.9810462687614
 20
445.2577684553407
 30
0.0
 10
164.54465033215
 20
445.8321473615204
 30
0.0
 10
164.9156685259809
 20
446.3999923932362
 30
0.0
 10
165.1490119930726
 20
446.8789679522113
 30
0.0
 10
165.3296956891176
 20
447.3975719915879
 30
0.0
 10
165.4373886628621
 20
447.8667294751139
 30
0.0
 10
165.4964152015473
 20
448.2583849368718
 30
0.0
 10
165.528641718886
 20
448.5668808108049
 30
0.0
 10
165.5383370705945
 20
448.7759156587761
 30
0.0
 10
165.5432237407101
 20
448.8812738113644
 30
0.0
  0
SPLINE
  5
186
330
1F
100
AcDbEntity
  8
0
  6
Continuous
 62
     8
370
    18
100
AcDbSpline
210
0.0
220
0.0
230
1.0
 70
     8
 71
     3
 72
    11
 73
     7
 74
     0
 42
0.000000001
 43
0.00000001
 40
0.0
 40
0.0
 40
0.0
 40
0.0
 40
0.3926772347429217
 40
0.6040945885697235
 40
0.8200169585748556
 40
1.0
 40
1.0
 40
1.0
 40
1.0
 10
121.5408401715588
 20
449.5528573749371
 30
0.0
 10
121.5491949795104
 20
449.7137880760216
 30
0.0
 10
121.5620480145874
 20
449.9613638381446
 30
0.0
 10
121.7057897859145
 20
450.2647046199889
 30
0.0
 10
121.8479638796516
 20
450.4681307731753
 30
0.0
 10
121.9716256286267
 20
450.5710432828828
 30
0.0
 10
122.0278436469864
 20
450.6178284643002
 30
0.0
  0
SPLINE
  5
187
330
1F
100
AcDbEntity
  8
0
  6
Continuous
 62
     8
370
    18
100
AcDbSpline
210
0.0
220
0.0
230
1.0
 70
     8
 71
     3
 72
     9
 73
     5
 74
     0
 42
0.000000001
 43
0.00000001
 40
0.0
 40
0.0
 40
0.0
 40
0.0
 40
0.9387270875386207
 40
1.0
 40
1.0
 40
1.0
 40
1.0
 10
120.7536434906554
 20
448.8818580863781
 30
0.0
 10
120.7572926140138
 20
449.0448433373389
 30
0.0
 10
120.7611799241883
 20
449.2184670168132
 30
0.0
 10
120.8339850188195
 20
449.3712531983696
 30
0.0
 10
120.8384459990096
 20
449.3806148526974
 30
0.0
  0
SPLINE
  5
188
330
1F
100
AcDbEntity
  8
0
  6
Continuous
 62
     8
370
    18
100
AcDbSpline
210
0.0
220
0.0
230
1.0
 70
     8
 71
     3
 72
    10
 73
     6
 74
     0
 42
0.000000001
 43
0.00000001
 40
0.0
 40
0.0
 40
0.0
 40
0.0
 40
0.5
 40
0.5
 40
1.0
 40
1.0
 40
1.0
 40
1.0
 10
120.7483925163644
 20
413.6682865536727
 30
0.0
 10
120.6951018719824
 20
413.6685706889128
 30
0.0
 10
120.6438948927659
 20
413.6677347042081
 30
0.0
 10
120.5446492836685
 20
413.6659752080896
 30
0.0
 10
120.496975842809
 20
413.6679010680701
 30
0.0
 10
120.4450129214645
 20
413.658979525911
 30
0.0
  0
SPLINE
  5
189
330
1F
100
AcDbEntity
  8
0
  6
Continuous
 62
     8
370
    18
100
AcDbSpline
210
0.0
220
0.0
230
1.0
 70
     8
 71
     3
 72
    10
 73
     6
 74
     0
 42
0.000000001
 43
0.00000001
 40
0.0
 40
0.0
 40
0.0
 40
0.0
 40
0.5
 40
0.5
 40
1.0
 40
1.0
 40
1.0
 40
1.0
 10
165.8517000885745
 20
413.658979525911
 30
0.0
 10
165.7997371769997
 20
413.6679010663936
 30
0.0
 10
165.7520637221971
 20
413.6659752081587
 30
0.0
 10
165.6528181154226
 20
413.6677347042457
 30
0.0
 10
165.6016111478487
 20
413.6685706889651
 30
0.0
 10
165.5483204936744
 20
413.6682865536727
 30
0.0
  0
SPLINE
  5
18A
330
1F
100
AcDbEntity
  8
0
  6
Continuous
 62
     8
370
    18
100
AcDbSpline
210
0.0
220
0.0
230
1.0
 70
     8
 71
     3
 72
    18
 73
    14
 74
     0
 42
0.000000001
 43
0.00000001
 40
0.0
 40
0.0
 40
0.0
 40
0.0
 40
0.0625
 40
0.0625
 40
0.125
 40
0.125
 40
0.25
 40
0.25
 40
0.5
 40
0.5
 40
0.75
 40
0.75
 40
1.0
 40
1.0
 40
1.0
 40
1.0
 10
119.9139156994158
 20
413.6871308806753
 30
0.0
 10
119.903018173724
 20
412.3664930696697
 30
0.0
 10
119.8895518728495
 20
411.0453064653357
 30
0.0
 10
119.8672087109599
 20
408.4039137449535
 30
0.0
 10
119.8561363890241
 20
407.0832385904646
 30
0.0
 10
119.8226505565125
 20
403.1211556862949
 30
0.0
 10
119.7999613783437
 20
400.4796890429687
 30
0.0
 10
119.7313965557643
 20
392.5551828723269
 30
0.0
 10
119.6866193919651
 20
387.2723780244928
 30
0.0
 10
119.5957141894532
 20
376.7064797278067
 30
0.0
 10
119.5499959818841
 20
371.4234738353092
 30
0.0
 10
119.4598167040904
 20
360.8577306252345
 30
0.0
 10
119.4160233758753
 20
355.5751359636443
 30
0.0
 10
119.368107470803
 20
350.2916605548399
 30
0.0
  0
LINE
  5
18B
330
1F
100
AcDbEntity
  8
0
  6
Continuous
 62
     8
370
    18
100
AcDbLine
 10
119.9142145145
 20
413.6869246719
 30
0.0
 11
119.9139146286
 21
413.6869395731
 31
0.0
  0
SPLINE
  5
18C
330
1F
100
AcDbEntity
  8
0
  6
Continuous
 62
     8
370
    18
100
AcDbSpline
210
0.0
220
0.0
230
1.0
 70
     8
 71
     3
 72
    12
 73
     8
 74
     0
 42
0.000000001
 43
0.00000001
 40
0.0
 40
0.0
 40
0.0
 40
0.0
 40
0.5
 40
0.5
 40
0.75
 40
0.75
 40
1.0
 40
1.0
 40
1.0
 40
1.0
 10
120.4449494377637
 20
413.6588559082286
 30
0.0
 10
120.3587467105671
 20
413.6610106211514
 30
0.0
 10
120.2703388320551
 20
413.6665694799092
 30
0.0
 10
120.1389178915436
 20
413.6729437302862
 30
0.0
 10
120.0950335595019
 20
413.6743556366992
 30
0.0
 10
120.0072954027985
 20
413.6793024751792
 30
0.0
 10
119.9623253371044
 20
413.6841824983295
 30
0.0
 10
119.9142138875984
 20
413.6869242634264
 30
0.0
  0
SPLINE
  5
18D
330
1F
100
AcDbEntity
  8
0
  6
Continuous
 62
     8
370
    18
100
AcDbSpline
210
0.0
220
0.0
230
1.0
 70
     8
 71
     3
 72
    12
 73
     8
 74
     0
 42
0.000000001
 43
0.00000001
 40
0.0
 40
0.0
 40
0.0
 40
0.0
 40
0.25
 40
0.25
 40
0.5
 40
0.5
 40
1.0
 40
1.0
 40
1.0
 40
1.0
 10
166.3824991220154
 20
413.6869242634021
 30
0.0
 10
166.3343876978016
 20
413.6841824997288
 30
0.0
 10
166.2894176376473
 20
413.6793024774786
 30
0.0
 10
166.2016794735871
 20
413.6743556374136
 30
0.0
 10
166.1577951404639
 20
413.6729437312836
 30
0.0
 10
166.0263741923055
 20
413.6665694807405
 30
0.0
 10
165.9379663094031
 20
413.6610106214005
 30
0.0
 10
165.8517635722752
 20
413.6588559082283
 30
0.0
  0
LINE
  5
18E
330
1F
100
AcDbEntity
  8
0
  6
Continuous
 62
     8
370
    18
100
AcDbLine
 10
166.3827983814
 20
413.6869395731
 30
0.0
 11
166.3824984956
 21
413.6869246719
 31
0.0
  0
LWPOLYLINE
  5
18F
330
1F
100
AcDbEntity
  8
0
  6
Continuous
 62
     8
370
    18
100
AcDbPolyline
 90
        3
 70
   128
 43
0.0
 10
166.3836514729
 20
413.6871407388
 10
166.6502686369
 20
382.6218480823
 10
166.9277394342
 20
350.2918454466
  0
LINE
  5
190
330
1F
100
AcDbEntity
  8
0
  6
Continuous
 62
     8
370
    18
100
AcDbLine
 10
165.5430695194
 20
448.8818580864
 30
0.0
 11
165.5286675471
 21
448.8484347818
 31
0.0
  0
LINE
  5
191
330
1F
100
AcDbEntity
  8
0
  6
Continuous
 62
     8
370
    18
100
AcDbLine
 10
120.7687737572
 20
448.8467509506
 30
0.0
 11
120.7536434907
 21
448.8818580864
 31
0.0
  0
CIRCLE
  5
192
330
1F
100
AcDbEntity
  8
0
  6
Continuous
 62
     8
370
    18
100
AcDbCircle
 10
143.148356505
 20
430.3117484662
 30
0.0
 40
3.781418633081852
  0
SPLINE
  5
193
330
1F
100
AcDbEntity
  8
0
  6
Continuous
 62
     8
370
    18
100
AcDbSpline
210
0.0
220
0.0
230
1.0
 70
     8
 71
     3
 72
     8
 73
     4
 74
     0
 42
0.000000001
 43
0.00000001
 40
0.0000024790398112
 40
0.0000024790398112
 40
0.0000024790398112
 40
0.0000024790398112
 40
0.7671742739455352
 40
0.7671742739455352
 40
0.7671742739455352
 40
0.7671742739455352
 10
165.9310350614209
 20
437.6502587119948
 30
0.0
 10
166.1263395510439
 20
432.3922388266242
 30
0.0
 10
166.2819650372668
 20
426.836781609866
 30
0.0
 10
166.3438453677025
 20
420.578602384525
 30
0.0
  0
SPLINE
  5
194
330
1F
100
AcDbEntity
  8
0
  6
Continuous
 62
     8
370
    18
100
AcDbSpline
210
0.0
220
0.0
230
1.0
 70
     8
 71
     3
 72
     8
 73
     4
 74
     0
 42
0.000000001
 43
0.00000001
 40
0.0000024790398112
 40
0.0000024790398112
 40
0.0000024790398112
 40
0.0000024790398112
 40
0.7671742739455352
 40
0.7671742739455352
 40
0.7671742739455352
 40
0.7671742739455352
 10
120.3656779486182
 20
437.6502587119948
 30
0.0
 10
120.1703734589953
 20
432.3922388266242
 30
0.0
 10
120.0147479727724
 20
426.836781609866
 30
0.0
 10
119.9528676423367
 20
420.578602384525
 30
0.0
  0
LINE
  5
195
330
1F
100
AcDbEntity
  8
0
  6
Continuous
 62
     8
370
    18
100
AcDbLine
 10
165.0997394848
 20
415.0704825876
 30
0.0
 11
165.0957832265
 21
415.0705272911
 31
0.0
  0
LINE
  5
196
330
1F
100
AcDbEntity
  8
0
  6
Continuous
 62
     8
370
    18
100
AcDbLine
 10
121.1978061277
 20
415.0705570934
 30
0.0
 11
121.1981078762
 21
415.0705570934
 31
0.0
  0
LINE
  5
197
330
1F
100
AcDbEntity
  8
0
  6
Continuous
 62
     7
370
    25
100
AcDbLine
 10
121.5391805547
 20
127.8282214943
 30
0.0
 11
121.5396350401
 21
127.7975623552
 31
0.0
  0
SPLINE
  5
198
330
1F
100
AcDbEntity
  8
0
  6
Continuous
 62
     7
370
    25
100
AcDbSpline
210
0.0
220
0.0
230
1.0
 70
     8
 71
     3
 72
    19
 73
    15
 74
     0
 42
0.000000001
 43
0.00000001
 40
0.0
 40
0.0
 40
0.0
 40
0.0
 40
0.1483681939861696
 40
0.2741040134840878
 40
0.3440956995671002
 40
0.4009015282772013
 40
0.4492744363908611
 40
0.4937152167785248
 40
0.54644896816536
 40
0.6069891045906477
 40
0.6744969432432253
 40
0.7746320524755004
 40
0.8831027317109256
 40
1.0
 40
1.0
 40
1.0
 40
1.0
 10
151.7650898697805
 20
115.0423769894785
 30
0.0
 10
152.822096036579
 20
115.0444177847997
 30
0.0
 10
154.7748705822064
 20
115.0481880685323
 30
0.0
 10
157.2155617098514
 20
115.3986552582523
 30
0.0
 10
158.9284981073821
 20
115.96541180811
 30
0.0
 10
160.0520446022603
 20
116.5153028331292
 30
0.0
 10
160.9452037542674
 20
117.1006442737943
 30
0.0
 10
161.7423022149366
 20
117.766849130268
 30
0.0
 10
162.5004395853876
 20
118.6007536643705
 30
0.0
 10
163.2223098117511
 20
119.6722626987967
 30
0.0
 10
163.9216398631125
 20
121.1457262811142
 30
0.0
 10
164.4438236553316
 20
123.053271286505
 30
0.0
 10
164.7045850127276
 20
125.3623249710555
 30
0.0
 10
164.7295830014486
 20
126.9673472588137
 30
0.0
 10
164.742549337728
 20
127.7998645845599
 30
0.0
  0
SPLINE
  5
199
330
1F
100
AcDbEntity
  8
0
  6
Continuous
 62
     7
370
    25
100
AcDbSpline
210
0.0
220
0.0
230
1.0
 70
     8
 71
     3
 72
    19
 73
    15
 74
     0
 42
0.000000001
 43
0.00000001
 40
0.0
 40
0.0
 40
0.0
 40
0.0
 40
0.1483552497788153
 40
0.2742115754342446
 40
0.3443207509312419
 40
0.4012060709952693
 40
0.4496087134914468
 40
0.4940441706840748
 40
0.5468194394394255
 40
0.6074670971306593
 40
0.6750003119142699
 40
0.7750996601191223
 40
0.8832796209400329
 40
1.0
 40
1.0
 40
1.0
 40
1.0
 10
121.5541636723113
 20
127.7998571339793
 30
0.0
 10
121.5721187866635
 20
126.7431678754772
 30
0.0
 10
121.605306019343
 20
124.7900423423376
 30
0.0
 10
121.9973873660051
 20
122.3540203204509
 30
0.0
 10
122.5953135585611
 20
120.6494079336615
 30
0.0
 10
123.1666471825752
 20
119.5348368673726
 30
0.0
 10
123.7693021763738
 20
118.6524119798859
 30
0.0
 10
124.4511185455571
 20
117.8680050441236
 30
0.0
 10
125.3007246069366
 20
117.1259616336165
 30
0.0
 10
126.3868892322276
 20
116.4240328946776
 30
0.0
 10
127.8741274242073
 20
115.7527126170728
 30
0.0
 10
129.7886252188239
 20
115.2654430995495
 30
0.0
 10
132.0981534584736
 20
115.0438373798745
 30
0.0
 10
133.7001302691081
 20
115.0428759560551
 30
0.0
 10
134.5315355959367
 20
115.0423769894785
 30
0.0
  0
SPLINE
  5
19A
330
1F
100
AcDbEntity
  8
0
  6
Continuous
 62
     7
370
    25
100
AcDbSpline
210
0.0
220
0.0
230
1.0
 70
     8
 71
     3
 72
    20
 73
    16
 74
     0
 42
0.000000001
 43
0.00000001
 40
0.0
 40
0.0
 40
0.0
 40
0.0
 40
0.0887217433656169
 40
0.1733069148935124
 40
0.2477514649940361
 40
0.312055327093972
 40
0.3662184304432228
 40
0.410240841617828
 40
0.4491150561063906
 40
0.506269132950103
 40
0.5772720370806459
 40
0.6621237726735881
 40
0.7608249340262963
 40
0.8734412961735462
 40
0.9999999999999999
 40
0.9999999999999999
 40
0.9999999999999999
 40
0.9999999999999999
 10
164.7430038231444
 20
127.8303374592013
 30
0.0
 10
164.7677217327159
 20
129.49684366106
 30
0.0
 10
164.816005101459
 20
132.7521567054039
 30
0.0
 10
164.8850391123761
 20
137.405798925504
 30
0.0
 10
164.9472729664065
 20
141.6007875692235
 30
0.0
 10
165.0010362249128
 20
145.224342495439
 30
0.0
 10
165.0463177424564
 20
148.2764630117485
 30
0.0
 10
165.0845162078427
 20
150.8509251260542
 30
0.0
 10
165.1235441552706
 20
153.4815688155001
 30
0.0
 10
165.1700870626863
 20
156.6190009727266
 30
0.0
 10
165.2294444495543
 20
160.6200519509816
 30
0.0
 10
165.300379966682
 20
165.4015045951528
 30
0.0
 10
165.382938745094
 20
170.9645945841368
 30
0.0
 10
165.4768238267915
 20
177.3111299474007
 30
0.0
 10
165.509880943522
 20
181.8040674538912
 30
0.0
 10
165.5273730087113
 20
184.1814906392045
 30
0.0
  0
LINE
  5
19B
330
1F
100
AcDbEntity
  8
0
  6
Continuous
 62
     7
370
    25
100
AcDbLine
 10
164.7570779699
 20
127.7975623552
 30
0.0
 11
164.75752873
 21
127.828050131
 31
0.0
  0
SPLINE
  5
19C
330
1F
100
AcDbEntity
  8
0
  6
Continuous
 62
     7
370
    25
100
AcDbSpline
210
0.0
220
0.0
230
1.0
 70
     8
 71
     3
 72
    14
 73
    10
 74
     0
 42
0.000000001
 43
0.00000001
 40
0.0
 40
0.0
 40
0.0
 40
0.0
 40
0.0970413387981994
 40
0.209350991774933
 40
0.3368817187691593
 40
0.4797072072421856
 40
0.6378357157958043
 40
0.8112667656106163
 40
1.0
 40
1.0
 40
1.0
 40
1.0
 10
120.7693437266182
 20
184.1805518660493
 30
0.0
 10
120.7816757272239
 20
182.3576404973939
 30
0.0
 10
120.8082800237983
 20
178.4250040800479
 30
0.0
 10
120.8960222456927
 20
172.0971664541127
 30
0.0
 10
121.0038935495422
 20
164.9095098175626
 30
0.0
 10
121.1229262915578
 20
156.8611912655354
 30
0.0
 10
121.2552593779268
 20
147.9507297205546
 30
0.0
 10
121.4002161562112
 20
138.1779695498103
 30
0.0
 10
121.5011236602598
 20
131.3753660779291
 30
0.0
 10
121.5537091868948
 20
127.8303523603625
 30
0.0
  0
SPLINE
  5
19D
330
1F
100
AcDbEntity
  8
0
  6
Continuous
 62
     7
370
    25
100
AcDbSpline
210
0.0
220
0.0
230
1.0
 70
     8
 71
     3
 72
    16
 73
    12
 74
     0
 42
0.000000001
 43
0.00000001
 40
0.0
 40
0.0
 40
0.0
 40
0.0
 40
0.0512569883917152
 40
0.1126793276435084
 40
0.1701300266428366
 40
0.2266091274117711
 40
0.2854464416554598
 40
0.4211629905777526
 40
0.638503519670087
 40
0.8467678794951792
 40
1.0
 40
1.0
 40
1.0
 40
1.0
 10
120.8548950183224
 20
198.1443150024659
 30
0.0
 10
120.8475860901396
 20
198.1621287260368
 30
0.0
 10
120.8315187178792
 20
198.2012890134001
 30
0.0
 10
120.8283775374462
 20
198.0031833021775
 30
0.0
 10
120.8270524082181
 20
197.668473116912
 30
0.0
 10
120.8289884696563
 20
197.1609804165768
 30
0.0
 10
120.831914171816
 20
196.2352609922352
 30
0.0
 10
120.8395079950916
 20
194.409264017827
 30
0.0
 10
120.8891122423225
 20
191.879070945609
 30
0.0
 10
120.8054605600765
 20
189.308468679762
 30
0.0
 10
120.7703720845565
 20
187.8379901979938
 30
0.0
 10
120.755498685224
 20
187.2146797422118
 30
0.0
  0
LINE
  5
19E
330
1F
100
AcDbEntity
  8
0
  6
Continuous
 62
     7
370
    25
100
AcDbLine
 10
165.542667188
 20
186.9633027408
 30
0.0
 11
165.5306289124
 21
187.259565765
 31
0.0
  0
SPLINE
  5
19F
330
1F
100
AcDbEntity
  8
0
  6
Continuous
 62
     7
370
    25
100
AcDbSpline
210
0.0
220
0.0
230
1.0
 70
     8
 71
     3
 72
    20
 73
    16
 74
     0
 42
0.000000001
 43
0.00000001
 40
0.0
 40
0.0
 40
0.0
 40
0.0
 40
0.1274242417368615
 40
0.2238731173580518
 40
0.3027727327984742
 40
0.3768516307679429
 40
0.4470854190075802
 40
0.51296946159975
 40
0.5767010043452462
 40
0.643511998738714
 40
0.7112376908931353
 40
0.780762080800954
 40
0.8489474164935501
 40
0.9202755348080165
 40
1.0
 40
1.0
 40
1.0
 40
1.0
 10
151.5831550735068
 20
69.60890042221017
 30
0.0
 10
152.3902606683059
 20
69.62061743993993
 30
0.0
 10
153.8082737801119
 20
69.64120320328867
 30
0.0
 10
155.7255237399505
 20
69.71787927293772
 30
0.0
 10
157.2971912257781
 20
69.901360528457
 30
0.0
 10
158.6776905414809
 20
70.22530091658398
 30
0.0
 10
159.9230157033704
 20
70.70930432274545
 30
0.0
 10
161.0279740856678
 20
71.3371205458609
 30
0.0
 10
162.0010426834117
 20
72.1215856652336
 30
0.0
 10
162.8365797072711
 20
73.06722056229493
 30
0.0
 10
163.5276679952981
 20
74.16611918642154
 30
0.0
 10
164.0368060230962
 20
75.37018103233271
 30
0.0
 10
164.3587870449214
 20
76.65892510627357
 30
0.0
 10
164.5333742085606
 20
78.03919208754449
 30
0.0
 10
164.5722147033448
 20
78.9955384849308
 30
0.0
 10
164.5927144366335
 20
79.50029122268623
 30
0.0
  0
SPLINE
  5
1A0
330
1F
100
AcDbEntity
  8
0
  6
Continuous
 62
     7
370
    25
100
AcDbSpline
210
0.0
220
0.0
230
1.0
 70
     8
 71
     3
 72
    22
 73
    18
 74
     0
 42
0.000000001
 43
0.00000001
 40
0.0
 40
0.0
 40
0.0
 40
0.0
 40
0.037474649540067
 40
0.1588300318074177
 40
0.23580541469544
 40
0.297418828620607
 40
0.3572737164744341
 40
0.4210686298271665
 40
0.4835170608356755
 40
0.5432439461129133
 40
0.6035656115096997
 40
0.6640621144341565
 40
0.7274855898366298
 40
0.7957267614314519
 40
0.8764309106899432
 40
0.9836121654489397
 40
1.0
 40
1.0
 40
1.0
 40
1.0
 10
121.6499371605944
 20
81.89743357335992
 30
0.0
 10
121.6544030736943
 20
81.63011289051057
 30
0.0
 10
121.6733310991307
 20
80.4971189044202
 30
0.0
 10
121.7033768705154
 20
78.81453877388913
 30
0.0
 10
121.8811748541331
 20
76.9653797106624
 30
0.0
 10
122.1943666083274
 20
75.58004581241971
 30
0.0
 10
122.6772752105346
 20
74.3441464157659
 30
0.0
 10
123.3555961686401
 20
73.19504854476205
 30
0.0
 10
124.2257703916666
 20
72.18407387105393
 30
0.0
 10
125.2381173715248
 20
71.35580323138517
 30
0.0
 10
126.3591983323145
 20
70.71069031857706
 30
0.0
 10
127.5889840305464
 20
70.23388292854642
 30
0.0
 10
128.926118237115
 20
69.91611949846
 30
0.0
 10
130.4316353838051
 20
69.72655140951674
 30
0.0
 10
132.2581439551954
 20
69.64892355898037
 30
0.0
 10
133.7149696599098
 20
69.61217368476137
 30
0.0
 10
134.5965021525734
 20
69.6001531849428
 30
0.0
 10
134.7134117188882
 20
69.59855901634164
 30
0.0
  0
SPLINE
  5
1A1
330
1F
100
AcDbEntity
  8
0
  6
Continuous
 62
     7
370
    25
100
AcDbSpline
210
0.0
220
0.0
230
1.0
 70
     8
 71
     3
 72
    10
 73
     6
 74
     0
 42
0.000000001
 43
0.00000001
 40
0.0
 40
0.0
 40
0.0
 40
0.0
 40
0.0967311334068082
 40
0.7289781659688106
 40
1.0
 40
1.0
 40
1.0
 40
1.0
 10
143.1485199783221
 20
69.53330683147378
 30
0.0
 10
143.420488295939
 20
69.53580500177216
 30
0.0
 10
145.4700762455005
 20
69.55463153195197
 30
0.0
 10
148.2820438274478
 20
69.5398855069381
 30
0.0
 10
150.8212883277855
 20
69.59207800354443
 30
0.0
 10
151.5831774252486
 20
69.60773813163705
 30
0.0
  0
SPLINE
  5
1A2
330
1F
100
AcDbEntity
  8
0
  6
Continuous
 62
     7
370
    25
100
AcDbSpline
210
0.0
220
0.0
230
1.0
 70
     8
 71
     3
 72
     9
 73
     5
 74
     0
 42
0.000000001
 43
0.00000001
 40
0.0
 40
0.0
 40
0.0
 40
0.0
 40
0.2420532016692639
 40
1.0
 40
1.0
 40
1.0
 40
1.0
 10
134.7134564223718
 20
69.60264193450875
 30
0.0
 10
135.3939535950938
 20
69.59053066446381
 30
0.0
 10
138.2053073306739
 20
69.54049509393055
 30
0.0
 10
141.0171883824643
 20
69.5414071935738
 30
0.0
 10
143.1484446229557
 20
69.54209851657815
 30
0.0
  0
LWPOLYLINE
  5
1A3
330
1F
100
AcDbEntity
  8
0
  6
Continuous
 62
     7
370
    25
100
AcDbPolyline
 90
        3
 70
   128
 43
0.0
 10
120.8737990039
 20
135.4163025562
 10
120.8853250521
 20
134.6026619021
 10
121.4308230358
 20
96.2445844952
  0
LWPOLYLINE
  5
1A4
330
1F
100
AcDbEntity
  8
0
  6
Continuous
 62
     7
370
    25
100
AcDbPolyline
 90
        3
 70
   128
 43
0.0
 10
164.8661321181
 20
96.2448080126
 10
165.0035133737
 20
105.8869694415
 10
165.3323838639
 20
129.0637959782
  0
LINE
  5
1A5
330
1F
100
AcDbEntity
  8
0
  6
Continuous
 62
     7
370
    25
100
AcDbLine
 10
119.921869986
 20
197.4881051164
 30
0.0
 11
119.9251296151
 21
197.4311277326
 31
0.0
  0
SPLINE
  5
1A6
330
1F
100
AcDbEntity
  8
0
  6
Continuous
 62
     7
370
    25
100
AcDbSpline
210
0.0
220
0.0
230
1.0
 70
     8
 71
     3
 72
     9
 73
     5
 74
     0
 42
0.000000001
 43
0.00000001
 40
0.0
 40
0.0
 40
0.0
 40
0.0
 40
0.473185021470705
 40
1.0
 40
1.0
 40
1.0
 40
1.0
 10
119.8562527227234
 20
198.6242893207616
 30
0.0
 10
119.8610111985652
 20
198.5456266308406
 30
0.0
 10
119.8710674675209
 20
198.3793857602473
 30
0.0
 10
119.8952071929006
 20
197.9553232120415
 30
0.0
 10
119.9079243618083
 20
197.7319207098133
 30
0.0
  0
SPLINE
  5
1A7
330
1F
100
AcDbEntity
  8
0
  6
Continuous
 62
     7
370
    25
100
AcDbSpline
210
0.0
220
0.0
230
1.0
 70
     8
 71
     3
 72
    10
 73
     6
 74
     0
 42
0.000000001
 43
0.00000001
 40
0.0
 40
0.0
 40
0.0
 40
0.0
 40
0.2885957816064494
 40
0.6904603705240123
 40
1.0
 40
1.0
 40
1.0
 40
1.0
 10
166.388788648231
 20
197.7319207098133
 30
0.0
 10
166.4008673563452
 20
197.9468085112512
 30
0.0
 10
166.4297654546942
 20
198.4609238256745
 30
0.0
 10
166.4550945779266
 20
198.824093505621
 30
0.0
 10
166.4499798701175
 20
198.8577550644621
 30
0.0
 10
166.4477544057202
 20
198.8724015708811
 30
0.0
  0
LINE
  5
1A8
330
1F
100
AcDbEntity
  8
0
  6
Continuous
 62
     7
370
    25
100
AcDbLine
 10
166.371583395
 20
197.4311277326
 30
0.0
 11
166.374843024
 21
197.4881051164
 31
0.0
  0
SPLINE
  5
1A9
330
1F
100
AcDbEntity
  8
0
  6
Continuous
 62
     7
370
    25
100
AcDbSpline
210
0.0
220
0.0
230
1.0
 70
     8
 71
     3
 72
    11
 73
     7
 74
     0
 42
0.000000001
 43
0.00000001
 40
0.0
 40
0.0
 40
0.0
 40
0.0
 40
0.0395240502201657
 40
0.3229727664951197
 40
0.6499162119624335
 40
0.9999999999999999
 40
0.9999999999999999
 40
0.9999999999999999
 40
0.9999999999999999
 10
119.9861144798827
 20
196.2128642070837
 30
0.0
 10
119.9879764469565
 20
196.1696992502145
 30
0.0
 10
120.0031916046547
 20
195.8169746317102
 30
0.0
 10
120.0263235573397
 20
194.9895634872695
 30
0.0
 10
120.0550727298607
 20
193.7314556548712
 30
0.0
 10
120.0676553652954
 20
192.7786683851737
 30
0.0
 10
120.0741617160868
 20
192.285991931314
 30
0.0
  0
SPLINE
  5
1AA
330
1F
100
AcDbEntity
  8
0
  6
Continuous
 62
     7
370
    25
100
AcDbSpline
210
0.0
220
0.0
230
1.0
 70
     8
 71
     3
 72
    12
 73
     8
 74
     0
 42
0.000000001
 43
0.00000001
 40
0.0
 40
0.0
 40
0.0
 40
0.0
 40
0.2451793597604779
 40
0.4854345664416431
 40
0.7013591184046095
 40
0.8930754660403962
 40
1.0
 40
1.0
 40
1.0
 40
1.0
 10
166.2228474545311
 20
192.3044451568074
 30
0.0
 10
166.2287520172695
 20
192.7452111465309
 30
0.0
 10
166.240442556211
 20
193.6178908343019
 30
0.0
 10
166.2677564496087
 20
194.7666943140409
 30
0.0
 10
166.2959921465365
 20
195.7188653823715
 30
0.0
 10
166.3211435606405
 20
196.3954723351649
 30
0.0
 10
166.3338452457672
 20
196.6793036498237
 30
0.0
 10
166.3383929210734
 20
196.7809258084542
 30
0.0
  0
LINE
  5
1AB
330
1F
100
AcDbEntity
  8
0
  6
Continuous
 62
     7
370
    25
100
AcDbLine
 10
141.14835641
 20
247.2898361329
 30
0.0
 11
141.14835641
 21
234.289834002
 31
0.0
  0
LINE
  5
1AC
330
1F
100
AcDbEntity
  8
0
  6
Continuous
 62
     7
370
    25
100
AcDbLine
 10
145.1483566
 20
234.289834002
 30
0.0
 11
145.1483566
 21
247.2898361329
 31
0.0
  0
LINE
  5
1AD
330
1F
100
AcDbEntity
  8
0
  6
Continuous
 62
     7
370
    25
100
AcDbLine
 10
145.1483566
 20
230.5310645196
 30
0.0
 11
145.1483566
 21
234.289834002
 31
0.0
  0
LINE
  5
1AE
330
1F
100
AcDbEntity
  8
0
  6
Continuous
 62
     7
370
    25
100
AcDbLine
 10
141.14835641
 20
234.289834002
 30
0.0
 11
141.14835641
 21
230.5310645196
 31
0.0
  0
LINE
  5
1AF
330
1F
100
AcDbEntity
  8
0
  6
Continuous
 62
     7
370
    25
100
AcDbLine
 10
141.14835641
 20
230.5310645196
 30
0.0
 11
141.14835641
 21
227.7772833649
 31
0.0
  0
LINE
  5
1B0
330
1F
100
AcDbEntity
  8
0
  6
Continuous
 62
     7
370
    25
100
AcDbLine
 10
145.1483566
 20
227.7772964034
 30
0.0
 11
145.1483566
 21
230.5310645196
 31
0.0
  0
SPLINE
  5
1B1
330
1F
100
AcDbEntity
  8
0
  6
Continuous
 62
     7
370
    25
100
AcDbSpline
210
0.0
220
0.0
230
1.0
 70
     8
 71
     3
 72
     8
 73
     4
 74
     0
 42
0.000000001
 43
0.00000001
 40
0.0
 40
0.0
 40
0.0
 40
0.0
 40
1.0
 40
1.0
 40
1.0
 40
1.0
 10
151.7592022524644
 20
115.0271710677679
 30
0.0
 10
148.8889190461022
 20
115.0270568497326
 30
0.0
 10
146.0186411677849
 20
115.0270031251912
 30
0.0
 10
143.1483630687592
 20
115.0270034169474
 30
0.0
  0
SPLINE
  5
1B2
330
1F
100
AcDbEntity
  8
0
  6
Continuous
 62
     7
370
    25
100
AcDbSpline
210
0.0
220
0.0
230
1.0
 70
     8
 71
     3
 72
     8
 73
     4
 74
     0
 42
0.000000001
 43
0.00000001
 40
0.0
 40
0.0
 40
0.0
 40
0.0
 40
1.0
 40
1.0
 40
1.0
 40
1.0
 10
143.1483499412793
 20
115.0270034169474
 30
0.0
 10
140.2780718896497
 20
115.0270031251871
 30
0.0
 10
137.4077940166376
 20
115.0270568497422
 30
0.0
 10
134.537510757574
 20
115.027171067768
 30
0.0
  0
SPLINE
  5
1B3
330
1F
100
AcDbEntity
  8
0
  6
Continuous
 62
     7
370
    25
100
AcDbSpline
210
0.0
220
0.0
230
1.0
 70
     8
 71
     3
 72
     9
 73
     5
 74
     0
 42
0.000000001
 43
0.00000001
 40
0.0
 40
0.0
 40
0.0
 40
0.0
 40
0.7745969287180648
 40
1.0
 40
1.0
 40
1.0
 40
1.0
 10
164.7558728384804
 20
127.8270294014163
 30
0.0
 10
164.90245341626
 20
137.2165664796916
 30
0.0
 10
165.0916880650755
 20
149.3384026633371
 30
0.0
 10
165.2473654907971
 20
161.460698288545
 30
0.0
 10
165.2824556606841
 20
164.1931009534544
 30
0.0
  0
LINE
  5
1B4
330
1F
100
AcDbEntity
  8
0
  6
Continuous
 62
     7
370
    25
100
AcDbLine
 10
165.4958496022
 20
180.5450019482
 30
0.0
 11
165.5432650971
 21
184.1784172747
 31
0.0
  0
LINE
  5
1B5
330
1F
100
AcDbEntity
  8
0
  6
Continuous
 62
     7
370
    25
100
AcDbLine
 10
120.7536434907
 20
184.1784340385
 30
0.0
 11
120.7912521589
 21
184.1814980898
 31
0.0
  0
LINE
  5
1B6
330
1F
100
AcDbEntity
  8
0
  6
Continuous
 62
     7
370
    25
100
AcDbLine
 10
120.7942808199
 20
194.2419900615
 30
0.0
 11
120.7536434907
 21
184.1784340385
 31
0.0
  0
SPLINE
  5
1B7
330
1F
100
AcDbEntity
  8
0
  6
Continuous
 62
     7
370
    25
100
AcDbSpline
210
0.0
220
0.0
230
1.0
 70
     8
 71
     3
 72
    10
 73
     6
 74
     0
 42
0.000000001
 43
0.00000001
 40
0.0
 40
0.0
 40
0.0
 40
0.0
 40
0.5
 40
0.5
 40
1.0
 40
1.0
 40
1.0
 40
1.0
 10
165.4670610314517
 20
203.0017476281562
 30
0.0
 10
165.5036169549648
 20
199.8634227653321
 30
0.0
 10
165.5262546870254
 20
196.72768817876
 30
0.0
 10
165.5588907916536
 20
190.4551086579382
 30
0.0
 10
165.5533703955324
 20
187.3124282630531
 30
0.0
 10
165.5430697327486
 20
184.1784336646674
 30
0.0
  0
SPLINE
  5
1B8
330
1F
100
AcDbEntity
  8
0
  6
Continuous
 62
     7
370
    25
100
AcDbSpline
210
0.0
220
0.0
230
1.0
 70
     8
 71
     3
 72
    38
 73
    34
 74
     0
 42
0.000000001
 43
0.00000001
 40
0.0
 40
0.0
 40
0.0
 40
0.0
 40
0.1250000000000021
 40
0.1250000000000021
 40
0.1875000000000032
 40
0.1875000000000032
 40
0.2500000000000042
 40
0.2500000000000042
 40
0.2812500000000049
 40
0.2812500000000049
 40
0.3125000000000055
 40
0.3125000000000055
 40
0.3750000000000065
 40
0.3750000000000065
 40
0.4375000000000074
 40
0.4375000000000074
 40
0.4687500000000074
 40
0.4687500000000074
 40
0.5000000000000074
 40
0.5000000000000074
 40
0.5625000000000074
 40
0.5625000000000074
 40
0.593750000000007
 40
0.593750000000007
 40
0.6250000000000067
 40
0.6250000000000067
 40
0.7500000000000041
 40
0.7500000000000041
 40
0.8125000000000029
 40
0.8125000000000029
 40
0.8750000000000017
 40
0.8750000000000017
 40
1.0
 40
1.0
 40
1.0
 40
1.0
 10
143.1483565050197
 20
225.3459802522124
 30
0.0
 10
141.5595828313299
 20
225.3460098683081
 30
0.0
 10
139.9870033882314
 20
225.2592967160766
 30
0.0
 10
137.6577310163959
 20
224.9706947427946
 30
0.0
 10
136.886249546595
 20
224.8480192550084
 30
0.0
 10
135.3540364961725
 20
224.5450875787616
 30
0.0
 10
134.5930617616199
 20
224.3661338198879
 30
0.0
 10
133.4608186840167
 20
224.0483224051246
 30
0.0
 10
133.0850484417462
 20
223.9335787198189
 30
0.0
 10
132.3373271003915
 20
223.6836344926794
 30
0.0
 10
131.9643162284955
 20
223.5480078956609
 30
0.0
 10
130.8592580480505
 20
223.1085963459826
 30
0.0
 10
130.1491207903052
 20
222.7753915687877
 30
0.0
 10
128.7859772713224
 20
222.0224007564087
 30
0.0
 10
128.1332545650643
 20
221.6021849974611
 30
0.0
 10
127.1998400064359
 20
220.9026498439406
 30
0.0
 10
126.8951605582815
 20
220.6570355306573
 30
0.0
 10
126.3069835247927
 20
220.147120377203
 30
0.0
 10
126.0243011465936
 20
219.8836253958108
 30
0.0
 10
125.2091251215606
 20
219.0685366855983
 30
0.0
 10
124.7091044933732
 20
218.4926371586519
 30
0.0
 10
124.0192723336961
 20
217.5837295546417
 30
0.0
 10
123.7994329868819
 20
217.273197060319
 30
0.0
 10
123.3793132697815
 20
216.6374923321341
 30
0.0
 10
123.1784147484566
 20
216.3112204143524
 30
0.0
 10
122.2301786001824
 20
214.659942874172
 30
0.0
 10
121.6498146789621
 20
213.2795248118069
 30
0.0
 10
120.9800768939745
 20
211.1419755470559
 30
0.0
 10
120.7907315113548
 20
210.4181612836047
 30
0.0
 10
120.4716242090822
 20
208.9506757152171
 30
0.0
 10
120.3426053226276
 20
208.2111101337528
 30
0.0
 10
120.0379247861744
 20
205.9897033180913
 30
0.0
 10
119.9386340205995
 20
204.4998811168697
 30
0.0
 10
119.9528676423354
 20
203.0003450430291
 30
0.0
  0
SPLINE
  5
1B9
330
1F
100
AcDbEntity
  8
0
  6
Continuous
 62
     7
370
    25
100
AcDbSpline
210
0.0
220
0.0
230
1.0
 70
     8
 71
     3
 72
    34
 73
    30
 74
     0
 42
0.000000001
 43
0.00000001
 40
0.0
 40
0.0
 40
0.0
 40
0.0
 40
0.1250000000000011
 40
0.1250000000000011
 40
0.2500000000000022
 40
0.2500000000000022
 40
0.2812500000000023
 40
0.2812500000000023
 40
0.3125000000000024
 40
0.3125000000000024
 40
0.3750000000000019
 40
0.3750000000000019
 40
0.4375000000000014
 40
0.4375000000000014
 40
0.500000000000001
 40
0.500000000000001
 40
0.6250000000000001
 40
0.6250000000000001
 40
0.65625
 40
0.65625
 40
0.6875
 40
0.6875
 40
0.7499999999999999
 40
0.7499999999999999
 40
0.8124999999999999
 40
0.8124999999999999
 40
0.8749999999999999
 40
0.8749999999999999
 40
1.0
 40
1.0
 40
1.0
 40
1.0
 10
166.3438453677012
 20
203.0003450430756
 30
0.0
 10
166.358042106962
 20
204.4959954859291
 30
0.0
 10
166.2592374017237
 20
205.9738448132122
 30
0.0
 10
165.8615776010163
 20
208.8980295331375
 30
0.0
 10
165.5604470333057
 20
210.3440064707231
 30
0.0
 10
165.0102399194338
 20
212.1240998919471
 30
0.0
 10
164.8913675948498
 20
212.478727444381
 30
0.0
 10
164.6343061740763
 20
213.1849395785487
 30
0.0
 10
164.4957107240662
 20
213.5374706334601
 30
0.0
 10
164.0511083291581
 20
214.583011523999
 30
0.0
 10
163.7180885760182
 20
215.2603953604028
 30
0.0
 10
162.9717834769423
 20
216.5721054023095
 30
0.0
 10
162.5586000265925
 20
217.2064862686252
 30
0.0
 10
161.6420992332107
 20
218.4268966249374
 30
0.0
 10
161.1349228895814
 20
219.0163307643045
 30
0.0
 10
159.511701135753
 20
220.6533653268248
 30
0.0
 10
158.28537781785
 20
221.5844103070769
 30
0.0
 10
156.5693307166632
 20
222.5445764823994
 30
0.0
 10
156.2170385079486
 20
222.7263297051138
 30
0.0
 10
155.5065467361996
 20
223.0646489745716
 30
0.0
 10
155.1468933536729
 20
223.2220492631928
 30
0.0
 10
154.055685630127
 20
223.6615731933445
 30
0.0
 10
153.3119781755826
 20
223.9112719280619
 30
0.0
 10
151.7989699041451
 20
224.3423854645387
 30
0.0
 10
151.0303702856424
 20
224.5256710866785
 30
0.0
 10
149.4726921593718
 20
224.8376039804915
 30
0.0
 10
148.6864511474693
 20
224.9639151885041
 30
0.0
 10
146.3255862446865
 20
225.2590638468195
 30
0.0
 10
144.7411426407147
 20
225.3460099428903
 30
0.0
 10
143.1483565050197
 20
225.3459802519989
 30
0.0
  0
SPLINE
  5
1BA
330
1F
100
AcDbEntity
  8
0
  6
Continuous
 62
     7
370
    25
100
AcDbSpline
210
0.0
220
0.0
230
1.0
 70
     8
 71
     3
 72
    11
 73
     7
 74
     0
 42
0.000000001
 43
0.00000001
 40
0.0
 40
0.0
 40
0.0
 40
0.0
 40
0.1525946766980007
 40
0.4887099318216048
 40
0.8288818074343647
 40
1.0
 40
1.0
 40
1.0
 40
1.0
 10
120.8298647928071
 20
196.8832632582433
 30
0.0
 10
120.7627274080775
 20
197.1161623666503
 30
0.0
 10
120.547708723128
 20
197.8620606499576
 30
0.0
 10
120.2956699299439
 20
199.1368133252476
 30
0.0
 10
120.1042483901366
 20
200.4344403677401
 30
0.0
 10
120.0389834000958
 20
201.2090249151313
 30
0.0
 10
120.0171405601334
 20
201.4682623147763
 30
0.0
  0
SPLINE
  5
1BB
330
1F
100
AcDbEntity
  8
0
  6
Continuous
 62
     7
370
    25
100
AcDbSpline
210
0.0
220
0.0
230
1.0
 70
     8
 71
     3
 72
     8
 73
     4
 74
     0
 42
0.000000001
 43
0.00000001
 40
0.0
 40
0.0
 40
0.0
 40
0.0
 40
1.0
 40
1.0
 40
1.0
 40
1.0
 10
120.0171406480526
 20
201.4682622262417
 30
0.0
 10
119.9791043706795
 20
201.9783411255432
 30
0.0
 10
119.9577387941911
 20
202.4890375744622
 30
0.0
 10
119.9528676423353
 20
203.0003450430291
 30
0.0
  0
SPLINE
  5
1BC
330
1F
100
AcDbEntity
  8
0
  6
Continuous
 62
     7
370
    25
100
AcDbSpline
210
0.0
220
0.0
230
1.0
 70
     8
 71
     3
 72
     8
 73
     4
 74
     0
 42
0.000000001
 43
0.00000001
 40
0.0
 40
0.0
 40
0.0
 40
0.0
 40
1.0
 40
1.0
 40
1.0
 40
1.0
 10
166.3438453677028
 20
203.0003450430498
 30
0.0
 10
166.3389742158471
 20
202.4890375744878
 30
0.0
 10
166.3176086393594
 20
201.9783411255382
 30
0.0
 10
166.2795723619866
 20
201.4682622262415
 30
0.0
  0
SPLINE
  5
1BD
330
1F
100
AcDbEntity
  8
0
  6
Continuous
 62
     7
370
    25
100
AcDbSpline
210
0.0
220
0.0
230
1.0
 70
     8
 71
     3
 72
    12
 73
     8
 74
     0
 42
0.000000001
 43
0.00000001
 40
0.0
 40
0.0
 40
0.0
 40
0.0
 40
0.2377638692695316
 40
0.4763432138894396
 40
0.717443797504044
 40
0.9594046962234453
 40
1.0
 40
1.0
 40
1.0
 40
1.0
 10
166.2795724499058
 20
201.4682623147763
 30
0.0
 10
166.2482636692784
 20
201.1127082431494
 30
0.0
 10
166.1855387261116
 20
200.4003806312606
 30
0.0
 10
166.0281359534491
 20
199.3167392745729
 30
0.0
 10
165.8142050006655
 20
198.2250967479613
 30
0.0
 10
165.6385918134793
 20
197.4308837917408
 30
0.0
 10
165.5099914481368
 20
197.0065339059991
 30
0.0
 10
165.4915152269434
 20
196.9455668758399
 30
0.0
  0
LINE
  5
1BE
330
1F
100
AcDbEntity
  8
0
  6
Continuous
 62
     7
370
    25
100
AcDbLine
 10
164.656336807
 20
82.4556534234
 30
0.0
 11
164.5787222463
 21
79.501565272
 31
0.0
  0
SPLINE
  5
1BF
330
1F
100
AcDbEntity
  8
0
  6
Continuous
 62
     7
370
    25
100
AcDbSpline
210
0.0
220
0.0
230
1.0
 70
     8
 71
     3
 72
    10
 73
     6
 74
     0
 42
0.000000001
 43
0.00000001
 40
0.0
 40
0.0
 40
0.0
 40
0.0
 40
0.5
 40
0.5
 40
1.0
 40
1.0
 40
1.0
 40
1.0
 10
120.7483925163644
 20
144.2448191032133
 30
0.0
 10
120.6951018719824
 20
147.9409526190751
 30
0.0
 10
120.6438948927659
 20
151.6371156632354
 30
0.0
 10
120.5446492836685
 20
159.0294836060342
 30
0.0
 10
120.496975842809
 20
162.725701938086
 30
0.0
 10
120.4450129214645
 20
166.4218435145175
 30
0.0
  0
LINE
  5
1C0
330
1F
100
AcDbEntity
  8
0
  6
Continuous
 62
     7
370
    25
100
AcDbLine
 10
120.8738064545
 20
135.4191486779
 30
0.0
 11
120.7487167942
 21
144.2448196057
 31
0.0
  0
SPLINE
  5
1C1
330
1F
100
AcDbEntity
  8
0
  6
Continuous
 62
     7
370
    25
100
AcDbSpline
210
0.0
220
0.0
230
1.0
 70
     8
 71
     3
 72
    10
 73
     6
 74
     0
 42
0.000000001
 43
0.00000001
 40
0.0
 40
0.0
 40
0.0
 40
0.0
 40
0.5
 40
0.5
 40
1.0
 40
1.0
 40
1.0
 40
1.0
 10
165.8517000885745
 20
166.4218435145174
 30
0.0
 10
165.7997371769997
 20
162.7257026330103
 30
0.0
 10
165.7520637221971
 20
159.029483292743
 30
0.0
 10
165.6528181154226
 20
151.6371155278501
 30
0.0
 10
165.6016111478487
 20
147.9409532982523
 30
0.0
 10
165.5483204936744
 20
144.2448191032132
 30
0.0
  0
LINE
  5
1C2
330
1F
100
AcDbEntity
  8
0
  6
Continuous
 62
     7
370
    25
100
AcDbLine
 10
165.5479962158
 20
144.2448196057
 30
0.0
 11
165.332840212
 21
129.070479149
 31
0.0
  0
SPLINE
  5
1C3
330
1F
100
AcDbEntity
  8
0
  6
Continuous
 62
     7
370
    25
100
AcDbSpline
210
0.0
220
0.0
230
1.0
 70
     8
 71
     3
 72
    12
 73
     8
 74
     0
 42
0.000000001
 43
0.00000001
 40
0.0
 40
0.0
 40
0.0
 40
0.0
 40
0.5
 40
0.5
 40
0.75
 40
0.75
 40
1.0
 40
1.0
 40
1.0
 40
1.0
 10
164.865776694774
 20
96.24457839205394
 30
0.0
 10
164.8329762325534
 20
93.94640994688777
 30
0.0
 10
164.7989646050582
 20
91.64826280280634
 30
0.0
 10
164.7429905893584
 20
88.20112105249665
 30
0.0
 10
164.7239075140359
 20
87.05208152173807
 30
0.0
 10
164.6895953026871
 20
84.75394540664965
 30
0.0
 10
164.6750721711253
 20
83.60483706472696
 30
0.0
 10
164.6563014249174
 20
82.45579603564043
 30
0.0
  0
SPLINE
  5
1C4
330
1F
100
AcDbEntity
  8
0
  6
Continuous
 62
     7
370
    25
100
AcDbSpline
210
0.0
220
0.0
230
1.0
 70
     8
 71
     3
 72
    12
 73
     8
 74
     0
 42
0.000000001
 43
0.00000001
 40
0.0
 40
0.0
 40
0.0
 40
0.0
 40
0.2499999999999992
 40
0.2499999999999992
 40
0.4999999999999984
 40
0.4999999999999984
 40
1.0
 40
1.0
 40
1.0
 40
1.0
 10
121.640411585121
 20
82.45579603564056
 30
0.0
 10
121.6216408389131
 20
83.60483706472706
 30
0.0
 10
121.6071177073513
 20
84.75394540664983
 30
0.0
 10
121.5728054960025
 20
87.05208152173824
 30
0.0
 10
121.5537224206801
 20
88.20112105249682
 30
0.0
 10
121.4977484049803
 20
91.64826280280654
 30
0.0
 10
121.463736777485
 20
93.9464099468878
 30
0.0
 10
121.4309363152644
 20
96.24457839205401
 30
0.0
  0
SPLINE
  5
1C5
330
1F
100
AcDbEntity
  8
0
  6
Continuous
 62
     7
370
    25
100
AcDbSpline
210
0.0
220
0.0
230
1.0
 70
     8
 71
     3
 72
    12
 73
     8
 74
     0
 42
0.000000001
 43
0.00000001
 40
0.0
 40
0.0
 40
0.0
 40
0.0
 40
0.5
 40
0.5
 40
0.75
 40
0.75
 40
1.0
 40
1.0
 40
1.0
 40
1.0
 10
120.4449494377637
 20
166.421462719783
 30
0.0
 10
120.3587467105671
 20
172.5268826029372
 30
0.0
 10
120.2703388320551
 20
178.63226902892
 30
0.0
 10
120.1389178915436
 20
187.7903669447956
 30
0.0
 10
120.0950335595019
 20
190.8430657132436
 30
0.0
 10
120.0072954027985
 20
196.9484619402595
 30
0.0
 10
119.9623253371044
 20
200.0011420424733
 30
0.0
 10
119.9142138875984
 20
203.053778193185
 30
0.0
  0
SPLINE
  5
1C6
330
1F
100
AcDbEntity
  8
0
  6
Continuous
 62
     7
370
    25
100
AcDbSpline
210
0.0
220
0.0
230
1.0
 70
     8
 71
     3
 72
    12
 73
     8
 74
     0
 42
0.000000001
 43
0.00000001
 40
0.0
 40
0.0
 40
0.0
 40
0.0
 40
0.25
 40
0.25
 40
0.5
 40
0.5
 40
1.0
 40
1.0
 40
1.0
 40
1.0
 10
166.3824991220154
 20
203.0537781661939
 30
0.0
 10
166.3343876978016
 20
200.0011436197726
 30
0.0
 10
166.2894176376473
 20
196.9484640491642
 30
0.0
 10
166.2016794735871
 20
190.8430673241928
 30
0.0
 10
166.1577951404639
 20
187.790368476589
 30
0.0
 10
166.0263741923055
 20
178.6322700250673
 30
0.0
 10
165.9379663094031
 20
172.5268833063278
 30
0.0
 10
165.8517635722752
 20
166.4214627197833
 30
0.0
  0
SPLINE
  5
1C7
330
1F
100
AcDbEntity
  8
0
  6
Continuous
 62
     7
370
    25
100
AcDbSpline
210
0.0
220
0.0
230
1.0
 70
     8
 71
     3
 72
    26
 73
    22
 74
     0
 42
0.000000001
 43
0.00000001
 40
0.0
 40
0.0
 40
0.0
 40
0.0
 40
0.0454623757487857
 40
0.0879359722976347
 40
0.1329061707204527
 40
0.1781696959219077
 40
0.2342152368515344
 40
0.2766887675138902
 40
0.321659051147474
 40
0.3669235993079005
 40
0.4229671408144952
 40
0.4711309136685254
 40
0.5555753348243266
 40
0.6116034857396161
 40
0.6597795478039871
 40
0.7442479299174721
 40
0.8002901464134058
 40
0.8484517795761353
 40
0.9328922780401063
 40
0.9889180731600921
 40
0.9999999999999999
 40
0.9999999999999999
 40
0.9999999999999999
 40
0.9999999999999999
 10
119.9506869691443
 20
196.922077057863
 30
0.0
 10
119.7627949288117
 20
197.5533440183852
 30
0.0
 10
119.3993632123318
 20
198.7743773022514
 30
0.0
 10
119.0682080281925
 20
200.6730427137013
 30
0.0
 10
118.8678196462887
 20
202.5849974272247
 30
0.0
 10
118.8228295156973
 20
204.7045250661781
 30
0.0
 10
118.9664932228518
 20
206.7845945165803
 30
0.0
 10
119.2913309794542
 20
208.8380394507612
 30
0.0
 10
119.7395164083852
 20
210.7083186509684
 30
0.0
 10
120.3979795112025
 20
212.7230869683688
 30
0.0
 10
121.254489925001
 20
214.7144207652294
 30
0.0
 10
122.5642104067215
 20
217.1138055301239
 30
0.0
 10
124.1529953311892
 20
219.3492898992401
 30
0.0
 10
126.0052095063684
 20
221.3617458851324
 30
0.0
 10
128.03493395864
 20
223.1934165301358
 30
0.0
 10
130.2752802755697
 20
224.7769200287682
 30
0.0
 10
132.6891997859813
 20
226.0625147421975
 30
0.0
 10
135.2105459600892
 20
227.1224258496403
 30
0.0
 10
137.8492116453837
 20
227.850635521079
 30
0.0
 10
140.0172913163908
 20
228.2381950442977
 30
0.0
 10
140.9880489932345
 20
228.2807941499053
 30
0.0
 10
141.1483564100247
 20
228.2878288123555
 30
0.0
  0
SPLINE
  5
1C8
330
1F
100
AcDbEntity
  8
0
  6
Continuous
 62
     7
370
    25
100
AcDbSpline
210
0.0
220
0.0
230
1.0
 70
     8
 71
     3
 72
    25
 73
    21
 74
     0
 42
0.000000001
 43
0.00000001
 40
0.0
 40
0.0
 40
0.0
 40
0.0
 40
0.0292260061515587
 40
0.1527324396347989
 40
0.1836763270827845
 40
0.2145950975229608
 40
0.3240733729644408
 40
0.4191033285800524
 40
0.5146485200480037
 40
0.6108160010978951
 40
0.6590583189019849
 40
0.6857645755257082
 40
0.7392913365355894
 40
0.7661323583705981
 40
0.7958317970824319
 40
0.8457249723575293
 40
0.8862193565523487
 40
0.9354755816229314
 40
0.977410326582304
 40
1.0
 40
1.0
 40
1.0
 40
1.0
 10
141.1484153161776
 20
227.7772833648867
 30
0.0
 10
141.1486336565481
 20
227.7761816706397
 30
0.0
 10
141.1497746833887
 20
227.7704243170962
 30
0.0
 10
141.1652225856931
 20
227.7645651321153
 30
0.0
 10
141.1928858142836
 20
227.7595373850572
 30
0.0
 10
141.2233257240783
 20
227.7552337629313
 30
0.0
 10
141.2802498249791
 20
227.7503788992197
 30
0.0
 10
141.3832195694942
 20
227.7460717597549
 30
0.0
 10
141.5120011117264
 20
227.743563317891
 30
0.0
 10
141.6498838398758
 20
227.7427443682026
 30
0.0
 10
141.7686678659957
 20
227.7427914155158
 30
0.0
 10
141.8671998173017
 20
227.7430621369429
 30
0.0
 10
141.9584778587161
 20
227.743483481394
 30
0.0
 10
142.0639876577056
 20
227.7440994638075
 30
0.0
 10
142.1750892829924
 20
227.7448049471388
 30
0.0
 10
142.3172302141712
 20
227.7457539020442
 30
0.0
 10
142.511852034256
 20
227.7469648520254
 30
0.0
 10
142.7311173975423
 20
227.7480654285134
 30
0.0
 10
142.9605972647732
 20
227.7487487852156
 30
0.0
 10
143.0996684761425
 20
227.7488100216614
 30
0.0
 10
143.1483566057785
 20
227.7488314602322
 30
0.0
  0
SPLINE
  5
1C9
330
1F
100
AcDbEntity
  8
0
  6
Continuous
 62
     7
370
    25
100
AcDbSpline
210
0.0
220
0.0
230
1.0
 70
     8
 71
     3
 72
    27
 73
    23
 74
     0
 42
0.000000001
 43
0.00000001
 40
0.0
 40
0.0
 40
0.0
 40
0.0
 40
0.0073813616641767
 40
0.0460814581660108
 40
0.0980695218861353
 40
0.1353942180565687
 40
0.2346198154390653
 40
0.2914140065620396
 40
0.3582182171508278
 40
0.4232129874569861
 40
0.4791680810559661
 40
0.5593204328316699
 40
0.6117405853318061
 40
0.6458366605035911
 40
0.7086793392307505
 40
0.7672154766980885
 40
0.8003599131099218
 40
0.8457365165624074
 40
0.9103603318259543
 40
0.9438792588037015
 40
0.988924883177256
 40
0.9999999999999999
 40
0.9999999999999999
 40
0.9999999999999999
 40
0.9999999999999999
 10
166.3445247489047
 20
196.8942621778495
 30
0.0
 10
166.3802532913783
 20
196.9950541825187
 30
0.0
 10
166.6033047296141
 20
197.6242934418781
 30
0.0
 10
166.9266154962887
 20
199.0112989745338
 30
0.0
 10
167.2580887106523
 20
200.8366769861767
 30
0.0
 10
167.5056332898917
 20
203.5584186995195
 30
0.0
 10
167.4221764772768
 20
206.3749804401772
 30
0.0
 10
166.87571186427
 20
209.5604696591949
 30
0.0
 10
166.1175961441413
 20
212.1920225455108
 30
0.0
 10
165.0606549015565
 20
214.7046312130758
 30
0.0
 10
163.6450746704495
 20
217.2553394936063
 30
0.0
 10
162.0342945563497
 20
219.4733974826314
 30
0.0
 10
160.3914882378977
 20
221.2469668221806
 30
0.0
 10
158.8028218721583
 20
222.7171050305921
 30
0.0
 10
157.0193180964377
 20
224.1005642766464
 30
0.0
 10
155.1089605131242
 20
225.2748721108498
 30
0.0
 10
153.3374758197916
 20
226.1734133499234
 30
0.0
 10
151.424769711366
 20
226.9784947757765
 30
0.0
 10
149.4344820601769
 20
227.6004264352443
 30
0.0
 10
147.4055311286976
 20
228.0274135321836
 30
0.0
 10
146.1210416395043
 20
228.2460668939677
 30
0.0
 10
145.3086730356054
 20
228.2809456779106
 30
0.0
 10
145.1483566000145
 20
228.2878288123555
 30
0.0
  0
SPLINE
  5
1CA
330
1F
100
AcDbEntity
  8
0
  6
Continuous
 62
     7
370
    25
100
AcDbSpline
210
0.0
220
0.0
230
1.0
 70
     8
 71
     3
 72
    26
 73
    22
 74
     0
 42
0.000000001
 43
0.00000001
 40
0.0
 40
0.0
 40
0.0
 40
0.0
 40
0.0398374809614207
 40
0.089633815686606
 40
0.1756610012681322
 40
0.2056077796622858
 40
0.2659227874910468
 40
0.3271356203236113
 40
0.3890483615901932
 40
0.4200679932978306
 40
0.4752456311464784
 40
0.502859114444065
 40
0.530422549277824
 40
0.6415616402459824
 40
0.669424053215316
 40
0.6972587195789733
 40
0.8099563399618595
 40
0.8383912941756627
 40
0.8668050973286439
 40
0.9809184971053972
 40
1.0
 40
1.0
 40
1.0
 40
1.0
 10
143.1483566057785
 20
227.7488314602322
 30
0.0
 10
143.2343906754242
 20
227.7487622049251
 30
0.0
 10
143.4279662167307
 20
227.748606381382
 30
0.0
 10
143.7526970573534
 20
227.747220748477
 30
0.0
 10
143.981719387653
 20
227.7457323430894
 30
0.0
 10
144.1829264405083
 20
227.7444075845008
 30
0.0
 10
144.3323010382259
 20
227.7434831823759
 30
0.0
 10
144.4844993947753
 20
227.7428361779728
 30
0.0
 10
144.593210137542
 20
227.7427393916298
 30
0.0
 10
144.6861960852222
 20
227.742994648278
 30
0.0
 10
144.7501393781776
 20
227.7434560299767
 30
0.0
 10
144.8059992831013
 20
227.7441488962613
 30
0.0
 10
144.8843244910767
 20
227.7454568268138
 30
0.0
 10
144.9488980272524
 20
227.7474237960564
 30
0.0
 10
145.0016689553873
 20
227.7500960653271
 30
0.0
 10
145.0502280146102
 20
227.7530820587427
 30
0.0
 10
145.0874149932036
 20
227.756812357319
 30
0.0
 10
145.113943978036
 20
227.7613189280819
 30
0.0
 10
145.1362274093502
 20
227.7661886732298
 30
0.0
 10
145.1479860266783
 20
227.7714812983145
 30
0.0
 10
145.1480979555524
 20
227.7765693515044
 30
0.0
 10
145.1481139904838
 20
227.7772982660479
 30
0.0
  0
LINE
  5
1CB
330
1F
100
AcDbEntity
  8
0
  6
Continuous
 62
     7
370
    25
100
AcDbLine
 10
141.14835641
 20
247.2898361329
 30
0.0
 11
145.1483566
 21
247.2898361329
 31
0.0
  0
SPLINE
  5
1CC
330
1F
100
AcDbEntity
  8
0
  6
Continuous
 62
     8
370
    18
100
AcDbSpline
210
0.0
220
0.0
230
1.0
 70
     8
 71
     3
 72
    18
 73
    14
 74
     0
 42
0.000000001
 43
0.00000001
 40
0.0
 40
0.0
 40
0.0
 40
0.0
 40
0.25
 40
0.25
 40
0.375
 40
0.375
 40
0.5
 40
0.5
 40
0.625
 40
0.625
 40
0.75
 40
0.75
 40
1.0
 40
1.0
 40
1.0
 40
1.0
 10
122.7455611898134
 20
127.8304819379321
 30
0.0
 10
122.7715734710158
 20
126.213049922454
 30
0.0
 10
122.8035028186623
 20
124.5801844669398
 30
0.0
 10
123.3067625155631
 20
122.1981416203398
 30
0.0
 10
123.5643419808244
 20
121.4076111890582
 30
0.0
 10
124.2921524637272
 20
119.942511095958
 30
0.0
 10
124.772625964754
 20
119.254130773998
 30
0.0
 10
125.9363139982215
 20
118.1142726281015
 30
0.0
 10
126.6343526717008
 20
117.6475143201809
 30
0.0
 10
128.1113584296521
 20
116.9474230903283
 30
0.0
 10
128.907076054857
 20
116.7031160537271
 30
0.0
 10
131.3014468710498
 20
116.2377511099906
 30
0.0
 10
132.9179422991411
 20
116.2303170790197
 30
0.0
 10
134.5291580949139
 20
116.2273823732916
 30
0.0
  0
SPLINE
  5
1CD
330
1F
100
AcDbEntity
  8
0
  6
Continuous
 62
     8
370
    18
100
AcDbSpline
210
0.0
220
0.0
230
1.0
 70
     8
 71
     3
 72
    18
 73
    14
 74
     0
 42
0.000000001
 43
0.00000001
 40
0.0
 40
0.0
 40
0.0
 40
0.0
 40
0.2500000000000002
 40
0.2500000000000002
 40
0.3750000000000001
 40
0.3750000000000001
 40
0.5000000000000001
 40
0.5000000000000001
 40
0.6250000000000001
 40
0.6250000000000001
 40
0.75
 40
0.75
 40
1.0
 40
1.0
 40
1.0
 40
1.0
 10
151.7675549151245
 20
116.2273823732915
 30
0.0
 10
153.383406274512
 20
116.2303255223208
 30
0.0
 10
155.0254060040203
 20
116.2398163644546
 30
0.0
 10
157.4152929500208
 20
116.7100476449693
 30
0.0
 10
158.2094925437669
 20
116.9560547690952
 30
0.0
 10
159.6864442133694
 20
117.6618326144734
 30
0.0
 10
160.3829488273263
 20
118.1316173916784
 30
0.0
 10
161.5416212600069
 20
119.2762157830013
 30
0.0
 10
162.0168705847248
 20
119.9625360756064
 30
0.0
 10
162.7396841689955
 20
121.4272187262181
 30
0.0
 10
162.9944350807829
 20
122.2133478269615
 30
0.0
 10
163.4955802730257
 20
124.6036494236259
 30
0.0
 10
163.5252281979151
 20
126.2185627147988
 30
0.0
 10
163.5511518202251
 20
127.830481937932
 30
0.0
  0
SPLINE
  5
1CE
330
1F
100
AcDbEntity
  8
0
  6
Continuous
 62
     8
370
    18
100
AcDbSpline
210
0.0
220
0.0
230
1.0
 70
     8
 71
     3
 72
     8
 73
     4
 74
     0
 42
0.000000001
 43
0.00000001
 40
0.0
 40
0.0
 40
0.0
 40
0.0
 40
1.0
 40
1.0
 40
1.0
 40
1.0
 10
134.5348552535873
 20
116.2273730077146
 30
0.0
 10
137.406059645992
 20
116.2243896115275
 30
0.0
 10
140.2772015447167
 20
116.2229801107637
 30
0.0
 10
143.1483565050193
 20
116.2229869667279
 30
0.0
  0
SPLINE
  5
1CF
330
1F
100
AcDbEntity
  8
0
  6
Continuous
 62
     8
370
    18
100
AcDbSpline
210
0.0
220
0.0
230
1.0
 70
     8
 71
     3
 72
     8
 73
     4
 74
     0
 42
0.000000001
 43
0.00000001
 40
0.0
 40
0.0
 40
0.0
 40
0.0
 40
1.0
 40
1.0
 40
1.0
 40
1.0
 10
143.1483565050192
 20
116.222986966728
 30
0.0
 10
146.0195115127516
 20
116.2229801107664
 30
0.0
 10
148.8906534167449
 20
116.2243896114439
 30
0.0
 10
151.7618577564511
 20
116.2273730077146
 30
0.0
  0
SPLINE
  5
1D0
330
1F
100
AcDbEntity
  8
0
  6
Continuous
 62
     8
370
    18
100
AcDbSpline
210
0.0
220
0.0
230
1.0
 70
     8
 71
     3
 72
    10
 73
     6
 74
     0
 42
0.000000001
 43
0.00000001
 40
0.0
 40
0.0
 40
0.0
 40
0.0
 40
0.5
 40
0.5
 40
1.0
 40
1.0
 40
1.0
 40
1.0
 10
164.3318443525792
 20
184.1982159639213
 30
0.0
 10
164.3365600761246
 20
187.3337463215765
 30
0.0
 10
164.3395991398182
 20
190.4665083220633
 30
0.0
 10
164.2843534460717
 20
196.7343923809306
 30
0.0
 10
164.2436817639945
 20
199.8682659000712
 30
0.0
 10
164.2059351260233
 20
203.0017810345884
 30
0.0
  0
SPLINE
  5
1D1
330
1F
100
AcDbEntity
  8
0
  6
Continuous
 62
     8
370
    18
100
AcDbSpline
210
0.0
220
0.0
230
1.0
 70
     8
 71
     3
 72
    12
 73
     8
 74
     0
 42
0.000000001
 43
0.00000001
 40
0.0
 40
0.0
 40
0.0
 40
0.0
 40
0.5
 40
0.5
 40
0.75
 40
0.75
 40
1.0
 40
1.0
 40
1.0
 40
1.0
 10
163.5516393539706
 20
127.8610509475679
 30
0.0
 10
163.6897550627563
 20
137.250684629628
 30
0.0
 10
163.8281619847101
 20
146.6403135823977
 30
0.0
 10
164.0360636693661
 20
160.7247522406282
 30
0.0
 10
164.1053922773569
 20
165.4195646554296
 30
0.0
 10
164.2441795991212
 20
174.8091873574809
 30
0.0
 10
164.309755106565
 20
179.504369020521
 30
0.0
 10
164.3313725085063
 20
184.2001176839265
 30
0.0
  0
SPLINE
  5
1D2
330
1F
100
AcDbEntity
  8
0
  6
Continuous
 62
     8
370
    18
100
AcDbSpline
210
0.0
220
0.0
230
1.0
 70
     8
 71
     3
 72
    10
 73
     6
 74
     0
 42
0.000000001
 43
0.00000001
 40
0.0
 40
0.0
 40
0.0
 40
0.0
 40
0.4999999999999999
 40
0.4999999999999999
 40
1.0
 40
1.0
 40
1.0
 40
1.0
 10
122.0907778840159
 20
203.0017810345886
 30
0.0
 10
122.0530312462307
 20
199.868265900063
 30
0.0
 10
122.0123595639157
 20
196.7343923809399
 30
0.0
 10
121.9571138702724
 20
190.4665083220546
 30
0.0
 10
121.9601529338871
 20
187.3337463215833
 30
0.0
 10
121.9648686574598
 20
184.1982159639214
 30
0.0
  0
SPLINE
  5
1D3
330
1F
100
AcDbEntity
  8
0
  6
Continuous
 62
     8
370
    18
100
AcDbSpline
210
0.0
220
0.0
230
1.0
 70
     8
 71
     3
 72
    12
 73
     8
 74
     0
 42
0.000000001
 43
0.00000001
 40
0.0
 40
0.0
 40
0.0
 40
0.0
 40
0.2499999999999998
 40
0.2499999999999998
 40
0.4999999999999999
 40
0.4999999999999999
 40
1.0
 40
1.0
 40
1.0
 40
1.0
 10
121.9653405015326
 20
184.2001176839267
 30
0.0
 10
121.9869566013503
 20
179.5046518724029
 30
0.0
 10
122.052529151035
 20
174.8094753678977
 30
0.0
 10
122.1913173300261
 20
165.4197950521948
 30
0.0
 10
122.2606463636838
 20
160.7249538424629
 30
0.0
 10
122.4685493270873
 20
146.6404287834245
 30
0.0
 10
122.6069570996414
 20
137.2507422305183
 30
0.0
 10
122.7450736560678
 20
127.8610509475681
 30
0.0
  0
LWPOLYLINE
  5
1D4
330
1F
100
AcDbEntity
  8
0
  6
Continuous
 62
     8
370
    18
100
AcDbPolyline
 90
        9
 70
   128
 43
0.0
 10
143.1483499413
 20
115.0270064417
 10
143.1483511865
 20
115.041728789
 10
143.1483523866
 20
115.1030992213
 10
143.148353498
 20
115.2089049164
 10
143.1483544806
 20
115.3553013745
 10
143.1483552986
 20
115.5369837824
 10
143.1483559224
 20
115.7473732773
 10
143.1483563295
 20
115.9788330141
 10
143.148356505
 20
116.2229885403
  0
SPLINE
  5
1D5
330
1F
100
AcDbEntity
  8
0
  6
Continuous
 62
     8
370
    18
100
AcDbSpline
210
0.0
220
0.0
230
1.0
 70
     8
 71
     3
 72
    14
 73
    10
 74
     0
 42
0.000000001
 43
0.00000001
 40
0.0
 40
0.0
 40
0.0
 40
0.0
 40
0.25
 40
0.25
 40
0.5
 40
0.5
 40
0.75
 40
0.75
 40
1.0
 40
1.0
 40
1.0
 40
1.0
 10
164.3313725085063
 20
184.2001176839265
 30
0.0
 10
164.4811010096156
 20
184.1993036501905
 30
0.0
 10
164.6406213790136
 20
184.1981120329476
 30
0.0
 10
164.9456003518358
 20
184.1949888498896
 30
0.0
 10
165.0901324152479
 20
184.1930577031644
 30
0.0
 10
165.3254879822367
 20
184.1888433315347
 30
0.0
 10
165.4155707670366
 20
184.1865733702392
 30
0.0
 10
165.5267666794415
 20
184.1822443580859
 30
0.0
 10
165.5482937225365
 20
184.1801940673994
 30
0.0
 10
165.5432651214202
 20
184.1784170464128
 30
0.0
  0
SPLINE
  5
1D6
330
1F
100
AcDbEntity
  8
0
  6
Continuous
 62
     8
370
    18
100
AcDbSpline
210
0.0
220
0.0
230
1.0
 70
     8
 71
     3
 72
    13
 73
     9
 74
     0
 42
0.000000001
 43
0.00000001
 40
0.0
 40
0.0
 40
0.0
 40
0.0
 40
0.1303891270082124
 40
0.2777032909077698
 40
0.4280340862446041
 40
0.5783632487602055
 40
0.7256789702471418
 40
1.0
 40
1.0
 40
1.0
 40
1.0
 10
120.7912521588635
 20
184.1814980897851
 30
0.0
 10
120.7981333978305
 20
184.1824234705367
 30
0.0
 10
120.8127890884582
 20
184.1843943502101
 30
0.0
 10
120.929247144643
 20
184.1874395607717
 30
0.0
 10
121.0811850460258
 20
184.1904403084509
 30
0.0
 10
121.2763750625267
 20
184.1931322023343
 30
0.0
 10
121.5627135521386
 20
184.1961238132004
 30
0.0
 10
121.806354362456
 20
184.1973909307934
 30
0.0
 10
121.9648694771361
 20
184.1982153299994
 30
0.0
  0
SPLINE
  5
1D7
330
1F
100
AcDbEntity
  8
0
  6
Continuous
 62
     8
370
    18
100
AcDbSpline
210
0.0
220
0.0
230
1.0
 70
     8
 71
     3
 72
    24
 73
    20
 74
     0
 42
0.000000001
 43
0.00000001
 40
0.0
 40
0.0
 40
0.0
 40
0.0
 40
0.1250000000000003
 40
0.1250000000000003
 40
0.2500000000000003
 40
0.2500000000000003
 40
0.3750000000000004
 40
0.3750000000000004
 40
0.5000000000000004
 40
0.5000000000000004
 40
0.6250000000000004
 40
0.6250000000000004
 40
0.7500000000000002
 40
0.7500000000000002
 40
0.8125000000000002
 40
0.8125000000000002
 40
0.8750000000000002
 40
0.8750000000000002
 40
1.0
 40
1.0
 40
1.0
 40
1.0
 10
143.1483562016604
 20
220.5978977729578
 30
0.0
 10
141.7768345900471
 20
220.5978932358385
 30
0.0
 10
140.405355406814
 20
220.5946432756128
 30
0.0
 10
137.6628326649747
 20
220.5773589590697
 30
0.0
 10
136.2922238762897
 20
220.5846768869218
 30
0.0
 10
133.5376076874692
 20
220.4527000374116
 30
0.0
 10
132.1649859799902
 20
220.266858929929
 30
0.0
 10
129.5326591486304
 20
219.4280335054448
 30
0.0
 10
128.2913018162554
 20
218.7855995082969
 30
0.0
 10
126.0875993062912
 20
217.1237920002698
 30
0.0
 10
125.1204885715745
 20
216.1087095753446
 30
0.0
 10
123.5684862469221
 20
213.8229507568396
 30
0.0
 10
122.9843683349051
 20
212.5427260636629
 30
0.0
 10
122.464210136716
 20
210.5386650104326
 30
0.0
 10
122.3466569466807
 20
209.8485317784639
 30
0.0
 10
122.2012293285364
 20
208.4744943326139
 30
0.0
 10
122.171349606573
 20
207.787755121058
 30
0.0
 10
122.1211539888598
 20
205.7325256561133
 30
0.0
 10
122.110538212338
 20
204.3695351024238
 30
0.0
 10
122.0904226341446
 20
203.0017810345864
 30
0.0
  0
SPLINE
  5
1D8
330
1F
100
AcDbEntity
  8
0
  6
Continuous
 62
     8
370
    18
100
AcDbSpline
210
0.0
220
0.0
230
1.0
 70
     8
 71
     3
 72
    22
 73
    18
 74
     0
 42
0.000000001
 43
0.00000001
 40
0.0
 40
0.0
 40
0.0
 40
0.0
 40
0.1250000000000001
 40
0.1250000000000001
 40
0.25
 40
0.25
 40
0.375
 40
0.375
 40
0.4999999999999999
 40
0.4999999999999999
 40
0.6249999999999999
 40
0.6249999999999999
 40
0.75
 40
0.75
 40
0.875
 40
0.875
 40
1.0
 40
1.0
 40
1.0
 40
1.0
 10
164.2062903758946
 20
203.0017810345862
 30
0.0
 10
164.1862624433573
 20
204.3635756574585
 30
0.0
 10
164.1753897634626
 20
205.7205257372757
 30
0.0
 10
164.1096704308533
 20
208.4489766422138
 30
0.0
 10
164.0161488938447
 20
209.8216180183203
 30
0.0
 10
163.3125724132532
 20
212.5512057114059
 30
0.0
 10
162.7350051238287
 20
213.8162651995836
 30
0.0
 10
161.1509521187879
 20
216.1425939108773
 30
0.0
 10
160.1876447451078
 20
217.147910577675
 30
0.0
 10
157.9351633950627
 20
218.8303142730029
 30
0.0
 10
156.6954974116598
 20
219.4611638227512
 30
0.0
 10
154.01453794542
 20
220.2921064912249
 30
0.0
 10
152.6504633900841
 20
220.4620990157791
 30
0.0
 10
149.9309002545142
 20
220.5837156194314
 30
0.0
 10
148.5750147447043
 20
220.5778556519509
 30
0.0
 10
145.8625102842147
 20
220.5946952425426
 30
0.0
 10
144.5056341492361
 20
220.5978932829782
 30
0.0
 10
143.1483568083789
 20
220.5978977729578
 30
0.0
  0
LINE
  5
1D9
330
1F
100
AcDbEntity
  8
0
  6
Continuous
 62
     8
370
    18
100
AcDbLine
 10
120.8296524513
 20
203.0017476817
 30
0.0
 11
120.7942808199
 21
194.2419900615
 31
0.0
  0
SPLINE
  5
1DA
330
1F
100
AcDbEntity
  8
0
  6
Continuous
 62
     8
370
    18
100
AcDbSpline
210
0.0
220
0.0
230
1.0
 70
     8
 71
     3
 72
    24
 73
    20
 74
     0
 42
0.000000001
 43
0.00000001
 40
0.0
 40
0.0
 40
0.0
 40
0.0
 40
0.125
 40
0.125
 40
0.1874999999999999
 40
0.1874999999999999
 40
0.2499999999999999
 40
0.2499999999999999
 40
0.3749999999999998
 40
0.3749999999999998
 40
0.4999999999999997
 40
0.4999999999999997
 40
0.6249999999999999
 40
0.6249999999999999
 40
0.7499999999999999
 40
0.7499999999999999
 40
0.875
 40
0.875
 40
1.0
 40
1.0
 40
1.0
 40
1.0
 10
120.829492853627
 20
203.0036614213627
 30
0.0
 10
120.8487139230063
 20
204.3860656819891
 30
0.0
 10
120.8614904936064
 20
205.7205749940643
 30
0.0
 10
120.9202913056012
 20
207.8253382814015
 30
0.0
 10
120.953689695386
 20
208.5448615205176
 30
0.0
 10
121.1147307965837
 20
210.0202926697788
 30
0.0
 10
121.2444933688127
 20
210.7732287739612
 30
0.0
 10
121.81972081718
 20
212.9745273622788
 30
0.0
 10
122.4645951530853
 20
214.3911174727586
 30
0.0
 10
124.166812169953
 20
216.9081036976286
 30
0.0
 10
125.2230913817501
 20
218.0238265968246
 30
0.0
 10
127.642629368853
 20
219.8613087052492
 30
0.0
 10
129.0111274142257
 20
220.5766217542037
 30
0.0
 10
131.9131118952453
 20
221.5141385602805
 30
0.0
 10
133.4092658363786
 20
221.7186751653842
 30
0.0
 10
136.2814392951427
 20
221.8764800055158
 30
0.0
 10
137.6373245904847
 20
221.8808669689369
 30
0.0
 10
140.3926886817349
 20
221.9167193843576
 30
0.0
 10
141.7705047867469
 20
221.9251307611324
 30
0.0
 10
143.1483565050197
 20
221.9251314581823
 30
0.0
  0
LINE
  5
1DB
330
1F
100
AcDbEntity
  8
0
  6
Continuous
 62
     8
370
    18
100
AcDbLine
 10
143.148356505
 20
221.9251317028
 30
0.0
 11
143.1483568084
 21
220.5978983138
 31
0.0
  0
SPLINE
  5
1DC
330
1F
100
AcDbEntity
  8
0
  6
Continuous
 62
     8
370
    18
100
AcDbSpline
210
0.0
220
0.0
230
1.0
 70
     8
 71
     3
 72
    22
 73
    18
 74
     0
 42
0.000000001
 43
0.00000001
 40
0.0
 40
0.0
 40
0.0
 40
0.0
 40
0.1249999999999999
 40
0.1249999999999999
 40
0.2499999999999999
 40
0.2499999999999999
 40
0.3749999999999998
 40
0.3749999999999998
 40
0.4999999999999998
 40
0.4999999999999998
 40
0.6249999999999998
 40
0.6249999999999998
 40
0.7499999999999999
 40
0.7499999999999999
 40
0.8749999999999999
 40
0.8749999999999999
 40
1.0
 40
1.0
 40
1.0
 40
1.0
 10
143.1483565050196
 20
221.9251314581823
 30
0.0
 10
144.5119039882456
 20
221.925130768322
 30
0.0
 10
145.8750368440698
 20
221.9168893231399
 30
0.0
 10
148.6002521191386
 20
221.8818370886908
 30
0.0
 10
149.9414809726128
 20
221.8760048135501
 30
0.0
 10
152.7714226357732
 20
221.7292832397718
 30
0.0
 10
154.2559687966257
 20
221.542097770942
 30
0.0
 10
157.2085490233159
 20
220.6138912667415
 30
0.0
 10
158.5767773779975
 20
219.9109213950488
 30
0.0
 10
161.0502211020167
 20
218.0503306534551
 30
0.0
 10
162.1022117468495
 20
216.9453957527836
 30
0.0
 10
163.8395233444465
 20
214.3837753915776
 30
0.0
 10
164.4772456533077
 20
212.9836532794489
 30
0.0
 10
165.2553066641181
 20
209.9858018963465
 30
0.0
 10
165.3579968777877
 20
208.501925527978
 30
0.0
 10
165.4350663524557
 20
205.7088640215636
 30
0.0
 10
165.4480837150594
 20
204.3799791247573
 30
0.0
 10
165.4672201564121
 20
203.0036614213625
 30
0.0
  0
LINE
  5
1DD
330
1F
100
AcDbEntity
  8
0
  6
Continuous
 62
     8
370
    18
100
AcDbLine
 10
143.1483564837
 20
226.2124286089
 30
0.0
 11
143.1483565044
 21
225.3512290362
 31
0.0
  0
SPLINE
  5
1DE
330
1F
100
AcDbEntity
  8
0
  6
Continuous
 62
     8
370
    18
100
AcDbSpline
210
0.0
220
0.0
230
1.0
 70
     8
 71
     3
 72
    36
 73
    32
 74
     0
 42
0.000000001
 43
0.00000001
 40
0.0
 40
0.0
 40
0.0
 40
0.0
 40
0.1250000000000032
 40
0.1250000000000032
 40
0.2500000000000065
 40
0.2500000000000065
 40
0.3125000000000078
 40
0.3125000000000078
 40
0.3750000000000092
 40
0.3750000000000092
 40
0.4375000000000103
 40
0.4375000000000103
 40
0.5000000000000114
 40
0.5000000000000114
 40
0.5312500000000122
 40
0.5312500000000122
 40
0.5625000000000131
 40
0.5625000000000131
 40
0.6250000000000114
 40
0.6250000000000114
 40
0.6875000000000099
 40
0.6875000000000099
 40
0.7500000000000082
 40
0.7500000000000082
 40
0.8750000000000052
 40
0.8750000000000052
 40
0.9375000000000026
 40
0.9375000000000026
 40
0.9687500000000013
 40
0.9687500000000013
 40
1.0
 40
1.0
 40
1.0
 40
1.0
 10
151.5589752467658
 20
70.87613677484418
 30
0.0
 10
152.3868865852298
 20
70.89124524442776
 30
0.0
 10
153.2174831442926
 20
70.90922033836976
 30
0.0
 10
154.8739580530626
 20
70.96841009962603
 30
0.0
 10
155.7014886076334
 20
71.00705262266023
 30
0.0
 10
156.9345504306356
 20
71.1712688617057
 30
0.0
 10
157.3441645156876
 20
71.24415774534022
 30
0.0
 10
158.1591746398447
 20
71.44436675532624
 30
0.0
 10
158.5578883763475
 20
71.57042908255822
 30
0.0
 10
159.3279362690405
 20
71.88458334874255
 30
0.0
 10
159.7015487245512
 20
72.07309058196938
 30
0.0
 10
160.4139440262555
 20
72.5190489527757
 30
0.0
 10
160.7441979278177
 20
72.77097034142135
 30
0.0
 10
161.1983877074349
 20
73.19482318792124
 30
0.0
 10
161.342891554312
 20
73.34379996966732
 30
0.0
 10
161.6177895198785
 20
73.65750223456345
 30
0.0
 10
161.7488792126951
 20
73.82323221487815
 30
0.0
 10
162.1145772807584
 20
74.3355746565909
 30
0.0
 10
162.3222372204672
 20
74.6964746521598
 30
0.0
 10
162.6721699530825
 20
75.45326673057563
 30
0.0
 10
162.8143668766975
 20
75.8527067326176
 30
0.0
 10
163.0283980052404
 20
76.65826300336776
 30
0.0
 10
163.1027345738392
 20
77.06648908628071
 30
0.0
 10
163.265866698507
 20
78.30115507208725
 30
0.0
 10
163.2962802461944
 20
79.13790136662999
 30
0.0
 10
163.3313745798657
 20
80.38957768650711
 30
0.0
 10
163.3406453554913
 20
80.80686798853225
 30
0.0
 10
163.3532434905558
 20
81.4328392262242
 30
0.0
 10
163.3571757858706
 20
81.64150353264519
 30
0.0
 10
163.3646157399578
 20
82.05884353094865
 30
0.0
 10
163.3681492245977
 20
82.26921274712745
 30
0.0
 10
163.3714744586196
 20
82.47619855452666
 30
0.0
  0
SPLINE
  5
1DF
330
1F
100
AcDbEntity
  8
0
  6
Continuous
 62
     8
370
    18
100
AcDbSpline
210
0.0
220
0.0
230
1.0
 70
     8
 71
     3
 72
    12
 73
     8
 74
     0
 42
0.000000001
 43
0.00000001
 40
0.0
 40
0.0
 40
0.0
 40
0.0
 40
0.5
 40
0.5
 40
0.75
 40
0.75
 40
1.0
 40
1.0
 40
1.0
 40
1.0
 10
122.7166487277062
 20
96.26293379236466
 30
0.0
 10
122.7494632388053
 20
93.96513859351255
 30
0.0
 10
122.7834772966934
 20
91.667361595529
 30
0.0
 10
122.8394495935843
 20
88.22077122348563
 30
0.0
 10
122.8584833316309
 20
87.07191346252414
 30
0.0
 10
122.8926342535195
 20
84.77413853494394
 30
0.0
 10
122.9071751316801
 20
83.62521268535382
 30
0.0
 10
122.9257174503235
 20
82.47634744221375
 30
0.0
  0
LINE
  5
1E0
330
1F
100
AcDbEntity
  8
0
  6
Continuous
 62
     8
370
    18
100
AcDbLine
 10
122.3586736399
 20
121.4269881192
 30
0.0
 11
122.7166460979
 21
96.2631662432
 31
0.0
  0
LWPOLYLINE
  5
1E1
330
1F
100
AcDbEntity
  8
0
  6
Continuous
 62
     8
370
    18
100
AcDbPolyline
 90
        4
 70
   128
 43
0.0
 10
163.5800669122
 20
96.2631662432
 10
163.7512086111
 20
108.2631309572
 10
163.9220392483
 20
120.2630882207
 10
163.9392240125
 20
121.47216844
  0
SPLINE
  5
1E2
330
1F
100
AcDbEntity
  8
0
  6
Continuous
 62
     8
370
    18
100
AcDbSpline
210
0.0
220
0.0
230
1.0
 70
     8
 71
     3
 72
    12
 73
     8
 74
     0
 42
0.000000001
 43
0.00000001
 40
0.0
 40
0.0
 40
0.0
 40
0.0
 40
0.25
 40
0.25
 40
0.5
 40
0.5
 40
1.0
 40
1.0
 40
1.0
 40
1.0
 10
163.3709955597149
 20
82.47634744221365
 30
0.0
 10
163.3895378783583
 20
83.6252126853537
 30
0.0
 10
163.4040787565189
 20
84.7741385349438
 30
0.0
 10
163.4382296784075
 20
87.071913462524
 30
0.0
 10
163.4572634164541
 20
88.22077122348546
 30
0.0
 10
163.5132357133451
 20
91.6673615955288
 30
0.0
 10
163.5472497712332
 20
93.96513859351231
 30
0.0
 10
163.5800642823323
 20
96.26293379236444
 30
0.0
  0
SPLINE
  5
1E3
330
1F
100
AcDbEntity
  8
0
  6
Continuous
 62
     8
370
    18
100
AcDbSpline
210
0.0
220
0.0
230
1.0
 70
     8
 71
     3
 72
    10
 73
     6
 74
     0
 42
0.000000001
 43
0.00000001
 40
0.0
 40
0.0
 40
0.0
 40
0.0
 40
0.5
 40
0.5
 40
1.0
 40
1.0
 40
1.0
 40
1.0
 10
143.1483565050191
 20
70.82007830566796
 30
0.0
 10
144.5501908705285
 20
70.82007809836165
 30
0.0
 10
145.9520220552821
 20
70.82027859595593
 30
0.0
 10
148.7555776032557
 20
70.83639664419069
 30
0.0
 10
150.1574060762822
 20
70.8507203825358
 30
0.0
 10
151.5589752467657
 20
70.87619131219282
 30
0.0
  0
SPLINE
  5
1E4
330
1F
100
AcDbEntity
  8
0
  6
Continuous
 62
     8
370
    18
100
AcDbSpline
210
0.0
220
0.0
230
1.0
 70
     8
 71
     3
 72
    10
 73
     6
 74
     0
 42
0.000000001
 43
0.00000001
 40
0.0
 40
0.0
 40
0.0
 40
0.0
 40
0.5
 40
0.5
 40
1.0
 40
1.0
 40
1.0
 40
1.0
 10
134.7377377632726
 20
70.87619131219287
 30
0.0
 10
136.1393186001401
 20
70.85072016987958
 30
0.0
 10
137.5410950308994
 20
70.83639691067305
 30
0.0
 10
140.344706303571
 20
70.82027847335813
 30
0.0
 10
141.7465304799662
 20
70.82007809836308
 30
0.0
 10
143.1483565050191
 20
70.82007830566785
 30
0.0
  0
SPLINE
  5
1E5
330
1F
100
AcDbEntity
  8
0
  6
Continuous
 62
     8
370
    18
100
AcDbSpline
210
0.0
220
0.0
230
1.0
 70
     8
 71
     3
 72
    32
 73
    28
 74
     0
 42
0.000000001
 43
0.00000001
 40
0.0
 40
0.0
 40
0.0
 40
0.0
 40
0.1250000000000044
 40
0.1250000000000044
 40
0.2500000000000087
 40
0.2500000000000087
 40
0.3125000000000088
 40
0.3125000000000088
 40
0.3437500000000089
 40
0.3437500000000089
 40
0.3750000000000089
 40
0.3750000000000089
 40
0.4375000000000053
 40
0.4375000000000053
 40
0.4687500000000036
 40
0.4687500000000036
 40
0.5000000000000019
 40
0.5000000000000019
 40
0.5625000000000018
 40
0.5625000000000018
 40
0.6250000000000016
 40
0.6250000000000016
 40
0.750000000000001
 40
0.750000000000001
 40
0.8750000000000006
 40
0.8750000000000006
 40
1.0
 40
1.0
 40
1.0
 40
1.0
 10
122.9252385514188
 20
82.4761985545268
 30
0.0
 10
122.9386317740149
 20
81.64251050939534
 30
0.0
 10
122.9536175814434
 20
80.80838887081173
 30
0.0
 10
123.000314725313
 20
79.14133887979877
 30
0.0
 10
123.0301857367949
 20
78.30624344343305
 30
0.0
 10
123.1942742314012
 20
77.06420596867717
 30
0.0
 10
123.2690467034744
 20
76.65528287370286
 30
0.0
 10
123.4288977251712
 20
76.0539858896699
 30
0.0
 10
123.4902051364122
 20
75.85558717558229
 30
0.0
 10
123.6306519236049
 20
75.46330925079587
 30
0.0
 10
123.7101449054057
 20
75.2684318641059
 30
0.0
 10
123.9731115624012
 20
74.69884469840977
 30
0.0
 10
124.1797067057196
 20
74.34034247347044
 30
0.0
 10
124.5384504818951
 20
73.83572560881615
 30
0.0
 10
124.666237220703
 20
73.67308591100593
 30
0.0
 10
124.9391356112576
 20
73.3595577396702
 30
0.0
 10
125.0851700672739
 20
73.20786381303353
 30
0.0
 10
125.5437611788372
 20
72.77769569224023
 30
0.0
 10
125.8738070664715
 20
72.52583634654853
 30
0.0
 10
126.5766852192845
 20
72.08352623909535
 30
0.0
 10
126.9532224960305
 20
71.89190359621821
 30
0.0
 10
128.1092169923719
 20
71.41742858786722
 30
0.0
 10
128.9179596560821
 20
71.23207746440961
 30
0.0
 10
130.5746675850343
 20
71.00819221321659
 30
0.0
 10
131.4066478537378
 20
70.96912064457793
 30
0.0
 10
133.0715297758083
 20
70.90936239441685
 30
0.0
 10
133.90408183068
 20
70.8913500800925
 30
0.0
 10
134.7377377632725
 20
70.87613677484421
 30
0.0
  0
LWPOLYLINE
  5
1E6
330
1F
100
AcDbEntity
  8
0
  6
Continuous
 62
     8
370
    18
100
AcDbPolyline
 90
        8
 70
   128
 43
0.0
 10
143.1484462489
 20
69.5401315633
 10
143.1484463087
 20
69.5430819932
 10
143.1484465428
 20
69.6032975856
 10
143.1484467971
 20
69.7380636874
 10
143.1484470576
 20
69.9398403112
 10
143.1484473096
 20
70.1973919812
 10
143.1484475392
 20
70.4963688794
 10
143.1484477335
 20
70.8200817052
  0
SPLINE
  5
1E7
330
1F
100
AcDbEntity
  8
0
  6
Continuous
 62
     8
370
    18
100
AcDbSpline
210
0.0
220
0.0
230
1.0
 70
     8
 71
     3
 72
    10
 73
     6
 74
     0
 42
0.000000001
 43
0.00000001
 40
0.0
 40
0.0
 40
0.0
 40
0.0
 40
0.4054739200024777
 40
0.8109502504714213
 40
0.9999999999999999
 40
0.9999999999999999
 40
0.9999999999999999
 40
0.9999999999999999
 10
120.7483926939797
 20
144.2448158804125
 30
0.0
 10
120.7676496817345
 20
144.2450672539162
 30
0.0
 10
120.8061637717232
 20
144.2455700024177
 30
0.0
 10
121.0310531653722
 20
144.2487545084323
 30
0.0
 10
121.2427709659448
 20
144.2517668086146
 30
0.0
 10
121.3100938278269
 20
144.2527246717162
 30
0.0
  0
SPLINE
  5
1E8
330
1F
100
AcDbEntity
  8
0
  6
Continuous
 62
     8
370
    18
100
AcDbSpline
210
0.0
220
0.0
230
1.0
 70
     8
 71
     3
 72
    10
 73
     6
 74
     0
 42
0.000000001
 43
0.00000001
 40
0.0
 40
0.0
 40
0.0
 40
0.0
 40
0.4145256605343507
 40
0.8290454335588979
 40
1.0
 40
1.0
 40
1.0
 40
1.0
 10
120.4449417221379
 20
166.4218415561862
 30
0.0
 10
120.4632661552318
 20
166.4220982437693
 30
0.0
 10
120.4999147611578
 20
166.4226116152899
 30
0.0
 10
120.7176867390777
 20
166.4256804337951
 30
0.0
 10
120.9215899713342
 20
166.4285537350068
 30
0.0
 10
120.981128342731
 20
166.4293927196211
 30
0.0
  0
SPLINE
  5
1E9
330
1F
100
AcDbEntity
  8
0
  6
Continuous
 62
     8
370
    18
100
AcDbSpline
210
0.0
220
0.0
230
1.0
 70
     8
 71
     3
 72
    10
 73
     6
 74
     0
 42
0.000000001
 43
0.00000001
 40
0.0
 40
0.0
 40
0.0
 40
0.0
 40
0.4129221260650791
 40
0.825843356491428
 40
1.0
 40
1.0
 40
1.0
 40
1.0
 10
165.8516949194502
 20
166.421465301866
 30
0.0
 10
165.8333943430811
 20
166.4217251035207
 30
0.0
 10
165.7967932300372
 20
166.4222447062666
 30
0.0
 10
165.5779217224976
 20
166.4253418798667
 30
0.0
 10
165.3725572327492
 20
166.4282361200772
 30
0.0
 10
165.3116358595919
 20
166.4290946963972
 30
0.0
  0
SPLINE
  5
1EA
330
1F
100
AcDbEntity
  8
0
  6
Continuous
 62
     8
370
    18
100
AcDbSpline
210
0.0
220
0.0
230
1.0
 70
     8
 71
     3
 72
    10
 73
     6
 74
     0
 42
0.000000001
 43
0.00000001
 40
0.0
 40
0.0
 40
0.0
 40
0.0
 40
0.4111121205877008
 40
0.8222312154304452
 40
1.0
 40
1.0
 40
1.0
 40
1.0
 10
165.5480036663842
 20
144.2450021449275
 30
0.0
 10
165.5286769434294
 20
144.2452768463263
 30
0.0
 10
165.4900231696542
 20
144.2458262537842
 30
0.0
 10
165.2692373666702
 20
144.2489552271113
 30
0.0
 10
165.0628547667191
 20
144.2518821067781
 30
0.0
 10
165.0005536305737
 20
144.2527656499094
 30
0.0
  0
LINE
  5
1EB
330
1F
100
AcDbEntity
  8
0
  6
Continuous
 62
     8
370
    18
100
AcDbLine
 10
119.9142145145
 20
203.0537782293
 30
0.0
 11
119.9139146286
 21
203.0727961855
 31
0.0
  0
LINE
  5
1EC
330
1F
100
AcDbEntity
  8
0
  6
Continuous
 62
     8
370
    18
100
AcDbLine
 10
166.3827983814
 20
203.0727961855
 30
0.0
 11
166.3824984956
 21
203.0537781128
 31
0.0
  0
ENDSEC
  0
SECTION
  2
OBJECTS
  0
DICTIONARY
  5
C
330
0
100
AcDbDictionary
281
     1
  3
ACAD_GROUP
350
D
  3
ACAD_LAYOUT
350
1A
  3
ACAD_MLINESTYLE
350
17
  3
ACAD_PLOTSETTINGS
350
19
  3
ACAD_PLOTSTYLENAME
350
E
  3
ACAD_SCALELIST
350
47
  0
DICTIONARY
  5
D
102
{ACAD_REACTORS
330
C
102
}
330
C
100
AcDbDictionary
281
     1
  0
DICTIONARY
  5
1A
102
{ACAD_REACTORS
330
C
102
}
330
C
100
AcDbDictionary
281
     1
  3
Layout1
350
1E
  3
Layout2
350
26
  3
Model
350
22
  0
DICTIONARY
  5
17
102
{ACAD_REACTORS
330
C
102
}
330
C
100
AcDbDictionary
281
     1
  3
Standard
350
18
  0
DICTIONARY
  5
19
102
{ACAD_REACTORS
330
C
102
}
330
C
100
AcDbDictionary
281
     1
  0
ACDBDICTIONARYWDFLT
  5
E
102
{ACAD_REACTORS
330
C
102
}
330
C
100
AcDbDictionary
281
     1
  3
Normal
350
F
100
AcDbDictionaryWithDefault
340
F
  0
DICTIONARY
  5
47
102
{ACAD_REACTORS
330
C
102
}
330
C
100
AcDbDictionary
281
     1
  3
A0
350
48
  3
A1
350
49
  3
A2
350
4A
  3
A3
350
4B
  3
A4
350
4C
  3
A5
350
4D
  3
A6
350
4E
  3
A7
350
4F
  3
A8
350
50
  3
A9
350
51
  3
B0
350
52
  3
B1
350
53
  3
B2
350
54
  3
B3
350
55
  3
B4
350
56
  3
B5
350
57
  3
B6
350
58
  3
B7
350
59
  3
B8
350
5A
  3
B9
350
5B
  3
C0
350
5C
  3
C1
350
5D
  3
C2
350
5E
  3
C3
350
5F
  3
C4
350
60
  3
C5
350
61
  3
C6
350
62
  3
C7
350
63
  3
C8
350
64
  3
C9
350
65
  3
D0
350
66
  3
D1
350
67
  3
D2
350
68
  0
LAYOUT
  5
1E
102
{ACAD_REACTORS
330
1A
102
}
330
1A
100
AcDbPlotSettings
  1

  2
none_device
  4

  6

 40
0.0
 41
0.0
 42
0.0
 43
0.0
 44
0.0
 45
0.0
 46
0.0
 47
0.0
 48
0.0
 49
0.0
140
0.0
141
0.0
142
1.0
143
1.0
 70
   688
 72
     1
 73
     0
 74
     5
  7

 75
    16
147
1.0
148
0.0
149
0.0
100
AcDbLayout
  1
Layout1
 70
     1
 71
     1
 10
0.0
 20
0.0
 11
420.0
 21
297.0
 12
0.0
 22
0.0
 32
0.0
 14
1.0000000000E+20
 24
1.0000000000E+20
 34
1.0000000000E+20
 15
-1.0000000000E+20
 25
-1.0000000000E+20
 35
-1.0000000000E+20
146
0.0
 13
0.0
 23
0.0
 33
0.0
 16
1.0
 26
0.0
 36
0.0
 17
0.0
 27
1.0
 37
0.0
 76
     0
330
1B
  0
LAYOUT
  5
26
102
{ACAD_REACTORS
330
1A
102
}
330
1A
100
AcDbPlotSettings
  1

  2
none_device
  4

  6

 40
0.0
 41
0.0
 42
0.0
 43
0.0
 44
0.0
 45
0.0
 46
0.0
 47
0.0
 48
0.0
 49
0.0
140
0.0
141
0.0
142
1.0
143
1.0
 70
   688
 72
     1
 73
     0
 74
     5
  7

 75
    16
147
1.0
148
0.0
149
0.0
100
AcDbLayout
  1
Layout2
 70
     1
 71
     2
 10
0.0
 20
0.0
 11
0.0
 21
0.0
 12
0.0
 22
0.0
 32
0.0
 14
0.0
 24
0.0
 34
0.0
 15
0.0
 25
0.0
 35
0.0
146
0.0
 13
0.0
 23
0.0
 33
0.0
 16
1.0
 26
0.0
 36
0.0
 17
0.0
 27
1.0
 37
0.0
 76
     0
330
23
  0
LAYOUT
  5
22
102
{ACAD_REACTORS
330
1A
102
}
330
1A
100
AcDbPlotSettings
  1

  2
none_device
  4
Letter_(8.50_x_11.00_Inches)
  6

 40
6.35
 41
6.35
 42
6.35000508
 43
6.35000508
 44
215.9
 45
279.4
 46
0.0
 47
0.0
 48
0.0
 49
0.0
140
0.0
141
0.0
142
1.0
143
1.0
 70
  1712
 72
     1
 73
     0
 74
     0
  7

 75
     0
147
1.0
148
0.0
149
0.0
100
AcDbLayout
  1
Model
 70
     1
 71
     0
 10
0.0
 20
0.0
 11
594.0
 21
841.0
 12
0.0
 22
0.0
 32
0.0
 14
0.0
 24
0.0
 34
0.0
 15
594.0
 25
841.0
 35
0.0
146
0.0
 13
0.0
 23
0.0
 33
0.0
 16
1.0
 26
0.0
 36
0.0
 17
0.0
 27
1.0
 37
0.0
 76
     0
330
1F
331
29
  0
MLINESTYLE
  5
18
102
{ACAD_REACTORS
330
17
102
}
330
17
100
AcDbMlineStyle
  2
Standard
 70
     0
  3

 62
   256
 51
90.0
 52
90.0
 71
     2
 49
0.5
 62
   256
  6
BYLAYER
 49
-0.5
 62
   256
  6
BYLAYER
  0
ACDBPLACEHOLDER
  5
F
102
{ACAD_REACTORS
330
E
102
}
330
E
  0
SCALE
  5
48
102
{ACAD_REACTORS
330
47
102
}
330
47
100
AcDbScale
 70
     0
300
1:1
140
1.0
141
1.0
290
     1
  0
SCALE
  5
49
102
{ACAD_REACTORS
330
47
102
}
330
47
100
AcDbScale
 70
     0
300
1:2
140
1.0
141
2.0
290
     0
  0
SCALE
  5
4A
102
{ACAD_REACTORS
330
47
102
}
330
47
100
AcDbScale
 70
     0
300
1:4
140
1.0
141
4.0
290
     0
  0
SCALE
  5
4B
102
{ACAD_REACTORS
330
47
102
}
330
47
100
AcDbScale
 70
     0
300
1:5
140
1.0
141
5.0
290
     0
  0
SCALE
  5
4C
102
{ACAD_REACTORS
330
47
102
}
330
47
100
AcDbScale
 70
     0
300
1:8
140
1.0
141
8.0
290
     0
  0
SCALE
  5
4D
102
{ACAD_REACTORS
330
47
102
}
330
47
100
AcDbScale
 70
     0
300
1:10
140
1.0
141
10.0
290
     0
  0
SCALE
  5
4E
102
{ACAD_REACTORS
330
47
102
}
330
47
100
AcDbScale
 70
     0
300
1:16
140
1.0
141
16.0
290
     0
  0
SCALE
  5
4F
102
{ACAD_REACTORS
330
47
102
}
330
47
100
AcDbScale
 70
     0
300
1:20
140
1.0
141
20.0
290
     0
  0
SCALE
  5
50
102
{ACAD_REACTORS
330
47
102
}
330
47
100
AcDbScale
 70
     0
300
1:30
140
1.0
141
30.0
290
     0
  0
SCALE
  5
51
102
{ACAD_REACTORS
330
47
102
}
330
47
100
AcDbScale
 70
     0
300
1:40
140
1.0
141
40.0
290
     0
  0
SCALE
  5
52
102
{ACAD_REACTORS
330
47
102
}
330
47
100
AcDbScale
 70
     0
300
1:50
140
1.0
141
50.0
290
     0
  0
SCALE
  5
53
102
{ACAD_REACTORS
330
47
102
}
330
47
100
AcDbScale
 70
     0
300
1:100
140
1.0
141
100.0
290
     0
  0
SCALE
  5
54
102
{ACAD_REACTORS
330
47
102
}
330
47
100
AcDbScale
 70
     0
300
2:1
140
2.0
141
1.0
290
     0
  0
SCALE
  5
55
102
{ACAD_REACTORS
330
47
102
}
330
47
100
AcDbScale
 70
     0
300
4:1
140
4.0
141
1.0
290
     0
  0
SCALE
  5
56
102
{ACAD_REACTORS
330
47
102
}
330
47
100
AcDbScale
 70
     0
300
8:1
140
8.0
141
1.0
290
     0
  0
SCALE
  5
57
102
{ACAD_REACTORS
330
47
102
}
330
47
100
AcDbScale
 70
     0
300
10:1
140
10.0
141
1.0
290
     0
  0
SCALE
  5
58
102
{ACAD_REACTORS
330
47
102
}
330
47
100
AcDbScale
 70
     0
300
100:1
140
100.0
141
1.0
290
     0
  0
SCALE
  5
59
102
{ACAD_REACTORS
330
47
102
}
330
47
100
AcDbScale
 70
     0
300
1/128" = 1'-0"
140
0.0078125
141
12.0
290
     0
  0
SCALE
  5
5A
102
{ACAD_REACTORS
330
47
102
}
330
47
100
AcDbScale
 70
     0
300
1/64" = 1'-0"
140
0.015625
141
12.0
290
     0
  0
SCALE
  5
5B
102
{ACAD_REACTORS
330
47
102
}
330
47
100
AcDbScale
 70
     0
300
1/32" = 1'-0"
140
0.03125
141
12.0
290
     0
  0
SCALE
  5
5C
102
{ACAD_REACTORS
330
47
102
}
330
47
100
AcDbScale
 70
     0
300
1/16" = 1'-0"
140
0.0625
141
12.0
290
     0
  0
SCALE
  5
5D
102
{ACAD_REACTORS
330
47
102
}
330
47
100
AcDbScale
 70
     0
300
3/32" = 1'-0"
140
0.09375
141
12.0
290
     0
  0
SCALE
  5
5E
102
{ACAD_REACTORS
330
47
102
}
330
47
100
AcDbScale
 70
     0
300
1/8" = 1'-0"
140
0.125
141
12.0
290
     0
  0
SCALE
  5
5F
102
{ACAD_REACTORS
330
47
102
}
330
47
100
AcDbScale
 70
     0
300
3/16" = 1'-0"
140
0.1875
141
12.0
290
     0
  0
SCALE
  5
60
102
{ACAD_REACTORS
330
47
102
}
330
47
100
AcDbScale
 70
     0
300
1/4" = 1'-0"
140
0.25
141
12.0
290
     0
  0
SCALE
  5
61
102
{ACAD_REACTORS
330
47
102
}
330
47
100
AcDbScale
 70
     0
300
3/8" = 1'-0"
140
0.375
141
12.0
290
     0
  0
SCALE
  5
62
102
{ACAD_REACTORS
330
47
102
}
330
47
100
AcDbScale
 70
     0
300
1/2" = 1'-0"
140
0.5
141
12.0
290
     0
  0
SCALE
  5
63
102
{ACAD_REACTORS
330
47
102
}
330
47
100
AcDbScale
 70
     0
300
3/4" = 1'-0"
140
0.75
141
12.0
290
     0
  0
SCALE
  5
64
102
{ACAD_REACTORS
330
47
102
}
330
47
100
AcDbScale
 70
     0
300
1" = 1'-0"
140
1.0
141
12.0
290
     0
  0
SCALE
  5
65
102
{ACAD_REACTORS
330
47
102
}
330
47
100
AcDbScale
 70
     0
300
1-1/2" = 1'-0"
140
1.5
141
12.0
290
     0
  0
SCALE
  5
66
102
{ACAD_REACTORS
330
47
102
}
330
47
100
AcDbScale
 70
     0
300
3" = 1'-0"
140
3.0
141
12.0
290
     0
  0
SCALE
  5
67
102
{ACAD_REACTORS
330
47
102
}
330
47
100
AcDbScale
 70
     0
300
6" = 1'-0"
140
6.0
141
12.0
290
     0
  0
SCALE
  5
68
102
{ACAD_REACTORS
330
47
102
}
330
47
100
AcDbScale
 70
     0
300
1'-0" = 1'-0"
140
12.0
141
12.0
290
     0
  0
ENDSEC
  0
EOF
