  0
SECTION
  2
HEADER
  9
$ACADVER
  1
AC1015
  9
$ACADMAINTVER
 70
     6
  9
$DWGCODEPAGE
  3
ANSI_1252
  9
$INSBASE
 10
0.0
 20
0.0
 30
0.0
  9
$EXTMIN
 10
0.0
 20
0.0
 30
0.0
  9
$EXTMAX
 10
594.0
 20
841.0
 30
0.0
  9
$LIMMIN
 10
0.0
 20
0.0
  9
$LIMMAX
 10
594.0
 20
841.0
  9
$ORTHOMODE
 70
     0
  9
$REGENMODE
 70
     1
  9
$FILLMODE
 70
     1
  9
$QTEXTMODE
 70
     0
  9
$MIRRTEXT
 70
     1
  9
$LTSCALE
 40
1.0
  9
$ATTMODE
 70
     1
  9
$TEXTSIZE
 40
10.0
  9
$TRACEWID
 40
1.0
  9
$TEXTSTYLE
  7
Standard
  9
$CLAYER
  8
0
  9
$CELTYPE
  6
ByLayer
  9
$CECOLOR
 62
   256
  9
$CELTSCALE
 40
1.0
  9
$DISPSILH
 70
     0
  9
$DIMSCALE
 40
1.0
  9
$DIMASZ
 40
2.5
  9
$DIMEXO
 40
0.0
  9
$DIMDLI
 40
3.75
  9
$DIMRND
 40
0.0
  9
$DIMDLE
 40
0.0
  9
$DIMEXE
 40
1.0
  9
$DIMTP
 40
0.0
  9
$DIMTM
 40
0.0
  9
$DIMTXT
 40
3.5
  9
$DIMCEN
 40
2.5
  9
$DIMTSZ
 40
0.0
  9
$DIMTOL
 70
     0
  9
$DIMLIM
 70
     0
  9
$DIMTIH
 70
     1
  9
$DIMTOH
 70
     1
  9
$DIMSE1
 70
     0
  9
$DIMSE2
 70
     0
  9
$DIMTAD
 70
     1
  9
$DIMZIN
 70
     0
  9
$DIMBLK
  1

  9
$DIMASO
 70
     1
  9
$DIMSHO
 70
     1
  9
$DIMPOST
  1

  9
$DIMAPOST
  1

  9
$DIMALT
 70
     0
  9
$DIMALTD
 70
     3
  9
$DIMALTF
 40
0.0393700787
  9
$DIMLFAC
 40
1.0
  9
$DIMTOFL
 70
     1
  9
$DIMTVP
 40
0.0
  9
$DIMTIX
 70
     0
  9
$DIMSOXD
 70
     0
  9
$DIMSAH
 70
     0
  9
$DIMBLK1
  1

  9
$DIMBLK2
  1

  9
$DIMSTYLE
  2
ISO-25
  9
$DIMCLRD
 70
     0
  9
$DIMCLRE
 70
     0
  9
$DIMCLRT
 70
     0
  9
$DIMTFAC
 40
1.0
  9
$DIMGAP
 40
1.5
  9
$DIMJUST
 70
     0
  9
$DIMSD1
 70
     0
  9
$DIMSD2
 70
     0
  9
$DIMTOLJ
 70
     0
  9
$DIMTZIN
 70
     0
  9
$DIMALTZ
 70
     0
  9
$DIMALTTZ
 70
     0
  9
$DIMUPT
 70
     0
  9
$DIMDEC
 70
     2
  9
$DIMTDEC
 70
     2
  9
$DIMALTU
 70
     2
  9
$DIMALTTD
 70
     3
  9
$DIMTXSTY
  7
Standard
  9
$DIMAUNIT
 70
     0
  9
$DIMADEC
 70
     2
  9
$DIMALTRND
 40
0.0
  9
$DIMAZIN
 70
     0
  9
$DIMDSEP
 70
    44
  9
$DIMATFIT
 70
     3
  9
$DIMFRAC
 70
     0
  9
$DIMLDRBLK
  1

  9
$DIMLUNIT
 70
     2
  9
$DIMLWD
 70
    -2
  9
$DIMLWE
 70
    -2
  9
$DIMTMOVE
 70
     0
  9
$LUNITS
 70
     2
  9
$LUPREC
 70
     2
  9
$SKETCHINC
 40
1.0
  9
$FILLETRAD
 40
0.0
  9
$AUNITS
 70
     0
  9
$AUPREC
 70
     2
  9
$MENU
  1
.
  9
$ELEVATION
 40
0.0
  9
$PELEVATION
 40
0.0
  9
$THICKNESS
 40
0.0
  9
$LIMCHECK
 70
     0
  9
$CHAMFERA
 40
0.0
  9
$CHAMFERB
 40
0.0
  9
$CHAMFERC
 40
0.0
  9
$CHAMFERD
 40
0.0
  9
$SKPOLY
 70
     0
  9
$TDCREATE
 40
2460334.612676655
  9
$TDUCREATE
 40
2460334.571009988
  9
$TDUPDATE
 40
2460334.612678461
  9
$TDUUPDATE
 40
2460334.571011794
  9
$TDINDWG
 40
0.0000000116
  9
$TDUSRTIMER
 40
0.0000000116
  9
$USRTIMER
 70
     1
  9
$ANGBASE
 50
0.0
  9
$ANGDIR
 70
     0
  9
$PDMODE
 70
     0
  9
$PDSIZE
 40
-1.0
  9
$PLINEWID
 40
0.0
  9
$SPLFRAME
 70
     0
  9
$SPLINETYPE
 70
     6
  9
$SPLINESEGS
 70
     8
  9
$HANDSEED
  5
1A0
  9
$SURFTAB1
 70
     6
  9
$SURFTAB2
 70
     6
  9
$SURFTYPE
 70
     6
  9
$SURFU
 70
     6
  9
$SURFV
 70
     6
  9
$UCSBASE
  2

  9
$UCSNAME
  2

  9
$UCSORG
 10
0.0
 20
0.0
 30
0.0
  9
$UCSXDIR
 10
1.0
 20
0.0
 30
0.0
  9
$UCSYDIR
 10
0.0
 20
1.0
 30
0.0
  9
$UCSORTHOREF
  2

  9
$UCSORTHOVIEW
 70
     0
  9
$UCSORGTOP
 10
0.0
 20
0.0
 30
0.0
  9
$UCSORGBOTTOM
 10
0.0
 20
0.0
 30
0.0
  9
$UCSORGLEFT
 10
0.0
 20
0.0
 30
0.0
  9
$UCSORGRIGHT
 10
0.0
 20
0.0
 30
0.0
  9
$UCSORGFRONT
 10
0.0
 20
0.0
 30
0.0
  9
$UCSORGBACK
 10
0.0
 20
0.0
 30
0.0
  9
$PUCSBASE
  2

  9
$PUCSNAME
  2

  9
$PUCSORG
 10
0.0
 20
0.0
 30
0.0
  9
$PUCSXDIR
 10
1.0
 20
0.0
 30
0.0
  9
$PUCSYDIR
 10
0.0
 20
1.0
 30
0.0
  9
$PUCSORTHOREF
  2

  9
$PUCSORTHOVIEW
 70
     0
  9
$PUCSORGTOP
 10
0.0
 20
0.0
 30
0.0
  9
$PUCSORGBOTTOM
 10
0.0
 20
0.0
 30
0.0
  9
$PUCSORGLEFT
 10
0.0
 20
0.0
 30
0.0
  9
$PUCSORGRIGHT
 10
0.0
 20
0.0
 30
0.0
  9
$PUCSORGFRONT
 10
0.0
 20
0.0
 30
0.0
  9
$PUCSORGBACK
 10
0.0
 20
0.0
 30
0.0
  9
$USERI1
 70
     0
  9
$USERI2
 70
     0
  9
$USERI3
 70
     0
  9
$USERI4
 70
     0
  9
$USERI5
 70
     0
  9
$USERR1
 40
0.0
  9
$USERR2
 40
0.0
  9
$USERR3
 40
0.0
  9
$USERR4
 40
0.0
  9
$USERR5
 40
0.0
  9
$WORLDVIEW
 70
     1
  9
$SHADEDGE
 70
     3
  9
$SHADEDIF
 70
    70
  9
$TILEMODE
 70
     1
  9
$MAXACTVP
 70
    64
  9
$PINSBASE
 10
0.0
 20
0.0
 30
0.0
  9
$PLIMCHECK
 70
     0
  9
$PEXTMIN
 10
1.0000000000E+20
 20
1.0000000000E+20
 30
1.0000000000E+20
  9
$PEXTMAX
 10
-1.0000000000E+20
 20
-1.0000000000E+20
 30
-1.0000000000E+20
  9
$PLIMMIN
 10
0.0
 20
0.0
  9
$PLIMMAX
 10
420.0
 20
297.0
  9
$UNITMODE
 70
     0
  9
$VISRETAIN
 70
     1
  9
$PLINEGEN
 70
     0
  9
$PSLTSCALE
 70
     1
  9
$TREEDEPTH
 70
  3020
  9
$CMLSTYLE
  2
Standard
  9
$CMLJUST
 70
     0
  9
$CMLSCALE
 40
20.0
  9
$PROXYGRAPHICS
 70
     1
  9
$MEASUREMENT
 70
     1
  9
$CELWEIGHT
370
    -1
  9
$ENDCAPS
280
     0
  9
$JOINSTYLE
280
     0
  9
$LWDISPLAY
290
     1
  9
$INSUNITS
 70
     4
  9
$HYPERLINKBASE
  1

  9
$STYLESHEET
  1

  9
$XEDIT
290
     1
  9
$CEPSNTYPE
380
     0
  9
$PSTYLEMODE
290
     1
  9
$FINGERPRINTGUID
  2
{cb6e61bf-d1d1-4cb7-b076-6e8758675197}
  9
$VERSIONGUID
  2
{FAEB1C32-E019-11D5-929B-00C0DF256EC4}
  9
$EXTNAMES
290
     1
  9
$PSVPSCALE
 40
0.0
  9
$OLESTARTUP
290
     0
  0
ENDSEC
  0
SECTION
  2
CLASSES
  0
CLASS
  1
ACDBDICTIONARYWDFLT
  2
AcDbDictionaryWithDefault
  3
ObjectDBX Classes
 90
        0
280
     0
281
     0
  0
CLASS
  1
VISUALSTYLE
  2
AcDbVisualStyle
  3
ObjectDBX Classes
 90
     4095
280
     0
281
     0
  0
CLASS
  1
MATERIAL
  2
AcDbMaterial
  3
ObjectDBX Classes
 90
     1153
280
     0
281
     0
  0
CLASS
  1
SCALE
  2
AcDbScale
  3
ObjectDBX Classes
 90
     1153
280
     0
281
     0
  0
CLASS
  1
TABLESTYLE
  2
AcDbTableStyle
  3
ObjectDBX Classes
 90
     4095
280
     0
281
     0
  0
CLASS
  1
MLEADERSTYLE
  2
AcDbMLeaderStyle
  3
ACDB_MLEADERSTYLE_CLASS
 90
     4095
280
     0
281
     0
  0
CLASS
  1
SUN
  2
AcDbSun
  3
SCENEOE
 90
     1153
280
     0
281
     0
  0
CLASS
  1
ACDBPLACEHOLDER
  2
AcDbPlaceHolder
  3
ObjectDBX Classes
 90
        0
280
     0
281
     0
  0
CLASS
  1
LAYOUT
  2
AcDbLayout
  3
ObjectDBX Classes
 90
        0
280
     0
281
     0
  0
ENDSEC
  0
SECTION
  2
TABLES
  0
TABLE
  2
VPORT
  5
8
330
0
100
AcDbSymbolTable
 70
     1
  0
VPORT
  5
29
330
8
100
AcDbSymbolTableRecord
100
AcDbViewportTableRecord
  2
*Active
 70
     0
 10
0.0
 20
0.0
 11
1.0
 21
1.0
 12
297.0
 22
420.5
 13
0.0
 23
0.0
 14
10.0
 24
10.0
 15
10.0
 25
10.0
 16
0.0
 26
0.0
 36
1.0
 17
0.0
 27
0.0
 37
0.0
 40
841.0
 41
0.7063020214
 42
50.0
 43
0.0
 44
0.0
 50
0.0
 51
0.0
 71
     0
 72
  2000
 73
     1
 74
     3
 75
     0
 76
     0
 77
     0
 78
     0
281
     0
 65
     1
110
0.0
120
0.0
130
0.0
111
1.0
121
0.0
131
0.0
112
0.0
122
1.0
132
0.0
 79
     0
146
0.0
  0
ENDTAB
  0
TABLE
  2
LTYPE
  5
5
330
0
100
AcDbSymbolTable
 70
     6
  0
LTYPE
  5
14
330
5
100
AcDbSymbolTableRecord
100
AcDbLinetypeTableRecord
  2
ByBlock
 70
     0
  3

 72
    65
 73
     0
 40
0.0
  0
LTYPE
  5
15
330
5
100
AcDbSymbolTableRecord
100
AcDbLinetypeTableRecord
  2
ByLayer
 70
     0
  3

 72
    65
 73
     0
 40
0.0
  0
LTYPE
  5
16
330
5
100
AcDbSymbolTableRecord
100
AcDbLinetypeTableRecord
  2
Continuous
 70
     0
  3
Solid line
 72
    65
 73
     0
 40
0.0
  0
LTYPE
  5
5E
330
5
100
AcDbSymbolTableRecord
100
AcDbLinetypeTableRecord
  2
HIDDEN
 70
     0
  3
Hidden __ __ __ __ __ __ __ __ __ __ __ __ __ __
 72
    65
 73
     2
 40
1.905
 49
1.27
 74
     0
 49
-0.635
 74
     0
  0
LTYPE
  5
5F
330
5
100
AcDbSymbolTableRecord
100
AcDbLinetypeTableRecord
  2
PHANTOM
 70
     0
  3
Phantom ______  __  __  ______  __  __  ______
 72
    65
 73
     6
 40
12.7
 49
6.35
 74
     0
 49
-1.27
 74
     0
 49
1.27
 74
     0
 49
-1.27
 74
     0
 49
1.27
 74
     0
 49
-1.27
 74
     0
  0
LTYPE
  5
60
330
5
100
AcDbSymbolTableRecord
100
AcDbLinetypeTableRecord
  2
CENTER
 70
     0
  3
Center ____ _ ____ _ ____ _ ____ _ ____ _ ____
 72
    65
 73
     4
 40
10.16
 49
6.35
 74
     0
 49
-1.27
 74
     0
 49
1.27
 74
     0
 49
-1.27
 74
     0
  0
LTYPE
  5
61
330
5
100
AcDbSymbolTableRecord
100
AcDbLinetypeTableRecord
  2
CENTERX2
 70
     0
  3
Center (2x) ________  __  ________  __  _____
 72
    65
 73
     4
 40
20.32
 49
12.7
 74
     0
 49
-2.54
 74
     0
 49
2.54
 74
     0
 49
-2.54
 74
     0
  0
LTYPE
  5
62
330
5
100
AcDbSymbolTableRecord
100
AcDbLinetypeTableRecord
  2
DOT2
 70
     0
  3
Dot (.5x) ........................................
 72
    65
 73
     2
 40
0.635
 49
0.0
 74
     0
 49
-0.635
 74
     0
  0
ENDTAB
  0
TABLE
  2
LAYER
  5
2
330
0
100
AcDbSymbolTable
 70
     1
  0
LAYER
  5
10
330
2
100
AcDbSymbolTableRecord
100
AcDbLayerTableRecord
  2
0
 70
     0
 62
     7
  6
Continuous
370
    -3
390
F
  0
ENDTAB
  0
TABLE
  2
STYLE
  5
3
330
0
100
AcDbSymbolTable
 70
     3
  0
STYLE
  5
11
330
3
100
AcDbSymbolTableRecord
100
AcDbTextStyleTableRecord
  2
Standard
 70
     0
 40
0.0
 41
1.0
 50
0.0
 71
     0
 42
10.0
  3
txt
  4

  0
STYLE
  5
66
330
3
100
AcDbSymbolTableRecord
100
AcDbTextStyleTableRecord
  2
SLDTEXTSTYLE0
 70
     0
 40
0.0
 41
0.96
 50
0.0
 71
     0
 42
10.0
  3
ISOCP3
  4

  0
STYLE
  5
7D
330
3
100
AcDbSymbolTableRecord
100
AcDbTextStyleTableRecord
  2
SLDTEXTSTYLE1
 70
     0
 40
0.0
 41
0.605
 50
0.0
 71
     0
 42
10.0
  3
TXT
  4

  0
ENDTAB
  0
TABLE
  2
VIEW
  5
6
330
0
100
AcDbSymbolTable
 70
     0
  0
ENDTAB
  0
TABLE
  2
UCS
  5
7
330
0
100
AcDbSymbolTable
 70
     0
  0
ENDTAB
  0
TABLE
  2
APPID
  5
9
330
0
100
AcDbSymbolTable
 70
     1
  0
APPID
  5
12
330
9
100
AcDbSymbolTableRecord
100
AcDbRegAppTableRecord
  2
ACAD
 70
     0
  0
ENDTAB
  0
TABLE
  2
DIMSTYLE
  5
A
330
0
100
AcDbSymbolTable
 70
     2
100
AcDbDimStyleTable
  0
DIMSTYLE
105
27
330
A
100
AcDbSymbolTableRecord
100
AcDbDimStyleTableRecord
  2
ISO-25
 70
     0
 41
2.5
 42
0.625
 43
3.75
 44
1.25
 73
     0
 74
     0
 77
     1
 78
     8
140
2.5
141
2.5
143
0.0393700787
147
0.625
171
     3
172
     1
178
     0
271
     2
272
     2
274
     3
278
    44
283
     0
284
     8
340
11
  0
DIMSTYLE
105
67
102
{ACAD_REACTORS
330
65
330
72
102
}
330
A
100
AcDbSymbolTableRecord
100
AcDbDimStyleTableRecord
  2
SLDDIMSTYLE0
 70
     0
 41
2.5
 44
0.0
 45
0.000000001
 73
     0
 74
     0
 77
     1
 78
    12
 79
     3
140
6.0
147
1.5
173
     1
178
     0
271
     2
272
     2
276
     2
284
    12
340
66
  0
ENDTAB
  0
TABLE
  2
BLOCK_RECORD
  5
1
330
0
100
AcDbSymbolTable
 70
     3
  0
BLOCK_RECORD
  5
1F
330
1
100
AcDbSymbolTableRecord
100
AcDbBlockTableRecord
  2
*Model_Space
340
22
  0
BLOCK_RECORD
  5
1B
330
1
100
AcDbSymbolTableRecord
100
AcDbBlockTableRecord
  2
*Paper_Space
340
1E
  0
BLOCK_RECORD
  5
23
330
1
100
AcDbSymbolTableRecord
100
AcDbBlockTableRecord
  2
*Paper_Space0
340
26
  0
BLOCK_RECORD
  5
68
330
1
100
AcDbSymbolTableRecord
100
AcDbBlockTableRecord
  2
_D
340
0
  0
BLOCK_RECORD
  5
73
330
1
100
AcDbSymbolTableRecord
100
AcDbBlockTableRecord
  2
_D_1
340
0
  0
ENDTAB
  0
ENDSEC
  0
SECTION
  2
BLOCKS
  0
BLOCK
  5
20
330
1F
100
AcDbEntity
  8
0
100
AcDbBlockBegin
  2
*Model_Space
 70
     0
 10
0.0
 20
0.0
 30
0.0
  3
*Model_Space
  1

  0
ENDBLK
  5
21
330
1F
100
AcDbEntity
  8
0
100
AcDbBlockEnd
  0
BLOCK
  5
1C
330
1B
100
AcDbEntity
 67
     1
  8
0
100
AcDbBlockBegin
  2
*Paper_Space
 70
     0
 10
0.0
 20
0.0
 30
0.0
  3
*Paper_Space
  1

  0
ENDBLK
  5
1D
330
1B
100
AcDbEntity
 67
     1
  8
0
100
AcDbBlockEnd
  0
BLOCK
  5
24
330
23
100
AcDbEntity
  8
0
100
AcDbBlockBegin
  2
*Paper_Space0
 70
     0
 10
0.0
 20
0.0
 30
0.0
  3
*Paper_Space0
  1

  0
ENDBLK
  5
25
330
23
100
AcDbEntity
  8
0
100
AcDbBlockEnd
  0
BLOCK
  5
69
330
68
100
AcDbEntity
  8
0
100
AcDbBlockBegin
  2
_D
 70
     0
 10
0.0
 20
0.0
 30
0.0
  3
_D
  1

  0
SOLID
  5
6B
330
68
100
AcDbEntity
  8
0
  6
Continuous
 62
     7
370
    18
100
AcDbTrace
 10
42.7614395004
 20
152.0299240879
 30
0.0
 11
42.4614395004
 21
149.5299240879
 31
0.0
 12
43.0614395004
 22
149.5299240879
 32
0.0
 13
43.0614395004
 23
149.5299240879
 33
0.0
  0
SOLID
  5
6C
330
68
100
AcDbEntity
  8
0
  6
Continuous
 62
     7
370
    18
100
AcDbTrace
 10
42.7614395004
 20
52.0299240879
 30
0.0
 11
43.0614395004
 21
54.5299240879
 31
0.0
 12
42.4614395004
 22
54.5299240879
 32
0.0
 13
42.4614395004
 23
54.5299240879
 33
0.0
  0
LINE
  5
6D
330
68
100
AcDbEntity
  8
0
  6
Continuous
 62
     7
370
     0
100
AcDbLine
 10
56.6850079902
 20
152.0299240879
 30
0.0
 11
41.7614395004
 21
152.0299240879
 31
0.0
  0
LINE
  5
6E
330
68
100
AcDbEntity
  8
0
  6
Continuous
 62
     7
370
     0
100
AcDbLine
 10
56.6850079902
 20
52.0299240879
 30
0.0
 11
41.7614395004
 21
52.0299240879
 31
0.0
  0
LINE
  5
6F
330
68
100
AcDbEntity
  8
0
  6
Continuous
 62
     7
370
     0
100
AcDbLine
 10
42.7614395004
 20
152.0299240879
 30
0.0
 11
42.7614395004
 21
52.0299240879
 31
0.0
  0
MTEXT
  5
70
330
68
100
AcDbEntity
  8
0
  6
Continuous
 62
     7
370
    18
100
AcDbMText
 10
35.0270332946
 20
94.3680541463
 30
0.0
 40
6.0
 41
0.0
 71
     1
 72
     1
  1
100
  7
SLDTEXTSTYLE0
 11
-7.044195017643634E-15
 21
1.0
 31
0.0
 73
     1
 44
1.0
  0
MTEXT
  5
71
330
68
100
AcDbEntity
  8
0
  6
Continuous
 62
     7
370
    18
100
AcDbMText
 10
35.0270332946
 20
105.7430548466
 30
0.0
 40
6.0
 41
0.0
 71
     1
 72
     1
  1
mm
  7
SLDTEXTSTYLE0
 11
-7.044195017643634E-15
 21
1.0
 31
0.0
 73
     1
 44
1.0
  0
ENDBLK
  5
6A
330
68
100
AcDbEntity
  8
0
100
AcDbBlockEnd
  0
BLOCK
  5
74
330
73
100
AcDbEntity
  8
0
100
AcDbBlockBegin
  2
_D_1
 70
     0
 10
0.0
 20
0.0
 30
0.0
  3
_D_1
  1

  0
SOLID
  5
76
330
73
100
AcDbEntity
  8
0
  6
Continuous
 62
     7
370
    18
100
AcDbTrace
 10
56.6850079902
 20
38.4602342313
 30
0.0
 11
59.1850079902
 21
38.1602342313
 31
0.0
 12
59.1850079902
 22
38.7602342313
 32
0.0
 13
59.1850079902
 23
38.7602342313
 33
0.0
  0
SOLID
  5
77
330
73
100
AcDbEntity
  8
0
  6
Continuous
 62
     7
370
    18
100
AcDbTrace
 10
156.6850079902
 20
38.4602342313
 30
0.0
 11
154.1850079902
 21
38.7602342313
 31
0.0
 12
154.1850079902
 22
38.1602342313
 32
0.0
 13
154.1850079902
 23
38.1602342313
 33
0.0
  0
LINE
  5
78
330
73
100
AcDbEntity
  8
0
  6
Continuous
 62
     7
370
     0
100
AcDbLine
 10
56.6850079902
 20
52.0299240879
 30
0.0
 11
56.6850079902
 21
37.4602342313
 31
0.0
  0
LINE
  5
79
330
73
100
AcDbEntity
  8
0
  6
Continuous
 62
     7
370
     0
100
AcDbLine
 10
156.6850079902
 20
52.0299240879
 30
0.0
 11
156.6850079902
 21
37.4602342313
 31
0.0
  0
LINE
  5
7A
330
73
100
AcDbEntity
  8
0
  6
Continuous
 62
     7
370
     0
100
AcDbLine
 10
56.6850079902
 20
38.4602342313
 30
0.0
 11
156.6850079902
 21
38.4602342313
 31
0.0
  0
MTEXT
  5
7B
330
73
100
AcDbEntity
  8
0
  6
Continuous
 62
     7
370
    18
100
AcDbMText
 10
93.9626484861
 20
46.1946404371
 30
0.0
 40
6.0
 41
0.0
 71
     1
 72
     1
  1
100
  7
SLDTEXTSTYLE0
 73
     1
 44
1.0
  0
MTEXT
  5
7C
330
73
100
AcDbEntity
  8
0
  6
Continuous
 62
     7
370
    18
100
AcDbMText
 10
105.3376491864
 20
46.1946404371
 30
0.0
 40
6.0
 41
0.0
 71
     1
 72
     1
  1
mm
  7
SLDTEXTSTYLE0
 73
     1
 44
1.0
  0
ENDBLK
  5
75
330
73
100
AcDbEntity
  8
0
100
AcDbBlockEnd
  0
ENDSEC
  0
SECTION
  2
ENTITIES
  0
LINE
  5
63
330
1F
100
AcDbEntity
  8
0
  6
Continuous
 62
     7
370
    18
100
AcDbLine
 10
56.6850079902
 20
152.0299240879
 30
0.0
 11
56.6850079902
 21
52.0299240879
 31
0.0
  0
LINE
  5
64
330
1F
100
AcDbEntity
  8
0
  6
Continuous
 62
     7
370
    18
100
AcDbLine
 10
56.6850079902
 20
52.0299240879
 30
0.0
 11
156.6850079902
 21
52.0299240879
 31
0.0
  0
DIMENSION
  5
65
330
1F
100
AcDbEntity
  8
0
  6
Continuous
 62
     7
370
    18
100
AcDbDimension
  2
_D
 10
42.7614395004
 20
52.0299240879
 30
0.0
 11
42.7614395004
 21
105.4472211621
 31
0.0
 70
   160
  1
<>mm
 71
     2
 42
-1.0
  3
SLDDIMSTYLE0
100
AcDbAlignedDimension
 13
56.6850079902
 23
152.0299240879
 33
0.0
 14
56.6850079902
 24
52.0299240879
 34
0.0
 50
90.0
100
AcDbRotatedDimension
  0
DIMENSION
  5
72
330
1F
100
AcDbEntity
  8
0
  6
Continuous
 62
     7
370
    18
100
AcDbDimension
  2
_D_1
 10
156.6850079902
 20
38.4602342313
 30
0.0
 11
105.0418155019
 21
38.4602342313
 31
0.0
 70
   160
  1
<>mm
 71
     2
 42
-1.0
  3
SLDDIMSTYLE0
100
AcDbAlignedDimension
 13
56.6850079902
 23
52.0299240879
 33
0.0
 14
156.6850079902
 24
52.0299240879
 34
0.0
100
AcDbRotatedDimension
  0
MTEXT
  5
7E
330
1F
100
AcDbEntity
  8
0
  6
Continuous
 62
     7
370
     0
100
AcDbMText
 10
412.8252631579
 20
48.4342449499
 30
0.0
 40
10.0
 41
0.0
 71
     1
 72
     1
  1
KLUDI GmbH & Co KG
  7
SLDTEXTSTYLE1
 73
     1
 44
1.0
  0
MTEXT
  5
7F
330
1F
100
AcDbEntity
  8
0
  6
Continuous
 62
     7
370
     0
100
AcDbMText
 10
210.0873490389
 20
48.4342449499
 30
0.0
 40
10.0
 41
0.0
 71
     1
 72
     1
  1
42 759 .. 75
  7
SLDTEXTSTYLE1
 73
     1
 44
1.0
  0
SPLINE
  5
80
330
1F
100
AcDbEntity
  8
0
  6
Continuous
 62
     7
370
    25
100
AcDbSpline
210
0.0
220
0.0
230
1.0
 70
     8
 71
     3
 72
    26
 73
    22
 74
     0
 42
0.00000001
 43
0.00000001
 40
0.0
 40
0.0
 40
0.0
 40
0.0
 40
0.0625
 40
0.0625
 40
0.1249999999999999
 40
0.1249999999999999
 40
0.2500000000000001
 40
0.2500000000000001
 40
0.3750000000000003
 40
0.3750000000000003
 40
0.5000000000000006
 40
0.5000000000000006
 40
0.6250000000000008
 40
0.6250000000000008
 40
0.750000000000001
 40
0.750000000000001
 40
0.8750000000000013
 40
0.8750000000000013
 40
0.9375000000000007
 40
0.9375000000000007
 40
1.0
 40
1.0
 40
1.0
 40
1.0
 10
185.1108898982236
 20
334.4017094347073
 30
0.0
 10
184.5526848746975
 20
334.401709434707
 30
0.0
 10
183.9940566529373
 20
334.4019195380273
 30
0.0
 10
182.8704498379736
 20
334.4224247194018
 30
0.0
 10
182.3055528989668
 20
334.442698822494
 30
0.0
 10
180.6063559980306
 20
334.5560854255626
 30
0.0
 10
179.4659010496336
 20
334.7034025107731
 30
0.0
 10
177.2611708017621
 20
335.2153245336315
 30
0.0
 10
176.1995084365795
 20
335.5792582724962
 30
0.0
 10
174.270492571682
 20
336.5524720837748
 30
0.0
 10
173.405752006259
 20
337.1610809574055
 30
0.0
 10
171.9317305988282
 20
338.6274045420597
 30
0.0
 10
171.3186023175326
 20
339.4889465997827
 30
0.0
 10
170.3353015895276
 20
341.4128403098911
 30
0.0
 10
169.9658140136303
 20
342.4725825781746
 30
0.0
 10
169.4423551202345
 20
344.6746021989527
 30
0.0
 10
169.2890686735479
 20
345.8142701673454
 30
0.0
 10
169.1667866912377
 20
347.5128500879581
 30
0.0
 10
169.1435550861162
 20
348.0776331290269
 30
0.0
 10
169.1171670211768
 20
349.2011171774784
 30
0.0
 10
169.1140319635718
 20
349.7597366416078
 30
0.0
 10
169.1111092222578
 20
350.3179340133976
 30
0.0
  0
SPLINE
  5
81
330
1F
100
AcDbEntity
  8
0
  6
Continuous
 62
     7
370
    25
100
AcDbSpline
210
0.0
220
0.0
230
1.0
 70
     8
 71
     3
 72
    26
 73
    22
 74
     0
 42
0.00000001
 43
0.00000001
 40
0.0
 40
0.0
 40
0.0
 40
0.0
 40
0.0624999999999999
 40
0.0624999999999999
 40
0.1249999999999999
 40
0.1249999999999999
 40
0.2499999999999997
 40
0.2499999999999997
 40
0.3749999999999998
 40
0.3749999999999998
 40
0.4999999999999998
 40
0.4999999999999998
 40
0.6249999999999998
 40
0.6249999999999998
 40
0.7499999999999999
 40
0.7499999999999999
 40
0.875
 40
0.875
 40
0.9375
 40
0.9375
 40
1.0
 40
1.0
 40
1.0
 40
1.0
 10
201.8398133502203
 20
437.4017094347148
 30
0.0
 10
202.3996179014405
 20
437.4017094347151
 30
0.0
 10
202.9598484848277
 20
437.4014973651826
 30
0.0
 10
204.0866822480386
 20
437.3808743766552
 30
0.0
 10
204.6532031570894
 20
437.3604846681005
 30
0.0
 10
206.3572429175943
 20
437.2464806552517
 30
0.0
 10
207.5008958159367
 20
437.0983774678796
 30
0.0
 10
209.7112434120664
 20
436.584003516661
 30
0.0
 10
210.7753054451165
 20
436.218411486909
 30
0.0
 10
212.7075625416556
 20
435.2412338263638
 30
0.0
 10
213.5731249404074
 20
434.6303269296651
 30
0.0
 10
215.0470214851576
 20
433.1591145472637
 30
0.0
 10
215.6592328292627
 20
432.295005751321
 30
0.0
 10
216.6394303775079
 20
430.3657411016497
 30
0.0
 10
217.0067409812374
 20
429.3031820233937
 30
0.0
 10
217.5250780684046
 20
427.0949098218981
 30
0.0
 10
217.6754289514314
 20
425.9517934741309
 30
0.0
 10
217.7929315876906
 20
424.2473017128323
 30
0.0
 10
217.8145047063226
 20
423.6804261436586
 30
0.0
 10
217.8374318689834
 20
422.5525020467567
 30
0.0
 10
217.8387648004994
 20
421.991534668262
 30
0.0
 10
217.8397867696474
 20
421.4308741026163
 30
0.0
  0
SPLINE
  5
82
330
1F
100
AcDbEntity
  8
0
  6
Continuous
 62
     7
370
    25
100
AcDbSpline
210
0.0
220
0.0
230
1.0
 70
     8
 71
     3
 72
    26
 73
    22
 74
     0
 42
0.00000001
 43
0.00000001
 40
0.0
 40
0.0
 40
0.0
 40
0.0
 40
0.0625000000000002
 40
0.0625000000000002
 40
0.1250000000000004
 40
0.1250000000000004
 40
0.2500000000000004
 40
0.2500000000000004
 40
0.3750000000000004
 40
0.3750000000000004
 40
0.5000000000000004
 40
0.5000000000000004
 40
0.6250000000000003
 40
0.6250000000000003
 40
0.7500000000000001
 40
0.7500000000000001
 40
0.875
 40
0.875
 40
0.9375
 40
0.9375
 40
1.0
 40
1.0
 40
1.0
 40
1.0
 10
168.8553336734959
 20
421.4308741025947
 30
0.0
 10
168.8563556426433
 20
421.9915346682404
 30
0.0
 10
168.8576885741588
 20
422.5525020467351
 30
0.0
 10
168.8806157368186
 20
423.680426143637
 30
0.0
 10
168.9021888554501
 20
424.2473017128107
 30
0.0
 10
169.0196914917078
 20
425.9517934741094
 30
0.0
 10
169.1700423747337
 20
427.0949098218767
 30
0.0
 10
169.6883794618989
 20
429.3031820233729
 30
0.0
 10
170.0556900656274
 20
430.3657411016292
 30
0.0
 10
171.035887613871
 20
432.2950057513012
 30
0.0
 10
171.6480989579753
 20
433.1591145472445
 30
0.0
 10
173.1219955027242
 20
434.6303269296472
 30
0.0
 10
173.9875579014754
 20
435.2412338263467
 30
0.0
 10
175.9198149980136
 20
436.2184114868936
 30
0.0
 10
176.9838770310635
 20
436.5840035166465
 30
0.0
 10
179.1942246271927
 20
437.0983774678671
 30
0.0
 10
180.3378775255349
 20
437.2464806552402
 30
0.0
 10
182.0419172860396
 20
437.3604846680905
 30
0.0
 10
182.6084381950905
 20
437.3808743766456
 30
0.0
 10
183.7352719583014
 20
437.4014973651741
 30
0.0
 10
184.2955025416885
 20
437.4017094347071
 30
0.0
 10
184.8553070929087
 20
437.4017094347073
 30
0.0
  0
LINE
  5
83
330
1F
100
AcDbEntity
  8
0
  6
Continuous
 62
     7
370
    25
100
AcDbLine
 10
217.783419225
 20
388.4017094347
 30
0.0
 11
217.5840112209
 21
350.3179340134
 31
0.0
  0
SPLINE
  5
84
330
1F
100
AcDbEntity
  8
0
  6
Continuous
 62
     7
370
    25
100
AcDbSpline
210
0.0
220
0.0
230
1.0
 70
     8
 71
     3
 72
    26
 73
    22
 74
     0
 42
0.00000001
 43
0.00000001
 40
0.0
 40
0.0
 40
0.0
 40
0.0
 40
0.0624999999999993
 40
0.0624999999999993
 40
0.1249999999999986
 40
0.1249999999999986
 40
0.2499999999999988
 40
0.2499999999999988
 40
0.3749999999999989
 40
0.3749999999999989
 40
0.499999999999999
 40
0.499999999999999
 40
0.6249999999999991
 40
0.6249999999999991
 40
0.7499999999999993
 40
0.7499999999999993
 40
0.8749999999999997
 40
0.8749999999999997
 40
0.9374999999999998
 40
0.9374999999999998
 40
1.0
 40
1.0
 40
1.0
 40
1.0
 10
217.5840112209482
 20
350.317934013419
 30
0.0
 10
217.5810884796347
 20
349.7597366416292
 30
0.0
 10
217.5779534220302
 20
349.2011171774998
 30
0.0
 10
217.5515653570918
 20
348.0776331290484
 30
0.0
 10
217.5283337519708
 20
347.5128500879795
 30
0.0
 10
217.4060517696621
 20
345.8142701673667
 30
0.0
 10
217.2527653229766
 20
344.6746021989738
 30
0.0
 10
216.7293064295827
 20
342.4725825781953
 30
0.0
 10
216.3598188536863
 20
341.4128403099114
 30
0.0
 10
215.376518125683
 20
339.4889465998022
 30
0.0
 10
214.7633898443881
 20
338.6274045420787
 30
0.0
 10
213.2893684369587
 20
337.1610809574231
 30
0.0
 10
212.4246278715362
 20
336.5524720837917
 30
0.0
 10
210.4956120066395
 20
335.5792582725114
 30
0.0
 10
209.4339496414572
 20
335.2153245336458
 30
0.0
 10
207.2292193935862
 20
334.7034025107853
 30
0.0
 10
206.0887644451893
 20
334.5560854255738
 30
0.0
 10
204.3895675442532
 20
334.4426988225038
 30
0.0
 10
203.8246706052464
 20
334.422424719411
 30
0.0
 10
202.7010637902827
 20
334.4019195380355
 30
0.0
 10
202.1424355685225
 20
334.4017094347149
 30
0.0
 10
201.5842305449964
 20
334.4017094347146
 30
0.0
  0
ARC
  5
85
330
1F
100
AcDbEntity
  8
0
  6
Continuous
 62
     7
370
    25
100
AcDbCircle
 10
-4461.3291470319
 20
412.9017094327
 30
0.0
 40
4679.176707253516
100
AcDbArc
 50
359.7
 51
0.1044383317
  0
LINE
  5
86
330
1F
100
AcDbEntity
  8
0
  6
Continuous
 62
     7
370
    25
100
AcDbLine
 10
184.8553070929
 20
437.4017094347
 30
0.0
 11
201.8398133502
 21
437.4017094347
 31
0.0
  0
LINE
  5
87
330
1F
100
AcDbEntity
  8
0
  6
Continuous
 62
     7
370
    25
100
AcDbLine
 10
201.584230545
 20
334.4017094347
 30
0.0
 11
185.1108898982
 21
334.4017094347
 31
0.0
  0
LINE
  5
88
330
1F
100
AcDbEntity
  8
0
  6
Continuous
 62
     7
370
    25
100
AcDbLine
 10
169.1111092223
 20
350.3179340134
 30
0.0
 11
168.9117012181
 21
388.4017094347
 31
0.0
  0
ARC
  5
89
330
1F
100
AcDbEntity
  8
0
  6
Continuous
 62
     7
370
    25
100
AcDbCircle
 10
4848.0242674751
 20
412.9017094368
 30
0.0
 40
4679.176707253523
100
AcDbArc
 50
179.8955616684
 51
180.3
  0
LWPOLYLINE
  5
8A
330
1F
100
AcDbEntity
  8
0
  6
Continuous
 62
     7
370
    25
100
AcDbPolyline
 90
        3
 70
   128
 43
0.0
 10
194.8054030043
 20
437.4017094347
 10
193.3475602216
 20
437.4451214793
 10
191.8897174388
 20
437.4017094347
  0
SPLINE
  5
8B
330
1F
100
AcDbEntity
  8
0
  6
Continuous
 62
     7
370
    25
100
AcDbSpline
210
0.0
220
0.0
230
1.0
 70
    11
 71
     3
 72
    95
 73
    91
 74
     0
 42
0.00000001
 43
0.00000001
 40
0.0
 40
0.0
 40
0.0
 40
0.0
 40
0.0312499999999996
 40
0.0312499999999996
 40
0.0468749999999994
 40
0.0468749999999994
 40
0.0624999999999992
 40
0.0624999999999992
 40
0.0937499999999988
 40
0.0937499999999988
 40
0.1093749999999986
 40
0.1093749999999986
 40
0.1249999999999984
 40
0.1249999999999984
 40
0.1562499999999982
 40
0.1562499999999982
 40
0.171874999999998
 40
0.171874999999998
 40
0.1874999999999978
 40
0.2031249999999975
 40
0.2031249999999975
 40
0.2187499999999973
 40
0.2187499999999973
 40
0.2499999999999971
 40
0.2499999999999971
 40
0.2656249999999972
 40
0.2656249999999972
 40
0.2812499999999972
 40
0.2812499999999972
 40
0.3124999999999974
 40
0.3124999999999974
 40
0.3281249999999976
 40
0.3281249999999976
 40
0.3437499999999977
 40
0.3437499999999977
 40
0.3749999999999981
 40
0.3749999999999981
 40
0.4062499999999984
 40
0.4062499999999984
 40
0.4218749999999987
 40
0.4218749999999987
 40
0.4374999999999989
 40
0.4374999999999989
 40
0.4687499999999993
 40
0.4687499999999993
 40
0.4999999999999998
 40
0.4999999999999998
 40
0.5312500000000002
 40
0.5312500000000002
 40
0.5468750000000004
 40
0.5468750000000004
 40
0.5625000000000007
 40
0.578125000000001
 40
0.578125000000001
 40
0.5937500000000012
 40
0.5937500000000012
 40
0.6250000000000016
 40
0.6250000000000016
 40
0.6406250000000017
 40
0.6406250000000017
 40
0.6562500000000018
 40
0.6562500000000018
 40
0.687500000000002
 40
0.687500000000002
 40
0.7031250000000021
 40
0.7031250000000021
 40
0.7187500000000021
 40
0.7187500000000021
 40
0.7500000000000021
 40
0.7500000000000021
 40
0.765625000000002
 40
0.765625000000002
 40
0.7812500000000019
 40
0.7968750000000018
 40
0.7968750000000018
 40
0.8125000000000017
 40
0.8125000000000017
 40
0.8437500000000014
 40
0.8437500000000014
 40
0.8750000000000011
 40
0.8750000000000011
 40
0.9062500000000008
 40
0.9062500000000008
 40
0.9218750000000007
 40
0.9218750000000007
 40
0.9375000000000006
 40
0.9375000000000006
 40
0.9687500000000003
 40
0.9687500000000003
 40
1.0
 40
1.0
 40
1.0
 40
1.0
 10
193.3475602215792
 20
492.3433126810643
 30
0.0
 10
192.5946050038166
 20
492.3433126941426
 30
0.0
 10
191.8542333664844
 20
492.2694266401175
 30
0.0
 10
190.7617791617849
 20
492.0523018517339
 30
0.0
 10
190.4006674047973
 20
491.9620792310459
 30
0.0
 10
189.68466185608
 20
491.7451242691183
 30
0.0
 10
189.3287982415294
 20
491.6177800512637
 30
0.0
 10
188.2936381828021
 20
491.1887169588082
 30
0.0
 10
187.6390221126389
 20
490.83863551354
 30
0.0
 10
186.7098561668404
 20
490.2183156594677
 30
0.0
 10
186.4079895064561
 20
489.9947324261589
 30
0.0
 10
185.8271400829652
 20
489.5180493846017
 30
0.0
 10
185.5507263129832
 20
489.2672350221073
 30
0.0
 10
184.7622052246288
 20
488.4785417462584
 30
0.0
 10
184.2904326352669
 20
487.9047558154853
 30
0.0
 10
183.6655659706261
 20
486.9703725558405
 30
0.0
 10
183.4715597512265
 20
486.6466365676705
 30
0.0
 10
183.1199515215916
 20
485.9886499984983
 30
0.0
 10
182.8023070183185
 20
485.3167007582484
 30
0.0
 10
182.5515643071475
 20
484.6172477491478
 30
0.0
 10
182.3347283039904
 20
483.9038554460862
 30
0.0
 10
182.2429090103387
 20
483.5382276815537
 30
0.0
 10
182.0233450762388
 20
482.4348694783677
 30
0.0
 10
181.9509432557585
 20
481.6953965430064
 30
0.0
 10
181.9503437674638
 20
480.5804920263653
 30
0.0
 10
181.9682740469654
 20
480.2079011710015
 30
0.0
 10
182.0414980747367
 20
479.4607492866174
 30
0.0
 10
182.0967546794912
 20
479.0884867183649
 30
0.0
 10
182.3147605932807
 20
477.9921956602062
 30
0.0
 10
182.5298387948473
 20
477.2817440052385
 30
0.0
 10
182.9576525515821
 20
476.2468515489132
 30
0.0
 10
183.1189737055257
 20
475.9052541637964
 30
0.0
 10
183.4718009942007
 20
475.2448841934673
 30
0.0
 10
183.6632967101363
 20
474.92551366878
 30
0.0
 10
184.2819440714058
 20
473.9990668190398
 30
0.0
 10
184.7528248769156
 20
473.4233461350687
 30
0.0
 10
185.8160462387534
 20
472.3589967499547
 30
0.0
 10
186.3928905093055
 20
471.8862787152653
 30
0.0
 10
187.3184856385881
 20
471.2669931732607
 30
0.0
 10
187.6374042662661
 20
471.0753835732468
 30
0.0
 10
188.2964525397937
 20
470.7224259429413
 30
0.0
 10
188.6381017936149
 20
470.5606145543938
 30
0.0
 10
189.6739629779241
 20
470.1312277830974
 30
0.0
 10
190.3843865965709
 20
469.915599568001
 30
0.0
 10
191.8444419439737
 20
469.6238557942003
 30
0.0
 10
192.5997538316338
 20
469.5490646568719
 30
0.0
 10
194.0873115665071
 20
469.5485389821566
 30
0.0
 10
194.8265121342156
 20
469.6203883032356
 30
0.0
 10
195.9283058721397
 20
469.838530332805
 30
0.0
 10
196.2947753608055
 20
469.9301412813021
 30
0.0
 10
197.0092139743401
 20
470.1465848070756
 30
0.0
 10
197.7092993841383
 20
470.3969037670042
 30
0.0
 10
198.3811596366475
 20
470.7138377605568
 30
0.0
 10
199.0387396846778
 20
471.0644748755791
 30
0.0
 10
199.3618260504378
 20
471.2576260415564
 30
0.0
 10
200.2984000537227
 20
471.8826632656898
 30
0.0
 10
200.8728030323724
 20
472.3542964207949
 30
0.0
 10
201.6616908939784
 20
473.1416819263417
 30
0.0
 10
201.9124462170898
 20
473.4175629760963
 30
0.0
 10
202.3888439217833
 20
473.996931154167
 30
0.0
 10
202.6135020637097
 20
474.2995820893394
 30
0.0
 10
203.2352738946203
 20
475.2291661703544
 30
0.0
 10
203.5857501030045
 20
475.8834825300327
 30
0.0
 10
204.0152033843686
 20
476.9169572499674
 30
0.0
 10
204.1427554289228
 20
477.2722205154261
 30
0.0
 10
204.3607165138476
 20
477.9891250970596
 30
0.0
 10
204.4513264508757
 20
478.3505029523732
 30
0.0
 10
204.6694613158592
 20
479.4431875110249
 30
0.0
 10
204.7438113009451
 20
480.1829623939809
 30
0.0
 10
204.744952830928
 20
481.3102032208955
 30
0.0
 10
204.7266689922182
 20
481.6853110003281
 30
0.0
 10
204.6541433916602
 20
482.42652679606
 30
0.0
 10
204.5456683212311
 20
483.1612218174574
 30
0.0
 10
204.3659960597163
 20
483.8830025524911
 30
0.0
 10
204.1500389425687
 20
484.5982016679055
 30
0.0
 10
204.0230847447209
 20
484.9542157148302
 30
0.0
 10
203.5944314721387
 20
485.9912337602245
 30
0.0
 10
203.2447466780983
 20
486.6462545635144
 30
0.0
 10
202.4195583963001
 20
487.8847916145991
 30
0.0
 10
201.9386399984558
 20
488.4720657700517
 30
0.0
 10
200.8872409383466
 20
489.5251854214195
 30
0.0
 10
200.3140252551279
 20
489.9971997733809
 30
0.0
 10
199.3817268472837
 20
490.6220255630576
 30
0.0
 10
199.0577545637127
 20
490.8166672029924
 30
0.0
 10
198.3992742239475
 20
491.1693541769621
 30
0.0
 10
198.0632102969527
 20
491.3285760792192
 30
0.0
 10
197.0349262478491
 20
491.7558281759169
 30
0.0
 10
196.3203996792399
 20
491.9744157002928
 30
0.0
 10
194.8456621380626
 20
492.2694180870195
 30
0.0
 10
194.1005154393419
 20
492.3433126679861
 30
0.0
 10
193.3475602215792
 20
492.3433126810643
 30
0.0
  0
SPLINE
  5
8C
330
1F
100
AcDbEntity
  8
0
  6
Continuous
 62
     7
370
    25
100
AcDbSpline
210
0.0
220
0.0
230
1.0
 70
     8
 71
     3
 72
    18
 73
    14
 74
     0
 42
0.00000001
 43
0.00000001
 40
0.0
 40
0.0
 40
0.0
 40
0.0
 40
0.25
 40
0.25
 40
0.5
 40
0.5
 40
0.625
 40
0.625
 40
0.75
 40
0.75
 40
0.875
 40
0.875
 40
1.0
 40
1.0
 40
1.0
 40
1.0
 10
245.3244920410016
 20
518.0380813474465
 30
0.0
 10
246.8962045157748
 20
518.0217419088452
 30
0.0
 10
248.4701909797818
 20
517.9639411605764
 30
0.0
 10
251.6030754604754
 20
517.6449336698284
 30
0.0
 10
253.148859815154
 20
517.3873025374921
 30
0.0
 10
255.4134972328759
 20
516.7913282645447
 30
0.0
 10
256.1597163543065
 20
516.5575480685876
 30
0.0
 10
257.6311376040866
 20
516.0047498569376
 30
0.0
 10
258.3590469662868
 20
515.6836495804943
 30
0.0
 10
259.7513406242712
 20
514.9554085989803
 30
0.0
 10
260.4197610652151
 20
514.5469376990277
 30
0.0
 10
261.6929468351561
 20
513.6281748376306
 30
0.0
 10
262.3003558044645
 20
513.1141374689198
 30
0.0
 10
262.85847304837
 20
512.5560343061051
 30
0.0
  0
SPLINE
  5
8D
330
1F
100
AcDbEntity
  8
0
  6
Continuous
 62
     7
370
    25
100
AcDbSpline
210
0.0
220
0.0
230
1.0
 70
     8
 71
     3
 72
    18
 73
    14
 74
     0
 42
0.00000001
 43
0.00000001
 40
0.0
 40
0.0
 40
0.0
 40
0.0
 40
0.25
 40
0.25
 40
0.5
 40
0.5
 40
0.625
 40
0.625
 40
0.75
 40
0.75
 40
0.875
 40
0.875
 40
1.0
 40
1.0
 40
1.0
 40
1.0
 10
118.3546003534332
 20
495.0220532987227
 30
0.0
 10
118.3709397920345
 20
496.5937657735001
 30
0.0
 10
118.4287405403032
 20
498.1677522374974
 30
0.0
 10
118.7477480310512
 20
501.300636718202
 30
0.0
 10
119.0053791633983
 20
502.8464210728698
 30
0.0
 10
119.6013534363295
 20
505.1110584905996
 30
0.0
 10
119.8351336322921
 20
505.8572776120276
 30
0.0
 10
120.387931843942
 20
507.3286988618078
 30
0.0
 10
120.7090321203853
 20
508.0566082240079
 30
0.0
 10
121.4372731018993
 20
509.4489018819923
 30
0.0
 10
121.8457440018628
 20
510.1173223229308
 30
0.0
 10
122.7645068632381
 20
511.3905080928827
 30
0.0
 10
123.2785442319592
 20
511.9979170621904
 30
0.0
 10
123.8366473947745
 20
512.5560343060912
 30
0.0
  0
SPLINE
  5
8E
330
1F
100
AcDbEntity
  8
0
  6
Continuous
 62
     7
370
    25
100
AcDbSpline
210
0.0
220
0.0
230
1.0
 70
     8
 71
     3
 72
    18
 73
    14
 74
     0
 42
0.00000001
 43
0.00000001
 40
0.0
 40
0.0
 40
0.0
 40
0.0
 40
0.25
 40
0.25
 40
0.5
 40
0.5
 40
0.625
 40
0.625
 40
0.75
 40
0.75
 40
0.875
 40
0.875
 40
1.0
 40
1.0
 40
1.0
 40
1.0
 10
141.3706284021574
 20
518.0380813474468
 30
0.0
 10
139.7989159273887
 20
518.0217419088023
 30
0.0
 10
138.2249294633718
 20
517.9639411605878
 30
0.0
 10
135.0920449826891
 20
517.6449336698179
 30
0.0
 10
133.5462606280104
 20
517.3873025374818
 30
0.0
 10
131.2816232102805
 20
516.7913282645505
 30
0.0
 10
130.535404088858
 20
516.557548068588
 30
0.0
 10
129.0639828390669
 20
516.004749856938
 30
0.0
 10
128.3360734768722
 20
515.6836495805002
 30
0.0
 10
126.9437798188878
 20
514.9554085989753
 30
0.0
 10
126.2753593779439
 20
514.5469376990227
 30
0.0
 10
125.0021736080029
 20
513.6281748376366
 30
0.0
 10
124.3947646387252
 20
513.1141374688854
 30
0.0
 10
123.8366473947889
 20
512.5560343061055
 30
0.0
  0
SPLINE
  5
8F
330
1F
100
AcDbEntity
  8
0
  6
Continuous
 62
     7
370
    25
100
AcDbSpline
210
0.0
220
0.0
230
1.0
 70
     8
 71
     3
 72
    18
 73
    14
 74
     0
 42
0.00000001
 43
0.00000001
 40
0.0
 40
0.0
 40
0.0
 40
0.0
 40
0.25
 40
0.25
 40
0.5
 40
0.5
 40
0.625
 40
0.625
 40
0.75
 40
0.75
 40
0.875
 40
0.875
 40
1.0
 40
1.0
 40
1.0
 40
1.0
 10
268.3405200897257
 20
495.0220532987223
 30
0.0
 10
268.3241806510478
 20
496.5937657734946
 30
0.0
 10
268.2663799028666
 20
498.1677522375024
 30
0.0
 10
267.9473724120967
 20
501.3006367181959
 30
0.0
 10
267.6897412797714
 20
502.8464210728691
 30
0.0
 10
267.093767006824
 20
505.1110584905991
 30
0.0
 10
266.8599868108614
 20
505.8572776120107
 30
0.0
 10
266.3071885992223
 20
507.3286988618235
 30
0.0
 10
265.986088322779
 20
508.0566082240074
 30
0.0
 10
265.2578473412541
 20
509.4489018819918
 30
0.0
 10
264.8493764413016
 20
510.1173223229412
 30
0.0
 10
263.9306135799154
 20
511.3905080928712
 30
0.0
 10
263.4165762111786
 20
511.9979170621729
 30
0.0
 10
262.8584730483844
 20
512.5560343060906
 30
0.0
  0
SPLINE
  5
90
330
1F
100
AcDbEntity
  8
0
  6
Continuous
 62
     7
370
    25
100
AcDbSpline
210
0.0
220
0.0
230
1.0
 70
     8
 71
     3
 72
    18
 73
    14
 74
     0
 42
0.00000001
 43
0.00000001
 40
0.0
 40
0.0
 40
0.0
 40
0.0
 40
0.25
 40
0.25
 40
0.5
 40
0.5
 40
0.625
 40
0.625
 40
0.75
 40
0.75
 40
0.875
 40
0.875
 40
1.0
 40
1.0
 40
1.0
 40
1.0
 10
245.3244920410016
 20
368.0521616111548
 30
0.0
 10
246.8962045157748
 20
368.068501049756
 30
0.0
 10
248.4701909797818
 20
368.1263017980248
 30
0.0
 10
251.6030754604754
 20
368.4453092887728
 30
0.0
 10
253.148859815154
 20
368.7029404211091
 30
0.0
 10
255.4134972328759
 20
369.2989146940565
 30
0.0
 10
256.1597163543065
 20
369.5326948900137
 30
0.0
 10
257.6311376040866
 20
370.0854931016636
 30
0.0
 10
258.3590469662868
 20
370.406593378107
 30
0.0
 10
259.7513406242712
 20
371.134834359621
 30
0.0
 10
260.4197610652151
 20
371.5433052595735
 30
0.0
 10
261.6929468351561
 20
372.4620681209706
 30
0.0
 10
262.3003558044645
 20
372.9761054896815
 30
0.0
 10
262.85847304837
 20
373.5342086524962
 30
0.0
  0
SPLINE
  5
91
330
1F
100
AcDbEntity
  8
0
  6
Continuous
 62
     7
370
    25
100
AcDbSpline
210
0.0
220
0.0
230
1.0
 70
     8
 71
     3
 72
    18
 73
    14
 74
     0
 42
0.00000001
 43
0.00000001
 40
0.0
 40
0.0
 40
0.0
 40
0.0
 40
0.25
 40
0.25
 40
0.5
 40
0.5
 40
0.625
 40
0.625
 40
0.75
 40
0.75
 40
0.875
 40
0.875
 40
1.0
 40
1.0
 40
1.0
 40
1.0
 10
118.3546003534332
 20
391.0681896598784
 30
0.0
 10
118.3709397920345
 20
389.4964771851012
 30
0.0
 10
118.4287405403032
 20
387.9224907211037
 30
0.0
 10
118.7477480310512
 20
384.7896062403993
 30
0.0
 10
119.0053791633983
 20
383.2438218857314
 30
0.0
 10
119.6013534363295
 20
380.9791844680016
 30
0.0
 10
119.8351336322921
 20
380.2329653465736
 30
0.0
 10
120.387931843942
 20
378.7615440967934
 30
0.0
 10
120.7090321203853
 20
378.0336347345933
 30
0.0
 10
121.4372731018993
 20
376.6413410766089
 30
0.0
 10
121.8457440018628
 20
375.9729206356704
 30
0.0
 10
122.7645068632381
 20
374.6997348657185
 30
0.0
 10
123.2785442319592
 20
374.0923258964107
 30
0.0
 10
123.8366473947745
 20
373.53420865251
 30
0.0
  0
SPLINE
  5
92
330
1F
100
AcDbEntity
  8
0
  6
Continuous
 62
     7
370
    25
100
AcDbSpline
210
0.0
220
0.0
230
1.0
 70
     8
 71
     3
 72
    18
 73
    14
 74
     0
 42
0.00000001
 43
0.00000001
 40
0.0
 40
0.0
 40
0.0
 40
0.0
 40
0.25
 40
0.25
 40
0.5
 40
0.5
 40
0.625
 40
0.625
 40
0.75
 40
0.75
 40
0.875
 40
0.875
 40
1.0
 40
1.0
 40
1.0
 40
1.0
 10
268.3405200897257
 20
391.068189659879
 30
0.0
 10
268.3241806510478
 20
389.4964771851066
 30
0.0
 10
268.2663799028666
 20
387.9224907210989
 30
0.0
 10
267.9473724120967
 20
384.7896062404052
 30
0.0
 10
267.6897412797714
 20
383.243821885732
 30
0.0
 10
267.093767006824
 20
380.9791844680021
 30
0.0
 10
266.8599868108614
 20
380.2329653465906
 30
0.0
 10
266.3071885992223
 20
378.7615440967776
 30
0.0
 10
265.986088322779
 20
378.0336347345938
 30
0.0
 10
265.2578473412541
 20
376.6413410766095
 30
0.0
 10
264.8493764413016
 20
375.97292063566
 30
0.0
 10
263.9306135799154
 20
374.69973486573
 30
0.0
 10
263.4165762111786
 20
374.0923258964284
 30
0.0
 10
262.8584730483844
 20
373.5342086525105
 30
0.0
  0
SPLINE
  5
93
330
1F
100
AcDbEntity
  8
0
  6
Continuous
 62
     7
370
    25
100
AcDbSpline
210
0.0
220
0.0
230
1.0
 70
     8
 71
     3
 72
    18
 73
    14
 74
     0
 42
0.00000001
 43
0.00000001
 40
0.0
 40
0.0
 40
0.0
 40
0.0
 40
0.25
 40
0.25
 40
0.5
 40
0.5
 40
0.625
 40
0.625
 40
0.75
 40
0.75
 40
0.875
 40
0.875
 40
1.0
 40
1.0
 40
1.0
 40
1.0
 10
141.3706284021574
 20
368.0521616111544
 30
0.0
 10
139.7989159273887
 20
368.068501049799
 30
0.0
 10
138.2249294633718
 20
368.1263017980134
 30
0.0
 10
135.0920449826891
 20
368.4453092887833
 30
0.0
 10
133.5462606280104
 20
368.7029404211195
 30
0.0
 10
131.2816232102805
 20
369.2989146940506
 30
0.0
 10
130.535404088858
 20
369.5326948900133
 30
0.0
 10
129.0639828390669
 20
370.0854931016632
 30
0.0
 10
128.3360734768722
 20
370.406593378101
 30
0.0
 10
126.9437798188878
 20
371.1348343596259
 30
0.0
 10
126.2753593779439
 20
371.5433052595785
 30
0.0
 10
125.0021736080029
 20
372.4620681209647
 30
0.0
 10
124.3947646387252
 20
372.9761054897159
 30
0.0
 10
123.8366473947889
 20
373.5342086524956
 30
0.0
  0
ARC
  5
94
330
1F
100
AcDbEntity
  8
0
  6
Continuous
 62
     7
370
    25
100
AcDbCircle
 10
5118.0844329103
 20
443.0451214793
 30
0.0
 40
5000.000000000001
100
AcDbArc
 50
179.404377507
 51
180.595622493
  0
ARC
  5
95
330
1F
100
AcDbEntity
  8
0
  6
Continuous
 62
     7
370
    25
100
AcDbCircle
 10
-4731.3893124671
 20
443.0451214794
 30
0.0
 40
5000.0
100
AcDbArc
 50
359.404377507
 51
0.595622493
  0
ARC
  5
96
330
1F
100
AcDbEntity
  8
0
  6
Continuous
 62
     7
370
    25
100
AcDbCircle
 10
193.3475602215
 20
-4481.6917512094
 30
0.0
 40
5000.0
100
AcDbArc
 50
89.404377507
 51
90.595622493
  0
ARC
  5
97
330
1F
100
AcDbEntity
  8
0
  6
Continuous
 62
     7
370
    25
100
AcDbCircle
 10
193.3475602215
 20
5367.781994168
 30
0.0
 40
5000.0
100
AcDbArc
 50
270.2787817749
 51
270.595622493
  0
ARC
  5
98
330
1F
100
AcDbEntity
  8
0
  6
Continuous
 62
     7
370
    25
100
AcDbCircle
 10
193.3475602215
 20
5367.781994168
 30
0.0
 40
5000.0
100
AcDbArc
 50
269.4043775071
 51
269.7212182251
  0
LINE
  5
99
330
1F
100
AcDbEntity
  8
0
  6
Continuous
 62
     8
370
    18
100
AcDbLine
 10
169.1111092223
 20
350.3179340134
 30
0.0
 11
170.1110955145
 21
350.3231699772
 31
0.0
  0
SPLINE
  5
9A
330
1F
100
AcDbEntity
  8
0
  6
Continuous
 62
     8
370
    18
100
AcDbSpline
210
0.0
220
0.0
230
1.0
 70
     8
 71
     3
 72
    30
 73
    26
 74
     0
 42
0.00000001
 43
0.00000001
 40
0.0
 40
0.0
 40
0.0
 40
0.0
 40
0.1250000000000002
 40
0.1250000000000002
 40
0.2500000000000005
 40
0.2500000000000005
 40
0.3750000000000008
 40
0.3750000000000008
 40
0.437500000000001
 40
0.437500000000001
 40
0.5000000000000012
 40
0.5000000000000012
 40
0.5312500000000013
 40
0.5312500000000013
 40
0.5625000000000013
 40
0.5625000000000013
 40
0.6250000000000012
 40
0.6250000000000012
 40
0.6875000000000011
 40
0.6875000000000011
 40
0.750000000000001
 40
0.750000000000001
 40
0.8750000000000006
 40
0.8750000000000006
 40
1.0
 40
1.0
 40
1.0
 40
1.0
 10
170.1110955145051
 20
350.3231699772295
 30
0.0
 10
170.1165402238683
 20
349.2833165895271
 30
0.0
 10
170.1245901034724
 20
348.2436662044843
 30
0.0
 10
170.2592868681165
 20
346.17360686789
 30
0.0
 10
170.3836913468944
 20
345.1416883718959
 30
0.0
 10
170.8269993428933
 20
343.09845472741
 30
0.0
 10
171.1387808469435
 20
342.1099227986482
 30
0.0
 10
171.8102296719251
 20
340.7019292174368
 30
0.0
 10
172.0715831605712
 20
340.241869161399
 30
0.0
 10
172.6604376615072
 20
339.3867804072137
 30
0.0
 10
172.9889652815882
 20
338.9887114157844
 30
0.0
 10
173.5372877734267
 20
338.439607392546
 30
0.0
 10
173.7292898543629
 20
338.2645490660507
 30
0.0
 10
174.131937346836
 20
337.9305471756197
 30
0.0
 10
174.3428537237948
 20
337.7716011709114
 30
0.0
 10
174.9882003689301
 20
337.3280308055366
 30
0.0
 10
175.4396685599526
 20
337.0724439593292
 30
0.0
 10
176.3770875867683
 20
336.6264239919732
 30
0.0
 10
176.8651279412983
 20
336.435388506832
 30
0.0
 10
177.8603816651805
 20
336.1112927603818
 30
0.0
 10
178.3648880978176
 20
335.9787817643181
 30
0.0
 10
179.89493815343
 20
335.6522222396139
 30
0.0
 10
180.9387846584163
 20
335.5300611644171
 30
0.0
 10
183.0218829750775
 20
335.4043061461171
 30
0.0
 10
184.0663241471212
 20
335.4017094347069
 30
0.0
 10
185.110889898223
 20
335.4017094347073
 30
0.0
  0
LINE
  5
9B
330
1F
100
AcDbEntity
  8
0
  6
Continuous
 62
     8
370
    18
100
AcDbLine
 10
185.1108898982
 20
334.4017094347
 30
0.0
 11
185.1108898982
 21
335.4017094347
 31
0.0
  0
SPLINE
  5
9C
330
1F
100
AcDbEntity
  8
0
  6
Continuous
 62
     8
370
    18
100
AcDbSpline
210
0.0
220
0.0
230
1.0
 70
     8
 71
     3
 72
    34
 73
    30
 74
     0
 42
0.00000001
 43
0.00000001
 40
0.0
 40
0.0
 40
0.0
 40
0.0
 40
0.1249999999999997
 40
0.1249999999999997
 40
0.2499999999999993
 40
0.2499999999999993
 40
0.3124999999999992
 40
0.3124999999999992
 40
0.374999999999999
 40
0.374999999999999
 40
0.4062499999999989
 40
0.4062499999999989
 40
0.4374999999999988
 40
0.4374999999999988
 40
0.4999999999999989
 40
0.4999999999999989
 40
0.531249999999999
 40
0.531249999999999
 40
0.5624999999999991
 40
0.5624999999999991
 40
0.6249999999999992
 40
0.6249999999999992
 40
0.6874999999999992
 40
0.6874999999999992
 40
0.7499999999999993
 40
0.7499999999999993
 40
0.8749999999999997
 40
0.8749999999999997
 40
1.0
 40
1.0
 40
1.0
 40
1.0
 10
216.8397884309336
 20
421.4290513108724
 30
0.0
 10
216.8378883743132
 20
422.4714377876885
 30
0.0
 10
216.8330274034068
 20
423.5135284043016
 30
0.0
 10
216.704976142842
 20
425.5858859463029
 30
0.0
 10
216.5842364119728
 20
426.6163977361994
 30
0.0
 10
216.2582604478709
 20
428.1476900972633
 30
0.0
 10
216.124426663079
 20
428.6586483432509
 30
0.0
 10
215.8002624659471
 20
429.6564538212459
 30
0.0
 10
215.6103791909101
 20
430.1433318224429
 30
0.0
 10
215.2744316696904
 20
430.8515369555014
 30
0.0
 10
215.1538888399098
 20
431.0839027691558
 30
0.0
 10
214.8935123569333
 20
431.5402906095113
 30
0.0
 10
214.7529803245127
 20
431.7651956455827
 30
0.0
 10
214.3071231278243
 20
432.4138630512468
 30
0.0
 10
213.9760850025731
 20
432.8144609171155
 30
0.0
 10
213.4258368261369
 20
433.3647689279063
 30
0.0
 10
213.2335038122504
 20
433.5398031873358
 30
0.0
 10
212.8310584612613
 20
433.8731196508254
 30
0.0
 10
212.619979317432
 20
434.0320602511413
 30
0.0
 10
211.9675406828141
 20
434.4795753021018
 30
0.0
 10
211.5126464385383
 20
434.7359279982546
 30
0.0
 10
210.5712215488329
 20
435.1819956469044
 30
0.0
 10
210.0846607616429
 20
435.3716471099135
 30
0.0
 10
209.0853102057247
 20
435.6957022806766
 30
0.0
 10
208.5762115799454
 20
435.8286463758266
 30
0.0
 10
207.046384991899
 20
436.1532329302833
 30
0.0
 10
206.0139055864863
 20
436.2734502688358
 30
0.0
 10
203.9338938068499
 20
436.398942656575
 30
0.0
 10
202.885973342698
 20
436.4017094347153
 30
0.0
 10
201.8398133502206
 20
436.4017094347148
 30
0.0
  0
LINE
  5
9D
330
1F
100
AcDbEntity
  8
0
  6
Continuous
 62
     8
370
    18
100
AcDbLine
 10
201.8398133502
 20
436.4017094347
 30
0.0
 11
201.8398133502
 21
437.4017094347
 31
0.0
  0
LINE
  5
9E
330
1F
100
AcDbEntity
  8
0
  6
Continuous
 62
     8
370
    18
100
AcDbLine
 10
216.8397884309
 20
421.4290513109
 30
0.0
 11
217.8397867696
 21
421.4308741026
 31
0.0
  0
SPLINE
  5
9F
330
1F
100
AcDbEntity
  8
0
  6
Continuous
 62
     8
370
    18
100
AcDbSpline
210
0.0
220
0.0
230
1.0
 70
     8
 71
     3
 72
    34
 73
    30
 74
     0
 42
0.00000001
 43
0.00000001
 40
0.0
 40
0.0
 40
0.0
 40
0.0
 40
0.1249999999999996
 40
0.1249999999999996
 40
0.2499999999999993
 40
0.2499999999999993
 40
0.312499999999999
 40
0.312499999999999
 40
0.3749999999999987
 40
0.3749999999999987
 40
0.4374999999999984
 40
0.4374999999999984
 40
0.4687499999999984
 40
0.4687499999999984
 40
0.4999999999999984
 40
0.4999999999999984
 40
0.5624999999999986
 40
0.5624999999999986
 40
0.5937499999999988
 40
0.5937499999999988
 40
0.6249999999999989
 40
0.6249999999999989
 40
0.687499999999999
 40
0.687499999999999
 40
0.7499999999999991
 40
0.7499999999999991
 40
0.8749999999999996
 40
0.8749999999999996
 40
1.0
 40
1.0
 40
1.0
 40
1.0
 10
184.855307092909
 20
436.4017094347073
 30
0.0
 10
183.8091471004315
 20
436.4017094347068
 30
0.0
 10
182.7612266362795
 20
436.3989426565657
 30
0.0
 10
180.6812148566431
 20
436.2734502688246
 30
0.0
 10
179.6487354512304
 20
436.1532329302711
 30
0.0
 10
178.1189088631843
 20
435.828646375813
 30
0.0
 10
177.6098102374051
 20
435.6957022806625
 30
0.0
 10
176.6104596814872
 20
435.3716471098985
 30
0.0
 10
176.1238988942973
 20
435.1819956468889
 30
0.0
 10
175.1824740045924
 20
434.7359279982382
 30
0.0
 10
174.7275797603168
 20
434.4795753020849
 30
0.0
 10
174.0751411256992
 20
434.0320602511238
 30
0.0
 10
173.86406198187
 20
433.8731196508078
 30
0.0
 10
173.4616166308813
 20
433.5398031873178
 30
0.0
 10
173.269283616995
 20
433.3647689278881
 30
0.0
 10
172.7190354405593
 20
432.8144609170967
 30
0.0
 10
172.3879973153084
 20
432.4138630512276
 30
0.0
 10
171.9421401186207
 20
431.765195645563
 30
0.0
 10
171.8016080862002
 20
431.5402906094915
 30
0.0
 10
171.5412316032242
 20
431.0839027691357
 30
0.0
 10
171.4206887734438
 20
430.8515369554812
 30
0.0
 10
171.0847412522248
 20
430.1433318224223
 30
0.0
 10
170.8948579771882
 20
429.6564538212251
 30
0.0
 10
170.5706937800573
 20
428.6586483432298
 30
0.0
 10
170.4368599952659
 20
428.147690097242
 30
0.0
 10
170.1108840311654
 20
426.6163977361778
 30
0.0
 10
169.9901443002971
 20
425.5858859462812
 30
0.0
 10
169.8620930397342
 20
423.5135284042796
 30
0.0
 10
169.8572320688289
 20
422.4714377876699
 30
0.0
 10
169.8553320122095
 20
421.4290513108538
 30
0.0
  0
LINE
  5
A0
330
1F
100
AcDbEntity
  8
0
  6
Continuous
 62
     8
370
    18
100
AcDbLine
 10
169.8553320122
 20
421.4290513109
 30
0.0
 11
168.8553336735
 21
421.4308741026
 31
0.0
  0
LINE
  5
A1
330
1F
100
AcDbEntity
  8
0
  6
Continuous
 62
     8
370
    18
100
AcDbLine
 10
184.8553070929
 20
436.4017094347
 30
0.0
 11
184.8553070929
 21
437.4017094347
 31
0.0
  0
LINE
  5
A2
330
1F
100
AcDbEntity
  8
0
  6
Continuous
 62
     8
370
    18
100
AcDbLine
 10
216.5840249287
 20
350.3231699773
 30
0.0
 11
216.7834329328
 21
388.4069453986
 31
0.0
  0
LINE
  5
A3
330
1F
100
AcDbEntity
  8
0
  6
Continuous
 62
     8
370
    18
100
AcDbLine
 10
216.7834329328
 20
388.4069453986
 30
0.0
 11
217.783419225
 21
388.4017094347
 31
0.0
  0
LINE
  5
A4
330
1F
100
AcDbEntity
  8
0
  6
Continuous
 62
     8
370
    18
100
AcDbLine
 10
217.5840112209
 20
350.3179340134
 30
0.0
 11
216.5840249287
 21
350.3231699773
 31
0.0
  0
LINE
  5
A5
330
1F
100
AcDbEntity
  8
0
  6
Continuous
 62
     8
370
    18
100
AcDbLine
 10
201.584230545
 20
334.4017094347
 30
0.0
 11
201.584230545
 21
335.4017094347
 31
0.0
  0
SPLINE
  5
A6
330
1F
100
AcDbEntity
  8
0
  6
Continuous
 62
     8
370
    18
100
AcDbSpline
210
0.0
220
0.0
230
1.0
 70
     8
 71
     3
 72
    32
 73
    28
 74
     0
 42
0.00000001
 43
0.00000001
 40
0.0
 40
0.0
 40
0.0
 40
0.0
 40
0.125
 40
0.125
 40
0.2500000000000001
 40
0.2500000000000001
 40
0.3125000000000001
 40
0.3125000000000001
 40
0.3437500000000003
 40
0.3437500000000003
 40
0.3750000000000006
 40
0.3750000000000006
 40
0.4375000000000013
 40
0.4375000000000013
 40
0.4687500000000013
 40
0.4687500000000013
 40
0.5000000000000012
 40
0.5000000000000012
 40
0.5625000000000011
 40
0.5625000000000011
 40
0.625000000000001
 40
0.625000000000001
 40
0.7500000000000008
 40
0.7500000000000008
 40
0.8750000000000004
 40
0.8750000000000004
 40
1.0
 40
1.0
 40
1.0
 40
1.0
 10
201.5842305449958
 20
335.4017094347146
 30
0.0
 10
202.6194477680456
 20
335.401709434715
 30
0.0
 10
203.6543447857279
 20
335.4043722359306
 30
0.0
 10
205.7101408928054
 20
335.5261034462549
 30
0.0
 10
206.7313247271115
 20
335.6428039403574
 30
0.0
 10
208.2461872639769
 20
335.9585035679629
 30
0.0
 10
208.7483311909051
 20
336.087106599385
 30
0.0
 10
209.4961180090106
 20
336.3251588602995
 30
0.0
 10
209.7451485961398
 20
336.4123915553498
 30
0.0
 10
210.2338679691987
 20
336.6013927258686
 30
0.0
 10
210.4742821652859
 20
336.7033481743267
 30
0.0
 10
211.1825726823037
 20
337.0336869954751
 30
0.0
 10
211.637586516685
 20
337.2863735768599
 30
0.0
 10
212.2883896360169
 20
337.7253327816275
 30
0.0
 10
212.5011318265742
 20
337.882633816953
 30
0.0
 10
212.9088238652892
 20
338.2146126076244
 30
0.0
 10
213.1032853238105
 20
338.3887137493448
 30
0.0
 10
213.6587428675806
 20
338.9351563303811
 30
0.0
 10
213.9916826197158
 20
339.331748862814
 30
0.0
 10
214.5885587421544
 20
340.1845784803536
 30
0.0
 10
214.8539176712684
 20
340.6444168111383
 30
0.0
 10
215.5362056733042
 20
342.0541011214456
 30
0.0
 10
215.8529575465904
 20
343.0445882654466
 30
0.0
 10
216.30406693884
 20
345.0925176712449
 30
0.0
 10
216.4324958169983
 20
346.1374251629393
 30
0.0
 10
216.5704526746661
 20
348.2277304793793
 30
0.0
 10
216.5785387498381
 20
349.2753965707921
 30
0.0
 10
216.5840249287006
 20
350.32316997725
 30
0.0
  0
LINE
  5
A7
330
1F
100
AcDbEntity
  8
0
  6
Continuous
 62
     8
370
    18
100
AcDbLine
 10
201.8398133502
 20
436.4017094347
 30
0.0
 11
184.8553070929
 21
436.4017094347
 31
0.0
  0
ARC
  5
A8
330
1F
100
AcDbEntity
  8
0
  6
Continuous
 62
     8
370
    18
100
AcDbCircle
 10
-4461.3291470319
 20
412.9017094327
 30
0.0
 40
4678.176707253515
100
AcDbArc
 50
359.7
 51
0.1044383317
  0
LINE
  5
A9
330
1F
100
AcDbEntity
  8
0
  6
Continuous
 62
     8
370
    18
100
AcDbLine
 10
185.1108898982
 20
335.4017094347
 30
0.0
 11
201.584230545
 21
335.4017094347
 31
0.0
  0
LINE
  5
AA
330
1F
100
AcDbEntity
  8
0
  6
Continuous
 62
     8
370
    18
100
AcDbLine
 10
169.9116875104
 20
388.4069453985
 30
0.0
 11
170.1110955145
 21
350.3231699772
 31
0.0
  0
ARC
  5
AB
330
1F
100
AcDbEntity
  8
0
  6
Continuous
 62
     8
370
    18
100
AcDbCircle
 10
4848.0242674751
 20
412.9017094368
 30
0.0
 40
4678.176707253524
100
AcDbArc
 50
179.8955616684
 51
180.3
  0
LINE
  5
AC
330
1F
100
AcDbEntity
  8
0
  6
Continuous
 62
     8
370
    18
100
AcDbLine
 10
168.9117012181
 20
388.4017094347
 30
0.0
 11
169.9116875104
 21
388.4069453985
 31
0.0
  0
CIRCLE
  5
AD
330
1F
100
AcDbEntity
  8
0
  6
Continuous
 62
     8
370
    18
100
AcDbCircle
 10
193.3475602216
 20
480.9451214793
 30
0.0
 40
10.77434613606391
  0
CIRCLE
  5
AE
330
1F
100
AcDbEntity
  8
0
  6
Continuous
 62
     8
370
    18
100
AcDbCircle
 10
193.3475602216
 20
480.9451214793
 30
0.0
 40
11.25844862367722
  0
SPLINE
  5
AF
330
1F
100
AcDbEntity
  8
0
  6
Continuous
 62
     8
370
    18
100
AcDbSpline
210
0.0
220
0.0
230
1.0
 70
     8
 71
     3
 72
    18
 73
    14
 74
     0
 42
0.00000001
 43
0.00000001
 40
0.0
 40
0.0
 40
0.0
 40
0.0
 40
0.1250000000000001
 40
0.1250000000000001
 40
0.2500000000000003
 40
0.2500000000000003
 40
0.3750000000000004
 40
0.3750000000000004
 40
0.5000000000000006
 40
0.5000000000000006
 40
0.7500000000000002
 40
0.7500000000000002
 40
1.0
 40
1.0
 40
1.0
 40
1.0
 10
262.7469180692538
 20
373.6457664460921
 30
0.0
 10
262.1914867796875
 20
373.0903492341977
 30
0.0
 10
261.5883651525047
 20
372.5801149537935
 30
0.0
 10
260.3128589999297
 20
371.6617797538851
 30
0.0
 10
259.6489485744265
 20
371.2582851429615
 30
0.0
 10
258.2779112073522
 20
370.5432774330545
 30
0.0
 10
257.5708495508648
 20
370.2316253813432
 30
0.0
 10
256.1201625890057
 20
369.6861429073946
 30
0.0
 10
255.3743289110982
 20
369.4517318988622
 30
0.0
 10
253.1042414732302
 20
368.8544120864243
 30
0.0
 10
251.5630299813145
 20
368.5992096520083
 30
0.0
 10
248.4492249821177
 20
368.2834147354176
 30
0.0
 10
246.8870999643365
 20
368.2262140934143
 30
0.0
 10
245.3228516460864
 20
368.2099533942571
 30
0.0
  0
LWPOLYLINE
  5
B0
330
1F
100
AcDbEntity
  8
0
  6
Continuous
 62
     8
370
    18
100
AcDbPolyline
 90
        9
 70
   128
 43
0.0
 10
245.3228516461
 20
368.2099533943
 10
245.3226172302
 20
368.2330163855
 10
245.3220148931
 20
368.2914515847
 10
245.3210664526
 20
368.3831423543
 10
245.3198062631
 20
368.5047674746
 10
245.3182799711
 20
368.6519214447
 10
245.316542862
 20
368.8192740591
 10
245.3146578572
 20
369.0007634772
 10
245.3126932353
 20
369.1898157961
  0
SPLINE
  5
B1
330
1F
100
AcDbEntity
  8
0
  6
Continuous
 62
     8
370
    18
100
AcDbSpline
210
0.0
220
0.0
230
1.0
 70
     8
 71
     3
 72
    20
 73
    16
 74
     0
 42
0.00000001
 43
0.00000001
 40
0.0
 40
0.0
 40
0.0
 40
0.0
 40
0.2499999999999999
 40
0.2499999999999999
 40
0.4999999999999998
 40
0.4999999999999998
 40
0.6249999999999989
 40
0.6249999999999989
 40
0.749999999999999
 40
0.749999999999999
 40
0.8749999999999992
 40
0.8749999999999992
 40
0.9374999999999996
 40
0.9374999999999996
 40
1.0
 40
1.0
 40
1.0
 40
1.0
 10
245.3126932353218
 20
369.1898157961054
 30
0.0
 10
246.8133521144538
 20
369.20544614958
 30
0.0
 10
248.3120568719937
 20
369.2588797974059
 30
0.0
 10
251.2997862949269
 20
369.5530124806298
 30
0.0
 10
252.7800814852289
 20
369.7912169104659
 30
0.0
 10
254.9603715593191
 20
370.3514581508859
 30
0.0
 10
255.678468994368
 20
370.5720293567352
 30
0.0
 10
257.0744903607697
 20
371.0865334996899
 30
0.0
 10
257.7550373684156
 20
371.3810291497354
 30
0.0
 10
259.0746695438124
 20
372.0584432584963
 30
0.0
 10
259.7136229174743
 20
372.4416427868414
 30
0.0
 10
260.6337604377878
 20
373.0981059464692
 30
0.0
 10
260.932830102662
 20
373.3301623347918
 30
0.0
 10
261.5088741721258
 20
373.8164301617866
 30
0.0
 10
261.7868435549647
 20
374.071264298716
 30
0.0
 10
262.0541198021675
 20
374.3385441151219
 30
0.0
  0
LWPOLYLINE
  5
B2
330
1F
100
AcDbEntity
  8
0
  6
Continuous
 62
     8
370
    18
100
AcDbPolyline
 90
        9
 70
   128
 43
0.0
 10
262.7469152547
 20
373.6457636316
 10
262.7306095835
 20
373.6620693674
 10
262.6892955882
 20
373.7033827791
 10
262.6244694203
 20
373.7682077364
 10
262.5384787043
 20
373.8541966585
 10
262.434437521
 20
373.9582355296
 10
262.3161136338
 20
374.0765566703
 10
262.1877920416
 20
374.2048751808
 10
262.0541198022
 20
374.3385441151
  0
SPLINE
  5
B3
330
1F
100
AcDbEntity
  8
0
  6
Continuous
 62
     8
370
    18
100
AcDbSpline
210
0.0
220
0.0
230
1.0
 70
     8
 71
     3
 72
    20
 73
    16
 74
     0
 42
0.00000001
 43
0.00000001
 40
0.0
 40
0.0
 40
0.0
 40
0.0
 40
0.2499999999999989
 40
0.2499999999999989
 40
0.4999999999999978
 40
0.4999999999999978
 40
0.6249999999999983
 40
0.6249999999999983
 40
0.7499999999999989
 40
0.7499999999999989
 40
0.8749999999999994
 40
0.8749999999999994
 40
0.9374999999999997
 40
0.9374999999999997
 40
1.0
 40
1.0
 40
1.0
 40
1.0
 10
119.4922238731425
 20
391.0799872760375
 30
0.0
 10
119.5078516100612
 20
389.5793230386312
 30
0.0
 10
119.5612609838621
 20
388.0806113244783
 30
0.0
 10
119.8553398232203
 20
385.0928653392409
 30
0.0
 10
120.0935216018961
 20
383.6125616363191
 30
0.0
 10
120.6537629725576
 20
381.4322629843022
 30
0.0
 10
120.8743387902547
 20
380.7141639695083
 30
0.0
 10
121.3888570341423
 20
379.3181443032342
 30
0.0
 10
121.6833621509165
 20
378.637599952165
 30
0.0
 10
122.3608008281609
 20
377.3179773309952
 30
0.0
 10
122.7440157672018
 20
376.6790310049313
 30
0.0
 10
123.4005088265578
 20
375.7589087139393
 30
0.0
 10
123.6325763127461
 20
375.4598452073298
 30
0.0
 10
124.118865011679
 20
374.883814059468
 30
0.0
 10
124.3737092404126
 20
374.6058514889726
 30
0.0
 10
124.6409986806613
 20
374.3385823406232
 30
0.0
  0
LWPOLYLINE
  5
B4
330
1F
100
AcDbEntity
  8
0
  6
Continuous
 62
     8
370
    18
100
AcDbPolyline
 90
        9
 70
   128
 43
0.0
 10
124.6409986807
 20
374.3385823406
 10
124.507327212
 20
374.2049074428
 10
124.3790058686
 20
374.076582731
 10
124.2606818539
 20
373.9582555304
 10
124.1566403143
 20
373.8542111031
 10
124.0706491515
 20
373.7682174552
 10
124.0058225663
 20
373.7033888775
 10
123.9645082767
 20
373.6620731601
 10
123.9482024941
 20
373.6457665663
  0
SPLINE
  5
B5
330
1F
100
AcDbEntity
  8
0
  6
Continuous
 62
     8
370
    18
100
AcDbSpline
210
0.0
220
0.0
230
1.0
 70
     8
 71
     3
 72
    18
 73
    14
 74
     0
 42
0.00000001
 43
0.00000001
 40
0.0
 40
0.0
 40
0.0
 40
0.0
 40
0.1249999999999998
 40
0.1249999999999998
 40
0.2499999999999997
 40
0.2499999999999997
 40
0.3749999999999995
 40
0.3749999999999995
 40
0.4999999999999993
 40
0.4999999999999993
 40
0.7499999999999997
 40
0.7499999999999997
 40
1.0
 40
1.0
 40
1.0
 40
1.0
 10
123.9482053085732
 20
373.6457637518259
 30
0.0
 10
123.3927880436602
 20
374.2011950061153
 30
0.0
 10
122.8825536937061
 20
374.8043165228541
 30
0.0
 10
121.9642181380064
 20
376.0798225939869
 30
0.0
 10
121.5607233601938
 20
376.7437329716934
 30
0.0
 10
120.8457154204942
 20
378.1147702713174
 30
0.0
 10
120.5340632940776
 20
378.8218319026571
 30
0.0
 10
119.988580695618
 20
380.2725188085949
 30
0.0
 10
119.7541696400518
 20
381.0183524267549
 30
0.0
 10
119.1568497092875
 20
383.2884399387903
 30
0.0
 10
118.9016474162712
 20
384.8296514916959
 30
0.0
 10
118.5858530368704
 20
387.9434566249561
 30
0.0
 10
118.528652641377
 20
389.5055816965345
 30
0.0
 10
118.5123919771165
 20
391.0698300531363
 30
0.0
  0
LWPOLYLINE
  5
B6
330
1F
100
AcDbEntity
  8
0
  6
Continuous
 62
     8
370
    18
100
AcDbPolyline
 90
        9
 70
   128
 43
0.0
 10
119.4922238731
 20
391.079987276
 10
119.3031759519
 20
391.0780227234
 10
119.1216915752
 20
391.0761378251
 10
118.9543442011
 20
391.0744008533
 10
118.8071952383
 20
391.0728747219
 10
118.6855744985
 20
391.0716147083
 10
118.5938871477
 20
391.0706664507
 10
118.5354541494
 20
391.0700642955
 10
118.5123919771
 20
391.0698300531
  0
SPLINE
  5
B7
330
1F
100
AcDbEntity
  8
0
  6
Continuous
 62
     8
370
    18
100
AcDbSpline
210
0.0
220
0.0
230
1.0
 70
     8
 71
     3
 72
    20
 73
    16
 74
     0
 42
0.00000001
 43
0.00000001
 40
0.0
 40
0.0
 40
0.0
 40
0.0
 40
0.2499999999999991
 40
0.2499999999999991
 40
0.3749999999999988
 40
0.3749999999999988
 40
0.4999999999999984
 40
0.4999999999999984
 40
0.7499999999999978
 40
0.7499999999999978
 40
0.8124999999999991
 40
0.8124999999999991
 40
0.8750000000000004
 40
0.8750000000000004
 40
1.0
 40
1.0
 40
1.0
 40
1.0
 10
141.3824272468166
 20
516.9004264502466
 30
0.0
 10
139.8816965677424
 20
516.8847953422027
 30
0.0
 10
138.383603551268
 20
516.8312975018775
 30
0.0
 10
136.146204811681
 20
516.6112103885027
 30
0.0
 10
135.4000440758636
 20
516.5145146968864
 30
0.0
 10
133.9213856279071
 20
516.2650386658831
 30
0.0
 10
133.1909917512235
 20
516.1126665955268
 30
0.0
 10
131.0311556734661
 20
515.5586090220029
 30
0.0
 10
129.6321305008975
 20
515.0628537673879
 30
0.0
 10
127.959891028555
 20
514.2064408010325
 30
0.0
 10
127.628176100244
 20
514.0221733612852
 30
0.0
 10
126.9827800270587
 20
513.6318131954009
 30
0.0
 10
126.6684768620977
 20
513.4254772639744
 30
0.0
 10
125.7521538265263
 20
512.7711390290892
 30
0.0
 10
125.1768831200034
 20
512.2875900683168
 30
0.0
 10
124.6409998387864
 20
511.7516996081685
 30
0.0
  0
LWPOLYLINE
  5
B8
330
1F
100
AcDbEntity
  8
0
  6
Continuous
 62
     8
370
    18
100
AcDbPolyline
 90
        9
 70
   128
 43
0.0
 10
124.6409998388
 20
511.7516996082
 10
124.5073277155
 20
511.8853684273
 10
124.3790062571
 20
512.0136868064
 10
124.2606825094
 20
512.132007811
 10
124.1566414603
 20
512.2360465527
 10
124.0706508623
 20
512.3220353625
 10
124.0058247874
 20
512.386860233
 10
123.9645108535
 20
512.4281735901
 10
123.9482052071
 20
512.4444793083
  0
SPLINE
  5
B9
330
1F
100
AcDbEntity
  8
0
  6
Continuous
 62
     8
370
    18
100
AcDbSpline
210
0.0
220
0.0
230
1.0
 70
     8
 71
     3
 72
    24
 73
    20
 74
     0
 42
0.00000001
 43
0.00000001
 40
0.0
 40
0.0
 40
0.0
 40
0.0
 40
0.0312500000000008
 40
0.0312500000000008
 40
0.0625000000000017
 40
0.0625000000000017
 40
0.1250000000000016
 40
0.1250000000000016
 40
0.1875000000000016
 40
0.1875000000000016
 40
0.2500000000000015
 40
0.2500000000000015
 40
0.5000000000000013
 40
0.5000000000000013
 40
0.6250000000000013
 40
0.6250000000000013
 40
0.7500000000000012
 40
0.7500000000000012
 40
1.0
 40
1.0
 40
1.0
 40
1.0
 10
123.9482023926397
 20
512.4444764937747
 30
0.0
 10
124.0864307052171
 20
512.5827013026957
 30
0.0
 10
124.2299254568228
 20
512.7202967600234
 30
0.0
 10
124.5190301833278
 20
512.9863127139193
 30
0.0
 10
124.666007375803
 20
513.1160997155554
 30
0.0
 10
125.1140008804758
 20
513.4960801452709
 30
0.0
 10
125.4220512023727
 20
513.73693008198
 30
0.0
 10
126.0565657732173
 20
514.1941701688621
 30
0.0
 10
126.3828567865073
 20
514.4107904336998
 30
0.0
 10
127.0526521514863
 20
514.821165956583
 30
0.0
 10
127.3972235474343
 20
515.015406507234
 30
0.0
 10
129.135845808398
 20
515.9202154173651
 30
0.0
 10
130.5906119873672
 20
516.4471131057832
 30
0.0
 10
132.8376789948044
 20
517.0372742675445
 30
0.0
 10
133.5977326010903
 20
517.1999777750907
 30
0.0
 10
135.1368541125643
 20
517.4667508276112
 30
0.0
 10
135.9146887534945
 20
517.5704662009572
 30
0.0
 10
138.2464113388826
 20
517.8067530695388
 30
0.0
 10
139.8079056305244
 20
517.8640276934419
 30
0.0
 10
141.3722687968332
 20
517.8802895877916
 30
0.0
  0
LWPOLYLINE
  5
BA
330
1F
100
AcDbEntity
  8
0
  6
Continuous
 62
     8
370
    18
100
AcDbPolyline
 90
        9
 70
   128
 43
0.0
 10
141.3824272468
 20
516.9004264502
 10
141.380462623
 20
517.0894788752
 10
141.378577615
 20
517.2709684149
 10
141.3768405015
 20
517.4383211557
 10
141.3753142044
 20
517.5854752466
 10
141.3740540091
 20
517.7071004725
 10
141.3731055624
 20
517.7987913245
 10
141.3725032189
 20
517.8572265769
 10
141.3722687968
 20
517.8802895878
  0
SPLINE
  5
BB
330
1F
100
AcDbEntity
  8
0
  6
Continuous
 62
     8
370
    18
100
AcDbSpline
210
0.0
220
0.0
230
1.0
 70
     8
 71
     3
 72
    20
 73
    16
 74
     0
 42
0.00000001
 43
0.00000001
 40
0.0
 40
0.0
 40
0.0
 40
0.0
 40
0.0624999999999991
 40
0.0624999999999991
 40
0.1249999999999983
 40
0.1249999999999983
 40
0.2499999999999984
 40
0.2499999999999984
 40
0.3749999999999985
 40
0.3749999999999985
 40
0.4999999999999997
 40
0.4999999999999997
 40
0.7499999999999998
 40
0.7499999999999998
 40
1.0
 40
1.0
 40
1.0
 40
1.0
 10
124.6409986803771
 20
374.338582340339
 30
0.0
 10
124.9082912667837
 20
374.0713247365168
 30
0.0
 10
125.1862756954083
 20
373.8165130649903
 30
0.0
 10
125.7623470851565
 20
373.3302902493295
 30
0.0
 10
126.0614288965353
 20
373.0982569157014
 30
0.0
 10
126.9815979100117
 20
372.4418570024141
 30
0.0
 10
127.6205673331723
 20
372.0586927090445
 30
0.0
 10
128.9402215644633
 20
371.3813335660397
 30
0.0
 10
129.6207743624909
 20
371.0868571672293
 30
0.0
 10
131.0167926964947
 20
370.5723653085954
 30
0.0
 10
131.7348793169602
 20
370.3517869902897
 30
0.0
 10
133.9151270216712
 20
369.7914802841427
 30
0.0
 10
135.3953905743334
 20
369.5531718731713
 30
0.0
 10
138.383072329727
 20
369.2588776127769
 30
0.0
 10
139.8817579371344
 20
369.2053979201617
 30
0.0
 10
141.3824011743934
 20
369.1897668294549
 30
0.0
  0
LWPOLYLINE
  5
BC
330
1F
100
AcDbEntity
  8
0
  6
Continuous
 62
     8
370
    18
100
AcDbPolyline
 90
        9
 70
   128
 43
0.0
 10
141.3824011744
 20
369.1897668295
 10
141.3804373094
 20
369.000721459
 10
141.3785539717
 20
368.8192399985
 10
141.3768193751
 20
368.6518956481
 10
141.3752963463
 20
368.504749566
 10
141.3740400487
 20
368.3831313359
 10
141.3730959852
 20
368.2914459309
 10
141.3724983493
 20
368.2330141667
 10
141.3722687872
 20
368.209952423
  0
SPLINE
  5
BD
330
1F
100
AcDbEntity
  8
0
  6
Continuous
 62
     8
370
    18
100
AcDbSpline
210
0.0
220
0.0
230
1.0
 70
     8
 71
     3
 72
    18
 73
    14
 74
     0
 42
0.00000001
 43
0.00000001
 40
0.0
 40
0.0
 40
0.0
 40
0.0
 40
0.25
 40
0.25
 40
0.5
 40
0.5
 40
0.625
 40
0.625
 40
0.75
 40
0.75
 40
0.875
 40
0.875
 40
1.0
 40
1.0
 40
1.0
 40
1.0
 10
141.3722687872465
 20
368.2099524229604
 30
0.0
 10
139.8080204868112
 20
368.2262120872923
 30
0.0
 10
138.2458955255064
 20
368.283412501731
 30
0.0
 10
135.1320907452539
 20
368.5992092438432
 30
0.0
 10
133.5908795231404
 20
368.8544131984652
 30
0.0
 10
131.3207923640692
 20
369.4517334074575
 30
0.0
 10
130.5749585196406
 20
369.6861443448271
 30
0.0
 10
129.1242712911737
 20
370.2316264357441
 30
0.0
 10
128.4172094880492
 20
370.5432782082507
 30
0.0
 10
127.0461719560213
 20
371.2582854963169
 30
0.0
 10
126.3822615108081
 20
371.6617799614804
 30
0.0
 10
125.1067554422752
 20
372.5801149671085
 30
0.0
 10
124.5052238547492
 20
373.0887592995319
 30
0.0
 10
123.9482024941042
 20
373.6457665662936
 30
0.0
  0
SPLINE
  5
BE
330
1F
100
AcDbEntity
  8
0
  6
Continuous
 62
     8
370
    18
100
AcDbSpline
210
0.0
220
0.0
230
1.0
 70
     8
 71
     3
 72
    20
 73
    16
 74
     0
 42
0.00000001
 43
0.00000001
 40
0.0
 40
0.0
 40
0.0
 40
0.0
 40
0.2499999999999996
 40
0.2499999999999996
 40
0.3750000000000001
 40
0.3750000000000001
 40
0.5000000000000006
 40
0.5000000000000006
 40
0.7499999999999999
 40
0.7499999999999999
 40
0.8124999999999996
 40
0.8124999999999996
 40
0.8749999999999991
 40
0.8749999999999991
 40
1.0
 40
1.0
 40
1.0
 40
1.0
 10
245.3228516560219
 20
517.88029054616
 30
0.0
 10
246.8873090112951
 20
517.8640286968822
 30
0.0
 10
248.4489457733332
 20
517.8067527171705
 30
0.0
 10
250.7810545827868
 20
517.5703931752855
 30
0.0
 10
251.5591191088484
 20
517.4666166253254
 30
0.0
 10
253.0975385687109
 20
517.1999372468678
 30
0.0
 10
253.8573040180871
 20
517.0372972508693
 30
0.0
 10
256.103712217591
 20
516.4473437805002
 30
0.0
 10
257.5583134948648
 20
515.9206235818767
 30
0.0
 10
259.2971430189538
 20
515.01582116868
 30
0.0
 10
259.6417943398044
 20
514.8215588281961
 30
0.0
 10
260.3117481793755
 20
514.4111259316626
 30
0.0
 10
260.6381141763408
 20
514.1944731704024
 30
0.0
 10
261.5900977234891
 20
513.5085037328261
 30
0.0
 10
262.1884305672577
 20
513.0029497736047
 30
0.0
 10
262.7469179943828
 20
512.4444764376364
 30
0.0
  0
LINE
  5
BF
330
1F
100
AcDbEntity
  8
0
  6
Continuous
 62
     8
370
    18
100
AcDbLine
 10
262.7469179944
 20
512.4444764376
 30
0.0
 11
262.0541301348
 21
511.7516710593
 31
0.0
  0
SPLINE
  5
C0
330
1F
100
AcDbEntity
  8
0
  6
Continuous
 62
     8
370
    18
100
AcDbSpline
210
0.0
220
0.0
230
1.0
 70
     8
 71
     3
 72
    20
 73
    16
 74
     0
 42
0.00000001
 43
0.00000001
 40
0.0
 40
0.0
 40
0.0
 40
0.0
 40
0.1249999999999993
 40
0.1249999999999993
 40
0.1874999999999989
 40
0.1874999999999989
 40
0.2499999999999986
 40
0.2499999999999986
 40
0.4999999999999982
 40
0.4999999999999982
 40
0.6249999999999986
 40
0.6249999999999986
 40
0.749999999999999
 40
0.749999999999999
 40
1.0
 40
1.0
 40
1.0
 40
1.0
 10
262.0541301350858
 20
511.7516710595672
 30
0.0
 10
261.5183294007509
 20
512.2874042796809
 30
0.0
 10
260.9431585379675
 20
512.7708205058183
 30
0.0
 10
260.0270102604476
 20
513.4249949109925
 30
0.0
 10
259.7127696316384
 20
513.6312822665853
 30
0.0
 10
259.0675066499214
 20
514.0215565849422
 30
0.0
 10
258.7358663688053
 20
514.2057835168177
 30
0.0
 10
257.064163254646
 20
515.0619604443988
 30
0.0
 10
255.6659388644587
 20
515.5575248261089
 30
0.0
 10
253.5077553682867
 20
516.1115408794437
 30
0.0
 10
252.7779879456483
 20
516.263936631989
 30
0.0
 10
251.3007129776157
 20
516.5135281835594
 30
0.0
 10
250.5544664729719
 20
516.6104396829298
 30
0.0
 10
248.3157008651266
 20
516.8311064038724
 30
0.0
 10
246.8142163159675
 20
516.8848370992108
 30
0.0
 10
245.3127189757378
 20
516.9004763153496
 30
0.0
  0
LWPOLYLINE
  5
C1
330
1F
100
AcDbEntity
  8
0
  6
Continuous
 62
     8
370
    18
100
AcDbPolyline
 90
        9
 70
   128
 43
0.0
 10
245.322851656
 20
517.8802905462
 10
245.3226220381
 20
517.8572288077
 10
245.3220243484
 20
517.7987970565
 10
245.3210802352
 20
517.7071116713
 10
245.3198238937
 20
517.5854934665
 10
245.3183008284
 20
517.4383474131
 10
245.3165662041
 20
517.2710030926
 10
245.3146828484
 20
517.0895216609
 10
245.3127189757
 20
516.9004763153
  0
SPLINE
  5
C2
330
1F
100
AcDbEntity
  8
0
  6
Continuous
 62
     8
370
    18
100
AcDbSpline
210
0.0
220
0.0
230
1.0
 70
     8
 71
     3
 72
    18
 73
    14
 74
     0
 42
0.00000001
 43
0.00000001
 40
0.0
 40
0.0
 40
0.0
 40
0.0
 40
0.2500000000000006
 40
0.2500000000000006
 40
0.5000000000000011
 40
0.5000000000000011
 40
0.6250000000000008
 40
0.6250000000000008
 40
0.7500000000000006
 40
0.7500000000000006
 40
0.8750000000000002
 40
0.8750000000000002
 40
1.0
 40
1.0
 40
1.0
 40
1.0
 10
268.1827285645998
 20
391.0698300523838
 30
0.0
 10
268.1664680567872
 20
389.5055816988977
 30
0.0
 10
268.1092678447627
 20
387.9434566284568
 30
0.0
 10
267.7934730171237
 20
384.8296515347983
 30
0.0
 10
267.5382701983551
 20
383.2884400684948
 30
0.0
 10
266.9409499566427
 20
381.0183526611584
 30
0.0
 10
266.706538868173
 20
380.2725190398173
 30
0.0
 10
266.1610563485822
 20
378.8218320891997
 30
0.0
 10
265.8494043307279
 20
378.1147704138786
 30
0.0
 10
265.1343966810665
 20
376.7437330172185
 30
0.0
 10
264.73090209321
 20
376.079822582518
 30
0.0
 10
263.8125668630207
 20
374.8043164527576
 30
0.0
 10
263.3039225741028
 20
374.2027849562683
 30
0.0
 10
262.7469152547874
 20
373.6457636316278
 30
0.0
  0
SPLINE
  5
C3
330
1F
100
AcDbEntity
  8
0
  6
Continuous
 62
     8
370
    18
100
AcDbSpline
210
0.0
220
0.0
230
1.0
 70
     8
 71
     3
 72
    20
 73
    16
 74
     0
 42
0.00000001
 43
0.00000001
 40
0.0
 40
0.0
 40
0.0
 40
0.0
 40
0.0625000000000009
 40
0.0625000000000009
 40
0.1250000000000017
 40
0.1250000000000017
 40
0.2500000000000021
 40
0.2500000000000021
 40
0.3750000000000025
 40
0.3750000000000025
 40
0.5000000000000029
 40
0.5000000000000029
 40
0.7500000000000014
 40
0.7500000000000014
 40
1.0
 40
1.0
 40
1.0
 40
1.0
 10
262.0541198024516
 20
374.3385441148377
 30
0.0
 10
262.3213874088327
 20
374.6058299814567
 30
0.0
 10
262.5762090002879
 20
374.883808395033
 30
0.0
 10
263.0624515783275
 20
375.4598690127655
 30
0.0
 10
263.2944950149711
 20
375.7589460261069
 30
0.0
 10
263.9509227216159
 20
376.679103307682
 30
0.0
 10
264.3341026144531
 20
377.318067184148
 30
0.0
 10
265.0114902369615
 20
378.6377130698754
 30
0.0
 10
265.3059794049821
 20
379.3182631162841
 30
0.0
 10
265.8204866743785
 20
380.7142819273504
 30
0.0
 10
266.0410673321148
 20
381.4323730073364
 30
0.0
 10
266.6013525312341
 20
383.6126414596346
 30
0.0
 10
266.8396027114974
 20
385.092923023584
 30
0.0
 10
267.1337979196621
 20
388.0806336454653
 30
0.0
 10
267.1872502556943
 20
389.5793310786455
 30
0.0
 10
267.2028949646231
 20
391.0799834340224
 30
0.0
  0
LWPOLYLINE
  5
C4
330
1F
100
AcDbEntity
  8
0
  6
Continuous
 62
     8
370
    18
100
AcDbPolyline
 90
        9
 70
   128
 43
0.0
 10
268.1827285646
 20
391.0698300524
 10
268.1596663399
 20
391.0700635631
 10
268.1012332142
 20
391.0706650141
 10
268.0095456702
 20
391.0716126202
 10
267.8879246854
 20
391.0728720588
 10
267.7407754445
 20
391.0743977122
 10
267.5734277808
 20
391.0761343203
 10
267.3919431267
 20
391.0780189821
 10
267.2028949646
 20
391.079983434
  0
SPLINE
  5
C5
330
1F
100
AcDbEntity
  8
0
  6
Continuous
 62
     8
370
    18
100
AcDbSpline
210
0.0
220
0.0
230
1.0
 70
     8
 71
     3
 72
    16
 73
    12
 74
     0
 42
0.00000001
 43
0.00000001
 40
0.0
 40
0.0
 40
0.0
 40
0.0
 40
0.1249999999999988
 40
0.1249999999999988
 40
0.2499999999999977
 40
0.2499999999999977
 40
0.4999999999999984
 40
0.4999999999999984
 40
0.7499999999999992
 40
0.7499999999999992
 40
1.0
 40
1.0
 40
1.0
 40
1.0
 10
262.7469151799158
 20
512.4444792521036
 30
0.0
 10
263.3023266306883
 20
511.889053772516
 30
0.0
 10
263.8117372205014
 20
511.2870967168065
 30
0.0
 10
264.7319718866867
 20
510.0089165873404
 30
0.0
 10
265.135732694327
 20
509.3442193910302
 30
0.0
 10
266.2081503963047
 20
507.287030809178
 30
0.0
 10
266.7406207751695
 20
505.8326365166317
 30
0.0
 10
267.5382502478075
 20
502.8024790569258
 30
0.0
 10
267.7932601981204
 20
501.2621825851879
 30
0.0
 10
268.1092401173302
 20
498.147562596725
 30
0.0
 10
268.166465516197
 20
496.5848820027625
 30
0.0
 10
268.182728476918
 20
495.0204129055697
 30
0.0
  0
LWPOLYLINE
  5
C6
330
1F
100
AcDbEntity
  8
0
  6
Continuous
 62
     8
370
    18
100
AcDbPolyline
 90
        9
 70
   128
 43
0.0
 10
268.1827284769
 20
495.0204129056
 10
268.1596662915
 20
495.0201786549
 10
268.1012332579
 20
495.0195764915
 10
268.0095458522
 20
495.0186282261
 10
267.887925042
 20
495.0173682052
 10
267.7407759987
 20
495.0158420677
 10
267.5734285405
 20
495.0141050909
 10
267.3919440827
 20
495.0122201891
 10
267.2028960908
 20
495.0102556345
  0
SPLINE
  5
C7
330
1F
100
AcDbEntity
  8
0
  6
Continuous
 62
     8
370
    18
100
AcDbSpline
210
0.0
220
0.0
230
1.0
 70
     8
 71
     3
 72
    16
 73
    12
 74
     0
 42
0.00000001
 43
0.00000001
 40
0.0
 40
0.0
 40
0.0
 40
0.0
 40
0.2500000000000005
 40
0.2500000000000005
 40
0.500000000000001
 40
0.500000000000001
 40
0.7500000000000016
 40
0.7500000000000016
 40
0.8750000000000008
 40
0.8750000000000008
 40
1.0
 40
1.0
 40
1.0
 40
1.0
 10
267.2028960908137
 20
495.0102556345352
 30
0.0
 10
267.1872662320797
 20
496.5111269894376
 30
0.0
 10
267.1338542883539
 20
498.0101547490062
 30
0.0
 10
266.8395682013071
 20
500.9990629595042
 30
0.0
 10
266.6015877375804
 20
502.4782637125587
 30
0.0
 10
265.8535392732146
 20
505.3883816091803
 30
0.0
 10
265.351600591582
 20
506.7901198231846
 30
0.0
 10
264.3356152584113
 20
508.7700154471696
 30
0.0
 10
263.9521828117021
 20
509.4096803809458
 30
0.0
 10
263.0751040003265
 20
510.6390361750301
 30
0.0
 10
262.5888995545225
 20
511.2169396327047
 30
0.0
 10
262.0541301348017
 20
511.7516710592831
 30
0.0
  0
SPLINE
  5
C8
330
1F
100
AcDbEntity
  8
0
  6
Continuous
 62
     8
370
    18
100
AcDbSpline
210
0.0
220
0.0
230
1.0
 70
     8
 71
     3
 72
    20
 73
    16
 74
     0
 42
0.00000001
 43
0.00000001
 40
0.0
 40
0.0
 40
0.0
 40
0.0
 40
0.1249999999999994
 40
0.1249999999999994
 40
0.1874999999999988
 40
0.1874999999999988
 40
0.2499999999999982
 40
0.2499999999999982
 40
0.5
 40
0.5
 40
0.625
 40
0.625
 40
0.75
 40
0.75
 40
1.0
 40
1.0
 40
1.0
 40
1.0
 10
124.6409998385023
 20
511.7516996084526
 30
0.0
 10
124.1053797963068
 20
511.2160429488923
 30
0.0
 10
123.6220540799117
 20
510.6410366485482
 30
0.0
 10
122.9679860611607
 20
509.7251619728951
 30
0.0
 10
122.7617293074142
 20
509.4110169737226
 30
0.0
 10
122.3715068641143
 20
508.7659537329582
 30
0.0
 10
122.187293698544
 20
508.4344058931475
 30
0.0
 10
121.3310959587873
 20
506.7630174134729
 30
0.0
 10
120.8353641257346
 20
505.3647734761893
 30
0.0
 10
120.2811809043175
 20
503.2062136299182
 30
0.0
 10
120.1287395962595
 20
502.4762629392617
 30
0.0
 10
119.8790904498668
 20
500.9985173422422
 30
0.0
 10
119.7822348185479
 20
500.2525019272019
 30
0.0
 10
119.561605651199
 20
498.0136615056734
 30
0.0
 10
119.5078795466775
 20
496.5117797305867
 30
0.0
 10
119.4922254712521
 20
495.0102595078265
 30
0.0
  0
LWPOLYLINE
  5
C9
330
1F
100
AcDbEntity
  8
0
  6
Continuous
 62
     8
370
    18
100
AcDbPolyline
 90
        9
 70
   128
 43
0.0
 10
119.4922254713
 20
495.0102595078
 10
119.3031773099
 20
495.0122239602
 10
119.1216926567
 20
495.0141086231
 10
118.954344994
 20
495.0158452327
 10
118.8071957541
 20
495.0173708882
 10
118.6855747701
 20
495.0186303293
 10
118.5938872267
 20
495.0195779383
 10
118.5354541014
 20
495.0201793923
 10
118.5123918769
 20
495.0204129062
  0
SPLINE
  5
CA
330
1F
100
AcDbEntity
  8
0
  6
Continuous
 62
     8
370
    18
100
AcDbSpline
210
0.0
220
0.0
230
1.0
 70
     8
 71
     3
 72
    20
 73
    16
 74
     0
 42
0.00000001
 43
0.00000001
 40
0.0
 40
0.0
 40
0.0
 40
0.0
 40
0.2500000000000009
 40
0.2500000000000009
 40
0.3750000000000021
 40
0.3750000000000021
 40
0.5000000000000032
 40
0.5000000000000032
 40
0.7500000000000049
 40
0.7500000000000049
 40
0.8125000000000038
 40
0.8125000000000038
 40
0.8750000000000027
 40
0.8750000000000027
 40
1.0
 40
1.0
 40
1.0
 40
1.0
 10
118.5123918769283
 20
495.0204129062349
 30
0.0
 10
118.5286537198938
 20
496.5847896421557
 30
0.0
 10
118.5859281365033
 20
498.1463044658193
 30
0.0
 10
118.8222251771246
 20
500.4780826094795
 30
0.0
 10
118.9259499246523
 20
501.2559544142666
 30
0.0
 10
119.1927097666359
 20
502.7949746842685
 30
0.0
 10
119.3554043425343
 20
503.5549867273872
 30
0.0
 10
119.9455362794666
 20
505.8019587365928
 30
0.0
 10
120.4724088047434
 20
507.2567012224476
 30
0.0
 10
121.377217407357
 20
508.9953535042399
 30
0.0
 10
121.5714610870255
 20
509.3399361686599
 30
0.0
 10
121.981844515129
 20
510.0097534264561
 30
0.0
 10
122.198469261335
 20
510.3360547970474
 30
0.0
 10
122.8843444831728
 20
511.2878558834453
 30
0.0
 10
123.3898221861985
 20
511.8860822481705
 30
0.0
 10
123.9482052071066
 20
512.4444793082392
 30
0.0
  0
LINE
  5
CB
330
1F
100
AcDbEntity
  8
0
  6
Continuous
 62
     8
370
    18
100
AcDbLine
 10
262.7469179944
 20
512.4444764376
 30
0.0
 11
262.8584730484
 21
512.5560343061
 31
0.0
  0
LINE
  5
CC
330
1F
100
AcDbEntity
  8
0
  6
Continuous
 62
     8
370
    18
100
AcDbLine
 10
245.322851656
 20
517.8802905462
 30
0.0
 11
245.324492041
 21
518.0380813474
 31
0.0
  0
LINE
  5
CD
330
1F
100
AcDbEntity
  8
0
  6
Continuous
 62
     8
370
    18
100
AcDbLine
 10
123.9482052071
 20
512.4444793083
 30
0.0
 11
123.8366473948
 21
512.5560343061
 31
0.0
  0
LINE
  5
CE
330
1F
100
AcDbEntity
  8
0
  6
Continuous
 62
     8
370
    18
100
AcDbLine
 10
118.5123918769
 20
495.0204129062
 30
0.0
 11
118.3546003534
 21
495.0220532987
 31
0.0
  0
LINE
  5
CF
330
1F
100
AcDbEntity
  8
0
  6
Continuous
 62
     8
370
    18
100
AcDbLine
 10
141.3722687968
 20
517.8802895878
 30
0.0
 11
141.3706284022
 21
518.0380813474
 31
0.0
  0
SPLINE
  5
D0
330
1F
100
AcDbEntity
  8
0
  6
Continuous
 62
     8
370
    18
100
AcDbSpline
210
0.0
220
0.0
230
1.0
 70
     8
 71
     3
 72
    12
 73
     8
 74
     0
 42
0.00000001
 43
0.00000001
 40
0.0
 40
0.0
 40
0.0
 40
0.0
 40
0.5
 40
0.5
 40
0.75
 40
0.75
 40
1.0
 40
1.0
 40
1.0
 40
1.0
 10
119.3493238632442
 20
478.7625046332636
 30
0.0
 10
119.2448555051093
 20
464.148835614367
 30
0.0
 10
119.2044742431184
 20
449.5347440239685
 30
0.0
 10
119.2400811738592
 20
427.6139964020057
 30
0.0
 10
119.2680655234842
 20
420.3071129572327
 30
0.0
 10
119.3559329532633
 20
405.6934102523506
 30
0.0
 10
119.4161335492558
 20
398.3866120085268
 30
0.0
 10
119.4922238731436
 20
391.0799872760375
 30
0.0
  0
SPLINE
  5
D1
330
1F
100
AcDbEntity
  8
0
  6
Continuous
 62
     8
370
    18
100
AcDbSpline
210
0.0
220
0.0
230
1.0
 70
     8
 71
     3
 72
     8
 73
     4
 74
     0
 42
0.00000001
 43
0.00000001
 40
0.0
 40
0.0
 40
0.0
 40
0.0
 40
1.0
 40
1.0
 40
1.0
 40
1.0
 10
119.4922254712522
 20
495.0102595078265
 30
0.0
 10
119.4357626988395
 20
489.5944186899812
 30
0.0
 10
119.3880410591732
 20
484.1785013689469
 30
0.0
 10
119.3493238632446
 20
478.7625046332636
 30
0.0
  0
SPLINE
  5
D2
330
1F
100
AcDbEntity
  8
0
  6
Continuous
 62
     8
370
    18
100
AcDbSpline
210
0.0
220
0.0
230
1.0
 70
     8
 71
     3
 72
    14
 73
    10
 74
     0
 42
0.00000001
 43
0.00000001
 40
0.0
 40
0.0
 40
0.0
 40
0.0
 40
0.2500000000000001
 40
0.2500000000000001
 40
0.5000000000000001
 40
0.5000000000000001
 40
0.75
 40
0.75
 40
1.0
 40
1.0
 40
1.0
 40
1.0
 10
245.3127189757378
 20
516.9004763153498
 30
0.0
 10
236.6521321697027
 20
516.9906828096521
 30
0.0
 10
227.9912980533431
 20
517.0583091913526
 30
0.0
 10
210.6695519022598
 20
517.1485434904263
 30
0.0
 10
202.0086367661157
 20
517.171058177996
 30
0.0
 10
184.6867227044451
 20
517.1710627939444
 30
0.0
 10
176.0256718223417
 20
517.1485507700177
 30
0.0
 10
158.7038230176158
 20
517.0582876668027
 30
0.0
 10
150.0430140799768
 20
516.9906322362083
 30
0.0
 10
141.3824272468166
 20
516.9004264502458
 30
0.0
  0
SPLINE
  5
D3
330
1F
100
AcDbEntity
  8
0
  6
Continuous
 62
     8
370
    18
100
AcDbSpline
210
0.0
220
0.0
230
1.0
 70
     8
 71
     3
 72
     8
 73
     4
 74
     0
 42
0.00000001
 43
0.00000001
 40
0.0
 40
0.0
 40
0.0
 40
0.0
 40
1.0
 40
1.0
 40
1.0
 40
1.0
 10
267.3468384531184
 20
478.6166159013217
 30
0.0
 10
267.3079362656994
 20
484.0812422145963
 30
0.0
 10
267.2598022888719
 20
489.5457872485003
 30
0.0
 10
267.2028960908134
 20
495.0102556345352
 30
0.0
  0
SPLINE
  5
D4
330
1F
100
AcDbEntity
  8
0
  6
Continuous
 62
     8
370
    18
100
AcDbSpline
210
0.0
220
0.0
230
1.0
 70
     8
 71
     3
 72
    12
 73
     8
 74
     0
 42
0.00000001
 43
0.00000001
 40
0.0
 40
0.0
 40
0.0
 40
0.0
 40
0.25
 40
0.25
 40
0.5
 40
0.5
 40
1.0
 40
1.0
 40
1.0
 40
1.0
 10
267.2028949646214
 20
391.0799834340224
 30
0.0
 10
267.278941515735
 20
398.3744251725601
 30
0.0
 10
267.3389853800626
 20
405.6690315394638
 30
0.0
 10
267.426825664523
 20
420.2583993688684
 30
0.0
 10
267.454830412442
 20
427.5531427373119
 30
0.0
 10
267.4907105775972
 20
449.4375526643383
 30
0.0
 10
267.4506984276323
 20
464.0273090456314
 30
0.0
 10
267.3468384531203
 20
478.6166159013217
 30
0.0
  0
SPLINE
  5
D5
330
1F
100
AcDbEntity
  8
0
  6
Continuous
 62
     8
370
    18
100
AcDbSpline
210
0.0
220
0.0
230
1.0
 70
     8
 71
     3
 72
     9
 73
     5
 74
     0
 42
0.00000001
 43
0.00000001
 40
0.0
 40
0.0
 40
0.0
 40
0.0
 40
0.6197052776304112
 40
1.0
 40
1.0
 40
1.0
 40
1.0
 10
141.3824011743934
 20
369.1897668294549
 30
0.0
 10
147.089909420127
 20
369.1284315600272
 30
0.0
 10
156.2999459516174
 20
369.0294566575345
 30
0.0
 10
165.5104751410694
 20
369.0217416305342
 30
0.0
 10
169.013190782049
 20
369.0188076464831
 30
0.0
  0
SPLINE
  5
D6
330
1F
100
AcDbEntity
  8
0
  6
Continuous
 62
     8
370
    18
100
AcDbSpline
210
0.0
220
0.0
230
1.0
 70
     8
 71
     3
 72
     9
 73
     5
 74
     0
 42
0.00000001
 43
0.00000001
 40
0.0
 40
0.0
 40
0.0
 40
0.0
 40
0.3657095382717072
 40
0.9999999999999999
 40
0.9999999999999999
 40
0.9999999999999999
 40
0.9999999999999999
 10
217.6817736954762
 20
368.989020671015
 30
0.0
 10
221.0501415055472
 20
369.003011130894
 30
0.0
 10
230.2606418003698
 20
369.0412667912331
 30
0.0
 10
239.4707863783625
 20
369.1321618973062
 30
0.0
 10
245.3126932353218
 20
369.1898157961061
 30
0.0
  0
LINE
  5
D7
330
1F
100
AcDbEntity
  8
0
  6
Continuous
 62
     8
370
    18
100
AcDbLine
 10
268.1827284769
 20
495.0204129056
 30
0.0
 11
268.3405200897
 21
495.0220532987
 31
0.0
  0
LINE
  5
D8
330
1F
100
AcDbEntity
  8
0
  6
Continuous
 62
     8
370
    18
100
AcDbLine
 10
245.3228516461
 20
368.2099533943
 30
0.0
 11
245.324492041
 21
368.0521616112
 31
0.0
  0
LINE
  5
D9
330
1F
100
AcDbEntity
  8
0
  6
Continuous
 62
     8
370
    18
100
AcDbLine
 10
262.7469152547
 20
373.6457636316
 30
0.0
 11
262.8584730484
 21
373.5342086525
 31
0.0
  0
LINE
  5
DA
330
1F
100
AcDbEntity
  8
0
  6
Continuous
 62
     8
370
    18
100
AcDbLine
 10
118.5123919771
 20
391.0698300531
 30
0.0
 11
118.3546003534
 21
391.0681896599
 31
0.0
  0
LINE
  5
DB
330
1F
100
AcDbEntity
  8
0
  6
Continuous
 62
     8
370
    18
100
AcDbLine
 10
123.9482024941
 20
373.6457665663
 30
0.0
 11
123.8366473948
 21
373.5342086525
 31
0.0
  0
LINE
  5
DC
330
1F
100
AcDbEntity
  8
0
  6
Continuous
 62
     8
370
    18
100
AcDbLine
 10
268.1827285646
 20
391.0698300524
 30
0.0
 11
268.3405200897
 21
391.0681896599
 31
0.0
  0
LINE
  5
DD
330
1F
100
AcDbEntity
  8
0
  6
Continuous
 62
     8
370
    18
100
AcDbLine
 10
141.3722687872
 20
368.209952423
 30
0.0
 11
141.3706284022
 21
368.0521616112
 31
0.0
  0
SPLINE
  5
DE
330
1F
100
AcDbEntity
  8
0
  6
Continuous
 62
     8
370
    18
100
AcDbSpline
210
0.0
220
0.0
230
1.0
 70
     8
 71
     3
 72
    14
 73
    10
 74
     0
 42
0.00000001
 43
0.00000001
 40
0.0
 40
0.0
 40
0.0
 40
0.0
 40
0.2499999999999999
 40
0.2499999999999999
 40
0.4999999999999999
 40
0.4999999999999999
 40
0.7499999999999999
 40
0.7499999999999999
 40
1.0
 40
1.0
 40
1.0
 40
1.0
 10
141.3722687968332
 20
517.8802895877919
 30
0.0
 10
150.0346026173487
 20
517.9703363705871
 30
0.0
 10
158.6971957244296
 20
518.0379610489432
 30
0.0
 10
176.0223799041325
 20
518.1280610668537
 30
0.0
 10
184.684971496209
 20
518.1505861545522
 30
0.0
 10
202.0101536847782
 20
518.1505854868016
 30
0.0
 10
210.6727442812864
 20
518.1280603196127
 30
0.0
 10
227.9979244787738
 20
518.0379609486362
 30
0.0
 10
236.6605177558954
 20
517.9703315960836
 30
0.0
 10
245.3228516560196
 20
517.8802905461596
 30
0.0
  0
SPLINE
  5
DF
330
1F
100
AcDbEntity
  8
0
  6
Continuous
 62
     8
370
    18
100
AcDbSpline
210
0.0
220
0.0
230
1.0
 70
     8
 71
     3
 72
    12
 73
     8
 74
     0
 42
0.00000001
 43
0.00000001
 40
0.0
 40
0.0
 40
0.0
 40
0.0
 40
0.2500000000000001
 40
0.2500000000000001
 40
0.5000000000000001
 40
0.5000000000000001
 40
1.0
 40
1.0
 40
1.0
 40
1.0
 10
118.5123919771169
 20
391.0698300531363
 30
0.0
 10
118.4364226084896
 20
398.3779593096685
 30
0.0
 10
118.3763988457469
 20
405.686272388816
 30
0.0
 10
118.2885012743966
 20
420.3029475410042
 30
0.0
 10
118.2605847546662
 20
427.6112850553974
 30
0.0
 10
118.2249351053392
 20
449.5362974134302
 30
0.0
 10
118.2652970118146
 20
464.1529720719648
 30
0.0
 10
118.3697924065372
 20
478.7696464836559
 30
0.0
  0
LWPOLYLINE
  5
E0
330
1F
100
AcDbEntity
  8
0
  6
Continuous
 62
     8
370
    18
100
AcDbPolyline
 90
        9
 70
   128
 43
0.0
 10
119.3493238632
 20
478.7625046333
 10
119.1603177318
 20
478.7638589787
 10
118.978882306
 20
478.76516426
 10
118.8115864602
 20
478.7663732193
 10
118.6644871447
 20
478.7674420862
 10
118.5429100943
 20
478.7683321624
 10
118.451257009
 20
478.7690112226
 10
118.3928461914
 20
478.7694546815
 10
118.3697924065
 20
478.7696464837
  0
SPLINE
  5
E1
330
1F
100
AcDbEntity
  8
0
  6
Continuous
 62
     8
370
    18
100
AcDbSpline
210
0.0
220
0.0
230
1.0
 70
     8
 71
     3
 72
     9
 73
     5
 74
     0
 42
0.00000001
 43
0.00000001
 40
0.0
 40
0.0
 40
0.0
 40
0.0
 40
0.6340667389251373
 40
1.0
 40
1.0
 40
1.0
 40
1.0
 10
245.3228516460864
 20
368.2099533942571
 30
0.0
 10
239.479875374471
 20
368.1433355213659
 30
0.0
 10
230.2647945116578
 20
368.0382710718349
 30
0.0
 10
221.0491967116209
 20
368.0532903736345
 30
0.0
 10
217.676902955899
 20
368.0587864357211
 30
0.0
  0
SPLINE
  5
E2
330
1F
100
AcDbEntity
  8
0
  6
Continuous
 62
     8
370
    18
100
AcDbSpline
210
0.0
220
0.0
230
1.0
 70
     8
 71
     3
 72
     9
 73
     5
 74
     0
 42
0.00000001
 43
0.00000001
 40
0.0
 40
0.0
 40
0.0
 40
0.0
 40
0.3805191621096058
 40
0.9999999999999999
 40
0.9999999999999999
 40
0.9999999999999999
 40
0.9999999999999999
 10
169.0182072094954
 20
368.0607493321848
 30
0.0
 10
165.511496922941
 20
368.0551218884863
 30
0.0
 10
156.2959024516583
 20
368.0403330308966
 30
0.0
 10
147.0808297473398
 20
368.1450699244095
 30
0.0
 10
141.3722687872477
 20
368.2099524229609
 30
0.0
  0
SPLINE
  5
E3
330
1F
100
AcDbEntity
  8
0
  6
Continuous
 62
     8
370
    18
100
AcDbSpline
210
0.0
220
0.0
230
1.0
 70
     8
 71
     3
 72
     8
 73
     4
 74
     0
 42
0.00000001
 43
0.00000001
 40
0.0
 40
0.0
 40
0.0
 40
0.0
 40
1.0
 40
1.0
 40
1.0
 40
1.0
 10
268.1827284769179
 20
495.0204129055697
 30
0.0
 10
268.2395432048159
 20
489.5549294131362
 30
0.0
 10
268.2874547169529
 20
484.0893682995453
 30
0.0
 10
268.3263692045963
 20
478.6237281494449
 30
0.0
  0
SPLINE
  5
E4
330
1F
100
AcDbEntity
  8
0
  6
Continuous
 62
     8
370
    18
100
AcDbSpline
210
0.0
220
0.0
230
1.0
 70
     8
 71
     3
 72
    12
 73
     8
 74
     0
 42
0.00000001
 43
0.00000001
 40
0.0
 40
0.0
 40
0.0
 40
0.0
 40
0.5
 40
0.5
 40
0.75
 40
0.75
 40
1.0
 40
1.0
 40
1.0
 40
1.0
 10
268.3263692045966
 20
478.6237281494449
 30
0.0
 10
268.4302644448993
 20
464.0313737027924
 30
0.0
 10
268.4702398608432
 20
449.4390183067321
 30
0.0
 10
268.4343297268876
 20
427.5504837886228
 30
0.0
 10
268.4063799034642
 20
420.2543053785638
 30
0.0
 10
268.3185217426341
 20
405.6619480837733
 30
0.0
 10
268.2585707778151
 20
398.3657981613031
 30
0.0
 10
268.1827285645982
 20
391.069830052385
 30
0.0
  0
SPLINE
  5
E5
330
1F
100
AcDbEntity
  8
0
  6
Continuous
 62
     8
370
    18
100
AcDbSpline
210
0.0
220
0.0
230
1.0
 70
     8
 71
     3
 72
     8
 73
     4
 74
     0
 42
0.00000001
 43
0.00000001
 40
0.0
 40
0.0
 40
0.0
 40
0.0
 40
1.0
 40
1.0
 40
1.0
 40
1.0
 10
118.3697924065369
 20
478.769646483656
 30
0.0
 10
118.4085188280681
 20
484.1866459232424
 30
0.0
 10
118.4560833036698
 20
489.6035675914596
 30
0.0
 10
118.512391876928
 20
495.0204129062337
 30
0.0
  0
LWPOLYLINE
  5
E6
330
1F
100
AcDbEntity
  8
0
  6
Continuous
 62
     7
370
    25
100
AcDbPolyline
 90
        3
 70
   128
 43
0.0
 10
435.2103543851
 20
369.1094030631
 10
435.2169688268
 20
369.4360367951
 10
435.2449211955
 20
370.8731146419
  0
LWPOLYLINE
  5
E7
330
1F
100
AcDbEntity
  8
0
  6
Continuous
 62
     7
370
    25
100
AcDbPolyline
 90
        3
 70
   128
 43
0.0
 10
435.2075356676
 20
368.9637194748
 10
435.2079663632
 20
368.9849018513
 10
435.2142636995
 20
369.3024524566
  0
LINE
  5
E8
330
1F
100
AcDbEntity
  8
0
  6
Continuous
 62
     7
370
    25
100
AcDbLine
 10
435.2198353186
 20
369.5834079149
 30
0.0
 11
435.2273320451
 21
369.9614391798
 31
0.0
  0
LINE
  5
E9
330
1F
100
AcDbEntity
  8
0
  6
Continuous
 62
     7
370
    25
100
AcDbLine
 10
435.2447038642
 20
515.2285506927
 30
0.0
 11
435.2197007348
 21
516.5136281985
 31
0.0
  0
LINE
  5
EA
330
1F
100
AcDbEntity
  8
0
  6
Continuous
 62
     7
370
    25
100
AcDbLine
 10
435.2141389721
 20
516.7940676618
 30
0.0
 11
435.2107550744
 21
516.9611521336
 31
0.0
  0
LINE
  5
EB
330
1F
100
AcDbEntity
  8
0
  6
Continuous
 62
     7
370
    25
100
AcDbLine
 10
435.2272874053
 20
516.1310872815
 30
0.0
 11
435.2093401571
 21
517.036037195
 31
0.0
  0
SPLINE
  5
EC
330
1F
100
AcDbEntity
  8
0
  6
Continuous
 62
     7
370
    25
100
AcDbSpline
210
0.0
220
0.0
230
1.0
 70
     8
 71
     3
 72
     9
 73
     5
 74
     0
 42
0.00000001
 43
0.00000001
 40
0.0
 40
0.0
 40
0.0
 40
0.0
 40
0.4969452309713045
 40
1.0
 40
1.0
 40
1.0
 40
1.0
 10
435.5451251640412
 20
492.185836547698
 30
0.0
 10
435.5106164184059
 20
496.1064573962466
 30
0.0
 10
435.4411746701314
 20
503.995899942834
 30
0.0
 10
435.3038599046977
 20
511.8131293737817
 30
0.0
 10
435.2347830570882
 20
515.7456239196114
 30
0.0
  0
SPLINE
  5
ED
330
1F
100
AcDbEntity
  8
0
  6
Continuous
 62
     7
370
    25
100
AcDbSpline
210
0.0
220
0.0
230
1.0
 70
     8
 71
     3
 72
    11
 73
     7
 74
     0
 42
0.00000001
 43
0.00000001
 40
0.0
 40
0.0
 40
0.0
 40
0.0
 40
0.1488259148533588
 40
0.4122113796104925
 40
0.7021715079919709
 40
1.0
 40
1.0
 40
1.0
 40
1.0
 10
435.675664524929
 20
437.4454508157183
 30
0.0
 10
435.6762086379136
 20
439.0397750694528
 30
0.0
 10
435.6777156977844
 20
443.4556632622177
 30
0.0
 10
435.6757030536685
 20
450.9777536927812
 30
0.0
 10
435.669861190249
 20
460.0962941968595
 30
0.0
 10
435.6578142530448
 20
466.392572531337
 30
0.0
 10
435.6517101519847
 20
469.5828538953716
 30
0.0
  0
SPLINE
  5
EE
330
1F
100
AcDbEntity
  8
0
  6
Continuous
 62
     7
370
    25
100
AcDbSpline
210
0.0
220
0.0
230
1.0
 70
     8
 71
     3
 72
    10
 73
     6
 74
     0
 42
0.00000001
 43
0.00000001
 40
0.0
 40
0.0
 40
0.0
 40
0.0
 40
0.3945239967616448
 40
0.7814271422050673
 40
0.9999999999999999
 40
0.9999999999999999
 40
0.9999999999999999
 40
0.9999999999999999
 10
435.2348510151872
 20
370.3481428373186
 30
0.0
 10
435.2768434193352
 20
372.6642395540369
 30
0.0
 10
435.3600170783193
 20
377.2516939377284
 30
0.0
 10
435.4447843092183
 20
383.382833985031
 30
0.0
 10
435.4818328497218
 20
387.1653515204825
 30
0.0
 10
435.4952071293492
 20
388.5308154909144
 30
0.0
  0
LINE
  5
EF
330
1F
100
AcDbEntity
  8
0
  6
Continuous
 62
     7
370
    25
100
AcDbLine
 10
434.2386298432
 20
518.150439194
 30
0.0
 11
428.212124484
 21
518.3082487906
 31
0.0
  0
LINE
  5
F0
330
1F
100
AcDbEntity
  8
0
  6
Continuous
 62
     7
370
    25
100
AcDbLine
 10
428.212124484
 20
367.781994168
 30
0.0
 11
434.2385664635
 21
367.939802105
 31
0.0
  0
ARC
  5
F1
330
1F
100
AcDbEntity
  8
0
  6
Continuous
 62
     7
370
    25
100
AcDbCircle
 10
434.2068536277
 20
368.9393144677
 30
0.0
 40
1.000000000000016
100
AcDbArc
 50
272.6275298059
 51
358.8185554064
  0
ARC
  5
F2
330
1F
100
AcDbEntity
  8
0
  6
Continuous
 62
     7
370
    25
100
AcDbCircle
 10
434.2068534459
 20
517.1509284957
 30
0.0
 40
0.9999999999999314
100
AcDbArc
 50
1.1843530835
 51
86.9023164623
  0
LINE
  5
F3
330
1F
100
AcDbEntity
  8
0
  6
Continuous
 62
     7
370
    25
100
AcDbLine
 10
464.212124484
 20
437.4451214793
 30
0.0
 11
435.6760692986
 21
437.4451214793
 31
0.0
  0
LINE
  5
F4
330
1F
100
AcDbEntity
  8
0
  6
Continuous
 62
     7
370
    25
100
AcDbLine
 10
435.4977525676
 20
388.4451214793
 30
0.0
 11
464.212124484
 21
388.4451214793
 31
0.0
  0
ARC
  5
F5
330
1F
100
AcDbEntity
  8
0
  6
Continuous
 62
     7
370
    25
100
AcDbCircle
 10
464.212124484
 20
412.9451214793
 30
0.0
 40
24.50000000000003
100
AcDbArc
 50
270.0
 51
293.3232625958
  0
ARC
  5
F6
330
1F
100
AcDbEntity
  8
0
  6
Continuous
 62
     7
370
    25
100
AcDbCircle
 10
464.212124484
 20
412.9451214793
 30
0.0
 40
24.50000000000006
100
AcDbArc
 50
48.1210053813
 51
90.0
  0
LINE
  5
F7
330
1F
100
AcDbEntity
  8
0
  6
Continuous
 62
     7
370
    25
100
AcDbLine
 10
435.6524610856
 20
469.5488104404
 30
0.0
 11
443.5505935654
 21
469.6866728556
 31
0.0
  0
LINE
  5
F8
330
1F
100
AcDbEntity
  8
0
  6
Continuous
 62
     7
370
    25
100
AcDbLine
 10
443.5505935654
 20
492.203570103
 30
0.0
 11
435.5447466286
 21
492.3433126811
 31
0.0
  0
ARC
  5
F9
330
1F
100
AcDbEntity
  8
0
  6
Continuous
 62
     7
370
    25
100
AcDbCircle
 10
443.5418673622
 20
470.1865967032
 30
0.0
 40
0.5000000000000285
100
AcDbArc
 50
271.0
 51
358.1867030123
  0
ARC
  5
FA
330
1F
100
AcDbEntity
  8
0
  6
Continuous
 62
     7
370
    25
100
AcDbCircle
 10
443.5418673622
 20
491.7036462554
 30
0.0
 40
0.5000000000000636
100
AcDbArc
 50
1.8132969877
 51
89.0
  0
ARC
  5
FB
330
1F
100
AcDbEntity
  8
0
  6
Continuous
 62
     7
370
    25
100
AcDbCircle
 10
103.712124484
 20
480.9451214793
 30
0.0
 40
340.5000000000001
100
AcDbArc
 50
358.1867030123
 51
0.0
  0
ARC
  5
FC
330
1F
100
AcDbEntity
  8
0
  6
Continuous
 62
     7
370
    25
100
AcDbCircle
 10
103.712124484
 20
480.9451214793
 30
0.0
 40
340.5000000000001
100
AcDbArc
 50
0.0
 51
1.8132969877
  0
LINE
  5
FD
330
1F
100
AcDbEntity
  8
0
  6
Continuous
 62
     7
370
    25
100
AcDbLine
 10
479.912124484
 20
388.4017094347
 30
0.0
 11
479.912124484
 21
388.0517094347
 31
0.0
  0
LINE
  5
FE
330
1F
100
AcDbEntity
  8
0
  6
Continuous
 62
     7
370
    25
100
AcDbLine
 10
487.912124484
 20
388.0517094347
 30
0.0
 11
487.912124484
 21
388.4016370747
 31
0.0
  0
LINE
  5
FF
330
1F
100
AcDbEntity
  8
0
  6
Continuous
 62
     7
370
    25
100
AcDbLine
 10
479.912124484
 20
388.0517094347
 30
0.0
 11
480.1307058509
 21
387.4511620648
 31
0.0
  0
LINE
  5
100
330
1F
100
AcDbEntity
  8
0
  6
Continuous
 62
     7
370
    25
100
AcDbLine
 10
487.6935431171
 20
387.4511620648
 30
0.0
 11
487.912124484
 21
388.0517094347
 31
0.0
  0
ARC
  5
101
330
1F
100
AcDbEntity
  8
0
  6
Continuous
 62
     7
370
    25
100
AcDbCircle
 10
487.5056045929
 20
387.5195660935
 30
0.0
 40
0.2000000000000455
100
AcDbArc
 50
270.0
 51
340.0
  0
ARC
  5
102
330
1F
100
AcDbEntity
  8
0
  6
Continuous
 62
     7
370
    25
100
AcDbCircle
 10
480.3186443751
 20
387.5195660935
 30
0.0
 40
0.2000000000000553
100
AcDbArc
 50
200.0
 51
270.0
  0
LINE
  5
103
330
1F
100
AcDbEntity
  8
0
  6
Continuous
 62
     7
370
    25
100
AcDbLine
 10
480.3186443751
 20
387.3195660935
 30
0.0
 11
487.5056045929
 21
387.3195660935
 31
0.0
  0
SPLINE
  5
104
330
1F
100
AcDbEntity
  8
0
  6
Continuous
 62
     7
370
    25
100
AcDbSpline
210
0.0
220
0.0
230
1.0
 70
    24
 71
     3
 72
    18
 73
    14
 74
     0
 42
0.00000001
 43
0.00000001
 40
0.0
 40
0.0
 40
0.0
 40
0.0
 40
0.25
 40
0.25
 40
0.5
 40
0.5
 40
0.625
 40
0.625
 40
0.75
 40
0.75
 40
0.875
 40
0.875
 40
1.0
 40
1.0
 40
1.0
 40
1.0
 10
428.212124484013
 20
391.0681896598784
 30
0.0
 10
428.2121244840102
 20
389.4964771851012
 30
0.0
 10
428.2121244840143
 20
387.9224907211037
 30
0.0
 10
428.2121244840116
 20
384.7896062403993
 30
0.0
 10
428.2121244840137
 20
383.2438218857314
 30
0.0
 10
428.2121244840126
 20
380.9791844680016
 30
0.0
 10
428.2121244840137
 20
380.2329653465736
 30
0.0
 10
428.2121244840122
 20
378.7615440967934
 30
0.0
 10
428.2121244840122
 20
378.0336347345933
 30
0.0
 10
428.2121244840137
 20
376.6413410766089
 30
0.0
 10
428.212124484013
 20
375.9729206356704
 30
0.0
 10
428.212124484013
 20
374.6997348657185
 30
0.0
 10
428.2121244840137
 20
374.0923258964107
 30
0.0
 10
428.212124484013
 20
373.53420865251
 30
0.0
  0
SPLINE
  5
105
330
1F
100
AcDbEntity
  8
0
  6
Continuous
 62
     7
370
    25
100
AcDbSpline
210
0.0
220
0.0
230
1.0
 70
    24
 71
     3
 72
    18
 73
    14
 74
     0
 42
0.00000001
 43
0.00000001
 40
0.0
 40
0.0
 40
0.0
 40
0.0
 40
0.25
 40
0.25
 40
0.5
 40
0.5
 40
0.625
 40
0.625
 40
0.75
 40
0.75
 40
0.875
 40
0.875
 40
1.0
 40
1.0
 40
1.0
 40
1.0
 10
428.212124484013
 20
495.0220532987227
 30
0.0
 10
428.2121244840102
 20
496.5937657735001
 30
0.0
 10
428.2121244840143
 20
498.1677522374974
 30
0.0
 10
428.2121244840116
 20
501.300636718202
 30
0.0
 10
428.2121244840137
 20
502.8464210728698
 30
0.0
 10
428.2121244840126
 20
505.1110584905996
 30
0.0
 10
428.2121244840137
 20
505.8572776120276
 30
0.0
 10
428.2121244840122
 20
507.3286988618078
 30
0.0
 10
428.2121244840122
 20
508.0566082240079
 30
0.0
 10
428.2121244840137
 20
509.4489018819923
 30
0.0
 10
428.212124484013
 20
510.1173223229308
 30
0.0
 10
428.212124484013
 20
511.3905080928827
 30
0.0
 10
428.2121244840137
 20
511.9979170621904
 30
0.0
 10
428.212124484013
 20
512.5560343060912
 30
0.0
  0
LINE
  5
106
330
1F
100
AcDbEntity
  8
0
  6
Continuous
 62
     7
370
    25
100
AcDbLine
 10
428.212124484
 20
391.0681896599
 30
0.0
 11
428.212124484
 21
495.0220532987
 31
0.0
  0
LWPOLYLINE
  5
107
330
1F
100
AcDbEntity
  8
0
  6
Continuous
 62
     7
370
    25
100
AcDbPolyline
 90
       21
 70
   128
 43
0.0
 10
435.4979081019
 20
388.5307877527
 10
435.4987312081
 20
388.6156176395
 10
435.5067289781
 20
389.4621228494
 10
435.5199023614
 20
390.9420253697
 10
435.5373191213
 20
393.0979282036
 10
435.556032878
 20
395.7489639509
 10
435.5751631331
 20
398.9713810971
 10
435.5922001475
 20
402.4947471651
 10
435.6073670488
 20
406.420433237
 10
435.6197535402
 20
410.4188192834
 10
435.6305054761
 20
414.605057959
 10
435.6395537346
 20
418.6276737913
 10
435.6478352527
 20
422.6025019137
 10
435.6550312033
 20
426.1958413863
 10
435.6615073286
 20
429.5111463421
 10
435.6667628581
 20
432.2700833736
 10
435.6709781859
 20
434.5520867362
 10
435.6738593252
 20
436.1655725495
 10
435.6755782722
 20
437.1569976578
 10
435.6760692986
 20
437.4451214793
 10
435.6760692986
 20
437.4451214793
  0
SPLINE
  5
108
330
1F
100
AcDbEntity
  8
0
  6
Continuous
 62
     7
370
    25
100
AcDbSpline
210
0.0
220
0.0
230
1.0
 70
     8
 71
     3
 72
    20
 73
    16
 74
     0
 42
0.00000001
 43
0.00000001
 40
0.0
 40
0.0
 40
0.0
 40
0.0
 40
0.2499999999999991
 40
0.2499999999999991
 40
0.3749999999999988
 40
0.3749999999999988
 40
0.4999999999999984
 40
0.4999999999999984
 40
0.7499999999999978
 40
0.7499999999999978
 40
0.8124999999999991
 40
0.8124999999999991
 40
0.8750000000000004
 40
0.8750000000000004
 40
1.0
 40
1.0
 40
1.0
 40
1.0
 10
435.2119024570666
 20
516.9004264502466
 30
0.0
 10
435.2118607805053
 20
516.8847953422027
 30
0.0
 10
435.211796867621
 20
516.8312975018775
 30
0.0
 10
435.2116050319742
 20
516.6112103885027
 30
0.0
 10
435.2115294442857
 20
516.5145146968864
 30
0.0
 10
435.2113712299832
 20
516.2650386658831
 30
0.0
 10
435.2112927222536
 20
516.1126665955268
 30
0.0
 10
435.211069816055
 20
515.5586090220029
 30
0.0
 10
435.210950812337
 20
515.0628537673879
 30
0.0
 10
435.2107791699485
 20
514.2064408010325
 30
0.0
 10
435.2107455657079
 20
514.0221733612852
 30
0.0
 10
435.2106819519245
 20
513.6318131954009
 30
0.0
 10
435.2106525447387
 20
513.4254772639744
 30
0.0
 10
435.210574127104
 20
512.7711390290892
 30
0.0
 10
435.210537082562
 20
512.2875900683168
 30
0.0
 10
435.2105356279254
 20
511.7516996081685
 30
0.0
  0
SPLINE
  5
109
330
1F
100
AcDbEntity
  8
0
  6
Continuous
 62
     7
370
    25
100
AcDbSpline
210
0.0
220
0.0
230
1.0
 70
     8
 71
     3
 72
     9
 73
     5
 74
     0
 42
0.00000001
 43
0.00000001
 40
0.0
 40
0.0
 40
0.0
 40
0.0
 40
0.4745901796782553
 40
1.0
 40
1.0
 40
1.0
 40
1.0
 10
435.2074640458289
 20
517.1299927325584
 30
0.0
 10
435.207925115412
 20
517.1077921653147
 30
0.0
 10
435.2088966264185
 20
517.0610137695652
 30
0.0
 10
435.2108671333656
 20
516.9557389003602
 30
0.0
 10
435.2119024570666
 20
516.9004264502468
 30
0.0
  0
SPLINE
  5
10A
330
1F
100
AcDbEntity
  8
0
  6
Continuous
 62
     7
370
    25
100
AcDbSpline
210
0.0
220
0.0
230
1.0
 70
     8
 71
     3
 72
     9
 73
     5
 74
     0
 42
0.00000001
 43
0.00000001
 40
0.0
 40
0.0
 40
0.0
 40
0.0
 40
0.4699643930960207
 40
1.0
 40
1.0
 40
1.0
 40
1.0
 10
435.2106120540649
 20
369.1231082735231
 30
0.0
 10
435.2100061033943
 20
369.0907799399131
 30
0.0
 10
435.2087167489677
 20
369.0219910399774
 30
0.0
 10
435.2086522978447
 20
369.019688904913
 30
0.0
 10
435.2086181364546
 20
369.018468691357
 30
0.0
  0
SPLINE
  5
10B
330
1F
100
AcDbEntity
  8
0
  6
Continuous
 62
     7
370
    25
100
AcDbSpline
210
0.0
220
0.0
230
1.0
 70
     8
 71
     3
 72
    26
 73
    22
 74
     0
 42
0.00000001
 43
0.00000001
 40
0.0
 40
0.0
 40
0.0
 40
0.0
 40
0.0527561856882922
 40
0.1070423459815481
 40
0.1597985192532023
 40
0.2140845297148997
 40
0.2668424934353472
 40
0.3211302872242074
 40
0.3738909302144683
 40
0.4281815590755256
 40
0.4809434649582248
 40
0.5352354848323647
 40
0.5879970667448836
 40
0.6422888015401109
 40
0.6950492461057098
 40
0.7493398165176165
 40
0.8020990423217392
 40
0.8563883430805533
 40
0.9091466335837046
 40
0.96343495001533
 40
1.0
 40
1.0
 40
1.0
 40
1.0
 10
435.5447466286398
 20
492.3433126810643
 30
0.0
 10
435.5449820440072
 20
492.3128748811287
 30
0.0
 10
435.5454597019894
 20
492.2511165589694
 30
0.0
 10
435.5492537466071
 20
491.7542122840006
 30
0.0
 10
435.5550634566528
 20
490.9679400392431
 30
0.0
 10
435.5626024588897
 20
489.8994664485019
 30
0.0
 10
435.5714422815565
 20
488.5676454102315
 30
0.0
 10
435.5809207242901
 20
487.0320099591712
 30
0.0
 10
435.5907121277999
 20
485.308952299186
 30
0.0
 10
435.6002307664673
 20
483.4780765659946
 30
0.0
 10
435.609335719112
 20
481.5583186535596
 30
0.0
 10
435.6176497704063
 20
479.6385586851271
 30
0.0
 10
435.6251988637288
 20
477.7386088277986
 30
0.0
 10
435.6317789163307
 20
475.946437416409
 30
0.0
 10
435.6374854337208
 20
474.2805912488486
 30
0.0
 10
435.6422069359105
 20
472.8179273138754
 30
0.0
 10
435.6460311942041
 20
471.5745895624543
 30
0.0
 10
435.6489039594334
 20
470.6041204967111
 30
0.0
 10
435.6508421316354
 20
469.9315850619985
 30
0.0
 10
435.651859205407
 20
469.5724585080521
 30
0.0
 10
435.6518385766727
 20
469.5798708939391
 30
0.0
 10
435.6518302743859
 20
469.5828540994179
 30
0.0
  0
SPLINE
  5
10C
330
1F
100
AcDbEntity
  8
0
  6
Continuous
 62
     7
370
    25
100
AcDbSpline
210
0.0
220
0.0
230
1.0
 70
    24
 71
     3
 72
    18
 73
    14
 74
     0
 42
0.00000001
 43
0.00000001
 40
0.0
 40
0.0
 40
0.0
 40
0.0
 40
0.25
 40
0.25
 40
0.5
 40
0.5
 40
0.625
 40
0.625
 40
0.75
 40
0.75
 40
0.875
 40
0.875
 40
1.0
 40
1.0
 40
1.0
 40
1.0
 10
428.212124484013
 20
518.0380813474468
 30
0.0
 10
428.2121244840102
 20
518.0217419088023
 30
0.0
 10
428.2121244840143
 20
517.9639411605878
 30
0.0
 10
428.2121244840116
 20
517.6449336698179
 30
0.0
 10
428.2121244840137
 20
517.3873025374818
 30
0.0
 10
428.2121244840126
 20
516.7913282645505
 30
0.0
 10
428.2121244840137
 20
516.557548068588
 30
0.0
 10
428.2121244840122
 20
516.004749856938
 30
0.0
 10
428.2121244840122
 20
515.6836495805002
 30
0.0
 10
428.2121244840137
 20
514.9554085989753
 30
0.0
 10
428.212124484013
 20
514.5469376990227
 30
0.0
 10
428.212124484013
 20
513.6281748376366
 30
0.0
 10
428.2121244840137
 20
513.1141374688854
 30
0.0
 10
428.212124484013
 20
512.5560343061055
 30
0.0
  0
SPLINE
  5
10D
330
1F
100
AcDbEntity
  8
0
  6
Continuous
 62
     7
370
    25
100
AcDbSpline
210
0.0
220
0.0
230
1.0
 70
    24
 71
     3
 72
    18
 73
    14
 74
     0
 42
0.00000001
 43
0.00000001
 40
0.0
 40
0.0
 40
0.0
 40
0.0
 40
0.25
 40
0.25
 40
0.5
 40
0.5
 40
0.625
 40
0.625
 40
0.75
 40
0.75
 40
0.875
 40
0.875
 40
1.0
 40
1.0
 40
1.0
 40
1.0
 10
428.212124484013
 20
368.0521616111544
 30
0.0
 10
428.2121244840102
 20
368.068501049799
 30
0.0
 10
428.2121244840143
 20
368.1263017980134
 30
0.0
 10
428.2121244840116
 20
368.4453092887833
 30
0.0
 10
428.2121244840137
 20
368.7029404211195
 30
0.0
 10
428.2121244840126
 20
369.2989146940506
 30
0.0
 10
428.2121244840137
 20
369.5326948900133
 30
0.0
 10
428.2121244840122
 20
370.0854931016632
 30
0.0
 10
428.2121244840122
 20
370.406593378101
 30
0.0
 10
428.2121244840137
 20
371.1348343596259
 30
0.0
 10
428.212124484013
 20
371.5433052595785
 30
0.0
 10
428.212124484013
 20
372.4620681209647
 30
0.0
 10
428.2121244840137
 20
372.9761054897159
 30
0.0
 10
428.212124484013
 20
373.5342086524956
 30
0.0
  0
SPLINE
  5
10E
330
1F
100
AcDbEntity
  8
0
  6
Continuous
 62
     7
370
    25
100
AcDbSpline
210
0.0
220
0.0
230
1.0
 70
     8
 71
     3
 72
    10
 73
     6
 74
     0
 42
0.00000001
 43
0.00000001
 40
0.0
 40
0.0
 40
0.0
 40
0.0
 40
0.5000000000000004
 40
0.5000000000000004
 40
1.0
 40
1.0
 40
1.0
 40
1.0
 10
473.912124484008
 20
406.7302651099043
 30
0.0
 10
473.912124484008
 20
408.7874130716519
 30
0.0
 10
474.0920600583107
 20
410.8128336146015
 30
0.0
 10
474.7956461259641
 20
414.8030686285326
 30
0.0
 10
475.3192966185759
 20
416.7678830997119
 30
0.0
 10
476.0228827565011
 20
418.7009701263025
 30
0.0
  0
LINE
  5
10F
330
1F
100
AcDbEntity
  8
0
  6
Continuous
 62
     7
370
    25
100
AcDbLine
 10
501.3938463372
 20
334.4017094347
 30
0.0
 11
502.912124484
 21
334.4017094347
 31
0.0
  0
SPLINE
  5
110
330
1F
100
AcDbEntity
  8
0
  6
Continuous
 62
     7
370
    25
100
AcDbSpline
210
0.0
220
0.0
230
1.0
 70
    24
 71
     3
 72
    30
 73
    26
 74
     0
 42
0.00000001
 43
0.00000001
 40
0.0
 40
0.0
 40
0.0
 40
0.0
 40
0.1250000000000002
 40
0.1250000000000002
 40
0.2500000000000005
 40
0.2500000000000005
 40
0.3750000000000008
 40
0.3750000000000008
 40
0.437500000000001
 40
0.437500000000001
 40
0.5000000000000012
 40
0.5000000000000012
 40
0.5312500000000013
 40
0.5312500000000013
 40
0.5625000000000013
 40
0.5625000000000013
 40
0.6250000000000012
 40
0.6250000000000012
 40
0.6875000000000011
 40
0.6875000000000011
 40
0.750000000000001
 40
0.750000000000001
 40
0.8750000000000006
 40
0.8750000000000006
 40
1.0
 40
1.0
 40
1.0
 40
1.0
 10
503.912124484008
 20
350.3231699772295
 30
0.0
 10
503.9121244840081
 20
349.2833165895271
 30
0.0
 10
503.912124484008
 20
348.2436662044843
 30
0.0
 10
503.912124484008
 20
346.17360686789
 30
0.0
 10
503.912124484008
 20
345.1416883718959
 30
0.0
 10
503.9121244840081
 20
343.09845472741
 30
0.0
 10
503.9121244840082
 20
342.1099227986482
 30
0.0
 10
503.9121244840084
 20
340.7019292174368
 30
0.0
 10
503.9121244840084
 20
340.241869161399
 30
0.0
 10
503.9121244840085
 20
339.3867804072137
 30
0.0
 10
503.9121244840085
 20
338.9887114157844
 30
0.0
 10
503.9121244840086
 20
338.439607392546
 30
0.0
 10
503.9121244840086
 20
338.2645490660507
 30
0.0
 10
503.9121244840086
 20
337.9305471756197
 30
0.0
 10
503.9121244840087
 20
337.7716011709114
 30
0.0
 10
503.9121244840088
 20
337.3280308055366
 30
0.0
 10
503.9121244840089
 20
337.0724439593292
 30
0.0
 10
503.912124484009
 20
336.6264239919732
 30
0.0
 10
503.912124484009
 20
336.435388506832
 30
0.0
 10
503.9121244840092
 20
336.1112927603818
 30
0.0
 10
503.9121244840093
 20
335.9787817643181
 30
0.0
 10
503.9121244840096
 20
335.6522222396139
 30
0.0
 10
503.9121244840097
 20
335.5300611644171
 30
0.0
 10
503.91212448401
 20
335.4043061461171
 30
0.0
 10
503.9121244840101
 20
335.4017094347069
 30
0.0
 10
503.9121244840103
 20
335.4017094347073
 30
0.0
  0
ARC
  5
111
330
1F
100
AcDbEntity
  8
0
  6
Continuous
 62
     7
370
    25
100
AcDbCircle
 10
502.912124484
 20
335.4017094347
 30
0.0
 40
1.0
100
AcDbArc
 50
270.0
 51
0.0
  0
LINE
  5
112
330
1F
100
AcDbEntity
  8
0
  6
Continuous
 62
     7
370
    25
100
AcDbLine
 10
502.912124484
 20
437.4017094347
 30
0.0
 11
483.1794989926
 21
437.4017094347
 31
0.0
  0
SPLINE
  5
113
330
1F
100
AcDbEntity
  8
0
  6
Continuous
 62
     7
370
    25
100
AcDbSpline
210
0.0
220
0.0
230
1.0
 70
    24
 71
     3
 72
    34
 73
    30
 74
     0
 42
0.00000001
 43
0.00000001
 40
0.0
 40
0.0
 40
0.0
 40
0.0
 40
0.1249999999999996
 40
0.1249999999999996
 40
0.2499999999999993
 40
0.2499999999999993
 40
0.312499999999999
 40
0.312499999999999
 40
0.3749999999999987
 40
0.3749999999999987
 40
0.4374999999999984
 40
0.4374999999999984
 40
0.4687499999999984
 40
0.4687499999999984
 40
0.4999999999999984
 40
0.4999999999999984
 40
0.5624999999999986
 40
0.5624999999999986
 40
0.5937499999999988
 40
0.5937499999999988
 40
0.6249999999999989
 40
0.6249999999999989
 40
0.687499999999999
 40
0.687499999999999
 40
0.7499999999999991
 40
0.7499999999999991
 40
0.8749999999999996
 40
0.8749999999999996
 40
1.0
 40
1.0
 40
1.0
 40
1.0
 10
503.9121244840103
 20
436.4017094347073
 30
0.0
 10
503.9121244840101
 20
436.4017094347068
 30
0.0
 10
503.9121244840099
 20
436.3989426565657
 30
0.0
 10
503.9121244840096
 20
436.2734502688246
 30
0.0
 10
503.9121244840094
 20
436.1532329302711
 30
0.0
 10
503.9121244840092
 20
435.828646375813
 30
0.0
 10
503.9121244840092
 20
435.6957022806625
 30
0.0
 10
503.912124484009
 20
435.3716471098985
 30
0.0
 10
503.9121244840089
 20
435.1819956468889
 30
0.0
 10
503.9121244840088
 20
434.7359279982382
 30
0.0
 10
503.9121244840088
 20
434.4795753020849
 30
0.0
 10
503.9121244840087
 20
434.0320602511238
 30
0.0
 10
503.9121244840086
 20
433.8731196508078
 30
0.0
 10
503.9121244840086
 20
433.5398031873178
 30
0.0
 10
503.9121244840085
 20
433.3647689278881
 30
0.0
 10
503.9121244840085
 20
432.8144609170967
 30
0.0
 10
503.9121244840084
 20
432.4138630512276
 30
0.0
 10
503.9121244840082
 20
431.765195645563
 30
0.0
 10
503.9121244840082
 20
431.5402906094915
 30
0.0
 10
503.9121244840081
 20
431.0839027691357
 30
0.0
 10
503.9121244840082
 20
430.8515369554812
 30
0.0
 10
503.9121244840081
 20
430.1433318224223
 30
0.0
 10
503.9121244840081
 20
429.6564538212251
 30
0.0
 10
503.912124484008
 20
428.6586483432298
 30
0.0
 10
503.912124484008
 20
428.147690097242
 30
0.0
 10
503.912124484008
 20
426.6163977361778
 30
0.0
 10
503.912124484008
 20
425.5858859462812
 30
0.0
 10
503.9121244840079
 20
423.5135284042796
 30
0.0
 10
503.912124484008
 20
422.4714377876699
 30
0.0
 10
503.912124484008
 20
421.4290513108538
 30
0.0
  0
ARC
  5
114
330
1F
100
AcDbEntity
  8
0
  6
Continuous
 62
     7
370
    25
100
AcDbCircle
 10
502.912124484
 20
436.4017094347
 30
0.0
 40
1.0
100
AcDbArc
 50
0.0
 51
90.0
  0
SPLINE
  5
115
330
1F
100
AcDbEntity
  8
0
  6
Continuous
 62
     7
370
    25
100
AcDbSpline
210
0.0
220
0.0
230
1.0
 70
     8
 71
     3
 72
    22
 73
    18
 74
     0
 42
0.00000001
 43
0.00000001
 40
0.0
 40
0.0
 40
0.0
 40
0.0
 40
0.125
 40
0.125
 40
0.25
 40
0.25
 40
0.375
 40
0.375
 40
0.5
 40
0.5
 40
0.625
 40
0.625
 40
0.75
 40
0.75
 40
0.875
 40
0.875
 40
1.0
 40
1.0
 40
1.0
 40
1.0
 10
497.6814647604293
 20
378.4540690730213
 30
0.0
 10
497.6778113337872
 20
379.1518157877586
 30
0.0
 10
497.6721417552989
 20
379.8533757096267
 30
0.0
 10
497.5702401033743
 20
381.2688589768041
 30
0.0
 10
497.4744360741955
 20
381.9811514570495
 30
0.0
 10
497.1472742658237
 20
383.357413720036
 30
0.0
 10
496.9163445308882
 20
384.0197526377133
 30
0.0
 10
496.3017815758856
 20
385.2221862065313
 30
0.0
 10
495.9185764000761
 20
385.7606499926084
 30
0.0
 10
494.9973130204323
 20
386.6771022330178
 30
0.0
 10
494.4568501670431
 20
387.0574827790371
 30
0.0
 10
493.2512152514823
 20
387.6657414110868
 30
0.0
 10
492.5876762732433
 20
387.8931999978775
 30
0.0
 10
491.2097198683238
 20
388.2131512621647
 30
0.0
 10
490.4969355255757
 20
388.3052244404215
 30
0.0
 10
489.0809381081289
 20
388.3997132763126
 30
0.0
 10
488.3793581173626
 20
388.4017094347072
 30
0.0
 10
487.681601837955
 20
388.4017094347072
 30
0.0
  0
LINE
  5
116
330
1F
100
AcDbEntity
  8
0
  6
Continuous
 62
     7
370
    25
100
AcDbLine
 10
474.412124484
 20
388.4017094347
 30
0.0
 11
487.681601838
 21
388.4017094347
 31
0.0
  0
SPLINE
  5
117
330
1F
100
AcDbEntity
  8
0
  6
Continuous
 62
     7
370
    25
100
AcDbSpline
210
0.0
220
0.0
230
1.0
 70
    24
 71
     3
 72
    34
 73
    30
 74
     0
 42
0.00000001
 43
0.00000001
 40
0.0
 40
0.0
 40
0.0
 40
0.0
 40
0.1249999999999998
 40
0.1249999999999998
 40
0.2499999999999996
 40
0.2499999999999996
 40
0.3124999999999997
 40
0.3124999999999997
 40
0.3749999999999997
 40
0.3749999999999997
 40
0.4374999999999998
 40
0.4374999999999998
 40
0.4687499999999999
 40
0.4687499999999999
 40
0.4999999999999999
 40
0.4999999999999999
 40
0.5625000000000006
 40
0.5625000000000006
 40
0.5937500000000008
 40
0.5937500000000008
 40
0.6250000000000009
 40
0.6250000000000009
 40
0.6875000000000008
 40
0.6875000000000008
 40
0.7500000000000007
 40
0.7500000000000007
 40
0.8750000000000004
 40
0.8750000000000004
 40
1.0
 40
1.0
 40
1.0
 40
1.0
 10
473.9121244840103
 20
388.9017094347072
 30
0.0
 10
473.9121244840102
 20
388.9017094347068
 30
0.0
 10
473.91212448401
 20
388.9049111758953
 30
0.0
 10
473.9121244840097
 20
389.0405854546865
 30
0.0
 10
473.9121244840096
 20
389.1701084045774
 30
0.0
 10
473.9121244840093
 20
389.5132205167872
 30
0.0
 10
473.9121244840092
 20
389.6522959144975
 30
0.0
 10
473.912124484009
 20
389.9926722315003
 30
0.0
 10
473.9121244840089
 20
390.1939931567578
 30
0.0
 10
473.9121244840088
 20
390.6626720767873
 30
0.0
 10
473.9121244840087
 20
390.9308987257503
 30
0.0
 10
473.9121244840085
 20
391.3953474824214
 30
0.0
 10
473.9121244840085
 20
391.5604218729938
 30
0.0
 10
473.9121244840085
 20
391.9056837245353
 30
0.0
 10
473.9121244840084
 20
392.0866219105578
 30
0.0
 10
473.9121244840084
 20
392.6542901488352
 30
0.0
 10
473.9121244840083
 20
393.0659665759746
 30
0.0
 10
473.9121244840082
 20
393.7305145665983
 30
0.0
 10
473.9121244840082
 20
393.960953071893
 30
0.0
 10
473.9121244840081
 20
394.4304841384924
 30
0.0
 10
473.9121244840081
 20
394.6693926554461
 30
0.0
 10
473.9121244840081
 20
395.3971822599116
 30
0.0
 10
473.9121244840081
 20
395.8970616779074
 30
0.0
 10
473.912124484008
 20
396.9208743649676
 30
0.0
 10
473.912124484008
 20
397.446891243792
 30
0.0
 10
473.912124484008
 20
399.0258527015376
 30
0.0
 10
473.912124484008
 20
400.0882425149054
 30
0.0
 10
473.912124484008
 20
402.2246112657921
 30
0.0
 10
473.912124484008
 20
403.298864706806
 30
0.0
 10
473.912124484008
 20
404.3734561626786
 30
0.0
  0
ARC
  5
118
330
1F
100
AcDbEntity
  8
0
  6
Continuous
 62
     7
370
    25
100
AcDbCircle
 10
474.412124484
 20
388.9017094347
 30
0.0
 40
0.5000000000000568
100
AcDbArc
 50
180.0
 51
270.0
  0
SPLINE
  5
119
330
1F
100
AcDbEntity
  8
0
  6
Continuous
 62
     7
370
    25
100
AcDbSpline
210
0.0
220
0.0
230
1.0
 70
    24
 71
     3
 72
    32
 73
    28
 74
     0
 42
0.00000001
 43
0.00000001
 40
0.0
 40
0.0
 40
0.0
 40
0.0
 40
0.1249999999999995
 40
0.1249999999999995
 40
0.249999999999999
 40
0.249999999999999
 40
0.3124999999999987
 40
0.3124999999999987
 40
0.3749999999999984
 40
0.3749999999999984
 40
0.4374999999999981
 40
0.4374999999999981
 40
0.4999999999999978
 40
0.4999999999999978
 40
0.5624999999999976
 40
0.5624999999999976
 40
0.5937499999999977
 40
0.5937499999999977
 40
0.6249999999999977
 40
0.6249999999999977
 40
0.687499999999998
 40
0.687499999999998
 40
0.7499999999999983
 40
0.7499999999999983
 40
0.8749999999999991
 40
0.8749999999999991
 40
1.0
 40
1.0
 40
1.0
 40
1.0
 10
477.0783974011563
 20
421.6009727783963
 30
0.0
 10
477.4595584253323
 20
422.6482040854964
 30
0.0
 10
477.8406953305849
 20
423.6953691263987
 30
0.0
 10
478.6020264843925
 20
425.7871092802125
 30
0.0
 10
478.979578592982
 20
426.8244251732295
 30
0.0
 10
479.53626326179
 20
428.353903730536
 30
0.0
 10
479.7203065796299
 20
428.8595585905029
 30
0.0
 10
480.0846067355941
 20
429.8604650429182
 30
0.0
 10
480.2659785529371
 20
430.3587800155935
 30
0.0
 10
480.6168648720584
 20
431.3228322541751
 30
0.0
 10
480.7864859844389
 20
431.788862430303
 30
0.0
 10
481.1114912897424
 20
432.6818071678276
 30
0.0
 10
481.2679610428872
 20
433.1117042814204
 30
0.0
 10
481.5526515231194
 20
433.8938849473923
 30
0.0
 10
481.6820634052999
 20
434.2494411714919
 30
0.0
 10
481.8573913006553
 20
434.7311506049816
 30
0.0
 10
481.9127162483595
 20
434.8831546495315
 30
0.0
 10
482.0173219521354
 20
435.170556458602
 30
0.0
 10
482.0666687107338
 20
435.3061355635742
 30
0.0
 10
482.2035716177149
 20
435.6822732091624
 30
0.0
 10
482.281094511412
 20
435.8952656090862
 30
0.0
 10
482.4137287214373
 20
436.2596751061778
 30
0.0
 10
482.4689579338702
 20
436.4114161202315
 30
0.0
 10
482.6050484843092
 20
436.7853218345638
 30
0.0
 10
482.6553913558107
 20
436.9236377372445
 30
0.0
 10
482.7083237286177
 20
437.0690682362901
 30
0.0
 10
482.7096526822439
 20
437.0727195063697
 30
0.0
 10
482.7096526822441
 20
437.0727195063702
 30
0.0
  0
ARC
  5
11A
330
1F
100
AcDbEntity
  8
0
  6
Continuous
 62
     7
370
    25
100
AcDbCircle
 10
483.1794989926
 20
436.9017094347
 30
0.0
 40
0.500000000000029
100
AcDbArc
 50
90.0
 51
160.0
  0
LINE
  5
11B
330
1F
100
AcDbEntity
  8
0
  6
Continuous
 62
     7
370
    25
100
AcDbLine
 10
503.912124484
 20
421.4290513109
 30
0.0
 11
503.912124484
 21
388.4069453985
 31
0.0
  0
LINE
  5
11C
330
1F
100
AcDbEntity
  8
0
  6
Continuous
 62
     7
370
    25
100
AcDbLine
 10
476.0228827565
 20
418.7009701263
 30
0.0
 11
477.0783974012
 21
421.6009727784
 31
0.0
  0
LINE
  5
11D
330
1F
100
AcDbEntity
  8
0
  6
Continuous
 62
     7
370
    25
100
AcDbLine
 10
473.912124484
 20
404.3734561627
 30
0.0
 11
473.912124484
 21
406.7302651099
 31
0.0
  0
LINE
  5
11E
330
1F
100
AcDbEntity
  8
0
  6
Continuous
 62
     7
370
    25
100
AcDbLine
 10
503.912124484
 20
388.4069453985
 30
0.0
 11
503.912124484
 21
350.3231699772
 31
0.0
  0
LINE
  5
11F
330
1F
100
AcDbEntity
  8
0
  6
Continuous
 62
     7
370
    25
100
AcDbLine
 10
497.671766681
 20
380.3062488888
 30
0.0
 11
497.8287865654
 21
350.3179340134
 31
0.0
  0
SPLINE
  5
120
330
1F
100
AcDbEntity
  8
0
  6
Continuous
 62
     7
370
    25
100
AcDbSpline
210
0.0
220
0.0
230
1.0
 70
    24
 71
     3
 72
    38
 73
    34
 74
     0
 42
0.00000001
 43
0.00000001
 40
0.0
 40
0.0
 40
0.0
 40
0.0
 40
0.0026348528730983
 40
0.0026348528730983
 40
0.0039522793096474
 40
0.0039522793096474
 40
0.0052697057461965
 40
0.0052697057461965
 40
0.0065871321827457
 40
0.0065871321827457
 40
0.0079045586192948
 40
0.0079045586192948
 40
0.0085632718375694
 40
0.0085632718375694
 40
0.0092219850558439
 40
0.0092219850558439
 40
0.0098806982741185
 40
0.0098806982741185
 40
0.0105394114923931
 40
0.0105394114923931
 40
0.0111981247106676
 40
0.0111981247106676
 40
0.0118568379289422
 40
0.0118568379289422
 40
0.0131742643654913
 40
0.0131742643654913
 40
0.0144916908020404
 40
0.0144916908020404
 40
0.0158091172385896
 40
0.0158091172385896
 40
0.0184439701116879
 40
0.0184439701116879
 40
0.0210788229847861
 40
0.0210788229847861
 40
0.0210788229847861
 40
0.0210788229847861
 10
497.8938943143161
 20
337.8833835612975
 30
0.0
 10
497.8938943143382
 20
337.8833835570439
 30
0.0
 10
497.8938910001325
 20
337.88401651792
 30
0.0
 10
497.893562888984
 20
337.9466805586175
 30
0.0
 10
497.8934005920917
 20
337.9776766985269
 30
0.0
 10
497.8929249175356
 20
338.0685230165798
 30
0.0
 10
497.8926104582977
 20
338.1285797582545
 30
0.0
 10
497.8917909628851
 20
338.2850904228513
 30
0.0
 10
497.8912868983464
 20
338.3813587786452
 30
0.0
 10
497.8900398760446
 20
338.6195203183282
 30
0.0
 10
497.889297938609
 20
338.7612186357769
 30
0.0
 10
497.8879448179363
 20
339.0196432865018
 30
0.0
 10
497.8874524358662
 20
339.1136804755454
 30
0.0
 10
497.8863896100717
 20
339.3166633951606
 30
0.0
 10
497.8858175923939
 20
339.4259097259372
 30
0.0
 10
497.8845809519413
 20
339.6620884966223
 30
0.0
 10
497.8839162729595
 20
339.7890316711699
 30
0.0
 10
497.8824811147827
 20
340.0631241878655
 30
0.0
 10
497.8817046041025
 20
340.2114254483473
 30
0.0
 10
497.8800678896172
 20
340.5240120326358
 30
0.0
 10
497.8792091303729
 20
340.6880214681978
 30
0.0
 10
497.8774172330043
 20
341.0302455291974
 30
0.0
 10
497.8764842107741
 20
341.2084380207005
 30
0.0
 10
497.873585899583
 20
341.7619696253925
 30
0.0
 10
497.8715077797906
 20
342.1588576431143
 30
0.0
 10
497.8672805972286
 20
342.9661826653904
 30
0.0
 10
497.865117001995
 20
343.3793951407206
 30
0.0
 10
497.860714714459
 20
344.2201624439859
 30
0.0
 10
497.858475728094
 20
344.647773433219
 30
0.0
 10
497.8516682012262
 20
345.9479034133083
 30
0.0
 10
497.8470996628665
 20
346.8204219948699
 30
0.0
 10
497.8379534765643
 20
348.5671989442483
 30
0.0
 10
497.8333701580665
 20
349.4425402984819
 30
0.0
 10
497.8287865654061
 20
350.3179340133991
 30
0.0
  0
SPLINE
  5
121
330
1F
100
AcDbEntity
  8
0
  6
Continuous
 62
     7
370
    25
100
AcDbSpline
210
0.0
220
0.0
230
1.0
 70
     8
 71
     3
 72
    22
 73
    18
 74
     0
 42
0.00000001
 43
0.00000001
 40
0.0
 40
0.0
 40
0.0
 40
0.0
 40
0.125
 40
0.125
 40
0.25
 40
0.25
 40
0.375
 40
0.375
 40
0.5
 40
0.5
 40
0.625
 40
0.625
 40
0.75
 40
0.75
 40
0.875
 40
0.875
 40
1.0
 40
1.0
 40
1.0
 40
1.0
 10
501.3938463371822
 20
334.4017094347073
 30
0.0
 10
501.1496316393896
 20
334.4017094347073
 30
0.0
 10
500.9040786426213
 20
334.4024080901455
 30
0.0
 10
500.4084795465149
 20
334.4354791827074
 30
0.0
 10
500.1590050265531
 20
334.4677047950972
 30
0.0
 10
499.6767202848312
 20
334.5796877375978
 30
0.0
 10
499.4444816424476
 20
334.6592982429744
 30
0.0
 10
499.0225094220013
 20
334.8721887641919
 30
0.0
 10
498.8333474233151
 20
335.0053219552987
 30
0.0
 10
498.5109052404398
 20
335.326080239442
 30
0.0
 10
498.3767834289064
 20
335.5145425645689
 30
0.0
 10
498.1616863946555
 20
335.9353943136552
 30
0.0
 10
498.0808609874281
 20
336.1672129348423
 30
0.0
 10
497.966354354498
 20
336.6489047268876
 30
0.0
 10
497.9328229442854
 20
336.8982070949735
 30
0.0
 10
497.8971573661118
 20
337.3936262384856
 30
0.0
 10
497.8951730136408
 20
337.6391722111395
 30
0.0
 10
497.8938943143161
 20
337.8833835612975
 30
0.0
  0
LINE
  5
122
330
1F
100
AcDbEntity
  8
0
  6
Continuous
 62
     7
370
    25
100
AcDbLine
 10
479.912124484
 20
388.0517094347
 30
0.0
 11
487.912124484
 21
388.0517094347
 31
0.0
  0
SPLINE
  5
123
330
1F
100
AcDbEntity
  8
0
  6
Continuous
 62
     8
370
    18
100
AcDbSpline
210
0.0
220
0.0
230
1.0
 70
     8
 71
     3
 72
    18
 73
    14
 74
     0
 42
0.00000001
 43
0.00000001
 40
0.0
 40
0.0
 40
0.0
 40
0.0
 40
0.1249999999999998
 40
0.1249999999999998
 40
0.2499999999999997
 40
0.2499999999999997
 40
0.3749999999999995
 40
0.3749999999999995
 40
0.4999999999999993
 40
0.4999999999999993
 40
0.7499999999999997
 40
0.7499999999999997
 40
1.0
 40
1.0
 40
1.0
 40
1.0
 10
434.2369162462571
 20
373.6457637518259
 30
0.0
 10
434.2369156006458
 20
374.2011950061153
 30
0.0
 10
434.2369466637653
 20
374.8043165228541
 30
0.0
 10
434.2370372259433
 20
376.0798225939869
 30
0.0
 10
434.2370956278816
 20
376.7437329716934
 30
0.0
 10
434.2372197421694
 20
378.1147702713174
 30
0.0
 10
434.2372811751512
 20
378.8218319026571
 30
0.0
 10
434.2374071781299
 20
380.2725188085949
 30
0.0
 10
434.2374716608747
 20
381.0183524267549
 30
0.0
 10
434.2376915206176
 20
383.2884399387903
 30
0.0
 10
434.237869697102
 20
384.8296514916959
 30
0.0
 10
434.2381464625988
 20
387.9434566249561
 30
0.0
 10
434.2382241206871
 20
389.5055816965345
 30
0.0
 10
434.2382690959589
 20
391.0698300531363
 30
0.0
  0
SPLINE
  5
124
330
1F
100
AcDbEntity
  8
0
  6
Continuous
 62
     8
370
    18
100
AcDbSpline
210
0.0
220
0.0
230
1.0
 70
     8
 71
     3
 72
    20
 73
    16
 74
     0
 42
0.00000001
 43
0.00000001
 40
0.0
 40
0.0
 40
0.0
 40
0.0
 40
0.2500000000000009
 40
0.2500000000000009
 40
0.3750000000000021
 40
0.3750000000000021
 40
0.5000000000000032
 40
0.5000000000000032
 40
0.7500000000000049
 40
0.7500000000000049
 40
0.8125000000000038
 40
0.8125000000000038
 40
0.8750000000000027
 40
0.8750000000000027
 40
1.0
 40
1.0
 40
1.0
 40
1.0
 10
434.2382652698295
 20
495.0204129062349
 30
0.0
 10
434.2382143407331
 20
496.5847896421557
 30
0.0
 10
434.238129725463
 20
498.1463044658193
 30
0.0
 10
434.2379353922659
 20
500.4780826094795
 30
0.0
 10
434.2378619189221
 20
501.2559544142666
 30
0.0
 10
434.2377147163771
 20
502.7949746842685
 30
0.0
 10
434.237643802161
 20
503.5549867273872
 30
0.0
 10
434.2374388478327
 20
505.8019587365928
 30
0.0
 10
434.2373180957763
 20
507.2567012224476
 30
0.0
 10
434.2371452162645
 20
508.9953535042399
 30
0.0
 10
434.237110729566
 20
509.3399361686599
 30
0.0
 10
434.2370472650692
 20
510.0097534264561
 30
0.0
 10
434.2370183692404
 20
510.3360547970474
 30
0.0
 10
434.2369422984115
 20
511.2878558834453
 30
0.0
 10
434.2369094446348
 20
511.8860822481705
 30
0.0
 10
434.2369107664593
 20
512.4444793082392
 30
0.0
  0
SPLINE
  5
125
330
1F
100
AcDbEntity
  8
0
  6
Continuous
 62
     8
370
    18
100
AcDbSpline
210
0.0
220
0.0
230
1.0
 70
     8
 71
     3
 72
    20
 73
    16
 74
     0
 42
0.00000001
 43
0.00000001
 40
0.0
 40
0.0
 40
0.0
 40
0.0
 40
0.2499999999999989
 40
0.2499999999999989
 40
0.4999999999999978
 40
0.4999999999999978
 40
0.6249999999999983
 40
0.6249999999999983
 40
0.7499999999999989
 40
0.7499999999999989
 40
0.8749999999999994
 40
0.8749999999999994
 40
0.9374999999999997
 40
0.9374999999999997
 40
1.0
 40
1.0
 40
1.0
 40
1.0
 10
435.2118966466165
 20
391.0799872760375
 30
0.0
 10
435.2118535655513
 20
389.5793230386312
 30
0.0
 10
435.2117800498571
 20
388.0806113244783
 30
0.0
 10
435.2115016001507
 20
385.0928653392409
 30
0.0
 10
435.2113214596163
 20
383.6125616363191
 30
0.0
 10
435.2110990799926
 20
381.4322629843022
 30
0.0
 10
435.2110322756122
 20
380.7141639695083
 30
0.0
 10
435.2109068677375
 20
379.3181443032342
 30
0.0
 10
435.2108467818001
 20
378.637599952165
 30
0.0
 10
435.2107209369825
 20
377.3179773309952
 30
0.0
 10
435.2106628187155
 20
376.6790310049313
 30
0.0
 10
435.2105946424487
 20
375.7589087139393
 30
0.0
 10
435.2105798803167
 20
375.4598452073298
 30
0.0
 10
435.210553490447
 20
374.883814059468
 30
0.0
 10
435.2105408830375
 20
374.6058514889726
 30
0.0
 10
435.2105416371566
 20
374.3385823406232
 30
0.0
  0
SPLINE
  5
126
330
1F
100
AcDbEntity
  8
0
  6
Continuous
 62
     8
370
    18
100
AcDbSpline
210
0.0
220
0.0
230
1.0
 70
     8
 71
     3
 72
     8
 73
     4
 74
     0
 42
0.00000001
 43
0.00000001
 40
0.0
 40
0.0
 40
0.0
 40
0.0
 40
1.0
 40
1.0
 40
1.0
 40
1.0
 10
434.2355776609271
 20
478.769646483656
 30
0.0
 10
434.2363515727573
 20
484.1866459232424
 30
0.0
 10
434.2384435797975
 20
489.6035675914596
 30
0.0
 10
434.2382652698296
 20
495.0204129062337
 30
0.0
  0
SPLINE
  5
127
330
1F
100
AcDbEntity
  8
0
  6
Continuous
 62
     8
370
    18
100
AcDbSpline
210
0.0
220
0.0
230
1.0
 70
     8
 71
     3
 72
    12
 73
     8
 74
     0
 42
0.00000001
 43
0.00000001
 40
0.0
 40
0.0
 40
0.0
 40
0.0
 40
0.2500000000000001
 40
0.2500000000000001
 40
0.5000000000000001
 40
0.5000000000000001
 40
1.0
 40
1.0
 40
1.0
 40
1.0
 10
434.238269095959
 20
391.0698300531363
 30
0.0
 10
434.2384815567621
 20
398.3779593096685
 30
0.0
 10
434.2357013537329
 20
405.686272388816
 30
0.0
 10
434.2339637875495
 20
420.3029475410042
 30
0.0
 10
434.2333786978729
 20
427.6112850553974
 30
0.0
 10
434.2326857452354
 20
449.5362974134302
 30
0.0
 10
434.2334894168042
 20
464.1529720719648
 30
0.0
 10
434.2355776609271
 20
478.7696464836559
 30
0.0
  0
SPLINE
  5
128
330
1F
100
AcDbEntity
  8
0
  6
Continuous
 62
     8
370
    18
100
AcDbSpline
210
0.0
220
0.0
230
1.0
 70
     8
 71
     3
 72
    12
 73
     8
 74
     0
 42
0.00000001
 43
0.00000001
 40
0.0
 40
0.0
 40
0.0
 40
0.0
 40
0.5
 40
0.5
 40
0.75
 40
0.75
 40
1.0
 40
1.0
 40
1.0
 40
1.0
 10
435.2091986801704
 20
478.7625046332636
 30
0.0
 10
435.2071105597199
 20
464.148835614367
 30
0.0
 10
435.2063063370757
 20
449.5347440239685
 30
0.0
 10
435.2069985717974
 20
427.6139964020057
 30
0.0
 10
435.2075851390784
 20
420.3071129572327
 30
0.0
 10
435.2093224517199
 20
405.6934102523506
 30
0.0
 10
435.212106404934
 20
398.3866120085268
 30
0.0
 10
435.2118966466166
 20
391.0799872760375
 30
0.0
  0
SPLINE
  5
129
330
1F
100
AcDbEntity
  8
0
  6
Continuous
 62
     8
370
    18
100
AcDbSpline
210
0.0
220
0.0
230
1.0
 70
     8
 71
     3
 72
     8
 73
     4
 74
     0
 42
0.00000001
 43
0.00000001
 40
0.0
 40
0.0
 40
0.0
 40
0.0
 40
1.0
 40
1.0
 40
1.0
 40
1.0
 10
435.2118928531653
 20
495.0102595078265
 30
0.0
 10
435.2120679101586
 20
489.5944186899812
 30
0.0
 10
435.2099725620428
 20
484.1785013689469
 30
0.0
 10
435.2091986801704
 20
478.7625046332636
 30
0.0
  0
LINE
  5
12A
330
1F
100
AcDbEntity
  8
0
  6
Continuous
 62
     8
370
    18
100
AcDbLine
 10
435.2118652886
 20
369.1897668295
 30
0.0
 11
435.2106120541
 21
369.1231082735
 31
0.0
  0
SPLINE
  5
12B
330
1F
100
AcDbEntity
  8
0
  6
Continuous
 62
     8
370
    18
100
AcDbSpline
210
0.0
220
0.0
230
1.0
 70
     8
 71
     3
 72
    20
 73
    16
 74
     0
 42
0.00000001
 43
0.00000001
 40
0.0
 40
0.0
 40
0.0
 40
0.0
 40
0.0624999999999991
 40
0.0624999999999991
 40
0.1249999999999983
 40
0.1249999999999983
 40
0.2499999999999984
 40
0.2499999999999984
 40
0.3749999999999985
 40
0.3749999999999985
 40
0.4999999999999997
 40
0.4999999999999997
 40
0.7499999999999998
 40
0.7499999999999998
 40
1.0
 40
1.0
 40
1.0
 40
1.0
 10
435.2105416371486
 20
374.338582340339
 30
0.0
 10
435.2105425978301
 20
374.0713247365168
 30
0.0
 10
435.210556907988
 20
373.8165130649903
 30
0.0
 10
435.2105888702004
 20
373.3302902493295
 30
0.0
 10
435.21060776588
 20
373.0982569157014
 30
0.0
 10
435.2106915640725
 20
372.4418570024141
 30
0.0
 10
435.2107634622956
 20
372.0586927090445
 30
0.0
 10
435.2109187244379
 20
371.3813335660397
 30
0.0
 10
435.2109949838836
 20
371.0868571672293
 30
0.0
 10
435.2111423436097
 20
370.5723653085954
 30
0.0
 10
435.2112140433712
 20
370.3517869902897
 30
0.0
 10
435.2114156816958
 20
369.7914802841427
 30
0.0
 10
435.2115265225889
 20
369.5531718731713
 30
0.0
 10
435.2117118373739
 20
369.2588776127769
 30
0.0
 10
435.2117852726884
 20
369.2053979201617
 30
0.0
 10
435.2118652885619
 20
369.1897668294549
 30
0.0
  0
LINE
  5
12C
330
1F
100
AcDbEntity
  8
0
  6
Continuous
 62
     8
370
    18
100
AcDbLine
 10
434.2382742888
 20
517.8802895878
 30
0.0
 11
428.212124484
 21
518.0380813474
 31
0.0
  0
SPLINE
  5
12D
330
1F
100
AcDbEntity
  8
0
  6
Continuous
 62
     8
370
    18
100
AcDbSpline
210
0.0
220
0.0
230
1.0
 70
     8
 71
     3
 72
    24
 73
    20
 74
     0
 42
0.00000001
 43
0.00000001
 40
0.0
 40
0.0
 40
0.0
 40
0.0
 40
0.0312500000000008
 40
0.0312500000000008
 40
0.0625000000000017
 40
0.0625000000000017
 40
0.1250000000000016
 40
0.1250000000000016
 40
0.1875000000000016
 40
0.1875000000000016
 40
0.2500000000000015
 40
0.2500000000000015
 40
0.5000000000000013
 40
0.5000000000000013
 40
0.6250000000000013
 40
0.6250000000000013
 40
0.7500000000000012
 40
0.7500000000000012
 40
1.0
 40
1.0
 40
1.0
 40
1.0
 10
434.2369107663987
 20
512.4444764937747
 30
0.0
 10
434.2369112038666
 20
512.5827013026957
 30
0.0
 10
434.2369149434408
 20
512.7202967600234
 30
0.0
 10
434.2369256139239
 20
512.9863127139193
 30
0.0
 10
434.2369325410809
 20
513.1160997155554
 30
0.0
 10
434.2369558482332
 20
513.4960801452709
 30
0.0
 10
434.2369738077642
 20
513.73693008198
 30
0.0
 10
434.2370252195889
 20
514.1941701688621
 30
0.0
 10
434.2370540683276
 20
514.4107904336998
 30
0.0
 10
434.2371168373203
 20
514.821165956583
 30
0.0
 10
434.2371506618681
 20
515.015406507234
 30
0.0
 10
434.237319866228
 20
515.9202154173651
 30
0.0
 10
434.2374400849018
 20
516.4471131057832
 30
0.0
 10
434.2376608625814
 20
517.0372742675445
 30
0.0
 10
434.2377385739621
 20
517.1999777750907
 30
0.0
 10
434.2378954556914
 20
517.4667508276112
 30
0.0
 10
434.2379714708995
 20
517.5704662009572
 30
0.0
 10
434.2381627730626
 20
517.8067530695388
 30
0.0
 10
434.2382307069548
 20
517.8640276934419
 30
0.0
 10
434.2382742888003
 20
517.8802895877916
 30
0.0
  0
SPLINE
  5
12E
330
1F
100
AcDbEntity
  8
0
  6
Continuous
 62
     8
370
    18
100
AcDbSpline
210
0.0
220
0.0
230
1.0
 70
     8
 71
     3
 72
    18
 73
    14
 74
     0
 42
0.00000001
 43
0.00000001
 40
0.0
 40
0.0
 40
0.0
 40
0.0
 40
0.25
 40
0.25
 40
0.5
 40
0.5
 40
0.625
 40
0.625
 40
0.75
 40
0.75
 40
0.875
 40
0.875
 40
1.0
 40
1.0
 40
1.0
 40
1.0
 10
434.2382380900538
 20
368.2099524229604
 30
0.0
 10
434.238154951927
 20
368.2262120872923
 30
0.0
 10
434.2380783074356
 20
368.283412501731
 30
0.0
 10
434.2378939657645
 20
368.5992092438432
 30
0.0
 10
434.2377811012095
 20
368.8544131984652
 30
0.0
 10
434.2375764664724
 20
369.4517334074575
 30
0.0
 10
434.2375056779218
 20
369.6861443448271
 30
0.0
 10
434.2373572075722
 20
370.2316264357441
 30
0.0
 10
434.2372803340922
 20
370.5432782082507
 30
0.0
 10
434.237129239222
 20
371.2582854963169
 30
0.0
 10
434.2370587077344
 20
371.6617799614804
 30
0.0
 10
434.2369510487694
 20
372.5801149671085
 30
0.0
 10
434.2369173375166
 20
373.0887592995319
 30
0.0
 10
434.2369162462215
 20
373.6457665662936
 30
0.0
  0
LINE
  5
12F
330
1F
100
AcDbEntity
  8
0
  6
Continuous
 62
     8
370
    18
100
AcDbLine
 10
434.2382380901
 20
368.209952423
 30
0.0
 11
428.212124484
 21
368.0521616112
 31
0.0
  0
ARC
  5
130
330
1F
100
AcDbEntity
  8
0
  6
Continuous
 62
     8
370
    18
100
AcDbCircle
 10
434.2120884224
 20
369.2095836976
 30
0.0
 40
0.9999732448080584
100
AcDbArc
 50
271.4984764983
 51
358.8644723794
  0
ARC
  5
131
330
1F
100
AcDbEntity
  8
0
  6
Continuous
 62
     8
370
    18
100
AcDbCircle
 10
434.2121249421
 20
516.8806586269
 30
0.0
 40
0.9999729227422649
100
AcDbArc
 50
1.1327172979
 51
88.5015414153
  0
SPLINE
  5
132
330
1F
100
AcDbEntity
  8
0
  6
Continuous
 62
     8
370
    18
100
AcDbSpline
210
0.0
220
0.0
230
1.0
 70
     8
 71
     3
 72
     9
 73
     5
 74
     0
 42
0.00000001
 43
0.00000001
 40
0.0
 40
0.0
 40
0.0
 40
0.0
 40
0.3317239804185421
 40
1.0
 40
1.0
 40
1.0
 40
1.0
 10
434.2382742888004
 20
517.8802895877916
 30
0.0
 10
434.2371761439863
 20
517.9384407841837
 30
0.0
 10
434.2338657266549
 20
518.1137407318049
 30
0.0
 10
434.2348168937577
 20
518.0630069168536
 30
0.0
 10
434.2354525359233
 20
518.0291027249398
 30
0.0
  0
SPLINE
  5
133
330
1F
100
AcDbEntity
  8
0
  6
Continuous
 62
     8
370
    18
100
AcDbSpline
210
0.0
220
0.0
230
1.0
 70
     8
 71
     3
 72
     9
 73
     5
 74
     0
 42
0.00000001
 43
0.00000001
 40
0.0
 40
0.0
 40
0.0
 40
0.0
 40
0.6704912183549034
 40
1.0
 40
1.0
 40
1.0
 40
1.0
 10
434.2354250490772
 20
368.0597678835505
 30
0.0
 10
434.2347965846359
 20
368.0265630675613
 30
0.0
 10
434.2338592652139
 20
367.9770399491666
 30
0.0
 10
434.2371528311537
 20
368.152226812924
 30
0.0
 10
434.2382380900538
 20
368.2099524229609
 30
0.0
  0
ARC
  5
134
330
1F
100
AcDbEntity
  8
0
  6
Continuous
 62
     8
370
    18
100
AcDbCircle
 10
438.575749362
 20
314.7197418642
 30
0.0
 40
110.5187026270468
100
AcDbArc
 50
69.9352409931
 51
70.194347778
  0
SPLINE
  5
135
330
1F
100
AcDbEntity
  8
0
  6
Continuous
 62
     8
370
    18
100
AcDbSpline
210
0.0
220
0.0
230
1.0
 70
     8
 71
     3
 72
    10
 73
     6
 74
     0
 42
0.00000001
 43
0.00000001
 40
0.0
 40
0.0
 40
0.0
 40
0.0
 40
0.5
 40
0.5
 40
1.0
 40
1.0
 40
1.0
 40
1.0
 10
476.492729066894
 20
418.5305615335375
 30
0.0
 10
475.7991896890376
 20
416.6248741184689
 30
0.0
 10
475.2830199688009
 20
414.6879150545568
 30
0.0
 10
474.5894873151193
 20
410.7542626768006
 30
0.0
 10
474.4121244840078
 20
408.7575693448456
 30
0.0
 10
474.4121244840078
 20
406.7296055810767
 30
0.0
  0
ARC
  5
136
330
1F
100
AcDbEntity
  8
0
  6
Continuous
 62
     8
370
    18
100
AcDbCircle
 10
474.2871247015
 20
501.4947221545
 30
0.0
 40
94.76519901378093
100
AcDbArc
 50
269.7732713477
 51
270.0755758668
  0
SPLINE
  5
137
330
1F
100
AcDbEntity
  8
0
  6
Continuous
 62
     8
370
    18
100
AcDbSpline
210
0.0
220
0.0
230
1.0
 70
    24
 71
     3
 72
    26
 73
    22
 74
     0
 42
0.00000001
 43
0.00000001
 40
0.0
 40
0.0
 40
0.0
 40
0.0
 40
0.0625
 40
0.0625
 40
0.1249999999999999
 40
0.1249999999999999
 40
0.2500000000000001
 40
0.2500000000000001
 40
0.3750000000000003
 40
0.3750000000000003
 40
0.5000000000000006
 40
0.5000000000000006
 40
0.6250000000000008
 40
0.6250000000000008
 40
0.750000000000001
 40
0.750000000000001
 40
0.8750000000000013
 40
0.8750000000000013
 40
0.9375000000000007
 40
0.9375000000000007
 40
1.0
 40
1.0
 40
1.0
 40
1.0
 10
502.9121244840103
 20
334.4017094347073
 30
0.0
 10
502.9121244840102
 20
334.401709434707
 30
0.0
 10
502.9121244840101
 20
334.4019195380273
 30
0.0
 10
502.91212448401
 20
334.4224247194018
 30
0.0
 10
502.9121244840099
 20
334.442698822494
 30
0.0
 10
502.9121244840097
 20
334.5560854255626
 30
0.0
 10
502.9121244840094
 20
334.7034025107731
 30
0.0
 10
502.9121244840092
 20
335.2153245336315
 30
0.0
 10
502.912124484009
 20
335.5792582724962
 30
0.0
 10
502.9121244840087
 20
336.5524720837748
 30
0.0
 10
502.9121244840085
 20
337.1610809574055
 30
0.0
 10
502.9121244840084
 20
338.6274045420597
 30
0.0
 10
502.9121244840082
 20
339.4889465997827
 30
0.0
 10
502.912124484008
 20
341.4128403098911
 30
0.0
 10
502.912124484008
 20
342.4725825781746
 30
0.0
 10
502.9121244840079
 20
344.6746021989527
 30
0.0
 10
502.9121244840079
 20
345.8142701673454
 30
0.0
 10
502.9121244840079
 20
347.5128500879581
 30
0.0
 10
502.9121244840078
 20
348.0776331290269
 30
0.0
 10
502.9121244840079
 20
349.2011171774784
 30
0.0
 10
502.9121244840078
 20
349.7597366416078
 30
0.0
 10
502.9121244840078
 20
350.3179340133976
 30
0.0
  0
SPLINE
  5
138
330
1F
100
AcDbEntity
  8
0
  6
Continuous
 62
     8
370
    18
100
AcDbSpline
210
0.0
220
0.0
230
1.0
 70
    24
 71
     3
 72
    26
 73
    22
 74
     0
 42
0.00000001
 43
0.00000001
 40
0.0
 40
0.0
 40
0.0
 40
0.0
 40
0.0625000000000002
 40
0.0625000000000002
 40
0.1250000000000004
 40
0.1250000000000004
 40
0.2500000000000004
 40
0.2500000000000004
 40
0.3750000000000004
 40
0.3750000000000004
 40
0.5000000000000004
 40
0.5000000000000004
 40
0.6250000000000003
 40
0.6250000000000003
 40
0.7500000000000001
 40
0.7500000000000001
 40
0.875
 40
0.875
 40
0.9375
 40
0.9375
 40
1.0
 40
1.0
 40
1.0
 40
1.0
 10
502.9121244840078
 20
421.4308741025947
 30
0.0
 10
502.9121244840078
 20
421.9915346682404
 30
0.0
 10
502.9121244840078
 20
422.5525020467351
 30
0.0
 10
502.9121244840078
 20
423.680426143637
 30
0.0
 10
502.9121244840078
 20
424.2473017128107
 30
0.0
 10
502.9121244840078
 20
425.9517934741094
 30
0.0
 10
502.9121244840079
 20
427.0949098218767
 30
0.0
 10
502.912124484008
 20
429.3031820233729
 30
0.0
 10
502.912124484008
 20
430.3657411016292
 30
0.0
 10
502.9121244840081
 20
432.2950057513012
 30
0.0
 10
502.9121244840082
 20
433.1591145472445
 30
0.0
 10
502.9121244840085
 20
434.6303269296472
 30
0.0
 10
502.9121244840087
 20
435.2412338263467
 30
0.0
 10
502.9121244840089
 20
436.2184114868936
 30
0.0
 10
502.912124484009
 20
436.5840035166465
 30
0.0
 10
502.9121244840094
 20
437.0983774678671
 30
0.0
 10
502.9121244840096
 20
437.2464806552402
 30
0.0
 10
502.9121244840099
 20
437.3604846680905
 30
0.0
 10
502.9121244840099
 20
437.3808743766456
 30
0.0
 10
502.9121244840101
 20
437.4014973651741
 30
0.0
 10
502.9121244840102
 20
437.4017094347071
 30
0.0
 10
502.9121244840103
 20
437.4017094347073
 30
0.0
  0
SPLINE
  5
139
330
1F
100
AcDbEntity
  8
0
  6
Continuous
 62
     8
370
    18
100
AcDbSpline
210
0.0
220
0.0
230
1.0
 70
     8
 71
     3
 72
    38
 73
    34
 74
     0
 42
0.00000001
 43
0.00000001
 40
0.0
 40
0.0
 40
0.0
 40
0.0
 40
0.1249999999999994
 40
0.1249999999999994
 40
0.2499999999999988
 40
0.2499999999999988
 40
0.3124999999999984
 40
0.3124999999999984
 40
0.3749999999999981
 40
0.3749999999999981
 40
0.4062499999999981
 40
0.4062499999999981
 40
0.4374999999999981
 40
0.4374999999999981
 40
0.4999999999999982
 40
0.4999999999999982
 40
0.5624999999999983
 40
0.5624999999999983
 40
0.6249999999999984
 40
0.6249999999999984
 40
0.6874999999999987
 40
0.6874999999999987
 40
0.7499999999999988
 40
0.7499999999999988
 40
0.8749999999999994
 40
0.8749999999999994
 40
0.9374999999999999
 40
0.9374999999999999
 40
0.96875
 40
0.96875
 40
0.984375
 40
0.984375
 40
1.0
 40
1.0
 40
1.0
 40
1.0
 10
483.1794989926371
 20
437.4017094347073
 30
0.0
 10
483.1794989926369
 20
437.4017094347068
 30
0.0
 10
483.1778496587471
 20
437.3974069985824
 30
0.0
 10
483.1225814576169
 20
437.2427849094514
 30
0.0
 10
483.0703710653232
 20
437.0963827740173
 30
0.0
 10
482.9317087749484
 20
436.7038565645983
 30
0.0
 10
482.8758151986558
 20
436.5452453919459
 30
0.0
 10
482.7424180600959
 20
436.1650458352945
 30
0.0
 10
482.6648345084682
 20
435.943226186607
 30
0.0
 10
482.5288676119436
 20
435.5525509194235
 30
0.0
 10
482.4800378527374
 20
435.4119639626143
 30
0.0
 10
482.3769581502146
 20
435.1145372800241
 30
0.0
 10
482.3225970527127
 20
434.9573779742661
 30
0.0
 10
482.1507877451513
 20
434.4598285172505
 30
0.0
 10
482.0246099709717
 20
434.0932292118605
 30
0.0
 10
481.7473500763666
 20
433.2880891230127
 30
0.0
 10
481.5949219749603
 20
432.8458765554109
 30
0.0
 10
481.2767883239363
 20
431.9267759896399
 30
0.0
 10
481.1101712902621
 20
431.4472065697227
 30
0.0
 10
480.7640015034422
 20
430.4551239685312
 30
0.0
 10
480.5840527234367
 20
429.9414664776662
 30
0.0
 10
480.2213108100621
 20
428.909644981988
 30
0.0
 10
480.0374678238329
 20
428.3884403132163
 30
0.0
 10
479.4798743872081
 20
426.8120876728099
 30
0.0
 10
479.0999416720064
 20
425.7435393064725
 30
0.0
 10
478.5216178389355
 20
424.1267738713436
 30
0.0
 10
478.32811208324
 20
423.5874867887545
 30
0.0
 10
478.0365954291998
 20
422.778471710249
 30
0.0
 10
477.939234925094
 20
422.5088511055956
 30
0.0
 10
477.7928683740256
 20
422.1045242151133
 30
0.0
 10
477.7440251836478
 20
421.9697659548356
 30
0.0
 10
477.646222931278
 20
421.7002889550355
 30
0.0
 10
477.5968387193197
 20
421.5644020574701
 30
0.0
 10
477.5482437115454
 20
421.4308741025947
 30
0.0
  0
SPLINE
  5
13A
330
1F
100
AcDbEntity
  8
0
  6
Continuous
 62
     8
370
    18
100
AcDbSpline
210
0.0
220
0.0
230
1.0
 70
    24
 71
     3
 72
    26
 73
    22
 74
     0
 42
0.00000001
 43
0.00000001
 40
0.0
 40
0.0
 40
0.0
 40
0.0
 40
0.0625000000000001
 40
0.0625000000000001
 40
0.1250000000000001
 40
0.1250000000000001
 40
0.2500000000000003
 40
0.2500000000000003
 40
0.3750000000000004
 40
0.3750000000000004
 40
0.5000000000000004
 40
0.5000000000000004
 40
0.6250000000000006
 40
0.6250000000000006
 40
0.7500000000000007
 40
0.7500000000000007
 40
0.8750000000000003
 40
0.8750000000000003
 40
0.9375000000000001
 40
0.9375000000000001
 40
1.0
 40
1.0
 40
1.0
 40
1.0
 10
474.4121244840078
 20
404.3725447668058
 30
0.0
 10
474.4121244840078
 20
403.81188420116
 30
0.0
 10
474.4121244840078
 20
403.2509168226654
 30
0.0
 10
474.4121244840078
 20
402.1229927257635
 30
0.0
 10
474.4121244840078
 20
401.5561171565897
 30
0.0
 10
474.4121244840078
 20
399.8516253952912
 30
0.0
 10
474.4121244840079
 20
398.708509047524
 30
0.0
 10
474.412124484008
 20
396.5002368460283
 30
0.0
 10
474.412124484008
 20
395.4376777677723
 30
0.0
 10
474.4121244840081
 20
393.5084131181011
 30
0.0
 10
474.4121244840082
 20
392.6443043221583
 30
0.0
 10
474.4121244840085
 20
391.1730919397569
 30
0.0
 10
474.4121244840086
 20
390.5621850430582
 30
0.0
 10
474.4121244840089
 20
389.585007382513
 30
0.0
 10
474.4121244840091
 20
389.2194153527611
 30
0.0
 10
474.4121244840094
 20
388.7050414015425
 30
0.0
 10
474.4121244840096
 20
388.5569382141704
 30
0.0
 10
474.4121244840099
 20
388.4429342013215
 30
0.0
 10
474.41212448401
 20
388.4225444927669
 30
0.0
 10
474.4121244840102
 20
388.4019215042395
 30
0.0
 10
474.4121244840103
 20
388.401709434707
 30
0.0
 10
474.4121244840103
 20
388.4017094347072
 30
0.0
  0
ARC
  5
13B
330
1F
100
AcDbEntity
  8
0
  6
Continuous
 62
     8
370
    18
100
AcDbCircle
 10
474.287124899
 20
472.9493561796
 30
0.0
 40
68.57692533530522
100
AcDbArc
 50
269.6866869129
 51
270.1044367707
  0
ARC
  5
13C
330
1F
100
AcDbEntity
  8
0
  6
Continuous
 62
     8
370
    18
100
AcDbCircle
 10
452.4919083679
 20
352.9542554482
 30
0.0
 40
72.91685157219514
100
AcDbArc
 50
69.9018806221
 51
70.2945213795
  0
LINE
  5
13D
330
1F
100
AcDbEntity
  8
0
  6
Continuous
 62
     8
370
    18
100
AcDbLine
 10
502.912124484
 20
388.4017094347
 30
0.0
 11
502.912124484
 21
421.4308741026
 31
0.0
  0
LINE
  5
13E
330
1F
100
AcDbEntity
  8
0
  6
Continuous
 62
     8
370
    18
100
AcDbLine
 10
474.412124484
 20
406.7296055811
 30
0.0
 11
474.412124484
 21
404.3725447668
 31
0.0
  0
LINE
  5
13F
330
1F
100
AcDbEntity
  8
0
  6
Continuous
 62
     8
370
    18
100
AcDbLine
 10
477.5482437115
 20
421.4308741026
 30
0.0
 11
476.4927290669
 21
418.5305615335
 31
0.0
  0
LINE
  5
140
330
1F
100
AcDbEntity
  8
0
  6
Continuous
 62
     8
370
    18
100
AcDbLine
 10
464.212124484
 20
437.4451214793
 30
0.0
 11
464.212124484
 21
388.4451214793
 31
0.0
  0
LINE
  5
141
330
1F
100
AcDbEntity
  8
0
  6
Continuous
 62
     8
370
    18
100
AcDbLine
 10
502.912124484
 20
350.3179340134
 30
0.0
 11
502.912124484
 21
388.4017094347
 31
0.0
  0
LINE
  5
142
330
1F
100
AcDbEntity
  8
0
  6
Continuous
 62
     8
370
    18
100
AcDbLine
 10
443.5505935654
 20
469.6866728556
 30
0.0
 11
443.5505935654
 21
492.203570103
 31
0.0
  0
LINE
  5
143
330
1F
100
AcDbEntity
  8
0
  6
Continuous
 62
     8
370
    18
100
AcDbLine
 10
444.0416169841
 20
491.7194676154
 30
0.0
 11
444.0416169841
 21
470.1707753432
 31
0.0
  0
LINE
  5
144
330
1F
100
AcDbEntity
  8
0
  6
Continuous
 62
     8
370
    18
100
AcDbLine
 10
481.843899727
 20
387.4511620648
 30
0.0
 11
487.6935431171
 21
387.4511620648
 31
0.0
  0
LINE
  5
145
330
1F
100
AcDbEntity
  8
0
  6
Continuous
 62
     8
370
    18
100
AcDbLine
 10
480.1307058509
 20
387.4511620648
 30
0.0
 11
481.843899727
 21
387.4511620648
 31
0.0
  0
SPLINE
  5
146
330
1F
100
AcDbEntity
  8
0
  6
Continuous
 62
     7
370
    25
100
AcDbSpline
210
0.0
220
0.0
230
1.0
 70
     8
 71
     3
 72
    16
 73
    12
 74
     0
 42
0.00000001
 43
0.00000001
 40
0.0
 40
0.0
 40
0.0
 40
0.0
 40
0.0745380055410251
 40
0.1611512853681146
 40
0.2460253659932787
 40
0.3327782930797726
 40
0.4740016484429975
 40
0.6212150141448829
 40
0.8021931416940549
 40
0.9802719897183471
 40
1.0
 40
1.0
 40
1.0
 40
1.0
 10
119.2817503130027
 20
219.9364360995449
 30
0.0
 10
120.755861372759
 20
219.907327075494
 30
0.0
 10
123.9428918055001
 20
219.8443933196528
 30
0.0
 10
129.0834141422542
 20
219.7626071536116
 30
0.0
 10
134.5100813197272
 20
219.69025944993
 30
0.0
 10
141.074738706571
 20
219.6200703304785
 30
0.0
 10
148.9513704061717
 20
219.5591805250203
 30
0.0
 10
158.8052033331903
 20
219.5109321115279
 30
0.0
 10
169.4332683627972
 20
219.4835244498079
 30
0.0
 10
177.3849574829346
 20
219.4721321290151
 30
0.0
 10
181.5374585036723
 20
219.4704957548437
 30
0.0
 10
181.9516028034872
 20
219.4703325531895
 30
0.0
  0
SPLINE
  5
147
330
1F
100
AcDbEntity
  8
0
  6
Continuous
 62
     7
370
    25
100
AcDbSpline
210
0.0
220
0.0
230
1.0
 70
     8
 71
     3
 72
    14
 73
    10
 74
     0
 42
0.00000001
 43
0.00000001
 40
0.0
 40
0.0
 40
0.0
 40
0.0
 40
0.0083631143486159
 40
0.2264071136583439
 40
0.4511756782126213
 40
0.5867801696734387
 40
0.7252929295061347
 40
0.8676664993737426
 40
1.0
 40
1.0
 40
1.0
 40
1.0
 10
204.7411181720887
 20
219.4701514535526
 30
0.0
 10
204.9164528284036
 20
219.4702022522116
 30
0.0
 10
209.663131135762
 20
219.4715774788642
 30
0.0
 10
219.122142750895
 20
219.4859751721555
 30
0.0
 10
231.2486916885876
 20
219.5229285648126
 30
0.0
 10
241.7078974265827
 20
219.5864498620039
 30
0.0
 10
250.4389250969211
 20
219.6671441091726
 30
0.0
 10
259.0668591677636
 20
219.7778400513094
 30
0.0
 10
264.7356257130218
 20
219.8861610808794
 30
0.0
 10
267.4664171696028
 20
219.9383421223381
 30
0.0
  0
LINE
  5
148
330
1F
100
AcDbEntity
  8
0
  6
Continuous
 62
     7
370
    25
100
AcDbLine
 10
268.4528723609
 20
220.904209807
 30
0.0
 11
268.6106875329
 21
226.9309280787
 31
0.0
  0
LINE
  5
149
330
1F
100
AcDbEntity
  8
0
  6
Continuous
 62
     7
370
    25
100
AcDbLine
 10
118.0844329103
 20
226.9309280787
 30
0.0
 11
118.2420956577
 21
220.9100306632
 31
0.0
  0
ARC
  5
14A
330
1F
100
AcDbEntity
  8
0
  6
Continuous
 62
     7
370
    25
100
AcDbCircle
 10
267.4533675359
 20
220.9362104941
 30
0.0
 40
0.9999999999999678
100
AcDbArc
 50
271.1039505565
 51
356.8248972324
  0
LINE
  5
14B
330
1F
100
AcDbEntity
  8
0
  6
Continuous
 62
     7
370
    25
100
AcDbLine
 10
181.9505512909
 20
219.5305736693
 30
0.0
 11
182.0891115979
 21
211.5924589973
 31
0.0
  0
LINE
  5
14C
330
1F
100
AcDbEntity
  8
0
  6
Continuous
 62
     7
370
    25
100
AcDbLine
 10
204.6060088453
 20
211.5924589973
 30
0.0
 11
204.7445755912
 21
219.5309425577
 31
0.0
  0
ARC
  5
14D
330
1F
100
AcDbEntity
  8
0
  6
Continuous
 62
     7
370
    25
100
AcDbCircle
 10
182.5890354455
 20
211.6011852005
 30
0.0
 40
0.4999999999999983
100
AcDbArc
 50
181.0
 51
268.1867030124
  0
ARC
  5
14E
330
1F
100
AcDbEntity
  8
0
  6
Continuous
 62
     7
370
    25
100
AcDbCircle
 10
204.1060849977
 20
211.6011852005
 30
0.0
 40
0.4999999999999983
100
AcDbArc
 50
271.8132969877
 51
359.0
  0
ARC
  5
14F
330
1F
100
AcDbEntity
  8
0
  6
Continuous
 62
     7
370
    25
100
AcDbCircle
 10
193.3475602216
 20
551.4309280787
 30
0.0
 40
340.5000000000001
100
AcDbArc
 50
268.1867030123
 51
270.0
  0
ARC
  5
150
330
1F
100
AcDbEntity
  8
0
  6
Continuous
 62
     7
370
    25
100
AcDbCircle
 10
193.3475602216
 20
551.4309280787
 30
0.0
 40
340.5000000000001
100
AcDbArc
 50
270.0
 51
271.8132969877
  0
ARC
  5
151
330
1F
100
AcDbEntity
  8
0
  6
Continuous
 62
     7
370
    25
100
AcDbCircle
 10
119.2417529039
 20
220.9362106222
 30
0.0
 40
1.000000000000003
100
AcDbArc
 50
181.4711148148
 51
268.8569595249
  0
LINE
  5
152
330
1F
100
AcDbEntity
  8
0
  6
Continuous
 62
     7
370
    25
100
AcDbLine
 10
217.8475602216
 20
190.9309280787
 30
0.0
 11
217.8475602216
 21
219.5166392858
 31
0.0
  0
LINE
  5
153
330
1F
100
AcDbEntity
  8
0
  6
Continuous
 62
     7
370
    25
100
AcDbLine
 10
168.8475602216
 20
219.5168055057
 30
0.0
 11
168.8475602216
 21
190.9309280787
 31
0.0
  0
ARC
  5
154
330
1F
100
AcDbEntity
  8
0
  6
Continuous
 62
     7
370
    25
100
AcDbCircle
 10
193.3475602216
 20
190.9309280787
 30
0.0
 40
24.5
100
AcDbArc
 50
180.0
 51
204.842866309
  0
ARC
  5
155
330
1F
100
AcDbEntity
  8
0
  6
Continuous
 62
     7
370
    25
100
AcDbCircle
 10
193.3475602216
 20
190.9309280787
 30
0.0
 40
24.50000000000001
100
AcDbArc
 50
335.1645003138
 51
0.0
  0
LINE
  5
156
330
1F
100
AcDbEntity
  8
0
  6
Continuous
 62
     7
370
    25
100
AcDbLine
 10
217.8475602216
 20
152.2309280787
 30
0.0
 11
217.8475602216
 21
180.163053921
 31
0.0
  0
ARC
  5
157
330
1F
100
AcDbEntity
  8
0
  6
Continuous
 62
     7
370
    25
100
AcDbCircle
 10
216.8475602216
 20
152.2309280787
 30
0.0
 40
1.0
100
AcDbArc
 50
270.0
 51
360.0
  0
LINE
  5
158
330
1F
100
AcDbEntity
  8
0
  6
Continuous
 62
     7
370
    25
100
AcDbLine
 10
168.8475602216
 20
180.1705577378
 30
0.0
 11
168.8475602216
 21
152.2309280787
 31
0.0
  0
ARC
  5
159
330
1F
100
AcDbEntity
  8
0
  6
Continuous
 62
     7
370
    25
100
AcDbCircle
 10
169.8475602216
 20
152.2309280787
 30
0.0
 40
1.0
100
AcDbArc
 50
180.0
 51
270.0
  0
SPLINE
  5
15A
330
1F
100
AcDbEntity
  8
0
  6
Continuous
 62
     7
370
    25
100
AcDbSpline
210
0.0
220
0.0
230
1.0
 70
    24
 71
     3
 72
    18
 73
    14
 74
     0
 42
0.00000001
 43
0.00000001
 40
0.0
 40
0.0
 40
0.0
 40
0.0
 40
0.25
 40
0.25
 40
0.5
 40
0.5
 40
0.625
 40
0.625
 40
0.75
 40
0.75
 40
0.875
 40
0.875
 40
1.0
 40
1.0
 40
1.0
 40
1.0
 10
245.3244920410016
 20
226.9309280786602
 30
0.0
 10
246.8962045157748
 20
226.9309280786629
 30
0.0
 10
248.4701909797818
 20
226.9309280786588
 30
0.0
 10
251.6030754604754
 20
226.9309280786616
 30
0.0
 10
253.148859815154
 20
226.9309280786595
 30
0.0
 10
255.4134972328759
 20
226.9309280786605
 30
0.0
 10
256.1597163543065
 20
226.9309280786595
 30
0.0
 10
257.6311376040866
 20
226.9309280786609
 30
0.0
 10
258.3590469662868
 20
226.9309280786609
 30
0.0
 10
259.7513406242712
 20
226.9309280786595
 30
0.0
 10
260.4197610652151
 20
226.9309280786602
 30
0.0
 10
261.6929468351561
 20
226.9309280786602
 30
0.0
 10
262.3003558044645
 20
226.9309280786595
 30
0.0
 10
262.85847304837
 20
226.9309280786602
 30
0.0
  0
SPLINE
  5
15B
330
1F
100
AcDbEntity
  8
0
  6
Continuous
 62
     7
370
    25
100
AcDbSpline
210
0.0
220
0.0
230
1.0
 70
    24
 71
     3
 72
    18
 73
    14
 74
     0
 42
0.00000001
 43
0.00000001
 40
0.0
 40
0.0
 40
0.0
 40
0.0
 40
0.25
 40
0.25
 40
0.5
 40
0.5
 40
0.625
 40
0.625
 40
0.75
 40
0.75
 40
0.875
 40
0.875
 40
1.0
 40
1.0
 40
1.0
 40
1.0
 10
141.3706284021574
 20
226.9309280786602
 30
0.0
 10
139.7989159273887
 20
226.9309280786629
 30
0.0
 10
138.2249294633718
 20
226.9309280786588
 30
0.0
 10
135.0920449826891
 20
226.9309280786616
 30
0.0
 10
133.5462606280104
 20
226.9309280786595
 30
0.0
 10
131.2816232102805
 20
226.9309280786605
 30
0.0
 10
130.535404088858
 20
226.9309280786595
 30
0.0
 10
129.0639828390669
 20
226.9309280786609
 30
0.0
 10
128.3360734768722
 20
226.9309280786609
 30
0.0
 10
126.9437798188878
 20
226.9309280786595
 30
0.0
 10
126.2753593779439
 20
226.9309280786602
 30
0.0
 10
125.0021736080029
 20
226.9309280786602
 30
0.0
 10
124.3947646387252
 20
226.9309280786595
 30
0.0
 10
123.8366473947889
 20
226.9309280786602
 30
0.0
  0
SPLINE
  5
15C
330
1F
100
AcDbEntity
  8
0
  6
Continuous
 62
     7
370
    18
100
AcDbSpline
210
0.0
220
0.0
230
1.0
 70
     8
 71
     3
 72
    20
 73
    16
 74
     0
 42
0.00000001
 43
0.00000001
 40
0.0
 40
0.0
 40
0.0
 40
0.0
 40
0.1249999999999993
 40
0.1249999999999993
 40
0.1874999999999989
 40
0.1874999999999989
 40
0.2499999999999986
 40
0.2499999999999986
 40
0.4999999999999982
 40
0.4999999999999982
 40
0.6249999999999986
 40
0.6249999999999986
 40
0.749999999999999
 40
0.749999999999999
 40
1.0
 40
1.0
 40
1.0
 40
1.0
 10
262.0541301350858
 20
219.932513636927
 30
0.0
 10
261.5183294007509
 20
219.9325128559396
 30
0.0
 10
260.9431585379675
 20
219.9324777365842
 30
0.0
 10
260.0270102604476
 20
219.9323950235991
 30
0.0
 10
259.7127696316384
 20
219.9323632025234
 30
0.0
 10
259.0675066499214
 20
219.9322925280816
 30
0.0
 10
258.7358663688053
 20
219.9322542243602
 30
0.0
 10
257.064163254646
 20
219.9320556074014
 30
0.0
 10
255.6659388644587
 20
219.9319056526784
 30
0.0
 10
253.5077553682867
 20
219.9317051639478
 30
0.0
 10
252.7779879456483
 20
219.9316444446584
 30
0.0
 10
251.3007129776157
 20
219.9315301058581
 30
0.0
 10
250.5544664729719
 20
219.9314796317362
 30
0.0
 10
248.3157008651266
 20
219.9313404845763
 30
0.0
 10
246.8142163159675
 20
219.9312673129621
 30
0.0
 10
245.3127189757378
 20
219.9311876792614
 30
0.0
  0
LINE
  5
15D
330
1F
100
AcDbEntity
  8
0
  6
Continuous
 62
     7
370
    25
100
AcDbLine
 10
245.324492041
 20
226.9309280787
 30
0.0
 11
141.3706284022
 21
226.9309280787
 31
0.0
  0
SPLINE
  5
15E
330
1F
100
AcDbEntity
  8
0
  6
Continuous
 62
     7
370
    25
100
AcDbSpline
210
0.0
220
0.0
230
1.0
 70
     8
 71
     3
 72
     9
 73
     5
 74
     0
 42
0.00000001
 43
0.00000001
 40
0.0
 40
0.0
 40
0.0
 40
0.0
 40
0.5674896402972927
 40
1.0
 40
1.0
 40
1.0
 40
1.0
 10
119.3493238632442
 20
219.9338538825027
 30
0.0
 10
119.3012496597067
 20
219.9348192011267
 30
0.0
 10
119.2165358603282
 20
219.9365202341595
 30
0.0
 10
119.2585944248307
 20
219.935677034444
 30
0.0
 10
119.2767851896923
 20
219.9353123418318
 30
0.0
  0
SPLINE
  5
15F
330
1F
100
AcDbEntity
  8
0
  6
Continuous
 62
     7
370
    25
100
AcDbSpline
210
0.0
220
0.0
230
1.0
 70
     8
 71
     3
 72
    20
 73
    16
 74
     0
 42
0.00000001
 43
0.00000001
 40
0.0
 40
0.0
 40
0.0
 40
0.0
 40
0.1249999999999994
 40
0.1249999999999994
 40
0.1874999999999988
 40
0.1874999999999988
 40
0.2499999999999982
 40
0.2499999999999982
 40
0.5
 40
0.5
 40
0.625
 40
0.625
 40
0.75
 40
0.75
 40
1.0
 40
1.0
 40
1.0
 40
1.0
 10
124.6409998385023
 20
219.9325169347557
 30
0.0
 10
124.1053797963068
 20
219.9325179741747
 30
0.0
 10
123.6220540799117
 20
219.9324831077353
 30
0.0
 10
122.9679860611607
 20
219.9324048290991
 30
0.0
 10
122.7617293074142
 20
219.9323750810281
 30
0.0
 10
122.3715068641143
 20
219.932310240516
 30
0.0
 10
122.187293698544
 20
219.9322757288184
 30
0.0
 10
121.3310959587873
 20
219.9320996436706
 30
0.0
 10
120.8353641257346
 20
219.9319812689276
 30
0.0
 10
120.2811809043175
 20
219.9317757600969
 30
0.0
 10
120.1287395962595
 20
219.9317044642435
 30
0.0
 10
119.8790904498668
 20
219.9315562949234
 30
0.0
 10
119.7822348185479
 20
219.9314831609067
 30
0.0
 10
119.561605651199
 20
219.9312883651581
 30
0.0
 10
119.5078795466775
 20
219.9312082434106
 30
0.0
 10
119.4922254712521
 20
219.9311597095078
 30
0.0
  0
SPLINE
  5
160
330
1F
100
AcDbEntity
  8
0
  6
Continuous
 62
     7
370
    25
100
AcDbSpline
210
0.0
220
0.0
230
1.0
 70
     8
 71
     3
 72
    16
 73
    12
 74
     0
 42
0.00000001
 43
0.00000001
 40
0.0
 40
0.0
 40
0.0
 40
0.0
 40
0.2500000000000005
 40
0.2500000000000005
 40
0.500000000000001
 40
0.500000000000001
 40
0.7500000000000016
 40
0.7500000000000016
 40
0.8750000000000008
 40
0.8750000000000008
 40
1.0
 40
1.0
 40
1.0
 40
1.0
 10
267.2028960908137
 20
219.9311563216961
 30
0.0
 10
267.1872662320797
 20
219.9311993448791
 30
0.0
 10
267.1338542883539
 20
219.9312729178074
 30
0.0
 10
266.8395682013071
 20
219.9315513514186
 30
0.0
 10
266.6015877375804
 20
219.9317311547718
 30
0.0
 10
265.8535392732146
 20
219.9320266361765
 30
0.0
 10
265.351600591582
 20
219.9321399568101
 30
0.0
 10
264.3356152584113
 20
219.9323290941114
 30
0.0
 10
263.9521828117021
 20
219.9323878489317
 30
0.0
 10
263.0751040003265
 20
219.9324809698237
 30
0.0
 10
262.5888995545225
 20
219.9325140028464
 30
0.0
 10
262.0541301348017
 20
219.932513636919
 30
0.0
  0
SPLINE
  5
161
330
1F
100
AcDbEntity
  8
0
  6
Continuous
 62
     7
370
    25
100
AcDbSpline
210
0.0
220
0.0
230
1.0
 70
     8
 71
     3
 72
     8
 73
     4
 74
     0
 42
0.00000001
 43
0.00000001
 40
0.0
 40
0.0
 40
0.0
 40
0.0
 40
1.0
 40
1.0
 40
1.0
 40
1.0
 10
267.3468384531184
 20
219.9338793062344
 30
0.0
 10
267.3079362656994
 20
219.9331040477051
 30
0.0
 10
267.2598022888719
 20
219.9309996803207
 30
0.0
 10
267.2028960908134
 20
219.9311563216961
 30
0.0
  0
SPLINE
  5
162
330
1F
100
AcDbEntity
  8
0
  6
Continuous
 62
     7
370
    25
100
AcDbSpline
210
0.0
220
0.0
230
1.0
 70
     8
 71
     3
 72
     9
 73
     5
 74
     0
 42
0.00000001
 43
0.00000001
 40
0.0
 40
0.0
 40
0.0
 40
0.0
 40
0.4321727800606384
 40
1.0
 40
1.0
 40
1.0
 40
1.0
 10
267.4664545828908
 20
219.9362740248809
 30
0.0
 10
267.4631902079882
 20
219.9362103935637
 30
0.0
 10
267.4556368056151
 20
219.9360631577357
 30
0.0
 10
267.3862424545596
 20
219.9346702418113
 30
0.0
 10
267.3468384531201
 20
219.9338793062344
 30
0.0
  0
SPLINE
  5
163
330
1F
100
AcDbEntity
  8
0
  6
Continuous
 62
     7
370
    25
100
AcDbSpline
210
0.0
220
0.0
230
1.0
 70
     8
 71
     3
 72
    17
 73
    13
 74
     0
 42
0.00000001
 43
0.00000001
 40
0.0
 40
0.0
 40
0.0
 40
0.0
 40
0.1073783419553433
 40
0.214756697468076
 40
0.3221348709583186
 40
0.4295130725814501
 40
0.5368948358935595
 40
0.6442766196344477
 40
0.7516639226476236
 40
0.8590512290335122
 40
0.9664411993909422
 40
0.9999999999999999
 40
0.9999999999999999
 40
0.9999999999999999
 40
0.9999999999999999
 10
193.3475602215792
 20
219.5983059340334
 30
0.0
 10
192.7068834732568
 20
219.5980567163933
 30
0.0
 10
191.4255298957212
 20
219.5975582810817
 30
0.0
 10
189.5569471620462
 20
219.593762278818
 30
0.0
 10
187.7981544153322
 20
219.5879408862138
 30
0.0
 10
186.1937457890919
 20
219.5803763842423
 30
0.0
 10
184.7961215340036
 20
219.571563137841
 30
0.0
 10
183.6378703676196
 20
219.5620409520209
 30
0.0
 10
182.754673388637
 20
219.5522921065739
 30
0.0
 10
182.1892133036811
 20
219.5427630040736
 30
0.0
 10
181.935678562671
 20
219.5356665518653
 30
0.0
 10
181.9764355720247
 20
219.5320547948788
 30
0.0
 10
181.9861394973654
 20
219.5311948637724
 30
0.0
  0
SPLINE
  5
164
330
1F
100
AcDbEntity
  8
0
  6
Continuous
 62
     7
370
    25
100
AcDbSpline
210
0.0
220
0.0
230
1.0
 70
     8
 71
     3
 72
    17
 73
    13
 74
     0
 42
0.00000001
 43
0.00000001
 40
0.0
 40
0.0
 40
0.0
 40
0.0
 40
0.0068768971430274
 40
0.1142725020327099
 40
0.2216681120751554
 40
0.3290657161523216
 40
0.4364633104905963
 40
0.5438606610604864
 40
0.6512579862003071
 40
0.7586515829565423
 40
0.8660451543417551
 40
1.0
 40
1.0
 40
1.0
 40
1.0
 10
204.7348063415729
 20
219.5311130805532
 30
0.0
 10
204.7380344194645
 20
219.5312860004163
 30
0.0
 10
204.7916749683566
 20
219.5341593872077
 30
0.0
 10
204.5902141513147
 20
219.5404699390834
 30
0.0
 10
204.118937060879
 20
219.5498459958824
 30
0.0
 10
203.2996466519936
 20
219.5596109566833
 30
0.0
 10
202.2132723296698
 20
219.5692260944146
 30
0.0
 10
200.8674333695986
 20
219.5782577161276
 30
0.0
 10
199.3132357966033
 20
219.5862135047082
 30
0.0
 10
197.5859129895099
 20
219.5924617043019
 30
0.0
 10
195.5891022912186
 20
219.5972617121882
 30
0.0
 10
194.1476210039276
 20
219.5979332259064
 30
0.0
 10
193.3475602215792
 20
219.5983059340334
 30
0.0
  0
SPLINE
  5
165
330
1F
100
AcDbEntity
  8
0
  6
Continuous
 62
     7
370
    25
100
AcDbSpline
210
0.0
220
0.0
230
1.0
 70
    24
 71
     3
 72
    18
 73
    14
 74
     0
 42
0.00000001
 43
0.00000001
 40
0.0
 40
0.0
 40
0.0
 40
0.0
 40
0.25
 40
0.25
 40
0.5
 40
0.5
 40
0.625
 40
0.625
 40
0.75
 40
0.75
 40
0.875
 40
0.875
 40
1.0
 40
1.0
 40
1.0
 40
1.0
 10
268.3405200897257
 20
226.9309280786602
 30
0.0
 10
268.3241806510478
 20
226.9309280786629
 30
0.0
 10
268.2663799028666
 20
226.9309280786588
 30
0.0
 10
267.9473724120967
 20
226.9309280786616
 30
0.0
 10
267.6897412797714
 20
226.9309280786595
 30
0.0
 10
267.093767006824
 20
226.9309280786605
 30
0.0
 10
266.8599868108614
 20
226.9309280786595
 30
0.0
 10
266.3071885992223
 20
226.9309280786609
 30
0.0
 10
265.986088322779
 20
226.9309280786609
 30
0.0
 10
265.2578473412541
 20
226.9309280786595
 30
0.0
 10
264.8493764413016
 20
226.9309280786602
 30
0.0
 10
263.9306135799154
 20
226.9309280786602
 30
0.0
 10
263.4165762111786
 20
226.9309280786595
 30
0.0
 10
262.8584730483844
 20
226.9309280786602
 30
0.0
  0
SPLINE
  5
166
330
1F
100
AcDbEntity
  8
0
  6
Continuous
 62
     7
370
    25
100
AcDbSpline
210
0.0
220
0.0
230
1.0
 70
    24
 71
     3
 72
    18
 73
    14
 74
     0
 42
0.00000001
 43
0.00000001
 40
0.0
 40
0.0
 40
0.0
 40
0.0
 40
0.25
 40
0.25
 40
0.5
 40
0.5
 40
0.625
 40
0.625
 40
0.75
 40
0.75
 40
0.875
 40
0.875
 40
1.0
 40
1.0
 40
1.0
 40
1.0
 10
118.3546003534332
 20
226.9309280786602
 30
0.0
 10
118.3709397920345
 20
226.9309280786629
 30
0.0
 10
118.4287405403032
 20
226.9309280786588
 30
0.0
 10
118.7477480310512
 20
226.9309280786616
 30
0.0
 10
119.0053791633983
 20
226.9309280786595
 30
0.0
 10
119.6013534363295
 20
226.9309280786605
 30
0.0
 10
119.8351336322921
 20
226.9309280786595
 30
0.0
 10
120.387931843942
 20
226.9309280786609
 30
0.0
 10
120.7090321203853
 20
226.9309280786609
 30
0.0
 10
121.4372731018993
 20
226.9309280786595
 30
0.0
 10
121.8457440018628
 20
226.9309280786602
 30
0.0
 10
122.7645068632381
 20
226.9309280786602
 30
0.0
 10
123.2785442319592
 20
226.9309280786595
 30
0.0
 10
123.8366473947745
 20
226.9309280786602
 30
0.0
  0
SPLINE
  5
167
330
1F
100
AcDbEntity
  8
0
  6
Continuous
 62
     7
370
    25
100
AcDbSpline
210
0.0
220
0.0
230
1.0
 70
    24
 71
     3
 72
    34
 73
    30
 74
     0
 42
0.00000001
 43
0.00000001
 40
0.0
 40
0.0
 40
0.0
 40
0.0
 40
0.1249999999999997
 40
0.1249999999999997
 40
0.2499999999999993
 40
0.2499999999999993
 40
0.3124999999999992
 40
0.3124999999999992
 40
0.374999999999999
 40
0.374999999999999
 40
0.4062499999999989
 40
0.4062499999999989
 40
0.4374999999999988
 40
0.4374999999999988
 40
0.4999999999999989
 40
0.4999999999999989
 40
0.531249999999999
 40
0.531249999999999
 40
0.5624999999999991
 40
0.5624999999999991
 40
0.6249999999999992
 40
0.6249999999999992
 40
0.6874999999999992
 40
0.6874999999999992
 40
0.7499999999999993
 40
0.7499999999999993
 40
0.8749999999999997
 40
0.8749999999999997
 40
1.0
 40
1.0
 40
1.0
 40
1.0
 10
216.8397884309336
 20
151.2309280786578
 30
0.0
 10
216.8378883743132
 20
151.2309280786578
 30
0.0
 10
216.8330274034068
 20
151.2309280786578
 30
0.0
 10
216.704976142842
 20
151.2309280786578
 30
0.0
 10
216.5842364119728
 20
151.2309280786578
 30
0.0
 10
216.2582604478709
 20
151.2309280786579
 30
0.0
 10
216.124426663079
 20
151.230928078658
 30
0.0
 10
215.8002624659471
 20
151.230928078658
 30
0.0
 10
215.6103791909101
 20
151.230928078658
 30
0.0
 10
215.2744316696904
 20
151.230928078658
 30
0.0
 10
215.1538888399098
 20
151.2309280786581
 30
0.0
 10
214.8935123569333
 20
151.2309280786581
 30
0.0
 10
214.7529803245127
 20
151.2309280786582
 30
0.0
 10
214.3071231278243
 20
151.2309280786582
 30
0.0
 10
213.9760850025731
 20
151.2309280786583
 30
0.0
 10
213.4258368261369
 20
151.2309280786584
 30
0.0
 10
213.2335038122504
 20
151.2309280786583
 30
0.0
 10
212.8310584612613
 20
151.2309280786584
 30
0.0
 10
212.619979317432
 20
151.2309280786584
 30
0.0
 10
211.9675406828141
 20
151.2309280786585
 30
0.0
 10
211.5126464385383
 20
151.2309280786587
 30
0.0
 10
210.5712215488329
 20
151.2309280786588
 30
0.0
 10
210.0846607616429
 20
151.2309280786589
 30
0.0
 10
209.0853102057247
 20
151.230928078659
 30
0.0
 10
208.5762115799454
 20
151.2309280786591
 30
0.0
 10
207.046384991899
 20
151.2309280786594
 30
0.0
 10
206.0139055864863
 20
151.2309280786595
 30
0.0
 10
203.9338938068499
 20
151.2309280786598
 30
0.0
 10
202.885973342698
 20
151.2309280786599
 30
0.0
 10
201.8398133502206
 20
151.2309280786601
 30
0.0
  0
SPLINE
  5
168
330
1F
100
AcDbEntity
  8
0
  6
Continuous
 62
     7
370
    25
100
AcDbSpline
210
0.0
220
0.0
230
1.0
 70
    24
 71
     3
 72
    34
 73
    30
 74
     0
 42
0.00000001
 43
0.00000001
 40
0.0
 40
0.0
 40
0.0
 40
0.0
 40
0.1249999999999996
 40
0.1249999999999996
 40
0.2499999999999993
 40
0.2499999999999993
 40
0.312499999999999
 40
0.312499999999999
 40
0.3749999999999987
 40
0.3749999999999987
 40
0.4374999999999984
 40
0.4374999999999984
 40
0.4687499999999984
 40
0.4687499999999984
 40
0.4999999999999984
 40
0.4999999999999984
 40
0.5624999999999986
 40
0.5624999999999986
 40
0.5937499999999988
 40
0.5937499999999988
 40
0.6249999999999989
 40
0.6249999999999989
 40
0.687499999999999
 40
0.687499999999999
 40
0.7499999999999991
 40
0.7499999999999991
 40
0.8749999999999996
 40
0.8749999999999996
 40
1.0
 40
1.0
 40
1.0
 40
1.0
 10
184.855307092909
 20
151.2309280786628
 30
0.0
 10
183.8091471004315
 20
151.2309280786629
 30
0.0
 10
182.7612266362795
 20
151.2309280786632
 30
0.0
 10
180.6812148566431
 20
151.2309280786635
 30
0.0
 10
179.6487354512304
 20
151.2309280786637
 30
0.0
 10
178.1189088631843
 20
151.2309280786639
 30
0.0
 10
177.6098102374051
 20
151.230928078664
 30
0.0
 10
176.6104596814872
 20
151.2309280786642
 30
0.0
 10
176.1238988942973
 20
151.2309280786642
 30
0.0
 10
175.1824740045924
 20
151.2309280786643
 30
0.0
 10
174.7275797603168
 20
151.2309280786644
 30
0.0
 10
174.0751411256992
 20
151.2309280786644
 30
0.0
 10
173.86406198187
 20
151.2309280786646
 30
0.0
 10
173.4616166308813
 20
151.2309280786646
 30
0.0
 10
173.269283616995
 20
151.2309280786646
 30
0.0
 10
172.7190354405593
 20
151.2309280786647
 30
0.0
 10
172.3879973153084
 20
151.2309280786648
 30
0.0
 10
171.9421401186207
 20
151.2309280786648
 30
0.0
 10
171.8016080862002
 20
151.2309280786649
 30
0.0
 10
171.5412316032242
 20
151.230928078665
 30
0.0
 10
171.4206887734438
 20
151.230928078665
 30
0.0
 10
171.0847412522248
 20
151.230928078665
 30
0.0
 10
170.8948579771882
 20
151.230928078665
 30
0.0
 10
170.5706937800573
 20
151.2309280786651
 30
0.0
 10
170.4368599952659
 20
151.2309280786651
 30
0.0
 10
170.1108840311654
 20
151.2309280786651
 30
0.0
 10
169.9901443002971
 20
151.2309280786652
 30
0.0
 10
169.8620930397342
 20
151.2309280786652
 30
0.0
 10
169.8572320688289
 20
151.2309280786652
 30
0.0
 10
169.8553320122095
 20
151.2309280786652
 30
0.0
  0
LWPOLYLINE
  5
169
330
1F
100
AcDbEntity
  8
0
  6
Continuous
 62
     7
370
    25
100
AcDbPolyline
 90
       22
 70
   128
 43
0.0
 10
214.0266848496
 20
179.1201698062
 10
212.8786676815
 20
178.3714010722
 10
211.499752461
 20
177.6696872263
 10
209.9062408156
 20
177.0233239761
 10
208.1169713461
 20
176.4399526709
 10
206.1530969153
 20
175.9264699653
 10
204.0378345773
 20
175.4889462859
 10
201.7961911043
 20
175.1325540669
 10
199.4546673547
 20
174.8615066006
 10
197.040944978
 20
174.6790082283
 10
194.583559161
 20
174.587216458
 10
192.1115612822
 20
174.587216458
 10
189.6541754651
 20
174.6790082283
 10
187.2404530885
 20
174.8615066006
 10
184.8989293389
 20
175.1325540669
 10
182.6572858659
 20
175.4889462859
 10
180.5420235279
 20
175.9264699653
 10
178.578149097
 20
176.4399526709
 10
176.7888796275
 20
177.0233239761
 10
175.1953679822
 20
177.6696872263
 10
173.8164527617
 20
178.3714010723
 10
172.6684355935
 20
179.1201698062
  0
SPLINE
  5
16A
330
1F
100
AcDbEntity
  8
0
  6
Continuous
 62
     7
370
    25
100
AcDbSpline
210
0.0
220
0.0
230
1.0
 70
     8
 71
     3
 72
    10
 73
     6
 74
     0
 42
0.00000001
 43
0.00000001
 40
0.0
 40
0.0
 40
0.0
 40
0.0
 40
0.2714558296571645
 40
0.710565559574548
 40
1.0
 40
1.0
 40
1.0
 40
1.0
 10
171.1446016716374
 20
180.6515034232958
 30
0.0
 10
171.188636491661
 20
180.553089754975
 30
0.0
 10
171.3039024874968
 20
180.2954811289661
 30
0.0
 10
171.8559913174218
 20
179.7544211737354
 30
0.0
 10
172.4374392327707
 20
179.3005018757436
 30
0.0
 10
172.6684355935491
 20
179.1201698061716
 30
0.0
  0
SPLINE
  5
16B
330
1F
100
AcDbEntity
  8
0
  6
Continuous
 62
     7
370
    25
100
AcDbSpline
210
0.0
220
0.0
230
1.0
 70
     8
 71
     3
 72
    10
 73
     6
 74
     0
 42
0.00000001
 43
0.00000001
 40
0.0
 40
0.0
 40
0.0
 40
0.0
 40
0.427386244288661
 40
0.8664882266370189
 40
1.0
 40
1.0
 40
1.0
 40
1.0
 10
214.0266848496007
 20
179.1201698061651
 30
0.0
 10
214.3552912532505
 20
179.3823549841556
 30
0.0
 10
215.0215119933073
 20
179.9139124990814
 30
0.0
 10
215.4981476580976
 20
180.425547032385
 30
0.0
 10
215.5432418929926
 20
180.6102568184322
 30
0.0
 10
215.5537561553714
 20
180.6533241231322
 30
0.0
  0
LINE
  5
16C
330
1F
100
AcDbEntity
  8
0
  6
Continuous
 62
     7
370
    25
100
AcDbLine
 10
201.8398133502
 20
151.2309280787
 30
0.0
 11
184.8553070929
 21
151.2309280787
 31
0.0
  0
SPLINE
  5
16D
330
1F
100
AcDbEntity
  8
0
  6
Continuous
 62
     7
370
    25
100
AcDbSpline
210
0.0
220
0.0
230
1.0
 70
     8
 71
     3
 72
    10
 73
     6
 74
     0
 42
0.00000001
 43
0.00000001
 40
0.0
 40
0.0
 40
0.0
 40
0.0
 40
0.4775932960632557
 40
0.9551865864934015
 40
1.0
 40
1.0
 40
1.0
 40
1.0
 10
217.843489539397
 20
180.7309280786576
 30
0.0
 10
217.8445740107194
 20
180.7012656791542
 30
0.0
 10
217.8467429533516
 20
180.6419408804972
 30
0.0
 10
217.8478081451877
 20
180.4184675858772
 30
0.0
 10
217.8475069786655
 20
180.1832329623382
 30
0.0
 10
217.8474811438135
 20
180.1630539210352
 30
0.0
  0
SPLINE
  5
16E
330
1F
100
AcDbEntity
  8
0
  6
Continuous
 62
     7
370
    25
100
AcDbSpline
210
0.0
220
0.0
230
1.0
 70
     8
 71
     3
 72
    10
 73
     6
 74
     0
 42
0.00000001
 43
0.00000001
 40
0.0
 40
0.0
 40
0.0
 40
0.0
 40
0.0148080204895733
 40
0.5054681484304563
 40
1.0
 40
1.0
 40
1.0
 40
1.0
 10
168.847587172737
 20
180.1705577378428
 30
0.0
 10
168.8475782404882
 20
180.1772827390173
 30
0.0
 10
168.8472733403693
 20
180.4068390051137
 30
0.0
 10
168.8482940127093
 20
180.6355456754007
 30
0.0
 10
168.8505156964058
 20
180.6990507543276
 30
0.0
 10
168.8516309037713
 20
180.7309280786653
 30
0.0
  0
ARC
  5
16F
330
1F
100
AcDbEntity
  8
0
  6
Continuous
 62
     7
370
    25
100
AcDbCircle
 10
217.3434897569
 20
180.7309282961
 30
0.0
 40
0.4999997825110161
100
AcDbArc
 50
359.9999750776
 51
89.9999750776
  0
ARC
  5
170
330
1F
100
AcDbEntity
  8
0
  6
Continuous
 62
     7
370
    25
100
AcDbCircle
 10
169.3516306863
 20
180.7309282962
 30
0.0
 40
0.4999997825120677
100
AcDbArc
 50
90.0000249225
 51
180.0000249223
  0
LINE
  5
171
330
1F
100
AcDbEntity
  8
0
  6
Continuous
 62
     7
370
    25
100
AcDbLine
 10
215.8455601327
 20
181.2309280787
 30
0.0
 11
217.3434899744
 21
181.2309280787
 31
0.0
  0
LINE
  5
172
330
1F
100
AcDbEntity
  8
0
  6
Continuous
 62
     7
370
    25
100
AcDbLine
 10
169.3516304688
 20
181.2309280787
 30
0.0
 11
170.8495603105
 21
181.2309280787
 31
0.0
  0
SPLINE
  5
173
330
1F
100
AcDbEntity
  8
0
  6
Continuous
 62
     8
370
    18
100
AcDbSpline
210
0.0
220
0.0
230
1.0
 70
     8
 71
     3
 72
    20
 73
    16
 74
     0
 42
0.00000001
 43
0.00000001
 40
0.0
 40
0.0
 40
0.0
 40
0.0
 40
0.2499999999999996
 40
0.2499999999999996
 40
0.3750000000000001
 40
0.3750000000000001
 40
0.5000000000000006
 40
0.5000000000000006
 40
0.7499999999999999
 40
0.7499999999999999
 40
0.8124999999999996
 40
0.8124999999999996
 40
0.8749999999999991
 40
0.8749999999999991
 40
1.0
 40
1.0
 40
1.0
 40
1.0
 10
245.3228516560219
 20
220.904814874368
 30
0.0
 10
246.8873090112951
 20
220.9048975669937
 30
0.0
 10
248.4489457733332
 20
220.9049736576033
 30
0.0
 10
250.7810545827868
 20
220.9051120192166
 30
0.0
 10
251.5591191088484
 20
220.9051632015403
 30
0.0
 10
253.0975385687109
 20
220.9052784177577
 30
0.0
 10
253.8573040180871
 20
220.9053401436715
 30
0.0
 10
256.103712217591
 20
220.905543380192
 30
0.0
 10
257.5583134948648
 20
220.9056956202028
 30
0.0
 10
259.2971430189538
 20
220.9058892637312
 30
0.0
 10
259.6417943398044
 20
220.9059271561264
 30
0.0
 10
260.3117481793755
 20
220.9059957443294
 30
0.0
 10
260.6381141763408
 20
220.90602639231
 30
0.0
 10
261.5900977234891
 20
220.9061060358954
 30
0.0
 10
262.1884305672577
 20
220.906138743955
 30
0.0
 10
262.7469179943828
 20
220.9061387644986
 30
0.0
  0
SPLINE
  5
174
330
1F
100
AcDbEntity
  8
0
  6
Continuous
 62
     8
370
    18
100
AcDbSpline
210
0.0
220
0.0
230
1.0
 70
     8
 71
     3
 72
    24
 73
    20
 74
     0
 42
0.00000001
 43
0.00000001
 40
0.0
 40
0.0
 40
0.0
 40
0.0
 40
0.0312500000000008
 40
0.0312500000000008
 40
0.0625000000000017
 40
0.0625000000000017
 40
0.1250000000000016
 40
0.1250000000000016
 40
0.1875000000000016
 40
0.1875000000000016
 40
0.2500000000000015
 40
0.2500000000000015
 40
0.5000000000000013
 40
0.5000000000000013
 40
0.6250000000000013
 40
0.6250000000000013
 40
0.7500000000000012
 40
0.7500000000000012
 40
1.0
 40
1.0
 40
1.0
 40
1.0
 10
123.9482023926397
 20
220.9061417962744
 30
0.0
 10
124.0864307052171
 20
220.9061413588065
 30
0.0
 10
124.2299254568228
 20
220.9061376192323
 30
0.0
 10
124.5190301833278
 20
220.9061269487492
 30
0.0
 10
124.666007375803
 20
220.9061200215922
 30
0.0
 10
125.1140008804758
 20
220.9060967144399
 30
0.0
 10
125.4220512023727
 20
220.9060787549089
 30
0.0
 10
126.0565657732173
 20
220.9060273430842
 30
0.0
 10
126.3828567865073
 20
220.9059984943455
 30
0.0
 10
127.0526521514863
 20
220.9059357253527
 30
0.0
 10
127.3972235474343
 20
220.905901900805
 30
0.0
 10
129.135845808398
 20
220.9057326964451
 30
0.0
 10
130.5906119873672
 20
220.9056124777713
 30
0.0
 10
132.8376789948044
 20
220.9053917000918
 30
0.0
 10
133.5977326010903
 20
220.905313988711
 30
0.0
 10
135.1368541125643
 20
220.9051571069818
 30
0.0
 10
135.9146887534945
 20
220.9050810917736
 30
0.0
 10
138.2464113388826
 20
220.9048897896105
 30
0.0
 10
139.8079056305244
 20
220.9048218557184
 30
0.0
 10
141.3722687968332
 20
220.9047782738728
 30
0.0
  0
SPLINE
  5
175
330
1F
100
AcDbEntity
  8
0
  6
Continuous
 62
     8
370
    18
100
AcDbSpline
210
0.0
220
0.0
230
1.0
 70
     8
 71
     3
 72
    14
 73
    10
 74
     0
 42
0.00000001
 43
0.00000001
 40
0.0
 40
0.0
 40
0.0
 40
0.0
 40
0.2499999999999999
 40
0.2499999999999999
 40
0.4999999999999999
 40
0.4999999999999999
 40
0.7499999999999999
 40
0.7499999999999999
 40
1.0
 40
1.0
 40
1.0
 40
1.0
 10
141.3722687968332
 20
220.9047782738728
 30
0.0
 10
150.0346026173487
 20
220.9045342639679
 30
0.0
 10
158.6971957244296
 20
220.9077525910177
 30
0.0
 10
176.0223799041325
 20
220.9095616525951
 30
0.0
 10
184.684971496209
 20
220.9100347615041
 30
0.0
 10
202.0101536847782
 20
220.9100095746145
 30
0.0
 10
210.6727442812864
 20
220.9095337438561
 30
0.0
 10
227.9979244787738
 20
220.9077488289432
 30
0.0
 10
236.6605177558954
 20
220.9043519151836
 30
0.0
 10
245.3228516560196
 20
220.9048148743682
 30
0.0
  0
SPLINE
  5
176
330
1F
100
AcDbEntity
  8
0
  6
Continuous
 62
     8
370
    18
100
AcDbSpline
210
0.0
220
0.0
230
1.0
 70
     8
 71
     3
 72
    14
 73
    10
 74
     0
 42
0.00000001
 43
0.00000001
 40
0.0
 40
0.0
 40
0.0
 40
0.0
 40
0.2500000000000001
 40
0.2500000000000001
 40
0.5000000000000001
 40
0.5000000000000001
 40
0.75
 40
0.75
 40
1.0
 40
1.0
 40
1.0
 40
1.0
 10
245.3127189757378
 20
219.9311876792613
 30
0.0
 10
236.6521321697027
 20
219.9307283550139
 30
0.0
 10
227.9912980533431
 20
219.9341254608604
 30
0.0
 10
210.6695519022598
 20
219.9359134344533
 30
0.0
 10
202.0086367661157
 20
219.9363891524751
 30
0.0
 10
184.6867227044451
 20
219.9364144180236
 30
0.0
 10
176.0256718223417
 20
219.9359414770863
 30
0.0
 10
158.7038230176158
 20
219.9341287854821
 30
0.0
 10
150.0430140799768
 20
219.9309095940671
 30
0.0
 10
141.3824272468166
 20
219.9311501056065
 30
0.0
  0
SPLINE
  5
177
330
1F
100
AcDbEntity
  8
0
  6
Continuous
 62
     8
370
    18
100
AcDbSpline
210
0.0
220
0.0
230
1.0
 70
     8
 71
     3
 72
     8
 73
     4
 74
     0
 42
0.00000001
 43
0.00000001
 40
0.0
 40
0.0
 40
0.0
 40
0.0
 40
1.0
 40
1.0
 40
1.0
 40
1.0
 10
119.4922254712522
 20
219.9311597095078
 30
0.0
 10
119.4357626988395
 20
219.9309846525145
 30
0.0
 10
119.3880410591732
 20
219.9330800006303
 30
0.0
 10
119.3493238632446
 20
219.9338538825027
 30
0.0
  0
LINE
  5
178
330
1F
100
AcDbEntity
  8
0
  6
Continuous
 62
     8
370
    18
100
AcDbLine
 10
268.1827284769
 20
220.9047838821
 30
0.0
 11
268.3405200897
 21
226.9309280787
 31
0.0
  0
SPLINE
  5
179
330
1F
100
AcDbEntity
  8
0
  6
Continuous
 62
     8
370
    18
100
AcDbSpline
210
0.0
220
0.0
230
1.0
 70
     8
 71
     3
 72
    16
 73
    12
 74
     0
 42
0.00000001
 43
0.00000001
 40
0.0
 40
0.0
 40
0.0
 40
0.0
 40
0.1249999999999988
 40
0.1249999999999988
 40
0.2499999999999977
 40
0.2499999999999977
 40
0.4999999999999984
 40
0.4999999999999984
 40
0.7499999999999992
 40
0.7499999999999992
 40
1.0
 40
1.0
 40
1.0
 40
1.0
 10
262.7469151799158
 20
220.9061387645058
 30
0.0
 10
263.3023266306883
 20
220.9061383421304
 30
0.0
 10
263.8117372205014
 20
220.9061061252767
 30
0.0
 10
264.7319718866867
 20
220.9060134207525
 30
0.0
 10
265.135732694327
 20
220.9059543778959
 30
0.0
 10
266.2081503963047
 20
220.9057677307251
 30
0.0
 10
266.7406207751695
 20
220.9056530977344
 30
0.0
 10
267.5382502478075
 20
220.9053610754129
 30
0.0
 10
267.7932601981204
 20
220.9051832200917
 30
0.0
 10
268.1092401173302
 20
220.9049065377765
 30
0.0
 10
268.166465516197
 20
220.904828797122
 30
0.0
 10
268.182728476918
 20
220.9047838820564
 30
0.0
  0
SPLINE
  5
17A
330
1F
100
AcDbEntity
  8
0
  6
Continuous
 62
     8
370
    18
100
AcDbSpline
210
0.0
220
0.0
230
1.0
 70
     8
 71
     3
 72
    20
 73
    16
 74
     0
 42
0.00000001
 43
0.00000001
 40
0.0
 40
0.0
 40
0.0
 40
0.0
 40
0.2500000000000009
 40
0.2500000000000009
 40
0.3750000000000021
 40
0.3750000000000021
 40
0.5000000000000032
 40
0.5000000000000032
 40
0.7500000000000049
 40
0.7500000000000049
 40
0.8125000000000038
 40
0.8125000000000038
 40
0.8750000000000027
 40
0.8750000000000027
 40
1.0
 40
1.0
 40
1.0
 40
1.0
 10
118.5123918769283
 20
220.9047872928436
 30
0.0
 10
118.5286537198938
 20
220.90483822194
 30
0.0
 10
118.5859281365033
 20
220.9049228372102
 30
0.0
 10
118.8222251771246
 20
220.9051171704073
 30
0.0
 10
118.9259499246523
 20
220.905190643751
 30
0.0
 10
119.1927097666359
 20
220.9053378462961
 30
0.0
 10
119.3554043425343
 20
220.9054087605122
 30
0.0
 10
119.9455362794666
 20
220.9056137148404
 30
0.0
 10
120.4724088047434
 20
220.9057344668968
 30
0.0
 10
121.377217407357
 20
220.9059073464086
 30
0.0
 10
121.5714610870255
 20
220.9059418331071
 30
0.0
 10
121.981844515129
 20
220.906005297604
 30
0.0
 10
122.198469261335
 20
220.9060341934327
 30
0.0
 10
122.8843444831728
 20
220.9061102642617
 30
0.0
 10
123.3898221861985
 20
220.9061431180383
 30
0.0
 10
123.9482052071066
 20
220.9061417962138
 30
0.0
  0
LINE
  5
17B
330
1F
100
AcDbEntity
  8
0
  6
Continuous
 62
     8
370
    18
100
AcDbLine
 10
118.5123918769
 20
220.9047872928
 30
0.0
 11
118.3546003534
 21
226.9309280787
 31
0.0
  0
ARC
  5
17C
330
1F
100
AcDbEntity
  8
0
  6
Continuous
 62
     8
370
    18
100
AcDbCircle
 10
119.5120228974
 20
220.9309366999
 30
0.0
 40
0.9999729838859551
100
AcDbArc
 50
181.4984619513
 51
268.8655862776
  0
ARC
  5
17D
330
1F
100
AcDbEntity
  8
0
  6
Continuous
 62
     8
370
    18
100
AcDbCircle
 10
267.1830975037
 20
220.9309332406
 30
0.0
 40
0.9999729354466907
100
AcDbArc
 50
271.1344803143
 51
358.501540754
  0
LINE
  5
17E
330
1F
100
AcDbEntity
  8
0
  6
Continuous
 62
     8
370
    18
100
AcDbLine
 10
268.3263692046
 20
220.9075003071
 30
0.0
 11
268.3268974936
 21
220.907508575
 31
0.0
  0
SPLINE
  5
17F
330
1F
100
AcDbEntity
  8
0
  6
Continuous
 62
     8
370
    18
100
AcDbSpline
210
0.0
220
0.0
230
1.0
 70
     8
 71
     3
 72
     8
 73
     4
 74
     0
 42
0.00000001
 43
0.00000001
 40
0.0
 40
0.0
 40
0.0
 40
0.0
 40
1.0
 40
1.0
 40
1.0
 40
1.0
 10
268.1827284769179
 20
220.9047838820563
 30
0.0
 10
268.2395432048159
 20
220.9046252254499
 30
0.0
 10
268.2874547169529
 20
220.9067249575347
 30
0.0
 10
268.3263692045963
 20
220.907500307116
 30
0.0
  0
SPLINE
  5
180
330
1F
100
AcDbEntity
  8
0
  6
Continuous
 62
     8
370
    18
100
AcDbSpline
210
0.0
220
0.0
230
1.0
 70
     8
 71
     3
 72
     8
 73
     4
 74
     0
 42
0.00000001
 43
0.00000001
 40
0.0
 40
0.0
 40
0.0
 40
0.0
 40
1.0
 40
1.0
 40
1.0
 40
1.0
 10
118.3697924065369
 20
220.907474901746
 30
0.0
 10
118.4085188280681
 20
220.9067009899159
 30
0.0
 10
118.4560833036698
 20
220.9046089828757
 30
0.0
 10
118.512391876928
 20
220.9047872928436
 30
0.0
  0
SPLINE
  5
181
330
1F
100
AcDbEntity
  8
0
  6
Continuous
 62
     8
370
    18
100
AcDbSpline
210
0.0
220
0.0
230
1.0
 70
     8
 71
     3
 72
     9
 73
     5
 74
     0
 42
0.00000001
 43
0.00000001
 40
0.0
 40
0.0
 40
0.0
 40
0.0
 40
0.0005121610423343
 40
1.0
 40
1.0
 40
1.0
 40
1.0
 10
118.2421609097367
 20
220.9100323718898
 30
0.0
 10
118.2421391327634
 20
220.910032807339
 30
0.0
 10
118.199619355753
 20
220.9108830265183
 30
0.0
 10
118.2847276757279
 20
220.9091785276431
 30
0.0
 10
118.3697924065369
 20
220.907474901746
 30
0.0
  0
ARC
  5
182
330
1F
100
AcDbEntity
  8
0
  6
Continuous
 62
     8
370
    18
100
AcDbCircle
 10
119.3694359237
 20
220.9336374313
 30
0.0
 40
0.9999858196064134
100
AcDbArc
 50
181.499194847
 51
268.847569773
  0
LINE
  5
183
330
1F
100
AcDbEntity
  8
0
  6
Continuous
 62
     8
370
    18
100
AcDbLine
 10
182.0891115979
 20
211.5924589973
 30
0.0
 11
204.6060088453
 21
211.5924589973
 31
0.0
  0
LINE
  5
184
330
1F
100
AcDbEntity
  8
0
  6
Continuous
 62
     8
370
    18
100
AcDbLine
 10
193.3475602216
 20
211.1014355786
 30
0.0
 11
182.5732140855
 21
211.1014355786
 31
0.0
  0
LINE
  5
185
330
1F
100
AcDbEntity
  8
0
  6
Continuous
 62
     8
370
    18
100
AcDbLine
 10
204.1219063576
 20
211.1014355786
 30
0.0
 11
193.3475602216
 21
211.1014355786
 31
0.0
  0
SPLINE
  5
186
330
1F
100
AcDbEntity
  8
0
  6
Continuous
 62
     8
370
    18
100
AcDbSpline
210
0.0
220
0.0
230
1.0
 70
     8
 71
     3
 72
    36
 73
    32
 74
     0
 42
0.00000001
 43
0.00000001
 40
0.0
 40
0.0
 40
0.0
 40
0.0
 40
0.0156249999999998
 40
0.0156249999999998
 40
0.0312499999999996
 40
0.0312499999999996
 40
0.0624999999999994
 40
0.0624999999999994
 40
0.1249999999999991
 40
0.1249999999999991
 40
0.2499999999999987
 40
0.2499999999999987
 40
0.3124999999999987
 40
0.3124999999999987
 40
0.3437499999999987
 40
0.3437499999999987
 40
0.3749999999999987
 40
0.3749999999999987
 40
0.4999999999999978
 40
0.4999999999999978
 40
0.6249999999999969
 40
0.6249999999999969
 40
0.6562499999999971
 40
0.6562499999999971
 40
0.6874999999999972
 40
0.6874999999999972
 40
0.7499999999999978
 40
0.7499999999999978
 40
0.8749999999999989
 40
0.8749999999999989
 40
1.0
 40
1.0
 40
1.0
 40
1.0
 10
217.8397867696513
 20
177.5948088511199
 30
0.0
 10
217.8395462198283
 20
177.5467818695085
 30
0.0
 10
217.8392946820489
 20
177.4979095962622
 30
0.0
 10
217.8384944164188
 20
177.4011976575499
 30
0.0
 10
217.8379433534424
 20
177.3529052758428
 30
0.0
 10
217.8354325095084
 20
177.208226452527
 30
0.0
 10
217.8326048064718
 20
177.1120386673746
 30
0.0
 10
217.8177865827203
 20
176.8243117844612
 30
0.0
 10
217.7993392725179
 20
176.6336078662674
 30
0.0
 10
217.7005426106743
 20
176.0650892690913
 30
0.0
 10
217.5770038538051
 20
175.6907591551154
 30
0.0
 10
217.2511895120538
 20
175.1383306481754
 30
0.0
 10
217.1192509294497
 20
174.9557200212082
 30
0.0
 10
216.8772964013438
 20
174.6846341425364
 30
0.0
 10
216.7892720313883
 20
174.5947462606264
 30
0.0
 10
216.5963903764759
 20
174.4160399930915
 30
0.0
 10
216.491015658132
 20
174.3268382720144
 30
0.0
 10
215.9227812743341
 20
173.8893980693858
 30
0.0
 10
215.3404730451072
 20
173.5676898379088
 30
0.0
 10
213.8136873426811
 20
172.9972732189002
 30
0.0
 10
212.9165005309845
 20
172.767164570737
 30
0.0
 10
211.6573445172512
 20
172.5364780784473
 30
0.0
 10
211.3979866759728
 20
172.4931339072904
 30
0.0
 10
210.8751192827962
 20
172.4132113064383
 30
0.0
 10
210.6105797191913
 20
172.3764247941151
 30
0.0
 10
209.8086192820108
 20
172.2746495554271
 30
0.0
 10
209.2628967837149
 20
172.2182084792413
 30
0.0
 10
207.5982233635023
 20
172.0775608221944
 30
0.0
 10
206.4469618490982
 20
172.022459766666
 30
0.0
 10
204.1477850469049
 20
171.9652245082925
 30
0.0
 10
202.9935839320596
 20
171.9635535700331
 30
0.0
 10
201.8398133502234
 20
171.9635535700333
 30
0.0
  0
SPLINE
  5
187
330
1F
100
AcDbEntity
  8
0
  6
Continuous
 62
     8
370
    18
100
AcDbSpline
210
0.0
220
0.0
230
1.0
 70
     8
 71
     3
 72
    28
 73
    24
 74
     0
 42
0.00000001
 43
0.00000001
 40
0.0
 40
0.0
 40
0.0
 40
0.0
 40
0.1249999999999999
 40
0.1249999999999999
 40
0.1875
 40
0.1875
 40
0.2500000000000001
 40
0.2500000000000001
 40
0.3125000000000001
 40
0.3125000000000001
 40
0.3437500000000002
 40
0.3437500000000002
 40
0.3750000000000003
 40
0.3750000000000003
 40
0.5000000000000002
 40
0.5000000000000002
 40
0.6250000000000001
 40
0.6250000000000001
 40
0.7500000000000001
 40
0.7500000000000001
 40
0.875
 40
0.875
 40
1.0
 40
1.0
 40
1.0
 40
1.0
 10
201.8398133502237
 20
172.4333998804263
 30
0.0
 10
202.9527533378568
 20
172.4333998804261
 30
0.0
 10
204.0654714260248
 20
172.4347065794571
 30
0.0
 10
205.728058774538
 20
172.4748830072791
 30
0.0
 10
206.2812200277224
 20
172.4943671830264
 30
0.0
 10
207.3847577150044
 20
172.5497344942882
 30
0.0
 10
207.9331553399144
 20
172.5855613216561
 30
0.0
 10
209.0090151299779
 20
172.6761330465292
 30
0.0
 10
209.5381685914768
 20
172.7309148052726
 30
0.0
 10
210.3159112071786
 20
172.8303856281823
 30
0.0
 10
210.5724843050103
 20
172.8664362516269
 30
0.0
 10
211.0796394170558
 20
172.9450197112041
 30
0.0
 10
211.3313350843259
 20
172.9877689628902
 30
0.0
 10
212.5572545200962
 20
173.2169017964994
 30
0.0
 10
213.4292417630825
 20
173.4481683911361
 30
0.0
 10
214.9118552897575
 20
174.0259673511836
 30
0.0
 10
215.4757615798587
 20
174.3523854085811
 30
0.0
 10
216.3544532085024
 20
175.0549553945854
 30
0.0
 10
216.6623059928878
 20
175.4271266691062
 30
0.0
 10
217.0874873468589
 20
176.1734634264874
 30
0.0
 10
217.2064360692212
 20
176.5495600720558
 30
0.0
 10
217.3328531875079
 20
177.3052394517595
 30
0.0
 10
217.3378857449962
 20
177.6848983567207
 30
0.0
 10
217.3397876002945
 20
178.0646551615129
 30
0.0
  0
SPLINE
  5
188
330
1F
100
AcDbEntity
  8
0
  6
Continuous
 62
     8
370
    18
100
AcDbSpline
210
0.0
220
0.0
230
1.0
 70
    24
 71
     3
 72
    26
 73
    22
 74
     0
 42
0.00000001
 43
0.00000001
 40
0.0
 40
0.0
 40
0.0
 40
0.0
 40
0.0624999999999999
 40
0.0624999999999999
 40
0.1249999999999999
 40
0.1249999999999999
 40
0.2499999999999997
 40
0.2499999999999997
 40
0.3749999999999998
 40
0.3749999999999998
 40
0.4999999999999998
 40
0.4999999999999998
 40
0.6249999999999998
 40
0.6249999999999998
 40
0.7499999999999999
 40
0.7499999999999999
 40
0.875
 40
0.875
 40
0.9375
 40
0.9375
 40
1.0
 40
1.0
 40
1.0
 40
1.0
 10
201.8398133502203
 20
152.2309280786601
 30
0.0
 10
202.3996179014405
 20
152.23092807866
 30
0.0
 10
202.9598484848277
 20
152.23092807866
 30
0.0
 10
204.0866822480386
 20
152.2309280786598
 30
0.0
 10
204.6532031570894
 20
152.2309280786597
 30
0.0
 10
206.3572429175943
 20
152.2309280786594
 30
0.0
 10
207.5008958159367
 20
152.2309280786592
 30
0.0
 10
209.7112434120664
 20
152.2309280786588
 30
0.0
 10
210.7753054451165
 20
152.2309280786587
 30
0.0
 10
212.7075625416556
 20
152.2309280786583
 30
0.0
 10
213.5731249404074
 20
152.2309280786583
 30
0.0
 10
215.0470214851576
 20
152.230928078658
 30
0.0
 10
215.6592328292627
 20
152.2309280786579
 30
0.0
 10
216.6394303775079
 20
152.2309280786577
 30
0.0
 10
217.0067409812374
 20
152.2309280786577
 30
0.0
 10
217.5250780684046
 20
152.2309280786576
 30
0.0
 10
217.6754289514314
 20
152.2309280786576
 30
0.0
 10
217.7929315876906
 20
152.2309280786576
 30
0.0
 10
217.8145047063226
 20
152.2309280786575
 30
0.0
 10
217.8374318689834
 20
152.2309280786576
 30
0.0
 10
217.8387648004994
 20
152.2309280786576
 30
0.0
 10
217.8397867696474
 20
152.2309280786576
 30
0.0
  0
LINE
  5
189
330
1F
100
AcDbEntity
  8
0
  6
Continuous
 62
     8
370
    18
100
AcDbLine
 10
217.8397867697
 20
177.5948088511
 30
0.0
 11
217.8397867696
 21
152.2309280787
 31
0.0
  0
ARC
  5
18A
330
1F
100
AcDbEntity
  8
0
  6
Continuous
 62
     8
370
    18
100
AcDbCircle
 10
216.8397876003
 20
152.230927248
 30
0.0
 40
0.9999991693577539
100
AcDbArc
 50
270.0000475924
 51
0.0000475923
  0
SPLINE
  5
18B
330
1F
100
AcDbEntity
  8
0
  6
Continuous
 62
     8
370
    18
100
AcDbSpline
210
0.0
220
0.0
230
1.0
 70
    24
 71
     3
 72
    26
 73
    22
 74
     0
 42
0.00000001
 43
0.00000001
 40
0.0
 40
0.0
 40
0.0
 40
0.0
 40
0.0625000000000002
 40
0.0625000000000002
 40
0.1250000000000004
 40
0.1250000000000004
 40
0.2500000000000004
 40
0.2500000000000004
 40
0.3750000000000004
 40
0.3750000000000004
 40
0.5000000000000004
 40
0.5000000000000004
 40
0.6250000000000003
 40
0.6250000000000003
 40
0.7500000000000001
 40
0.7500000000000001
 40
0.875
 40
0.875
 40
0.9375
 40
0.9375
 40
1.0
 40
1.0
 40
1.0
 40
1.0
 10
168.8553336734959
 20
152.2309280786654
 30
0.0
 10
168.8563556426433
 20
152.2309280786654
 30
0.0
 10
168.8576885741588
 20
152.2309280786653
 30
0.0
 10
168.8806157368186
 20
152.2309280786654
 30
0.0
 10
168.9021888554501
 20
152.2309280786653
 30
0.0
 10
169.0196914917078
 20
152.2309280786653
 30
0.0
 10
169.1700423747337
 20
152.2309280786653
 30
0.0
 10
169.6883794618989
 20
152.2309280786652
 30
0.0
 10
170.0556900656274
 20
152.2309280786651
 30
0.0
 10
171.035887613871
 20
152.230928078665
 30
0.0
 10
171.6480989579753
 20
152.2309280786648
 30
0.0
 10
173.1219955027242
 20
152.2309280786647
 30
0.0
 10
173.9875579014754
 20
152.2309280786645
 30
0.0
 10
175.9198149980136
 20
152.2309280786642
 30
0.0
 10
176.9838770310635
 20
152.230928078664
 30
0.0
 10
179.1942246271927
 20
152.2309280786637
 30
0.0
 10
180.3378775255349
 20
152.2309280786635
 30
0.0
 10
182.0419172860396
 20
152.2309280786633
 30
0.0
 10
182.6084381950905
 20
152.2309280786632
 30
0.0
 10
183.7352719583014
 20
152.230928078663
 30
0.0
 10
184.2955025416885
 20
152.2309280786629
 30
0.0
 10
184.8553070929087
 20
152.2309280786628
 30
0.0
  0
LINE
  5
18C
330
1F
100
AcDbEntity
  8
0
  6
Continuous
 62
     8
370
    18
100
AcDbLine
 10
168.8553336735
 20
177.5948088511
 30
0.0
 11
168.8553336735
 21
152.2309280787
 31
0.0
  0
SPLINE
  5
18D
330
1F
100
AcDbEntity
  8
0
  6
Continuous
 62
     8
370
    18
100
AcDbSpline
210
0.0
220
0.0
230
1.0
 70
     8
 71
     3
 72
    38
 73
    34
 74
     0
 42
0.00000001
 43
0.00000001
 40
0.0
 40
0.0
 40
0.0
 40
0.0
 40
0.1249999999999994
 40
0.1249999999999994
 40
0.2499999999999988
 40
0.2499999999999988
 40
0.3124999999999984
 40
0.3124999999999984
 40
0.3749999999999981
 40
0.3749999999999981
 40
0.4062499999999981
 40
0.4062499999999981
 40
0.4374999999999981
 40
0.4374999999999981
 40
0.4999999999999982
 40
0.4999999999999982
 40
0.5624999999999983
 40
0.5624999999999983
 40
0.6249999999999984
 40
0.6249999999999984
 40
0.6874999999999987
 40
0.6874999999999987
 40
0.7499999999999988
 40
0.7499999999999988
 40
0.8749999999999994
 40
0.8749999999999994
 40
0.9374999999999999
 40
0.9374999999999999
 40
0.96875
 40
0.96875
 40
0.984375
 40
0.984375
 40
1.0
 40
1.0
 40
1.0
 40
1.0
 10
184.8553070929118
 20
171.9635535700361
 30
0.0
 10
183.7137275303031
 20
171.9635535700363
 30
0.0
 10
182.572572263375
 20
171.965202903926
 30
0.0
 10
180.3045380323993
 20
172.0204711050563
 30
0.0
 10
179.1772756100564
 20
172.0726814973499
 30
0.0
 10
177.5032519155416
 20
172.2113437877247
 30
0.0
 10
176.9539968700649
 20
172.2672373640173
 30
0.0
 10
175.8857759661113
 20
172.4006345025772
 30
0.0
 10
175.3653879030327
 20
172.4782180542049
 30
0.0
 10
174.6098342244198
 20
172.6141849507295
 30
0.0
 10
174.3612451378811
 20
172.6630147099357
 30
0.0
 10
173.8817355632834
 20
172.7660944124585
 30
0.0
 10
173.6500228244912
 20
172.8204555099605
 30
0.0
 10
172.9797143852831
 20
172.9922648175218
 30
0.0
 10
172.5660669987411
 20
173.1184425917015
 30
0.0
 10
171.807530504286
 20
173.3957024863066
 30
0.0
 10
171.4609235687076
 20
173.5481305877128
 30
0.0
 10
170.8548929737061
 20
173.8662642387368
 30
0.0
 10
170.5917699816677
 20
174.032881272411
 30
0.0
 10
170.1314841510129
 20
174.379051059231
 30
0.0
 10
169.9343914298906
 20
174.5589998392364
 30
0.0
 10
169.6025328191486
 20
174.9217417526111
 30
0.0
 10
169.4662656242305
 20
175.1055847388402
 30
0.0
 10
169.1290368660295
 20
175.663178175465
 30
0.0
 10
169.0000445161115
 20
176.0431108906667
 30
0.0
 10
168.8971213863055
 20
176.6214347237376
 30
0.0
 10
168.8780248128246
 20
176.8149404794331
 30
0.0
 10
168.8627043293882
 20
177.1064571334733
 30
0.0
 10
168.8597913143501
 20
177.2038176375792
 30
0.0
 10
168.8572115451142
 20
177.3501841886475
 30
0.0
 10
168.8566474730627
 20
177.3990273790254
 30
0.0
 10
168.8558313234943
 20
177.4968296313951
 30
0.0
 10
168.8555770683691
 20
177.5462138433534
 30
0.0
 10
168.8553336734998
 20
177.5948088511278
 30
0.0
  0
ARC
  5
18E
330
1F
100
AcDbEntity
  8
0
  6
Continuous
 62
     8
370
    18
100
AcDbCircle
 10
169.8553328429
 20
152.230927248
 30
0.0
 40
0.9999991693571855
100
AcDbArc
 50
179.9999524076
 51
269.9999524076
  0
SPLINE
  5
18F
330
1F
100
AcDbEntity
  8
0
  6
Continuous
 62
     8
370
    18
100
AcDbSpline
210
0.0
220
0.0
230
1.0
 70
     8
 71
     3
 72
    32
 73
    28
 74
     0
 42
0.00000001
 43
0.00000001
 40
0.0
 40
0.0
 40
0.0
 40
0.0
 40
0.1249999999999995
 40
0.1249999999999995
 40
0.249999999999999
 40
0.249999999999999
 40
0.3124999999999987
 40
0.3124999999999987
 40
0.3749999999999984
 40
0.3749999999999984
 40
0.4374999999999981
 40
0.4374999999999981
 40
0.4999999999999978
 40
0.4999999999999978
 40
0.5624999999999976
 40
0.5624999999999976
 40
0.5937499999999977
 40
0.5937499999999977
 40
0.6249999999999977
 40
0.6249999999999977
 40
0.687499999999998
 40
0.687499999999998
 40
0.7499999999999983
 40
0.7499999999999983
 40
0.8749999999999991
 40
0.8749999999999991
 40
1.0
 40
1.0
 40
1.0
 40
1.0
 10
169.3553328428567
 20
178.0646551615169
 30
0.0
 10
169.3572417306074
 20
177.6834941373408
 30
0.0
 10
169.3621854308983
 20
177.3023572320882
 30
0.0
 10
169.4906845251521
 20
176.5410260782806
 30
0.0
 10
169.6119817715945
 20
176.1634739696911
 30
0.0
 10
169.93115514363
 20
175.6067893008832
 30
0.0
 10
170.0603214864008
 20
175.4227459830432
 30
0.0
 10
170.3754554636155
 20
175.058445827079
 30
0.0
 10
170.5628362391982
 20
174.877074009736
 30
0.0
 10
171.0022950734588
 20
174.5261876906147
 30
0.0
 10
171.2539662260508
 20
174.3565665782342
 30
0.0
 10
171.8354171244856
 20
174.0315612729306
 30
0.0
 10
172.1690708835021
 20
173.8750915197859
 30
0.0
 10
172.9022922511094
 20
173.5904010395537
 30
0.0
 10
173.3032434982159
 20
173.4609891573733
 30
0.0
 10
173.9545612566272
 20
173.2856612620178
 30
0.0
 10
174.1799452294904
 20
173.2303363143136
 30
0.0
 10
174.6467616713925
 20
173.1257306105377
 30
0.0
 10
174.8887603749195
 20
173.0763838519393
 30
0.0
 10
175.6240518456348
 20
172.9394809449583
 30
0.0
 10
176.1307457382867
 20
172.8619580512611
 30
0.0
 10
177.1710351214003
 20
172.7293238412358
 30
0.0
 10
177.7065588539208
 20
172.6740946288029
 30
0.0
 10
179.3346640353063
 20
172.5380040783639
 30
0.0
 10
180.4309003360918
 20
172.4876612068625
 30
0.0
 10
182.6361825368555
 20
172.4347288340554
 30
0.0
 10
183.7455665723512
 20
172.4333998804292
 30
0.0
 10
184.8553070929122
 20
172.433399880429
 30
0.0
  0
ELLIPSE
  5
190
330
1F
100
AcDbEntity
  8
0
  6
Continuous
 62
     8
370
    18
100
AcDbEllipse
 10
-4461.3291470319
 20
181.1686855036
 30
0.0
 11
4678.67670725352
 21
1.122373305406654E-10
 31
0.0
210
0.0
220
0.0
230
1.0
 40
0.3639702343
 41
6.281362514426322
 42
6.281982349092986
  0
LINE
  5
191
330
1F
100
AcDbEntity
  8
0
  6
Continuous
 62
     8
370
    18
100
AcDbLine
 10
184.8553070929
 20
172.4333998804
 30
0.0
 11
201.8398133502
 21
172.4333998804
 31
0.0
  0
ELLIPSE
  5
192
330
1F
100
AcDbEntity
  8
0
  6
Continuous
 62
     8
370
    18
100
AcDbEllipse
 10
4848.0242674751
 20
181.1686855021
 30
0.0
 11
4678.676707253518
 21
1.122373305406654E-10
 31
0.0
210
0.0
220
0.0
230
1.0
 40
0.3639702343
 41
3.142795611675455
 42
3.14341544634212
  0
LINE
  5
193
330
1F
100
AcDbEntity
  8
0
  6
Continuous
 62
     8
370
    18
100
AcDbLine
 10
193.3475602216
 20
190.9309280787
 30
0.0
 11
168.8475602216
 21
190.9309280787
 31
0.0
  0
LINE
  5
194
330
1F
100
AcDbEntity
  8
0
  6
Continuous
 62
     8
370
    18
100
AcDbLine
 10
217.8475602216
 20
190.9309280787
 30
0.0
 11
193.3475602216
 21
190.9309280787
 31
0.0
  0
LINE
  5
195
330
1F
100
AcDbEntity
  8
0
  6
Continuous
 62
     8
370
    18
100
AcDbLine
 10
184.8553070929
 20
152.2309280787
 30
0.0
 11
201.8398133502
 21
152.2309280787
 31
0.0
  0
LINE
  5
196
330
1F
100
AcDbEntity
  8
0
  6
Continuous
 62
     8
370
    18
100
AcDbLine
 10
201.8398133502
 20
171.96355357
 30
0.0
 11
184.8553070929
 21
171.96355357
 31
0.0
  0
ELLIPSE
  5
197
330
1F
100
AcDbEntity
  8
0
  6
Continuous
 62
     8
370
    18
100
AcDbEllipse
 10
-4461.3291470319
 20
180.6988391932
 30
0.0
 11
4679.176707253519
 21
1.121236437029438E-10
 31
0.0
210
0.0
220
0.0
230
1.0
 40
0.3639313417
 41
6.281362514426323
 42
6.281982349092985
  0
ELLIPSE
  5
198
330
1F
100
AcDbEntity
  8
0
  6
Continuous
 62
     8
370
    18
100
AcDbEllipse
 10
4848.0242674751
 20
180.6988391917
 30
0.0
 11
4679.176707253518
 21
1.120952219935134E-10
 31
0.0
210
0.0
220
0.0
230
1.0
 40
0.3639313417
 41
3.142795611675456
 42
3.143415446342121
  0
LINE
  5
199
330
1F
100
AcDbEntity
  8
0
  6
Continuous
 62
     8
370
    18
100
AcDbLine
 10
217.8397867696
 20
152.2309280787
 30
0.0
 11
217.8475602216
 21
152.2309280787
 31
0.0
  0
SPLINE
  5
19A
330
1F
100
AcDbEntity
  8
0
  6
Continuous
 62
     8
370
    18
100
AcDbSpline
210
0.0
220
0.0
230
1.0
 70
     8
 71
     3
 72
     9
 73
     5
 74
     0
 42
0.00000001
 43
0.00000001
 40
0.0
 40
0.0
 40
0.0
 40
0.0
 40
0.4761661282583119
 40
1.0
 40
1.0
 40
1.0
 40
1.0
 10
217.8474811438135
 20
180.1630539210352
 30
0.0
 10
217.8473748768313
 20
179.9832147169913
 30
0.0
 10
217.8471517047576
 20
179.6055330773885
 30
0.0
 10
217.8451980008684
 20
178.9786868054092
 30
0.0
 10
217.8441745845959
 20
178.6503234957715
 30
0.0
  0
LINE
  5
19B
330
1F
100
AcDbEntity
  8
0
  6
Continuous
 62
     8
370
    18
100
AcDbLine
 10
168.8475602216
 20
152.2309280787
 30
0.0
 11
168.8553336735
 21
152.2309280787
 31
0.0
  0
SPLINE
  5
19C
330
1F
100
AcDbEntity
  8
0
  6
Continuous
 62
     8
370
    18
100
AcDbSpline
210
0.0
220
0.0
230
1.0
 70
     8
 71
     3
 72
     9
 73
     5
 74
     0
 42
0.00000001
 43
0.00000001
 40
0.0
 40
0.0
 40
0.0
 40
0.0
 40
0.5059943505024346
 40
0.9999999999999999
 40
0.9999999999999999
 40
0.9999999999999999
 40
0.9999999999999999
 10
168.8509458585599
 20
178.6503234957792
 30
0.0
 10
168.8499557505388
 20
178.9677134918999
 30
0.0
 10
168.847998993472
 20
179.5949734520271
 30
0.0
 10
168.8477233447586
 20
179.9802359080354
 30
0.0
 10
168.847587172737
 20
180.1705577378428
 30
0.0
  0
SPLINE
  5
19D
330
1F
100
AcDbEntity
  8
0
  6
Continuous
 62
     8
370
    18
100
AcDbSpline
210
0.0
220
0.0
230
1.0
 70
     8
 71
     3
 72
    10
 73
     6
 74
     0
 42
0.00000001
 43
0.00000001
 40
0.0
 40
0.0
 40
0.0
 40
0.0
 40
0.5
 40
0.5
 40
1.0
 40
1.0
 40
1.0
 40
1.0
 10
217.3441749463732
 20
179.1201698061645
 30
0.0
 10
217.3464671498258
 20
179.8237559440897
 30
0.0
 10
217.3476326418879
 20
180.3474064367015
 30
0.0
 10
217.3474808313559
 20
181.0509925043549
 30
0.0
 10
217.3461647092277
 20
181.2309280786577
 30
0.0
 10
217.3434899743753
 20
181.2309280786577
 30
0.0
  0
SPLINE
  5
19E
330
1F
100
AcDbEntity
  8
0
  6
Continuous
 62
     8
370
    18
100
AcDbSpline
210
0.0
220
0.0
230
1.0
 70
     8
 71
     3
 72
    10
 73
     6
 74
     0
 42
0.00000001
 43
0.00000001
 40
0.0
 40
0.0
 40
0.0
 40
0.0
 40
0.5000000000000004
 40
0.5000000000000004
 40
1.0
 40
1.0
 40
1.0
 40
1.0
 10
169.3516304687935
 20
181.2309280786652
 30
0.0
 10
169.3489557339393
 20
181.2309280786652
 30
0.0
 10
169.3476396118084
 20
181.0509925043624
 30
0.0
 10
169.3474878012726
 20
180.347406436709
 30
0.0
 10
169.3486532933322
 20
179.8237559440972
 30
0.0
 10
169.3509454967829
 20
179.1201698061721
 30
0.0
  0
ENDSEC
  0
SECTION
  2
OBJECTS
  0
DICTIONARY
  5
C
330
0
100
AcDbDictionary
281
     1
  3
ACAD_GROUP
350
D
  3
ACAD_LAYOUT
350
1A
  3
ACAD_MLINESTYLE
350
17
  3
ACAD_PLOTSETTINGS
350
19
  3
ACAD_PLOTSTYLENAME
350
E
  3
ACAD_SCALELIST
350
47
  3
DWGPROPS
350
19F
  0
DICTIONARY
  5
D
102
{ACAD_REACTORS
330
C
102
}
330
C
100
AcDbDictionary
281
     1
  0
DICTIONARY
  5
1A
102
{ACAD_REACTORS
330
C
102
}
330
C
100
AcDbDictionary
281
     1
  3
Layout1
350
1E
  3
Layout2
350
26
  3
Model
350
22
  0
DICTIONARY
  5
17
102
{ACAD_REACTORS
330
C
102
}
330
C
100
AcDbDictionary
281
     1
  3
Standard
350
18
  0
DICTIONARY
  5
19
102
{ACAD_REACTORS
330
C
102
}
330
C
100
AcDbDictionary
281
     1
  0
ACDBDICTIONARYWDFLT
  5
E
102
{ACAD_REACTORS
330
C
102
}
330
C
100
AcDbDictionary
281
     1
  3
Normal
350
F
100
AcDbDictionaryWithDefault
340
F
  0
DICTIONARY
  5
47
102
{ACAD_REACTORS
330
C
102
}
330
C
100
AcDbDictionary
281
     1
  3
A0
350
48
  3
A1
350
49
  3
A2
350
4A
  3
A3
350
4B
  3
A4
350
4C
  3
A5
350
4D
  3
A6
350
4E
  3
A7
350
4F
  3
A8
350
50
  3
A9
350
51
  3
B0
350
52
  3
B1
350
53
  3
B2
350
54
  3
B3
350
55
  3
B4
350
56
  3
B5
350
57
  3
B6
350
58
  0
XRECORD
  5
19F
102
{ACAD_REACTORS
330
C
102
}
330
C
100
AcDbXrecord
280
     1
  1
DWGPROPS COOKIE
  2

  3

  4

  6

  7

  8
fue-task
  9

300
=
301
=
302
=
303
=
304
=
305
=
306
=
307
=
308
=
309
=
 40
0.0
 41
2460334.571009988
 42
2460334.571011794
  1

 90
        0
  0
LAYOUT
  5
1E
102
{ACAD_REACTORS
330
1A
102
}
330
1A
100
AcDbPlotSettings
  1

  2
none_device
  4

  6

 40
0.0
 41
0.0
 42
0.0
 43
0.0
 44
0.0
 45
0.0
 46
0.0
 47
0.0
 48
0.0
 49
0.0
140
0.0
141
0.0
142
1.0
143
1.0
 70
   688
 72
     1
 73
     0
 74
     5
  7

 75
    16
147
1.0
148
0.0
149
0.0
100
AcDbLayout
  1
Layout1
 70
     1
 71
     1
 10
0.0
 20
0.0
 11
420.0
 21
297.0
 12
0.0
 22
0.0
 32
0.0
 14
1.0000000000E+20
 24
1.0000000000E+20
 34
1.0000000000E+20
 15
-1.0000000000E+20
 25
-1.0000000000E+20
 35
-1.0000000000E+20
146
0.0
 13
0.0
 23
0.0
 33
0.0
 16
1.0
 26
0.0
 36
0.0
 17
0.0
 27
1.0
 37
0.0
 76
     0
330
1B
  0
LAYOUT
  5
26
102
{ACAD_REACTORS
330
1A
102
}
330
1A
100
AcDbPlotSettings
  1

  2
none_device
  4

  6

 40
0.0
 41
0.0
 42
0.0
 43
0.0
 44
0.0
 45
0.0
 46
0.0
 47
0.0
 48
0.0
 49
0.0
140
0.0
141
0.0
142
1.0
143
1.0
 70
   688
 72
     1
 73
     0
 74
     5
  7

 75
    16
147
1.0
148
0.0
149
0.0
100
AcDbLayout
  1
Layout2
 70
     1
 71
     2
 10
0.0
 20
0.0
 11
0.0
 21
0.0
 12
0.0
 22
0.0
 32
0.0
 14
0.0
 24
0.0
 34
0.0
 15
0.0
 25
0.0
 35
0.0
146
0.0
 13
0.0
 23
0.0
 33
0.0
 16
1.0
 26
0.0
 36
0.0
 17
0.0
 27
1.0
 37
0.0
 76
     0
330
23
  0
LAYOUT
  5
22
102
{ACAD_REACTORS
330
1A
102
}
330
1A
100
AcDbPlotSettings
  1

  2
none_device
  4
Letter_(8.50_x_11.00_Inches)
  6

 40
6.35
 41
6.35
 42
6.35000508
 43
6.35000508
 44
215.9
 45
279.4
 46
0.0
 47
0.0
 48
0.0
 49
0.0
140
0.0
141
0.0
142
1.0
143
1.0
 70
  1712
 72
     1
 73
     0
 74
     0
  7

 75
     0
147
1.0
148
0.0
149
0.0
100
AcDbLayout
  1
Model
 70
     1
 71
     0
 10
0.0
 20
0.0
 11
594.0
 21
841.0
 12
0.0
 22
0.0
 32
0.0
 14
0.0
 24
0.0
 34
0.0
 15
594.0
 25
841.0
 35
0.0
146
0.0
 13
0.0
 23
0.0
 33
0.0
 16
1.0
 26
0.0
 36
0.0
 17
0.0
 27
1.0
 37
0.0
 76
     0
330
1F
331
29
  0
MLINESTYLE
  5
18
102
{ACAD_REACTORS
330
17
102
}
330
17
100
AcDbMlineStyle
  2
Standard
 70
     0
  3

 62
   256
 51
90.0
 52
90.0
 71
     2
 49
0.5
 62
   256
  6
BYLAYER
 49
-0.5
 62
   256
  6
BYLAYER
  0
ACDBPLACEHOLDER
  5
F
102
{ACAD_REACTORS
330
E
102
}
330
E
  0
SCALE
  5
48
102
{ACAD_REACTORS
330
47
102
}
330
47
100
AcDbScale
 70
     0
300
1:1
140
1.0
141
1.0
290
     1
  0
SCALE
  5
49
102
{ACAD_REACTORS
330
47
102
}
330
47
100
AcDbScale
 70
     0
300
1:2
140
1.0
141
2.0
290
     0
  0
SCALE
  5
4A
102
{ACAD_REACTORS
330
47
102
}
330
47
100
AcDbScale
 70
     0
300
1:4
140
1.0
141
4.0
290
     0
  0
SCALE
  5
4B
102
{ACAD_REACTORS
330
47
102
}
330
47
100
AcDbScale
 70
     0
300
1:5
140
1.0
141
5.0
290
     0
  0
SCALE
  5
4C
102
{ACAD_REACTORS
330
47
102
}
330
47
100
AcDbScale
 70
     0
300
1:8
140
1.0
141
8.0
290
     0
  0
SCALE
  5
4D
102
{ACAD_REACTORS
330
47
102
}
330
47
100
AcDbScale
 70
     0
300
1:10
140
1.0
141
10.0
290
     0
  0
SCALE
  5
4E
102
{ACAD_REACTORS
330
47
102
}
330
47
100
AcDbScale
 70
     0
300
1:16
140
1.0
141
16.0
290
     0
  0
SCALE
  5
4F
102
{ACAD_REACTORS
330
47
102
}
330
47
100
AcDbScale
 70
     0
300
1:20
140
1.0
141
20.0
290
     0
  0
SCALE
  5
50
102
{ACAD_REACTORS
330
47
102
}
330
47
100
AcDbScale
 70
     0
300
1:30
140
1.0
141
30.0
290
     0
  0
SCALE
  5
51
102
{ACAD_REACTORS
330
47
102
}
330
47
100
AcDbScale
 70
     0
300
1:40
140
1.0
141
40.0
290
     0
  0
SCALE
  5
52
102
{ACAD_REACTORS
330
47
102
}
330
47
100
AcDbScale
 70
     0
300
1:50
140
1.0
141
50.0
290
     0
  0
SCALE
  5
53
102
{ACAD_REACTORS
330
47
102
}
330
47
100
AcDbScale
 70
     0
300
1:100
140
1.0
141
100.0
290
     0
  0
SCALE
  5
54
102
{ACAD_REACTORS
330
47
102
}
330
47
100
AcDbScale
 70
     0
300
2:1
140
2.0
141
1.0
290
     0
  0
SCALE
  5
55
102
{ACAD_REACTORS
330
47
102
}
330
47
100
AcDbScale
 70
     0
300
4:1
140
4.0
141
1.0
290
     0
  0
SCALE
  5
56
102
{ACAD_REACTORS
330
47
102
}
330
47
100
AcDbScale
 70
     0
300
8:1
140
8.0
141
1.0
290
     0
  0
SCALE
  5
57
102
{ACAD_REACTORS
330
47
102
}
330
47
100
AcDbScale
 70
     0
300
10:1
140
10.0
141
1.0
290
     0
  0
SCALE
  5
58
102
{ACAD_REACTORS
330
47
102
}
330
47
100
AcDbScale
 70
     0
300
100:1
140
100.0
141
1.0
290
     0
  0
ENDSEC
  0
EOF
