  0
SECTION
  2
HEADER
  9
$ACADVER
  1
AC1024
  9
$ACADMAINTVER
 70
     6
  9
$DWGCODEPAGE
  3
ANSI_1252
  9
$INSBASE
 10
0.0
 20
0.0
 30
0.0
  9
$EXTMIN
 10
0.0
 20
0.0
 30
0.0
  9
$EXTMAX
 10
594.0
 20
841.0
 30
0.0
  9
$LIMMIN
 10
0.0
 20
0.0
  9
$LIMMAX
 10
594.0
 20
841.0
  9
$ORTHOMODE
 70
     0
  9
$REGENMODE
 70
     1
  9
$FILLMODE
 70
     1
  9
$QTEXTMODE
 70
     0
  9
$MIRRTEXT
 70
     1
  9
$LTSCALE
 40
1.0
  9
$ATTMODE
 70
     1
  9
$TEXTSIZE
 40
10.0
  9
$TRACEWID
 40
1.0
  9
$TEXTSTYLE
  7
Standard
  9
$CLAYER
  8
0
  9
$CELTYPE
  6
ByLayer
  9
$CECOLOR
 62
   256
  9
$CELTSCALE
 40
1.0
  9
$DISPSILH
 70
     0
  9
$DIMSCALE
 40
1.0
  9
$DIMASZ
 40
2.5
  9
$DIMEXO
 40
0.0
  9
$DIMDLI
 40
3.75
  9
$DIMRND
 40
0.0
  9
$DIMDLE
 40
0.0
  9
$DIMEXE
 40
1.0
  9
$DIMTP
 40
0.0
  9
$DIMTM
 40
0.0
  9
$DIMTXT
 40
3.5
  9
$DIMCEN
 40
2.5
  9
$DIMTSZ
 40
0.0
  9
$DIMTOL
 70
     0
  9
$DIMLIM
 70
     0
  9
$DIMTIH
 70
     1
  9
$DIMTOH
 70
     1
  9
$DIMSE1
 70
     0
  9
$DIMSE2
 70
     0
  9
$DIMTAD
 70
     1
  9
$DIMZIN
 70
     0
  9
$DIMBLK
  1

  9
$DIMASO
 70
     1
  9
$DIMSHO
 70
     1
  9
$DIMPOST
  1

  9
$DIMAPOST
  1

  9
$DIMALT
 70
     0
  9
$DIMALTD
 70
     3
  9
$DIMALTF
 40
0.0393700787
  9
$DIMLFAC
 40
1.0
  9
$DIMTOFL
 70
     1
  9
$DIMTVP
 40
0.0
  9
$DIMTIX
 70
     0
  9
$DIMSOXD
 70
     0
  9
$DIMSAH
 70
     0
  9
$DIMBLK1
  1

  9
$DIMBLK2
  1

  9
$DIMSTYLE
  2
ISO-25
  9
$DIMCLRD
 70
     0
  9
$DIMCLRE
 70
     0
  9
$DIMCLRT
 70
     0
  9
$DIMTFAC
 40
1.0
  9
$DIMGAP
 40
1.5
  9
$DIMJUST
 70
     0
  9
$DIMSD1
 70
     0
  9
$DIMSD2
 70
     0
  9
$DIMTOLJ
 70
     0
  9
$DIMTZIN
 70
     0
  9
$DIMALTZ
 70
     0
  9
$DIMALTTZ
 70
     0
  9
$DIMUPT
 70
     0
  9
$DIMDEC
 70
     2
  9
$DIMTDEC
 70
     2
  9
$DIMALTU
 70
     2
  9
$DIMALTTD
 70
     3
  9
$DIMTXSTY
  7
Standard
  9
$DIMAUNIT
 70
     0
  9
$DIMADEC
 70
     2
  9
$DIMALTRND
 40
0.0
  9
$DIMAZIN
 70
     0
  9
$DIMDSEP
 70
    44
  9
$DIMATFIT
 70
     3
  9
$DIMFRAC
 70
     0
  9
$DIMLDRBLK
  1

  9
$DIMLUNIT
 70
     2
  9
$DIMLWD
 70
    -2
  9
$DIMLWE
 70
    -2
  9
$DIMTMOVE
 70
     0
  9
$DIMFXL
 40
1.0
  9
$DIMFXLON
 70
     0
  9
$DIMJOGANG
 40
0.7853981634
  9
$DIMTFILL
 70
     0
  9
$DIMTFILLCLR
 70
     0
  9
$DIMARCSYM
 70
     0
  9
$DIMLTYPE
  6

  9
$DIMLTEX1
  6

  9
$DIMLTEX2
  6

  9
$DIMTXTDIRECTION
 70
     0
  9
$LUNITS
 70
     2
  9
$LUPREC
 70
     2
  9
$SKETCHINC
 40
1.0
  9
$FILLETRAD
 40
10.0
  9
$AUNITS
 70
     0
  9
$AUPREC
 70
     2
  9
$MENU
  1
.
  9
$ELEVATION
 40
0.0
  9
$PELEVATION
 40
0.0
  9
$THICKNESS
 40
0.0
  9
$LIMCHECK
 70
     0
  9
$CHAMFERA
 40
10.0
  9
$CHAMFERB
 40
10.0
  9
$CHAMFERC
 40
20.0
  9
$CHAMFERD
 40
0.0
  9
$SKPOLY
 70
     0
  9
$TDCREATE
 40
2456211.306846562
  9
$TDUCREATE
 40
2456211.223513229
  9
$TDUPDATE
 40
2456211.306846574
  9
$TDUUPDATE
 40
2456211.223513241
  9
$TDINDWG
 40
0.0000000116
  9
$TDUSRTIMER
 40
0.0000000116
  9
$USRTIMER
 70
     1
  9
$ANGBASE
 50
0.0
  9
$ANGDIR
 70
     0
  9
$PDMODE
 70
     0
  9
$PDSIZE
 40
-1.0
  9
$PLINEWID
 40
0.0
  9
$SPLFRAME
 70
     0
  9
$SPLINETYPE
 70
     6
  9
$SPLINESEGS
 70
     8
  9
$HANDSEED
  5
1A6
  9
$SURFTAB1
 70
     6
  9
$SURFTAB2
 70
     6
  9
$SURFTYPE
 70
     6
  9
$SURFU
 70
     6
  9
$SURFV
 70
     6
  9
$UCSBASE
  2

  9
$UCSNAME
  2

  9
$UCSORG
 10
0.0
 20
0.0
 30
0.0
  9
$UCSXDIR
 10
1.0
 20
0.0
 30
0.0
  9
$UCSYDIR
 10
0.0
 20
1.0
 30
0.0
  9
$UCSORTHOREF
  2

  9
$UCSORTHOVIEW
 70
     0
  9
$UCSORGTOP
 10
0.0
 20
0.0
 30
0.0
  9
$UCSORGBOTTOM
 10
0.0
 20
0.0
 30
0.0
  9
$UCSORGLEFT
 10
0.0
 20
0.0
 30
0.0
  9
$UCSORGRIGHT
 10
0.0
 20
0.0
 30
0.0
  9
$UCSORGFRONT
 10
0.0
 20
0.0
 30
0.0
  9
$UCSORGBACK
 10
0.0
 20
0.0
 30
0.0
  9
$PUCSBASE
  2

  9
$PUCSNAME
  2

  9
$PUCSORG
 10
0.0
 20
0.0
 30
0.0
  9
$PUCSXDIR
 10
1.0
 20
0.0
 30
0.0
  9
$PUCSYDIR
 10
0.0
 20
1.0
 30
0.0
  9
$PUCSORTHOREF
  2

  9
$PUCSORTHOVIEW
 70
     0
  9
$PUCSORGTOP
 10
0.0
 20
0.0
 30
0.0
  9
$PUCSORGBOTTOM
 10
0.0
 20
0.0
 30
0.0
  9
$PUCSORGLEFT
 10
0.0
 20
0.0
 30
0.0
  9
$PUCSORGRIGHT
 10
0.0
 20
0.0
 30
0.0
  9
$PUCSORGFRONT
 10
0.0
 20
0.0
 30
0.0
  9
$PUCSORGBACK
 10
0.0
 20
0.0
 30
0.0
  9
$USERI1
 70
     0
  9
$USERI2
 70
     0
  9
$USERI3
 70
     0
  9
$USERI4
 70
     0
  9
$USERI5
 70
     0
  9
$USERR1
 40
0.0
  9
$USERR2
 40
0.0
  9
$USERR3
 40
0.0
  9
$USERR4
 40
0.0
  9
$USERR5
 40
0.0
  9
$WORLDVIEW
 70
     1
  9
$SHADEDGE
 70
     3
  9
$SHADEDIF
 70
    70
  9
$TILEMODE
 70
     1
  9
$MAXACTVP
 70
    64
  9
$PINSBASE
 10
0.0
 20
0.0
 30
0.0
  9
$PLIMCHECK
 70
     0
  9
$PEXTMIN
 10
1.0000000000E+20
 20
1.0000000000E+20
 30
1.0000000000E+20
  9
$PEXTMAX
 10
-1.0000000000E+20
 20
-1.0000000000E+20
 30
-1.0000000000E+20
  9
$PLIMMIN
 10
0.0
 20
0.0
  9
$PLIMMAX
 10
420.0
 20
297.0
  9
$UNITMODE
 70
     0
  9
$VISRETAIN
 70
     1
  9
$PLINEGEN
 70
     0
  9
$PSLTSCALE
 70
     1
  9
$TREEDEPTH
 70
  3020
  9
$CMLSTYLE
  2
Standard
  9
$CMLJUST
 70
     0
  9
$CMLSCALE
 40
20.0
  9
$PROXYGRAPHICS
 70
     1
  9
$MEASUREMENT
 70
     1
  9
$CELWEIGHT
370
    -1
  9
$ENDCAPS
280
     0
  9
$JOINSTYLE
280
     0
  9
$LWDISPLAY
290
     1
  9
$INSUNITS
 70
     4
  9
$HYPERLINKBASE
  1

  9
$STYLESHEET
  1

  9
$XEDIT
290
     1
  9
$CEPSNTYPE
380
     0
  9
$PSTYLEMODE
290
     1
  9
$FINGERPRINTGUID
  2
{F7179C2E-AB1D-4456-B855-A585EF4B1968}
  9
$VERSIONGUID
  2
{FAEB1C32-E019-11D5-929B-00C0DF256EC4}
  9
$EXTNAMES
290
     1
  9
$PSVPSCALE
 40
0.0
  9
$OLESTARTUP
290
     0
  9
$SORTENTS
280
   127
  9
$INDEXCTL
280
     0
  9
$HIDETEXT
280
     1
  9
$XCLIPFRAME
280
     2
  9
$HALOGAP
280
     0
  9
$OBSCOLOR
 70
   257
  9
$OBSLTYPE
280
     0
  9
$INTERSECTIONDISPLAY
280
     0
  9
$INTERSECTIONCOLOR
 70
   257
  9
$DIMASSOC
280
     2
  9
$PROJECTNAME
  1

  9
$CAMERADISPLAY
290
     0
  9
$LENSLENGTH
 40
50.0
  9
$CAMERAHEIGHT
 40
0.0
  9
$STEPSPERSEC
 40
2.0
  9
$STEPSIZE
 40
6.0
  9
$3DDWFPREC
 40
2.0
  9
$PSOLWIDTH
 40
5.0
  9
$PSOLHEIGHT
 40
80.0
  9
$LOFTANG1
 40
1.5707963268
  9
$LOFTANG2
 40
1.5707963268
  9
$LOFTMAG1
 40
0.0
  9
$LOFTMAG2
 40
0.0
  9
$LOFTPARAM
 70
     7
  9
$LOFTNORMALS
280
     1
  9
$LATITUDE
 40
37.795
  9
$LONGITUDE
 40
-122.394
  9
$NORTHDIRECTION
 40
0.0
  9
$TIMEZONE
 70
 -8000
  9
$LIGHTGLYPHDISPLAY
280
     1
  9
$TILEMODELIGHTSYNCH
280
     1
  9
$SOLIDHIST
280
     1
  9
$SHOWHIST
280
     1
  9
$DWFFRAME
280
     2
  9
$DGNFRAME
280
     2
  9
$REALWORLDSCALE
290
     1
  9
$INTERFERECOLOR
 62
   256
  9
$CSHADOW
280
     0
  9
$SHADOWPLANELOCATION
 40
0.0
  0
ENDSEC
  0
SECTION
  2
CLASSES
  0
CLASS
  1
ACDBDICTIONARYWDFLT
  2
AcDbDictionaryWithDefault
  3
ObjectDBX Classes
 90
        0
 91
        4
280
     0
281
     0
  0
CLASS
  1
VISUALSTYLE
  2
AcDbVisualStyle
  3
ObjectDBX Classes
 90
     4095
 91
        4
280
     0
281
     0
  0
CLASS
  1
MATERIAL
  2
AcDbMaterial
  3
ObjectDBX Classes
 90
     1153
 91
        4
280
     0
281
     0
  0
ENDSEC
  0
SECTION
  2
TABLES
  0
TABLE
  2
VPORT
  5
8
330
0
100
AcDbSymbolTable
 70
     1
  0
VPORT
  5
29
330
8
100
AcDbSymbolTableRecord
100
AcDbViewportTableRecord
  2
*Active
 70
     0
 10
0.0
 20
0.0
 11
1.0
 21
1.0
 12
297.0
 22
420.5
 13
0.0
 23
0.0
 14
10.0
 24
10.0
 15
10.0
 25
10.0
 16
0.0
 26
0.0
 36
1.0
 17
0.0
 27
0.0
 37
0.0
 40
841.0
 41
0.7063020214
 42
50.0
 43
0.0
 44
0.0
 50
0.0
 51
0.0
 71
     0
 72
  2000
 73
     1
 74
     3
 75
     0
 76
     0
 77
     0
 78
     0
281
     0
 65
     1
110
0.0
120
0.0
130
0.0
111
1.0
121
0.0
131
0.0
112
0.0
122
1.0
132
0.0
 79
     0
146
0.0
 60
     3
 61
     5
292
     1
282
     1
141
0.0
142
0.0
 63
   250
  0
ENDTAB
  0
TABLE
  2
LTYPE
  5
5
330
0
100
AcDbSymbolTable
 70
     6
  0
LTYPE
  5
14
330
5
100
AcDbSymbolTableRecord
100
AcDbLinetypeTableRecord
  2
ByBlock
 70
     0
  3

 72
    65
 73
     0
 40
0.0
  0
LTYPE
  5
15
330
5
100
AcDbSymbolTableRecord
100
AcDbLinetypeTableRecord
  2
ByLayer
 70
     0
  3

 72
    65
 73
     0
 40
0.0
  0
LTYPE
  5
16
330
5
100
AcDbSymbolTableRecord
100
AcDbLinetypeTableRecord
  2
Continuous
 70
     0
  3
Solid line
 72
    65
 73
     0
 40
0.0
  0
LTYPE
  5
3F
330
5
100
AcDbSymbolTableRecord
100
AcDbLinetypeTableRecord
  2
HIDDEN
 70
     0
  3
Hidden __ __ __ __ __ __ __ __ __ __ __ __ __ __
 72
    65
 73
     2
 40
1.905
 49
1.27
 74
     0
 49
-0.635
 74
     0
  0
LTYPE
  5
40
330
5
100
AcDbSymbolTableRecord
100
AcDbLinetypeTableRecord
  2
PHANTOM
 70
     0
  3
Phantom ______  __  __  ______  __  __  ______
 72
    65
 73
     6
 40
12.7
 49
6.35
 74
     0
 49
-1.27
 74
     0
 49
1.27
 74
     0
 49
-1.27
 74
     0
 49
1.27
 74
     0
 49
-1.27
 74
     0
  0
LTYPE
  5
41
330
5
100
AcDbSymbolTableRecord
100
AcDbLinetypeTableRecord
  2
CENTER
 70
     0
  3
Center ____ _ ____ _ ____ _ ____ _ ____ _ ____
 72
    65
 73
     4
 40
10.16
 49
6.35
 74
     0
 49
-1.27
 74
     0
 49
1.27
 74
     0
 49
-1.27
 74
     0
  0
LTYPE
  5
42
330
5
100
AcDbSymbolTableRecord
100
AcDbLinetypeTableRecord
  2
CENTERX2
 70
     0
  3
Center (2x) ________  __  ________  __  _____
 72
    65
 73
     4
 40
20.32
 49
12.7
 74
     0
 49
-2.54
 74
     0
 49
2.54
 74
     0
 49
-2.54
 74
     0
  0
LTYPE
  5
43
330
5
100
AcDbSymbolTableRecord
100
AcDbLinetypeTableRecord
  2
DOT2
 70
     0
  3
Dot (.5x) ........................................
 72
    65
 73
     2
 40
0.635
 49
0.0
 74
     0
 49
-0.635
 74
     0
  0
ENDTAB
  0
TABLE
  2
LAYER
  5
2
330
0
100
AcDbSymbolTable
 70
     1
  0
LAYER
  5
10
330
2
100
AcDbSymbolTableRecord
100
AcDbLayerTableRecord
  2
0
 70
     0
 62
     7
  6
Continuous
370
    -3
390
F
347
3E
  0
ENDTAB
  0
TABLE
  2
STYLE
  5
3
330
0
100
AcDbSymbolTable
 70
     3
  0
STYLE
  5
11
330
3
100
AcDbSymbolTableRecord
100
AcDbTextStyleTableRecord
  2
Standard
 70
     0
 40
0.0
 41
1.0
 50
0.0
 71
     0
 42
2.5
  3
txt
  4

  0
STYLE
  5
47
330
3
100
AcDbSymbolTableRecord
100
AcDbTextStyleTableRecord
  2
SLDTEXTSTYLE0
 70
     0
 40
0.0
 41
0.96
 50
0.0
 71
     0
 42
0.2
  3
ISOCP3
  4

  0
STYLE
  5
5E
330
3
100
AcDbSymbolTableRecord
100
AcDbTextStyleTableRecord
  2
SLDTEXTSTYLE1
 70
     0
 40
0.0
 41
0.605
 50
0.0
 71
     0
 42
0.2
  3
TXT
  4

  0
ENDTAB
  0
TABLE
  2
VIEW
  5
6
330
0
100
AcDbSymbolTable
 70
     0
  0
ENDTAB
  0
TABLE
  2
UCS
  5
7
330
0
100
AcDbSymbolTable
 70
     0
  0
ENDTAB
  0
TABLE
  2
APPID
  5
9
330
0
100
AcDbSymbolTable
 70
     1
  0
APPID
  5
12
330
9
100
AcDbSymbolTableRecord
100
AcDbRegAppTableRecord
  2
ACAD
 70
     0
  0
ENDTAB
  0
TABLE
  2
DIMSTYLE
  5
A
330
0
100
AcDbSymbolTable
 70
     2
100
AcDbDimStyleTable
  0
DIMSTYLE
105
27
330
A
100
AcDbSymbolTableRecord
100
AcDbDimStyleTableRecord
  2
ISO-25
 70
     0
 41
2.5
 42
0.625
 43
3.75
 44
1.25
 73
     0
 74
     0
 77
     1
 78
     8
140
2.5
141
2.5
143
0.0393700787
147
0.625
171
     3
172
     1
178
     0
271
     2
272
     2
274
     3
278
    44
283
     0
284
     8
340
11
  0
DIMSTYLE
105
48
102
{ACAD_REACTORS
330
46
330
53
102
}
330
A
100
AcDbSymbolTableRecord
100
AcDbDimStyleTableRecord
  2
SLDDIMSTYLE0
 70
     0
 41
2.5
 44
0.0
 45
0.000000001
 73
     0
 74
     0
 77
     1
 78
    12
 79
     3
140
6.0
147
1.5
173
     1
178
     0
271
     2
272
     2
276
     2
284
    12
340
47
  0
ENDTAB
  0
TABLE
  2
BLOCK_RECORD
  5
1
330
0
100
AcDbSymbolTable
 70
     3
  0
BLOCK_RECORD
  5
1F
330
1
100
AcDbSymbolTableRecord
100
AcDbBlockTableRecord
  2
*Model_Space
340
22
 70
     0
280
     1
281
     0
  0
BLOCK_RECORD
  5
1B
330
1
100
AcDbSymbolTableRecord
100
AcDbBlockTableRecord
  2
*Paper_Space
340
1E
 70
     0
280
     1
281
     0
  0
BLOCK_RECORD
  5
23
330
1
100
AcDbSymbolTableRecord
100
AcDbBlockTableRecord
  2
*Paper_Space0
340
26
 70
     0
280
     1
281
     0
  0
BLOCK_RECORD
  5
49
330
1
100
AcDbSymbolTableRecord
100
AcDbBlockTableRecord
  2
*D1
340
0
 70
     0
280
     1
281
     0
  0
BLOCK_RECORD
  5
54
330
1
100
AcDbSymbolTableRecord
100
AcDbBlockTableRecord
  2
*D2
340
0
 70
     0
280
     1
281
     0
  0
ENDTAB
  0
ENDSEC
  0
SECTION
  2
BLOCKS
  0
BLOCK
  5
20
330
1F
100
AcDbEntity
  8
0
100
AcDbBlockBegin
  2
*Model_Space
 70
     0
 10
0.0
 20
0.0
 30
0.0
  3
*Model_Space
  1

  0
ENDBLK
  5
21
330
1F
100
AcDbEntity
  8
0
100
AcDbBlockEnd
  0
BLOCK
  5
1C
330
1B
100
AcDbEntity
 67
     1
  8
0
100
AcDbBlockBegin
  2
*Paper_Space
 70
     0
 10
0.0
 20
0.0
 30
0.0
  3
*Paper_Space
  1

  0
ENDBLK
  5
1D
330
1B
100
AcDbEntity
 67
     1
  8
0
100
AcDbBlockEnd
  0
BLOCK
  5
24
330
23
100
AcDbEntity
  8
0
100
AcDbBlockBegin
  2
*Paper_Space0
 70
     0
 10
0.0
 20
0.0
 30
0.0
  3
*Paper_Space0
  1

  0
ENDBLK
  5
25
330
23
100
AcDbEntity
  8
0
100
AcDbBlockEnd
  0
BLOCK
  5
4A
330
49
100
AcDbEntity
  8
0
100
AcDbBlockBegin
  2
*D1
 70
     1
 10
0.0
 20
0.0
 30
0.0
  3
*D1
  1

  0
SOLID
  5
4C
330
49
100
AcDbEntity
  8
0
  6
Continuous
 62
     7
370
     0
100
AcDbTrace
 10
42.7614395004
 20
152.0299240879
 30
0.0
 11
42.4614395004
 21
149.5299240879
 31
0.0
 12
43.0614395004
 22
149.5299240879
 32
0.0
 13
43.0614395004
 23
149.5299240879
 33
0.0
  0
SOLID
  5
4D
330
49
100
AcDbEntity
  8
0
  6
Continuous
 62
     7
370
     0
100
AcDbTrace
 10
42.7614395004
 20
52.0299240879
 30
0.0
 11
43.0614395004
 21
54.5299240879
 31
0.0
 12
42.4614395004
 22
54.5299240879
 32
0.0
 13
42.4614395004
 23
54.5299240879
 33
0.0
  0
LINE
  5
4E
330
49
100
AcDbEntity
  8
0
  6
Continuous
 62
     7
370
     0
100
AcDbLine
 10
56.6850079902
 20
152.0299240879
 30
0.0
 11
41.7614395004
 21
152.0299240879
 31
0.0
  0
LINE
  5
4F
330
49
100
AcDbEntity
  8
0
  6
Continuous
 62
     7
370
     0
100
AcDbLine
 10
56.6850079902
 20
52.0299240879
 30
0.0
 11
41.7614395004
 21
52.0299240879
 31
0.0
  0
LINE
  5
50
330
49
100
AcDbEntity
  8
0
  6
Continuous
 62
     7
370
     0
100
AcDbLine
 10
42.7614395004
 20
152.0299240879
 30
0.0
 11
42.7614395004
 21
52.0299240879
 31
0.0
  0
MTEXT
  5
51
330
49
100
AcDbEntity
  8
0
  6
Continuous
 62
     7
370
     0
100
AcDbMText
 10
35.0270332946
 20
91.6722208134
 30
0.1
 40
6.0
 41
0.0
 46
0.0
 71
     1
 72
     1
  1
100
  7
SLDTEXTSTYLE0
 11
-7.044195017643634E-15
 21
1.0
 31
0.0
 73
     1
 44
1.0
  0
MTEXT
  5
52
330
49
100
AcDbEntity
  8
0
  6
Continuous
 62
     7
370
     0
100
AcDbMText
 10
35.0270332946
 20
108.4388881795
 30
0.1
 40
6.0
 41
0.0
 46
0.0
 71
     1
 72
     1
  1
mm
  7
SLDTEXTSTYLE0
 11
-7.044195017643634E-15
 21
1.0
 31
0.0
 73
     1
 44
1.0
  0
ENDBLK
  5
4B
330
49
100
AcDbEntity
  8
0
100
AcDbBlockEnd
  0
BLOCK
  5
55
330
54
100
AcDbEntity
  8
0
100
AcDbBlockBegin
  2
*D2
 70
     1
 10
0.0
 20
0.0
 30
0.0
  3
*D2
  1

  0
SOLID
  5
57
330
54
100
AcDbEntity
  8
0
  6
Continuous
 62
     7
370
     0
100
AcDbTrace
 10
56.6850079902
 20
38.4602342313
 30
0.0
 11
59.1850079902
 21
38.1602342313
 31
0.0
 12
59.1850079902
 22
38.7602342313
 32
0.0
 13
59.1850079902
 23
38.7602342313
 33
0.0
  0
SOLID
  5
58
330
54
100
AcDbEntity
  8
0
  6
Continuous
 62
     7
370
     0
100
AcDbTrace
 10
156.6850079902
 20
38.4602342313
 30
0.0
 11
154.1850079902
 21
38.7602342313
 31
0.0
 12
154.1850079902
 22
38.1602342313
 32
0.0
 13
154.1850079902
 23
38.1602342313
 33
0.0
  0
LINE
  5
59
330
54
100
AcDbEntity
  8
0
  6
Continuous
 62
     7
370
     0
100
AcDbLine
 10
56.6850079902
 20
52.0299240879
 30
0.0
 11
56.6850079902
 21
37.4602342313
 31
0.0
  0
LINE
  5
5A
330
54
100
AcDbEntity
  8
0
  6
Continuous
 62
     7
370
     0
100
AcDbLine
 10
156.6850079902
 20
52.0299240879
 30
0.0
 11
156.6850079902
 21
37.4602342313
 31
0.0
  0
LINE
  5
5B
330
54
100
AcDbEntity
  8
0
  6
Continuous
 62
     7
370
     0
100
AcDbLine
 10
56.6850079902
 20
38.4602342313
 30
0.0
 11
156.6850079902
 21
38.4602342313
 31
0.0
  0
MTEXT
  5
5C
330
54
100
AcDbEntity
  8
0
  6
Continuous
 62
     7
370
     0
100
AcDbMText
 10
91.2668151533
 20
46.1946404371
 30
0.1
 40
6.0
 41
0.0
 46
0.0
 71
     1
 72
     1
  1
100
  7
SLDTEXTSTYLE0
 73
     1
 44
1.0
  0
MTEXT
  5
5D
330
54
100
AcDbEntity
  8
0
  6
Continuous
 62
     7
370
     0
100
AcDbMText
 10
108.0334825193
 20
46.1946404371
 30
0.1
 40
6.0
 41
0.0
 46
0.0
 71
     1
 72
     1
  1
mm
  7
SLDTEXTSTYLE0
 73
     1
 44
1.0
  0
ENDBLK
  5
56
330
54
100
AcDbEntity
  8
0
100
AcDbBlockEnd
  0
ENDSEC
  0
SECTION
  2
ENTITIES
  0
LINE
  5
44
330
1F
100
AcDbEntity
  8
0
  6
Continuous
 62
     7
370
     0
100
AcDbLine
 10
56.6850079902
 20
152.0299240879
 30
0.0
 11
56.6850079902
 21
52.0299240879
 31
0.0
  0
LINE
  5
45
330
1F
100
AcDbEntity
  8
0
  6
Continuous
 62
     7
370
     0
100
AcDbLine
 10
56.6850079902
 20
52.0299240879
 30
0.0
 11
156.6850079902
 21
52.0299240879
 31
0.0
  0
DIMENSION
  5
46
330
1F
100
AcDbEntity
  8
0
  6
Continuous
 62
     7
370
     0
100
AcDbDimension
280
     0
  2
*D1
 10
42.7614395004
 20
52.0299240879
 30
0.0
 11
42.7614395004
 21
105.4472211621
 31
0.0
 70
   160
  1
<>mm
 71
     2
 42
-1.0
 73
     0
 74
     0
 75
     0
  3
SLDDIMSTYLE0
100
AcDbAlignedDimension
 13
56.6850079902
 23
152.0299240879
 33
0.0
 14
56.6850079902
 24
52.0299240879
 34
0.0
 50
90.0
100
AcDbRotatedDimension
  0
DIMENSION
  5
53
330
1F
100
AcDbEntity
  8
0
  6
Continuous
 62
     7
370
     0
100
AcDbDimension
280
     0
  2
*D2
 10
156.6850079902
 20
38.4602342313
 30
0.0
 11
105.0418155019
 21
38.4602342313
 31
0.0
 70
   160
  1
<>mm
 71
     2
 42
-1.0
 73
     0
 74
     0
 75
     0
  3
SLDDIMSTYLE0
100
AcDbAlignedDimension
 13
56.6850079902
 23
52.0299240879
 33
0.0
 14
156.6850079902
 24
52.0299240879
 34
0.0
100
AcDbRotatedDimension
  0
MTEXT
  5
5F
330
1F
100
AcDbEntity
  8
0
  6
Continuous
 62
     7
370
     0
100
AcDbMText
 10
277.4456154834
 20
47.8288634438
 30
0.0
 40
10.0
 41
0.0
 46
0.0
 71
     1
 72
     1
  1
38 530 05 75
  7
SLDTEXTSTYLE1
 73
     1
 44
1.0
  0
MTEXT
  5
60
330
1F
100
AcDbEntity
  8
0
  6
Continuous
 62
     7
370
     0
100
AcDbMText
 10
412.8252631579
 20
48.4342449499
 30
0.0
 40
10.0
 41
0.0
 46
0.0
 71
     1
 72
     1
  1
KLUDI GmbH & Co KG
  7
SLDTEXTSTYLE1
 73
     1
 44
1.0
  0
LINE
  5
61
330
1F
100
AcDbEntity
  8
0
  6
Continuous
 62
     7
370
    15
100
AcDbLine
 10
164.6938558459
 20
412.423530105
 30
0.0
 11
164.6938558459
 21
378.823030105
 31
0.0
  0
LINE
  5
62
330
1F
100
AcDbEntity
  8
0
  6
Continuous
 62
     7
370
    15
100
AcDbLine
 10
210.8318558459
 20
378.823030105
 30
0.0
 11
210.8318558459
 21
412.423530105
 31
0.0
  0
ARC
  5
63
330
1F
100
AcDbEntity
  8
0
  6
Continuous
 62
     7
370
    15
100
AcDbCircle
 10
166.1983558459
 20
412.423530105
 30
0.0
 40
1.504500000000007
100
AcDbArc
 50
90.0
 51
180.0
  0
ARC
  5
64
330
1F
100
AcDbEntity
  8
0
  6
Continuous
 62
     7
370
    15
100
AcDbCircle
 10
209.3273558459
 20
412.423530105
 30
0.0
 40
1.504500000000007
100
AcDbArc
 50
0.0
 51
90.0
  0
LINE
  5
65
330
1F
100
AcDbEntity
  8
0
  6
Continuous
 62
     7
370
    15
100
AcDbLine
 10
165.1953558459
 20
371.200230105
 30
0.0
 11
165.1953558459
 21
281.933230105
 31
0.0
  0
LINE
  5
66
330
1F
100
AcDbEntity
  8
0
  6
Continuous
 62
     7
370
    15
100
AcDbLine
 10
210.3303558459
 20
281.933230105
 30
0.0
 11
210.3303558459
 21
371.200230105
 31
0.0
  0
LINE
  5
67
330
1F
100
AcDbEntity
  8
0
  6
Continuous
 62
     7
370
    15
100
AcDbLine
 10
165.6968558459
 20
373.206230105
 30
0.0
 11
165.6968558459
 21
371.200230105
 31
0.0
  0
LINE
  5
68
330
1F
100
AcDbEntity
  8
0
  6
Continuous
 62
     7
370
    15
100
AcDbLine
 10
209.8288558459
 20
371.200230105
 30
0.0
 11
209.8288558459
 21
373.206230105
 31
0.0
  0
ARC
  5
69
330
1F
100
AcDbEntity
  8
0
  6
Continuous
 62
     7
370
    15
100
AcDbCircle
 10
187.7629788788
 20
373.2799164078
 30
0.0
 40
22.06600000000001
100
AcDbArc
 50
165.4511058388
 51
180.1948922172
  0
ARC
  5
6A
330
1F
100
AcDbEntity
  8
0
  6
Continuous
 62
     7
370
    15
100
AcDbCircle
 10
187.7629788788
 20
373.2799164078
 30
0.0
 40
22.066
100
AcDbArc
 50
0.0
 51
14.5488941612
  0
LINE
  5
6B
330
1F
100
AcDbEntity
  8
0
  6
Continuous
 62
     7
370
    15
100
AcDbLine
 10
170.0324172619
 20
347.0510905738
 30
0.0
 11
170.012049349
 21
347.1348721009
 31
0.0
  0
LINE
  5
6C
330
1F
100
AcDbEntity
  8
0
  6
Continuous
 62
     7
370
    15
100
AcDbLine
 10
205.513548185
 20
347.134973054
 30
0.0
 11
205.4934691147
 21
347.0521390013
 31
0.0
  0
ARC
  5
6D
330
1F
100
AcDbEntity
  8
0
  6
Continuous
 62
     7
370
    15
100
AcDbCircle
 10
187.7628558459
 20
350.939630105
 30
0.0
 40
12.03599999999975
100
AcDbArc
 50
22.971509741
 51
155.8585811228
  0
SPLINE
  5
6E
330
1F
100
AcDbEntity
  8
0
  6
Continuous
 62
     7
370
    15
100
AcDbSpline
210
0.0
220
0.0
230
1.0
 70
    24
 71
     3
 72
    10
 73
     6
 74
     0
 42
0.00000001
 43
0.00000001
 40
0.0
 40
0.0
 40
0.0
 40
0.0
 40
0.5
 40
0.5
 40
1.0
 40
1.0
 40
1.0
 40
1.0
 10
198.7952808578174
 20
350.8269919370682
 30
0.0
 10
198.8035482418262
 20
351.6367467100856
 30
0.0
 10
198.8119125078234
 20
352.455990657971
 30
0.0
 10
198.828311289717
 20
354.0621809469412
 30
0.0
 10
198.8363947204151
 20
354.8539182828533
 30
0.0
 10
198.8443893738703
 20
355.6369602689441
 30
0.0
  0
ARC
  5
6F
330
1F
100
AcDbEntity
  8
0
  6
Continuous
 62
     7
370
    15
100
AcDbCircle
 10
187.7628558459
 20
350.939630105
 30
0.0
 40
11.03300000000012
100
AcDbArc
 50
359.4150454319
 51
179.4150454319
  0
SPLINE
  5
70
330
1F
100
AcDbEntity
  8
0
  6
Continuous
 62
     7
370
    15
100
AcDbSpline
210
0.0
220
0.0
230
1.0
 70
    24
 71
     3
 72
    10
 73
     6
 74
     0
 42
0.00000001
 43
0.00000001
 40
0.0
 40
0.0
 40
0.0
 40
0.0
 40
0.5
 40
0.5
 40
1.0
 40
1.0
 40
1.0
 40
1.0
 10
176.7304308340242
 20
351.0522682729679
 30
0.0
 10
176.738698218033
 20
351.8620230459852
 30
0.0
 10
176.7470624840302
 20
352.6812669938703
 30
0.0
 10
176.7634612659239
 20
354.2874572828405
 30
0.0
 10
176.7715446966219
 20
355.0791946187527
 30
0.0
 10
176.7795393500772
 20
355.8622366048435
 30
0.0
  0
ARC
  5
71
330
1F
100
AcDbEntity
  8
0
  6
Continuous
 62
     7
370
    15
100
AcDbCircle
 10
187.7628558459
 20
350.939630105
 30
0.0
 40
11.03300000000012
100
AcDbArc
 50
179.4150454319
 51
359.4150454319
  0
SPLINE
  5
72
330
1F
100
AcDbEntity
  8
0
  6
Continuous
 62
     7
370
    15
100
AcDbSpline
210
0.0
220
0.0
230
1.0
 70
    24
 71
     3
 72
     8
 73
     4
 74
     0
 42
0.00000001
 43
0.00000001
 40
0.0
 40
0.0
 40
0.0
 40
0.0
 40
1.0
 40
1.0
 40
1.0
 40
1.0
 10
198.7461723417644
 20
346.0170236051913
 30
0.0
 10
198.7623593315729
 20
347.6024697686044
 30
0.0
 10
198.7787074919884
 20
349.203701901102
 30
0.0
 10
198.7952808578174
 20
350.8269919370682
 30
0.0
  0
ARC
  5
73
330
1F
100
AcDbEntity
  8
0
  6
Continuous
 62
     7
370
    15
100
AcDbCircle
 10
187.7628558459
 20
350.939630105
 30
0.0
 40
12.03600000000041
100
AcDbArc
 50
202.971509741
 51
335.8585811228
  0
SPLINE
  5
74
330
1F
100
AcDbEntity
  8
0
  6
Continuous
 62
     7
370
    15
100
AcDbSpline
210
0.0
220
0.0
230
1.0
 70
    24
 71
     3
 72
     8
 73
     4
 74
     0
 42
0.00000001
 43
0.00000001
 40
0.0
 40
0.0
 40
0.0
 40
0.0
 40
1.0
 40
1.0
 40
1.0
 40
1.0
 10
176.6813223179713
 20
346.2422999410916
 30
0.0
 10
176.6975093077797
 20
347.8277461045045
 30
0.0
 10
176.7138574681953
 20
349.4289782370018
 30
0.0
 10
176.7304308340242
 20
351.0522682729679
 30
0.0
  0
ARC
  5
75
330
1F
100
AcDbEntity
  8
0
  6
Continuous
 62
     7
370
    15
100
AcDbCircle
 10
187.7628558459
 20
350.939630105
 30
0.0
 40
12.03600000000016
100
AcDbArc
 50
155.8585811228
 51
202.971509741
  0
ARC
  5
76
330
1F
100
AcDbEntity
  8
0
  6
Continuous
 62
     7
370
    15
100
AcDbCircle
 10
187.7628558459
 20
350.939630105
 30
0.0
 40
12.03600000000028
100
AcDbArc
 50
335.8585811228
 51
22.971509741
  0
CIRCLE
  5
77
330
1F
100
AcDbEntity
  8
0
  6
Continuous
 62
     7
370
    15
100
AcDbCircle
 10
187.7628558459
 20
350.939630105
 30
0.0
 40
12.83840000000038
  0
SPLINE
  5
78
330
1F
100
AcDbEntity
  8
0
  6
Continuous
 62
     7
370
    15
100
AcDbSpline
210
0.0
220
0.0
230
1.0
 70
     8
 71
     3
 72
    20
 73
    16
 74
     0
 42
0.00000001
 43
0.00000001
 40
0.0
 40
0.0
 40
0.0
 40
0.0
 40
0.0385321452690019
 40
0.0802896869103301
 40
0.1253255549442398
 40
0.1775018380582966
 40
0.2505651031777243
 40
0.3747188136358051
 40
0.4995636478423496
 40
0.6242694031306507
 40
0.7494397238219395
 40
0.814130438667542
 40
0.8749419896745055
 40
0.9384162305682316
 40
1.0
 40
1.0
 40
1.0
 40
1.0
 10
203.6495255479084
 20
365.1650546201611
 30
0.0
 10
203.6836815894318
 20
365.1626908689954
 30
0.0
 10
203.7548527599147
 20
365.1577655049985
 30
0.0
 10
203.8648382921897
 20
365.1427684437107
 30
0.0
 10
203.985606457609
 20
365.1197022890078
 30
0.0
 10
204.1312921086433
 20
365.0819600328516
 30
0.0
 10
204.3404481392807
 20
365.0090288360423
 30
0.0
 10
204.5993166893722
 20
364.8789656384915
 30
0.0
 10
204.8781753301565
 20
364.6739314730301
 30
0.0
 10
205.1287524881965
 20
364.4108570639182
 30
0.0
 10
205.3053692083784
 20
364.1375794274003
 30
0.0
 10
205.4162050482454
 20
363.8884795742429
 30
0.0
 10
205.4813107858099
 20
363.6860463981109
 30
0.0
 10
205.5266324269505
 20
363.4750887960082
 30
0.0
 10
205.5370242107934
 20
363.3276124554034
 30
0.0
 10
205.542141557683
 20
363.2549889670494
 30
0.0
  0
SPLINE
  5
79
330
1F
100
AcDbEntity
  8
0
  6
Continuous
 62
     7
370
    15
100
AcDbSpline
210
0.0
220
0.0
230
1.0
 70
     8
 71
     3
 72
    21
 73
    17
 74
     0
 42
0.00000001
 43
0.00000001
 40
0.0
 40
0.0
 40
0.0
 40
0.0
 40
0.0308288355010143
 40
0.0620818948064208
 40
0.0938180581165128
 40
0.1260906622280655
 40
0.1868823565299072
 40
0.2515617485859996
 40
0.3764346166281139
 40
0.5015177607312664
 40
0.6260894048814087
 40
0.7511509775450027
 40
0.8232566570770625
 40
0.8752215246784693
 40
0.9412330404257625
 40
1.0
 40
1.0
 40
1.0
 40
1.0
 10
169.9835701336897
 20
363.2549889547816
 30
0.0
 10
169.9855441085554
 20
363.291370965183
 30
0.0
 10
169.9895192213991
 20
363.3646356249045
 30
0.0
 10
170.0032001877345
 20
363.4739653841981
 30
0.0
 10
170.0226360293003
 20
363.5830575770891
 30
0.0
 10
170.0558060486468
 20
363.7225248306777
 30
0.0
 10
170.1107009292737
 20
363.8913829071258
 30
0.0
 10
170.2215994235923
 20
364.1398604565522
 30
0.0
 10
170.3985686677322
 20
364.4128886655591
 30
0.0
 10
170.6492587545536
 20
364.675450394816
 30
0.0
 10
170.929068687975
 20
364.8806691699331
 30
0.0
 10
171.1878812661253
 20
365.0101266788797
 30
0.0
 10
171.396908355414
 20
365.0827305071978
 30
0.0
 10
171.5596228976803
 20
365.1245203958796
 30
0.0
 10
171.7136354753038
 20
365.1525353428312
 30
0.0
 10
171.8241412299707
 20
365.1610462407357
 30
0.0
 10
171.8761861616024
 20
365.1650546211219
 30
0.0
  0
SPLINE
  5
7A
330
1F
100
AcDbEntity
  8
0
  6
Continuous
 62
     7
370
    15
100
AcDbSpline
210
0.0
220
0.0
230
1.0
 70
     8
 71
     3
 72
     9
 73
     5
 74
     0
 42
0.00000001
 43
0.00000001
 40
0.0
 40
0.0
 40
0.0
 40
0.0
 40
0.2099515451403672
 40
1.0
 40
1.0
 40
1.0
 40
1.0
 10
170.1652541141252
 20
346.4828126306095
 30
0.0
 10
170.1907907502447
 20
346.4123468738607
 30
0.0
 10
170.3124218442305
 20
346.0767182091526
 30
0.0
 10
170.5377674203346
 20
345.8589796211235
 30
0.0
 10
170.7158013445451
 20
345.6869555860877
 30
0.0
  0
SPLINE
  5
7B
330
1F
100
AcDbEntity
  8
0
  6
Continuous
 62
     7
370
    15
100
AcDbSpline
210
0.0
220
0.0
230
1.0
 70
     8
 71
     3
 72
     9
 73
     5
 74
     0
 42
0.00000001
 43
0.00000001
 40
0.0
 40
0.0
 40
0.0
 40
0.0
 40
0.7855143078910639
 40
1.0
 40
1.0
 40
1.0
 40
1.0
 10
204.809910351842
 20
345.6869555895221
 30
0.0
 10
204.9879105947421
 20
345.8592143190801
 30
0.0
 10
205.2145140329124
 20
346.0785085163054
 30
0.0
 10
205.3366632294161
 20
346.4164860655964
 30
0.0
 10
205.3628624843687
 20
346.4889774141734
 30
0.0
  0
LINE
  5
7C
330
1F
100
AcDbEntity
  8
0
  6
Continuous
 62
     7
370
    15
100
AcDbLine
 10
192.7778558459
 20
402.895030105
 30
0.0
 11
182.7478558459
 21
402.895030105
 31
0.0
  0
LINE
  5
7D
330
1F
100
AcDbEntity
  8
0
  6
Continuous
 62
     7
370
    15
100
AcDbLine
 10
182.7478558459
 20
408.913030105
 30
0.0
 11
192.7778558459
 21
408.913030105
 31
0.0
  0
LINE
  5
7E
330
1F
100
AcDbEntity
  8
0
  6
Continuous
 62
     7
370
    15
100
AcDbLine
 10
178.7358558459
 20
408.913030105
 30
0.0
 11
182.7478558459
 21
408.913030105
 31
0.0
  0
ARC
  5
7F
330
1F
100
AcDbEntity
  8
0
  6
Continuous
 62
     7
370
    15
100
AcDbCircle
 10
178.7358558459
 20
407.910030105
 30
0.0
 40
1.002999999999986
100
AcDbArc
 50
90.0
 51
180.0
  0
LINE
  5
80
330
1F
100
AcDbEntity
  8
0
  6
Continuous
 62
     7
370
    15
100
AcDbLine
 10
177.7328558459
 20
403.898030105
 30
0.0
 11
177.7328558459
 21
407.910030105
 31
0.0
  0
LINE
  5
81
330
1F
100
AcDbEntity
  8
0
  6
Continuous
 62
     7
370
    15
100
AcDbLine
 10
182.7478558459
 20
402.895030105
 30
0.0
 11
178.7358558459
 21
402.895030105
 31
0.0
  0
ARC
  5
82
330
1F
100
AcDbEntity
  8
0
  6
Continuous
 62
     7
370
    15
100
AcDbCircle
 10
178.7358558459
 20
403.898030105
 30
0.0
 40
1.003000000000043
100
AcDbArc
 50
180.0
 51
270.0
  0
LINE
  5
83
330
1F
100
AcDbEntity
  8
0
  6
Continuous
 62
     7
370
    15
100
AcDbLine
 10
197.7928558459
 20
407.910030105
 30
0.0
 11
197.7928558459
 21
403.898030105
 31
0.0
  0
LINE
  5
84
330
1F
100
AcDbEntity
  8
0
  6
Continuous
 62
     7
370
    15
100
AcDbLine
 10
192.7778558459
 20
408.913030105
 30
0.0
 11
196.7898558459
 21
408.913030105
 31
0.0
  0
ARC
  5
85
330
1F
100
AcDbEntity
  8
0
  6
Continuous
 62
     7
370
    15
100
AcDbCircle
 10
196.7898558459
 20
407.910030105
 30
0.0
 40
1.003000000000043
100
AcDbArc
 50
0.0
 51
90.0
  0
ARC
  5
86
330
1F
100
AcDbEntity
  8
0
  6
Continuous
 62
     7
370
    15
100
AcDbCircle
 10
196.7898558459
 20
403.898030105
 30
0.0
 40
1.003000000000043
100
AcDbArc
 50
270.0
 51
0.0
  0
LINE
  5
87
330
1F
100
AcDbEntity
  8
0
  6
Continuous
 62
     7
370
    15
100
AcDbLine
 10
196.7898558459
 20
402.895030105
 30
0.0
 11
192.7778558459
 21
402.895030105
 31
0.0
  0
ARC
  5
88
330
1F
100
AcDbEntity
  8
0
  6
Continuous
 62
     7
370
    15
100
AcDbCircle
 10
187.7628558459
 20
390.457830105
 30
0.0
 40
3.009000000000042
100
AcDbArc
 50
277.6622556608
 51
82.3377443392
  0
SPLINE
  5
89
330
1F
100
AcDbEntity
  8
0
  6
Continuous
 62
     7
370
    15
100
AcDbSpline
210
0.0
220
0.0
230
1.0
 70
    24
 71
     3
 72
    12
 73
     8
 74
     0
 42
0.00000001
 43
0.00000001
 40
0.0
 40
0.0
 40
0.0
 40
0.0
 40
0.2499999999999967
 40
0.2499999999999967
 40
0.4999999999999933
 40
0.4999999999999933
 40
1.0
 40
1.0
 40
1.0
 40
1.0
 10
188.1640558459264
 20
387.4756967143067
 30
0.0
 10
188.1640558459264
 20
387.4756967143067
 30
0.0
 10
188.1640558459264
 20
387.4943642958922
 30
0.0
 10
188.1640558459264
 20
387.5661123411369
 30
0.0
 10
188.1640558459264
 20
387.6192108530871
 30
0.0
 10
188.1640558459264
 20
387.8161424622141
 30
0.0
 10
188.1640558459264
 20
387.9995698492273
 30
0.0
 10
188.1640558459264
 20
388.1860849234459
 30
0.0
  0
SPLINE
  5
8A
330
1F
100
AcDbEntity
  8
0
  6
Continuous
 62
     7
370
    15
100
AcDbSpline
210
0.0
220
0.0
230
1.0
 70
    24
 71
     3
 72
    12
 73
     8
 74
     0
 42
0.00000001
 43
0.00000001
 40
0.0
 40
0.0
 40
0.0
 40
0.0
 40
0.2499999999999983
 40
0.2499999999999983
 40
0.4999999999999967
 40
0.4999999999999967
 40
1.0
 40
1.0
 40
1.0
 40
1.0
 10
188.1640558459264
 20
392.7295752865918
 30
0.0
 10
188.1640558459264
 20
392.8228478264794
 30
0.0
 10
188.1640558459264
 20
392.9143563615747
 30
0.0
 10
188.1640558459264
 20
393.0859763430485
 30
0.0
 10
188.1640558459264
 20
393.1646731891234
 30
0.0
 10
188.1640558459264
 20
393.3619506867393
 30
0.0
 10
188.1640558459264
 20
393.4399634957309
 30
0.0
 10
188.1640558459264
 20
393.4399634957309
 30
0.0
  0
SPLINE
  5
8B
330
1F
100
AcDbEntity
  8
0
  6
Continuous
 62
     7
370
    15
100
AcDbSpline
210
0.0
220
0.0
230
1.0
 70
    24
 71
     3
 72
    10
 73
     6
 74
     0
 42
0.00000001
 43
0.00000001
 40
0.0
 40
0.0
 40
0.0
 40
0.0
 40
0.5
 40
0.5
 40
1.0
 40
1.0
 40
1.0
 40
1.0
 10
187.3616558459264
 20
388.0842988960392
 30
0.0
 10
187.3616558459264
 20
387.924447275319
 30
0.0
 10
187.3616558459264
 20
387.7678392421271
 30
0.0
 10
187.3616558459264
 20
387.5425267588253
 30
0.0
 10
187.3616558459264
 20
387.4756967143067
 30
0.0
 10
187.3616558459264
 20
387.4756967143067
 30
0.0
  0
ARC
  5
8C
330
1F
100
AcDbEntity
  8
0
  6
Continuous
 62
     7
370
    15
100
AcDbCircle
 10
187.7628558459
 20
390.457830105
 30
0.0
 40
3.009000000000046
100
AcDbArc
 50
97.6622556608
 51
262.3377443392
  0
SPLINE
  5
8D
330
1F
100
AcDbEntity
  8
0
  6
Continuous
 62
     7
370
    15
100
AcDbSpline
210
0.0
220
0.0
230
1.0
 70
    24
 71
     3
 72
    10
 73
     6
 74
     0
 42
0.00000001
 43
0.00000001
 40
0.0
 40
0.0
 40
0.0
 40
0.0
 40
0.5
 40
0.5
 40
1.0
 40
1.0
 40
1.0
 40
1.0
 10
187.3616558459264
 20
393.4399634957309
 30
0.0
 10
187.3616558459264
 20
393.4399634957309
 30
0.0
 10
187.3616558459264
 20
393.3732600308483
 30
0.0
 10
187.3616558459264
 20
393.1483293854799
 30
0.0
 10
187.3616558459264
 20
392.9911871753744
 30
0.0
 10
187.3616558459264
 20
392.8313613139984
 30
0.0
  0
LINE
  5
8E
330
1F
100
AcDbEntity
  8
0
  6
Continuous
 62
     7
370
    15
100
AcDbLine
 10
187.3616558459
 20
388.084298896
 30
0.0
 11
187.3616558459
 21
392.831361314
 31
0.0
  0
LINE
  5
8F
330
1F
100
AcDbEntity
  8
0
  6
Continuous
 62
     7
370
    15
100
AcDbLine
 10
188.1640558459
 20
392.7295752866
 30
0.0
 11
188.1640558459
 21
388.1860849234
 31
0.0
  0
ARC
  5
90
330
1F
100
AcDbEntity
  8
0
  6
Continuous
 62
     7
370
    15
100
AcDbCircle
 10
187.7628558459
 20
390.457830105
 30
0.0
 40
3.009000000000042
100
AcDbArc
 50
82.3377443392
 51
90.0
  0
ARC
  5
91
330
1F
100
AcDbEntity
  8
0
  6
Continuous
 62
     7
370
    15
100
AcDbCircle
 10
187.7628558459
 20
390.457830105
 30
0.0
 40
3.009000000000015
100
AcDbArc
 50
270.0
 51
277.6622556608
  0
ARC
  5
92
330
1F
100
AcDbEntity
  8
0
  6
Continuous
 62
     7
370
    15
100
AcDbCircle
 10
187.7628558459
 20
390.457830105
 30
0.0
 40
3.009000000000046
100
AcDbArc
 50
90.0
 51
97.6622556608
  0
ARC
  5
93
330
1F
100
AcDbEntity
  8
0
  6
Continuous
 62
     7
370
    15
100
AcDbCircle
 10
187.7628558459
 20
390.457830105
 30
0.0
 40
3.009000000000015
100
AcDbArc
 50
262.3377443392
 51
270.0
  0
LINE
  5
94
330
1F
100
AcDbEntity
  8
0
  6
Continuous
 62
     7
370
    15
100
AcDbLine
 10
164.6938558459
 20
378.823030105
 30
0.0
 11
210.8318558459
 21
378.823030105
 31
0.0
  0
LINE
  5
95
330
1F
100
AcDbEntity
  8
0
  6
Continuous
 62
     7
370
    15
100
AcDbLine
 10
166.1983558459
 20
413.928030105
 30
0.0
 11
209.3273558459
 21
413.928030105
 31
0.0
  0
LINE
  5
96
330
1F
100
AcDbEntity
  8
0
  6
Continuous
 62
     7
370
    15
100
AcDbLine
 10
187.7628558459
 20
281.933230105
 30
0.0
 11
165.1953558459
 21
281.933230105
 31
0.0
  0
LINE
  5
97
330
1F
100
AcDbEntity
  8
0
  6
Continuous
 62
     7
370
    15
100
AcDbLine
 10
210.3303558459
 20
281.933230105
 30
0.0
 11
187.7628558459
 21
281.933230105
 31
0.0
  0
LINE
  5
98
330
1F
100
AcDbEntity
  8
0
  6
Continuous
 62
     7
370
    15
100
AcDbLine
 10
187.7628558459
 20
371.200230105
 30
0.0
 11
210.3303558459
 21
371.200230105
 31
0.0
  0
LINE
  5
99
330
1F
100
AcDbEntity
  8
0
  6
Continuous
 62
     7
370
    15
100
AcDbLine
 10
165.1953558459
 20
371.200230105
 30
0.0
 11
187.7628558459
 21
371.200230105
 31
0.0
  0
ARC
  5
9A
330
1F
100
AcDbEntity
  8
0
  6
Continuous
 62
     8
370
     0
100
AcDbCircle
 10
203.3290714465
 20
347.4270117061
 30
0.0
 40
1.604872079631195
100
AcDbArc
 50
311.9503789998
 51
357.6082211438
  0
SPLINE
  5
9B
330
1F
100
AcDbEntity
  8
0
  6
Continuous
 62
     8
370
     0
100
AcDbSpline
210
0.0
220
0.0
230
1.0
 70
     8
 71
     3
 72
    22
 73
    18
 74
     0
 42
0.00000001
 43
0.00000001
 40
0.0
 40
0.0
 40
0.0
 40
0.0
 40
0.2499999999999999
 40
0.2499999999999999
 40
0.3749999999999998
 40
0.3749999999999998
 40
0.4999999999999998
 40
0.4999999999999998
 40
0.6249999999999998
 40
0.6249999999999998
 40
0.7499999999999997
 40
0.7499999999999997
 40
0.8749999999999996
 40
0.8749999999999996
 40
0.9374999999999998
 40
0.9374999999999998
 40
1.0
 40
1.0
 40
1.0
 40
1.0
 10
200.9252574298086
 20
343.2116549417714
 30
0.0
 10
201.321978023502
 20
343.5501229783873
 30
0.0
 10
201.7087094104376
 20
343.8849706324426
 30
0.0
 10
202.2751296231623
 20
344.3792559486101
 30
0.0
 10
202.4630348100685
 20
344.5439054305734
 30
0.0
 10
202.8254800137163
 20
344.8622135590391
 30
0.0
 10
202.9999462254659
 20
345.0157968549878
 30
0.0
 10
203.3336469582979
 20
345.3096360039016
 30
0.0
 10
203.4944426611891
 20
345.4512664949531
 30
0.0
 10
203.7862799691779
 20
345.7077485757844
 30
0.0
 10
203.9179533899145
 20
345.823160454351
 30
0.0
 10
204.1452013652763
 20
346.0209941491402
 30
0.0
 10
204.2364377332234
 20
346.0996307382806
 30
0.0
 10
204.3325159720704
 20
346.1805571201894
 30
0.0
 10
204.3576230235798
 20
346.2012461641537
 30
0.0
 10
204.3916254551991
 20
346.2280335405711
 30
0.0
 10
204.4008277560098
 20
346.2343933798464
 30
0.0
 10
204.4019071752963
 20
346.2334297478869
 30
0.0
  0
SPLINE
  5
9C
330
1F
100
AcDbEntity
  8
0
  6
Continuous
 62
     8
370
     0
100
AcDbSpline
210
0.0
220
0.0
230
1.0
 70
     8
 71
     3
 72
    10
 73
     6
 74
     0
 42
0.00000001
 43
0.00000001
 40
0.0
 40
0.0
 40
0.0
 40
0.0
 40
0.4999999999999997
 40
0.4999999999999997
 40
1.0
 40
1.0
 40
1.0
 40
1.0
 10
204.9325454071418
 20
347.3600367140546
 30
0.0
 10
205.0422007499399
 20
349.9936099258262
 30
0.0
 10
205.1000891548243
 20
352.6291060623362
 30
0.0
 10
205.1116950894747
 20
357.9002701693094
 30
0.0
 10
205.0653903213451
 20
360.5361949577282
 30
0.0
 10
204.9671736915082
 20
363.1703458233163
 30
0.0
  0
SPLINE
  5
9D
330
1F
100
AcDbEntity
  8
0
  6
Continuous
 62
     8
370
     0
100
AcDbSpline
210
0.0
220
0.0
230
1.0
 70
     8
 71
     3
 72
    22
 73
    18
 74
     0
 42
0.00000001
 43
0.00000001
 40
0.0
 40
0.0
 40
0.0
 40
0.0
 40
0.1250000000000005
 40
0.1250000000000005
 40
0.1875000000000006
 40
0.1875000000000006
 40
0.2500000000000007
 40
0.2500000000000007
 40
0.3125000000000008
 40
0.3125000000000008
 40
0.3750000000000009
 40
0.3750000000000009
 40
0.5000000000000019
 40
0.5000000000000019
 40
0.7500000000000009
 40
0.7500000000000009
 40
1.0
 40
1.0
 40
1.0
 40
1.0
 10
171.123804521121
 20
346.233429751475
 30
0.0
 10
171.1259627801372
 20
346.2353564980372
 30
0.0
 10
171.1602136623107
 20
346.2083126833734
 30
0.0
 10
171.2557415627041
 20
346.1278871475781
 30
0.0
 10
171.2950346440521
 20
346.0943453166223
 30
0.0
 10
171.3849416083448
 20
346.0169321295307
 30
0.0
 10
171.4358140217916
 20
345.9728440282412
 30
0.0
 10
171.5483865842178
 20
345.8748518975107
 30
0.0
 10
171.6104758601146
 20
345.8206055075396
 30
0.0
 10
171.7416139123707
 20
345.7057505586664
 30
0.0
 10
171.810898219027
 20
345.6449386905938
 30
0.0
 10
172.0286109253617
 20
345.4536052559129
 30
0.0
 10
172.1879796333601
 20
345.3132336798454
 30
0.0
 10
172.6914612814433
 20
344.8698928779913
 30
0.0
 10
173.0522099352557
 20
344.5523926308077
 30
0.0
 10
173.8149410882792
 20
343.8867421084121
 30
0.0
 10
174.2038457847445
 20
343.5500273731679
 30
0.0
 10
174.600452165232
 20
343.2116567653002
 30
0.0
  0
ARC
  5
9E
330
1F
100
AcDbEntity
  8
0
  6
Continuous
 62
     8
370
     0
100
AcDbCircle
 10
172.1966402498
 20
347.4270117098
 30
0.0
 40
1.604872079630395
100
AcDbArc
 50
182.3917788551
 51
228.0496210055
  0
SPLINE
  5
9F
330
1F
100
AcDbEntity
  8
0
  6
Continuous
 62
     8
370
     0
100
AcDbSpline
210
0.0
220
0.0
230
1.0
 70
     8
 71
     3
 72
    10
 73
     6
 74
     0
 42
0.00000001
 43
0.00000001
 40
0.0
 40
0.0
 40
0.0
 40
0.0
 40
0.5
 40
0.5
 40
1.0
 40
1.0
 40
1.0
 40
1.0
 10
170.5585379957484
 20
363.1703458273361
 30
0.0
 10
170.4603213639737
 20
360.536194973925
 30
0.0
 10
170.4140165878234
 20
357.9002701746022
 30
0.0
 10
170.4256225260073
 20
352.6291060346627
 30
0.0
 10
170.4835109297986
 20
349.9936099409232
 30
0.0
 10
170.5931662891626
 20
347.3600367177722
 30
0.0
  0
SPLINE
  5
A0
330
1F
100
AcDbEntity
  8
0
  6
Continuous
 62
     8
370
     0
100
AcDbSpline
210
0.0
220
0.0
230
1.0
 70
     8
 71
     3
 72
    20
 73
    16
 74
     0
 42
0.00000001
 43
0.00000001
 40
0.0
 40
0.0
 40
0.0
 40
0.0
 40
0.1250000000000009
 40
0.1250000000000009
 40
0.2500000000000018
 40
0.2500000000000018
 40
0.3750000000000027
 40
0.3750000000000027
 40
0.5000000000000036
 40
0.5000000000000036
 40
0.6250000000000044
 40
0.6250000000000044
 40
0.7500000000000053
 40
0.7500000000000053
 40
1.0
 40
1.0
 40
1.0
 40
1.0
 10
175.4040934412759
 20
364.8675369417589
 30
0.0
 10
175.1859689675062
 20
364.8571850648886
 30
0.0
 10
174.9713952275633
 20
364.8468856354826
 30
0.0
 10
174.5490660318038
 20
364.826416911807
 30
0.0
 10
174.3392227237783
 20
364.8161440566931
 30
0.0
 10
173.9378736688385
 20
364.7963713670181
 30
0.0
 10
173.7472824852733
 20
364.7869190381791
 30
0.0
 10
173.3861034497813
 20
364.7690040891692
 30
0.0
 10
173.2144973639155
 20
364.7604918768005
 30
0.0
 10
172.9060049624394
 20
364.7453422055824
 30
0.0
 10
172.7672767645119
 20
364.738612431056
 30
0.0
 10
172.5215809020111
 20
364.7270402790629
 30
0.0
 10
172.4161378425113
 20
364.7222755843967
 30
0.0
 10
172.1616649417333
 20
364.7116670594367
 30
0.0
 10
172.0693369879975
 20
364.7093289385547
 30
0.0
 10
172.0655553008078
 20
364.7123972191443
 30
0.0
  0
LWPOLYLINE
  5
A1
330
1F
100
AcDbEntity
  8
0
  6
Continuous
 62
     8
370
     0
100
AcDbPolyline
 90
        9
 70
   128
 43
0.0
 10
175.4801678675
 20
363.2646462216
 10
175.4653967878
 20
363.5758862309
 10
175.4511878857
 20
363.8752778317
 10
175.4380819678
 20
364.1514258469
 10
175.4265778597
 20
364.3938197765
 10
175.4171134208
 20
364.593233838
 10
175.4100488779
 20
364.7420781107
 10
175.4056531156
 20
364.8346874163
 10
175.4040934413
 20
364.8675369418
  0
ARC
  5
A2
330
1F
100
AcDbEntity
  8
0
  6
Continuous
 62
     8
370
     0
100
AcDbCircle
 10
172.1622879716
 20
363.1104469544
 30
0.0
 40
1.604868175325391
100
AcDbArc
 50
93.4555705499
 51
177.8610393355
  0
SPLINE
  5
A3
330
1F
100
AcDbEntity
  8
0
  6
Continuous
 62
     8
370
     0
100
AcDbSpline
210
0.0
220
0.0
230
1.0
 70
     8
 71
     3
 72
    20
 73
    16
 74
     0
 42
0.00000001
 43
0.00000001
 40
0.0
 40
0.0
 40
0.0
 40
0.0
 40
0.1250000000000001
 40
0.1250000000000001
 40
0.2500000000000002
 40
0.2500000000000002
 40
0.3750000000000003
 40
0.3750000000000003
 40
0.5000000000000004
 40
0.5000000000000004
 40
0.6250000000000006
 40
0.6250000000000006
 40
0.7500000000000007
 40
0.7500000000000007
 40
1.0
 40
1.0
 40
1.0
 40
1.0
 10
203.4601563864103
 20
364.7123972153929
 30
0.0
 10
203.4582656614582
 20
364.7108631713579
 30
0.0
 10
203.4348046564504
 20
364.7106619575918
 30
0.0
 10
203.3465683653676
 20
364.712778890193
 30
0.0
 10
203.2807308790456
 20
364.7151436602117
 30
0.0
 10
203.1103570956923
 20
364.7222396590579
 30
0.0
 10
203.0066500096198
 20
364.7269252925831
 30
0.0
 10
202.762691998378
 20
364.7384083501347
 30
0.0
 10
202.621203010939
 20
364.7452693365154
 30
0.0
 10
202.3130889747431
 20
364.7603992026677
 30
0.0
 10
202.1453755555451
 20
364.7687180226825
 30
0.0
 10
201.782141695012
 20
364.7867348864182
 30
0.0
 10
201.5891324285232
 20
364.7963070310105
 30
0.0
 10
200.9914630059739
 20
364.8257532313458
 30
0.0
 10
200.5578415519634
 20
364.8468344010515
 30
0.0
 10
200.1216186629848
 20
364.8675369184155
 30
0.0
  0
ARC
  5
A4
330
1F
100
AcDbEntity
  8
0
  6
Continuous
 62
     8
370
     0
100
AcDbCircle
 10
203.3634237156
 20
363.1104469507
 30
0.0
 40
1.604868175274248
100
AcDbArc
 50
2.138960662
 51
86.5444294528
  0
LWPOLYLINE
  5
A5
330
1F
100
AcDbEntity
  8
0
  6
Continuous
 62
     8
370
     0
100
AcDbPolyline
 90
        9
 70
   128
 43
0.0
 10
200.0455444254
 20
363.2646464377
 10
200.0603155002
 20
363.5758864121
 10
200.0745243905
 20
363.8752779724
 10
200.0876302902
 20
364.1514259456
 10
200.0991343743
 20
364.3938198351
 10
200.1085987848
 20
364.5932338619
 10
200.1156632956
 20
364.7420781082
 10
200.1200590238
 20
364.8346873976
 10
200.121618663
 20
364.8675369184
  0
SPLINE
  5
A6
330
1F
100
AcDbEntity
  8
0
  6
Continuous
 62
     8
370
     0
100
AcDbSpline
210
0.0
220
0.0
230
1.0
 70
     8
 71
     3
 72
    34
 73
    30
 74
     0
 42
0.00000001
 43
0.00000001
 40
0.0
 40
0.0
 40
0.0
 40
0.0
 40
0.1250000000000001
 40
0.1250000000000001
 40
0.2500000000000001
 40
0.2500000000000001
 40
0.3125000000000002
 40
0.3125000000000002
 40
0.3437500000000001
 40
0.3437500000000001
 40
0.3750000000000001
 40
0.3750000000000001
 40
0.4375000000000001
 40
0.4375000000000001
 40
0.46875
 40
0.46875
 40
0.5
 40
0.5
 40
0.5624999999999999
 40
0.5624999999999999
 40
0.6249999999999999
 40
0.6249999999999999
 40
0.6874999999999999
 40
0.6874999999999999
 40
0.75
 40
0.75
 40
0.875
 40
0.875
 40
1.0
 40
1.0
 40
1.0
 40
1.0
 10
174.6004521652321
 20
343.2116567653001
 30
0.0
 10
175.5576154121899
 20
342.3950387640878
 30
0.0
 10
176.5322213527095
 20
341.5960984101191
 30
0.0
 10
178.5352867665881
 20
340.0831125415315
 30
0.0
 10
179.5626313898141
 20
339.3687231196621
 30
0.0
 10
181.1736911533222
 20
338.4113908032751
 30
0.0
 10
181.7225324552947
 20
338.1115627555467
 30
0.0
 10
182.5698890850022
 20
337.701123522497
 30
0.0
 10
182.856379906278
 20
337.5708981618241
 30
0.0
 10
183.438874085927
 20
337.3259641803085
 30
0.0
 10
183.735763368018
 20
337.2109864354567
 30
0.0
 10
184.6321026877999
 20
336.897396350969
 30
0.0
 10
185.2393701466105
 20
336.7287972591935
 30
0.0
 10
186.168729350359
 20
336.5528290025459
 30
0.0
 10
186.4816026943163
 20
336.507038857528
 30
0.0
 10
187.1143316898731
 20
336.4445599260642
 30
0.0
 10
187.4318897588027
 20
336.4282429626237
 30
0.0
 10
188.3768519342785
 20
336.4266536501109
 30
0.0
 10
189.0010766741535
 20
336.488231003136
 30
0.0
 10
190.2397945307518
 20
336.717394531505
 30
0.0
 10
190.8562060641849
 20
336.886298071848
 30
0.0
 10
192.0478300605588
 20
337.299347036079
 30
0.0
 10
192.6278613035386
 20
337.5440541855679
 30
0.0
 10
193.7641471544739
 20
338.0909974588551
 30
0.0
 10
194.321949478707
 20
338.3943378692622
 30
0.0
 10
195.9515646215509
 20
339.3603007919972
 30
0.0
 10
196.9840933656843
 20
340.0785081548356
 30
0.0
 10
198.9914672939417
 20
341.5943929140477
 30
0.0
 10
199.9656641412342
 20
342.3929637482797
 30
0.0
 10
200.9252574298086
 20
343.2116549417714
 30
0.0
  0
SPLINE
  5
A7
330
1F
100
AcDbEntity
  8
0
  6
Continuous
 62
     8
370
     0
100
AcDbSpline
210
0.0
220
0.0
230
1.0
 70
     8
 71
     3
 72
     8
 73
     4
 74
     0
 42
0.00000001
 43
0.00000001
 40
0.0
 40
0.0
 40
0.0
 40
0.0
 40
1.0
 40
1.0
 40
1.0
 40
1.0
 10
200.1216186629848
 20
364.8675369184155
 30
0.0
 10
191.8870776766501
 20
365.2583365120663
 30
0.0
 10
183.6386344345675
 20
365.2583365295932
 30
0.0
 10
175.4040934412759
 20
364.8675369417589
 30
0.0
  0
SPLINE
  5
A8
330
1F
100
AcDbEntity
  8
0
  6
Continuous
 62
     8
370
    15
100
AcDbSpline
210
0.0
220
0.0
230
1.0
 70
     8
 71
     3
 72
    42
 73
    38
 74
     0
 42
0.00000001
 43
0.00000001
 40
0.0
 40
0.0
 40
0.0
 40
0.0
 40
0.1250000000000001
 40
0.1250000000000001
 40
0.1875000000000001
 40
0.1875000000000001
 40
0.2500000000000001
 40
0.2500000000000001
 40
0.3125000000000001
 40
0.3125000000000001
 40
0.3437500000000002
 40
0.3437500000000002
 40
0.3750000000000002
 40
0.3750000000000002
 40
0.4375000000000002
 40
0.4375000000000002
 40
0.4687500000000003
 40
0.4687500000000003
 40
0.5000000000000003
 40
0.5000000000000003
 40
0.5312500000000004
 40
0.5312500000000004
 40
0.5625000000000004
 40
0.5625000000000004
 40
0.6250000000000004
 40
0.6250000000000004
 40
0.6562500000000004
 40
0.6562500000000004
 40
0.6875000000000004
 40
0.6875000000000004
 40
0.7500000000000004
 40
0.7500000000000004
 40
0.8125000000000003
 40
0.8125000000000003
 40
0.8750000000000002
 40
0.8750000000000002
 40
1.0
 40
1.0
 40
1.0
 40
1.0
 10
170.7156076037362
 20
345.6871215898486
 30
0.0
 10
171.8025821075527
 20
344.7567666520313
 30
0.0
 10
172.953965126102
 20
343.7705737116257
 30
0.0
 10
174.7930050240933
 20
342.2671719251022
 30
0.0
 10
175.4268970148337
 20
341.7607018603869
 30
0.0
 10
176.7320831186341
 20
340.7597328014673
 30
0.0
 10
177.4015537147605
 20
340.2664527472667
 30
0.0
 10
178.7844280003291
 20
339.311458003086
 30
0.0
 10
179.4976950811565
 20
338.8495603398637
 30
0.0
 10
180.6130923287415
 20
338.1988257314827
 30
0.0
 10
180.9925366983283
 20
337.9890063371759
 30
0.0
 10
181.7699643186
 20
337.5880335346214
 30
0.0
 10
182.1691577126627
 20
337.3964297635188
 30
0.0
 10
183.3821768935826
 20
336.866278758285
 30
0.0
 10
184.2154106731337
 20
336.568988478494
 30
0.0
 10
185.5176028601311
 20
336.2502592011911
 30
0.0
 10
185.96388112858
 20
336.1650721365743
 30
0.0
 10
186.8589366487977
 20
336.0500252306359
 30
0.0
 10
187.3066230034412
 20
336.0199074946171
 30
0.0
 10
188.2023353040567
 20
336.0191654637013
 30
0.0
 10
188.6503613983279
 20
336.0485718004362
 30
0.0
 10
189.5467324572798
 20
336.1624978278509
 30
0.0
 10
189.9924276524127
 20
336.247001419626
 30
0.0
 10
191.2946460107894
 20
336.5640267345253
 30
0.0
 10
192.1290363025519
 20
336.860662529622
 30
0.0
 10
193.3447624436609
 20
337.3909244518294
 30
0.0
 10
193.7439538115895
 20
337.5822309212414
 30
0.0
 10
194.5223141144373
 20
337.983132489504
 30
0.0
 10
194.9029206495952
 20
338.1933370439061
 30
0.0
 10
196.0233730946594
 20
338.8465173018016
 30
0.0
 10
196.74207201587
 20
339.3117738208333
 30
0.0
 10
198.1384380696803
 20
340.276545410743
 30
0.0
 10
198.8116503514784
 20
340.7732385602702
 30
0.0
 10
200.1114292537804
 20
341.7706991188437
 30
0.0
 10
200.7395175718044
 20
342.2726883494876
 30
0.0
 10
202.5701289959101
 20
343.7693547007075
 30
0.0
 10
203.7204952734003
 20
344.7545119066813
 30
0.0
 10
204.8101040818773
 20
345.6871215840625
 30
0.0
  0
SPLINE
  5
A9
330
1F
100
AcDbEntity
  8
0
  6
Continuous
 62
     8
370
     0
100
AcDbSpline
210
0.0
220
0.0
230
1.0
 70
     8
 71
     3
 72
     8
 73
     4
 74
     0
 42
0.00000001
 43
0.00000001
 40
0.0
 40
0.0
 40
0.0
 40
0.0
 40
1.0
 40
1.0
 40
1.0
 40
1.0
 10
171.1238045211211
 20
346.233429751475
 30
0.0
 10
170.9532242918127
 20
346.0811473485056
 30
0.0
 10
170.8820730900046
 20
345.8415993089693
 30
0.0
 10
170.7158005658993
 20
345.6869548618941
 30
0.0
  0
SPLINE
  5
AA
330
1F
100
AcDbEntity
  8
0
  6
Continuous
 62
     8
370
     0
100
AcDbSpline
210
0.0
220
0.0
230
1.0
 70
     8
 71
     3
 72
     8
 73
     4
 74
     0
 42
0.00000001
 43
0.00000001
 40
0.0
 40
0.0
 40
0.0
 40
0.0
 40
1.0
 40
1.0
 40
1.0
 40
1.0
 10
204.8099111304445
 20
345.6869548653688
 30
0.0
 10
204.6436386067676
 20
345.8415993104895
 30
0.0
 10
204.5724874040565
 20
346.0811473470324
 30
0.0
 10
204.4019071752963
 20
346.2334297478869
 30
0.0
  0
SPLINE
  5
AB
330
1F
100
AcDbEntity
  8
0
  6
Continuous
 62
     8
370
    15
100
AcDbSpline
210
0.0
220
0.0
230
1.0
 70
     8
 71
     3
 72
    30
 73
    26
 74
     0
 42
0.00000001
 43
0.00000001
 40
0.0
 40
0.0
 40
0.0
 40
0.0
 40
0.0625
 40
0.0625
 40
0.1250000000000001
 40
0.1250000000000001
 40
0.2500000000000002
 40
0.2500000000000002
 40
0.3125000000000002
 40
0.3125000000000002
 40
0.3750000000000002
 40
0.3750000000000002
 40
0.5000000000000002
 40
0.5000000000000002
 40
0.5625000000000001
 40
0.5625000000000001
 40
0.625
 40
0.625
 40
0.75
 40
0.75
 40
0.8125
 40
0.8125
 40
0.875
 40
0.875
 40
1.0
 40
1.0
 40
1.0
 40
1.0
 10
203.6497797023712
 20
365.1650408008618
 30
0.0
 10
203.1029004459134
 20
365.1947783056228
 30
0.0
 10
202.5354336106305
 20
365.2242417286939
 30
0.0
 10
201.3593190724783
 20
365.2818138241603
 30
0.0
 10
200.7502435638787
 20
365.3099238359256
 30
0.0
 10
198.8884134811141
 20
365.3898820813976
 30
0.0
 10
197.5927913793232
 20
365.4377928662495
 30
0.0
 10
195.568446468579
 20
365.4979042341762
 30
0.0
 10
194.8800997478142
 20
365.5159847910375
 30
0.0
 10
193.4753823773837
 20
365.547619368712
 30
0.0
 10
192.766356116428
 20
365.5609929161325
 30
0.0
 10
190.6349733087268
 20
365.59317222268
 30
0.0
 10
189.2018730937148
 20
365.6041811918122
 30
0.0
 10
187.0339014587913
 20
365.6041331151447
 30
0.0
 10
186.3052242734798
 20
365.601332878091
 30
0.0
 10
184.8554270573849
 20
365.5901936681452
 30
0.0
 10
184.1386126658169
 20
365.5819137893937
 30
0.0
 10
182.0117076974294
 20
365.5495024461434
 30
0.0
 10
180.6249702816513
 20
365.5177901605017
 30
0.0
 10
178.5922794909704
 20
365.457342147946
 30
0.0
 10
177.9196378317411
 20
365.4349239770177
 30
0.0
 10
176.6144748021087
 20
365.3871304413623
 30
0.0
 10
175.9800313871088
 20
365.3617209354875
 30
0.0
 10
174.1298300465213
 20
365.2820591019635
 30
0.0
 10
172.9667279380641
 20
365.2243547156633
 30
0.0
 10
171.8759320386979
 20
365.1650408035387
 30
0.0
  0
SPLINE
  5
AC
330
1F
100
AcDbEntity
  8
0
  6
Continuous
 62
     8
370
     0
100
AcDbSpline
210
0.0
220
0.0
230
1.0
 70
     8
 71
     3
 72
     8
 73
     4
 74
     0
 42
0.00000001
 43
0.00000001
 40
0.0
 40
0.0
 40
0.0
 40
0.0
 40
1.0
 40
1.0
 40
1.0
 40
1.0
 10
203.4601563864103
 20
364.7123972153929
 30
0.0
 10
203.637022057635
 20
364.8558975848289
 30
0.0
 10
203.5127863413819
 20
365.0184289086462
 30
0.0
 10
203.6495263003463
 20
365.1650554270058
 30
0.0
  0
SPLINE
  5
AD
330
1F
100
AcDbEntity
  8
0
  6
Continuous
 62
     8
370
     0
100
AcDbSpline
210
0.0
220
0.0
230
1.0
 70
     8
 71
     3
 72
     8
 73
     4
 74
     0
 42
0.00000001
 43
0.00000001
 40
0.0
 40
0.0
 40
0.0
 40
0.0
 40
1.0
 40
1.0
 40
1.0
 40
1.0
 10
171.8761854092578
 20
365.1650554278663
 30
0.0
 10
172.012925424917
 20
365.018428913544
 30
0.0
 10
171.8886896362435
 20
364.8558975822289
 30
0.0
 10
172.0655553008078
 20
364.7123972191443
 30
0.0
  0
SPLINE
  5
AE
330
1F
100
AcDbEntity
  8
0
  6
Continuous
 62
     8
370
     0
100
AcDbSpline
210
0.0
220
0.0
230
1.0
 70
     8
 71
     3
 72
    10
 73
     6
 74
     0
 42
0.00000001
 43
0.00000001
 40
0.0
 40
0.0
 40
0.0
 40
0.0
 40
0.5
 40
0.5
 40
1.0
 40
1.0
 40
1.0
 40
1.0
 10
204.9325454071418
 20
347.3600367140546
 30
0.0
 10
205.0220222024795
 20
347.2853293250538
 30
0.0
 10
205.1169954306409
 20
347.252698919594
 30
0.0
 10
205.3096369467287
 20
347.1945072727985
 30
0.0
 10
205.4073444945028
 20
347.1698119975596
 30
0.0
 10
205.5020834052754
 20
347.1069781388212
 30
0.0
  0
SPLINE
  5
AF
330
1F
100
AcDbEntity
  8
0
  6
Continuous
 62
     8
370
     0
100
AcDbSpline
210
0.0
220
0.0
230
1.0
 70
     8
 71
     3
 72
    10
 73
     6
 74
     0
 42
0.00000001
 43
0.00000001
 40
0.0
 40
0.0
 40
0.0
 40
0.0
 40
0.5
 40
0.5
 40
1.0
 40
1.0
 40
1.0
 40
1.0
 10
205.542141442458
 20
363.2549888935682
 30
0.0
 10
205.4474979762372
 20
363.1946329949312
 30
0.0
 10
205.3489472522353
 20
363.2123666035185
 30
0.0
 10
205.1540884038403
 20
363.2366404442048
 30
0.0
 10
205.0577100393898
 20
363.2447719154326
 30
0.0
 10
204.9671736915082
 20
363.1703458233163
 30
0.0
  0
SPLINE
  5
B0
330
1F
100
AcDbEntity
  8
0
  6
Continuous
 62
     8
370
    15
100
AcDbSpline
210
0.0
220
0.0
230
1.0
 70
     8
 71
     3
 72
    18
 73
    14
 74
     0
 42
0.00000001
 43
0.00000001
 40
0.0
 40
0.0
 40
0.0
 40
0.0
 40
0.0720652088582953
 40
0.1439075661637209
 40
0.2155328333061126
 40
0.2869467442825727
 40
0.3581550050073816
 40
0.4291632926254976
 40
0.4999772548307302
 40
0.6237786255788077
 40
0.7483625252144868
 40
0.8737593888964819
 40
1.0
 40
1.0
 40
1.0
 40
1.0
 10
205.5421144540553
 20
363.2556996661661
 30
0.0
 10
205.5562814322033
 20
362.8681014363509
 30
0.0
 10
205.5845715791059
 20
362.0941035698941
 30
0.0
 10
205.6183599833923
 20
360.9342444975546
 30
0.0
 10
205.6457874103759
 20
359.7775372021949
 30
0.0
 10
205.6662919229376
 20
358.6239249914919
 30
0.0
 10
205.6800881226424
 20
357.4734164326445
 30
0.0
 10
205.6871885045566
 20
356.3260016859485
 30
0.0
 10
205.6877562391246
 20
354.8952552841225
 30
0.0
 10
205.6748799906694
 20
353.1759804327477
 30
0.0
 10
205.6390274359767
 20
351.1633301888789
 30
0.0
 10
205.5838246324966
 20
349.1384407424171
 30
0.0
 10
205.5293816452686
 20
347.7854189282768
 30
0.0
 10
205.5020688772327
 20
347.1066396614008
 30
0.0
  0
SPLINE
  5
B1
330
1F
100
AcDbEntity
  8
0
  6
Continuous
 62
     8
370
     0
100
AcDbSpline
210
0.0
220
0.0
230
1.0
 70
     8
 71
     3
 72
    10
 73
     6
 74
     0
 42
0.00000001
 43
0.00000001
 40
0.0
 40
0.0
 40
0.0
 40
0.0
 40
0.5
 40
0.5
 40
1.0
 40
1.0
 40
1.0
 40
1.0
 10
170.5585379957393
 20
363.170345827093
 30
0.0
 10
170.4680016516982
 20
363.2447719158985
 30
0.0
 10
170.37162328628
 20
363.2366404247979
 30
0.0
 10
170.1767644371856
 20
363.2123665608754
 30
0.0
 10
170.078213713695
 20
363.1946329526294
 30
0.0
 10
169.9835702489075
 20
363.2549888813051
 30
0.0
  0
SPLINE
  5
B2
330
1F
100
AcDbEntity
  8
0
  6
Continuous
 62
     8
370
     0
100
AcDbSpline
210
0.0
220
0.0
230
1.0
 70
     8
 71
     3
 72
    10
 73
     6
 74
     0
 42
0.00000001
 43
0.00000001
 40
0.0
 40
0.0
 40
0.0
 40
0.0
 40
0.5
 40
0.5
 40
1.0
 40
1.0
 40
1.0
 40
1.0
 10
170.0236282865575
 20
347.1069781393834
 30
0.0
 10
170.1183671981089
 20
347.1698119987943
 30
0.0
 10
170.216074746697
 20
347.1945072744176
 30
0.0
 10
170.408716264325
 20
347.2526989220416
 30
0.0
 10
170.5036894932025
 20
347.2853293280559
 30
0.0
 10
170.5931662891626
 20
347.3600367177722
 30
0.0
  0
SPLINE
  5
B3
330
1F
100
AcDbEntity
  8
0
  6
Continuous
 62
     8
370
    15
100
AcDbSpline
210
0.0
220
0.0
230
1.0
 70
     8
 71
     3
 72
    18
 73
    14
 74
     0
 42
0.00000001
 43
0.00000001
 40
0.0
 40
0.0
 40
0.0
 40
0.0
 40
0.0722361852916062
 40
0.1441925581818433
 40
0.2158749021698414
 40
0.287288964050267
 40
0.3584404536346483
 40
0.4293350434812163
 40
0.4999783686339385
 40
0.6240410373145285
 40
0.7487118518434538
 40
0.874021265941586
 40
1.0
 40
1.0
 40
1.0
 40
1.0
 10
170.0236428139294
 20
347.1066396771351
 30
0.0
 10
170.0075252129199
 20
347.4949963862718
 30
0.0
 10
169.9753524436641
 20
348.2702054750608
 30
0.0
 10
169.9357830044644
 20
349.4315098834833
 30
0.0
 10
169.9026258625288
 20
350.58880985128
 30
0.0
 10
169.8764291080436
 20
351.7421685362609
 30
0.0
 10
169.8569637665046
 20
352.8915761175545
 30
0.0
 10
169.8442029737638
 20
354.0370430734765
 30
0.0
 10
169.8365333361855
 20
355.4676190319063
 30
0.0
 10
169.8408829353941
 20
357.1879473993919
 30
0.0
 10
169.8668065705493
 20
359.2023431663459
 30
0.0
 10
169.9119872572435
 20
361.226368333664
 30
0.0
 10
169.9596848963365
 20
362.5780558035573
 30
0.0
 10
169.9835972385404
 20
363.2556996858852
 30
0.0
  0
SPLINE
  5
B4
330
1F
100
AcDbEntity
  8
0
  6
Continuous
 62
     8
370
    15
100
AcDbSpline
210
0.0
220
0.0
230
1.0
 70
     8
 71
     3
 72
     9
 73
     5
 74
     0
 42
0.00000001
 43
0.00000001
 40
0.0
 40
0.0
 40
0.0
 40
0.0
 40
0.6804933206745121
 40
1.0
 40
1.0
 40
1.0
 40
1.0
 10
170.0236282236581
 20
347.1069780976666
 30
0.0
 10
170.037080279185
 20
346.9546731736211
 30
0.0
 10
170.0568483725934
 20
346.7308577158961
 30
0.0
 10
170.1390046384391
 20
346.5428745179533
 30
0.0
 10
170.1652541141252
 20
346.4828126306095
 30
0.0
  0
SPLINE
  5
B5
330
1F
100
AcDbEntity
  8
0
  6
Continuous
 62
     8
370
    15
100
AcDbSpline
210
0.0
220
0.0
230
1.0
 70
     8
 71
     3
 72
     9
 73
     5
 74
     0
 42
0.00000001
 43
0.00000001
 40
0.0
 40
0.0
 40
0.0
 40
0.0
 40
0.3132355181581832
 40
1.0
 40
1.0
 40
1.0
 40
1.0
 10
205.3628624843687
 20
346.4889774141734
 30
0.0
 10
205.3882666471962
 20
346.5472674067922
 30
0.0
 10
205.4693690808436
 20
346.7333573909727
 30
0.0
 10
205.4887638378878
 20
346.9548587980534
 30
0.0
 10
205.5020834681597
 20
347.1069780971143
 30
0.0
  0
SPLINE
  5
B6
330
1F
100
AcDbEntity
  8
0
  6
Continuous
 62
     8
370
     0
100
AcDbSpline
210
0.0
220
0.0
230
1.0
 70
     8
 71
     3
 72
    30
 73
    26
 74
     0
 42
0.00000001
 43
0.00000001
 40
0.0
 40
0.0
 40
0.0
 40
0.0
 40
0.125
 40
0.125
 40
0.1874999999999999
 40
0.1874999999999999
 40
0.2499999999999999
 40
0.2499999999999999
 40
0.375
 40
0.375
 40
0.4375000000000001
 40
0.4375000000000001
 40
0.5000000000000001
 40
0.5000000000000001
 40
0.6250000000000001
 40
0.6250000000000001
 40
0.6875000000000001
 40
0.6875000000000001
 40
0.75
 40
0.75
 40
0.875
 40
0.875
 40
0.9375
 40
0.9375
 40
1.0
 40
1.0
 40
1.0
 40
1.0
 10
173.256895478087
 20
367.5339407860982
 30
0.0
 10
174.2674817737389
 20
367.6215843746069
 30
0.0
 10
175.3385763516558
 20
367.7029119463666
 30
0.0
 10
177.0355142387117
 20
367.8123947654365
 30
0.0
 10
177.6163134708493
 20
367.8468010292581
 30
0.0
 10
178.8093099050809
 20
367.9108500594317
 30
0.0
 10
179.423252167818
 20
367.940535172775
 30
0.0
 10
181.2764939996728
 20
368.0199745729518
 30
0.0
 10
182.5381447943134
 20
368.0608146773031
 30
0.0
 10
184.4713038765778
 20
368.1023868598926
 30
0.0
 10
185.122507161649
 20
368.1129557419168
 30
0.0
 10
186.4392821199667
 20
368.1271599292281
 30
0.0
 10
187.1009431662921
 20
368.1307202777297
 30
0.0
 10
189.0695271265295
 20
368.1307814636202
 30
0.0
 10
190.3708194214251
 20
368.1168233008593
 30
0.0
 10
192.3080129015671
 20
368.0755548167305
 30
0.0
 10
192.952752495236
 20
368.0583537726208
 30
0.0
 10
194.2310807660328
 20
368.0173790193311
 30
0.0
 10
194.8579851687935
 20
367.9938381621757
 30
0.0
 10
196.703592907306
 20
367.914849434357
 30
0.0
 10
197.8874546521478
 20
367.8510607041389
 30
0.0
 10
199.5949416312709
 20
367.7412255592686
 30
0.0
 10
200.154633121667
 20
367.7020901142149
 30
0.0
 10
201.2380443532403
 20
367.6204165509446
 30
0.0
 10
201.762146372914
 20
367.5778819748755
 30
0.0
 10
202.2688162593627
 20
367.5339407821429
 30
0.0
  0
SPLINE
  5
B7
330
1F
100
AcDbEntity
  8
0
  6
Continuous
 62
     8
370
     0
100
AcDbSpline
210
0.0
220
0.0
230
1.0
 70
     8
 71
     3
 72
    46
 73
    42
 74
     0
 42
0.00000001
 43
0.00000001
 40
0.0
 40
0.0
 40
0.0
 40
0.0
 40
0.1250000000000001
 40
0.1250000000000001
 40
0.1875000000000002
 40
0.1875000000000002
 40
0.2500000000000002
 40
0.2500000000000002
 40
0.3125000000000003
 40
0.3125000000000003
 40
0.3437500000000003
 40
0.3437500000000003
 40
0.3750000000000003
 40
0.3750000000000003
 40
0.4375000000000004
 40
0.4375000000000004
 40
0.4531250000000004
 40
0.4531250000000004
 40
0.4687500000000004
 40
0.4687500000000004
 40
0.5000000000000004
 40
0.5000000000000004
 40
0.5312500000000004
 40
0.5312500000000004
 40
0.5468750000000004
 40
0.5468750000000004
 40
0.5625000000000004
 40
0.5625000000000004
 40
0.6250000000000004
 40
0.6250000000000004
 40
0.6562500000000004
 40
0.6562500000000004
 40
0.6875000000000004
 40
0.6875000000000004
 40
0.7500000000000004
 40
0.7500000000000004
 40
0.8125000000000003
 40
0.8125000000000003
 40
0.8750000000000003
 40
0.8750000000000003
 40
1.0
 40
1.0
 40
1.0
 40
1.0
 10
204.4564770843287
 20
342.4827171672879
 30
0.0
 10
203.5449837926543
 20
341.6581826755345
 30
0.0
 10
202.5531862457404
 20
340.7844273564266
 30
0.0
 10
200.9158875872013
 20
339.4345184640434
 30
0.0
 10
200.3449123892439
 20
338.9782423108191
 30
0.0
 10
199.1422615207876
 20
338.0633509440977
 30
0.0
 10
198.5091863733798
 20
337.6036013651588
 30
0.0
 10
197.1717793627624
 20
336.7016459762658
 30
0.0
 10
196.4718159378675
 20
336.2620802944355
 30
0.0
 10
195.358884299731
 20
335.6381799264436
 30
0.0
 10
194.9773250877964
 20
335.4361958158763
 30
0.0
 10
194.1889207821077
 20
335.0486384729796
 30
0.0
 10
193.7805801552747
 20
334.862460815027
 30
0.0
 10
192.5232401733486
 20
334.3430445691585
 30
0.0
 10
191.6423098282589
 20
334.0473922841695
 30
0.0
 10
190.4691945215154
 20
333.7808328562379
 30
0.0
 10
190.2309530429517
 20
333.7327577952166
 30
0.0
 10
189.7466993777093
 20
333.648478874456
 30
0.0
 10
189.499853590766
 20
333.6122099291969
 30
0.0
 10
188.7572060336022
 20
333.5246510399708
 30
0.0
 10
188.2570774445372
 20
333.4940838679561
 30
0.0
 10
187.2497931117734
 20
333.4948547292876
 30
0.0
 10
186.7502577069486
 20
333.5261506708034
 30
0.0
 10
186.0088775532333
 20
333.6145553966261
 30
0.0
 10
185.762230430028
 20
333.6511023954474
 30
0.0
 10
185.2777620256099
 20
333.736034534927
 30
0.0
 10
185.0395092952185
 20
333.7844161115404
 30
0.0
 10
183.8667326482018
 20
334.0523580287544
 30
0.0
 10
182.987291147603
 20
334.3485953403325
 30
0.0
 10
181.7330313754325
 20
334.867828234657
 30
0.0
 10
181.3247692596057
 20
335.0542712169787
 30
0.0
 10
180.5374637185168
 20
335.4418501923284
 30
0.0
 10
180.1571441487373
 20
335.6434394358529
 30
0.0
 10
179.0493842864788
 20
336.2649526566648
 30
0.0
 10
178.3547717774331
 20
336.7013181296918
 30
0.0
 10
177.0301189685505
 20
337.5941980770665
 30
0.0
 10
176.4002885799461
 20
338.0508974872229
 30
0.0
 10
175.1923116961607
 20
338.9691367958507
 30
0.0
 10
174.6159565812105
 20
339.4295277015929
 30
0.0
 10
172.9709974975505
 20
340.7855572081443
 30
0.0
 10
171.9785238899909
 20
341.6601764299407
 30
0.0
 10
171.0692346092765
 20
342.4827171746652
 30
0.0
  0
LINE
  5
B8
330
1F
100
AcDbEntity
  8
0
  6
Continuous
 62
     8
370
     0
100
AcDbLine
 10
196.0676958459
 20
400.889030105
 30
0.0
 11
179.4580158459
 21
400.889030105
 31
0.0
  0
LINE
  5
B9
330
1F
100
AcDbEntity
  8
0
  6
Continuous
 62
     8
370
     0
100
AcDbLine
 10
179.4580158459
 20
410.919030105
 30
0.0
 11
196.0676958459
 21
410.919030105
 31
0.0
  0
ARC
  5
BA
330
1F
100
AcDbEntity
  8
0
  6
Continuous
 62
     8
370
     0
100
AcDbCircle
 10
187.7628558459
 20
390.457830105
 30
0.0
 40
2.306900000000039
100
AcDbArc
 50
280.0154101683
 51
79.9845898317
  0
ARC
  5
BB
330
1F
100
AcDbEntity
  8
0
  6
Continuous
 62
     8
370
     0
100
AcDbCircle
 10
187.7628558459
 20
390.457830105
 30
0.0
 40
2.407200000000045
100
AcDbArc
 50
99.5940682269
 51
260.4059317731
  0
SPLINE
  5
BC
330
1F
100
AcDbEntity
  8
0
  6
Continuous
 62
     8
370
     0
100
AcDbSpline
210
0.0
220
0.0
230
1.0
 70
     8
 71
     3
 72
    22
 73
    18
 74
     0
 42
0.00000001
 43
0.00000001
 40
0.0
 40
0.0
 40
0.0
 40
0.0
 40
0.125
 40
0.125
 40
0.25
 40
0.25
 40
0.375
 40
0.375
 40
0.5
 40
0.5
 40
0.625
 40
0.625
 40
0.75
 40
0.75
 40
0.875
 40
0.875
 40
1.0
 40
1.0
 40
1.0
 40
1.0
 10
179.4580158459211
 20
400.8890301050175
 30
0.0
 10
179.2713633048163
 20
400.8890301050175
 30
0.0
 10
179.0891967241476
 20
400.9093267443332
 30
0.0
 10
178.7330790000643
 20
400.9873331929168
 30
0.0
 10
178.5576507940767
 20
401.0457667234961
 30
0.0
 10
178.2220080048102
 20
401.1983596650125
 30
0.0
 10
178.0640745871917
 20
401.2910644223724
 30
0.0
 10
177.7667177330642
 20
401.5079746223601
 30
0.0
 10
177.6258827770337
 20
401.6338718883899
 30
0.0
 10
177.3718091308443
 20
401.9105192994551
 30
0.0
 10
177.2585144743827
 20
402.0605608174181
 30
0.0
 10
177.0588849787736
 20
402.3842028135988
 30
0.0
 10
176.9718675758685
 20
402.5600882938035
 30
0.0
 10
176.8328837904998
 20
402.9229473198246
 30
0.0
 10
176.7800889270276
 20
403.1103849239374
 30
0.0
 10
176.70834899754
 20
403.4975952461642
 30
0.0
 10
176.6897358459211
 20
403.697943324884
 30
0.0
 10
176.689735845921
 20
403.8980301050175
 30
0.0
  0
SPLINE
  5
BD
330
1F
100
AcDbEntity
  8
0
  6
Continuous
 62
     8
370
     0
100
AcDbSpline
210
0.0
220
0.0
230
1.0
 70
     8
 71
     3
 72
    22
 73
    18
 74
     0
 42
0.00000001
 43
0.00000001
 40
0.0
 40
0.0
 40
0.0
 40
0.0
 40
0.125
 40
0.125
 40
0.25
 40
0.25
 40
0.375
 40
0.375
 40
0.5
 40
0.5
 40
0.625
 40
0.625
 40
0.75
 40
0.75
 40
0.875
 40
0.875
 40
1.0
 40
1.0
 40
1.0
 40
1.0
 10
196.0676958459211
 20
410.9190301050175
 30
0.0
 10
196.2543483870258
 20
410.9190301050175
 30
0.0
 10
196.4365149676945
 20
410.8987334657019
 30
0.0
 10
196.7926326917778
 20
410.8207270171182
 30
0.0
 10
196.9680608977654
 20
410.7622934865389
 30
0.0
 10
197.3037036870319
 20
410.6097005450226
 30
0.0
 10
197.4616371046504
 20
410.5169957876627
 30
0.0
 10
197.7589939587779
 20
410.300085587675
 30
0.0
 10
197.8998289148084
 20
410.174188321645
 30
0.0
 10
198.1539025609979
 20
409.8975409105798
 30
0.0
 10
198.2671972174595
 20
409.7474993926169
 30
0.0
 10
198.4668267130685
 20
409.4238573964362
 30
0.0
 10
198.5538441159736
 20
409.2479719162316
 30
0.0
 10
198.6928279013423
 20
408.8851128902103
 30
0.0
 10
198.7456227648145
 20
408.6976752860977
 30
0.0
 10
198.8173626943021
 20
408.3104649638709
 30
0.0
 10
198.835975845921
 20
408.1101168851511
 30
0.0
 10
198.835975845921
 20
407.9100301050175
 30
0.0
  0
SPLINE
  5
BE
330
1F
100
AcDbEntity
  8
0
  6
Continuous
 62
     8
370
     0
100
AcDbSpline
210
0.0
220
0.0
230
1.0
 70
     8
 71
     3
 72
    20
 73
    16
 74
     0
 42
0.00000001
 43
0.00000001
 40
0.0
 40
0.0
 40
0.0
 40
0.0
 40
0.1250000000000042
 40
0.1250000000000042
 40
0.2500000000000085
 40
0.2500000000000085
 40
0.5000000000000093
 40
0.5000000000000093
 40
0.625000000000007
 40
0.625000000000007
 40
0.7500000000000047
 40
0.7500000000000047
 40
0.8750000000000024
 40
0.8750000000000024
 40
1.0
 40
1.0
 40
1.0
 40
1.0
 10
176.689735845921
 20
407.9100301050175
 30
0.0
 10
176.689735845921
 20
408.1097155079279
 30
0.0
 10
176.7078410166467
 20
408.3060453828302
 30
0.0
 10
176.7787890263918
 20
408.6922949337227
 30
0.0
 10
176.8325122746299
 20
408.8839185558521
 30
0.0
 10
177.0407067665106
 20
409.4281438669533
 30
0.0
 10
177.2456976046042
 20
409.7601926312427
 30
0.0
 10
177.6252493864192
 20
410.1735146855519
 30
0.0
 10
177.7657539041497
 20
410.2993556306939
 30
0.0
 10
178.0645141711163
 20
410.5173432812922
 30
0.0
 10
178.2224224617686
 20
410.6098332117609
 30
0.0
 10
178.5559018066706
 20
410.7615538808996
 30
0.0
 10
178.7323719523641
 20
410.8205553998316
 30
0.0
 10
179.0894541500568
 20
410.8988065737074
 30
0.0
 10
179.2717252457135
 20
410.9190301050175
 30
0.0
 10
179.4580158459211
 20
410.9190301050175
 30
0.0
  0
SPLINE
  5
BF
330
1F
100
AcDbEntity
  8
0
  6
Continuous
 62
     8
370
     0
100
AcDbSpline
210
0.0
220
0.0
230
1.0
 70
     8
 71
     3
 72
    20
 73
    16
 74
     0
 42
0.00000001
 43
0.00000001
 40
0.0
 40
0.0
 40
0.0
 40
0.0
 40
0.1250000000000042
 40
0.1250000000000042
 40
0.2500000000000084
 40
0.2500000000000084
 40
0.5000000000000088
 40
0.5000000000000088
 40
0.6250000000000067
 40
0.6250000000000067
 40
0.7500000000000044
 40
0.7500000000000044
 40
0.8750000000000022
 40
0.8750000000000022
 40
1.0
 40
1.0
 40
1.0
 40
1.0
 10
198.835975845921
 20
403.8980301050175
 30
0.0
 10
198.835975845921
 20
403.6983447021071
 30
0.0
 10
198.8178706751954
 20
403.502014827205
 30
0.0
 10
198.7469226654503
 20
403.1157652763124
 30
0.0
 10
198.6931994172122
 20
402.924141654183
 30
0.0
 10
198.4850049253315
 20
402.3799163430817
 30
0.0
 10
198.2800140872379
 20
402.0478675787924
 30
0.0
 10
197.9004623054229
 20
401.6345455244833
 30
0.0
 10
197.7599577876924
 20
401.5087045793412
 30
0.0
 10
197.4611975207258
 20
401.2907169287429
 30
0.0
 10
197.3032892300735
 20
401.1982269982741
 30
0.0
 10
196.9698098851716
 20
401.0465063291354
 30
0.0
 10
196.7933397394781
 20
400.9875048102035
 30
0.0
 10
196.4362575417854
 20
400.9092536363277
 30
0.0
 10
196.2539864461287
 20
400.8890301050175
 30
0.0
 10
196.0676958459211
 20
400.8890301050175
 30
0.0
  0
LINE
  5
C0
330
1F
100
AcDbEntity
  8
0
  6
Continuous
 62
     8
370
     0
100
AcDbLine
 10
187.7628558459
 20
387.448830105
 30
0.0
 11
187.7628558459
 21
388.050630105
 31
0.0
  0
LINE
  5
C1
330
1F
100
AcDbEntity
  8
0
  6
Continuous
 62
     8
370
     0
100
AcDbLine
 10
187.7628558459
 20
388.050630105
 30
0.0
 11
187.3616558459
 21
388.1606503463
 31
0.0
  0
LINE
  5
C2
330
1F
100
AcDbEntity
  8
0
  6
Continuous
 62
     8
370
     0
100
AcDbLine
 10
187.3616558459
 20
392.7550098638
 30
0.0
 11
187.7628558459
 21
392.865030105
 31
0.0
  0
LINE
  5
C3
330
1F
100
AcDbEntity
  8
0
  6
Continuous
 62
     8
370
     0
100
AcDbLine
 10
187.7628558459
 20
392.865030105
 30
0.0
 11
187.7628558459
 21
393.466830105
 31
0.0
  0
LINE
  5
C4
330
1F
100
AcDbEntity
  8
0
  6
Continuous
 62
     8
370
     0
100
AcDbLine
 10
198.8359758459
 20
407.910030105
 30
0.0
 11
198.8359758459
 21
403.898030105
 31
0.0
  0
LINE
  5
C5
330
1F
100
AcDbEntity
  8
0
  6
Continuous
 62
     8
370
     0
100
AcDbLine
 10
176.6897358459
 20
403.898030105
 30
0.0
 11
176.6897358459
 21
407.910030105
 31
0.0
  0
SPLINE
  5
C6
330
1F
100
AcDbEntity
  8
0
  6
Continuous
 62
     8
370
     0
100
AcDbSpline
210
0.0
220
0.0
230
1.0
 70
     8
 71
     3
 72
    34
 73
    30
 74
     0
 42
0.00000001
 43
0.00000001
 40
0.0
 40
0.0
 40
0.0
 40
0.0
 40
0.0227371593023572
 40
0.0454261671433938
 40
0.0680590061056267
 40
0.0906286679572306
 40
0.1131288739584755
 40
0.1355524576981068
 40
0.1562024527722253
 40
0.1836065617510131
 40
0.2559792189937971
 40
0.26500077209344
 40
0.2739978239434126
 40
0.3840263731323103
 40
0.4352305811738745
 40
0.4408970834580873
 40
0.4747625713261798
 40
0.6224391000586654
 40
0.6486199497595382
 40
0.67493036487937
 40
0.6764763587709419
 40
0.6780228256270745
 40
0.6873116874219188
 40
0.8453765275070046
 40
0.8499089583588421
 40
0.8771215142148819
 40
0.9175145799283628
 40
0.9584629361971495
 40
1.0
 40
1.0
 40
1.0
 40
1.0
 10
168.4057202192885
 20
363.6767449696529
 30
0.0
 10
168.4094406561928
 20
363.7509933733551
 30
0.0
 10
168.4168736510721
 20
363.8993329417179
 30
0.0
 10
168.4338524981639
 20
364.1202524002183
 30
0.0
 10
168.4552440843665
 20
364.3391454133713
 30
0.0
 10
168.4815499200459
 20
364.5554530376107
 30
0.0
 10
168.512704131696
 20
364.7687013178278
 30
0.0
 10
168.5478512460045
 20
364.973123029204
 30
0.0
 10
168.5907071782202
 20
365.1895663635516
 30
0.0
 10
168.6739760426379
 20
365.5520281587512
 30
0.0
 10
168.769317207538
 20
365.8639010949659
 30
0.0
 10
168.8625387803459
 20
366.1062324587831
 30
0.0
 10
168.9989570555609
 20
366.444309987033
 30
0.0
 10
169.2221528798003
 20
366.8474753020415
 30
0.0
 10
169.4885697203756
 20
367.1513543499539
 30
0.0
 10
169.6414487571203
 20
367.299624578212
 30
0.0
 10
169.9681785338577
 20
367.5811830614709
 30
0.0
 10
170.3862671570044
 20
367.7696642784279
 30
0.0
 10
170.8126502751013
 20
367.8609272710351
 30
0.0
 10
170.9298894712022
 20
367.878977701156
 30
0.0
 10
170.9941936663239
 20
367.8870004351057
 30
0.0
 10
171.0212968020533
 20
367.8902975346698
 30
0.0
 10
171.3921518806812
 20
367.9313887164281
 30
0.0
 10
171.7893242877062
 20
367.9116825114691
 30
0.0
 10
172.2359917047535
 20
367.8354327911116
 30
0.0
 10
172.4065046480463
 20
367.8024385285822
 30
0.0
 10
172.6650485008635
 20
367.738971151308
 30
0.0
 10
172.9594784852044
 20
367.6496002259679
 30
0.0
 10
173.1574296463567
 20
367.5726967311358
 30
0.0
 10
173.2571116265599
 20
367.5339705493606
 30
0.0
  0
SPLINE
  5
C7
330
1F
100
AcDbEntity
  8
0
  6
Continuous
 62
     8
370
     0
100
AcDbSpline
210
0.0
220
0.0
230
1.0
 70
     8
 71
     3
 72
    10
 73
     6
 74
     0
 42
0.00000001
 43
0.00000001
 40
0.0
 40
0.0
 40
0.0
 40
0.0
 40
0.4999999999999997
 40
0.4999999999999997
 40
1.0
 40
1.0
 40
1.0
 40
1.0
 10
168.4431785973094
 20
346.6343965095384
 30
0.0
 10
168.3340293047509
 20
349.4580311185612
 30
0.0
 10
168.2760897868989
 20
352.3033012113306
 30
0.0
 10
168.2635673382787
 20
357.9997631429127
 30
0.0
 10
168.3090081859558
 20
360.848812258372
 30
0.0
 10
168.4057443446217
 20
363.6774912633601
 30
0.0
  0
SPLINE
  5
C8
330
1F
100
AcDbEntity
  8
0
  6
Continuous
 62
     8
370
     0
100
AcDbSpline
210
0.0
220
0.0
230
1.0
 70
     8
 71
     3
 72
    29
 73
    25
 74
     0
 42
0.00000001
 43
0.00000001
 40
0.0
 40
0.0
 40
0.0
 40
0.0
 40
0.0419481592523842
 40
0.0835282308117528
 40
0.1247667402633168
 40
0.1656711177426421
 40
0.2062628239136103
 40
0.2465749702955882
 40
0.2866378768093556
 40
0.3356107801387148
 40
0.3518756657306168
 40
0.3541433967232081
 40
0.3609436163549419
 40
0.3700039240126224
 40
0.4863668280737861
 40
0.6024838425567756
 40
0.6158128004771778
 40
0.6425859864774812
 40
0.7674193998473876
 40
0.7942702803721432
 40
0.803240378205717
 40
0.8685586430417199
 40
0.9341447168492962
 40
1.0
 40
1.0
 40
1.0
 40
1.0
 10
171.0694038173653
 20
342.4825703967757
 30
0.0
 10
171.0073239369002
 20
342.4906396517811
 30
0.0
 10
170.8837089159633
 20
342.5067073555037
 30
0.0
 10
170.7034340887887
 20
342.5446173414854
 30
0.0
 10
170.5279141210445
 20
342.5930864400224
 30
0.0
 10
170.3579843021417
 20
342.6536988986114
 30
0.0
 10
170.1937279809989
 20
342.7266584892325
 30
0.0
 10
170.0354385024432
 20
342.8124919123658
 30
0.0
 10
169.8719512622156
 20
342.9190945469697
 30
0.0
 10
169.7444955425625
 20
343.0197045920481
 30
0.0
 10
169.6657993127113
 20
343.0907856878517
 30
0.0
 10
169.6365942417727
 20
343.1181639070351
 30
0.0
 10
169.6158099726171
 20
343.1380038335384
 30
0.0
 10
169.4657160469509
 20
343.2858379540468
 30
0.0
 10
169.2129989502285
 20
343.6028652877609
 30
0.0
 10
169.005760756036
 20
344.0066952305985
 30
0.0
 10
168.8924106636701
 20
344.2846812027438
 30
0.0
 10
168.7785219837806
 20
344.584968849322
 30
0.0
 10
168.6789146684511
 20
344.9373233969074
 30
0.0
 10
168.6094257230089
 20
345.2680638695791
 30
0.0
 10
168.5684541993954
 20
345.4782316187998
 30
0.0
 10
168.5200409399342
 20
345.7743697188965
 30
0.0
 10
168.47005719628
 20
346.2002323856823
 30
0.0
 10
168.4521520480309
 20
346.4894778725194
 30
0.0
 10
168.4431811378463
 20
346.63439682251
 30
0.0
  0
SPLINE
  5
C9
330
1F
100
AcDbEntity
  8
0
  6
Continuous
 62
     8
370
     0
100
AcDbSpline
210
0.0
220
0.0
230
1.0
 70
     8
 71
     3
 72
    29
 73
    25
 74
     0
 42
0.00000001
 43
0.00000001
 40
0.0
 40
0.0
 40
0.0
 40
0.0
 40
0.0343431380585324
 40
0.0686142288108159
 40
0.1028116313632236
 40
0.1369354499282417
 40
0.1709866454474631
 40
0.2049662183380534
 40
0.2227597260509589
 40
0.2582706830826705
 40
0.3823362408117996
 40
0.3956409329749357
 40
0.4089251769354932
 40
0.5407461146980798
 40
0.6210912400209447
 40
0.634534879868961
 40
0.64910987716418
 40
0.6524561210905119
 40
0.6569196008478553
 40
0.7239378532087485
 40
0.7916381033030588
 40
0.8601612467576879
 40
0.9295945637893986
 40
1.0
 40
1.0
 40
1.0
 40
1.0
 10
207.0825482941531
 20
346.6347507802026
 30
0.0
 10
207.078290737449
 20
346.5591102893074
 30
0.0
 10
207.069784555825
 20
346.4079879911413
 30
0.0
 10
207.0508794669356
 20
346.1830776815451
 30
0.0
 10
207.0273152711852
 20
345.9603239817551
 30
0.0
 10
206.9985508842953
 20
345.7402694233689
 30
0.0
 10
206.9646175451955
 20
345.5233621946884
 30
0.0
 10
206.9316274329272
 20
345.3437874353039
 30
0.0
 10
206.8945781885545
 20
345.1635398507963
 30
0.0
 10
206.8118098125973
 20
344.8028018127447
 30
0.0
 10
206.7076526250565
 20
344.4686139078548
 30
0.0
 10
206.5988276996967
 20
344.1999335236797
 30
0.0
 10
206.480721997548
 20
343.9219023298729
 30
0.0
 10
206.2822925760836
 20
343.5617487511245
 30
0.0
 10
206.0438299083708
 20
343.2728111047587
 30
0.0
 10
205.9218726920419
 20
343.1494088924809
 30
0.0
 10
205.8859399825299
 20
343.1150117831248
 30
0.0
 10
205.8600167566525
 20
343.091066164935
 30
0.0
 10
205.7729573712297
 20
343.0118965494082
 30
0.0
 10
205.6040626720228
 20
342.8795330775803
 30
0.0
 10
205.3413326367258
 20
342.7263152721848
 30
0.0
 10
205.0613930541656
 20
342.6102118367422
 30
0.0
 10
204.7663678243933
 20
342.5264735950125
 30
0.0
 10
204.5601387911312
 20
342.4972725373286
 30
0.0
 10
204.4563074517531
 20
342.4825705097691
 30
0.0
  0
SPLINE
  5
CA
330
1F
100
AcDbEntity
  8
0
  6
Continuous
 62
     8
370
     0
100
AcDbSpline
210
0.0
220
0.0
230
1.0
 70
     8
 71
     3
 72
    10
 73
     6
 74
     0
 42
0.00000001
 43
0.00000001
 40
0.0
 40
0.0
 40
0.0
 40
0.0
 40
0.5
 40
0.5
 40
1.0
 40
1.0
 40
1.0
 40
1.0
 10
207.1199673479294
 20
363.6774912426177
 30
0.0
 10
207.2167008104933
 20
360.8488910697899
 30
0.0
 10
207.2621362675616
 20
358.0005533554623
 30
0.0
 10
207.2496335612765
 20
352.3041364178371
 30
0.0
 10
207.1916846680328
 20
349.4580901219319
 30
0.0
 10
207.0825330938934
 20
346.6343964930099
 30
0.0
  0
SPLINE
  5
CB
330
1F
100
AcDbEntity
  8
0
  6
Continuous
 62
     8
370
     0
100
AcDbSpline
210
0.0
220
0.0
230
1.0
 70
     8
 71
     3
 72
    34
 73
    30
 74
     0
 42
0.00000001
 43
0.00000001
 40
0.0
 40
0.0
 40
0.0
 40
0.0
 40
0.0272660914949984
 40
0.0542944711244264
 40
0.0810784273894312
 40
0.1076110755032262
 40
0.1339144728046964
 40
0.1474285179303192
 40
0.1519233719541878
 40
0.2577163242509775
 40
0.3090094948103803
 40
0.3259830237972078
 40
0.3275384859421404
 40
0.3322019217696854
 40
0.3384130558262258
 40
0.4875026443087588
 40
0.5565831017533512
 40
0.5623544881466921
 40
0.5797536261502473
 40
0.6583208474520176
 40
0.7381531594336764
 40
0.7426108768577979
 40
0.764981942892765
 40
0.8556918764516686
 40
0.8625854766101181
 40
0.8833164804376678
 40
0.9219945486693581
 40
0.960930958317338
 40
1.0
 40
1.0
 40
1.0
 40
1.0
 10
202.2685983529044
 20
367.5339697254536
 30
0.0
 10
202.3340202464599
 20
367.5598350046608
 30
0.0
 10
202.4642936709146
 20
367.6113400638035
 30
0.0
 10
202.6588769314407
 20
367.6772843149182
 30
0.0
 10
202.8512357754813
 20
367.7348816344619
 30
0.0
 10
203.0411519758465
 20
367.7837222435741
 30
0.0
 10
203.1985873351497
 20
367.8179213440716
 30
0.0
 10
203.3032290129757
 20
367.8375635751559
 30
0.0
 10
203.5948537889073
 20
367.8884436073987
 30
0.0
 10
203.9702051564511
 20
367.923681492703
 30
0.0
 10
204.3598867391464
 20
367.9064267514215
 30
0.0
 10
204.5132593985583
 20
367.8894295893679
 30
0.0
 10
204.5639232089082
 20
367.8828621406349
 30
0.0
 10
204.5910269354447
 20
367.8791711644994
 30
0.0
 10
204.938609293683
 20
367.8278177289387
 30
0.0
 10
205.406225315694
 20
367.6752976828862
 30
0.0
 10
205.811422213899
 20
367.3684333890353
 30
0.0
 10
205.967612529126
 20
367.2191896837357
 30
0.0
 10
206.136190574518
 20
367.0468729326154
 30
0.0
 10
206.4002751056335
 20
366.6919142176189
 30
0.0
 10
206.5949124282171
 20
366.2844657916024
 30
0.0
 10
206.7046229807771
 20
365.9980870551686
 30
0.0
 10
206.819500758808
 20
365.6756698644875
 30
0.0
 10
206.9110462762312
 20
365.3179424244402
 30
0.0
 10
206.9810183290518
 20
364.95326003614
 30
0.0
 10
207.0171979314059
 20
364.7468902215794
 30
0.0
 10
207.0609635790903
 20
364.4350858409656
 30
0.0
 10
207.0992138826183
 20
364.0589337611138
 30
0.0
 10
207.1130577462091
 20
363.8042855587916
 30
0.0
 10
207.1199914473089
 20
363.6767449694965
 30
0.0
  0
LINE
  5
CC
330
1F
100
AcDbEntity
  8
0
  6
Continuous
 62
     7
370
    15
100
AcDbLine
 10
314.4229642045
 20
412.423530105
 30
0.0
 11
314.4229642045
 21
382.890717223
 31
0.0
  0
LINE
  5
CD
330
1F
100
AcDbEntity
  8
0
  6
Continuous
 62
     7
370
    15
100
AcDbLine
 10
360.5609642045
 20
410.919030105
 30
0.0
 11
360.5609642045
 21
412.423530105
 31
0.0
  0
LINE
  5
CE
330
1F
100
AcDbEntity
  8
0
  6
Continuous
 62
     7
370
    15
100
AcDbLine
 10
360.5609642045
 20
393.466830105
 30
0.0
 11
360.5609642045
 21
400.889030105
 31
0.0
  0
LINE
  5
CF
330
1F
100
AcDbEntity
  8
0
  6
Continuous
 62
     7
370
    15
100
AcDbLine
 10
360.5609642045
 20
378.823030105
 30
0.0
 11
360.5609642045
 21
387.448830105
 31
0.0
  0
ARC
  5
D0
330
1F
100
AcDbEntity
  8
0
  6
Continuous
 62
     7
370
    15
100
AcDbCircle
 10
315.9274642045
 20
412.423530105
 30
0.0
 40
1.504500000000064
100
AcDbArc
 50
90.0
 51
180.0
  0
ARC
  5
D1
330
1F
100
AcDbEntity
  8
0
  6
Continuous
 62
     7
370
    15
100
AcDbCircle
 10
359.0564642045
 20
412.423530105
 30
0.0
 40
1.504500000000007
100
AcDbArc
 50
0.0
 51
90.0
  0
LINE
  5
D2
330
1F
100
AcDbEntity
  8
0
  6
Continuous
 62
     7
370
    15
100
AcDbLine
 10
314.9244642045
 20
308.3760090781
 30
0.0
 11
314.9244642045
 21
281.933230105
 31
0.0
  0
LINE
  5
D3
330
1F
100
AcDbEntity
  8
0
  6
Continuous
 62
     7
370
    15
100
AcDbLine
 10
314.9244642045
 20
371.200230105
 30
0.0
 11
314.9244642045
 21
320.0949817317
 31
0.0
  0
LINE
  5
D4
330
1F
100
AcDbEntity
  8
0
  6
Continuous
 62
     7
370
    15
100
AcDbLine
 10
360.0594642045
 20
368.1306826902
 30
0.0
 11
360.0594642045
 21
371.200230105
 31
0.0
  0
LINE
  5
D5
330
1F
100
AcDbEntity
  8
0
  6
Continuous
 62
     7
370
    15
100
AcDbLine
 10
360.0594642045
 20
281.933230105
 30
0.0
 11
360.0594642045
 21
333.4950124393
 31
0.0
  0
LINE
  5
D6
330
1F
100
AcDbEntity
  8
0
  6
Continuous
 62
     7
370
    15
100
AcDbLine
 10
315.4259642045
 20
373.206230105
 30
0.0
 11
315.4259642045
 21
371.200230105
 31
0.0
  0
LINE
  5
D7
330
1F
100
AcDbEntity
  8
0
  6
Continuous
 62
     7
370
    15
100
AcDbLine
 10
359.5579642045
 20
371.200230105
 30
0.0
 11
359.5579642045
 21
373.206230105
 31
0.0
  0
ARC
  5
D8
330
1F
100
AcDbEntity
  8
0
  6
Continuous
 62
     7
370
    15
100
AcDbCircle
 10
337.4919642045
 20
373.2799164078
 30
0.0
 40
22.06600000000003
100
AcDbArc
 50
155.6768977265
 51
180.1948745911
  0
ARC
  5
D9
330
1F
100
AcDbEntity
  8
0
  6
Continuous
 62
     7
370
    15
100
AcDbCircle
 10
337.4919642045
 20
373.2799164078
 30
0.0
 40
22.06599999999997
100
AcDbArc
 50
0.0
 51
14.5488941612
  0
LINE
  5
DA
330
1F
100
AcDbEntity
  8
0
  6
Continuous
 62
     7
370
    15
100
AcDbLine
 10
362.5665135463
 20
336.0195298629
 30
0.0
 11
421.0307194519
 21
336.4276999275
 31
0.0
  0
SPLINE
  5
DB
330
1F
100
AcDbEntity
  8
0
  6
Continuous
 62
     7
370
    15
100
AcDbSpline
210
0.0
220
0.0
230
1.0
 70
     8
 71
     3
 72
    13
 73
     9
 74
     0
 42
0.00000001
 43
0.00000001
 40
0.0
 40
0.0
 40
0.0
 40
0.0
 40
0.2395530830117594
 40
0.3684224649995236
 40
0.5000000008049987
 40
0.6315775365150391
 40
0.7604469182008546
 40
1.0
 40
1.0
 40
1.0
 40
1.0
 10
360.0594641934442
 20
333.4944657156011
 30
0.0
 10
360.092914684682
 20
333.8108258774555
 30
0.0
 10
360.144360119165
 20
334.2973743668036
 30
0.0
 10
360.4566078115213
 20
334.8832479002192
 30
0.0
 10
360.7797190103977
 20
335.2867829882645
 30
0.0
 10
361.1809884644944
 20
335.6127035849905
 30
0.0
 10
361.7646677507528
 20
335.9290339308218
 30
0.0
 10
362.2508451844103
 20
335.9838749604931
 30
0.0
 10
362.5669640807235
 20
336.0195333118936
 30
0.0
  0
LWPOLYLINE
  5
DC
330
1F
100
AcDbEntity
  8
0
  6
Continuous
 62
     7
370
    15
100
AcDbPolyline
 90
        3
 70
   128
 43
0.0
 10
421.154254346
 20
365.1606896215
 10
391.972547206
 20
365.3812466176
 10
362.5663987929
 20
365.6041791378
  0
SPLINE
  5
DD
330
1F
100
AcDbEntity
  8
0
  6
Continuous
 62
     7
370
    15
100
AcDbSpline
210
0.0
220
0.0
230
1.0
 70
     8
 71
     3
 72
    13
 73
     9
 74
     0
 42
0.00000001
 43
0.00000001
 40
0.0
 40
0.0
 40
0.0
 40
0.0
 40
0.2395613737634848
 40
0.3684277879815242
 40
0.5000000000557027
 40
0.6315722121212897
 40
0.7604386263151269
 40
1.0
 40
1.0
 40
1.0
 40
1.0
 10
362.5669642110228
 20
365.6041492104467
 30
0.0
 10
362.2507862887758
 20
365.6399950346276
 30
0.0
 10
361.7645278796173
 20
365.6951232779828
 30
0.0
 10
361.1808578525825
 20
366.0117699380156
 30
0.0
 10
360.7796270645617
 20
366.3378897567973
 30
0.0
 10
360.4565598799414
 20
366.7415825554261
 30
0.0
 10
360.1443493458636
 20
367.3276374931895
 30
0.0
 10
360.0929108587459
 20
367.814300051561
 30
0.0
 10
360.0594642104756
 20
368.1307407621701
 30
0.0
  0
ARC
  5
DE
330
1F
100
AcDbEntity
  8
0
  6
Continuous
 62
     7
370
    15
100
AcDbCircle
 10
421.0194907
 20
338.0324606653
 30
0.0
 40
1.604799999999994
100
AcDbArc
 50
270.3858324127
 51
359.497477561
  0
LINE
  5
DF
330
1F
100
AcDbEntity
  8
0
  6
Continuous
 62
     7
370
    15
100
AcDbLine
 10
429.3301931011
 20
338.101230105
 30
0.0
 11
437.3040431011
 21
338.101230105
 31
0.0
  0
LINE
  5
E0
330
1F
100
AcDbEntity
  8
0
  6
Continuous
 62
     7
370
    15
100
AcDbLine
 10
437.3040431011
 20
363.778030105
 30
0.0
 11
429.3301931011
 21
363.778030105
 31
0.0
  0
LINE
  5
E1
330
1F
100
AcDbEntity
  8
0
  6
Continuous
 62
     7
370
    15
100
AcDbLine
 10
422.7469419946
 20
362.223380105
 30
0.0
 11
422.7469525645
 21
363.5454742105
 31
0.0
  0
ARC
  5
E2
330
1F
100
AcDbEntity
  8
0
  6
Continuous
 62
     7
370
    15
100
AcDbCircle
 10
421.1421511625
 20
363.5559286482
 30
0.0
 40
1.60480000000004
100
AcDbArc
 50
0.0270321222
 51
89.5537236099
  0
LINE
  5
E3
330
1F
100
AcDbEntity
  8
0
  6
Continuous
 62
     7
370
    15
100
AcDbLine
 10
444.7489607811
 20
362.975630105
 30
0.0
 11
437.3040431011
 21
362.975630105
 31
0.0
  0
LINE
  5
E4
330
1F
100
AcDbEntity
  8
0
  6
Continuous
 62
     7
370
    15
100
AcDbLine
 10
437.3040431011
 20
338.903630105
 30
0.0
 11
444.7489607811
 21
338.903630105
 31
0.0
  0
LINE
  5
E5
330
1F
100
AcDbEntity
  8
0
  6
Continuous
 62
     7
370
    15
100
AcDbLine
 10
429.3301931011
 20
363.778030105
 30
0.0
 11
427.7755431011
 21
362.223380105
 31
0.0
  0
LINE
  5
E6
330
1F
100
AcDbEntity
  8
0
  6
Continuous
 62
     7
370
    15
100
AcDbLine
 10
427.7755431011
 20
339.655880105
 30
0.0
 11
429.3301931011
 21
338.101230105
 31
0.0
  0
LINE
  5
E7
330
1F
100
AcDbEntity
  8
0
  6
Continuous
 62
     7
370
    15
100
AcDbLine
 10
444.7489607811
 20
338.903630105
 30
0.0
 11
445.3280431011
 21
339.906630105
 31
0.0
  0
LINE
  5
E8
330
1F
100
AcDbEntity
  8
0
  6
Continuous
 62
     7
370
    15
100
AcDbLine
 10
445.3280431011
 20
361.972630105
 30
0.0
 11
444.7489607811
 21
362.975630105
 31
0.0
  0
LINE
  5
E9
330
1F
100
AcDbEntity
  8
0
  6
Continuous
 62
     7
370
    15
100
AcDbLine
 10
422.6068013233
 20
339.655880105
 30
0.0
 11
427.7755431011
 21
339.655880105
 31
0.0
  0
LINE
  5
EA
330
1F
100
AcDbEntity
  8
0
  6
Continuous
 62
     7
370
    15
100
AcDbLine
 10
427.7755431011
 20
362.223380105
 30
0.0
 11
422.7469291437
 21
362.223380105
 31
0.0
  0
ARC
  5
EB
330
1F
100
AcDbEntity
  8
0
  6
Continuous
 62
     7
370
    15
100
AcDbCircle
 10
362.5669642045
 20
410.919030105
 30
0.0
 40
2.006000000000029
100
AcDbArc
 50
180.0
 51
270.0
  0
ARC
  5
EC
330
1F
100
AcDbEntity
  8
0
  6
Continuous
 62
     7
370
    15
100
AcDbCircle
 10
362.5669642045
 20
400.889030105
 30
0.0
 40
2.006000000000029
100
AcDbArc
 50
90.0
 51
180.0
  0
ARC
  5
ED
330
1F
100
AcDbEntity
  8
0
  6
Continuous
 62
     7
370
    15
100
AcDbCircle
 10
277.5317304343
 20
352.1792381008
 30
0.0
 40
1.0030000000001
100
AcDbArc
 50
90.0
 51
180.0
  0
ARC
  5
EE
330
1F
100
AcDbEntity
  8
0
  6
Continuous
 62
     7
370
    15
100
AcDbCircle
 10
277.5317304343
 20
346.1612381008
 30
0.0
 40
1.002999999999929
100
AcDbArc
 50
180.0
 51
270.0
  0
ARC
  5
EF
330
1F
100
AcDbEntity
  8
0
  6
Continuous
 62
     7
370
    15
100
AcDbCircle
 10
296.0872304343
 20
345.6597381008
 30
0.0
 40
0.5015000000000782
100
AcDbArc
 50
270.0
 51
0.0
  0
ARC
  5
F0
330
1F
100
AcDbEntity
  8
0
  6
Continuous
 62
     7
370
    15
100
AcDbCircle
 10
296.0872304343
 20
352.6807381008
 30
0.0
 40
0.5015000000000214
100
AcDbArc
 50
0.0
 51
90.0
  0
LINE
  5
F1
330
1F
100
AcDbEntity
  8
0
  6
Continuous
 62
     7
370
    15
100
AcDbLine
 10
296.0872304343
 20
353.1822381008
 30
0.0
 11
277.5317304343
 21
353.1822381008
 31
0.0
  0
LINE
  5
F2
330
1F
100
AcDbEntity
  8
0
  6
Continuous
 62
     7
370
    15
100
AcDbLine
 10
277.5317304343
 20
345.1582381008
 30
0.0
 11
296.0872304343
 21
345.1582381008
 31
0.0
  0
LINE
  5
F3
330
1F
100
AcDbEntity
  8
0
  6
Continuous
 62
     7
370
    15
100
AcDbLine
 10
302.2438006262
 20
343.2045153234
 30
0.0
 11
314.9208681599
 21
308.3745585296
 31
0.0
  0
LINE
  5
F4
330
1F
100
AcDbEntity
  8
0
  6
Continuous
 62
     7
370
    15
100
AcDbLine
 10
314.9244642045
 20
320.0949817317
 30
0.0
 11
306.0138474208
 21
344.5767001384
 31
0.0
  0
ARC
  5
F5
330
1F
100
AcDbEntity
  8
0
  6
Continuous
 62
     7
370
    15
100
AcDbCircle
 10
296.5887304343
 20
341.1462381008
 30
0.0
 40
6.018000000000029
100
AcDbArc
 50
20.0
 51
90.0
  0
ARC
  5
F6
330
1F
100
AcDbEntity
  8
0
  6
Continuous
 62
     7
370
    15
100
AcDbCircle
 10
296.5887304343
 20
341.1462381008
 30
0.0
 40
10.03
100
AcDbArc
 50
20.0
 51
90.0
  0
LINE
  5
F7
330
1F
100
AcDbEntity
  8
0
  6
Continuous
 62
     7
370
    15
100
AcDbLine
 10
314.4229642045
 20
382.890717223
 30
0.0
 11
337.4919642045
 21
378.823030105
 31
0.0
  0
LINE
  5
F8
330
1F
100
AcDbEntity
  8
0
  6
Continuous
 62
     7
370
    15
100
AcDbLine
 10
337.4919642045
 20
378.823030105
 30
0.0
 11
360.5609642045
 21
378.823030105
 31
0.0
  0
SPLINE
  5
F9
330
1F
100
AcDbEntity
  8
0
  6
Continuous
 62
     7
370
    15
100
AcDbSpline
210
0.0
220
0.0
230
1.0
 70
     8
 71
     3
 72
    38
 73
    34
 74
     0
 42
0.00000001
 43
0.00000001
 40
0.0
 40
0.0
 40
0.0
 40
0.0
 40
0.0624999999999992
 40
0.0624999999999992
 40
0.1249999999999984
 40
0.1249999999999984
 40
0.1874999999999977
 40
0.1874999999999977
 40
0.2499999999999969
 40
0.2499999999999969
 40
0.3124999999999961
 40
0.3124999999999961
 40
0.3749999999999953
 40
0.3749999999999953
 40
0.4374999999999946
 40
0.4374999999999946
 40
0.4999999999999938
 40
0.4999999999999938
 40
0.562499999999993
 40
0.562499999999993
 40
0.6249999999999922
 40
0.6249999999999922
 40
0.6874999999999915
 40
0.6874999999999915
 40
0.7499999999999907
 40
0.7499999999999907
 40
0.812499999999993
 40
0.812499999999993
 40
0.8749999999999953
 40
0.8749999999999953
 40
0.9374999999999977
 40
0.9374999999999977
 40
1.0
 40
1.0
 40
1.0
 40
1.0
 10
360.5609642045311
 20
393.4668301050187
 30
0.0
 10
360.5609642045312
 20
393.4668301050187
 30
0.0
 10
360.5583917372954
 20
393.4472848759003
 30
0.0
 10
360.5485965934172
 20
393.370742362384
 30
0.0
 10
360.5412573858728
 20
393.3128010184131
 30
0.0
 10
360.5230327673916
 20
393.1617276445087
 30
0.0
 10
360.5122321828755
 20
393.0693107287415
 30
0.0
 10
360.4884900371918
 20
392.8510065768897
 30
0.0
 10
360.4754695665746
 20
392.7240800603449
 30
0.0
 10
360.4497908758067
 20
392.4468438307795
 30
0.0
 10
360.4370062915748
 20
392.2955336317734
 30
0.0
 10
360.413017739885
 20
391.9667678262634
 30
0.0
 10
360.4020485912072
 20
391.7919767776966
 30
0.0
 10
360.3838246259538
 20
391.4300719954413
 30
0.0
 10
360.3764394407879
 20
391.2402787814659
 30
0.0
 10
360.3664524637019
 20
390.851825297077
 30
0.0
 10
360.3639022977021
 20
390.6564784748645
 30
0.0
 10
360.3638643793867
 20
390.2635966229479
 30
0.0
 10
360.3664593399085
 20
390.0640267319538
 30
0.0
 10
360.3763608950346
 20
389.6779805768669
 30
0.0
 10
360.3836135783167
 20
389.4903232243366
 30
0.0
 10
360.4019159496809
 20
389.1257837556285
 30
0.0
 10
360.4129641986149
 20
388.9498640044384
 30
0.0
 10
360.4367043723287
 20
388.6240301160724
 30
0.0
 10
360.4495111007477
 20
388.4719237205152
 30
0.0
 10
360.4755048254904
 20
388.1911135035622
 30
0.0
 10
360.4882748148479
 20
388.0667293979579
 30
0.0
 10
360.5119632207071
 20
387.8487276520896
 30
0.0
 10
360.5229837366709
 20
387.7543490361645
 30
0.0
 10
360.5412163442552
 20
387.6031894270297
 30
0.0
 10
360.548443692132
 20
387.5461233437783
 30
0.0
 10
360.5583348477929
 20
387.4688094370363
 30
0.0
 10
360.5609642045312
 20
387.4488301050187
 30
0.0
 10
360.5609642045311
 20
387.4488301050187
 30
0.0
  0
LINE
  5
FA
330
1F
100
AcDbEntity
  8
0
  6
Continuous
 62
     7
370
    15
100
AcDbLine
 10
337.4919642045
 20
413.928030105
 30
0.0
 11
359.0564642045
 21
413.928030105
 31
0.0
  0
LINE
  5
FB
330
1F
100
AcDbEntity
  8
0
  6
Continuous
 62
     7
370
    15
100
AcDbLine
 10
315.9274642045
 20
413.928030105
 30
0.0
 11
337.4919642045
 21
413.928030105
 31
0.0
  0
SPLINE
  5
FC
330
1F
100
AcDbEntity
  8
0
  6
Continuous
 62
     7
370
    15
100
AcDbSpline
210
0.0
220
0.0
230
1.0
 70
     8
 71
     3
 72
    29
 73
    25
 74
     0
 42
0.00000001
 43
0.00000001
 40
0.0
 40
0.0
 40
0.0
 40
0.0
 40
0.0137493135844594
 40
0.0331849480114039
 40
0.0495713029366353
 40
0.0663969640033138
 40
0.0974903074794001
 40
0.129307968269905
 40
0.1746255115956837
 40
0.2204099946427366
 40
0.2670980768833641
 40
0.3139538084222832
 40
0.4114634003283035
 40
0.5096771309662385
 40
0.6098531105416852
 40
0.710677784269413
 40
0.7984325898048553
 40
0.8423592921949783
 40
0.8866108083674761
 40
0.909586902652347
 40
0.9327718089532343
 40
0.9644142687703425
 40
0.9840496563837327
 40
0.9999999999999999
 40
0.9999999999999999
 40
0.9999999999999999
 40
0.9999999999999999
 10
314.9248394545642
 20
308.3760090780607
 30
0.0
 10
314.924833831264
 20
308.3758225274849
 30
0.0
 10
314.9248202590281
 20
308.3753722743781
 30
0.0
 10
314.9279276884997
 20
308.4696803851256
 30
0.0
 10
314.9321521838371
 20
308.6014263436366
 30
0.0
 10
314.9382926315539
 20
308.7985342133309
 30
0.0
 10
314.9466278604108
 20
309.079757662137
 30
0.0
 10
314.9579858740834
 20
309.4949613213199
 30
0.0
 10
314.9701744476455
 20
309.9932248120714
 30
0.0
 10
314.98224626578
 20
310.5695850694553
 30
0.0
 10
314.9925744936688
 20
311.1633177536452
 30
0.0
 10
315.0039783162599
 20
311.9866373732553
 30
0.0
 10
315.0129497587297
 20
313.0435463862319
 30
0.0
 10
315.0149210243791
 20
314.3378501350748
 30
0.0
 10
315.0081829875741
 20
315.6448177599664
 30
0.0
 10
314.9937511520372
 20
316.8965374302903
 30
0.0
 10
314.9767524202038
 20
317.8886337025543
 30
0.0
 10
314.9616038568771
 20
318.61865528384
 30
0.0
 10
314.951286088212
 20
319.0656064631931
 30
0.0
 10
314.9427560733005
 20
319.4106428935521
 30
0.0
 10
314.9355395761625
 20
319.6904040369282
 30
0.0
 10
314.929223552357
 20
319.9242483195126
 30
0.0
 10
314.9251049285583
 20
320.0721987488918
 30
0.0
 10
314.924662507728
 20
320.0879304301816
 30
0.0
 10
314.9244642045311
 20
320.0949817317444
 30
0.0
  0
LINE
  5
FD
330
1F
100
AcDbEntity
  8
0
  6
Continuous
 62
     7
370
    15
100
AcDbLine
 10
360.0594642045
 20
281.933230105
 30
0.0
 11
314.9244642045
 21
281.933230105
 31
0.0
  0
LINE
  5
FE
330
1F
100
AcDbEntity
  8
0
  6
Continuous
 62
     7
370
    15
100
AcDbLine
 10
314.9244642045
 20
371.200230105
 30
0.0
 11
360.0594642045
 21
371.200230105
 31
0.0
  0
SPLINE
  5
FF
330
1F
100
AcDbEntity
  8
0
  6
Continuous
 62
     7
370
    15
100
AcDbSpline
210
0.0
220
0.0
230
1.0
 70
     8
 71
     3
 72
    11
 73
     7
 74
     0
 42
0.00000001
 43
0.00000001
 40
0.0
 40
0.0
 40
0.0
 40
0.0
 40
0.401642680829069
 40
0.8035358190713502
 40
0.8316484997367214
 40
0.9999999999999999
 40
0.9999999999999999
 40
0.9999999999999999
 40
0.9999999999999999
 10
422.680292633904
 20
344.4186333574922
 30
0.0
 10
422.69796792779
 20
346.5074565311792
 30
0.0
 10
422.7333295375688
 20
350.6864054324741
 30
0.0
 10
422.7447856879902
 20
355.0168473752258
 30
0.0
 10
422.7470522772338
 20
358.1317523299277
 30
0.0
 10
422.7468864225244
 20
359.1541495378764
 30
0.0
 10
422.7467443004897
 20
360.0302486975785
 30
0.0
  0
SPLINE
  5
100
330
1F
100
AcDbEntity
  8
0
  6
Continuous
 62
     7
370
    15
100
AcDbSpline
210
0.0
220
0.0
230
1.0
 70
     8
 71
     3
 72
    18
 73
    14
 74
     0
 42
0.00000001
 43
0.00000001
 40
0.0
 40
0.0
 40
0.0
 40
0.0
 40
0.0492611163691638
 40
0.1548267220251306
 40
0.2621095548300544
 40
0.3301657891996186
 40
0.3984665304820235
 40
0.4673252439147585
 40
0.6065211662295024
 40
0.6768215585235101
 40
0.8177544573959337
 40
0.9088607259265454
 40
1.0
 40
1.0
 40
1.0
 40
1.0
 10
422.6245354668976
 20
338.0533573993885
 30
0.0
 10
422.6244694385513
 20
338.0458239064627
 30
0.0
 10
422.6242619127546
 20
338.0221462860377
 30
0.0
 10
422.6264311927633
 20
338.2697109413864
 30
0.0
 10
422.6298520961269
 20
338.6612319202186
 30
0.0
 10
422.6337323345682
 20
339.1060384505824
 30
0.0
 10
422.6374201094872
 20
339.52885028744
 30
0.0
 10
422.6428838369234
 20
340.1546195887645
 30
0.0
 10
422.6490155005579
 20
340.854308880861
 30
0.0
 10
422.6572959663915
 20
341.7945071572415
 30
0.0
 10
422.6648452776668
 20
342.6493621935796
 30
0.0
 10
422.673159114958
 20
343.5962504153717
 30
0.0
 10
422.6779145071805
 20
344.1444726148853
 30
0.0
 10
422.6802926339039
 20
344.4186333574784
 30
0.0
  0
LINE
  5
101
330
1F
100
AcDbEntity
  8
0
  6
Continuous
 62
     7
370
    15
100
AcDbLine
 10
437.3040431011
 20
338.101230105
 30
0.0
 11
437.3040431011
 21
363.778030105
 31
0.0
  0
LINE
  5
102
330
1F
100
AcDbEntity
  8
0
  6
Continuous
 62
     7
370
    15
100
AcDbLine
 10
429.3301931011
 20
338.101230105
 30
0.0
 11
429.3301931011
 21
346.4720559803
 31
0.0
  0
LINE
  5
103
330
1F
100
AcDbEntity
  8
0
  6
Continuous
 62
     7
370
    15
100
AcDbLine
 10
430.7845431011
 20
346.4720559803
 30
0.0
 11
429.3301931011
 21
346.4720559803
 31
0.0
  0
LINE
  5
104
330
1F
100
AcDbEntity
  8
0
  6
Continuous
 62
     7
370
    15
100
AcDbLine
 10
430.7845431011
 20
346.4720559803
 30
0.0
 11
430.7845431011
 21
355.4072042298
 31
0.0
  0
LINE
  5
105
330
1F
100
AcDbEntity
  8
0
  6
Continuous
 62
     7
370
    15
100
AcDbLine
 10
429.3301931011
 20
355.4072042298
 30
0.0
 11
430.7845431011
 21
355.4072042298
 31
0.0
  0
LINE
  5
106
330
1F
100
AcDbEntity
  8
0
  6
Continuous
 62
     7
370
    15
100
AcDbLine
 10
429.3301931011
 20
355.4072042298
 30
0.0
 11
429.3301931011
 21
363.778030105
 31
0.0
  0
SPLINE
  5
107
330
1F
100
AcDbEntity
  8
0
  6
Continuous
 62
     7
370
    15
100
AcDbSpline
210
0.0
220
0.0
230
1.0
 70
     8
 71
     3
 72
    14
 73
    10
 74
     0
 42
0.00000001
 43
0.00000001
 40
0.0
 40
0.0
 40
0.0
 40
0.0
 40
0.1896130601889695
 40
0.3010482931456475
 40
0.408568874206807
 40
0.6272631063274778
 40
0.73869833954213
 40
0.8462189202977133
 40
1.0
 40
1.0
 40
1.0
 40
1.0
 10
422.7469291436801
 20
362.2049055698263
 30
0.0
 10
422.7469292712849
 20
362.1906772901704
 30
0.0
 10
422.7469294738826
 20
362.1680870777633
 30
0.0
 10
422.7469354376225
 20
361.9348547258367
 30
0.0
 10
422.7469469941675
 20
361.5946733598404
 30
0.0
 10
422.7469743106684
 20
361.0990658548282
 30
0.0
 10
422.7470147055802
 20
360.4584876345439
 30
0.0
 10
422.7470682901714
 20
359.8481118531785
 30
0.0
 10
422.7470419536365
 20
359.3198450309976
 30
0.0
 10
422.7470264540764
 20
359.0089497915891
 30
0.0
  0
SPLINE
  5
108
330
1F
100
AcDbEntity
  8
0
  6
Continuous
 62
     7
370
    15
100
AcDbSpline
210
0.0
220
0.0
230
1.0
 70
     8
 71
     3
 72
    10
 73
     6
 74
     0
 42
0.00000001
 43
0.00000001
 40
0.0
 40
0.0
 40
0.0
 40
0.0
 40
0.4992976851710327
 40
0.9988755420685821
 40
1.0
 40
1.0
 40
1.0
 40
1.0
 10
422.7469985929085
 20
363.2646462216204
 30
0.0
 10
422.7469883888961
 20
363.3443084940885
 30
0.0
 10
422.7469679751456
 20
363.5036777400457
 30
0.0
 10
422.7469455321017
 20
363.580060667354
 30
0.0
 10
422.7469511867735
 20
363.5557947623507
 30
0.0
 10
422.7469511994726
 20
363.5557402669179
 30
0.0
  0
LINE
  5
109
330
1F
100
AcDbEntity
  8
0
  6
Continuous
 62
     7
370
    15
100
AcDbLine
 10
444.7489607811
 20
362.975630105
 30
0.0
 11
444.7489607811
 21
355.8622366048
 31
0.0
  0
LINE
  5
10A
330
1F
100
AcDbEntity
  8
0
  6
Continuous
 62
     7
370
    15
100
AcDbLine
 10
444.7489607811
 20
355.8622366048
 30
0.0
 11
441.3160431011
 21
355.8622366048
 31
0.0
  0
LINE
  5
10B
330
1F
100
AcDbEntity
  8
0
  6
Continuous
 62
     7
370
    15
100
AcDbLine
 10
441.3160431011
 20
346.2422999411
 30
0.0
 11
441.3160431011
 21
355.8622366048
 31
0.0
  0
LINE
  5
10C
330
1F
100
AcDbEntity
  8
0
  6
Continuous
 62
     7
370
    15
100
AcDbLine
 10
441.3160431011
 20
346.2422999411
 30
0.0
 11
444.7489607811
 21
346.2422999411
 31
0.0
  0
LINE
  5
10D
330
1F
100
AcDbEntity
  8
0
  6
Continuous
 62
     7
370
    15
100
AcDbLine
 10
444.7489607811
 20
346.2422999411
 30
0.0
 11
444.7489607811
 21
338.903630105
 31
0.0
  0
SPLINE
  5
10E
330
1F
100
AcDbEntity
  8
0
  6
Continuous
 62
     7
370
    15
100
AcDbSpline
210
0.0
220
0.0
230
1.0
 70
     8
 71
     3
 72
    18
 73
    14
 74
     0
 42
0.00000001
 43
0.00000001
 40
0.0
 40
0.0
 40
0.0
 40
0.0
 40
0.1249999999999994
 40
0.1249999999999994
 40
0.2499999999999988
 40
0.2499999999999988
 40
0.4999999999999988
 40
0.4999999999999988
 40
0.6249999999999993
 40
0.6249999999999993
 40
0.7499999999999998
 40
0.7499999999999998
 40
1.0
 40
1.0
 40
1.0
 40
1.0
 10
429.3301931011429
 20
355.4072042297526
 30
0.0
 10
429.2052693239369
 20
355.0482126659859
 30
0.0
 10
429.0913123942125
 20
354.6824783190497
 30
0.0
 10
428.8920623847273
 20
353.9442439973932
 30
0.0
 10
428.8066693855168
 20
353.5716951667572
 30
0.0
 10
428.5986580207369
 20
352.4424343306166
 30
0.0
 10
428.5271050826316
 20
351.6865691157225
 30
0.0
 10
428.5281446578128
 20
350.5496523566318
 30
0.0
 10
428.5464304373257
 20
350.1700718368018
 30
0.0
 10
428.6187362481576
 20
349.4096991548719
 30
0.0
 10
428.672751393426
 20
349.0305426426353
 30
0.0
 10
428.8810837755584
 20
347.9121077685364
 30
0.0
 10
429.0820838728869
 20
347.1850437063075
 30
0.0
 10
429.330193101143
 20
346.4720559802826
 30
0.0
  0
LINE
  5
10F
330
1F
100
AcDbEntity
  8
0
  6
Continuous
 62
     7
370
    15
100
AcDbLine
 10
427.7755431011
 20
339.655880105
 30
0.0
 11
427.7755431011
 21
362.223380105
 31
0.0
  0
SPLINE
  5
110
330
1F
100
AcDbEntity
  8
0
  6
Continuous
 62
     7
370
    15
100
AcDbSpline
210
0.0
220
0.0
230
1.0
 70
     8
 71
     3
 72
    10
 73
     6
 74
     0
 42
0.00000001
 43
0.00000001
 40
0.0
 40
0.0
 40
0.0
 40
0.0
 40
0.5
 40
0.5
 40
1.0
 40
1.0
 40
1.0
 40
1.0
 10
445.3280431011441
 20
351.0522682729678
 30
0.0
 10
445.3280431011441
 20
351.8620230459852
 30
0.0
 10
445.2749205776761
 20
352.6812669938703
 30
0.0
 10
445.075273098464
 20
354.2874572828405
 30
0.0
 10
444.9296489546357
 20
355.0791946187526
 30
0.0
 10
444.7489607811472
 20
355.8622366048434
 30
0.0
  0
SPLINE
  5
111
330
1F
100
AcDbEntity
  8
0
  6
Continuous
 62
     7
370
    15
100
AcDbSpline
210
0.0
220
0.0
230
1.0
 70
     8
 71
     3
 72
     8
 73
     4
 74
     0
 42
0.00000001
 43
0.00000001
 40
0.0
 40
0.0
 40
0.0
 40
0.0
 40
1.0
 40
1.0
 40
1.0
 40
1.0
 10
444.7489607811468
 20
346.2422999410916
 30
0.0
 10
445.1148049842932
 20
347.8277461045044
 30
0.0
 10
445.328043101144
 20
349.4289782370017
 30
0.0
 10
445.3280431011441
 20
351.0522682729678
 30
0.0
  0
LINE
  5
112
330
1F
100
AcDbEntity
  8
0
  6
Continuous
 62
     7
370
    15
100
AcDbLine
 10
445.3280431011
 20
351.052268273
 30
0.0
 11
445.3280431011
 21
339.906630105
 31
0.0
  0
LINE
  5
113
330
1F
100
AcDbEntity
  8
0
  6
Continuous
 62
     7
370
    15
100
AcDbLine
 10
445.3280431011
 20
361.972630105
 30
0.0
 11
445.3280431011
 21
351.052268273
 31
0.0
  0
LINE
  5
114
330
1F
100
AcDbEntity
  8
0
  6
Continuous
 62
     7
370
    15
100
AcDbLine
 10
360.8857432067
 20
408.913030105
 30
0.0
 11
409.7079642045
 21
408.913030105
 31
0.0
  0
LINE
  5
115
330
1F
100
AcDbEntity
  8
0
  6
Continuous
 62
     7
370
    15
100
AcDbLine
 10
409.7079642045
 20
402.895030105
 30
0.0
 11
360.8857432067
 21
402.895030105
 31
0.0
  0
LINE
  5
116
330
1F
100
AcDbEntity
  8
0
  6
Continuous
 62
     7
370
    15
100
AcDbLine
 10
409.7079642045
 20
408.913030105
 30
0.0
 11
413.7199642045
 21
408.913030105
 31
0.0
  0
ARC
  5
117
330
1F
100
AcDbEntity
  8
0
  6
Continuous
 62
     7
370
    15
100
AcDbCircle
 10
413.7199642045
 20
407.910030105
 30
0.0
 40
1.002999999999986
100
AcDbArc
 50
0.0
 51
90.0
  0
ARC
  5
118
330
1F
100
AcDbEntity
  8
0
  6
Continuous
 62
     7
370
    15
100
AcDbCircle
 10
413.7199642045
 20
403.898030105
 30
0.0
 40
1.002999999999986
100
AcDbArc
 50
270.0
 51
0.0
  0
LINE
  5
119
330
1F
100
AcDbEntity
  8
0
  6
Continuous
 62
     7
370
    15
100
AcDbLine
 10
413.7199642045
 20
402.895030105
 30
0.0
 11
409.7079642045
 21
402.895030105
 31
0.0
  0
LINE
  5
11A
330
1F
100
AcDbEntity
  8
0
  6
Continuous
 62
     7
370
    15
100
AcDbLine
 10
414.7229642045
 20
407.910030105
 30
0.0
 11
414.7229642045
 21
403.898030105
 31
0.0
  0
LINE
  5
11B
330
1F
100
AcDbEntity
  8
0
  6
Continuous
 62
     7
370
    15
100
AcDbLine
 10
276.5287304343
 20
346.1612381008
 30
0.0
 11
276.5287304343
 21
352.1792377384
 31
0.0
  0
LINE
  5
11C
330
1F
100
AcDbEntity
  8
0
  6
Continuous
 62
     7
370
    15
100
AcDbLine
 10
296.5887304343
 20
352.680737678
 30
0.0
 11
296.5887304343
 21
345.6597381008
 31
0.0
  0
LINE
  5
11D
330
1F
100
AcDbEntity
  8
0
  6
Continuous
 62
     7
370
    15
100
AcDbLine
 10
360.8117142045
 20
393.466830105
 30
0.0
 11
360.8117142045
 21
393.4399634957
 31
0.0
  0
LINE
  5
11E
330
1F
100
AcDbEntity
  8
0
  6
Continuous
 62
     7
370
    15
100
AcDbLine
 10
360.9120142045
 20
393.4399634957
 30
0.0
 11
360.8117142045
 21
393.4399634957
 31
0.0
  0
LINE
  5
11F
330
1F
100
AcDbEntity
  8
0
  6
Continuous
 62
     7
370
    15
100
AcDbLine
 10
360.9120142045
 20
387.4756967143
 30
0.0
 11
360.8117142045
 21
387.4756967143
 31
0.0
  0
LINE
  5
120
330
1F
100
AcDbEntity
  8
0
  6
Continuous
 62
     7
370
    15
100
AcDbLine
 10
360.8117142045
 20
387.4756967143
 30
0.0
 11
360.8117142045
 21
387.448830105
 31
0.0
  0
LINE
  5
121
330
1F
100
AcDbEntity
  8
0
  6
Continuous
 62
     7
370
    15
100
AcDbLine
 10
360.8117142045
 20
387.448830105
 30
0.0
 11
360.5609642045
 21
387.448830105
 31
0.0
  0
LINE
  5
122
330
1F
100
AcDbEntity
  8
0
  6
Continuous
 62
     7
370
    15
100
AcDbLine
 10
360.8117142045
 20
393.466830105
 30
0.0
 11
360.5609642045
 21
393.466830105
 31
0.0
  0
LINE
  5
123
330
1F
100
AcDbEntity
  8
0
  6
Continuous
 62
     7
370
    15
100
AcDbLine
 10
361.5138142045
 20
392.831361314
 30
0.0
 11
361.5138142045
 21
388.084298896
 31
0.0
  0
SPLINE
  5
124
330
1F
100
AcDbEntity
  8
0
  6
Continuous
 62
     7
370
    15
100
AcDbSpline
210
0.0
220
0.0
230
1.0
 70
     8
 71
     3
 72
    10
 73
     6
 74
     0
 42
0.00000001
 43
0.00000001
 40
0.0
 40
0.0
 40
0.0
 40
0.0
 40
0.5
 40
0.5
 40
1.0
 40
1.0
 40
1.0
 40
1.0
 10
361.5138142045312
 20
388.0842988960392
 30
0.0
 10
361.5138142045311
 20
387.924447275319
 30
0.0
 10
361.4497923368176
 20
387.7678392421271
 30
0.0
 10
361.2283378099298
 20
387.5425267588253
 30
0.0
 10
361.0719229020234
 20
387.4756967143067
 30
0.0
 10
360.9120142045311
 20
387.4756967143067
 30
0.0
  0
SPLINE
  5
125
330
1F
100
AcDbEntity
  8
0
  6
Continuous
 62
     7
370
    15
100
AcDbSpline
210
0.0
220
0.0
230
1.0
 70
     8
 71
     3
 72
    10
 73
     6
 74
     0
 42
0.00000001
 43
0.00000001
 40
0.0
 40
0.0
 40
0.0
 40
0.0
 40
0.5
 40
0.5
 40
1.0
 40
1.0
 40
1.0
 40
1.0
 10
360.9120142045311
 20
393.4399634957309
 30
0.0
 10
361.0718912587166
 20
393.4399634957309
 30
0.0
 10
361.2280500261023
 20
393.3732600308481
 30
0.0
 10
361.4494555359093
 20
393.1483293854798
 30
0.0
 10
361.5138142045312
 20
392.9911871753744
 30
0.0
 10
361.5138142045312
 20
392.8313613139983
 30
0.0
  0
SPLINE
  5
126
330
1F
100
AcDbEntity
  8
0
  6
Continuous
 62
     8
370
     0
100
AcDbSpline
210
0.0
220
0.0
230
1.0
 70
     8
 71
     3
 72
    22
 73
    18
 74
     0
 42
0.00000001
 43
0.00000001
 40
0.0
 40
0.0
 40
0.0
 40
0.0
 40
0.125
 40
0.125
 40
0.25
 40
0.25
 40
0.375
 40
0.375
 40
0.5
 40
0.5
 40
0.625
 40
0.625
 40
0.75
 40
0.75
 40
0.875
 40
0.875
 40
1.0
 40
1.0
 40
1.0
 40
1.0
 10
359.014240886481
 20
400.8890301050175
 30
0.0
 10
358.9422169313774
 20
400.8890301050174
 30
0.0
 10
358.8691384155954
 20
400.9093267443331
 30
0.0
 10
358.7211674379298
 20
400.9873331929168
 30
0.0
 10
358.6456091308619
 20
401.0457667234961
 30
0.0
 10
358.4963617485824
 20
401.1983596650124
 30
0.0
 10
358.4237446796096
 20
401.2910644223723
 30
0.0
 10
358.283381053564
 20
401.50797462236
 30
0.0
 10
358.2149142750135
 20
401.6338718883899
 30
0.0
 10
358.0886879922635
 20
401.9105192994551
 30
0.0
 10
358.0309565233332
 20
402.0605608174181
 30
0.0
 10
357.9276291263506
 20
402.3842028135988
 30
0.0
 10
357.8816561431771
 20
402.5600882938034
 30
0.0
 10
357.8074921589064
 20
402.9229473198246
 30
0.0
 10
357.7788875482674
 20
403.1103849239373
 30
0.0
 10
357.739885240738
 20
403.4975952461641
 30
0.0
 10
357.7296709537061
 20
403.697943324884
 30
0.0
 10
357.7296709537061
 20
403.8980301050175
 30
0.0
  0
LINE
  5
127
330
1F
100
AcDbEntity
  8
0
  6
Continuous
 62
     8
370
     0
100
AcDbLine
 10
360.5609642045
 20
400.889030105
 30
0.0
 11
359.0142408865
 21
400.889030105
 31
0.0
  0
LINE
  5
128
330
1F
100
AcDbEntity
  8
0
  6
Continuous
 62
     8
370
     0
100
AcDbLine
 10
359.0142408865
 20
410.919030105
 30
0.0
 11
360.5609642045
 21
410.919030105
 31
0.0
  0
SPLINE
  5
129
330
1F
100
AcDbEntity
  8
0
  6
Continuous
 62
     8
370
     0
100
AcDbSpline
210
0.0
220
0.0
230
1.0
 70
     8
 71
     3
 72
    20
 73
    16
 74
     0
 42
0.00000001
 43
0.00000001
 40
0.0
 40
0.0
 40
0.0
 40
0.0
 40
0.1250000000000042
 40
0.1250000000000042
 40
0.2500000000000085
 40
0.2500000000000085
 40
0.5000000000000093
 40
0.5000000000000093
 40
0.625000000000007
 40
0.625000000000007
 40
0.7500000000000047
 40
0.7500000000000047
 40
0.8750000000000024
 40
0.8750000000000024
 40
1.0
 40
1.0
 40
1.0
 40
1.0
 10
357.7296709537061
 20
407.9100301050175
 30
0.0
 10
357.7296709537061
 20
408.1097155079278
 30
0.0
 10
357.7396069945941
 20
408.3060453828301
 30
0.0
 10
357.7781828648331
 20
408.6922949337226
 30
0.0
 10
357.8072918670863
 20
408.883918555852
 30
0.0
 10
357.9183939124526
 20
409.4281438669532
 30
0.0
 10
358.0260328088293
 20
409.7601926312427
 30
0.0
 10
358.2146004690608
 20
410.1735146855518
 30
0.0
 10
358.2829237928545
 20
410.2993556306939
 30
0.0
 10
358.4239544729268
 20
410.5173432812921
 30
0.0
 10
358.4965397069559
 20
410.6098332117609
 30
0.0
 10
358.644837733053
 20
410.7615538808996
 30
0.0
 10
358.7208714407124
 20
410.8205553998315
 30
0.0
 10
358.8692475870463
 20
410.8988065737072
 30
0.0
 10
358.9423565941689
 20
410.9190301050175
 30
0.0
 10
359.014240886481
 20
410.9190301050174
 30
0.0
  0
LINE
  5
12A
330
1F
100
AcDbEntity
  8
0
  6
Continuous
 62
     8
370
     0
100
AcDbLine
 10
357.7296709537
 20
403.898030105
 30
0.0
 11
357.7296709537
 21
407.910030105
 31
0.0
  0
SPLINE
  5
12B
330
1F
100
AcDbEntity
  8
0
  6
Continuous
 62
     8
370
     0
100
AcDbSpline
210
0.0
220
0.0
230
1.0
 70
     8
 71
     3
 72
    15
 73
    11
 74
     0
 42
0.00000001
 43
0.00000001
 40
0.0
 40
0.0
 40
0.0
 40
0.0
 40
0.0003494474249348
 40
0.1222732616207529
 40
0.2461785117162104
 40
0.3720780662713521
 40
0.4999556796073428
 40
0.6526038335874224
 40
0.8192824843589182
 40
1.0
 40
1.0
 40
1.0
 40
1.0
 10
360.0589925775605
 20
368.1306826901943
 30
0.0
 10
360.0591498947392
 20
368.1307020604751
 30
0.0
 10
360.114195899289
 20
368.1374798108441
 30
0.0
 10
359.9781200836836
 20
368.1205246360618
 30
0.0
 10
359.7600648493712
 20
368.0937066004752
 30
0.0
 10
359.3252402050567
 20
368.0412561177342
 30
0.0
 10
358.6877030999298
 20
367.9657348962699
 30
0.0
 10
357.7624560690261
 20
367.857257789206
 30
0.0
 10
356.48408065872
 20
367.7128849377979
 30
0.0
 10
355.3629933694391
 20
367.5951744629231
 30
0.0
 10
354.7797972109213
 20
367.5339407860982
 30
0.0
  0
SPLINE
  5
12C
330
1F
100
AcDbEntity
  8
0
  6
Continuous
 62
     8
370
     0
100
AcDbSpline
210
0.0
220
0.0
230
1.0
 70
     8
 71
     3
 72
    34
 73
    30
 74
     0
 42
0.00000001
 43
0.00000001
 40
0.0
 40
0.0
 40
0.0
 40
0.0
 40
0.0227371593023572
 40
0.0454261671433938
 40
0.0680590061056267
 40
0.0906286679572306
 40
0.1131288739584755
 40
0.1355524576981068
 40
0.1562024527722253
 40
0.1836065617510131
 40
0.2559792189937971
 40
0.26500077209344
 40
0.2739978239434126
 40
0.3840263731323103
 40
0.4352305811738745
 40
0.4408970834580873
 40
0.4747625713261798
 40
0.6224391000586654
 40
0.6486199497595382
 40
0.67493036487937
 40
0.6764763587709419
 40
0.6780228256270745
 40
0.6873116874219188
 40
0.8453765275070046
 40
0.8499089583588421
 40
0.8771215142148819
 40
0.9175145799283628
 40
0.9584629361971495
 40
1.0
 40
1.0
 40
1.0
 40
1.0
 10
349.0933988688336
 20
363.6767449696528
 30
0.0
 10
349.0996002570456
 20
363.750993373355
 30
0.0
 10
349.1119899005228
 20
363.8993329417179
 30
0.0
 10
349.1402239180757
 20
364.1202524002182
 30
0.0
 10
349.1756624440881
 20
364.3391454133712
 30
0.0
 10
349.2190254565643
 20
364.5554530376107
 30
0.0
 10
349.270110270954
 20
364.7687013178278
 30
0.0
 10
349.3273873431317
 20
364.973123029204
 30
0.0
 10
349.3967206430078
 20
365.1895663635515
 30
0.0
 10
349.5302751485443
 20
365.5520281587511
 30
0.0
 10
349.6804263318858
 20
365.8639010949658
 30
0.0
 10
349.8236689470715
 20
366.106232458783
 30
0.0
 10
350.0322341753607
 20
366.4443099870329
 30
0.0
 10
350.3635811065865
 20
366.8474753020415
 30
0.0
 10
350.7345512871003
 20
367.1513543499539
 30
0.0
 10
350.9425222208749
 20
367.2996245782119
 30
0.0
 10
351.380321049896
 20
367.5811830614708
 30
0.0
 10
351.9012068433624
 20
367.7696642784279
 30
0.0
 10
352.3917653427548
 20
367.860927271035
 30
0.0
 10
352.5236254594168
 20
367.878977701156
 30
0.0
 10
352.5950703665744
 20
367.8870004351057
 30
0.0
 10
352.6251425974469
 20
367.8902975346697
 30
0.0
 10
353.0346991921738
 20
367.931388716428
 30
0.0
 10
353.4422799959931
 20
367.9116825114691
 30
0.0
 10
353.8693118544747
 20
367.8354327911115
 30
0.0
 10
354.0301458740878
 20
367.8024385285821
 30
0.0
 10
354.2668339871959
 20
367.738971151308
 30
0.0
 10
354.527694758561
 20
367.6496002259678
 30
0.0
 10
354.6955018456861
 20
367.5726967311357
 30
0.0
 10
354.7800042180863
 20
367.5339705493605
 30
0.0
  0
SPLINE
  5
12D
330
1F
100
AcDbEntity
  8
0
  6
Continuous
 62
     8
370
     0
100
AcDbSpline
210
0.0
220
0.0
230
1.0
 70
     8
 71
     3
 72
    10
 73
     6
 74
     0
 42
0.00000001
 43
0.00000001
 40
0.0
 40
0.0
 40
0.0
 40
0.0
 40
0.4999999999999997
 40
0.4999999999999997
 40
1.0
 40
1.0
 40
1.0
 40
1.0
 10
349.1556740457216
 20
346.6343965095383
 30
0.0
 10
348.9748800159614
 20
349.4580311185612
 30
0.0
 10
348.8743259633394
 20
352.3033012113306
 30
0.0
 10
348.8528602230311
 20
357.9997631429127
 30
0.0
 10
348.932037491958
 20
360.848812258372
 30
0.0
 10
349.0934421524596
 20
363.6774912633601
 30
0.0
  0
SPLINE
  5
12E
330
1F
100
AcDbEntity
  8
0
  6
Continuous
 62
     8
370
     0
100
AcDbSpline
210
0.0
220
0.0
230
1.0
 70
     8
 71
     3
 72
    29
 73
    25
 74
     0
 42
0.00000001
 43
0.00000001
 40
0.0
 40
0.0
 40
0.0
 40
0.0
 40
0.0419481592523842
 40
0.0835282308117528
 40
0.1247667402633168
 40
0.1656711177426421
 40
0.2062628239136103
 40
0.2465749702955882
 40
0.2866378768093556
 40
0.3356107801387148
 40
0.3518756657306168
 40
0.3541433967232081
 40
0.3609436163549419
 40
0.3700039240126224
 40
0.4863668280737861
 40
0.6024838425567756
 40
0.6158128004771778
 40
0.6425859864774812
 40
0.7674193998473876
 40
0.7942702803721432
 40
0.803240378205717
 40
0.8685586430417199
 40
0.9341447168492962
 40
1.0
 40
1.0
 40
1.0
 40
1.0
 10
352.6781522916554
 20
342.4825703967756
 30
0.0
 10
352.6094705320586
 20
342.4906396517811
 30
0.0
 10
352.4727096831823
 20
342.5067073555037
 30
0.0
 10
352.2665261074278
 20
342.5446173414853
 30
0.0
 10
352.0616061041697
 20
342.5930864400224
 30
0.0
 10
351.8580775455421
 20
342.6536988986114
 30
0.0
 10
351.6566855615151
 20
342.7266584892325
 30
0.0
 10
351.4580706616672
 20
342.8124919123657
 30
0.0
 10
351.2481208960451
 20
342.9190945469696
 30
0.0
 10
351.0803345195344
 20
343.019704592048
 30
0.0
 10
350.9748986083345
 20
343.0907856878516
 30
0.0
 10
350.9355762157344
 20
343.118163907035
 30
0.0
 10
350.9075233282056
 20
343.1380038335384
 30
0.0
 10
350.7040823512892
 20
343.2858379540467
 30
0.0
 10
350.3491464234679
 20
343.6028652877609
 30
0.0
 10
350.0414671879157
 20
344.0066952305984
 30
0.0
 10
349.869382167868
 20
344.2846812027437
 30
0.0
 10
349.6951378547848
 20
344.584968849322
 30
0.0
 10
349.5380643768554
 20
344.9373233969073
 30
0.0
 10
349.426729032205
 20
345.268063869579
 30
0.0
 10
349.3608165793766
 20
345.4782316187997
 30
0.0
 10
349.2822191659178
 20
345.7743697188965
 30
0.0
 10
349.2001478239994
 20
346.2002323856822
 30
0.0
 10
349.1705230659661
 20
346.4894778725194
 30
0.0
 10
349.1556803492314
 20
346.6343968225099
 30
0.0
  0
SPLINE
  5
12F
330
1F
100
AcDbEntity
  8
0
  6
Continuous
 62
     8
370
     0
100
AcDbSpline
210
0.0
220
0.0
230
1.0
 70
     8
 71
     3
 72
    22
 73
    18
 74
     0
 42
0.00000001
 43
0.00000001
 40
0.0
 40
0.0
 40
0.0
 40
0.0
 40
0.0729820614762559
 40
0.1456898732947728
 40
0.2290277458945777
 40
0.3195523545965676
 40
0.392232975760092
 40
0.469537132827262
 40
0.5551680913574422
 40
0.6395179826321155
 40
0.7237673690284099
 40
0.7704150407738054
 40
0.8152220849052487
 40
0.8583134983814363
 40
0.9301810195526737
 40
0.999553141878982
 40
1.0
 40
1.0
 40
1.0
 40
1.0
 10
352.6779796877794
 20
342.4827171746651
 30
0.0
 10
352.9963376934085
 20
342.2131850094451
 30
0.0
 10
353.6318573891294
 20
341.6751335183596
 30
0.0
 10
354.5488310279876
 20
340.8032346783339
 30
0.0
 10
355.4687563377466
 20
339.8543251355994
 30
0.0
 10
356.3079695251957
 20
338.9027720463509
 30
0.0
 10
357.055233447259
 20
337.9860466420758
 30
0.0
 10
357.7227207510769
 20
337.1105312634396
 30
0.0
 10
358.3480534619619
 20
336.2340337801986
 30
0.0
 10
358.9054468457413
 20
335.4020735129294
 30
0.0
 10
359.2990532987073
 20
334.7807438126846
 30
0.0
 10
359.5646135215748
 20
334.3466176828604
 30
0.0
 10
359.7354796877266
 20
334.0602819502557
 30
0.0
 10
359.9010114041217
 20
333.7762959361053
 30
0.0
 10
360.0187629243143
 20
333.5691401726382
 30
0.0
 10
360.0750384101212
 20
333.4663740429953
 30
0.0
 10
360.0592620758607
 20
333.4948303124084
 30
0.0
 10
360.0591611035601
 20
333.4950124393172
 30
0.0
  0
SPLINE
  5
130
330
1F
100
AcDbEntity
  8
0
  6
Continuous
 62
     8
370
    15
100
AcDbSpline
210
0.0
220
0.0
230
1.0
 70
     8
 71
     3
 72
    21
 73
    17
 74
     0
 42
0.00000001
 43
0.00000001
 40
0.0
 40
0.0
 40
0.0
 40
0.0
 40
0.0308288355010143
 40
0.0620818948064208
 40
0.0938180581165128
 40
0.1260906622280655
 40
0.1868823565299072
 40
0.2515617485859996
 40
0.3764346166281139
 40
0.5015177607312664
 40
0.6260894048814087
 40
0.7511509775450027
 40
0.8232566570770625
 40
0.8752215246784693
 40
0.9412330404257625
 40
1.0
 40
1.0
 40
1.0
 40
1.0
 10
354.7232784596487
 20
363.2549889547815
 30
0.0
 10
354.7254507532657
 20
363.291370965183
 30
0.0
 10
354.7298252326007
 20
363.3646356249045
 30
0.0
 10
354.7448310476082
 20
363.473965384198
 30
0.0
 10
354.7660183193788
 20
363.5830575770891
 30
0.0
 10
354.8020773824263
 20
363.7225248306777
 30
0.0
 10
354.8616696110673
 20
363.8913829071257
 30
0.0
 10
354.9806443717642
 20
364.1398604565521
 30
0.0
 10
355.1677226214509
 20
364.4128886655591
 30
0.0
 10
355.4252339444503
 20
364.6754503948159
 30
0.0
 10
355.7036559067052
 20
364.880669169933
 30
0.0
 10
355.9527402349693
 20
365.0101266788796
 30
0.0
 10
356.1478938196093
 20
365.0827305071977
 30
0.0
 10
356.2975561805813
 20
365.1245203958796
 30
0.0
 10
356.436587298666
 20
365.1525353428312
 30
0.0
 10
356.5342027162721
 20
365.1610462407357
 30
0.0
 10
356.5801766816174
 20
365.1650546211218
 30
0.0
  0
SPLINE
  5
131
330
1F
100
AcDbEntity
  8
0
  6
Continuous
 62
     8
370
    15
100
AcDbSpline
210
0.0
220
0.0
230
1.0
 70
     8
 71
     3
 72
    18
 73
    14
 74
     0
 42
0.00000001
 43
0.00000001
 40
0.0
 40
0.0
 40
0.0
 40
0.0
 40
0.0722361852916062
 40
0.1441925581818433
 40
0.2158749021698414
 40
0.287288964050267
 40
0.3584404536346483
 40
0.4293350434812163
 40
0.4999783686339385
 40
0.6240410373145285
 40
0.7487118518434538
 40
0.874021265941586
 40
1.0
 40
1.0
 40
1.0
 40
1.0
 10
354.7670723963305
 20
347.1066396771351
 30
0.0
 10
354.7494764740547
 20
347.4949963862717
 30
0.0
 10
354.7143527886569
 20
348.2702054750607
 30
0.0
 10
354.6708794118138
 20
349.4315098834833
 30
0.0
 10
354.6342960356524
 20
350.58880985128
 30
0.0
 10
354.6052486268752
 20
351.7421685362608
 30
0.0
 10
354.583566158599
 20
352.8915761175545
 30
0.0
 10
354.5692902616928
 20
354.0370430734765
 30
0.0
 10
354.5606860157694
 20
355.4676190319063
 30
0.0
 10
354.5656435912975
 20
357.1879473993918
 30
0.0
 10
354.594585579565
 20
359.2023431663458
 30
0.0
 10
354.6446878501197
 20
361.226368333664
 30
0.0
 10
354.6970548924717
 20
362.5780558035573
 30
0.0
 10
354.7233081549127
 20
363.2556996858852
 30
0.0
  0
SPLINE
  5
132
330
1F
100
AcDbEntity
  8
0
  6
Continuous
 62
     8
370
    15
100
AcDbSpline
210
0.0
220
0.0
230
1.0
 70
     8
 71
     3
 72
    16
 73
    12
 74
     0
 42
0.00000001
 43
0.00000001
 40
0.0
 40
0.0
 40
0.0
 40
0.0
 40
0.0892063436094298
 40
0.1723184869265447
 40
0.2491861422084068
 40
0.3792988331609455
 40
0.4988969315839412
 40
0.6278914694788393
 40
0.7488325760442243
 40
0.876406858543864
 40
1.0
 40
1.0
 40
1.0
 40
1.0
 10
355.4908200766878
 20
345.6869555860876
 30
0.0
 10
355.4585427793479
 20
345.7154588054032
 30
0.0
 10
355.3961932331761
 20
345.7705180245827
 30
0.0
 10
355.3096050691138
 20
345.8590005919251
 30
0.0
 10
355.212327923755
 20
345.9691092786144
 30
0.0
 10
355.109443165144
 20
346.1048518579162
 30
0.0
 10
355.0017304038487
 20
346.2784307259122
 30
0.0
 10
354.9111434385943
 20
346.4637847972078
 30
0.0
 10
354.8376926741239
 20
346.6682657254298
 30
0.0
 10
354.7857899010818
 20
346.8823605524549
 30
0.0
 10
354.7732346247454
 20
347.0329009652223
 30
0.0
 10
354.7670564905757
 20
347.1069780976665
 30
0.0
  0
SPLINE
  5
133
330
1F
100
AcDbEntity
  8
0
  6
Continuous
 62
     8
370
     0
100
AcDbSpline
210
0.0
220
0.0
230
1.0
 70
     8
 71
     3
 72
    10
 73
     6
 74
     0
 42
0.00000001
 43
0.00000001
 40
0.0
 40
0.0
 40
0.0
 40
0.0
 40
0.5
 40
0.5
 40
1.0
 40
1.0
 40
1.0
 40
1.0
 10
417.8758497256288
 20
363.1703458270929
 30
0.0
 10
407.3508125485462
 20
363.2447719158985
 30
0.0
 10
396.8252403548894
 20
363.2366404247979
 30
0.0
 10
375.7740556137101
 20
363.2123665608754
 30
0.0
 10
365.248429214632
 20
363.1946329526294
 30
0.0
 10
354.7232912728182
 20
363.254988881305
 30
0.0
  0
SPLINE
  5
134
330
1F
100
AcDbEntity
  8
0
  6
Continuous
 62
     8
370
     0
100
AcDbSpline
210
0.0
220
0.0
230
1.0
 70
     8
 71
     3
 72
    10
 73
     6
 74
     0
 42
0.00000001
 43
0.00000001
 40
0.0
 40
0.0
 40
0.0
 40
0.0
 40
0.5
 40
0.5
 40
1.0
 40
1.0
 40
1.0
 40
1.0
 10
354.7670634692471
 20
347.1069781393834
 30
0.0
 10
365.27832075982
 20
347.1698119987943
 30
0.0
 10
375.7897396229899
 20
347.1945072744175
 30
0.0
 10
396.8124408445468
 20
347.2526989220415
 30
0.0
 10
407.3237334499549
 20
347.2853293280559
 30
0.0
 10
417.8347313285524
 20
347.3600367177722
 30
0.0
  0
SPLINE
  5
135
330
1F
100
AcDbEntity
  8
0
  6
Continuous
 62
     8
370
     0
100
AcDbSpline
210
0.0
220
0.0
230
1.0
 70
     8
 71
     3
 72
     8
 73
     4
 74
     0
 42
0.00000001
 43
0.00000001
 40
0.0
 40
0.0
 40
0.0
 40
0.0
 40
1.0
 40
1.0
 40
1.0
 40
1.0
 10
356.5800642735936
 20
365.1650554278663
 30
0.0
 10
377.0103297410667
 20
365.0184289135439
 30
0.0
 10
397.443159156076
 20
364.8558975822288
 30
0.0
 10
417.873719905071
 20
364.7123972191443
 30
0.0
  0
SPLINE
  5
136
330
1F
100
AcDbEntity
  8
0
  6
Continuous
 62
     8
370
     0
100
AcDbSpline
210
0.0
220
0.0
230
1.0
 70
     8
 71
     3
 72
     8
 73
     4
 74
     0
 42
0.00000001
 43
0.00000001
 40
0.0
 40
0.0
 40
0.0
 40
0.0
 40
1.0
 40
1.0
 40
1.0
 40
1.0
 10
417.8381569598271
 20
346.2334297514749
 30
0.0
 10
397.0555516986281
 20
346.0811473485055
 30
0.0
 10
376.2727470943298
 20
345.8415993089692
 30
0.0
 10
355.4907227554231
 20
345.686954861894
 30
0.0
  0
SPLINE
  5
137
330
1F
100
AcDbEntity
  8
0
  6
Continuous
 62
     8
370
     0
100
AcDbSpline
210
0.0
220
0.0
230
1.0
 70
     8
 71
     3
 72
    22
 73
    18
 74
     0
 42
0.00000001
 43
0.00000001
 40
0.0
 40
0.0
 40
0.0
 40
0.0
 40
0.125
 40
0.125
 40
0.2500000000000001
 40
0.2500000000000001
 40
0.5000000000000006
 40
0.5000000000000006
 40
0.6250000000000008
 40
0.6250000000000008
 40
0.7500000000000011
 40
0.7500000000000011
 40
0.812500000000001
 40
0.812500000000001
 40
0.8750000000000009
 40
0.8750000000000009
 40
1.0
 40
1.0
 40
1.0
 40
1.0
 10
422.6802926339032
 20
344.418633357482
 30
0.0
 10
422.6817974858192
 20
344.5928416592573
 30
0.0
 10
422.6563242346772
 20
344.7663111244118
 30
0.0
 10
422.5528099488571
 20
345.1112854412498
 30
0.0
 10
422.4741707824091
 20
345.2837447871371
 30
0.0
 10
422.1572015793609
 20
345.7904639643851
 30
0.0
 10
421.8469219337488
 20
346.1067708078748
 30
0.0
 10
421.2076440766913
 20
346.5356338398512
 30
0.0
 10
420.971179058662
 20
346.6662018909199
 30
0.0
 10
420.4485590974104
 20
346.9026612421784
 30
0.0
 10
420.1584913613725
 20
347.0083632058891
 30
0.0
 10
419.6977862927282
 20
347.1372912975911
 30
0.0
 10
419.5396548969525
 20
347.1755551567102
 30
0.0
 10
419.2137987687516
 20
347.242150817838
 30
0.0
 10
419.0451610295526
 20
347.2705560663022
 30
0.0
 10
418.5358031896681
 20
347.338214181395
 30
0.0
 10
418.1890416873717
 20
347.3608975176929
 30
0.0
 10
417.8347313285523
 20
347.3600367177722
 30
0.0
  0
SPLINE
  5
138
330
1F
100
AcDbEntity
  8
0
  6
Continuous
 62
     8
370
     0
100
AcDbSpline
210
0.0
220
0.0
230
1.0
 70
     8
 71
     3
 72
    22
 73
    18
 74
     0
 42
0.00000001
 43
0.00000001
 40
0.0
 40
0.0
 40
0.0
 40
0.0
 40
0.1250000000000005
 40
0.1250000000000005
 40
0.1875000000000006
 40
0.1875000000000006
 40
0.2500000000000007
 40
0.2500000000000007
 40
0.3125000000000008
 40
0.3125000000000008
 40
0.3750000000000009
 40
0.3750000000000009
 40
0.5000000000000019
 40
0.5000000000000019
 40
0.7500000000000009
 40
0.7500000000000009
 40
1.0
 40
1.0
 40
1.0
 40
1.0
 10
417.838156959827
 20
346.2334297514749
 30
0.0
 10
418.1011079796884
 20
346.2353564980371
 30
0.0
 10
418.3559205574867
 20
346.2083126833733
 30
0.0
 10
418.7269425206811
 20
346.1278871475781
 30
0.0
 10
418.848166497489
 20
346.0943453166223
 30
0.0
 10
419.0791628043993
 20
346.0169321295307
 30
0.0
 10
419.1900080848464
 20
345.9728440282411
 30
0.0
 10
419.4031978770608
 20
345.8748518975107
 30
0.0
 10
419.5059984865202
 20
345.8206055075395
 30
0.0
 10
419.6990084286331
 20
345.7057505586664
 30
0.0
 10
419.789797988353
 20
345.6449386905938
 30
0.0
 10
420.0470617746797
 20
345.4536052559129
 30
0.0
 10
420.1996109398359
 20
345.3132336798454
 30
0.0
 10
420.5990766308722
 20
344.8698928779913
 30
0.0
 10
420.7855185537429
 20
344.5523926308077
 30
0.0
 10
421.0357021024165
 20
343.8867421084121
 30
0.0
 10
421.0942603396335
 20
343.5500273731679
 30
0.0
 10
421.0911671371338
 20
343.2116567653001
 30
0.0
  0
SPLINE
  5
139
330
1F
100
AcDbEntity
  8
0
  6
Continuous
 62
     8
370
     0
100
AcDbSpline
210
0.0
220
0.0
230
1.0
 70
     8
 71
     3
 72
    24
 73
    20
 74
     0
 42
0.00000001
 43
0.00000001
 40
0.0
 40
0.0
 40
0.0
 40
0.0
 40
0.1249999999999998
 40
0.1249999999999998
 40
0.2499999999999996
 40
0.2499999999999996
 40
0.3749999999999993
 40
0.3749999999999993
 40
0.4999999999999991
 40
0.4999999999999991
 40
0.6249999999999989
 40
0.6249999999999989
 40
0.7499999999999987
 40
0.7499999999999987
 40
0.8124999999999989
 40
0.8124999999999989
 40
0.8749999999999991
 40
0.8749999999999991
 40
1.0
 40
1.0
 40
1.0
 40
1.0
 10
417.8758497256288
 20
363.1703458270929
 30
0.0
 10
418.1988000965206
 20
363.1687753267094
 30
0.0
 10
418.5181616971404
 20
363.1681428444564
 30
0.0
 10
419.1497345028699
 20
363.1687095694026
 30
0.0
 10
419.4554315060101
 20
363.1699080091255
 30
0.0
 10
420.041689974129
 20
363.1739431235285
 30
0.0
 10
420.3257748265496
 20
363.1768180393307
 30
0.0
 10
420.8567756316576
 20
363.1839847472144
 30
0.0
 10
421.1014324036312
 20
363.1882240332408
 30
0.0
 10
421.5498618559848
 20
363.1978178795819
 30
0.0
 10
421.7549577566422
 20
363.2032329776699
 30
0.0
 10
422.106910560628
 20
363.2146035470312
 30
0.0
 10
422.255915337162
 20
363.220588288695
 30
0.0
 10
422.4385175494035
 20
363.2299106228398
 30
0.0
 10
422.4926807931074
 20
363.2330913519456
 30
0.0
 10
422.5849081154437
 20
363.2394290484147
 30
0.0
 10
422.6232669455574
 20
363.2425973317272
 30
0.0
 10
422.7155823229024
 20
363.2520854453246
 30
0.0
 10
422.7469989636618
 20
363.2583868393617
 30
0.0
 10
422.7469985929086
 20
363.2646462216205
 30
0.0
  0
SPLINE
  5
13A
330
1F
100
AcDbEntity
  8
0
  6
Continuous
 62
     8
370
     0
100
AcDbSpline
210
0.0
220
0.0
230
1.0
 70
     8
 71
     3
 72
     9
 73
     5
 74
     0
 42
0.00000001
 43
0.00000001
 40
0.0
 40
0.0
 40
0.0
 40
0.0
 40
0.8986778331349576
 40
1.0
 40
1.0
 40
1.0
 40
1.0
 10
422.7467443004897
 20
360.0302486975785
 30
0.0
 10
422.7468910629483
 20
360.9993853739978
 30
0.0
 10
422.7470543722602
 20
362.0777881571605
 30
0.0
 10
422.7470037246356
 20
363.1554547112065
 30
0.0
 10
422.7469985929085
 20
363.2646462216204
 30
0.0
  0
SPLINE
  5
13B
330
1F
100
AcDbEntity
  8
0
  6
Continuous
 62
     8
370
     0
100
AcDbSpline
210
0.0
220
0.0
230
1.0
 70
     8
 71
     3
 72
    20
 73
    16
 74
     0
 42
0.00000001
 43
0.00000001
 40
0.0
 40
0.0
 40
0.0
 40
0.0
 40
0.1250000000000009
 40
0.1250000000000009
 40
0.2500000000000018
 40
0.2500000000000018
 40
0.3750000000000027
 40
0.3750000000000027
 40
0.5000000000000036
 40
0.5000000000000036
 40
0.6250000000000044
 40
0.6250000000000044
 40
0.7500000000000053
 40
0.7500000000000053
 40
1.0
 40
1.0
 40
1.0
 40
1.0
 10
421.1542872605435
 20
364.8675369417588
 30
0.0
 10
421.154287261157
 20
364.8571850648885
 30
0.0
 10
421.1333034882235
 20
364.8468856354826
 30
0.0
 10
421.0510335302574
 20
364.8264169118069
 30
0.0
 10
420.9888124491105
 20
364.8161440566931
 30
0.0
 10
420.8258683412433
 20
364.7963713670181
 30
0.0
 10
420.7260739242873
 20
364.7869190381791
 30
0.0
 10
420.4901256556278
 20
364.7690040891692
 30
0.0
 10
420.352485116734
 20
364.7604918768004
 30
0.0
 10
420.0510856426947
 20
364.7453422055823
 30
0.0
 10
419.8864949870534
 20
364.7386124310559
 30
0.0
 10
419.5288764456904
 20
364.7270402790629
 30
0.0
 10
419.337214850661
 20
364.7222755843966
 30
0.0
 10
418.7436560583394
 20
364.7116670594366
 30
0.0
 10
418.3105598658029
 20
364.7093289385546
 30
0.0
 10
417.873719905071
 20
364.7123972191443
 30
0.0
  0
ARC
  5
13C
330
1F
100
AcDbEntity
  8
0
  6
Continuous
 62
     8
370
     0
100
AcDbCircle
 10
421.1431162912
 20
363.2636932601
 30
0.0
 40
1.603882584785162
100
AcDbArc
 50
0.0340428142
 51
89.600934273
  0
SPLINE
  5
13D
330
1F
100
AcDbEntity
  8
0
  6
Continuous
 62
     8
370
    15
100
AcDbSpline
210
0.0
220
0.0
230
1.0
 70
     8
 71
     3
 72
    15
 73
    11
 74
     0
 42
0.00000001
 43
0.00000001
 40
0.0
 40
0.0
 40
0.0
 40
0.0
 40
0.0003869720753258
 40
0.1256919548025238
 40
0.2505567680213224
 40
0.3759347291549899
 40
0.5004385974420881
 40
0.6669969612040286
 40
0.8335549802073108
 40
1.0
 40
1.0
 40
1.0
 40
1.0
 10
362.5665063187621
 20
336.0205651057706
 30
0.0
 10
362.5666588974724
 20
336.0202212269084
 30
0.0
 10
362.6162178129321
 20
335.908526329119
 30
0.0
 10
362.4399605231322
 20
336.3188913201367
 30
0.0
 10
362.0425748334846
 20
337.15470387345
 30
0.0
 10
361.3924550173498
 20
338.3866162957428
 30
0.0
 10
360.4764031897301
 20
339.9293423294537
 30
0.0
 10
359.2157480800232
 20
341.7570024511249
 30
0.0
 10
357.5627887688786
 20
343.7838047486649
 30
0.0
 10
356.181190481951
 20
345.0528261834397
 30
0.0
 10
355.4906257500353
 20
345.6871215898485
 30
0.0
  0
SPLINE
  5
13E
330
1F
100
AcDbEntity
  8
0
  6
Continuous
 62
     8
370
     0
100
AcDbSpline
210
0.0
220
0.0
230
1.0
 70
     8
 71
     3
 72
    15
 73
    11
 74
     0
 42
0.00000001
 43
0.00000001
 40
0.0
 40
0.0
 40
0.0
 40
0.0
 40
0.1724401959216443
 40
0.3075449997176387
 40
0.4429668622113894
 40
0.5801428307134696
 40
0.7185460503020448
 40
0.8309026854941314
 40
0.9453578904641436
 40
1.0
 40
1.0
 40
1.0
 40
1.0
 10
421.091167137134
 20
343.2116567653001
 30
0.0
 10
421.086040595544
 20
342.6533753635626
 30
0.0
 10
421.0768974707441
 20
341.6576872490715
 30
0.0
 10
421.0644578803036
 20
340.3068594638689
 30
0.0
 10
421.0539344125463
 20
339.1440782939076
 30
0.0
 10
421.0446596935142
 20
338.0946829392637
 30
0.0
 10
421.0375865840708
 20
337.2704382934805
 30
0.0
 10
421.0329265093426
 20
336.7091219444387
 30
0.0
 10
421.0309169195662
 20
336.4564152057229
 30
0.0
 10
421.0307587590166
 20
336.4359903209682
 30
0.0
 10
421.0307076510135
 20
336.4293902233069
 30
0.0
  0
SPLINE
  5
13F
330
1F
100
AcDbEntity
  8
0
  6
Continuous
 62
     8
370
    15
100
AcDbSpline
210
0.0
220
0.0
230
1.0
 70
     8
 71
     3
 72
    12
 73
     8
 74
     0
 42
0.00000001
 43
0.00000001
 40
0.0
 40
0.0
 40
0.0
 40
0.0
 40
0.249349436115656
 40
0.4998706518805156
 40
0.7489816560085923
 40
0.999635284122956
 40
1.0
 40
1.0
 40
1.0
 40
1.0
 10
356.5799534481965
 20
365.1650408035386
 30
0.0
 10
357.4736586754727
 20
365.2233274939916
 30
0.0
 10
359.2652689614505
 20
365.3401747843107
 30
0.0
 10
361.1469774610952
 20
365.4867474660271
 30
0.0
 10
362.2460979662265
 20
365.5766415854168
 30
0.0
 10
362.6964211977036
 20
365.6150283130158
 30
0.0
 10
362.5665868477257
 20
365.6041174987778
 30
0.0
 10
362.5663982055409
 20
365.6041016459636
 30
0.0
  0
SPLINE
  5
140
330
1F
100
AcDbEntity
  8
0
  6
Continuous
 62
     8
370
     0
100
AcDbSpline
210
0.0
220
0.0
230
1.0
 70
     8
 71
     3
 72
    10
 73
     6
 74
     0
 42
0.00000001
 43
0.00000001
 40
0.0
 40
0.0
 40
0.0
 40
0.0
 40
0.0011252091124066
 40
0.5004224790179713
 40
1.0
 40
1.0
 40
1.0
 40
1.0
 10
421.1542530501513
 20
365.1605181881982
 30
0.0
 10
421.1542530398757
 20
365.1605731134531
 30
0.0
 10
421.1542484699153
 20
365.1850004238268
 30
0.0
 10
421.1542675423678
 20
365.1081118795628
 30
0.0
 10
421.154280686589
 20
364.9477435856984
 30
0.0
 10
421.1542872605435
 20
364.8675369417588
 30
0.0
  0
SPLINE
  5
141
330
1F
100
AcDbEntity
  8
0
  6
Continuous
 62
     8
370
    15
100
AcDbSpline
210
0.0
220
0.0
230
1.0
 70
     8
 71
     3
 72
    16
 73
    12
 74
     0
 42
0.00000001
 43
0.00000001
 40
0.0
 40
0.0
 40
0.0
 40
0.0
 40
0.125000000000004
 40
0.125000000000004
 40
0.250000000000008
 40
0.250000000000008
 40
0.5000000000000053
 40
0.5000000000000053
 40
0.7500000000000027
 40
0.7500000000000027
 40
1.0
 40
1.0
 40
1.0
 40
1.0
 10
359.4894715405909
 20
403.8980301050175
 30
0.0
 10
359.4894715405909
 20
403.8065596158762
 30
0.0
 10
359.5108781222319
 20
403.7170603566366
 30
0.0
 10
359.5807851196174
 20
403.557192074307
 30
0.0
 10
359.6296144450137
 20
403.4844108179178
 30
0.0
 10
359.7927877205022
 20
403.293312445845
 30
0.0
 10
359.921512522225
 20
403.1989895616109
 30
0.0
 10
360.1908292062777
 20
403.0468752587463
 30
0.0
 10
360.3298540048041
 20
402.9915174021586
 30
0.0
 10
360.6101816105989
 20
402.9152002654027
 30
0.0
 10
360.7489695710327
 20
402.8950301050175
 30
0.0
 10
360.8857432066505
 20
402.8950301050175
 30
0.0
  0
SPLINE
  5
142
330
1F
100
AcDbEntity
  8
0
  6
Continuous
 62
     8
370
    15
100
AcDbSpline
210
0.0
220
0.0
230
1.0
 70
     8
 71
     3
 72
    18
 73
    14
 74
     0
 42
0.00000001
 43
0.00000001
 40
0.0
 40
0.0
 40
0.0
 40
0.0
 40
0.2500000000000059
 40
0.2500000000000059
 40
0.5000000000000118
 40
0.5000000000000118
 40
0.6250000000000088
 40
0.6250000000000088
 40
0.7500000000000059
 40
0.7500000000000059
 40
0.8750000000000029
 40
0.8750000000000029
 40
1.0
 40
1.0
 40
1.0
 40
1.0
 10
360.8857432066505
 20
408.9130301050175
 30
0.0
 10
360.7490393357663
 20
408.9130301050175
 30
0.0
 10
360.6096660589135
 20
408.8927572065244
 30
0.0
 10
360.3295031544567
 20
408.8164095578692
 30
0.0
 10
360.1901419112301
 20
408.7608739970115
 30
0.0
 10
359.9882167370435
 20
408.6467073401521
 30
0.0
 10
359.9227507384227
 20
408.6037722377176
 30
0.0
 10
359.7971805667785
 20
408.5052541156657
 30
0.0
 10
359.7366575434399
 20
408.449193066575
 30
0.0
 10
359.6293930944711
 20
408.323205348951
 30
0.0
 10
359.5812391258237
 20
408.2517788598607
 30
0.0
 10
359.5107680691395
 20
408.0908750842613
 30
0.0
 10
359.4894715405909
 20
408.0014769782238
 30
0.0
 10
359.4894715405909
 20
407.9100301050175
 30
0.0
  0
LINE
  5
143
330
1F
100
AcDbEntity
  8
0
  6
Continuous
 62
     8
370
    15
100
AcDbLine
 10
359.4894715406
 20
407.910030105
 30
0.0
 11
359.4894715406
 21
403.898030105
 31
0.0
  0
LINE
  5
144
330
1F
100
AcDbEntity
  8
0
  6
Continuous
 62
     7
370
    15
100
AcDbLine
 10
199.7988558459
 20
97.1561245884
 30
0.0
 11
199.0466058459
 21
97.9083745884
 31
0.0
  0
LINE
  5
145
330
1F
100
AcDbEntity
  8
0
  6
Continuous
 62
     7
370
    15
100
AcDbLine
 10
176.4791058459
 20
97.9083745884
 30
0.0
 11
175.7268558459
 21
97.1561245884
 31
0.0
  0
LINE
  5
146
330
1F
100
AcDbEntity
  8
0
  6
Continuous
 62
     7
370
    15
100
AcDbLine
 10
174.9244558459
 20
94.8993745884
 30
0.0
 11
174.9244558459
 21
88.3798745884
 31
0.0
  0
LINE
  5
147
330
1F
100
AcDbEntity
  8
0
  6
Continuous
 62
     7
370
    15
100
AcDbLine
 10
200.6012558459
 20
88.3798745884
 30
0.0
 11
200.6012558459
 21
94.8993745884
 31
0.0
  0
LINE
  5
148
330
1F
100
AcDbEntity
  8
0
  6
Continuous
 62
     7
370
    15
100
AcDbLine
 10
197.1189955189
 20
102.937412264
 30
0.0
 11
200.0923317693
 21
102.9375344136
 31
0.0
  0
LINE
  5
149
330
1F
100
AcDbEntity
  8
0
  6
Continuous
 62
     7
370
    15
100
AcDbLine
 10
175.3398460613
 20
102.9375326593
 30
0.0
 11
178.4298721359
 21
102.9374070443
 31
0.0
  0
SPLINE
  5
14A
330
1F
100
AcDbEntity
  8
0
  6
Continuous
 62
     7
370
    15
100
AcDbSpline
210
0.0
220
0.0
230
1.0
 70
     8
 71
     3
 72
     9
 73
     5
 74
     0
 42
0.00000001
 43
0.00000001
 40
0.0
 40
0.0
 40
0.0
 40
0.0
 40
0.0990797308502293
 40
1.0
 40
1.0
 40
1.0
 40
1.0
 10
169.2988674896999
 20
174.3751458499389
 30
0.0
 10
169.3426004529101
 20
174.2748091377059
 30
0.0
 10
169.7839920759475
 20
173.26212257334
 30
0.0
 10
169.8127743835494
 20
172.1356488572686
 30
0.0
 10
169.8387049478609
 20
171.1207858537955
 30
0.0
  0
SPLINE
  5
14B
330
1F
100
AcDbEntity
  8
0
  6
Continuous
 62
     7
370
    15
100
AcDbSpline
210
0.0
220
0.0
230
1.0
 70
     8
 71
     3
 72
     9
 73
     5
 74
     0
 42
0.00000001
 43
0.00000001
 40
0.0
 40
0.0
 40
0.0
 40
0.0
 40
0.9014646212778854
 40
1.0
 40
1.0
 40
1.0
 40
1.0
 10
205.6870074924063
 20
171.1207866893503
 30
0.0
 10
205.7128709001184
 20
172.1356685412902
 30
0.0
 10
205.7415613302269
 20
173.2614829415286
 30
0.0
 10
206.1826121422793
 20
174.27357990671
 30
0.0
 10
206.2260712510806
 20
174.3733072644777
 30
0.0
  0
SPLINE
  5
14C
330
1F
100
AcDbEntity
  8
0
  6
Continuous
 62
     7
370
    15
100
AcDbSpline
210
0.0
220
0.0
230
1.0
 70
     8
 71
     3
 72
     9
 73
     5
 74
     0
 42
0.00000001
 43
0.00000001
 40
0.0
 40
0.0
 40
0.0
 40
0.0
 40
0.4518632859282212
 40
1.0
 40
1.0
 40
1.0
 40
1.0
 10
169.8387387528851
 20
171.114666122559
 30
0.0
 10
169.9276037810161
 20
161.5799543472976
 30
0.0
 10
170.1242673093406
 20
140.4790769974701
 30
0.0
 10
170.314866564274
 20
119.3781389761469
 30
0.0
 10
170.4193410135777
 20
107.8119401453065
 30
0.0
  0
SPLINE
  5
14D
330
1F
100
AcDbEntity
  8
0
  6
Continuous
 62
     7
370
    15
100
AcDbSpline
210
0.0
220
0.0
230
1.0
 70
     8
 71
     3
 72
     9
 73
     5
 74
     0
 42
0.00000001
 43
0.00000001
 40
0.0
 40
0.0
 40
0.0
 40
0.0
 40
0.4519063664223597
 40
1.0
 40
1.0
 40
1.0
 40
1.0
 10
205.1063810487987
 20
107.8145046535683
 30
0.0
 10
205.1922195760838
 20
117.3497717757008
 30
0.0
 10
205.3821671706809
 20
138.4498664648309
 30
0.0
 10
205.5790597344612
 20
159.5498930479685
 30
0.0
 10
205.6869752951679
 20
171.1146832865052
 30
0.0
  0
SPLINE
  5
14E
330
1F
100
AcDbEntity
  8
0
  6
Continuous
 62
     7
370
    15
100
AcDbSpline
210
0.0
220
0.0
230
1.0
 70
     8
 71
     3
 72
    23
 73
    19
 74
     0
 42
0.00000001
 43
0.00000001
 40
0.0
 40
0.0
 40
0.0
 40
0.0
 40
0.0629190234089212
 40
0.1479659365751618
 40
0.2268906147876918
 40
0.3006457668843393
 40
0.3697114947339915
 40
0.4341273579746211
 40
0.4934868104052286
 40
0.5466482165918225
 40
0.5921235687257967
 40
0.6317081054535079
 40
0.6715015287778952
 40
0.7171699459342773
 40
0.775877628526513
 40
0.8584753813204085
 40
0.9826642487631115
 40
0.9999999999999999
 40
0.9999999999999999
 40
0.9999999999999999
 40
0.9999999999999999
 10
170.4352147002581
 20
107.81207064586
 30
0.0
 10
170.441096059275
 20
107.5726117618161
 30
0.0
 10
170.4549271829659
 20
107.009479085415
 30
0.0
 10
170.6884232505511
 20
106.1702896920524
 30
0.0
 10
171.0737436367859
 20
105.3506843279726
 30
0.0
 10
171.5664279906053
 20
104.6632796136532
 30
0.0
 10
172.1238851540224
 20
104.1065256517079
 30
0.0
 10
172.7138918107645
 20
103.6761080516748
 30
0.0
 10
173.3004637584014
 20
103.3647453608607
 30
0.0
 10
173.8432549541849
 20
103.1603741210985
 30
0.0
 10
174.3057770526605
 20
103.0415901082534
 30
0.0
 10
174.6676533609344
 20
102.9807343887259
 30
0.0
 10
174.9319739902926
 20
102.9530531735699
 30
0.0
 10
175.1229412471549
 20
102.9415274936473
 30
0.0
 10
175.262545971359
 20
102.9374352602132
 30
0.0
 10
175.3661401206441
 20
102.9366583713681
 30
0.0
 10
175.3906808421155
 20
102.9367801080439
 30
0.0
 10
175.4084037597637
 20
102.9367896408503
 30
0.0
 10
175.4105746901248
 20
102.9367908085507
 30
0.0
  0
SPLINE
  5
14F
330
1F
100
AcDbEntity
  8
0
  6
Continuous
 62
     7
370
    15
100
AcDbSpline
210
0.0
220
0.0
230
1.0
 70
     8
 71
     3
 72
     9
 73
     5
 74
     0
 42
0.00000001
 43
0.00000001
 40
0.0
 40
0.0
 40
0.0
 40
0.0
 40
0.0232520652139641
 40
0.9999999999999999
 40
0.9999999999999999
 40
0.9999999999999999
 40
0.9999999999999999
 10
200.0919897036267
 20
102.9368048896507
 30
0.0
 10
200.0922179562344
 20
102.9368047701382
 30
0.0
 10
200.1020344007351
 20
102.9367996302728
 30
0.0
 10
200.1100523122911
 20
102.9368061613164
 30
0.0
 10
200.1178837908447
 20
102.9368125404998
 30
0.0
  0
SPLINE
  5
150
330
1F
100
AcDbEntity
  8
0
  6
Continuous
 62
     7
370
    15
100
AcDbSpline
210
0.0
220
0.0
230
1.0
 70
     8
 71
     3
 72
    21
 73
    17
 74
     0
 42
0.00000001
 43
0.00000001
 40
0.0
 40
0.0
 40
0.0
 40
0.0
 40
0.071622611332044
 40
0.1932756280244682
 40
0.2585579208327173
 40
0.3069489469699537
 40
0.3533028268129169
 40
0.4020426100099087
 40
0.4621714870892822
 40
0.5318985027996012
 40
0.6071896028973699
 40
0.6877847130849983
 40
0.7718803411768893
 40
0.8578858062941387
 40
0.9447905584769044
 40
1.0
 40
1.0
 40
1.0
 40
1.0
 10
200.1438227202679
 20
102.9368207748811
 30
0.0
 10
200.1507375871024
 20
102.9368197632363
 30
0.0
 10
200.1693975494424
 20
102.9368170332843
 30
0.0
 10
200.2631145721818
 20
102.9369289261432
 30
0.0
 10
200.4573788565107
 20
102.9438161821819
 30
0.0
 10
200.7029733817698
 20
102.9623601308994
 30
0.0
 10
201.0482546023322
 20
103.0083039124597
 30
0.0
 10
201.5215432856588
 20
103.1118727600827
 30
0.0
 10
202.1013470666638
 20
103.3080975264032
 30
0.0
 10
202.7489581049722
 20
103.6331074672283
 30
0.0
 10
203.4035762095175
 20
104.1025485922797
 30
0.0
 10
204.0077401854355
 20
104.7151317822614
 30
0.0
 10
204.5174161732315
 20
105.4592387151752
 30
0.0
 10
204.8823439962717
 20
106.3062137262305
 30
0.0
 10
205.0857389597471
 20
107.1063607310387
 30
0.0
 10
205.0832898709146
 20
107.6160395739609
 30
0.0
 10
205.082338433038
 20
107.8140429087447
 30
0.0
  0
LINE
  5
151
330
1F
100
AcDbEntity
  8
0
  6
Continuous
 62
     7
370
    15
100
AcDbLine
 10
199.7988558459
 20
84.3678745884
 30
0.0
 11
199.7988558459
 21
88.3798745884
 31
0.0
  0
LINE
  5
152
330
1F
100
AcDbEntity
  8
0
  6
Continuous
 62
     7
370
    15
100
AcDbLine
 10
175.7268558459
 20
88.3798745884
 30
0.0
 11
175.7268558459
 21
84.3678745884
 31
0.0
  0
LINE
  5
153
330
1F
100
AcDbEntity
  8
0
  6
Continuous
 62
     7
370
    15
100
AcDbLine
 10
176.4791058459
 20
102.9374863464
 30
0.0
 11
176.4791058459
 21
97.9083745884
 31
0.0
  0
LINE
  5
154
330
1F
100
AcDbEntity
  8
0
  6
Continuous
 62
     7
370
    15
100
AcDbLine
 10
199.0466058459
 20
97.9083745884
 30
0.0
 11
199.0466058459
 21
102.9374914534
 31
0.0
  0
LINE
  5
155
330
1F
100
AcDbEntity
  8
0
  6
Continuous
 62
     7
370
    15
100
AcDbLine
 10
191.7748558459
 20
229.5966872552
 30
0.0
 11
191.7748558459
 21
248.1521872552
 31
0.0
  0
LINE
  5
156
330
1F
100
AcDbEntity
  8
0
  6
Continuous
 62
     7
370
    15
100
AcDbLine
 10
183.7508558459
 20
248.1521872552
 30
0.0
 11
183.7508558459
 21
229.5966872552
 31
0.0
  0
ARC
  5
157
330
1F
100
AcDbEntity
  8
0
  6
Continuous
 62
     7
370
    15
100
AcDbCircle
 10
190.7718558459
 20
248.1521872552
 30
0.0
 40
1.0030000000001
100
AcDbArc
 50
360.0
 51
90.0
  0
ARC
  5
158
330
1F
100
AcDbEntity
  8
0
  6
Continuous
 62
     7
370
    15
100
AcDbCircle
 10
184.7538558459
 20
248.1521872552
 30
0.0
 40
1.003000000000043
100
AcDbArc
 50
90.0
 51
180.0
  0
ARC
  5
159
330
1F
100
AcDbEntity
  8
0
  6
Continuous
 62
     7
370
    15
100
AcDbCircle
 10
184.2523558459
 20
229.5966872552
 30
0.0
 40
0.501499999999993
100
AcDbArc
 50
180.0
 51
270.0
  0
ARC
  5
15A
330
1F
100
AcDbEntity
  8
0
  6
Continuous
 62
     7
370
    15
100
AcDbCircle
 10
191.2733558459
 20
229.5966872552
 30
0.0
 40
0.501499999999993
100
AcDbArc
 50
270.0
 51
360.0
  0
LINE
  5
15B
330
1F
100
AcDbEntity
  8
0
  6
Continuous
 62
     7
370
    15
100
AcDbLine
 10
189.7688558459
 20
221.555093666
 30
0.0
 11
189.7688558459
 21
229.0951872552
 31
0.0
  0
LINE
  5
15C
330
1F
100
AcDbEntity
  8
0
  6
Continuous
 62
     7
370
    15
100
AcDbLine
 10
185.7568558459
 20
229.0951872552
 30
0.0
 11
185.7568558459
 21
221.555093666
 31
0.0
  0
LINE
  5
15D
330
1F
100
AcDbEntity
  8
0
  6
Continuous
 62
     7
370
    15
100
AcDbLine
 10
185.7568558459
 20
221.555093666
 30
0.0
 11
185.7568558459
 21
211.1735705952
 31
0.0
  0
LINE
  5
15E
330
1F
100
AcDbEntity
  8
0
  6
Continuous
 62
     7
370
    15
100
AcDbLine
 10
189.7688558459
 20
211.1735705952
 30
0.0
 11
189.7688558459
 21
221.555093666
 31
0.0
  0
CIRCLE
  5
15F
330
1F
100
AcDbEntity
  8
0
  6
Continuous
 62
     7
370
    15
100
AcDbCircle
 10
187.7628558459
 20
188.191953485
 30
0.0
 40
23.06900000000002
  0
ARC
  5
160
330
1F
100
AcDbEntity
  8
0
  6
Continuous
 62
     7
370
    15
100
AcDbCircle
 10
199.7988558459
 20
166.194446149
 30
0.0
 40
2.006000000000023
100
AcDbArc
 50
118.6854020141
 51
180.0
  0
ARC
  5
161
330
1F
100
AcDbEntity
  8
0
  6
Continuous
 62
     7
370
    15
100
AcDbCircle
 10
175.7268558459
 20
166.194446149
 30
0.0
 40
2.006000000000007
100
AcDbArc
 50
0.0
 51
61.3145979859
  0
LINE
  5
162
330
1F
100
AcDbEntity
  8
0
  6
Continuous
 62
     7
370
    15
100
AcDbLine
 10
177.7328558459
 20
115.975953485
 30
0.0
 11
177.7328558459
 21
166.194446149
 31
0.0
  0
LINE
  5
163
330
1F
100
AcDbEntity
  8
0
  6
Continuous
 62
     7
370
    15
100
AcDbLine
 10
197.7928558459
 20
166.194446149
 30
0.0
 11
197.7928558459
 21
115.975953485
 31
0.0
  0
ARC
  5
164
330
1F
100
AcDbEntity
  8
0
  6
Continuous
 62
     7
370
    15
100
AcDbCircle
 10
182.7478558459
 20
115.975953485
 30
0.0
 40
5.015000000000029
100
AcDbArc
 50
180.0
 51
270.0
  0
ARC
  5
165
330
1F
100
AcDbEntity
  8
0
  6
Continuous
 62
     7
370
    15
100
AcDbCircle
 10
192.7778558459
 20
115.975953485
 30
0.0
 40
5.015000000000029
100
AcDbArc
 50
270.0
 51
0.0
  0
LINE
  5
166
330
1F
100
AcDbEntity
  8
0
  6
Continuous
 62
     7
370
    15
100
AcDbLine
 10
192.7778558459
 20
110.960953485
 30
0.0
 11
182.7478558459
 21
110.960953485
 31
0.0
  0
LINE
  5
167
330
1F
100
AcDbEntity
  8
0
  6
Continuous
 62
     7
370
    15
100
AcDbLine
 10
205.9089042644
 20
173.5638232167
 30
0.0
 11
205.5421144541
 21
170.9606095355
 31
0.0
  0
LINE
  5
168
330
1F
100
AcDbEntity
  8
0
  6
Continuous
 62
     7
370
    15
100
AcDbLine
 10
169.5989131856
 20
173.6906648402
 30
0.0
 11
169.9835700567
 21
170.9606393143
 31
0.0
  0
SPLINE
  5
169
330
1F
100
AcDbEntity
  8
0
  6
Continuous
 62
     7
370
    15
100
AcDbSpline
210
0.0
220
0.0
230
1.0
 70
     8
 71
     3
 72
     8
 73
     4
 74
     0
 42
0.00000001
 43
0.00000001
 40
0.0
 40
0.0
 40
0.0
 40
0.0
 40
1.0
 40
1.0
 40
1.0
 40
1.0
 10
175.4801678674765
 20
102.936919096653
 30
0.0
 10
183.6640217129867
 20
102.9369370235174
 30
0.0
 10
191.8616906110783
 20
102.9369356065391
 30
0.0
 10
200.0455444254274
 20
102.9369185966725
 30
0.0
  0
SPLINE
  5
16A
330
1F
100
AcDbEntity
  8
0
  6
Continuous
 62
     7
370
    15
100
AcDbSpline
210
0.0
220
0.0
230
1.0
 70
     8
 71
     3
 72
    24
 73
    20
 74
     0
 42
0.00000001
 43
0.00000001
 40
0.0
 40
0.0
 40
0.0
 40
0.0
 40
0.1249999999999998
 40
0.1249999999999998
 40
0.2499999999999996
 40
0.2499999999999996
 40
0.3749999999999993
 40
0.3749999999999993
 40
0.4999999999999991
 40
0.4999999999999991
 40
0.6249999999999989
 40
0.6249999999999989
 40
0.7499999999999987
 40
0.7499999999999987
 40
0.8124999999999989
 40
0.8124999999999989
 40
0.8749999999999991
 40
0.8749999999999991
 40
1.0
 40
1.0
 40
1.0
 40
1.0
 10
170.5585379957393
 20
107.8080679639327
 30
0.0
 10
170.5613426060542
 20
107.4851175930409
 30
0.0
 10
170.5957021134166
 20
107.1657559924211
 30
0.0
 10
170.7272916482711
 20
106.5341831866916
 30
0.0
 10
170.8233655532895
 20
106.2284861835514
 30
0.0
 10
171.0719189578769
 20
105.6422277154325
 30
0.0
 10
171.2264204079809
 20
105.3581428630119
 30
0.0
 10
171.587142029916
 20
104.8271420579039
 30
0.0
 10
171.7910047997261
 20
104.5824852859303
 30
0.0
 10
172.2448322103277
 20
104.1340558335767
 30
0.0
 10
172.4975964674029
 20
103.9289599329192
 30
0.0
 10
173.030294582774
 20
103.5770071289335
 30
0.0
 10
173.3116203260919
 20
103.4280023523994
 30
0.0
 10
173.7563247705041
 20
103.245400140158
 30
0.0
 10
173.9091087270024
 20
103.1912368964541
 30
0.0
 10
174.2162647533665
 20
103.0990095741177
 30
0.0
 10
174.3711654907993
 20
103.0606507440041
 30
0.0
 10
174.8397503187486
 20
102.9683353666591
 30
0.0
 10
175.157279328734
 20
102.9369187258996
 30
0.0
 10
175.4801678674764
 20
102.9369190966529
 30
0.0
  0
SPLINE
  5
16B
330
1F
100
AcDbEntity
  8
0
  6
Continuous
 62
     7
370
    15
100
AcDbSpline
210
0.0
220
0.0
230
1.0
 70
     8
 71
     3
 72
    22
 73
    18
 74
     0
 42
0.00000001
 43
0.00000001
 40
0.0
 40
0.0
 40
0.0
 40
0.0
 40
0.125
 40
0.125
 40
0.25
 40
0.25
 40
0.375
 40
0.375
 40
0.5
 40
0.5
 40
0.625
 40
0.625
 40
0.75
 40
0.75
 40
0.875
 40
0.875
 40
1.0
 40
1.0
 40
1.0
 40
1.0
 10
200.0455444254274
 20
102.9369185966726
 30
0.0
 10
200.3684050508104
 20
102.9369182634805
 30
0.0
 10
200.6878451833207
 20
102.968333398846
 30
0.0
 10
201.3199269161107
 20
103.0936108819021
 30
0.0
 10
201.6273150070078
 20
103.1867601630479
 30
0.0
 10
202.2159988694587
 20
103.4290919092926
 30
0.0
 10
202.5010622244122
 20
103.5800829468162
 30
0.0
 10
203.0365859706931
 20
103.9352268570801
 30
0.0
 10
203.2835861785453
 20
104.136414397208
 30
0.0
 10
203.7369481385333
 20
104.5850182400817
 30
0.0
 10
203.944839869376
 20
104.8353691626993
 30
0.0
 10
204.3028814686108
 20
105.3644576827963
 30
0.0
 10
204.4549384422076
 20
105.6442120970273
 30
0.0
 10
204.7045691327817
 20
106.2344562055886
 30
0.0
 10
204.8008933222743
 20
106.5441155911349
 30
0.0
 10
204.9300369795213
 20
107.1678625295441
 30
0.0
 10
204.9643693248215
 20
107.4851451582946
 30
0.0
 10
204.9671736915082
 20
107.8080674298495
 30
0.0
  0
SPLINE
  5
16C
330
1F
100
AcDbEntity
  8
0
  6
Continuous
 62
     7
370
    15
100
AcDbSpline
210
0.0
220
0.0
230
1.0
 70
    24
 71
     3
 72
    11
 73
     7
 74
     0
 42
0.00000001
 43
0.00000001
 40
0.0
 40
0.0
 40
0.0
 40
0.0
 40
0.0867640487649525
 40
0.4899316429241173
 40
0.8388030599135736
 40
1.0
 40
1.0
 40
1.0
 40
1.0
 10
175.7268558459208
 20
97.13321407071676
 30
0.0
 10
175.7268558459208
 20
97.14024346397568
 30
0.0
 10
175.7268558459208
 20
97.17993642709943
 30
0.0
 10
175.7268558459207
 20
96.98955675106694
 30
0.0
 10
175.7268558459208
 20
96.67757787091222
 30
0.0
 10
175.7268558459207
 20
96.43149437392005
 30
0.0
 10
175.7268558459207
 20
96.35372458841852
 30
0.0
  0
SPLINE
  5
16D
330
1F
100
AcDbEntity
  8
0
  6
Continuous
 62
     7
370
    15
100
AcDbSpline
210
0.0
220
0.0
230
1.0
 70
    24
 71
     3
 72
    11
 73
     7
 74
     0
 42
0.00000001
 43
0.00000001
 40
0.0
 40
0.0
 40
0.0
 40
0.0
 40
0.1611928266900876
 40
0.5100553412372886
 40
0.9044388504871163
 40
0.9999999999999999
 40
0.9999999999999999
 40
0.9999999999999999
 40
0.9999999999999999
 10
199.7988558459208
 20
96.3537245884182
 30
0.0
 10
199.7988558459208
 20
96.43149343194113
 30
0.0
 10
199.7988558459208
 20
96.67757394827196
 30
0.0
 10
199.7988558459207
 20
96.98660034229661
 30
0.0
 10
199.7988558459208
 20
97.17795123421833
 30
0.0
 10
199.7988558459208
 20
97.13856953555278
 30
0.0
 10
199.7988558459208
 20
97.13088834069345
 30
0.0
  0
LINE
  5
16E
330
1F
100
AcDbEntity
  8
0
  6
Continuous
 62
     7
370
    15
100
AcDbLine
 10
175.7268558459
 20
96.3537245884
 30
0.0
 11
199.7988558459
 21
96.3537245884
 31
0.0
  0
LINE
  5
16F
330
1F
100
AcDbEntity
  8
0
  6
Continuous
 62
     7
370
    15
100
AcDbLine
 10
176.4791058459
 20
97.9083745884
 30
0.0
 11
199.0466058459
 21
97.9083745884
 31
0.0
  0
LINE
  5
170
330
1F
100
AcDbEntity
  8
0
  6
Continuous
 62
     7
370
    15
100
AcDbLine
 10
174.9244558459
 20
88.3798745884
 30
0.0
 11
200.6012558459
 21
88.3798745884
 31
0.0
  0
LINE
  5
171
330
1F
100
AcDbEntity
  8
0
  6
Continuous
 62
     7
370
    15
100
AcDbLine
 10
174.9244558459
 20
94.8993745884
 30
0.0
 11
175.7268558459
 21
94.8993745884
 31
0.0
  0
LINE
  5
172
330
1F
100
AcDbEntity
  8
0
  6
Continuous
 62
     7
370
    15
100
AcDbLine
 10
175.7268558459
 20
96.3537245884
 30
0.0
 11
175.7268558459
 21
94.8993745884
 31
0.0
  0
LINE
  5
173
330
1F
100
AcDbEntity
  8
0
  6
Continuous
 62
     7
370
    15
100
AcDbLine
 10
199.7988558459
 20
94.8993745884
 30
0.0
 11
199.7988558459
 21
96.3537245884
 31
0.0
  0
LINE
  5
174
330
1F
100
AcDbEntity
  8
0
  6
Continuous
 62
     7
370
    15
100
AcDbLine
 10
199.7988558459
 20
94.8993745884
 30
0.0
 11
200.6012558459
 21
94.8993745884
 31
0.0
  0
SPLINE
  5
175
330
1F
100
AcDbEntity
  8
0
  6
Continuous
 62
     7
370
    15
100
AcDbSpline
210
0.0
220
0.0
230
1.0
 70
     8
 71
     3
 72
     9
 73
     5
 74
     0
 42
0.00000001
 43
0.00000001
 40
0.0
 40
0.0
 40
0.0
 40
0.0
 40
0.0636054341874119
 40
1.0
 40
1.0
 40
1.0
 40
1.0
 10
175.3398460621406
 20
102.9375519756827
 30
0.0
 10
175.3403014135467
 20
102.9375054183254
 30
0.0
 10
175.3474604151625
 20
102.9367734469484
 30
0.0
 10
175.3667801615412
 20
102.9367756674353
 30
0.0
 10
175.384871067063
 20
102.9367777466872
 30
0.0
  0
SPLINE
  5
176
330
1F
100
AcDbEntity
  8
0
  6
Continuous
 62
     7
370
    15
100
AcDbSpline
210
0.0
220
0.0
230
1.0
 70
     8
 71
     3
 72
     9
 73
     5
 74
     0
 42
0.00000001
 43
0.00000001
 40
0.0
 40
0.0
 40
0.0
 40
0.0
 40
0.8535236692625386
 40
1.0
 40
1.0
 40
1.0
 40
1.0
 10
175.4105749128918
 20
102.9368174846584
 30
0.0
 10
175.427490993902
 20
102.9368485922863
 30
0.0
 10
175.4473101056846
 20
102.9368850384084
 30
0.0
 10
175.4759698877585
 20
102.9369147452969
 30
0.0
 10
175.4801678674765
 20
102.936919096653
 30
0.0
  0
SPLINE
  5
177
330
1F
100
AcDbEntity
  8
0
  6
Continuous
 62
     7
370
    15
100
AcDbSpline
210
0.0
220
0.0
230
1.0
 70
     8
 71
     3
 72
    12
 73
     8
 74
     0
 42
0.00000001
 43
0.00000001
 40
0.0
 40
0.0
 40
0.0
 40
0.0
 40
0.0540453448890557
 40
0.2416204563298866
 40
0.5106631148682144
 40
0.9673726746262724
 40
1.0
 40
1.0
 40
1.0
 40
1.0
 10
200.045544425426
 20
102.9369185966725
 30
0.0
 10
200.0497866656846
 20
102.9369145298235
 30
0.0
 10
200.0687524439448
 20
102.9368963481666
 30
0.0
 10
200.0949481461145
 20
102.9368144207108
 30
0.0
 10
200.1562663924654
 20
102.9369659917473
 30
0.0
 10
200.1855659809789
 20
102.9358917141826
 30
0.0
 10
200.1843783853315
 20
102.9376353311372
 30
0.0
 10
200.1842992004779
 20
102.9377515896075
 30
0.0
  0
SPLINE
  5
178
330
1F
100
AcDbEntity
  8
0
  6
Continuous
 62
     7
370
    15
100
AcDbSpline
210
0.0
220
0.0
230
1.0
 70
     8
 71
     3
 72
     9
 73
     5
 74
     0
 42
0.00000001
 43
0.00000001
 40
0.0
 40
0.0
 40
0.0
 40
0.0
 40
0.0749055546631033
 40
1.0
 40
1.0
 40
1.0
 40
1.0
 10
169.5484542975283
 20
173.977058375263
 30
0.0
 10
169.5702127528206
 20
173.9281719964198
 30
0.0
 10
169.8606912812845
 20
173.2755317608181
 30
0.0
 10
169.8755041262481
 20
172.5447154092571
 30
0.0
 10
169.8892074068436
 20
171.8686412618667
 30
0.0
  0
LINE
  5
179
330
1F
100
AcDbEntity
  8
0
  6
Continuous
 62
     7
370
    15
100
AcDbLine
 10
205.885887255
 20
173.6341748376
 30
0.0
 11
205.6336559046
 21
171.8483880128
 31
0.0
  0
LINE
  5
17A
330
1F
100
AcDbEntity
  8
0
  6
Continuous
 62
     7
370
    15
100
AcDbLine
 10
170.4282053583
 20
107.8116522059
 30
0.0
 11
170.4283681606
 21
107.8120221958
 31
0.0
  0
SPLINE
  5
17B
330
1F
100
AcDbEntity
  8
0
  6
Continuous
 62
     7
370
    15
100
AcDbSpline
210
0.0
220
0.0
230
1.0
 70
     8
 71
     3
 72
    10
 73
     6
 74
     0
 42
0.00000001
 43
0.00000001
 40
0.0
 40
0.0
 40
0.0
 40
0.0
 40
0.233146889933363
 40
0.9931003717824387
 40
1.0
 40
1.0
 40
1.0
 40
1.0
 10
205.0810757761219
 20
107.8140791813464
 30
0.0
 10
205.0891646562937
 20
107.8120491746389
 30
0.0
 10
205.1236196297577
 20
107.8034022636013
 30
0.0
 10
205.0386779255047
 20
107.808054489911
 30
0.0
 10
204.9678113016983
 20
107.8080673144629
 30
0.0
 10
204.9671736915082
 20
107.8080674298496
 30
0.0
  0
LINE
  5
17C
330
1F
100
AcDbEntity
  8
0
  6
Continuous
 62
     7
370
    15
100
AcDbLine
 10
198.8443893739
 20
80.9349569084
 30
0.0
 11
198.8443893739
 21
84.3678745884
 31
0.0
  0
LINE
  5
17D
330
1F
100
AcDbEntity
  8
0
  6
Continuous
 62
     7
370
    15
100
AcDbLine
 10
198.8443893739
 20
80.9349569084
 30
0.0
 11
176.7795393501
 21
80.9349569084
 31
0.0
  0
LINE
  5
17E
330
1F
100
AcDbEntity
  8
0
  6
Continuous
 62
     7
370
    15
100
AcDbLine
 10
176.7795393501
 20
80.9349569084
 30
0.0
 11
176.7795393501
 21
84.3678745884
 31
0.0
  0
LINE
  5
17F
330
1F
100
AcDbEntity
  8
0
  6
Continuous
 62
     7
370
    15
100
AcDbLine
 10
175.7268558459
 20
84.3678745884
 30
0.0
 11
176.7795393501
 21
84.3678745884
 31
0.0
  0
LINE
  5
180
330
1F
100
AcDbEntity
  8
0
  6
Continuous
 62
     7
370
    15
100
AcDbLine
 10
176.681322318
 20
84.3678745884
 30
0.0
 11
176.681322318
 21
80.9349569084
 31
0.0
  0
LINE
  5
181
330
1F
100
AcDbEntity
  8
0
  6
Continuous
 62
     7
370
    15
100
AcDbLine
 10
198.8443893739
 20
84.3678745884
 30
0.0
 11
199.7988558459
 21
84.3678745884
 31
0.0
  0
SPLINE
  5
182
330
1F
100
AcDbEntity
  8
0
  6
Continuous
 62
     7
370
    15
100
AcDbSpline
210
0.0
220
0.0
230
1.0
 70
     8
 71
     3
 72
    10
 73
     6
 74
     0
 42
0.00000001
 43
0.00000001
 40
0.0
 40
0.0
 40
0.0
 40
0.0
 40
0.5
 40
0.5
 40
1.0
 40
1.0
 40
1.0
 40
1.0
 10
198.7952808578174
 20
80.35587458841728
 30
0.0
 10
198.8035482418262
 20
80.35587458841731
 30
0.0
 10
198.8119125078234
 20
80.40899711188537
 30
0.0
 10
198.828311289717
 20
80.6086445910974
 30
0.0
 10
198.8363947204151
 20
80.7542687349258
 30
0.0
 10
198.8443893738703
 20
80.93495690841435
 30
0.0
  0
LINE
  5
183
330
1F
100
AcDbEntity
  8
0
  6
Continuous
 62
     7
370
    15
100
AcDbLine
 10
198.7952808578
 20
80.3558745884
 30
0.0
 11
176.730430834
 21
80.3558745884
 31
0.0
  0
SPLINE
  5
184
330
1F
100
AcDbEntity
  8
0
  6
Continuous
 62
     7
370
    15
100
AcDbSpline
210
0.0
220
0.0
230
1.0
 70
     8
 71
     3
 72
    10
 73
     6
 74
     0
 42
0.00000001
 43
0.00000001
 40
0.0
 40
0.0
 40
0.0
 40
0.0
 40
0.5
 40
0.5
 40
1.0
 40
1.0
 40
1.0
 40
1.0
 10
176.7304308340242
 20
80.3558745884174
 30
0.0
 10
176.738698218033
 20
80.35587458841736
 30
0.0
 10
176.7470624840302
 20
80.4089971118854
 30
0.0
 10
176.7634612659239
 20
80.60864459109743
 30
0.0
 10
176.7715446966219
 20
80.75426873492577
 30
0.0
 10
176.7795393500772
 20
80.93495690841432
 30
0.0
  0
SPLINE
  5
185
330
1F
100
AcDbEntity
  8
0
  6
Continuous
 62
     7
370
    15
100
AcDbSpline
210
0.0
220
0.0
230
1.0
 70
     8
 71
     3
 72
     8
 73
     4
 74
     0
 42
0.00000001
 43
0.00000001
 40
0.0
 40
0.0
 40
0.0
 40
0.0
 40
1.0
 40
1.0
 40
1.0
 40
1.0
 10
176.6813223179713
 20
80.93495690841473
 30
0.0
 10
176.6975093077797
 20
80.56911270526831
 30
0.0
 10
176.7138574681953
 20
80.35587458841745
 30
0.0
 10
176.7304308340242
 20
80.3558745884174
 30
0.0
  0
LINE
  5
186
330
1F
100
AcDbEntity
  8
0
  6
Continuous
 62
     7
370
    15
100
AcDbLine
 10
184.7538558459
 20
249.1551872552
 30
0.0
 11
190.7718558459
 21
249.1551872552
 31
0.0
  0
LINE
  5
187
330
1F
100
AcDbEntity
  8
0
  6
Continuous
 62
     7
370
    15
100
AcDbLine
 10
191.2733558459
 20
229.0951872552
 30
0.0
 11
184.2523558459
 21
229.0951872552
 31
0.0
  0
CIRCLE
  5
188
330
1F
100
AcDbEntity
  8
0
  6
Continuous
 62
     8
370
     0
100
AcDbCircle
 10
187.7628558459
 20
188.191953485
 30
0.0
 40
21.56450000000001
  0
LINE
  5
189
330
1F
100
AcDbEntity
  8
0
  6
Continuous
 62
     8
370
     0
100
AcDbLine
 10
196.7898558459
 20
164.7981744829
 30
0.0
 11
196.0676958459
 21
166.6696768031
 31
0.0
  0
LINE
  5
18A
330
1F
100
AcDbEntity
  8
0
  6
Continuous
 62
     8
370
     0
100
AcDbLine
 10
178.7358558459
 20
164.7981744829
 30
0.0
 11
179.4580158459
 21
166.6696768031
 31
0.0
  0
LINE
  5
18B
330
1F
100
AcDbEntity
  8
0
  6
Continuous
 62
     8
370
     0
100
AcDbLine
 10
178.7358558459
 20
115.975953485
 30
0.0
 11
177.7328558459
 21
115.975953485
 31
0.0
  0
LINE
  5
18C
330
1F
100
AcDbEntity
  8
0
  6
Continuous
 62
     8
370
     0
100
AcDbLine
 10
178.7358558459
 20
164.7981744829
 30
0.0
 11
178.7358558459
 21
115.975953485
 31
0.0
  0
LINE
  5
18D
330
1F
100
AcDbEntity
  8
0
  6
Continuous
 62
     8
370
     0
100
AcDbLine
 10
196.7898558459
 20
115.975953485
 30
0.0
 11
197.7928558459
 21
115.975953485
 31
0.0
  0
LINE
  5
18E
330
1F
100
AcDbEntity
  8
0
  6
Continuous
 62
     8
370
     0
100
AcDbLine
 10
196.7898558459
 20
115.975953485
 30
0.0
 11
196.7898558459
 21
164.7981744829
 31
0.0
  0
ARC
  5
18F
330
1F
100
AcDbEntity
  8
0
  6
Continuous
 62
     8
370
     0
100
AcDbCircle
 10
192.7778558459
 20
115.975953485
 30
0.0
 40
4.012000000000015
100
AcDbArc
 50
270.0
 51
0.0
  0
LINE
  5
190
330
1F
100
AcDbEntity
  8
0
  6
Continuous
 62
     8
370
     0
100
AcDbLine
 10
182.7478558459
 20
111.963953485
 30
0.0
 11
192.7778558459
 21
111.963953485
 31
0.0
  0
ARC
  5
191
330
1F
100
AcDbEntity
  8
0
  6
Continuous
 62
     8
370
     0
100
AcDbCircle
 10
182.7478558459
 20
115.975953485
 30
0.0
 40
4.012000000000015
100
AcDbArc
 50
180.0
 51
270.0
  0
LINE
  5
192
330
1F
100
AcDbEntity
  8
0
  6
Continuous
 62
     8
370
     0
100
AcDbLine
 10
182.7478558459
 20
111.963953485
 30
0.0
 11
182.7478558459
 21
110.960953485
 31
0.0
  0
LINE
  5
193
330
1F
100
AcDbEntity
  8
0
  6
Continuous
 62
     8
370
     0
100
AcDbLine
 10
192.7778558459
 20
111.963953485
 30
0.0
 11
192.7778558459
 21
110.960953485
 31
0.0
  0
SPLINE
  5
194
330
1F
100
AcDbEntity
  8
0
  6
Continuous
 62
     8
370
     0
100
AcDbSpline
210
0.0
220
0.0
230
1.0
 70
     8
 71
     3
 72
    10
 73
     6
 74
     0
 42
0.00000001
 43
0.00000001
 40
0.0
 40
0.0
 40
0.0
 40
0.0
 40
0.2121529885636828
 40
0.620761077747896
 40
1.0
 40
1.0
 40
1.0
 40
1.0
 10
202.4851851681461
 20
170.565643888935
 30
0.0
 10
202.5314899422264
 20
170.5012174132228
 30
0.0
 10
202.6669780239998
 20
170.3127051100525
 30
0.0
 10
203.0885638124754
 20
169.7814944208646
 30
0.0
 10
203.4672437117972
 20
169.3239736754525
 30
0.0
 10
203.6495254934283
 20
169.1037409756016
 30
0.0
  0
SPLINE
  5
195
330
1F
100
AcDbEntity
  8
0
  6
Continuous
 62
     8
370
     0
100
AcDbSpline
210
0.0
220
0.0
230
1.0
 70
     8
 71
     3
 72
     9
 73
     5
 74
     0
 42
0.00000001
 43
0.00000001
 40
0.0
 40
0.0
 40
0.0
 40
0.0
 40
0.6484741065767698
 40
1.0
 40
1.0
 40
1.0
 40
1.0
 10
206.1879489022108
 20
174.4258714799246
 30
0.0
 10
206.0934904275936
 20
174.2491533659042
 30
0.0
 10
205.9478277501494
 20
173.9766396105696
 30
0.0
 10
205.919028090456
 20
173.6711949306614
 30
0.0
 10
205.908904264352
 20
173.5638232166652
 30
0.0
  0
SPLINE
  5
196
330
1F
100
AcDbEntity
  8
0
  6
Continuous
 62
     8
370
     0
100
AcDbSpline
210
0.0
220
0.0
230
1.0
 70
     8
 71
     3
 72
     9
 73
     5
 74
     0
 42
0.00000001
 43
0.00000001
 40
0.0
 40
0.0
 40
0.0
 40
0.0
 40
0.7590563018431393
 40
1.0
 40
1.0
 40
1.0
 40
1.0
 10
169.3314450227304
 20
174.44051861852
 30
0.0
 10
169.4313086308537
 20
174.2598621064488
 30
0.0
 10
169.5628714778795
 20
174.0218606411655
 30
0.0
 10
169.591915267486
 20
173.754970369311
 30
0.0
 10
169.5989131855623
 20
173.6906648402083
 30
0.0
  0
SPLINE
  5
197
330
1F
100
AcDbEntity
  8
0
  6
Continuous
 62
     8
370
     0
100
AcDbSpline
210
0.0
220
0.0
230
1.0
 70
     8
 71
     3
 72
    10
 73
     6
 74
     0
 42
0.00000001
 43
0.00000001
 40
0.0
 40
0.0
 40
0.0
 40
0.0
 40
0.2162755684718017
 40
0.6227455039013234
 40
1.0
 40
1.0
 40
1.0
 40
1.0
 10
173.0440975314405
 20
170.5710468856417
 30
0.0
 10
172.9967214687631
 20
170.5051105985634
 30
0.0
 10
172.8603064763841
 20
170.315253155986
 30
0.0
 10
172.4370159815613
 20
169.7818362440947
 30
0.0
 10
172.0582535564249
 20
169.3242354751693
 30
0.0
 10
171.8759320386979
 20
169.103964241365
 30
0.0
  0
SPLINE
  5
198
330
1F
100
AcDbEntity
  8
0
  6
Continuous
 62
     8
370
     0
100
AcDbSpline
210
0.0
220
0.0
230
1.0
 70
     8
 71
     3
 72
     8
 73
     4
 74
     0
 42
0.00000001
 43
0.00000001
 40
0.0
 40
0.0
 40
0.0
 40
0.0
 40
1.0
 40
1.0
 40
1.0
 40
1.0
 10
203.4601563864103
 20
107.8101972503968
 30
0.0
 10
203.637022057635
 20
128.2407588958484
 30
0.0
 10
203.5127863413819
 20
148.6735879007861
 30
0.0
 10
203.6495263003463
 20
169.1038534454642
 30
0.0
  0
SPLINE
  5
199
330
1F
100
AcDbEntity
  8
0
  6
Continuous
 62
     8
370
     0
100
AcDbSpline
210
0.0
220
0.0
230
1.0
 70
     8
 71
     3
 72
    20
 73
    16
 74
     0
 42
0.00000001
 43
0.00000001
 40
0.0
 40
0.0
 40
0.0
 40
0.0
 40
0.1250000000000001
 40
0.1250000000000001
 40
0.2500000000000002
 40
0.2500000000000002
 40
0.3750000000000003
 40
0.3750000000000003
 40
0.5000000000000004
 40
0.5000000000000004
 40
0.6250000000000006
 40
0.6250000000000006
 40
0.7500000000000007
 40
0.7500000000000007
 40
1.0
 40
1.0
 40
1.0
 40
1.0
 10
203.4601563864103
 20
107.8101972503968
 30
0.0
 10
203.4582656614582
 20
107.5917909748118
 30
0.0
 10
203.4348046564504
 20
107.3772738707695
 30
0.0
 10
203.3465683653676
 20
106.9556886147465
 30
0.0
 10
203.2807308790456
 20
106.7464158741019
 30
0.0
 10
203.1103570956923
 20
106.3480464923741
 30
0.0
 10
203.0066500096198
 20
106.159407990212
 30
0.0
 10
202.762691998378
 20
105.8029371924636
 30
0.0
 10
202.621203010939
 20
105.634508207812
 30
0.0
 10
202.3130889747431
 20
105.3330511286452
 30
0.0
 10
202.1453755555451
 20
105.1980046371343
 30
0.0
 10
201.782141695012
 20
104.9598344890622
 30
0.0
 10
201.5891324285232
 20
104.8587807993652
 30
0.0
 10
200.9914630059739
 20
104.6155172843838
 30
0.0
 10
200.5578415519634
 20
104.5296299763831
 30
0.0
 10
200.1216186629848
 20
104.5296299290306
 30
0.0
  0
SPLINE
  5
19A
330
1F
100
AcDbEntity
  8
0
  6
Continuous
 62
     8
370
     0
100
AcDbSpline
210
0.0
220
0.0
230
1.0
 70
     8
 71
     3
 72
     8
 73
     4
 74
     0
 42
0.00000001
 43
0.00000001
 40
0.0
 40
0.0
 40
0.0
 40
0.0
 40
1.0
 40
1.0
 40
1.0
 40
1.0
 10
200.1216186629848
 20
104.5296299290307
 30
0.0
 10
191.8870776766501
 20
104.5296290351669
 30
0.0
 10
183.6386344345675
 20
104.5296304521803
 30
0.0
 10
175.4040934412759
 20
104.5296304290181
 30
0.0
  0
SPLINE
  5
19B
330
1F
100
AcDbEntity
  8
0
  6
Continuous
 62
     8
370
     0
100
AcDbSpline
210
0.0
220
0.0
230
1.0
 70
     8
 71
     3
 72
    20
 73
    16
 74
     0
 42
0.00000001
 43
0.00000001
 40
0.0
 40
0.0
 40
0.0
 40
0.0
 40
0.1250000000000009
 40
0.1250000000000009
 40
0.2500000000000018
 40
0.2500000000000018
 40
0.3750000000000027
 40
0.3750000000000027
 40
0.5000000000000036
 40
0.5000000000000036
 40
0.6250000000000044
 40
0.6250000000000044
 40
0.7500000000000053
 40
0.7500000000000053
 40
1.0
 40
1.0
 40
1.0
 40
1.0
 10
175.4040934412759
 20
104.529630429018
 30
0.0
 10
175.1859689675062
 20
104.5296304284045
 30
0.0
 10
174.9713952275633
 20
104.550614201338
 30
0.0
 10
174.5490660318038
 20
104.6328841593041
 30
0.0
 10
174.3392227237783
 20
104.6951052404509
 30
0.0
 10
173.9378736688385
 20
104.8580493483182
 30
0.0
 10
173.7472824852733
 20
104.9578437652742
 30
0.0
 10
173.3861034497813
 20
105.1937920339336
 30
0.0
 10
173.2144973639155
 20
105.3314325728275
 30
0.0
 10
172.9060049624394
 20
105.6328320468668
 30
0.0
 10
172.7672767645119
 20
105.7974227025081
 30
0.0
 10
172.5215809020111
 20
106.155041243871
 30
0.0
 10
172.4161378425113
 20
106.3467028389004
 30
0.0
 10
172.1616649417333
 20
106.9402616312221
 30
0.0
 10
172.0693369879975
 20
107.3733578237585
 30
0.0
 10
172.0655553008078
 20
107.8101977844904
 30
0.0
  0
SPLINE
  5
19C
330
1F
100
AcDbEntity
  8
0
  6
Continuous
 62
     8
370
     0
100
AcDbSpline
210
0.0
220
0.0
230
1.0
 70
     8
 71
     3
 72
     8
 73
     4
 74
     0
 42
0.00000001
 43
0.00000001
 40
0.0
 40
0.0
 40
0.0
 40
0.0
 40
1.0
 40
1.0
 40
1.0
 40
1.0
 10
171.8761854092578
 20
169.1038534159679
 30
0.0
 10
172.012925424917
 20
148.6735879484948
 30
0.0
 10
171.8886896362435
 20
128.2407585334855
 30
0.0
 10
172.0655553008078
 20
107.8101977844904
 30
0.0
  0
SPLINE
  5
19D
330
1F
100
AcDbEntity
  8
0
  6
Continuous
 62
     8
370
     0
100
AcDbSpline
210
0.0
220
0.0
230
1.0
 70
     8
 71
     3
 72
    10
 73
     6
 74
     0
 42
0.00000001
 43
0.00000001
 40
0.0
 40
0.0
 40
0.0
 40
0.0
 40
0.5
 40
0.5
 40
1.0
 40
1.0
 40
1.0
 40
1.0
 10
205.542141442458
 20
170.9606264154227
 30
0.0
 10
205.4474979762372
 20
160.4354884411105
 30
0.0
 10
205.3489472522353
 20
149.9098619863879
 30
0.0
 10
205.1540884038403
 20
128.8586772279052
 30
0.0
 10
205.0577100393898
 20
118.3331050625174
 30
0.0
 10
204.9671736915082
 20
107.8080674298495
 30
0.0
  0
SPLINE
  5
19E
330
1F
100
AcDbEntity
  8
0
  6
Continuous
 62
     8
370
     0
100
AcDbSpline
210
0.0
220
0.0
230
1.0
 70
     8
 71
     3
 72
    10
 73
     6
 74
     0
 42
0.00000001
 43
0.00000001
 40
0.0
 40
0.0
 40
0.0
 40
0.0
 40
0.5
 40
0.5
 40
1.0
 40
1.0
 40
1.0
 40
1.0
 10
170.5585379957393
 20
107.8080679639327
 30
0.0
 10
170.4680016516982
 20
118.3331051410153
 30
0.0
 10
170.37162328628
 20
128.8586773346721
 30
0.0
 10
170.1767644371856
 20
149.9098620758513
 30
0.0
 10
170.078213713695
 20
160.4354884749295
 30
0.0
 10
169.9835702489075
 20
170.9606264167432
 30
0.0
  0
LINE
  5
19F
330
1F
100
AcDbEntity
  8
0
  6
Continuous
 62
     8
370
     0
100
AcDbLine
 10
169.9835972385
 20
170.9606095346
 30
0.0
 11
169.8434475434
 21
171.1155388988
 31
0.0
  0
SPLINE
  5
1A0
330
1F
100
AcDbEntity
  8
0
  6
Continuous
 62
     8
370
     0
100
AcDbSpline
210
0.0
220
0.0
230
1.0
 70
     8
 71
     3
 72
    14
 73
    10
 74
     0
 42
0.00000001
 43
0.00000001
 40
0.0
 40
0.0
 40
0.0
 40
0.0
 40
0.1441369745563593
 40
0.2878282257308715
 40
0.4310852768274074
 40
0.5739195963618784
 40
0.7163425966819965
 40
0.8583656325942125
 40
1.0
 40
1.0
 40
1.0
 40
1.0
 10
205.5421144540553
 20
170.9606095354749
 30
0.0
 10
205.5562813035419
 20
170.976148476727
 30
0.0
 10
205.5845711935197
 20
171.0071783072344
 30
0.0
 10
205.6183615182399
 20
171.0444370950918
 30
0.0
 10
205.6457816806698
 20
171.074780822889
 30
0.0
 10
205.6663132199286
 20
171.0976034286543
 30
0.0
 10
205.6800089796172
 20
171.1128962052192
 30
0.0
 10
205.6874826375947
 20
171.121294615164
 30
0.0
 10
205.6868595942192
 20
171.1206146148887
 30
0.0
 10
205.6865484993797
 20
171.1202750806206
 30
0.0
  0
SPLINE
  5
1A1
330
1F
100
AcDbEntity
  8
0
  6
Continuous
 62
     8
370
     0
100
AcDbSpline
210
0.0
220
0.0
230
1.0
 70
     8
 71
     3
 72
    11
 73
     7
 74
     0
 42
0.00000001
 43
0.00000001
 40
0.0
 40
0.0
 40
0.0
 40
0.0
 40
0.0069234743947159
 40
0.3868820540760018
 40
0.7669167356521203
 40
0.9999999999999999
 40
0.9999999999999999
 40
0.9999999999999999
 40
0.9999999999999999
 10
170.5585379957484
 20
107.8080679639328
 30
0.0
 10
170.5578975185213
 20
107.8080677458209
 30
0.0
 10
170.5221078078847
 20
107.8080555577814
 30
0.0
 10
170.4668246115038
 20
107.8081748991893
 30
0.0
 10
170.4207176601244
 20
107.8075093661661
 30
0.0
 10
170.4261428971677
 20
107.8105110746958
 30
0.0
 10
170.428205358344
 20
107.8116522059045
 30
0.0
  0
LINE
  5
1A2
330
1F
100
AcDbEntity
  8
0
  6
Continuous
 62
     8
370
     0
100
AcDbLine
 10
205.0788445086
 20
107.8147540141
 30
0.0
 11
205.0810757761
 21
107.8140791813
 31
0.0
  0
LINE
  5
1A3
330
1F
100
AcDbEntity
  8
0
  6
Continuous
 62
     8
370
     0
100
AcDbLine
 10
183.7508558459
 20
229.5966872552
 30
0.0
 11
191.7748558459
 21
229.5966872552
 31
0.0
  0
ENDSEC
  0
SECTION
  2
OBJECTS
  0
DICTIONARY
  5
C
330
0
100
AcDbDictionary
281
     1
  3
ACAD_GROUP
350
D
  3
ACAD_LAYOUT
350
1A
  3
ACAD_MATERIAL
350
3B
  3
ACAD_MLEADERSTYLE
350
1A5
  3
ACAD_MLINESTYLE
350
17
  3
ACAD_PLOTSETTINGS
350
19
  3
ACAD_PLOTSTYLENAME
350
E
  3
ACAD_TABLESTYLE
350
1A4
  3
ACAD_VISUALSTYLE
350
2A
  0
DICTIONARY
  5
D
102
{ACAD_REACTORS
330
C
102
}
330
C
100
AcDbDictionary
281
     1
  0
DICTIONARY
  5
1A
102
{ACAD_REACTORS
330
C
102
}
330
C
100
AcDbDictionary
281
     1
  3
Layout1
350
1E
  3
Layout2
350
26
  3
Model
350
22
  0
DICTIONARY
  5
3B
102
{ACAD_REACTORS
330
C
102
}
330
C
100
AcDbDictionary
281
     1
  3
ByBlock
350
3D
  3
ByLayer
350
3C
  3
Global
350
3E
  0
DICTIONARY
  5
1A5
102
{ACAD_REACTORS
330
C
102
}
330
C
100
AcDbDictionary
281
     1
  0
DICTIONARY
  5
17
102
{ACAD_REACTORS
330
C
102
}
330
C
100
AcDbDictionary
281
     1
  3
Standard
350
18
  0
DICTIONARY
  5
19
102
{ACAD_REACTORS
330
C
102
}
330
C
100
AcDbDictionary
281
     1
  0
ACDBDICTIONARYWDFLT
  5
E
102
{ACAD_REACTORS
330
C
102
}
330
C
100
AcDbDictionary
281
     1
  3
Normal
350
F
100
AcDbDictionaryWithDefault
340
F
  0
DICTIONARY
  5
1A4
102
{ACAD_REACTORS
330
C
102
}
330
C
100
AcDbDictionary
281
     1
  0
DICTIONARY
  5
2A
102
{ACAD_REACTORS
330
C
102
}
330
C
100
AcDbDictionary
281
     1
  3
2dWireframe
350
2F
  3
3D Hidden
350
31
  3
3dWireframe
350
30
  3
Basic
350
32
  3
Brighten
350
36
  3
ColorChange
350
3A
  3
Conceptual
350
34
  3
Dim
350
35
  3
Facepattern
350
39
  3
Flat
350
2B
  3
FlatWithEdges
350
2C
  3
Gouraud
350
2D
  3
GouraudWithEdges
350
2E
  3
Linepattern
350
38
  3
Realistic
350
33
  3
Thicken
350
37
  0
LAYOUT
  5
1E
102
{ACAD_REACTORS
330
1A
102
}
330
1A
100
AcDbPlotSettings
  1

  2
none_device
  4

  6

 40
0.0
 41
0.0
 42
0.0
 43
0.0
 44
0.0
 45
0.0
 46
0.0
 47
0.0
 48
0.0
 49
0.0
140
0.0
141
0.0
142
1.0
143
1.0
 70
   688
 72
     0
 73
     0
 74
     5
  7

 75
    16
 76
     0
 77
     2
 78
   300
147
1.0
148
0.0
149
0.0
100
AcDbLayout
  1
Layout1
 70
     1
 71
     1
 10
0.0
 20
0.0
 11
420.0
 21
297.0
 12
0.0
 22
0.0
 32
0.0
 14
1.0000000000E+20
 24
1.0000000000E+20
 34
1.0000000000E+20
 15
-1.0000000000E+20
 25
-1.0000000000E+20
 35
-1.0000000000E+20
146
0.0
 13
0.0
 23
0.0
 33
0.0
 16
1.0
 26
0.0
 36
0.0
 17
0.0
 27
1.0
 37
0.0
 76
     0
330
1B
  0
LAYOUT
  5
26
102
{ACAD_REACTORS
330
1A
102
}
330
1A
100
AcDbPlotSettings
  1

  2
none_device
  4

  6

 40
0.0
 41
0.0
 42
0.0
 43
0.0
 44
0.0
 45
0.0
 46
0.0
 47
0.0
 48
0.0
 49
0.0
140
0.0
141
0.0
142
1.0
143
1.0
 70
   688
 72
     0
 73
     0
 74
     5
  7

 75
    16
 76
     0
 77
     2
 78
   300
147
1.0
148
0.0
149
0.0
100
AcDbLayout
  1
Layout2
 70
     1
 71
     2
 10
0.0
 20
0.0
 11
0.0
 21
0.0
 12
0.0
 22
0.0
 32
0.0
 14
0.0
 24
0.0
 34
0.0
 15
0.0
 25
0.0
 35
0.0
146
0.0
 13
0.0
 23
0.0
 33
0.0
 16
1.0
 26
0.0
 36
0.0
 17
0.0
 27
1.0
 37
0.0
 76
     0
330
23
  0
LAYOUT
  5
22
102
{ACAD_REACTORS
330
1A
102
}
330
1A
100
AcDbPlotSettings
  1

  2
none_device
  4

  6

 40
0.0
 41
0.0
 42
0.0
 43
0.0
 44
0.0
 45
0.0
 46
0.0
 47
0.0
 48
0.0
 49
0.0
140
0.0
141
0.0
142
1.0
143
1.0
 70
  1712
 72
     0
 73
     0
 74
     0
  7

 75
     0
 76
     0
 77
     2
 78
   300
147
1.0
148
0.0
149
0.0
100
AcDbLayout
  1
Model
 70
     1
 71
     0
 10
0.0
 20
0.0
 11
594.0
 21
841.0
 12
0.0
 22
0.0
 32
0.0
 14
0.0
 24
0.0
 34
0.0
 15
594.0
 25
841.0
 35
0.0
146
0.0
 13
0.0
 23
0.0
 33
0.0
 16
1.0
 26
0.0
 36
0.0
 17
0.0
 27
1.0
 37
0.0
 76
     0
330
1F
331
29
  0
MATERIAL
  5
3D
102
{ACAD_REACTORS
330
3B
102
}
330
3B
100
AcDbMaterial
  1
ByBlock
 72
     1
 94
      127
  0
MATERIAL
  5
3C
102
{ACAD_REACTORS
330
3B
102
}
330
3B
100
AcDbMaterial
  1
ByLayer
 72
     1
 94
      127
  0
MATERIAL
  5
3E
102
{ACAD_REACTORS
330
3B
102
}
330
3B
100
AcDbMaterial
  1
Global
 72
     1
 94
      127
  0
MLINESTYLE
  5
18
102
{ACAD_REACTORS
330
17
102
}
330
17
100
AcDbMlineStyle
  2
Standard
 70
     0
  3

 62
   256
 51
90.0
 52
90.0
 71
     2
 49
0.5
 62
   256
  6
BYLAYER
 49
-0.5
 62
   256
  6
BYLAYER
  0
ACDBPLACEHOLDER
  5
F
102
{ACAD_REACTORS
330
E
102
}
330
E
  0
VISUALSTYLE
  5
2F
102
{ACAD_REACTORS
330
2A
102
}
330
2A
100
AcDbVisualStyle
  2
2dWireframe
 70
     4
177
     2
291
     0
 71
     0
176
     1
 72
     2
176
     1
 73
     0
176
     1
 90
        0
176
     1
 40
-0.6
176
     1
 41
-30.0
176
     1
 62
     5
 63
     7
421
 16777215
176
     1
 74
     1
176
     1
 91
        4
176
     1
 64
     7
176
     1
 65
   257
176
     1
 75
     1
176
     1
175
     1
176
     1
 42
1.0
176
     1
 92
        0
176
     1
 66
   257
176
     1
 43
1.0
176
     1
 76
     1
176
     1
 77
     6
176
     1
 78
     2
176
     1
 67
     7
176
     1
 79
     5
176
     1
170
     0
176
     1
171
     0
176
     1
290
     0
176
     1
 93
        1
176
     1
 44
0.0
176
     1
173
     0
176
     1
  0
VISUALSTYLE
  5
31
102
{ACAD_REACTORS
330
2A
102
}
330
2A
100
AcDbVisualStyle
  2
3D Hidden
 70
     6
177
     2
291
     0
 71
     1
176
     1
 72
     2
176
     1
 73
     2
176
     1
 90
        0
176
     1
 40
-0.6
176
     1
 41
-30.0
176
     1
 62
     5
 63
     7
421
 16777215
176
     1
 74
     2
176
     1
 91
        2
176
     1
 64
     7
176
     1
 65
   257
176
     1
 75
     2
176
     1
175
     1
176
     1
 42
40.0
176
     1
 92
        0
176
     1
 66
   257
176
     1
 43
1.0
176
     1
 76
     1
176
     1
 77
     6
176
     1
 78
     2
176
     1
 67
     7
176
     1
 79
     3
176
     1
170
     0
176
     1
171
     0
176
     1
290
     0
176
     1
 93
        1
176
     1
 44
0.0
176
     1
173
     0
176
     1
  0
VISUALSTYLE
  5
30
102
{ACAD_REACTORS
330
2A
102
}
330
2A
100
AcDbVisualStyle
  2
3dWireframe
 70
     5
177
     2
291
     0
 71
     0
176
     1
 72
     2
176
     1
 73
     0
176
     1
 90
        0
176
     1
 40
-0.6
176
     1
 41
-30.0
176
     1
 62
     5
 63
     7
421
 16777215
176
     1
 74
     1
176
     1
 91
        4
176
     1
 64
     7
176
     1
 65
   257
176
     1
 75
     1
176
     1
175
     1
176
     1
 42
1.0
176
     1
 92
        0
176
     1
 66
   257
176
     1
 43
1.0
176
     1
 76
     1
176
     1
 77
     6
176
     1
 78
     2
176
     1
 67
     7
176
     1
 79
     5
176
     1
170
     0
176
     1
171
     0
176
     1
290
     0
176
     1
 93
        1
176
     1
 44
0.0
176
     1
173
     0
176
     1
  0
VISUALSTYLE
  5
32
102
{ACAD_REACTORS
330
2A
102
}
330
2A
100
AcDbVisualStyle
  2
Basic
 70
     7
177
     2
291
     1
 71
     1
176
     1
 72
     0
176
     1
 73
     1
176
     1
 90
        0
176
     1
 40
-0.6
176
     1
 41
-30.0
176
     1
 62
     5
 63
     7
421
 16777215
176
     1
 74
     0
176
     1
 91
        4
176
     1
 64
     7
176
     1
 65
   257
176
     1
 75
     1
176
     1
175
     1
176
     1
 42
1.0
176
     1
 92
        8
176
     1
 66
     7
176
     1
 43
1.0
176
     1
 76
     1
176
     1
 77
     6
176
     1
 78
     2
176
     1
 67
     7
176
     1
 79
     5
176
     1
170
     0
176
     1
171
     0
176
     1
290
     0
176
     1
 93
        1
176
     1
 44
0.0
176
     1
173
     0
176
     1
  0
VISUALSTYLE
  5
36
102
{ACAD_REACTORS
330
2A
102
}
330
2A
100
AcDbVisualStyle
  2
Brighten
 70
    12
177
     2
291
     1
 71
     2
176
     1
 72
     2
176
     1
 73
     0
176
     1
 90
        0
176
     1
 40
-0.6
176
     1
 41
-30.0
176
     1
 62
     5
 63
     7
421
 16777215
176
     1
 74
     1
176
     1
 91
        4
176
     1
 64
     7
176
     1
 65
   257
176
     1
 75
     1
176
     1
175
     1
176
     1
 42
1.0
176
     1
 92
        8
176
     1
 66
     7
176
     1
 43
1.0
176
     1
 76
     1
176
     1
 77
     6
176
     1
 78
     2
176
     1
 67
     7
176
     1
 79
     5
176
     1
170
     0
176
     1
171
     0
176
     1
290
     0
176
     1
 93
        1
176
     1
 44
50.0
176
     1
173
     0
176
     1
  0
VISUALSTYLE
  5
3A
102
{ACAD_REACTORS
330
2A
102
}
330
2A
100
AcDbVisualStyle
  2
ColorChange
 70
    16
177
     2
291
     1
 71
     2
176
     1
 72
     2
176
     1
 73
     3
176
     1
 90
        0
176
     1
 40
-0.6
176
     1
 41
-30.0
176
     1
 62
     5
 63
     8
421
  8421504
176
     1
 74
     1
176
     1
 91
        4
176
     1
 64
     7
176
     1
 65
   257
176
     1
 75
     1
176
     1
175
     1
176
     1
 42
1.0
176
     1
 92
        8
176
     1
 66
     8
424
  8421504
176
     1
 43
1.0
176
     1
 76
     1
176
     1
 77
     6
176
     1
 78
     2
176
     1
 67
     7
176
     1
 79
     5
176
     1
170
     0
176
     1
171
     0
176
     1
290
     0
176
     1
 93
        1
176
     1
 44
0.0
176
     1
173
     0
176
     1
  0
VISUALSTYLE
  5
34
102
{ACAD_REACTORS
330
2A
102
}
330
2A
100
AcDbVisualStyle
  2
Conceptual
 70
     9
177
     2
291
     0
 71
     3
176
     1
 72
     2
176
     1
 73
     0
176
     1
 90
        0
176
     1
 40
-0.6
176
     1
 41
-30.0
176
     1
 62
     5
 63
     7
421
 16777215
176
     1
 74
     2
176
     1
 91
        2
176
     1
 64
     7
176
     1
 65
   257
176
     1
 75
     1
176
     1
175
     1
176
     1
 42
40.0
176
     1
 92
        8
176
     1
 66
     7
176
     1
 43
1.0
176
     1
 76
     1
176
     1
 77
     6
176
     1
 78
     2
176
     1
 67
     7
176
     1
 79
     3
176
     1
170
     0
176
     1
171
     0
176
     1
290
     0
176
     1
 93
        1
176
     1
 44
0.0
176
     1
173
     0
176
     1
  0
VISUALSTYLE
  5
35
102
{ACAD_REACTORS
330
2A
102
}
330
2A
100
AcDbVisualStyle
  2
Dim
 70
    11
177
     2
291
     1
 71
     2
176
     1
 72
     2
176
     1
 73
     0
176
     1
 90
        0
176
     1
 40
-0.6
176
     1
 41
-30.0
176
     1
 62
     5
 63
     7
421
 16777215
176
     1
 74
     1
176
     1
 91
        4
176
     1
 64
     7
176
     1
 65
   257
176
     1
 75
     1
176
     1
175
     1
176
     1
 42
1.0
176
     1
 92
        8
176
     1
 66
     7
176
     1
 43
1.0
176
     1
 76
     1
176
     1
 77
     6
176
     1
 78
     2
176
     1
 67
     7
176
     1
 79
     5
176
     1
170
     0
176
     1
171
     0
176
     1
290
     0
176
     1
 93
        1
176
     1
 44
-50.0
176
     1
173
     0
176
     1
  0
VISUALSTYLE
  5
39
102
{ACAD_REACTORS
330
2A
102
}
330
2A
100
AcDbVisualStyle
  2
Facepattern
 70
    15
177
     2
291
     1
 71
     2
176
     1
 72
     2
176
     1
 73
     0
176
     1
 90
        0
176
     1
 40
-0.6
176
     1
 41
-30.0
176
     1
 62
     5
 63
     7
421
 16777215
176
     1
 74
     1
176
     1
 91
        4
176
     1
 64
     7
176
     1
 65
   257
176
     1
 75
     1
176
     1
175
     1
176
     1
 42
1.0
176
     1
 92
        8
176
     1
 66
     7
176
     1
 43
1.0
176
     1
 76
     1
176
     1
 77
     6
176
     1
 78
     2
176
     1
 67
     7
176
     1
 79
     5
176
     1
170
     0
176
     1
171
     0
176
     1
290
     0
176
     1
 93
        1
176
     1
 44
0.0
176
     1
173
     0
176
     1
  0
VISUALSTYLE
  5
2B
102
{ACAD_REACTORS
330
2A
102
}
330
2A
100
AcDbVisualStyle
  2
Flat
 70
     0
177
     2
291
     1
 71
     2
176
     1
 72
     1
176
     1
 73
     1
176
     1
 90
        2
176
     1
 40
-0.6
176
     1
 41
30.0
176
     1
 62
     5
 63
     7
421
 16777215
176
     1
 74
     0
176
     1
 91
        4
176
     1
 64
     7
176
     1
 65
   257
176
     1
 75
     1
176
     1
175
     1
176
     1
 42
1.0
176
     1
 92
        8
176
     1
 66
     7
176
     1
 43
1.0
176
     1
 76
     1
176
     1
 77
     6
176
     1
 78
     2
176
     1
 67
     7
176
     1
 79
     5
176
     1
170
     0
176
     1
171
     0
176
     1
290
     0
176
     1
 93
       13
176
     1
 44
0.0
176
     1
173
     0
176
     1
  0
VISUALSTYLE
  5
2C
102
{ACAD_REACTORS
330
2A
102
}
330
2A
100
AcDbVisualStyle
  2
FlatWithEdges
 70
     1
177
     2
291
     1
 71
     2
176
     1
 72
     1
176
     1
 73
     1
176
     1
 90
        2
176
     1
 40
-0.6
176
     1
 41
30.0
176
     1
 62
     5
 63
     7
421
 16777215
176
     1
 74
     1
176
     1
 91
        4
176
     1
 64
     7
176
     1
 65
   257
176
     1
 75
     1
176
     1
175
     1
176
     1
 42
1.0
176
     1
 92
        0
176
     1
 66
   257
176
     1
 43
1.0
176
     1
 76
     1
176
     1
 77
     6
176
     1
 78
     2
176
     1
 67
     7
176
     1
 79
     5
176
     1
170
     0
176
     1
171
     0
176
     1
290
     0
176
     1
 93
       13
176
     1
 44
0.0
176
     1
173
     0
176
     1
  0
VISUALSTYLE
  5
2D
102
{ACAD_REACTORS
330
2A
102
}
330
2A
100
AcDbVisualStyle
  2
Gouraud
 70
     2
177
     2
291
     1
 71
     2
176
     1
 72
     2
176
     1
 73
     1
176
     1
 90
        2
176
     1
 40
-0.6
176
     1
 41
30.0
176
     1
 62
     5
 63
     7
421
 16777215
176
     1
 74
     0
176
     1
 91
        4
176
     1
 64
     7
176
     1
 65
   257
176
     1
 75
     1
176
     1
175
     1
176
     1
 42
1.0
176
     1
 92
        0
176
     1
 66
     7
176
     1
 43
1.0
176
     1
 76
     1
176
     1
 77
     6
176
     1
 78
     2
176
     1
 67
     7
176
     1
 79
     5
176
     1
170
     0
176
     1
171
     0
176
     1
290
     0
176
     1
 93
       13
176
     1
 44
0.0
176
     1
173
     0
176
     1
  0
VISUALSTYLE
  5
2E
102
{ACAD_REACTORS
330
2A
102
}
330
2A
100
AcDbVisualStyle
  2
GouraudWithEdges
 70
     3
177
     2
291
     1
 71
     2
176
     1
 72
     2
176
     1
 73
     1
176
     1
 90
        2
176
     1
 40
-0.6
176
     1
 41
30.0
176
     1
 62
     5
 63
     7
421
 16777215
176
     1
 74
     1
176
     1
 91
        4
176
     1
 64
     7
176
     1
 65
   257
176
     1
 75
     1
176
     1
175
     1
176
     1
 42
1.0
176
     1
 92
        0
176
     1
 66
   257
176
     1
 43
1.0
176
     1
 76
     1
176
     1
 77
     6
176
     1
 78
     2
176
     1
 67
     7
176
     1
 79
     5
176
     1
170
     0
176
     1
171
     0
176
     1
290
     0
176
     1
 93
       13
176
     1
 44
0.0
176
     1
173
     0
176
     1
  0
VISUALSTYLE
  5
38
102
{ACAD_REACTORS
330
2A
102
}
330
2A
100
AcDbVisualStyle
  2
Linepattern
 70
    14
177
     2
291
     1
 71
     2
176
     1
 72
     2
176
     1
 73
     0
176
     1
 90
        0
176
     1
 40
-0.6
176
     1
 41
-30.0
176
     1
 62
     5
 63
     7
421
 16777215
176
     1
 74
     1
176
     1
 91
        4
176
     1
 64
     7
176
     1
 65
   257
176
     1
 75
     7
176
     1
175
     7
176
     1
 42
1.0
176
     1
 92
        8
176
     1
 66
     7
176
     1
 43
1.0
176
     1
 76
     1
176
     1
 77
     6
176
     1
 78
     2
176
     1
 67
     7
176
     1
 79
     5
176
     1
170
     0
176
     1
171
     0
176
     1
290
     0
176
     1
 93
        1
176
     1
 44
0.0
176
     1
173
     0
176
     1
  0
VISUALSTYLE
  5
33
102
{ACAD_REACTORS
330
2A
102
}
330
2A
100
AcDbVisualStyle
  2
Realistic
 70
     8
177
     2
291
     0
 71
     2
176
     1
 72
     2
176
     1
 73
     0
176
     1
 90
        0
176
     1
 40
-0.6
176
     1
 41
-30.0
176
     1
 62
     5
 63
     7
421
 16777215
176
     1
 74
     1
176
     1
 91
        0
176
     1
 64
     7
176
     1
 65
   257
176
     1
 75
     1
176
     1
175
     1
176
     1
 42
1.0
176
     1
 92
        8
176
     1
 66
     8
424
  7895160
176
     1
 43
1.0
176
     1
 76
     1
176
     1
 77
     6
176
     1
 78
     2
176
     1
 67
     7
176
     1
 79
     5
176
     1
170
     0
176
     1
171
     0
176
     1
290
     0
176
     1
 93
       13
176
     1
 44
0.0
176
     1
173
     0
176
     1
  0
VISUALSTYLE
  5
37
102
{ACAD_REACTORS
330
2A
102
}
330
2A
100
AcDbVisualStyle
  2
Thicken
 70
    13
177
     2
291
     1
 71
     2
176
     1
 72
     2
176
     1
 73
     0
176
     1
 90
        0
176
     1
 40
-0.6
176
     1
 41
-30.0
176
     1
 62
     5
 63
     7
421
 16777215
176
     1
 74
     1
176
     1
 91
        4
176
     1
 64
     7
176
     1
 65
   257
176
     1
 75
     1
176
     1
175
     1
176
     1
 42
1.0
176
     1
 92
       12
176
     1
 66
     7
176
     1
 43
1.0
176
     1
 76
     1
176
     1
 77
     6
176
     1
 78
     2
176
     1
 67
     7
176
     1
 79
     5
176
     1
170
     0
176
     1
171
     0
176
     1
290
     0
176
     1
 93
        1
176
     1
 44
0.0
176
     1
173
     0
176
     1
  0
ENDSEC
  0
EOF
