  0
SECTION
  2
HEADER
  9
$ACADVER
  1
AC1015
  9
$ACADMAINTVER
 70
     6
  9
$DWGCODEPAGE
  3
ANSI_1252
  9
$INSBASE
 10
0.0
 20
0.0
 30
0.0
  9
$EXTMIN
 10
0.0
 20
0.0
 30
0.0
  9
$EXTMAX
 10
594.0
 20
841.0
 30
0.0
  9
$LIMMIN
 10
0.0
 20
0.0
  9
$LIMMAX
 10
594.0
 20
841.0
  9
$ORTHOMODE
 70
     0
  9
$REGENMODE
 70
     1
  9
$FILLMODE
 70
     1
  9
$QTEXTMODE
 70
     0
  9
$MIRRTEXT
 70
     1
  9
$LTSCALE
 40
1.0
  9
$ATTMODE
 70
     1
  9
$TEXTSIZE
 40
10.0
  9
$TRACEWID
 40
1.0
  9
$TEXTSTYLE
  7
Standard
  9
$CLAYER
  8
0
  9
$CELTYPE
  6
ByLayer
  9
$CECOLOR
 62
   256
  9
$CELTSCALE
 40
1.0
  9
$DISPSILH
 70
     0
  9
$DIMSCALE
 40
1.0
  9
$DIMASZ
 40
2.5
  9
$DIMEXO
 40
0.0
  9
$DIMDLI
 40
3.75
  9
$DIMRND
 40
0.0
  9
$DIMDLE
 40
0.0
  9
$DIMEXE
 40
1.0
  9
$DIMTP
 40
0.0
  9
$DIMTM
 40
0.0
  9
$DIMTXT
 40
3.5
  9
$DIMCEN
 40
2.5
  9
$DIMTSZ
 40
0.0
  9
$DIMTOL
 70
     0
  9
$DIMLIM
 70
     0
  9
$DIMTIH
 70
     1
  9
$DIMTOH
 70
     1
  9
$DIMSE1
 70
     0
  9
$DIMSE2
 70
     0
  9
$DIMTAD
 70
     1
  9
$DIMZIN
 70
     0
  9
$DIMBLK
  1

  9
$DIMASO
 70
     1
  9
$DIMSHO
 70
     1
  9
$DIMPOST
  1

  9
$DIMAPOST
  1

  9
$DIMALT
 70
     0
  9
$DIMALTD
 70
     3
  9
$DIMALTF
 40
0.0393700787
  9
$DIMLFAC
 40
1.0
  9
$DIMTOFL
 70
     1
  9
$DIMTVP
 40
0.0
  9
$DIMTIX
 70
     0
  9
$DIMSOXD
 70
     0
  9
$DIMSAH
 70
     0
  9
$DIMBLK1
  1

  9
$DIMBLK2
  1

  9
$DIMSTYLE
  2
ISO-25
  9
$DIMCLRD
 70
     0
  9
$DIMCLRE
 70
     0
  9
$DIMCLRT
 70
     0
  9
$DIMTFAC
 40
1.0
  9
$DIMGAP
 40
1.5
  9
$DIMJUST
 70
     0
  9
$DIMSD1
 70
     0
  9
$DIMSD2
 70
     0
  9
$DIMTOLJ
 70
     0
  9
$DIMTZIN
 70
     0
  9
$DIMALTZ
 70
     0
  9
$DIMALTTZ
 70
     0
  9
$DIMUPT
 70
     0
  9
$DIMDEC
 70
     2
  9
$DIMTDEC
 70
     2
  9
$DIMALTU
 70
     2
  9
$DIMALTTD
 70
     3
  9
$DIMTXSTY
  7
Standard
  9
$DIMAUNIT
 70
     0
  9
$DIMADEC
 70
     2
  9
$DIMALTRND
 40
0.0
  9
$DIMAZIN
 70
     0
  9
$DIMDSEP
 70
    44
  9
$DIMATFIT
 70
     3
  9
$DIMFRAC
 70
     0
  9
$DIMLDRBLK
  1

  9
$DIMLUNIT
 70
     2
  9
$DIMLWD
 70
    -2
  9
$DIMLWE
 70
    -2
  9
$DIMTMOVE
 70
     0
  9
$LUNITS
 70
     2
  9
$LUPREC
 70
     2
  9
$SKETCHINC
 40
1.0
  9
$FILLETRAD
 40
10.0
  9
$AUNITS
 70
     0
  9
$AUPREC
 70
     2
  9
$MENU
  1
.
  9
$ELEVATION
 40
0.0
  9
$PELEVATION
 40
0.0
  9
$THICKNESS
 40
0.0
  9
$LIMCHECK
 70
     0
  9
$CHAMFERA
 40
0.0
  9
$CHAMFERB
 40
0.0
  9
$CHAMFERC
 40
0.0
  9
$CHAMFERD
 40
0.0
  9
$SKPOLY
 70
     0
  9
$TDCREATE
 40
2457760.396129977
  9
$TDUCREATE
 40
2457760.35446331
  9
$TDUPDATE
 40
2457760.396131956
  9
$TDUUPDATE
 40
2457760.35446529
  9
$TDINDWG
 40
0.0000000116
  9
$TDUSRTIMER
 40
0.0000000116
  9
$USRTIMER
 70
     1
  9
$ANGBASE
 50
0.0
  9
$ANGDIR
 70
     0
  9
$PDMODE
 70
     0
  9
$PDSIZE
 40
-1.0
  9
$PLINEWID
 40
0.0
  9
$SPLFRAME
 70
     0
  9
$SPLINETYPE
 70
     6
  9
$SPLINESEGS
 70
     8
  9
$HANDSEED
  5
216
  9
$SURFTAB1
 70
     6
  9
$SURFTAB2
 70
     6
  9
$SURFTYPE
 70
     6
  9
$SURFU
 70
     6
  9
$SURFV
 70
     6
  9
$UCSBASE
  2

  9
$UCSNAME
  2

  9
$UCSORG
 10
0.0
 20
0.0
 30
0.0
  9
$UCSXDIR
 10
1.0
 20
0.0
 30
0.0
  9
$UCSYDIR
 10
0.0
 20
1.0
 30
0.0
  9
$UCSORTHOREF
  2

  9
$UCSORTHOVIEW
 70
     0
  9
$UCSORGTOP
 10
0.0
 20
0.0
 30
0.0
  9
$UCSORGBOTTOM
 10
0.0
 20
0.0
 30
0.0
  9
$UCSORGLEFT
 10
0.0
 20
0.0
 30
0.0
  9
$UCSORGRIGHT
 10
0.0
 20
0.0
 30
0.0
  9
$UCSORGFRONT
 10
0.0
 20
0.0
 30
0.0
  9
$UCSORGBACK
 10
0.0
 20
0.0
 30
0.0
  9
$PUCSBASE
  2

  9
$PUCSNAME
  2

  9
$PUCSORG
 10
0.0
 20
0.0
 30
0.0
  9
$PUCSXDIR
 10
1.0
 20
0.0
 30
0.0
  9
$PUCSYDIR
 10
0.0
 20
1.0
 30
0.0
  9
$PUCSORTHOREF
  2

  9
$PUCSORTHOVIEW
 70
     0
  9
$PUCSORGTOP
 10
0.0
 20
0.0
 30
0.0
  9
$PUCSORGBOTTOM
 10
0.0
 20
0.0
 30
0.0
  9
$PUCSORGLEFT
 10
0.0
 20
0.0
 30
0.0
  9
$PUCSORGRIGHT
 10
0.0
 20
0.0
 30
0.0
  9
$PUCSORGFRONT
 10
0.0
 20
0.0
 30
0.0
  9
$PUCSORGBACK
 10
0.0
 20
0.0
 30
0.0
  9
$USERI1
 70
     0
  9
$USERI2
 70
     0
  9
$USERI3
 70
     0
  9
$USERI4
 70
     0
  9
$USERI5
 70
     0
  9
$USERR1
 40
0.0
  9
$USERR2
 40
0.0
  9
$USERR3
 40
0.0
  9
$USERR4
 40
0.0
  9
$USERR5
 40
0.0
  9
$WORLDVIEW
 70
     1
  9
$SHADEDGE
 70
     3
  9
$SHADEDIF
 70
    70
  9
$TILEMODE
 70
     1
  9
$MAXACTVP
 70
    64
  9
$PINSBASE
 10
0.0
 20
0.0
 30
0.0
  9
$PLIMCHECK
 70
     0
  9
$PEXTMIN
 10
1.0000000000E+20
 20
1.0000000000E+20
 30
1.0000000000E+20
  9
$PEXTMAX
 10
-1.0000000000E+20
 20
-1.0000000000E+20
 30
-1.0000000000E+20
  9
$PLIMMIN
 10
0.0
 20
0.0
  9
$PLIMMAX
 10
420.0
 20
297.0
  9
$UNITMODE
 70
     0
  9
$VISRETAIN
 70
     1
  9
$PLINEGEN
 70
     0
  9
$PSLTSCALE
 70
     1
  9
$TREEDEPTH
 70
  3020
  9
$CMLSTYLE
  2
Standard
  9
$CMLJUST
 70
     0
  9
$CMLSCALE
 40
20.0
  9
$PROXYGRAPHICS
 70
     1
  9
$MEASUREMENT
 70
     1
  9
$CELWEIGHT
370
    -1
  9
$ENDCAPS
280
     0
  9
$JOINSTYLE
280
     0
  9
$LWDISPLAY
290
     1
  9
$INSUNITS
 70
     4
  9
$HYPERLINKBASE
  1

  9
$STYLESHEET
  1

  9
$XEDIT
290
     1
  9
$CEPSNTYPE
380
     0
  9
$PSTYLEMODE
290
     1
  9
$FINGERPRINTGUID
  2
{CA447FFA-FA24-43D7-9C70-15BDE1AD8EBA}
  9
$VERSIONGUID
  2
{FAEB1C32-E019-11D5-929B-00C0DF256EC4}
  9
$EXTNAMES
290
     1
  9
$PSVPSCALE
 40
0.0
  9
$OLESTARTUP
290
     0
  0
ENDSEC
  0
SECTION
  2
CLASSES
  0
CLASS
  1
ACDBDICTIONARYWDFLT
  2
AcDbDictionaryWithDefault
  3
ObjectDBX Classes
 90
        0
280
     0
281
     0
  0
CLASS
  1
VISUALSTYLE
  2
AcDbVisualStyle
  3
ObjectDBX Classes
 90
     4095
280
     0
281
     0
  0
CLASS
  1
MATERIAL
  2
AcDbMaterial
  3
ObjectDBX Classes
 90
     1153
280
     0
281
     0
  0
CLASS
  1
SCALE
  2
AcDbScale
  3
ObjectDBX Classes
 90
     1153
280
     0
281
     0
  0
CLASS
  1
TABLESTYLE
  2
AcDbTableStyle
  3
ObjectDBX Classes
 90
     4095
280
     0
281
     0
  0
CLASS
  1
MLEADERSTYLE
  2
AcDbMLeaderStyle
  3
ACDB_MLEADERSTYLE_CLASS
 90
     4095
280
     0
281
     0
  0
CLASS
  1
SUN
  2
AcDbSun
  3
SCENEOE
 90
     1153
280
     0
281
     0
  0
CLASS
  1
ACDBPLACEHOLDER
  2
AcDbPlaceHolder
  3
ObjectDBX Classes
 90
        0
280
     0
281
     0
  0
CLASS
  1
LAYOUT
  2
AcDbLayout
  3
ObjectDBX Classes
 90
        0
280
     0
281
     0
  0
ENDSEC
  0
SECTION
  2
TABLES
  0
TABLE
  2
VPORT
  5
8
330
0
100
AcDbSymbolTable
 70
     1
  0
VPORT
  5
29
330
8
100
AcDbSymbolTableRecord
100
AcDbViewportTableRecord
  2
*Active
 70
     0
 10
0.0
 20
0.0
 11
1.0
 21
1.0
 12
297.0
 22
420.5
 13
0.0
 23
0.0
 14
10.0
 24
10.0
 15
10.0
 25
10.0
 16
0.0
 26
0.0
 36
1.0
 17
0.0
 27
0.0
 37
0.0
 40
841.0
 41
0.7063020214
 42
50.0
 43
0.0
 44
0.0
 50
0.0
 51
0.0
 71
     0
 72
  2000
 73
     1
 74
     3
 75
     0
 76
     0
 77
     0
 78
     0
281
     0
 65
     1
110
0.0
120
0.0
130
0.0
111
1.0
121
0.0
131
0.0
112
0.0
122
1.0
132
0.0
 79
     0
146
0.0
  0
ENDTAB
  0
TABLE
  2
LTYPE
  5
5
330
0
100
AcDbSymbolTable
 70
     6
  0
LTYPE
  5
14
330
5
100
AcDbSymbolTableRecord
100
AcDbLinetypeTableRecord
  2
ByBlock
 70
     0
  3

 72
    65
 73
     0
 40
0.0
  0
LTYPE
  5
15
330
5
100
AcDbSymbolTableRecord
100
AcDbLinetypeTableRecord
  2
ByLayer
 70
     0
  3

 72
    65
 73
     0
 40
0.0
  0
LTYPE
  5
16
330
5
100
AcDbSymbolTableRecord
100
AcDbLinetypeTableRecord
  2
Continuous
 70
     0
  3
Solid line
 72
    65
 73
     0
 40
0.0
  0
LTYPE
  5
6E
330
5
100
AcDbSymbolTableRecord
100
AcDbLinetypeTableRecord
  2
HIDDEN
 70
     0
  3
Hidden __ __ __ __ __ __ __ __ __ __ __ __ __ __
 72
    65
 73
     2
 40
1.905
 49
1.27
 74
     0
 49
-0.635
 74
     0
  0
LTYPE
  5
6F
330
5
100
AcDbSymbolTableRecord
100
AcDbLinetypeTableRecord
  2
PHANTOM
 70
     0
  3
Phantom ______  __  __  ______  __  __  ______
 72
    65
 73
     6
 40
12.7
 49
6.35
 74
     0
 49
-1.27
 74
     0
 49
1.27
 74
     0
 49
-1.27
 74
     0
 49
1.27
 74
     0
 49
-1.27
 74
     0
  0
LTYPE
  5
70
330
5
100
AcDbSymbolTableRecord
100
AcDbLinetypeTableRecord
  2
CENTER
 70
     0
  3
Center ____ _ ____ _ ____ _ ____ _ ____ _ ____
 72
    65
 73
     4
 40
10.16
 49
6.35
 74
     0
 49
-1.27
 74
     0
 49
1.27
 74
     0
 49
-1.27
 74
     0
  0
LTYPE
  5
71
330
5
100
AcDbSymbolTableRecord
100
AcDbLinetypeTableRecord
  2
CENTERX2
 70
     0
  3
Center (2x) ________  __  ________  __  _____
 72
    65
 73
     4
 40
20.32
 49
12.7
 74
     0
 49
-2.54
 74
     0
 49
2.54
 74
     0
 49
-2.54
 74
     0
  0
LTYPE
  5
72
330
5
100
AcDbSymbolTableRecord
100
AcDbLinetypeTableRecord
  2
DOT2
 70
     0
  3
Dot (.5x) ........................................
 72
    65
 73
     2
 40
0.635
 49
0.0
 74
     0
 49
-0.635
 74
     0
  0
ENDTAB
  0
TABLE
  2
LAYER
  5
2
330
0
100
AcDbSymbolTable
 70
     1
  0
LAYER
  5
10
330
2
100
AcDbSymbolTableRecord
100
AcDbLayerTableRecord
  2
0
 70
     0
 62
     7
  6
Continuous
370
    -3
390
F
  0
ENDTAB
  0
TABLE
  2
STYLE
  5
3
330
0
100
AcDbSymbolTable
 70
     3
  0
STYLE
  5
11
330
3
100
AcDbSymbolTableRecord
100
AcDbTextStyleTableRecord
  2
Standard
 70
     0
 40
0.0
 41
1.0
 50
0.0
 71
     0
 42
10.0
  3
txt
  4

  0
STYLE
  5
76
330
3
100
AcDbSymbolTableRecord
100
AcDbTextStyleTableRecord
  2
SLDTEXTSTYLE0
 70
     0
 40
0.0
 41
0.96
 50
0.0
 71
     0
 42
10.0
  3
ISOCP3
  4

  0
STYLE
  5
8D
330
3
100
AcDbSymbolTableRecord
100
AcDbTextStyleTableRecord
  2
SLDTEXTSTYLE1
 70
     0
 40
0.0
 41
0.605
 50
0.0
 71
     0
 42
10.0
  3
TXT
  4

  0
ENDTAB
  0
TABLE
  2
VIEW
  5
6
330
0
100
AcDbSymbolTable
 70
     0
  0
ENDTAB
  0
TABLE
  2
UCS
  5
7
330
0
100
AcDbSymbolTable
 70
     0
  0
ENDTAB
  0
TABLE
  2
APPID
  5
9
330
0
100
AcDbSymbolTable
 70
     1
  0
APPID
  5
12
330
9
100
AcDbSymbolTableRecord
100
AcDbRegAppTableRecord
  2
ACAD
 70
     0
  0
ENDTAB
  0
TABLE
  2
DIMSTYLE
  5
A
330
0
100
AcDbSymbolTable
 70
     2
100
AcDbDimStyleTable
  0
DIMSTYLE
105
27
330
A
100
AcDbSymbolTableRecord
100
AcDbDimStyleTableRecord
  2
ISO-25
 70
     0
 41
2.5
 42
0.625
 43
3.75
 44
1.25
 73
     0
 74
     0
 77
     1
 78
     8
140
2.5
141
2.5
143
0.0393700787
147
0.625
171
     3
172
     1
178
     0
271
     2
272
     2
274
     3
278
    44
283
     0
284
     8
340
11
  0
DIMSTYLE
105
77
102
{ACAD_REACTORS
330
75
330
82
102
}
330
A
100
AcDbSymbolTableRecord
100
AcDbDimStyleTableRecord
  2
SLDDIMSTYLE0
 70
     0
 41
2.5
 44
0.0
 45
0.000000001
 73
     0
 74
     0
 77
     1
 78
    12
 79
     3
140
6.0
147
1.5
173
     1
178
     0
271
     2
272
     2
276
     2
284
    12
340
76
  0
ENDTAB
  0
TABLE
  2
BLOCK_RECORD
  5
1
330
0
100
AcDbSymbolTable
 70
     3
  0
BLOCK_RECORD
  5
1F
330
1
100
AcDbSymbolTableRecord
100
AcDbBlockTableRecord
  2
*Model_Space
340
22
  0
BLOCK_RECORD
  5
1B
330
1
100
AcDbSymbolTableRecord
100
AcDbBlockTableRecord
  2
*Paper_Space
340
1E
  0
BLOCK_RECORD
  5
23
330
1
100
AcDbSymbolTableRecord
100
AcDbBlockTableRecord
  2
*Paper_Space0
340
26
  0
BLOCK_RECORD
  5
78
330
1
100
AcDbSymbolTableRecord
100
AcDbBlockTableRecord
  2
_D
340
0
  0
BLOCK_RECORD
  5
83
330
1
100
AcDbSymbolTableRecord
100
AcDbBlockTableRecord
  2
_D_1
340
0
  0
ENDTAB
  0
ENDSEC
  0
SECTION
  2
BLOCKS
  0
BLOCK
  5
20
330
1F
100
AcDbEntity
  8
0
100
AcDbBlockBegin
  2
*Model_Space
 70
     0
 10
0.0
 20
0.0
 30
0.0
  3
*Model_Space
  1

  0
ENDBLK
  5
21
330
1F
100
AcDbEntity
  8
0
100
AcDbBlockEnd
  0
BLOCK
  5
1C
330
1B
100
AcDbEntity
 67
     1
  8
0
100
AcDbBlockBegin
  2
*Paper_Space
 70
     0
 10
0.0
 20
0.0
 30
0.0
  3
*Paper_Space
  1

  0
ENDBLK
  5
1D
330
1B
100
AcDbEntity
 67
     1
  8
0
100
AcDbBlockEnd
  0
BLOCK
  5
24
330
23
100
AcDbEntity
  8
0
100
AcDbBlockBegin
  2
*Paper_Space0
 70
     0
 10
0.0
 20
0.0
 30
0.0
  3
*Paper_Space0
  1

  0
ENDBLK
  5
25
330
23
100
AcDbEntity
  8
0
100
AcDbBlockEnd
  0
BLOCK
  5
79
330
78
100
AcDbEntity
  8
0
100
AcDbBlockBegin
  2
_D
 70
     0
 10
0.0
 20
0.0
 30
0.0
  3
_D
  1

  0
SOLID
  5
7B
330
78
100
AcDbEntity
  8
0
  6
Continuous
 62
     7
370
    18
100
AcDbTrace
 10
42.7614395004
 20
152.0299240879
 30
0.0
 11
42.4614395004
 21
149.5299240879
 31
0.0
 12
43.0614395004
 22
149.5299240879
 32
0.0
 13
43.0614395004
 23
149.5299240879
 33
0.0
  0
SOLID
  5
7C
330
78
100
AcDbEntity
  8
0
  6
Continuous
 62
     7
370
    18
100
AcDbTrace
 10
42.7614395004
 20
52.0299240879
 30
0.0
 11
43.0614395004
 21
54.5299240879
 31
0.0
 12
42.4614395004
 22
54.5299240879
 32
0.0
 13
42.4614395004
 23
54.5299240879
 33
0.0
  0
LINE
  5
7D
330
78
100
AcDbEntity
  8
0
  6
Continuous
 62
     7
370
    18
100
AcDbLine
 10
56.6850079902
 20
152.0299240879
 30
0.0
 11
41.7614395004
 21
152.0299240879
 31
0.0
  0
LINE
  5
7E
330
78
100
AcDbEntity
  8
0
  6
Continuous
 62
     7
370
    18
100
AcDbLine
 10
56.6850079902
 20
52.0299240879
 30
0.0
 11
41.7614395004
 21
52.0299240879
 31
0.0
  0
LINE
  5
7F
330
78
100
AcDbEntity
  8
0
  6
Continuous
 62
     7
370
    18
100
AcDbLine
 10
42.7614395004
 20
152.0299240879
 30
0.0
 11
42.7614395004
 21
52.0299240879
 31
0.0
  0
MTEXT
  5
80
330
78
100
AcDbEntity
  8
0
  6
Continuous
 62
     7
370
    18
100
AcDbMText
 10
35.0270332946
 20
94.3680541463
 30
0.0
 40
6.0
 41
0.0
 71
     1
 72
     1
  1
100
  7
SLDTEXTSTYLE0
 11
-7.044195017643634E-15
 21
1.0
 31
0.0
 73
     1
 44
1.0
  0
MTEXT
  5
81
330
78
100
AcDbEntity
  8
0
  6
Continuous
 62
     7
370
    18
100
AcDbMText
 10
35.0270332946
 20
105.7430548466
 30
0.0
 40
6.0
 41
0.0
 71
     1
 72
     1
  1
mm
  7
SLDTEXTSTYLE0
 11
-7.044195017643634E-15
 21
1.0
 31
0.0
 73
     1
 44
1.0
  0
ENDBLK
  5
7A
330
78
100
AcDbEntity
  8
0
100
AcDbBlockEnd
  0
BLOCK
  5
84
330
83
100
AcDbEntity
  8
0
100
AcDbBlockBegin
  2
_D_1
 70
     0
 10
0.0
 20
0.0
 30
0.0
  3
_D_1
  1

  0
SOLID
  5
86
330
83
100
AcDbEntity
  8
0
  6
Continuous
 62
     7
370
    18
100
AcDbTrace
 10
56.6850079902
 20
38.4602342313
 30
0.0
 11
59.1850079902
 21
38.1602342313
 31
0.0
 12
59.1850079902
 22
38.7602342313
 32
0.0
 13
59.1850079902
 23
38.7602342313
 33
0.0
  0
SOLID
  5
87
330
83
100
AcDbEntity
  8
0
  6
Continuous
 62
     7
370
    18
100
AcDbTrace
 10
156.6850079902
 20
38.4602342313
 30
0.0
 11
154.1850079902
 21
38.7602342313
 31
0.0
 12
154.1850079902
 22
38.1602342313
 32
0.0
 13
154.1850079902
 23
38.1602342313
 33
0.0
  0
LINE
  5
88
330
83
100
AcDbEntity
  8
0
  6
Continuous
 62
     7
370
    18
100
AcDbLine
 10
56.6850079902
 20
52.0299240879
 30
0.0
 11
56.6850079902
 21
37.4602342313
 31
0.0
  0
LINE
  5
89
330
83
100
AcDbEntity
  8
0
  6
Continuous
 62
     7
370
    18
100
AcDbLine
 10
156.6850079902
 20
52.0299240879
 30
0.0
 11
156.6850079902
 21
37.4602342313
 31
0.0
  0
LINE
  5
8A
330
83
100
AcDbEntity
  8
0
  6
Continuous
 62
     7
370
    18
100
AcDbLine
 10
56.6850079902
 20
38.4602342313
 30
0.0
 11
156.6850079902
 21
38.4602342313
 31
0.0
  0
MTEXT
  5
8B
330
83
100
AcDbEntity
  8
0
  6
Continuous
 62
     7
370
    18
100
AcDbMText
 10
93.9626484861
 20
46.1946404371
 30
0.0
 40
6.0
 41
0.0
 71
     1
 72
     1
  1
100
  7
SLDTEXTSTYLE0
 73
     1
 44
1.0
  0
MTEXT
  5
8C
330
83
100
AcDbEntity
  8
0
  6
Continuous
 62
     7
370
    18
100
AcDbMText
 10
105.3376491864
 20
46.1946404371
 30
0.0
 40
6.0
 41
0.0
 71
     1
 72
     1
  1
mm
  7
SLDTEXTSTYLE0
 73
     1
 44
1.0
  0
ENDBLK
  5
85
330
83
100
AcDbEntity
  8
0
100
AcDbBlockEnd
  0
ENDSEC
  0
SECTION
  2
ENTITIES
  0
LINE
  5
73
330
1F
100
AcDbEntity
  8
0
  6
Continuous
 62
     7
370
    18
100
AcDbLine
 10
56.6850079902
 20
152.0299240879
 30
0.0
 11
56.6850079902
 21
52.0299240879
 31
0.0
  0
LINE
  5
74
330
1F
100
AcDbEntity
  8
0
  6
Continuous
 62
     7
370
    18
100
AcDbLine
 10
56.6850079902
 20
52.0299240879
 30
0.0
 11
156.6850079902
 21
52.0299240879
 31
0.0
  0
DIMENSION
  5
75
330
1F
100
AcDbEntity
  8
0
  6
Continuous
 62
     7
370
    18
100
AcDbDimension
  2
_D
 10
42.7614395004
 20
52.0299240879
 30
0.0
 11
42.7614395004
 21
105.4472211621
 31
0.0
 70
   160
  1
<>mm
 71
     2
 42
-1.0
  3
SLDDIMSTYLE0
100
AcDbAlignedDimension
 13
56.6850079902
 23
152.0299240879
 33
0.0
 14
56.6850079902
 24
52.0299240879
 34
0.0
 50
90.0
100
AcDbRotatedDimension
  0
DIMENSION
  5
82
330
1F
100
AcDbEntity
  8
0
  6
Continuous
 62
     7
370
    18
100
AcDbDimension
  2
_D_1
 10
156.6850079902
 20
38.4602342313
 30
0.0
 11
105.0418155019
 21
38.4602342313
 31
0.0
 70
   160
  1
<>mm
 71
     2
 42
-1.0
  3
SLDDIMSTYLE0
100
AcDbAlignedDimension
 13
56.6850079902
 23
52.0299240879
 33
0.0
 14
156.6850079902
 24
52.0299240879
 34
0.0
100
AcDbRotatedDimension
  0
MTEXT
  5
8E
330
1F
100
AcDbEntity
  8
0
  6
Continuous
 62
     7
370
     0
100
AcDbMText
 10
412.8252631579
 20
48.4342449499
 30
0.0
 40
10.0
 41
0.0
 71
     1
 72
     1
  1
KLUDI GmbH & Co KG
  7
SLDTEXTSTYLE1
 73
     1
 44
1.0
  0
MTEXT
  5
8F
330
1F
100
AcDbEntity
  8
0
  6
Continuous
 62
     7
370
     0
100
AcDbMText
 10
210.0873490389
 20
48.4342449499
 30
0.0
 40
10.0
 41
0.0
 71
     1
 72
     1
  1
41 028 05 75
  7
SLDTEXTSTYLE1
 73
     1
 44
1.0
  0
SPLINE
  5
90
330
1F
100
AcDbEntity
  8
0
  6
Continuous
 62
     7
370
    25
100
AcDbSpline
210
0.0
220
0.0
230
1.0
 70
     8
 71
     3
 72
    23
 73
    19
 74
     0
 42
0.000000001
 43
0.00000001
 40
0.0
 40
0.0
 40
0.0
 40
0.0
 40
0.0863479111714717
 40
0.1907751334849385
 40
0.2721808219011652
 40
0.2950435214449049
 40
0.3135649475275761
 40
0.321459086572981
 40
0.3287367277200184
 40
0.3357871872502315
 40
0.3430992169632502
 40
0.360356418072707
 40
0.383696584984961
 40
0.4552968047057735
 40
0.5532326039883252
 40
0.6831151300930259
 40
0.8412523147226495
 40
1.0
 40
1.0
 40
1.0
 40
1.0
 10
151.7597391627168
 20
408.0436428485216
 30
0.0
 10
151.5801979483964
 20
408.0719736723266
 30
0.0
 10
151.1835236263042
 20
408.1345671574475
 30
0.0
 10
150.5644762084713
 20
408.2285572220904
 30
0.0
 10
149.9990705003655
 20
408.3124350024917
 30
0.0
 10
149.543534612509
 20
408.378420163945
 30
0.0
 10
149.3194492017688
 20
408.4105479420242
 30
0.0
 10
149.1396047673686
 20
408.4361200615618
 30
0.0
 10
149.0112072880852
 20
408.4542856845492
 30
0.0
 10
148.8828026312308
 20
408.4723623787941
 30
0.0
 10
148.7042807702038
 20
408.4973709776837
 30
0.0
 10
148.482729366769
 20
408.5281580186469
 30
0.0
 10
148.1232565169379
 20
408.5776519246156
 30
0.0
 10
147.7651155897237
 20
408.6261754103086
 30
0.0
 10
147.3968569639356
 20
408.675499647273
 30
0.0
 10
147.0534865298121
 20
408.720816959157
 30
0.0
 10
146.7337580216592
 20
408.7625853468613
 30
0.0
 10
146.5505771670128
 20
408.786047645652
 30
0.0
 10
146.4588102843882
 20
408.7978013959192
 30
0.0
  0
SPLINE
  5
91
330
1F
100
AcDbEntity
  8
0
  6
Continuous
 62
     7
370
    25
100
AcDbSpline
210
0.0
220
0.0
230
1.0
 70
     8
 71
     3
 72
    11
 73
     7
 74
     0
 42
0.000000001
 43
0.00000001
 40
0.0
 40
0.0
 40
0.0
 40
0.0
 40
0.2087080370882013
 40
0.4852727476397601
 40
0.7466146312479939
 40
1.0
 40
1.0
 40
1.0
 40
1.0
 10
130.6731121144202
 20
409.8361300712146
 30
0.0
 10
130.6733280766236
 20
409.8361354489866
 30
0.0
 10
130.6738302162314
 20
409.8361479529907
 30
0.0
 10
130.3714276150475
 20
409.8392185034532
 30
0.0
 10
129.8521694645989
 20
409.8431062010044
 30
0.0
 10
129.4335861691136
 20
409.8438367642644
 30
0.0
 10
129.2275296951391
 20
409.8441963994697
 30
0.0
  0
SPLINE
  5
92
330
1F
100
AcDbEntity
  8
0
  6
Continuous
 62
     7
370
    25
100
AcDbSpline
210
0.0
220
0.0
230
1.0
 70
     8
 71
     3
 72
    11
 73
     7
 74
     0
 42
0.000000001
 43
0.00000001
 40
0.0
 40
0.0
 40
0.0
 40
0.0
 40
0.253385368752006
 40
0.5147272523602402
 40
0.7912919629118007
 40
1.0
 40
1.0
 40
1.0
 40
1.0
 10
129.2275296951391
 20
409.8441963994697
 30
0.0
 10
129.0214732211645
 20
409.8438367642644
 30
0.0
 10
128.6028899256792
 20
409.8431062010044
 30
0.0
 10
128.0836317752307
 20
409.8392185034533
 30
0.0
 10
127.7812291740468
 20
409.8361479529907
 30
0.0
 10
127.7817313136545
 20
409.8361354489866
 30
0.0
 10
127.781947275858
 20
409.8361300712146
 30
0.0
  0
SPLINE
  5
93
330
1F
100
AcDbEntity
  8
0
  6
Continuous
 62
     7
370
    25
100
AcDbSpline
210
0.0
220
0.0
230
1.0
 70
     8
 71
     3
 72
    17
 73
    13
 74
     0
 42
0.000000001
 43
0.00000001
 40
0.0
 40
0.0
 40
0.0
 40
0.0
 40
0.1591380232037356
 40
0.3224616723016644
 40
0.4480885525532202
 40
0.5424604055371778
 40
0.6135537764901036
 40
0.643625575489732
 40
0.6718242424591253
 40
0.7273319159087491
 40
0.8532364572930183
 40
1.0
 40
1.0
 40
1.0
 40
1.0
 10
112.5496230927695
 20
408.8637572440366
 30
0.0
 10
112.4620484993218
 20
408.853096778348
 30
0.0
 10
112.2845959377921
 20
408.8314954569023
 30
0.0
 10
111.9028579446484
 20
408.7842202588008
 30
0.0
 10
111.4426312957125
 20
408.7261296672773
 30
0.0
 10
110.9356286070582
 20
408.6606244438777
 30
0.0
 10
110.4373031874687
 20
408.594497024214
 30
0.0
 10
110.0225504488588
 20
408.5380988227558
 30
0.0
 10
109.6225995403426
 20
408.4829260429955
 30
0.0
 10
108.8347262410123
 20
408.3717081364537
 30
0.0
 10
107.7314375707828
 20
408.2086386311491
 30
0.0
 10
106.9348031155827
 20
408.082076876912
 30
0.0
 10
106.5060147765394
 20
408.013955037552
 30
0.0
  0
LINE
  5
94
330
1F
100
AcDbEntity
  8
0
  6
Continuous
 62
     7
370
    25
100
AcDbLine
 10
139.3986886162
 20
382.2058879066
 30
0.0
 11
140.3233394272
 21
382.6879952465
 31
0.0
  0
LINE
  5
95
330
1F
100
AcDbEntity
  8
0
  6
Continuous
 62
     7
370
    25
100
AcDbLine
 10
118.1317199631
 20
382.6879952465
 30
0.0
 11
119.0563707741
 21
382.2058879066
 31
0.0
  0
LINE
  5
96
330
1F
100
AcDbEntity
  8
0
  6
Continuous
 62
     7
370
    25
100
AcDbLine
 10
141.2275296951
 20
383.6692912021
 30
0.0
 11
141.2275296951
 21
390.3158633416
 31
0.0
  0
LINE
  5
97
330
1F
100
AcDbEntity
  8
0
  6
Continuous
 62
     7
370
    25
100
AcDbLine
 10
117.2275296951
 20
390.3166481017
 30
0.0
 11
117.2275296951
 21
383.6692912021
 31
0.0
  0
SPLINE
  5
98
330
1F
100
AcDbEntity
  8
0
  6
Continuous
 62
     7
370
    25
100
AcDbSpline
210
0.0
220
0.0
230
1.0
 70
     8
 71
     3
 72
    13
 73
     9
 74
     0
 42
0.000000001
 43
0.00000001
 40
0.0
 40
0.0
 40
0.0
 40
0.0
 40
0.1356722583601225
 40
0.2893274437780926
 40
0.4696148195429052
 40
0.6742060520560736
 40
0.8999057237807007
 40
1.0
 40
1.0
 40
1.0
 40
1.0
 10
129.2275296951391
 20
444.244394643112
 30
0.0
 10
129.0217922709933
 20
444.2440890492171
 30
0.0
 10
128.5830475803906
 20
444.2434373559266
 30
0.0
 10
128.0975544210272
 20
444.2398337042362
 30
0.0
 10
127.7834843015054
 20
444.2368442898371
 30
0.0
 10
127.5973904150591
 20
444.2346961655041
 30
0.0
 10
127.5140430400649
 20
444.2336674370206
 30
0.0
 10
127.5366293192188
 20
444.2339177420989
 30
0.0
 10
127.5435685434697
 20
444.2339946437903
 30
0.0
  0
SPLINE
  5
99
330
1F
100
AcDbEntity
  8
0
  6
Continuous
 62
     7
370
    25
100
AcDbSpline
210
0.0
220
0.0
230
1.0
 70
     8
 71
     3
 72
    22
 73
    18
 74
     0
 42
0.000000001
 43
0.00000001
 40
0.0
 40
0.0
 40
0.0
 40
0.0
 40
0.1431820012189829
 40
0.3085508038740481
 40
0.452503304683059
 40
0.5401297410001891
 40
0.6082551634983872
 40
0.6593488341403501
 40
0.6968264910686452
 40
0.711993789484077
 40
0.7257607376756539
 40
0.738980005206211
 40
0.7524314681801122
 40
0.7820674113097581
 40
0.8170690004382629
 40
0.9023099944036983
 40
1.0
 40
1.0
 40
1.0
 40
1.0
 10
115.4426589861663
 20
443.5647858697583
 30
0.0
 10
115.2965008267089
 20
443.5508039193634
 30
0.0
 10
114.9815365350423
 20
443.5206734420873
 30
0.0
 10
114.4796710240446
 20
443.4787912408706
 30
0.0
 10
113.956802541137
 20
443.4144217129841
 30
0.0
 10
113.4312591445292
 20
443.3550109155832
 30
0.0
 10
112.9293454777308
 20
443.2951495294389
 30
0.0
 10
112.3969900270563
 20
443.2301249782035
 30
0.0
 10
111.8831501167528
 20
443.1656950931604
 30
0.0
 10
111.4496901769788
 20
443.110059684258
 30
0.0
 10
111.1378387370301
 20
443.0694707800498
 30
0.0
 10
110.8195363964522
 20
443.027453230663
 30
0.0
 10
110.377858216739
 20
442.968309552739
 30
0.0
 10
109.8105150441508
 20
442.8905912533872
 30
0.0
 10
108.8818153780583
 20
442.7595401011103
 30
0.0
 10
107.7621550908666
 20
442.5945515503143
 30
0.0
 10
106.9126122110009
 20
442.4602315002715
 30
0.0
 10
106.4589337809524
 20
442.3885010310137
 30
0.0
  0
SPLINE
  5
9A
330
1F
100
AcDbEntity
  8
0
  6
Continuous
 62
     7
370
    25
100
AcDbSpline
210
0.0
220
0.0
230
1.0
 70
     8
 71
     3
 72
    21
 73
    17
 74
     0
 42
0.000000001
 43
0.00000001
 40
0.0
 40
0.0
 40
0.0
 40
0.0
 40
0.0589907826946816
 40
0.1250547026182634
 40
0.1801918245240127
 40
0.2126594580301773
 40
0.226510928192463
 40
0.2396507770744515
 40
0.2532998732132282
 40
0.2688502117780303
 40
0.3094251614975128
 40
0.3966817117946658
 40
0.5131097757202753
 40
0.6528098718321269
 40
0.8379820495007124
 40
1.0
 40
1.0
 40
1.0
 40
1.0
 10
151.843674796318
 20
442.412450458265
 30
0.0
 10
151.6135893360139
 20
442.4488523675888
 30
0.0
 10
151.1258306133669
 20
442.5260208630262
 30
0.0
 10
150.3707093418852
 20
442.6404500696955
 30
0.0
 10
149.6272299244841
 20
442.7500161693829
 30
0.0
 10
149.0001316171187
 20
442.8397220453031
 30
0.0
 10
148.5672070824907
 20
442.9004687034891
 30
0.0
 10
148.2555332125065
 20
442.9436878165885
 30
0.0
 10
147.9477292587691
 20
442.9858740186955
 30
0.0
 10
147.5167800590871
 20
443.0442680769029
 30
0.0
 10
146.8888560080472
 20
443.1276794832553
 30
0.0
 10
146.1825001759666
 20
443.2185843782414
 30
0.0
 10
145.4249240774977
 20
443.3104440147153
 30
0.0
 10
144.6232340771922
 20
443.4077315079398
 30
0.0
 10
143.8417784610177
 20
443.486200249925
 30
0.0
 10
143.3146103778303
 20
443.5360008089093
 30
0.0
 10
143.0686048451921
 20
443.5592404803335
 30
0.0
  0
SPLINE
  5
9B
330
1F
100
AcDbEntity
  8
0
  6
Continuous
 62
     7
370
    25
100
AcDbSpline
210
0.0
220
0.0
230
1.0
 70
     8
 71
     3
 72
    13
 73
     9
 74
     0
 42
0.000000001
 43
0.00000001
 40
0.0
 40
0.0
 40
0.0
 40
0.0
 40
0.1000942762192966
 40
0.3257939479439251
 40
0.530385180457094
 40
0.7106725562219068
 40
0.864327741639877
 40
1.0
 40
1.0
 40
1.0
 40
1.0
 10
130.9114908468084
 20
444.2339946437903
 30
0.0
 10
130.9184300710594
 20
444.2339177420989
 30
0.0
 10
130.9410163502132
 20
444.2336674370206
 30
0.0
 10
130.8576689752191
 20
444.2346961655041
 30
0.0
 10
130.6715750887728
 20
444.2368442898369
 30
0.0
 10
130.3575049692509
 20
444.2398337042363
 30
0.0
 10
129.8720118098876
 20
444.2434373559266
 30
0.0
 10
129.4332671192849
 20
444.2440890492171
 30
0.0
 10
129.2275296951391
 20
444.244394643112
 30
0.0
  0
LINE
  5
9C
330
1F
100
AcDbEntity
  8
0
  6
Continuous
 62
     7
370
    25
100
AcDbLine
 10
152.3658708404
 20
407.9025811632
 30
0.0
 11
151.927056043
 21
408.0362621605
 31
0.0
  0
LINE
  5
9D
330
1F
100
AcDbEntity
  8
0
  6
Continuous
 62
     7
370
    25
100
AcDbLine
 10
106.5280033473
 20
408.0362621605
 30
0.0
 11
106.0891885499
 21
407.9025811632
 31
0.0
  0
SPLINE
  5
9E
330
1F
100
AcDbEntity
  8
0
  6
Continuous
 62
     7
370
    25
100
AcDbSpline
210
0.0
220
0.0
230
1.0
 70
     8
 71
     3
 72
    10
 73
     6
 74
     0
 42
0.000000001
 43
0.00000001
 40
0.0
 40
0.0
 40
0.0
 40
0.0
 40
0.0065615721040582
 40
0.6374833459472371
 40
1.0
 40
1.0
 40
1.0
 40
1.0
 10
105.2753638375937
 20
431.6552250424795
 30
0.0
 10
105.2753224390768
 20
431.6488131823455
 30
0.0
 10
105.2713004052311
 20
431.025874961571
 30
0.0
 10
105.2668965643979
 20
430.1076163201932
 30
0.0
 10
105.2640546450636
 20
429.3383625364087
 30
0.0
 10
105.2630175973118
 20
429.0576533349279
 30
0.0
  0
SPLINE
  5
9F
330
1F
100
AcDbEntity
  8
0
  6
Continuous
 62
     7
370
    25
100
AcDbSpline
210
0.0
220
0.0
230
1.0
 70
     8
 71
     3
 72
    10
 73
     6
 74
     0
 42
0.000000001
 43
0.00000001
 40
0.0
 40
0.0
 40
0.0
 40
0.0
 40
0.2048809327272951
 40
0.5948968335252677
 40
1.0
 40
1.0
 40
1.0
 40
1.0
 10
153.1942837430381
 20
428.0258586845076
 30
0.0
 10
153.1931397700003
 20
428.218742183164
 30
0.0
 10
153.1898181044419
 20
428.7788030002569
 30
0.0
 10
153.1829077108756
 20
430.0105370113368
 30
0.0
 10
153.1773021530481
 20
431.1000036738141
 30
0.0
 10
153.1744461918227
 20
431.6550732387436
 30
0.0
  0
LINE
  5
A0
330
1F
100
AcDbEntity
  8
0
  6
Continuous
 62
     7
370
    25
100
AcDbLine
 10
152.3441787192
 20
442.314152811
 30
0.0
 11
151.9730792473
 21
442.4060741346
 31
0.0
  0
LINE
  5
A1
330
1F
100
AcDbEntity
  8
0
  6
Continuous
 62
     7
370
    25
100
AcDbLine
 10
106.4819801429
 20
442.4060741346
 30
0.0
 11
106.1108806711
 21
442.314152811
 31
0.0
  0
ARC
  5
A2
330
1F
100
AcDbEntity
  8
0
  6
Continuous
 62
     7
370
    25
100
AcDbCircle
 10
129.2275296951
 20
405.8438886809
 30
0.0
 40
21.64486082191335
100
AcDbArc
 50
162.7354694863
 51
170.9531540197
  0
ARC
  5
A3
330
1F
100
AcDbEntity
  8
0
  6
Continuous
 62
     7
370
    25
100
AcDbCircle
 10
129.2275296951
 20
405.8438886809
 30
0.0
 40
21.64486082191338
100
AcDbArc
 50
9.0468459803
 51
17.2994213625
  0
ARC
  5
A4
330
1F
100
AcDbEntity
  8
0
  6
Continuous
 62
     7
370
    25
100
AcDbCircle
 10
140.7275296951
 20
407.6749494559
 30
0.0
 40
9.999999999999982
100
AcDbArc
 50
3.269414197
 51
9.0468459803
  0
ARC
  5
A5
330
1F
100
AcDbEntity
  8
0
  6
Continuous
 62
     7
370
    25
100
AcDbCircle
 10
117.7275296951
 20
407.6749494559
 30
0.0
 40
10.00000000000001
100
AcDbArc
 50
170.9531540197
 51
176.7992518469
  0
LINE
  5
A6
330
1F
100
AcDbEntity
  8
0
  6
Continuous
 62
     7
370
    25
100
AcDbLine
 10
152.4335672935
 20
442.2678546368
 30
0.0
 11
152.4258602311
 21
442.2722425407
 31
0.0
  0
LINE
  5
A7
330
1F
100
AcDbEntity
  8
0
  6
Continuous
 62
     7
370
    25
100
AcDbLine
 10
106.0291991592
 20
442.2722425407
 30
0.0
 11
106.0214920969
 21
442.2678546369
 31
0.0
  0
SPLINE
  5
A8
330
1F
100
AcDbEntity
  8
0
  6
Continuous
 62
     7
370
    25
100
AcDbSpline
210
0.0
220
0.0
230
1.0
 70
     8
 71
     3
 72
    11
 73
     7
 74
     0
 42
0.000000001
 43
0.00000001
 40
0.0
 40
0.0
 40
0.0
 40
0.0
 40
0.2448605468892578
 40
0.5643747919980616
 40
0.8685316014517768
 40
1.0
 40
1.0
 40
1.0
 40
1.0
 10
105.9473237878879
 20
442.1945391452134
 30
0.0
 10
105.8155369427185
 20
442.0814749243328
 30
0.0
 10
105.5117837481942
 20
441.8208751790797
 30
0.0
 10
105.4589685965552
 20
441.4596304348916
 30
0.0
 10
105.3965691321474
 20
441.0165680172359
 30
0.0
 10
105.3807968367412
 20
440.6146733080105
 30
0.0
 10
105.3760368770777
 20
440.4933845193079
 30
0.0
  0
LINE
  5
A9
330
1F
100
AcDbEntity
  8
0
  6
Continuous
 62
     7
370
    25
100
AcDbLine
 10
153.0439358433
 20
441.0947566824
 30
0.0
 11
153.0137847069
 21
441.245225265
 31
0.0
  0
SPLINE
  5
AA
330
1F
100
AcDbEntity
  8
0
  6
Continuous
 62
     7
370
    25
100
AcDbSpline
210
0.0
220
0.0
230
1.0
 70
     8
 71
     3
 72
    15
 73
    11
 74
     0
 42
0.000000001
 43
0.00000001
 40
0.0
 40
0.0
 40
0.0
 40
0.0
 40
0.11089489302582
 40
0.2387021481901271
 40
0.3629435151840097
 40
0.4882486074330019
 40
0.6189804942509384
 40
0.749556489494229
 40
0.8749230905400588
 40
1.0
 40
1.0
 40
1.0
 40
1.0
 10
128.8011841414364
 20
444.2434775027428
 30
0.0
 10
128.0435616907822
 20
444.2451931429769
 30
0.0
 10
126.4127732788568
 20
444.2488860723645
 30
0.0
 10
123.9276066786301
 20
444.1875755803766
 30
0.0
 10
121.3748546498395
 20
444.0817015632591
 30
0.0
 10
119.0542621128216
 20
443.9507901071024
 30
0.0
 10
116.9863763507695
 20
443.7600935187797
 30
0.0
 10
114.8996154780701
 20
443.5315177678363
 30
0.0
 10
112.5237479362563
 20
443.2614063217917
 30
0.0
 10
110.8391241411755
 20
443.0434346670955
 30
0.0
 10
109.9977865578383
 20
442.9345749052106
 30
0.0
  0
SPLINE
  5
AB
330
1F
100
AcDbEntity
  8
0
  6
Continuous
 62
     7
370
    25
100
AcDbSpline
210
0.0
220
0.0
230
1.0
 70
     8
 71
     3
 72
    15
 73
    11
 74
     0
 42
0.000000001
 43
0.00000001
 40
0.0
 40
0.0
 40
0.0
 40
0.0
 40
0.0636355095872607
 40
0.1273845492478234
 40
0.2625391296597447
 40
0.4004285307495286
 40
0.5327986525552221
 40
0.7068678849954483
 40
0.8832892344454741
 40
1.0
 40
1.0
 40
1.0
 40
1.0
 10
148.4572728324398
 20
442.9345749052106
 30
0.0
 10
148.0439175444128
 20
442.9890915077867
 30
0.0
 10
147.2164695144364
 20
443.0982219742622
 30
0.0
 10
145.6299508356755
 20
443.2937328983763
 30
0.0
 10
143.8859504213195
 20
443.5086837701002
 30
0.0
 10
141.8209974331335
 20
443.741411496961
 30
0.0
 10
139.2186952114203
 20
443.965023297539
 30
0.0
 10
136.1722253903625
 20
444.1341868236512
 30
0.0
 10
133.1386086465463
 20
444.2387348370996
 30
0.0
 10
131.2262906723134
 20
444.2386952373456
 30
0.0
 10
130.4648998750173
 20
444.2386794706746
 30
0.0
  0
SPLINE
  5
AC
330
1F
100
AcDbEntity
  8
0
  6
Continuous
 62
     7
370
    25
100
AcDbSpline
210
0.0
220
0.0
230
1.0
 70
     8
 71
     3
 72
    15
 73
    11
 74
     0
 42
0.000000001
 43
0.00000001
 40
0.0
 40
0.0
 40
0.0
 40
0.0
 40
0.0972414251004469
 40
0.2061195578637937
 40
0.3253898918470267
 40
0.4497665765876872
 40
0.5784253519601034
 40
0.7121802471714465
 40
0.8524946341333264
 40
1.0
 40
1.0
 40
1.0
 40
1.0
 10
105.7035932760164
 20
407.6153194130623
 30
0.0
 10
105.6561339713157
 20
407.5595871325937
 30
0.0
 10
105.5555359916861
 20
407.4414531891939
 30
0.0
 10
105.4607995692293
 20
407.1244907897947
 30
0.0
 10
105.3880465546489
 20
406.3991557565861
 30
0.0
 10
105.341939333354
 20
405.2506434575631
 30
0.0
 10
105.3149925592488
 20
403.7341007924488
 30
0.0
 10
105.3002909812144
 20
401.8927571829668
 30
0.0
 10
105.2930953701958
 20
399.7745376937458
 30
0.0
 10
105.2920415711058
 20
398.3164585736359
 30
0.0
 10
105.2915015073375
 20
397.5692044607381
 30
0.0
  0
SPLINE
  5
AD
330
1F
100
AcDbEntity
  8
0
  6
Continuous
 62
     7
370
    25
100
AcDbSpline
210
0.0
220
0.0
230
1.0
 70
     8
 71
     3
 72
    15
 73
    11
 74
     0
 42
0.000000001
 43
0.00000001
 40
0.0
 40
0.0
 40
0.0
 40
0.0
 40
0.1475053658666735
 40
0.2878197528285517
 40
0.4215746480398964
 40
0.5502334234123132
 40
0.6746101081529732
 40
0.7938804421362062
 40
0.902758574899553
 40
0.9999999999999999
 40
0.9999999999999999
 40
0.9999999999999999
 40
0.9999999999999999
 10
153.1635578829407
 20
397.5692044607381
 30
0.0
 10
153.1630178191724
 20
398.3164585736359
 30
0.0
 10
153.1619640200824
 20
399.7745376937457
 30
0.0
 10
153.1547684090638
 20
401.8927571829668
 30
0.0
 10
153.1400668310293
 20
403.7341007924488
 30
0.0
 10
153.1131200569242
 20
405.2506434575632
 30
0.0
 10
153.0670128356293
 20
406.3991557565861
 30
0.0
 10
152.9942598210489
 20
407.1244907897946
 30
0.0
 10
152.8995233985921
 20
407.4414531891939
 30
0.0
 10
152.7989254189624
 20
407.5595871325937
 30
0.0
 10
152.7514661142618
 20
407.6153194130623
 30
0.0
  0
LINE
  5
AE
330
1F
100
AcDbEntity
  8
0
  6
Continuous
 62
     7
370
    25
100
AcDbLine
 10
150.8304627272
 20
408.2085790362
 30
0.0
 11
150.638132644
 21
408.2365706027
 31
0.0
  0
SPLINE
  5
AF
330
1F
100
AcDbEntity
  8
0
  6
Continuous
 62
     7
370
    25
100
AcDbSpline
210
0.0
220
0.0
230
1.0
 70
     8
 71
     3
 72
    17
 73
    13
 74
     0
 42
0.000000001
 43
0.00000001
 40
0.0
 40
0.0
 40
0.0
 40
0.0
 40
0.1380218050588038
 40
0.2446580871553088
 40
0.3512880755151254
 40
0.4582966118264568
 40
0.5653074434501717
 40
0.6712179479672444
 40
0.7771347530530269
 40
0.8848919634778941
 40
0.992626716423223
 40
0.9999999999999999
 40
0.9999999999999999
 40
0.9999999999999999
 40
0.9999999999999999
 10
129.2275740985436
 20
392.2921220350433
 30
0.0
 10
128.3585314515914
 20
392.2744644884816
 30
0.0
 10
126.8180624541808
 20
392.2431646401438
 30
0.0
 10
124.7024848842537
 20
392.0551435761883
 30
0.0
 10
122.8971397984278
 20
391.8506129171856
 30
0.0
 10
121.2722696330108
 20
391.6342797371239
 30
0.0
 10
119.8709231239778
 20
391.4213751501783
 30
0.0
 10
118.7447647597818
 20
391.2155922894753
 30
0.0
 10
117.8909955917457
 20
390.9939947013323
 30
0.0
 10
117.3927483828935
 20
390.7110250870937
 30
0.0
 10
117.179062887615
 20
390.4874757178055
 30
0.0
 10
117.2347978833406
 20
390.3270900677823
 30
0.0
 10
117.2383680070352
 20
390.3168165116084
 30
0.0
  0
SPLINE
  5
B0
330
1F
100
AcDbEntity
  8
0
  6
Continuous
 62
     7
370
    25
100
AcDbSpline
210
0.0
220
0.0
230
1.0
 70
     8
 71
     3
 72
    17
 73
    13
 74
     0
 42
0.000000001
 43
0.00000001
 40
0.0
 40
0.0
 40
0.0
 40
0.0
 40
0.0093329281518921
 40
0.1131273083800997
 40
0.216941180892522
 40
0.3225269519313158
 40
0.4281072398144744
 40
0.5359168398135252
 40
0.643723433549283
 40
0.7496866207624553
 40
0.855656219842741
 40
1.0
 40
1.0
 40
1.0
 40
1.0
 10
141.213849330147
 20
390.3160706847728
 30
0.0
 10
141.218344789497
 20
390.3290706306669
 30
0.0
 10
141.272835642519
 20
390.4866469951417
 30
0.0
 10
141.0665924918002
 20
390.7048116542212
 30
0.0
 10
140.5921238484596
 20
390.9828591472855
 30
0.0
 10
139.7679964786167
 20
391.2031130408879
 30
0.0
 10
138.6582952693747
 20
391.4092774513956
 30
0.0
 10
137.2656879161211
 20
391.6225702587873
 30
0.0
 10
135.6464386247881
 20
391.8395007334901
 30
0.0
 10
133.8519343001439
 20
392.0448611552573
 30
0.0
 10
131.7129737813655
 20
392.2392454040541
 30
0.0
 10
130.1365396331808
 20
392.2727826853894
 30
0.0
 10
129.2274852917346
 20
392.2921220350433
 30
0.0
  0
SPLINE
  5
B1
330
1F
100
AcDbEntity
  8
0
  6
Continuous
 62
     7
370
    25
100
AcDbSpline
210
0.0
220
0.0
230
1.0
 70
     8
 71
     3
 72
     9
 73
     5
 74
     0
 42
0.000000001
 43
0.00000001
 40
0.0
 40
0.0
 40
0.0
 40
0.0
 40
0.619639601480569
 40
1.0
 40
1.0
 40
1.0
 40
1.0
 10
142.2348628194778
 20
409.2473690863499
 30
0.0
 10
143.2155168146469
 20
409.1520745408206
 30
0.0
 10
144.7981367647373
 20
408.9982842645027
 30
0.0
 10
146.0008897520647
 20
408.8503817486496
 30
0.0
 10
146.458369357645
 20
408.7941254887777
 30
0.0
  0
LINE
  5
B2
330
1F
100
AcDbEntity
  8
0
  6
Continuous
 62
     7
370
    25
100
AcDbLine
 10
151.9216783559
 20
408.033672126
 30
0.0
 11
151.7584602597
 21
408.0356441549
 31
0.0
  0
SPLINE
  5
B3
330
1F
100
AcDbEntity
  8
0
  6
Continuous
 62
     7
370
    25
100
AcDbSpline
210
0.0
220
0.0
230
1.0
 70
     8
 71
     3
 72
    18
 73
    14
 74
     0
 42
0.000000001
 43
0.00000001
 40
0.0
 40
0.0
 40
0.0
 40
0.0
 40
0.2499999999999998
 40
0.2499999999999998
 40
0.3749999999999997
 40
0.3749999999999997
 40
0.4999999999999997
 40
0.4999999999999997
 40
0.7499999999999998
 40
0.7499999999999998
 40
0.8749999999999999
 40
0.8749999999999999
 40
1.0
 40
1.0
 40
1.0
 40
1.0
 10
129.2275296951391
 20
409.8437090657616
 30
0.0
 10
130.3976038536305
 20
409.8437591820233
 30
0.0
 10
131.5594467143305
 20
409.8293202115954
 30
0.0
 10
133.2898983957428
 20
409.7868276260543
 30
0.0
 10
133.8618362818548
 20
409.7692430866115
 30
0.0
 10
134.9871541174554
 20
409.7280154986054
 30
0.0
 10
135.5419511559755
 20
409.7043386671695
 30
0.0
 10
137.1830857412838
 20
409.6249325827976
 30
0.0
 10
138.2463207567388
 20
409.5608177927156
 30
0.0
 10
139.7934642015616
 20
409.4511654528225
 30
0.0
 10
140.3012463594901
 20
409.4123433385177
 30
0.0
 10
141.2875321020472
 20
409.3319121064629
 30
0.0
 10
141.7677224825144
 20
409.2901891366146
 30
0.0
 10
142.2348628194777
 20
409.24736908635
 30
0.0
  0
LINE
  5
B4
330
1F
100
AcDbEntity
  8
0
  6
Continuous
 62
     7
370
    25
100
AcDbLine
 10
106.4942010598
 20
408.0332461098
 30
0.0
 11
107.6490021047
 21
408.2076064313
 31
0.0
  0
SPLINE
  5
B5
330
1F
100
AcDbEntity
  8
0
  6
Continuous
 62
     7
370
    25
100
AcDbSpline
210
0.0
220
0.0
230
1.0
 70
     8
 71
     3
 72
     9
 73
     5
 74
     0
 42
0.000000001
 43
0.00000001
 40
0.0
 40
0.0
 40
0.0
 40
0.0
 40
0.4195735142315595
 40
1.0
 40
1.0
 40
1.0
 40
1.0
 10
112.5498993339658
 20
408.8613634758765
 30
0.0
 10
113.0074403730629
 20
408.9152371742911
 30
0.0
 10
114.0979311299332
 20
409.0436382687053
 30
0.0
 10
115.4407746345049
 20
409.1725470281314
 30
0.0
 10
116.2201965708004
 20
409.24736908635
 30
0.0
  0
SPLINE
  5
B6
330
1F
100
AcDbEntity
  8
0
  6
Continuous
 62
     7
370
    25
100
AcDbSpline
210
0.0
220
0.0
230
1.0
 70
     8
 71
     3
 72
    18
 73
    14
 74
     0
 42
0.000000001
 43
0.00000001
 40
0.0
 40
0.0
 40
0.0
 40
0.0
 40
0.2499999999999999
 40
0.2499999999999999
 40
0.3749999999999998
 40
0.3749999999999998
 40
0.4999999999999997
 40
0.4999999999999997
 40
0.7499999999999998
 40
0.7499999999999998
 40
0.8749999999999999
 40
0.8749999999999999
 40
1.0
 40
1.0
 40
1.0
 40
1.0
 10
116.2201965708005
 20
409.24736908635
 30
0.0
 10
117.1544654873077
 20
409.3330081091448
 30
0.0
 10
118.1391269315344
 20
409.4141113316925
 30
0.0
 10
119.6913327111374
 20
409.5241594099761
 30
0.0
 10
120.2189184942475
 20
409.5587190673295
 30
0.0
 10
121.2854640285574
 20
409.6224682840276
 30
0.0
 10
121.8257113579046
 20
409.651751073236
 30
0.0
 10
123.4670652075404
 20
409.7310893927614
 30
0.0
 10
124.5886479671598
 20
409.7726415341742
 30
0.0
 10
126.3132239787891
 20
409.8150338188171
 30
0.0
 10
126.8953381828679
 20
409.8258134707721
 30
0.0
 10
128.0590590740999
 20
409.840136971402
 30
0.0
 10
128.642499383647
 20
409.8437341236025
 30
0.0
 10
129.2275296951391
 20
409.8437090657616
 30
0.0
  0
LINE
  5
B7
330
1F
100
AcDbEntity
  8
0
  6
Continuous
 62
     7
370
    25
100
AcDbLine
 10
134.0233612185
 20
389.3741869115
 30
0.0
 11
134.0233612185
 21
386.0313798009
 31
0.0
  0
SPLINE
  5
B8
330
1F
100
AcDbEntity
  8
0
  6
Continuous
 62
     7
370
    25
100
AcDbSpline
210
0.0
220
0.0
230
1.0
 70
     8
 71
     3
 72
     8
 73
     4
 74
     0
 42
0.000000001
 43
0.00000001
 40
0.0
 40
0.0
 40
0.0
 40
0.0
 40
1.0
 40
1.0
 40
1.0
 40
1.0
 10
134.0233612184518
 20
386.0313798009421
 30
0.0
 10
132.4425747840337
 20
385.6751386330435
 30
0.0
 10
130.846048776517
 20
385.4674977981358
 30
0.0
 10
129.2275296951391
 20
385.4674977981358
 30
0.0
  0
SPLINE
  5
B9
330
1F
100
AcDbEntity
  8
0
  6
Continuous
 62
     7
370
    25
100
AcDbSpline
210
0.0
220
0.0
230
1.0
 70
     8
 71
     3
 72
    10
 73
     6
 74
     0
 42
0.000000001
 43
0.00000001
 40
0.0
 40
0.0
 40
0.0
 40
0.0
 40
0.5
 40
0.5
 40
1.0
 40
1.0
 40
1.0
 40
1.0
 10
129.2275296951391
 20
385.4674977981358
 30
0.0
 10
128.4201548438632
 20
385.4674977981358
 30
0.0
 10
127.6033187070193
 20
385.5192259098272
 30
0.0
 10
126.0018491153727
 20
385.7136328474002
 30
0.0
 10
125.2124387467871
 20
385.8554345067555
 30
0.0
 10
124.4316981718264
 20
386.0313798009421
 30
0.0
  0
LINE
  5
BA
330
1F
100
AcDbEntity
  8
0
  6
Continuous
 62
     7
370
    25
100
AcDbLine
 10
124.4316981718
 20
386.0313798009
 30
0.0
 11
124.4316981718
 21
389.3741869115
 31
0.0
  0
LINE
  5
BB
330
1F
100
AcDbEntity
  8
0
  6
Continuous
 62
     7
370
    25
100
AcDbLine
 10
124.4316981718
 20
389.3741869115
 30
0.0
 11
134.0233612185
 21
389.3741869115
 31
0.0
  0
LWPOLYLINE
  5
BC
330
1F
100
AcDbEntity
  8
0
  6
Continuous
 62
     7
370
    25
100
AcDbPolyline
 90
       21
 70
   128
 43
0.0
 10
129.2275296951
 20
380.7433206005
 10
130.9483088106
 20
380.7724018308
 10
132.6267166333
 20
380.8589294453
 10
134.2214251923
 20
381.000772847
 10
135.6931674704
 20
381.1944393806
 10
137.0057042882
 20
381.4351603333
 10
138.1267166333
 20
381.7170083563
 10
139.0286014612
 20
382.0330434159
 10
139.6891513744
 20
382.37548368
 10
140.0921014417
 20
382.735897133
 10
140.2275296951
 20
383.1054091993
 10
140.0921014417
 20
383.4749212656
 10
139.6891513744
 20
383.8353347186
 10
139.0286014612
 20
384.1777749827
 10
138.1267166333
 20
384.4938100423
 10
137.0057042882
 20
384.7756580653
 10
135.6931674704
 20
385.016379018
 10
134.2214251923
 20
385.2100455516
 10
132.6267166333
 20
385.3518889533
 10
130.9483088106
 20
385.4384165678
 10
129.2275296951
 20
385.4674977981
  0
LWPOLYLINE
  5
BD
330
1F
100
AcDbEntity
  8
0
  6
Continuous
 62
     7
370
    25
100
AcDbPolyline
 90
       12
 70
   128
 43
0.0
 10
140.3233394272
 20
382.6879952465
 10
140.7267491479
 20
382.9326535015
 10
141.1016745787
 20
383.2970685076
 10
141.2275296951
 20
383.6692912021
 10
141.1016745787
 20
384.0415138966
 10
140.7267491479
 20
384.4059289027
 10
140.1106177833
 20
384.7548923048
 10
139.2662043656
 20
385.0810842981
 10
138.2112211864
 20
385.3776627273
 10
136.9677974175
 20
385.638406607
 10
135.5620149327
 20
385.857846612
 10
134.0233612185
 20
386.0313798009
  0
LWPOLYLINE
  5
BE
330
1F
100
AcDbEntity
  8
0
  6
Continuous
 62
     7
370
    25
100
AcDbPolyline
 90
       12
 70
   128
 43
0.0
 10
124.4316981718
 20
386.0313798009
 10
122.8930444575
 20
385.857846612
 10
121.4872619728
 20
385.638406607
 10
120.2438382038
 20
385.3776627273
 10
119.1888550247
 20
385.0810842981
 10
118.344441607
 20
384.7548923048
 10
117.7283102424
 20
384.4059289027
 10
117.3533848115
 20
384.0415138966
 10
117.2275296951
 20
383.6692912021
 10
117.3533848115
 20
383.2970685076
 10
117.7283102424
 20
382.9326535015
 10
118.1317199631
 20
382.6879952465
  0
LWPOLYLINE
  5
BF
330
1F
100
AcDbEntity
  8
0
  6
Continuous
 62
     7
370
    25
100
AcDbPolyline
 90
       21
 70
   128
 43
0.0
 10
129.2275296951
 20
385.4674977981
 10
127.5067505797
 20
385.4384165678
 10
125.828342757
 20
385.3518889533
 10
124.233634198
 20
385.2100455516
 10
122.7618919199
 20
385.016379018
 10
121.4493551021
 20
384.7756580653
 10
120.328342757
 20
384.4938100423
 10
119.4264579291
 20
384.1777749827
 10
118.7659080159
 20
383.8353347186
 10
118.3629579486
 20
383.4749212656
 10
118.2275296951
 20
383.1054091993
 10
118.3629579486
 20
382.735897133
 10
118.7659080159
 20
382.37548368
 10
119.4264579291
 20
382.0330434159
 10
120.328342757
 20
381.7170083563
 10
121.4493551021
 20
381.4351603333
 10
122.7618919199
 20
381.1944393806
 10
124.233634198
 20
381.000772847
 10
125.828342757
 20
380.8589294453
 10
127.5067505797
 20
380.7724018308
 10
129.2275296951
 20
380.7433206005
  0
ARC
  5
C0
330
1F
100
AcDbEntity
  8
0
  6
Continuous
 62
     7
370
    25
100
AcDbCircle
 10
129.2275296951
 20
336.3013737421
 30
0.0
 40
53.28905607820387
100
AcDbArc
 50
84.8365910358
 51
95.1634089642
  0
LINE
  5
C1
330
1F
100
AcDbEntity
  8
0
  6
Continuous
 62
     7
370
    25
100
AcDbLine
 10
106.465294371
 20
442.4077345728
 30
0.0
 11
106.6028481705
 21
442.4097060853
 31
0.0
  0
LINE
  5
C2
330
1F
100
AcDbEntity
  8
0
  6
Continuous
 62
     7
370
    25
100
AcDbLine
 10
151.9873805403
 20
442.4072057609
 30
0.0
 11
151.8429149211
 21
442.4077370285
 31
0.0
  0
SPLINE
  5
C3
330
1F
100
AcDbEntity
  8
0
  6
Continuous
 62
     7
370
    25
100
AcDbSpline
210
0.0
220
0.0
230
1.0
 70
     8
 71
     3
 72
    14
 73
    10
 74
     0
 42
0.000000001
 43
0.00000001
 40
0.0
 40
0.0
 40
0.0
 40
0.0
 40
0.4999999999999997
 40
0.4999999999999997
 40
0.7499999999999997
 40
0.7499999999999997
 40
0.8749999999999998
 40
0.8749999999999998
 40
1.0
 40
1.0
 40
1.0
 40
1.0
 10
105.2792234926488
 20
397.537278878483
 30
0.0
 10
105.275853775152
 20
386.8369430316228
 30
0.0
 10
105.2706556160717
 20
376.1350411956583
 30
0.0
 10
105.2570045054122
 20
360.0771748281625
 30
0.0
 10
105.2519740584084
 20
354.7241415385691
 30
0.0
 10
105.2462862884896
 20
346.6961828237374
 30
0.0
 10
105.2444002917294
 20
344.020205087161
 30
0.0
 10
105.2425225850367
 20
338.6698719969704
 30
0.0
 10
105.2432694201416
 20
335.9961491784431
 30
0.0
 10
105.2431079011198
 20
333.3216483899513
 30
0.0
  0
SPLINE
  5
C4
330
1F
100
AcDbEntity
  8
0
  6
Continuous
 62
     7
370
    25
100
AcDbSpline
210
0.0
220
0.0
230
1.0
 70
     8
 71
     3
 72
    28
 73
    24
 74
     0
 42
0.000000001
 43
0.00000001
 40
0.0
 40
0.0
 40
0.0
 40
0.0
 40
0.0513216771187389
 40
0.093257531775875
 40
0.1258319034948216
 40
0.1723136392439172
 40
0.214449852208402
 40
0.252513646307161
 40
0.2843745575477161
 40
0.3158712835509977
 40
0.3471190613958665
 40
0.3782359005369118
 40
0.409341314684361
 40
0.4405549718978189
 40
0.4719953329210669
 40
0.5037783501784492
 40
0.586382149177805
 40
0.6676355934608452
 40
0.7494614584648527
 40
0.8073384707729968
 40
0.8738011899245371
 40
0.9124870719756809
 40
0.9999999999999999
 40
0.9999999999999999
 40
0.9999999999999999
 40
0.9999999999999999
 10
105.3258844133866
 20
406.6638933653254
 30
0.0
 10
105.3244676885077
 20
406.6612993855462
 30
0.0
 10
105.3218933325469
 20
406.6565858187795
 30
0.0
 10
105.3185159453348
 20
406.6369871077275
 30
0.0
 10
105.3153253262923
 20
406.5999750032104
 30
0.0
 10
105.3121918771275
 20
406.528234753227
 30
0.0
 10
105.308996602765
 20
406.4119991401637
 30
0.0
 10
105.3062442303153
 20
406.2588196600567
 30
0.0
 10
105.3038289703815
 20
406.0799978796198
 30
0.0
 10
105.3016464855127
 20
405.8899510767721
 30
0.0
 10
105.2995605416496
 20
405.6755597563982
 30
0.0
 10
105.2975697064523
 20
405.4376224553204
 30
0.0
 10
105.2956724018403
 20
405.1759375664249
 30
0.0
 10
105.293866768494
 20
404.8905624096696
 30
0.0
 10
105.2921507155693
 20
404.5815344037929
 30
0.0
 10
105.2896652343337
 20
404.0731406982885
 30
0.0
 10
105.2867220281839
 20
403.3244100492605
 30
0.0
 10
105.283791820725
 20
402.2802800827539
 30
0.0
 10
105.2818758701129
 20
401.2678056061155
 30
0.0
 10
105.2806598405215
 20
400.2890084407342
 30
0.0
 10
105.280031982448
 20
399.5041878686658
 30
0.0
 10
105.2795632465833
 20
398.5714762559866
 30
0.0
 10
105.2793626256173
 20
397.9607725220313
 30
0.0
 10
105.2792235044311
 20
397.5372782602245
 30
0.0
  0
SPLINE
  5
C5
330
1F
100
AcDbEntity
  8
0
  6
Continuous
 62
     7
370
    25
100
AcDbSpline
210
0.0
220
0.0
230
1.0
 70
     8
 71
     3
 72
    24
 73
    20
 74
     0
 42
0.000000001
 43
0.00000001
 40
0.0
 40
0.0
 40
0.0
 40
0.0
 40
0.1250000000000004
 40
0.1250000000000004
 40
0.250000000000001
 40
0.250000000000001
 40
0.3750000000000014
 40
0.3750000000000014
 40
0.5000000000000019
 40
0.5000000000000019
 40
0.6250000000000023
 40
0.6250000000000023
 40
0.6875000000000018
 40
0.6875000000000018
 40
0.7500000000000013
 40
0.7500000000000013
 40
0.8750000000000007
 40
0.8750000000000007
 40
1.0
 40
1.0
 40
1.0
 40
1.0
 10
153.1758358858471
 20
397.5372782602246
 30
0.0
 10
153.1756436425979
 20
398.1485328479149
 30
0.0
 10
153.1754451501026
 20
398.7640463995259
 30
0.0
 10
153.1747044500785
 20
399.9746118751034
 30
0.0
 10
153.1741273388317
 20
400.5720853646928
 30
0.0
 10
153.1723892438974
 20
401.7281942166471
 30
0.0
 10
153.1712478660118
 20
402.2719065295058
 30
0.0
 10
153.1683119823816
 20
403.3134953059775
 30
0.0
 10
153.166544481001
 20
403.8051148413471
 30
0.0
 10
153.1624761248755
 20
404.6894977149868
 30
0.0
 10
153.1601119756712
 20
405.0924120757617
 30
0.0
 10
153.1562138961617
 20
405.6016429102107
 30
0.0
 10
153.1548533845753
 20
405.7559809266532
 30
0.0
 10
153.1519937250052
 20
406.0207056111936
 30
0.0
 10
153.1505020632228
 20
406.1387792033845
 30
0.0
 10
153.1458519554565
 20
406.4488342665414
 30
0.0
 10
153.1426582622466
 20
406.5449079443007
 30
0.0
 10
153.1360625439575
 20
406.6558720698995
 30
0.0
 10
153.1326555518947
 20
406.6597432034523
 30
0.0
 10
153.1291749768916
 20
406.6638933653253
 30
0.0
  0
SPLINE
  5
C6
330
1F
100
AcDbEntity
  8
0
  6
Continuous
 62
     7
370
    25
100
AcDbSpline
210
0.0
220
0.0
230
1.0
 70
     8
 71
     3
 72
    10
 73
     6
 74
     0
 42
0.000000001
 43
0.00000001
 40
0.0
 40
0.0
 40
0.0
 40
0.0
 40
0.4999999999999998
 40
0.4999999999999998
 40
1.0
 40
1.0
 40
1.0
 40
1.0
 10
153.2119514891584
 20
333.3216483899513
 30
0.0
 10
153.2113253362265
 20
344.0252696332828
 30
0.0
 10
153.2026140571035
 20
354.7286098092181
 30
0.0
 10
153.1843728741465
 20
376.1324940476492
 30
0.0
 10
153.179183238395
 20
386.8340627106141
 30
0.0
 10
153.1758358976294
 20
397.537278878483
 30
0.0
  0
SPLINE
  5
C7
330
1F
100
AcDbEntity
  8
0
  6
Continuous
 62
     7
370
    25
100
AcDbSpline
210
0.0
220
0.0
230
1.0
 70
     8
 71
     3
 72
    11
 73
     7
 74
     0
 42
0.000000001
 43
0.00000001
 40
0.0
 40
0.0
 40
0.0
 40
0.0
 40
0.309635539122458
 40
0.6396534068790972
 40
0.9696712746357391
 40
1.0
 40
1.0
 40
1.0
 40
1.0
 10
153.1291194831001
 20
406.6638409226595
 30
0.0
 10
153.113684579096
 20
406.822593851022
 30
0.0
 10
153.0817987401541
 20
407.1505499111271
 30
0.0
 10
152.8147405138511
 20
407.5736778534764
 30
0.0
 10
152.5524258075711
 20
407.8341297641169
 30
0.0
 10
152.3782145539335
 20
407.8910035140339
 30
0.0
 10
152.3635519891478
 20
407.8957903175574
 30
0.0
  0
SPLINE
  5
C8
330
1F
100
AcDbEntity
  8
0
  6
Continuous
 62
     7
370
    25
100
AcDbSpline
210
0.0
220
0.0
230
1.0
 70
     8
 71
     3
 72
    11
 73
     7
 74
     0
 42
0.000000001
 43
0.00000001
 40
0.0
 40
0.0
 40
0.0
 40
0.0
 40
0.3085601902047095
 40
0.6374338646597575
 40
0.9663075391147923
 40
1.0
 40
1.0
 40
1.0
 40
1.0
 10
105.3258844133866
 20
406.6638933653253
 30
0.0
 10
105.341326253639
 20
406.8226314419999
 30
0.0
 10
105.3732265188775
 20
407.150557820371
 30
0.0
 10
105.6401835199081
 20
407.5739172434147
 30
0.0
 10
105.9041358657367
 20
407.8350319459132
 30
0.0
 10
106.0801432673078
 20
407.8922143151051
 30
0.0
 10
106.0964992418871
 20
407.8975281449131
 30
0.0
  0
SPLINE
  5
C9
330
1F
100
AcDbEntity
  8
0
  6
Continuous
 62
     7
370
    25
100
AcDbSpline
210
0.0
220
0.0
230
1.0
 70
     8
 71
     3
 72
    12
 73
     8
 74
     0
 42
0.000000001
 43
0.00000001
 40
0.0
 40
0.0
 40
0.0
 40
0.0
 40
0.5000000000000012
 40
0.5000000000000012
 40
0.7500000000000006
 40
0.7500000000000006
 40
1.0
 40
1.0
 40
1.0
 40
1.0
 10
125.6591009012834
 20
422.1492993164293
 30
0.0
 10
126.2297016038375
 20
421.9245795930539
 30
0.0
 10
126.8103270762471
 20
421.7412481903094
 30
0.0
 10
127.7017884359964
 20
421.5509830822158
 30
0.0
 10
128.0023673143124
 20
421.5017022323127
 30
0.0
 10
128.6112549683355
 20
421.4350542299067
 30
0.0
 10
128.9196307351138
 20
421.4178705029473
 30
0.0
 10
129.2275296951391
 20
421.4178667555551
 30
0.0
  0
SPLINE
  5
CA
330
1F
100
AcDbEntity
  8
0
  6
Continuous
 62
     7
370
    25
100
AcDbSpline
210
0.0
220
0.0
230
1.0
 70
     8
 71
     3
 72
    14
 73
    10
 74
     0
 42
0.000000001
 43
0.00000001
 40
0.0
 40
0.0
 40
0.0
 40
0.0
 40
0.5000000000000245
 40
0.5000000000000245
 40
0.7500000000000369
 40
0.7500000000000369
 40
0.8750000000000184
 40
0.8750000000000184
 40
1.0
 40
1.0
 40
1.0
 40
1.0
 10
125.4637299126258
 20
421.8792819396667
 30
0.0
 10
125.4663338345244
 20
421.9463721733172
 30
0.0
 10
125.4752903265993
 20
422.0125227853684
 30
0.0
 10
125.5145241761713
 20
422.1044403618484
 30
0.0
 10
125.531863675773
 20
422.1346001443798
 30
0.0
 10
125.5741549903103
 20
422.1635397066166
 30
0.0
 10
125.5915221843015
 20
422.169537782643
 30
0.0
 10
125.6273215598208
 20
422.1673622059163
 30
0.0
 10
125.6443516133899
 20
422.1596968986852
 30
0.0
 10
125.6591009012859
 20
422.1492993164284
 30
0.0
  0
SPLINE
  5
CB
330
1F
100
AcDbEntity
  8
0
  6
Continuous
 62
     7
370
    25
100
AcDbSpline
210
0.0
220
0.0
230
1.0
 70
     8
 71
     3
 72
    10
 73
     6
 74
     0
 42
0.000000001
 43
0.00000001
 40
0.0
 40
0.0
 40
0.0
 40
0.0
 40
0.5
 40
0.5
 40
1.0
 40
1.0
 40
1.0
 40
1.0
 10
126.1624729232466
 20
419.6737861566911
 30
0.0
 10
125.9175804945842
 20
419.9985437380049
 30
0.0
 10
125.7349589468663
 20
420.3543361229969
 30
0.0
 10
125.4979003883991
 20
421.1121708948619
 30
0.0
 10
125.4488005462872
 20
421.494625749922
 30
0.0
 10
125.4637299126258
 20
421.8792819396667
 30
0.0
  0
SPLINE
  5
CC
330
1F
100
AcDbEntity
  8
0
  6
Continuous
 62
     7
370
    25
100
AcDbSpline
210
0.0
220
0.0
230
1.0
 70
     8
 71
     3
 72
    14
 73
    10
 74
     0
 42
0.000000001
 43
0.00000001
 40
0.0
 40
0.0
 40
0.0
 40
0.0
 40
0.1249999999999797
 40
0.1249999999999797
 40
0.2499999999999595
 40
0.2499999999999595
 40
0.4999999999999727
 40
0.4999999999999727
 40
1.0
 40
1.0
 40
1.0
 40
1.0
 10
132.7959584889923
 20
422.1492993164284
 30
0.0
 10
132.8107207309908
 20
422.1597060307427
 30
0.0
 10
132.827738768689
 20
422.1673808836592
 30
0.0
 10
132.8636904065202
 20
422.1695283921201
 30
0.0
 10
132.8809195667247
 20
422.1635390184529
 30
0.0
 10
132.9232818354448
 20
422.134521791972
 30
0.0
 10
132.9404995401801
 20
422.1044509175207
 30
0.0
 10
132.9795162357948
 20
422.0132602503206
 30
0.0
 10
132.988725670036
 20
421.9463692288281
 30
0.0
 10
132.9913294776524
 20
421.8792819396667
 30
0.0
  0
SPLINE
  5
CD
330
1F
100
AcDbEntity
  8
0
  6
Continuous
 62
     7
370
    25
100
AcDbSpline
210
0.0
220
0.0
230
1.0
 70
     8
 71
     3
 72
    10
 73
     6
 74
     0
 42
0.000000001
 43
0.00000001
 40
0.0
 40
0.0
 40
0.0
 40
0.0
 40
0.5
 40
0.5
 40
1.0
 40
1.0
 40
1.0
 40
1.0
 10
129.2275296951391
 20
421.4178667555157
 30
0.0
 10
129.8446614286838
 20
421.4178742665337
 30
0.0
 10
130.4493216953205
 20
421.4865744746762
 30
0.0
 10
131.637706163704
 20
421.7392904969821
 30
0.0
 10
132.2238254148468
 20
421.9239760990184
 30
0.0
 10
132.7959584889923
 20
422.1492993164284
 30
0.0
  0
SPLINE
  5
CE
330
1F
100
AcDbEntity
  8
0
  6
Continuous
 62
     7
370
    25
100
AcDbSpline
210
0.0
220
0.0
230
1.0
 70
     8
 71
     3
 72
    10
 73
     6
 74
     0
 42
0.000000001
 43
0.00000001
 40
0.0
 40
0.0
 40
0.0
 40
0.0
 40
0.5
 40
0.5
 40
1.0
 40
1.0
 40
1.0
 40
1.0
 10
132.9913294776524
 20
421.8792819396667
 30
0.0
 10
133.0062599431999
 20
421.4945974287257
 30
0.0
 10
132.9568785767707
 20
421.1103633392351
 30
0.0
 10
132.7189760256183
 20
420.3516580434249
 30
0.0
 10
132.5374667093398
 20
419.9985275773955
 30
0.0
 10
132.2925864670316
 20
419.6737861566911
 30
0.0
  0
LWPOLYLINE
  5
CF
330
1F
100
AcDbEntity
  8
0
  6
Continuous
 62
     7
370
    25
100
AcDbPolyline
 90
        3
 70
   128
 43
0.0
 10
105.2664948784
 20
431.6555516117
 10
105.2663143049
 20
431.5618565735
 10
105.2661360462
 20
431.4681625222
  0
SPLINE
  5
D0
330
1F
100
AcDbEntity
  8
0
  6
Continuous
 62
     7
370
    25
100
AcDbSpline
210
0.0
220
0.0
230
1.0
 70
     8
 71
     3
 72
    10
 73
     6
 74
     0
 42
0.000000001
 43
0.00000001
 40
0.0
 40
0.0
 40
0.0
 40
0.0
 40
0.5
 40
0.5
 40
1.0
 40
1.0
 40
1.0
 40
1.0
 10
105.2468951725908
 20
417.1541148823404
 30
0.0
 10
105.2629757962995
 20
416.755020642583
 30
0.0
 10
105.2830295229409
 20
416.3736810953471
 30
0.0
 10
105.3369079676719
 20
415.6465694793192
 30
0.0
 10
105.3705729011643
 20
415.3007261146628
 30
0.0
 10
105.418760337723
 20
414.9724982957066
 30
0.0
  0
SPLINE
  5
D1
330
1F
100
AcDbEntity
  8
0
  6
Continuous
 62
     7
370
    25
100
AcDbSpline
210
0.0
220
0.0
230
1.0
 70
     8
 71
     3
 72
     8
 73
     4
 74
     0
 42
0.000000001
 43
0.00000001
 40
0.0
 40
0.0
 40
0.0
 40
0.0
 40
1.0
 40
1.0
 40
1.0
 40
1.0
 10
105.2661208418386
 20
431.460637219799
 30
0.0
 10
105.2571100946332
 20
426.6907041503129
 30
0.0
 10
105.2532578704855
 20
421.9229703110948
 30
0.0
 10
105.2468952410761
 20
417.1541662121386
 30
0.0
  0
LINE
  5
D2
330
1F
100
AcDbEntity
  8
0
  6
Continuous
 62
     7
370
    25
100
AcDbLine
 10
153.1934779969
 20
428.0258580869
 30
0.0
 11
153.2078460624
 21
417.1542441282
 31
0.0
  0
SPLINE
  5
D3
330
1F
100
AcDbEntity
  8
0
  6
Continuous
 62
     7
370
    25
100
AcDbSpline
210
0.0
220
0.0
230
1.0
 70
     8
 71
     3
 72
    10
 73
     6
 74
     0
 42
0.000000001
 43
0.00000001
 40
0.0
 40
0.0
 40
0.0
 40
0.0
 40
0.5
 40
0.5
 40
1.0
 40
1.0
 40
1.0
 40
1.0
 10
153.0362990525552
 20
414.9724982957067
 30
0.0
 10
153.0844864891139
 20
415.300726114663
 30
0.0
 10
153.1181514226063
 20
415.6465694793191
 30
0.0
 10
153.1720298673373
 20
416.3736810953471
 30
0.0
 10
153.1920835939787
 20
416.7550206425831
 30
0.0
 10
153.2081642176874
 20
417.1541148823405
 30
0.0
  0
ARC
  5
D4
330
1F
100
AcDbEntity
  8
0
  6
Continuous
 62
     7
370
    25
100
AcDbCircle
 10
129.2275296951
 20
422.2438886809
 30
0.0
 40
4.000000000000016
100
AcDbArc
 50
219.9804082948
 51
320.0195917052
  0
ARC
  5
D5
330
1F
100
AcDbEntity
  8
0
  6
Continuous
 62
     7
370
    25
100
AcDbCircle
 10
129.2275296951
 20
422.2438886809
 30
0.0
 40
3.569682227408594
100
AcDbArc
 50
181.5184000833
 51
358.4815999166
  0
SPLINE
  5
D6
330
1F
100
AcDbEntity
  8
0
  6
Continuous
 62
     7
370
    25
100
AcDbSpline
210
0.0
220
0.0
230
1.0
 70
    24
 71
     3
 72
    26
 73
    22
 74
     0
 42
0.000000001
 43
0.00000001
 40
0.0
 40
0.0
 40
0.0
 40
0.0
 40
0.1250000000000007
 40
0.1250000000000007
 40
0.1875000000000009
 40
0.1875000000000009
 40
0.2500000000000011
 40
0.2500000000000011
 40
0.375000000000001
 40
0.375000000000001
 40
0.5000000000000009
 40
0.5000000000000009
 40
0.6250000000000007
 40
0.6250000000000007
 40
0.7500000000000006
 40
0.7500000000000006
 40
0.8125000000000004
 40
0.8125000000000004
 40
0.8750000000000003
 40
0.8750000000000003
 40
1.0
 40
1.0
 40
1.0
 40
1.0
 10
150.3942039268638
 20
412.2438886809255
 30
0.0
 10
149.9601789835936
 20
412.2438886809256
 30
0.0
 10
149.4523633513065
 20
412.2438886809255
 30
0.0
 10
148.5802752255255
 20
412.2438886809255
 30
0.0
 10
148.2711324499508
 20
412.2438886809256
 30
0.0
 10
147.6153116141192
 20
412.2438886809256
 30
0.0
 10
147.2690466844957
 20
412.2438886809255
 30
0.0
 10
146.1902396214629
 20
412.2438886809255
 30
0.0
 10
145.413073284493
 20
412.2438886809256
 30
0.0
 10
143.7465784526212
 20
412.2438886809256
 30
0.0
 10
142.8560921042224
 20
412.2438886809255
 30
0.0
 10
140.964507067063
 20
412.2438886809255
 30
0.0
 10
139.9856650603152
 20
412.2438886809255
 30
0.0
 10
137.965779057065
 20
412.2438886809256
 30
0.0
 10
136.9247147554603
 20
412.2438886809256
 30
0.0
 10
135.3162528117645
 20
412.2438886809256
 30
0.0
 10
134.7703613205282
 20
412.2438886809256
 30
0.0
 10
133.674123367512
 20
412.2438886809255
 30
0.0
 10
133.1236852199393
 20
412.2438886809256
 30
0.0
 10
131.4655552547005
 20
412.2438886809256
 30
0.0
 10
130.3510780962768
 20
412.2438886809256
 30
0.0
 10
129.2275296951391
 20
412.2438886809255
 30
0.0
  0
SPLINE
  5
D7
330
1F
100
AcDbEntity
  8
0
  6
Continuous
 62
     7
370
    25
100
AcDbSpline
210
0.0
220
0.0
230
1.0
 70
    24
 71
     3
 72
    26
 73
    22
 74
     0
 42
0.000000001
 43
0.00000001
 40
0.0
 40
0.0
 40
0.0
 40
0.0
 40
0.1249999999999999
 40
0.1249999999999999
 40
0.1874999999999998
 40
0.1874999999999998
 40
0.2499999999999997
 40
0.2499999999999997
 40
0.3749999999999996
 40
0.3749999999999996
 40
0.4999999999999994
 40
0.4999999999999994
 40
0.6249999999999992
 40
0.6249999999999992
 40
0.7499999999999992
 40
0.7499999999999992
 40
0.8124999999999993
 40
0.8124999999999993
 40
0.8749999999999996
 40
0.8749999999999996
 40
1.0
 40
1.0
 40
1.0
 40
1.0
 10
129.2275296951391
 20
412.2438886809255
 30
0.0
 10
128.1039812940014
 20
412.2438886809255
 30
0.0
 10
126.9895041355776
 20
412.2438886809256
 30
0.0
 10
125.3313741703388
 20
412.2438886809256
 30
0.0
 10
124.7809360227662
 20
412.2438886809255
 30
0.0
 10
123.68469806975
 20
412.2438886809255
 30
0.0
 10
123.1388065785137
 20
412.2438886809256
 30
0.0
 10
121.5303446348179
 20
412.2438886809256
 30
0.0
 10
120.4892803332132
 20
412.2438886809256
 30
0.0
 10
118.469394329963
 20
412.2438886809256
 30
0.0
 10
117.4905523232151
 20
412.2438886809255
 30
0.0
 10
115.5989672860558
 20
412.2438886809255
 30
0.0
 10
114.708480937657
 20
412.2438886809255
 30
0.0
 10
113.0419861057852
 20
412.2438886809255
 30
0.0
 10
112.2648197688153
 20
412.2438886809256
 30
0.0
 10
111.1860127057825
 20
412.2438886809256
 30
0.0
 10
110.839747776159
 20
412.2438886809256
 30
0.0
 10
110.1839269403274
 20
412.2438886809256
 30
0.0
 10
109.8747841647527
 20
412.2438886809256
 30
0.0
 10
109.0026960389716
 20
412.2438886809256
 30
0.0
 10
108.4948804066846
 20
412.2438886809255
 30
0.0
 10
108.0608554634144
 20
412.2438886809255
 30
0.0
  0
LINE
  5
D8
330
1F
100
AcDbEntity
  8
0
  6
Continuous
 62
     7
370
    25
100
AcDbLine
 10
153.2117580838
 20
333.3216215923
 30
0.0
 11
153.2237762408
 21
307.6438886809
 31
0.0
  0
SPLINE
  5
D9
330
1F
100
AcDbEntity
  8
0
  6
Continuous
 62
     7
370
    25
100
AcDbSpline
210
0.0
220
0.0
230
1.0
 70
    24
 71
     3
 72
    10
 73
     6
 74
     0
 42
0.000000001
 43
0.00000001
 40
0.0146611577316554
 40
0.0146611577316554
 40
0.0146611577316554
 40
0.0146611577316554
 40
0.3733767382841222
 40
0.4733767382841219
 40
1.0
 40
1.0
 40
1.0
 40
1.0
 10
153.2237768467382
 20
307.6438886809258
 30
0.0
 10
153.1908466963424
 20
307.6438886809258
 30
0.0
 10
153.0601108805031
 20
307.6438886809258
 30
0.0
 10
149.321679550726
 20
307.6438886809258
 30
0.0
 10
139.4794990905471
 20
307.6438886809258
 30
0.0
 10
129.2275296951391
 20
307.6438886809258
 30
0.0
  0
SPLINE
  5
DA
330
1F
100
AcDbEntity
  8
0
  6
Continuous
 62
     7
370
    25
100
AcDbSpline
210
0.0
220
0.0
230
1.0
 70
    24
 71
     3
 72
    10
 73
     6
 74
     0
 42
0.000000001
 43
0.00000001
 40
0.0146611577316554
 40
0.0146611577316554
 40
0.0146611577316554
 40
0.0146611577316554
 40
0.3733767382841222
 40
0.4733767382841219
 40
1.0
 40
1.0
 40
1.0
 40
1.0
 10
105.23128254354
 20
307.6438886809258
 30
0.0
 10
105.2642126939357
 20
307.6438886809258
 30
0.0
 10
105.3949485097751
 20
307.6438886809258
 30
0.0
 10
109.1333798395522
 20
307.6438886809258
 30
0.0
 10
118.975560299731
 20
307.6438886809258
 30
0.0
 10
129.2275296951391
 20
307.6438886809258
 30
0.0
  0
LINE
  5
DB
330
1F
100
AcDbEntity
  8
0
  6
Continuous
 62
     7
370
    25
100
AcDbLine
 10
105.2433013065
 20
333.3216215923
 30
0.0
 11
105.2312831495
 21
307.6438886809
 31
0.0
  0
SPLINE
  5
DC
330
1F
100
AcDbEntity
  8
0
  6
Continuous
 62
     7
370
    25
100
AcDbSpline
210
0.0
220
0.0
230
1.0
 70
     8
 71
     3
 72
    10
 73
     6
 74
     0
 42
0.000000001
 43
0.00000001
 40
0.0
 40
0.0
 40
0.0
 40
0.0
 40
0.5
 40
0.5
 40
1.0
 40
1.0
 40
1.0
 40
1.0
 10
105.4187380669101
 20
414.9726027102376
 30
0.0
 10
105.4691134652851
 20
414.6284166918327
 30
0.0
 10
105.5349437556396
 20
414.3041150078361
 30
0.0
 10
105.7188667600246
 20
413.6953000275334
 30
0.0
 10
105.836027469345
 20
413.4107851710762
 30
0.0
 10
105.9960247659549
 20
413.1466285137744
 30
0.0
  0
SPLINE
  5
DD
330
1F
100
AcDbEntity
  8
0
  6
Continuous
 62
     7
370
    25
100
AcDbSpline
210
0.0
220
0.0
230
1.0
 70
     8
 71
     3
 72
    10
 73
     6
 74
     0
 42
0.000000001
 43
0.00000001
 40
0.0
 40
0.0
 40
0.0
 40
0.0
 40
0.5000000000000001
 40
0.5000000000000001
 40
1.0
 40
1.0
 40
1.0
 40
1.0
 10
152.4590346243233
 20
413.1466285137744
 30
0.0
 10
152.619053054453
 20
413.4108200626654
 30
0.0
 10
152.736119425838
 20
413.6951072389256
 30
0.0
 10
152.9200617243717
 20
414.3038870604425
 30
0.0
 10
152.985942387883
 20
414.6283925248018
 30
0.0
 10
153.036321323368
 20
414.9726027102375
 30
0.0
  0
SPLINE
  5
DE
330
1F
100
AcDbEntity
  8
0
  6
Continuous
 62
     7
370
    25
100
AcDbSpline
210
0.0
220
0.0
230
1.0
 70
    24
 71
     3
 72
     8
 73
     4
 74
     0
 42
0.000000001
 43
0.00000001
 40
0.0
 40
0.0
 40
0.0
 40
0.0
 40
0.0003430621114162
 40
0.0003430621114162
 40
0.0003430621114162
 40
0.0003430621114162
 10
150.5241972624317
 20
412.2438886809255
 30
0.0
 10
150.481676513072
 20
412.2438886809255
 30
0.0
 10
150.4383437332825
 20
412.2438886809255
 30
0.0
 10
150.3942039268638
 20
412.2438886809255
 30
0.0
  0
SPLINE
  5
DF
330
1F
100
AcDbEntity
  8
0
  6
Continuous
 62
     7
370
    25
100
AcDbSpline
210
0.0
220
0.0
230
1.0
 70
    24
 71
     3
 72
     8
 73
     4
 74
     0
 42
0.000000001
 43
0.00000001
 40
0.0
 40
0.0
 40
0.0
 40
0.0
 40
0.0003430621114162
 40
0.0003430621114162
 40
0.0003430621114162
 40
0.0003430621114162
 10
108.0608554634144
 20
412.2438886809255
 30
0.0
 10
108.0167156569956
 20
412.2438886809255
 30
0.0
 10
107.9733828772061
 20
412.2438886809255
 30
0.0
 10
107.9308621278464
 20
412.2438886809255
 30
0.0
  0
SPLINE
  5
E0
330
1F
100
AcDbEntity
  8
0
  6
Continuous
 62
     7
370
    25
100
AcDbSpline
210
0.0
220
0.0
230
1.0
 70
     8
 71
     3
 72
    10
 73
     6
 74
     0
 42
0.000000001
 43
0.00000001
 40
0.0
 40
0.0
 40
0.0
 40
0.0
 40
0.1940962976855933
 40
0.6531879641990558
 40
1.0
 40
1.0
 40
1.0
 40
1.0
 10
152.0345854241007
 20
412.710028996174
 30
0.0
 10
151.9822115919619
 20
412.646050993641
 30
0.0
 10
151.8059590966798
 20
412.4307472411929
 30
0.0
 10
151.3379221706842
 20
412.2808683646563
 30
0.0
 10
150.7690187589044
 20
412.2550145803766
 30
0.0
 10
150.5241972624317
 20
412.2438886809255
 30
0.0
  0
ARC
  5
E1
330
1F
100
AcDbEntity
  8
0
  6
Continuous
 62
     7
370
    25
100
AcDbCircle
 10
152.2666120132
 20
413.1456999003
 30
0.0
 40
0.1924248517953046
100
AcDbArc
 50
274.3323010723
 51
0.2765019092
  0
SPLINE
  5
E2
330
1F
100
AcDbEntity
  8
0
  6
Continuous
 62
     7
370
    25
100
AcDbSpline
210
0.0
220
0.0
230
1.0
 70
     8
 71
     3
 72
    10
 73
     6
 74
     0
 42
0.000000001
 43
0.00000001
 40
0.0
 40
0.0
 40
0.0
 40
0.0
 40
0.4199196472626633
 40
0.8474069816553375
 40
1.0
 40
1.0
 40
1.0
 40
1.0
 10
107.9308621278464
 20
412.2438886809255
 30
0.0
 10
107.6164210888105
 20
412.2618747950467
 30
0.0
 10
106.9818722327733
 20
412.298171164551
 30
0.0
 10
106.5456969725346
 20
412.5064691107261
 30
0.0
 10
106.3825774005734
 20
412.7214436987536
 30
0.0
 10
106.3396679868703
 20
412.7779938320235
 30
0.0
  0
ARC
  5
E3
330
1F
100
AcDbEntity
  8
0
  6
Continuous
 62
     7
370
    25
100
AcDbCircle
 10
106.1881097156
 20
413.1455468975
 30
0.0
 40
0.1920879948272811
100
AcDbArc
 50
179.6773750831
 51
258.6332346073
  0
SPLINE
  5
E4
330
1F
100
AcDbEntity
  8
0
  6
Continuous
 62
     7
370
    25
100
AcDbSpline
210
0.0
220
0.0
230
1.0
 70
     8
 71
     3
 72
    22
 73
    18
 74
     0
 42
0.000000001
 43
0.00000001
 40
0.0
 40
0.0
 40
0.0
 40
0.0
 40
0.0502544667615493
 40
0.0920361054864895
 40
0.1253619388885753
 40
0.191721318181686
 40
0.251563150592522
 40
0.3760830850682411
 40
0.5029554873154015
 40
0.5848817146136316
 40
0.6670327474011036
 40
0.7509942825137448
 40
0.79089143641377
 40
0.832234711397169
 40
0.8751977777490197
 40
0.9332217085027588
 40
1.0
 40
1.0
 40
1.0
 40
1.0
 10
105.4412830455761
 20
441.2656112868685
 30
0.0
 10
105.4370822290036
 20
441.2621111601232
 30
0.0
 10
105.4293888472583
 20
441.2557010227742
 30
0.0
 10
105.4188952533514
 20
441.2343917331806
 30
0.0
 10
105.4070046503001
 20
441.1918202243821
 30
0.0
 10
105.3935459279153
 20
441.093768270889
 30
0.0
 10
105.3725802098927
 20
440.8154000414927
 30
0.0
 10
105.3474381635651
 20
440.1764396653917
 30
0.0
 10
105.323480686983
 20
439.1083322773334
 30
0.0
 10
105.3055797271002
 20
437.9664399162776
 30
0.0
 10
105.2925830271136
 20
436.8637891787673
 30
0.0
 10
105.2838862927809
 20
435.8634874039351
 30
0.0
 10
105.2783000948567
 20
435.0228851421519
 30
0.0
 10
105.2747778265496
 20
434.3733230873625
 30
0.0
 10
105.271512047493
 20
433.614222018343
 30
0.0
 10
105.2686565803989
 20
432.7049455757507
 30
0.0
 10
105.2672483723896
 20
432.0213337816115
 30
0.0
 10
105.2664948783953
 20
431.6555516117381
 30
0.0
  0
SPLINE
  5
E5
330
1F
100
AcDbEntity
  8
0
  6
Continuous
 62
     7
370
    25
100
AcDbSpline
210
0.0
220
0.0
230
1.0
 70
     8
 71
     3
 72
    16
 73
    12
 74
     0
 42
0.000000001
 43
0.00000001
 40
0.0
 40
0.0
 40
0.0
 40
0.0
 40
0.125
 40
0.125
 40
0.25
 40
0.25
 40
0.5
 40
0.5
 40
0.75
 40
0.75
 40
1.0
 40
1.0
 40
1.0
 40
1.0
 10
153.1885645118828
 20
431.6555516117381
 30
0.0
 10
153.187227446605
 20
432.3432280073847
 30
0.0
 10
153.1856323762408
 20
433.0243923675211
 30
0.0
 10
153.180554590817
 20
434.3615381618509
 30
0.0
 10
153.1770665702743
 20
435.0181013564517
 30
0.0
 10
153.1635322862483
 20
436.8726443226007
 30
0.0
 10
153.1503323879118
 20
438.0031949659713
 30
0.0
 10
153.117690346484
 20
439.814363427107
 30
0.0
 10
153.0980621716705
 20
440.5063134249002
 30
0.0
 10
153.0559688846612
 20
441.2314842388129
 30
0.0
 10
153.0346627450828
 20
441.2523881382834
 30
0.0
 10
153.013776344702
 20
441.2656112868684
 30
0.0
  0
ARC
  5
E6
330
1F
100
AcDbEntity
  8
0
  6
Continuous
 62
     7
370
    25
100
AcDbCircle
 10
151.8580537909
 20
441.2656100782
 30
0.0
 40
1.155722553762487
100
AcDbArc
 50
0.0000599202
 51
80.9117668391
  0
ARC
  5
E7
330
1F
100
AcDbEntity
  8
0
  6
Continuous
 62
     7
370
    25
100
AcDbCircle
 10
106.5970055993
 20
441.2656100782
 30
0.0
 40
1.155722553762609
100
AcDbArc
 50
99.0882331609
 51
179.9999400798
  0
SPLINE
  5
E8
330
1F
100
AcDbEntity
  8
0
  6
Continuous
 62
     8
370
    18
100
AcDbSpline
210
0.0
220
0.0
230
1.0
 70
     8
 71
     3
 72
    13
 73
     9
 74
     0
 42
0.000000001
 43
0.00000001
 40
0.0
 40
0.0
 40
0.0
 40
0.0
 40
0.1808160287948911
 40
0.3511306247084855
 40
0.5379103748633774
 40
0.7218596383764164
 40
0.9102149354399038
 40
0.9999999999999999
 40
0.9999999999999999
 40
0.9999999999999999
 40
0.9999999999999999
 10
106.3652747738286
 20
406.6454109993821
 30
0.0
 10
106.4712533565038
 20
405.3436837979036
 30
0.0
 10
106.677055497987
 20
402.8158311041935
 30
0.0
 10
107.7613802769548
 20
399.068799825523
 30
0.0
 10
109.5252540451936
 20
395.553044783258
 30
0.0
 10
112.1484926450388
 20
392.4656174342393
 30
0.0
 10
114.7840012728742
 20
390.3442732426812
 30
0.0
 10
116.6312339745004
 20
389.5545548539482
 30
0.0
 10
117.2275296951391
 20
389.2996299084898
 30
0.0
  0
SPLINE
  5
E9
330
1F
100
AcDbEntity
  8
0
  6
Continuous
 62
     8
370
    18
100
AcDbSpline
210
0.0
220
0.0
230
1.0
 70
     8
 71
     3
 72
    13
 73
     9
 74
     0
 42
0.000000001
 43
0.00000001
 40
0.0
 40
0.0
 40
0.0
 40
0.0
 40
0.1808160287948911
 40
0.3511306247084855
 40
0.5379103748633774
 40
0.7218596383764164
 40
0.9102149354399038
 40
0.9999999999999999
 40
0.9999999999999999
 40
0.9999999999999999
 40
0.9999999999999999
 10
152.0897846164496
 20
406.6454109993821
 30
0.0
 10
151.9838060337743
 20
405.3436837979036
 30
0.0
 10
151.7780038922911
 20
402.8158311041935
 30
0.0
 10
150.6936791133234
 20
399.068799825523
 30
0.0
 10
148.9298053450845
 20
395.553044783258
 30
0.0
 10
146.3065667452393
 20
392.4656174342393
 30
0.0
 10
143.671058117404
 20
390.3442732426812
 30
0.0
 10
141.8238254157777
 20
389.5545548539482
 30
0.0
 10
141.2275296951391
 20
389.2996299084898
 30
0.0
  0
SPLINE
  5
EA
330
1F
100
AcDbEntity
  8
0
  6
Continuous
 62
     8
370
    18
100
AcDbSpline
210
0.0
220
0.0
230
1.0
 70
     8
 71
     3
 72
    30
 73
    26
 74
     0
 42
0.000000001
 43
0.00000001
 40
0.0
 40
0.0
 40
0.0
 40
0.0
 40
0.1250000000000014
 40
0.1250000000000014
 40
0.1875000000000023
 40
0.1875000000000023
 40
0.2500000000000031
 40
0.2500000000000031
 40
0.312500000000004
 40
0.312500000000004
 40
0.3437500000000042
 40
0.3437500000000042
 40
0.3750000000000046
 40
0.3750000000000046
 40
0.4375000000000043
 40
0.4375000000000043
 40
0.500000000000004
 40
0.500000000000004
 40
0.5625000000000037
 40
0.5625000000000037
 40
0.6250000000000033
 40
0.6250000000000033
 40
0.750000000000002
 40
0.750000000000002
 40
1.0
 40
1.0
 40
1.0
 40
1.0
 10
129.2275296951402
 20
408.2817941074207
 30
0.0
 10
131.2789268978051
 20
408.2811279036686
 30
0.0
 10
133.3304609019523
 20
408.271128245161
 30
0.0
 10
136.4077451453782
 20
408.2343329751215
 30
0.0
 10
137.4336510027005
 20
408.2186224580649
 30
0.0
 10
139.4855501072258
 20
408.1788991853635
 30
0.0
 10
140.5110185244769
 20
408.1537319921855
 30
0.0
 10
142.5675646938081
 20
408.0992254057538
 30
0.0
 10
143.6063819906825
 20
408.0721929705636
 30
0.0
 10
145.1262858864582
 20
408.0414793458812
 30
0.0
 10
145.6233301216193
 20
408.0326870632201
 30
0.0
 10
146.5805412954877
 20
408.0189007793399
 30
0.0
 10
147.0420821885108
 20
408.01401589624
 30
0.0
 10
148.2693731384875
 20
408.0043891091942
 30
0.0
 10
148.9154609263082
 20
408.0030893591126
 30
0.0
 10
149.8220746849088
 20
408.0049235451784
 30
0.0
 10
150.1000879150655
 20
408.0091924932552
 30
0.0
 10
150.4651716057983
 20
408.0181562342566
 30
0.0
 10
150.5546828184898
 20
408.0227131955826
 30
0.0
 10
150.6521549573481
 20
408.031429331793
 30
0.0
 10
150.6668175522717
 20
408.0344302941726
 30
0.0
 10
150.7208956899337
 20
408.0397510167542
 30
0.0
 10
150.7508340361994
 20
408.0432760430924
 30
0.0
 10
150.8410682214664
 20
408.0446531542821
 30
0.0
 10
150.8986841039063
 20
408.0431069966912
 30
0.0
 10
150.9550534130893
 20
408.0426711855297
 30
0.0
  0
SPLINE
  5
EB
330
1F
100
AcDbEntity
  8
0
  6
Continuous
 62
     8
370
    18
100
AcDbSpline
210
0.0
220
0.0
230
1.0
 70
     8
 71
     3
 72
    14
 73
    10
 74
     0
 42
0.000000001
 43
0.00000001
 40
0.0
 40
0.0
 40
0.0
 40
0.0
 40
0.25
 40
0.25
 40
0.5
 40
0.5
 40
0.75
 40
0.75
 40
1.0
 40
1.0
 40
1.0
 40
1.0
 10
150.9550534130893
 20
408.0426711855297
 30
0.0
 10
151.1029910724836
 20
408.0179703586456
 30
0.0
 10
151.2565952407246
 20
407.9664727740131
 30
0.0
 10
151.5447315105624
 20
407.8034532343182
 30
0.0
 10
151.6785385664065
 20
407.6917779277964
 30
0.0
 10
151.8947112206014
 20
407.4255895266105
 30
0.0
 10
151.9765612038852
 20
407.2717113445854
 30
0.0
 10
152.0770095782555
 20
406.9562396266678
 30
0.0
 10
152.0959067378074
 20
406.7953243470616
 30
0.0
 10
152.0897413574145
 20
406.6454511214579
 30
0.0
  0
SPLINE
  5
EC
330
1F
100
AcDbEntity
  8
0
  6
Continuous
 62
     8
370
    18
100
AcDbSpline
210
0.0
220
0.0
230
1.0
 70
     8
 71
     3
 72
    35
 73
    31
 74
     0
 42
0.000000001
 43
0.00000001
 40
0.0
 40
0.0
 40
0.0
 40
0.0
 40
0.096819436545353
 40
0.1703961771368463
 40
0.2207380534186157
 40
0.2479116749227523
 40
0.3087043658044432
 40
0.3616691754616851
 40
0.4068518199074378
 40
0.4443033495249589
 40
0.4740895224761122
 40
0.4962346416741859
 40
0.5309778708402615
 40
0.5589037814577901
 40
0.5934380802046022
 40
0.6225470940261234
 40
0.6438417881059347
 40
0.6652813381542548
 40
0.6867611701718528
 40
0.7055456120608204
 40
0.7266387930728253
 40
0.7500303412321747
 40
0.7698399264013011
 40
0.7922706834901285
 40
0.8172996654140494
 40
0.8449142614513193
 40
0.8751143708028937
 40
0.9183810778400859
 40
0.9599154751494414
 40
1.0
 40
1.0
 40
1.0
 40
1.0
 10
107.5000059771888
 20
408.0426711855297
 30
0.0
 10
107.5221686495865
 20
408.0428443801576
 30
0.0
 10
107.5611735724249
 20
408.0431491919136
 30
0.0
 10
107.612936042466
 20
408.0433959652665
 30
0.0
 10
107.6489327382163
 20
408.043847166162
 30
0.0
 10
107.6819757322648
 20
408.0438032775654
 30
0.0
 10
107.7190609413875
 20
408.0424344722953
 30
0.0
 10
107.7645902859846
 20
408.0381128454346
 30
0.0
 10
107.7905757066683
 20
408.0325462609622
 30
0.0
 10
107.8615793795177
 20
408.0260718318224
 30
0.0
 10
107.9857887078359
 20
408.0194422045061
 30
0.0
 10
108.1892094413938
 20
408.0125463170142
 30
0.0
 10
108.5140743617979
 20
408.0070354680338
 30
0.0
 10
109.0899379714451
 20
408.0030305872477
 30
0.0
 10
109.8928058277285
 20
408.0044179606274
 30
0.0
 10
110.8779076584241
 20
408.0088466125048
 30
0.0
 10
111.8621794025936
 20
408.0192290507887
 30
0.0
 10
112.8208771780272
 20
408.0329467354672
 30
0.0
 10
113.7884428771049
 20
408.0500116433872
 30
0.0
 10
114.7757403781435
 20
408.0721218827384
 30
0.0
 10
115.8048915232024
 20
408.0973403493126
 30
0.0
 10
116.8567891821625
 20
408.1250021793012
 30
0.0
 10
117.9325152901163
 20
408.152904858562
 30
0.0
 10
119.0358122954528
 20
408.1785933997264
 30
0.0
 10
120.2677996904452
 20
408.2039576358077
 30
0.0
 10
121.6277764810636
 20
408.2275615627422
 30
0.0
 10
123.2875863021992
 20
408.2504599713174
 30
0.0
 10
125.1764273877946
 20
408.2681571587834
 30
0.0
 10
127.2280282858775
 20
408.2793894082688
 30
0.0
 10
128.5689693511467
 20
408.2810020889111
 30
0.0
 10
129.2275296951391
 20
408.2817941054627
 30
0.0
  0
SPLINE
  5
ED
330
1F
100
AcDbEntity
  8
0
  6
Continuous
 62
     8
370
    18
100
AcDbSpline
210
0.0
220
0.0
230
1.0
 70
     8
 71
     3
 72
    14
 73
    10
 74
     0
 42
0.000000001
 43
0.00000001
 40
0.0
 40
0.0
 40
0.0
 40
0.0
 40
0.25
 40
0.25
 40
0.5
 40
0.5
 40
0.75
 40
0.75
 40
1.0
 40
1.0
 40
1.0
 40
1.0
 10
106.3652747352011
 20
406.645449359072
 30
0.0
 10
106.359101917122
 20
406.7953286502546
 30
0.0
 10
106.3779948239053
 20
406.9562528076514
 30
0.0
 10
106.4784443380931
 20
407.2717409152572
 30
0.0
 10
106.560299796711
 20
407.4256262839835
 30
0.0
 10
106.7764882298533
 20
407.691819441599
 30
0.0
 10
106.9103052556646
 20
407.8034921436589
 30
0.0
 10
107.1984564855871
 20
407.9664970962681
 30
0.0
 10
107.3520627871666
 20
408.0179696941835
 30
0.0
 10
107.5000032833852
 20
408.0426711650603
 30
0.0
  0
LINE
  5
EE
330
1F
100
AcDbEntity
  8
0
  6
Continuous
 62
     8
370
    18
100
AcDbLine
 10
151.7584602597
 20
408.0356441549
 30
0.0
 11
151.420269696
 21
408.039730231
 31
0.0
  0
SPLINE
  5
EF
330
1F
100
AcDbEntity
  8
0
  6
Continuous
 62
     8
370
    18
100
AcDbSpline
210
0.0
220
0.0
230
1.0
 70
     8
 71
     3
 72
     8
 73
     4
 74
     0
 42
0.000000001
 43
0.00000001
 40
0.0
 40
0.0
 40
0.0
 40
0.0
 40
1.0
 40
1.0
 40
1.0
 40
1.0
 10
150.9551707247722
 20
408.042652267369
 30
0.0
 10
151.1293443258499
 20
408.0413257707943
 30
0.0
 10
151.2851930130305
 20
408.0403412593664
 30
0.0
 10
151.420503812521
 20
408.0396948055239
 30
0.0
  0
SPLINE
  5
F0
330
1F
100
AcDbEntity
  8
0
  6
Continuous
 62
     8
370
    18
100
AcDbSpline
210
0.0
220
0.0
230
1.0
 70
     8
 71
     3
 72
    14
 73
    10
 74
     0
 42
0.000000001
 43
0.00000001
 40
0.0
 40
0.0
 40
0.0
 40
0.0
 40
0.25
 40
0.25
 40
0.5
 40
0.5
 40
0.75
 40
0.75
 40
1.0
 40
1.0
 40
1.0
 40
1.0
 10
107.0345555777572
 20
408.0396948055239
 30
0.0
 10
107.068544479387
 20
408.0398835045914
 30
0.0
 10
107.103693629047
 20
408.0400729967033
 30
0.0
 10
107.1763764896161
 20
408.0404820102839
 30
0.0
 10
107.2139451404809
 20
408.0407015032932
 30
0.0
 10
107.2915619990554
 20
408.0411984165448
 30
0.0
 10
107.331623797963
 20
408.0414774233993
 30
0.0
 10
107.4141425970786
 20
408.0420586372888
 30
0.0
 10
107.4565014316061
 20
408.0423543382323
 30
0.0
 10
107.4998886655059
 20
408.042652267369
 30
0.0
  0
SPLINE
  5
F1
330
1F
100
AcDbEntity
  8
0
  6
Continuous
 62
     8
370
    18
100
AcDbSpline
210
0.0
220
0.0
230
1.0
 70
     8
 71
     3
 72
     9
 73
     5
 74
     0
 42
0.000000001
 43
0.00000001
 40
0.0
 40
0.0
 40
0.0
 40
0.0
 40
0.2080874021855359
 40
0.9999999999999999
 40
0.9999999999999999
 40
0.9999999999999999
 40
0.9999999999999999
 10
106.6597914622182
 20
408.0368500074901
 30
0.0
 10
106.6786225513046
 20
408.0373142973937
 30
0.0
 10
106.7691186067536
 20
408.0395455228243
 30
0.0
 10
106.9173797930457
 20
408.039648601608
 30
0.0
 10
107.0347896942374
 20
408.0397302309955
 30
0.0
  0
SPLINE
  5
F2
330
1F
100
AcDbEntity
  8
0
  6
Continuous
 62
     8
370
    18
100
AcDbSpline
210
0.0
220
0.0
230
1.0
 70
     8
 71
     3
 72
     8
 73
     4
 74
     0
 42
0.000000001
 43
0.00000001
 40
0.0
 40
0.0
 40
0.0
 40
0.0
 40
1.0
 40
1.0
 40
1.0
 40
1.0
 10
152.5650103346834
 20
406.650470489248
 30
0.0
 10
152.4267847958723
 20
406.6487267611071
 30
0.0
 10
152.2681280930931
 20
406.6474201594791
 30
0.0
 10
152.0897830373504
 20
406.6453727154708
 30
0.0
  0
SPLINE
  5
F3
330
1F
100
AcDbEntity
  8
0
  6
Continuous
 62
     8
370
    18
100
AcDbSpline
210
0.0
220
0.0
230
1.0
 70
     8
 71
     3
 72
    14
 73
    10
 74
     0
 42
0.000000001
 43
0.00000001
 40
0.0
 40
0.0
 40
0.0
 40
0.0
 40
0.25
 40
0.25
 40
0.5
 40
0.5
 40
0.75
 40
0.75
 40
1.0
 40
1.0
 40
1.0
 40
1.0
 10
151.420503812521
 20
408.0396948055239
 30
0.0
 10
151.5685249966054
 20
408.0154649267456
 30
0.0
 10
151.7222108409306
 20
407.9645888032312
 30
0.0
 10
152.0108514028484
 20
407.8031527933097
 30
0.0
 10
152.1450975670598
 20
407.6924422584985
 30
0.0
 10
152.3628257632589
 20
407.428159531715
 30
0.0
 10
152.445799984726
 20
407.2752037300467
 30
0.0
 10
152.5490201816576
 20
406.9609915158241
 30
0.0
 10
152.5695495773016
 20
406.8004017866374
 30
0.0
 10
152.5650103346834
 20
406.650470489248
 30
0.0
  0
SPLINE
  5
F4
330
1F
100
AcDbEntity
  8
0
  6
Continuous
 62
     8
370
    18
100
AcDbSpline
210
0.0
220
0.0
230
1.0
 70
     8
 71
     3
 72
    14
 73
    10
 74
     0
 42
0.000000001
 43
0.00000001
 40
0.0
 40
0.0
 40
0.0
 40
0.0
 40
0.25
 40
0.25
 40
0.5
 40
0.5
 40
0.75
 40
0.75
 40
1.0
 40
1.0
 40
1.0
 40
1.0
 10
105.8903334602671
 20
406.6504794491598
 30
0.0
 10
105.885782255275
 20
406.8003904579306
 30
0.0
 10
105.9062939567786
 20
406.9609602895905
 30
0.0
 10
106.0094682472282
 20
407.2751423998142
 30
0.0
 10
106.0924142976266
 20
407.428088302197
 30
0.0
 10
106.3100843789023
 20
407.6923676635714
 30
0.0
 10
106.4443009371012
 20
407.8030847997592
 30
0.0
 10
106.7328912940143
 20
407.9645473574146
 30
0.0
 10
106.8865566869162
 20
408.0154431488842
 30
0.0
 10
107.0345637438367
 20
408.0396946975192
 30
0.0
  0
SPLINE
  5
F5
330
1F
100
AcDbEntity
  8
0
  6
Continuous
 62
     8
370
    18
100
AcDbSpline
210
0.0
220
0.0
230
1.0
 70
     8
 71
     3
 72
    15
 73
    11
 74
     0
 42
0.000000001
 43
0.00000001
 40
0.0
 40
0.0
 40
0.0
 40
0.0
 40
0.1805107360984557
 40
0.3514086095991041
 40
0.5348278395702157
 40
0.7121231285021288
 40
0.800400393996628
 40
0.8895170934622223
 40
0.9804628587099008
 40
1.0
 40
1.0
 40
1.0
 40
1.0
 10
105.8900496675653
 20
406.6504509590425
 30
0.0
 10
105.9874616003582
 20
405.1622101779429
 30
0.0
 10
106.177097921172
 20
402.2649829274285
 30
0.0
 10
107.213590433035
 20
397.9530661611012
 30
0.0
 10
108.9203601711188
 20
393.8831545576985
 30
0.0
 10
111.0599867613486
 20
390.8130766707322
 30
0.0
 10
113.1229865130628
 20
388.7182724268911
 30
0.0
 10
114.8677094427978
 20
387.3427047891523
 30
0.0
 10
116.2511230765822
 20
386.4232564695154
 30
0.0
 10
117.0808123666807
 20
386.0368984029876
 30
0.0
 10
117.2275296951391
 20
385.9685771361883
 30
0.0
  0
SPLINE
  5
F6
330
1F
100
AcDbEntity
  8
0
  6
Continuous
 62
     8
370
    18
100
AcDbSpline
210
0.0
220
0.0
230
1.0
 70
     8
 71
     3
 72
    15
 73
    11
 74
     0
 42
0.000000001
 43
0.00000001
 40
0.0
 40
0.0
 40
0.0
 40
0.0
 40
0.1805107360984557
 40
0.3514086095991041
 40
0.5348278395702157
 40
0.7121231285021288
 40
0.800400393996628
 40
0.8895170934622223
 40
0.9804628587099008
 40
1.0
 40
1.0
 40
1.0
 40
1.0
 10
152.5650097227129
 20
406.6504509590425
 30
0.0
 10
152.46759778992
 20
405.1622101779429
 30
0.0
 10
152.2779614691061
 20
402.2649829274285
 30
0.0
 10
151.2414689572432
 20
397.9530661611012
 30
0.0
 10
149.5346992191593
 20
393.8831545576985
 30
0.0
 10
147.3950726289296
 20
390.8130766707322
 30
0.0
 10
145.3320728772154
 20
388.7182724268911
 30
0.0
 10
143.5873499474804
 20
387.3427047891523
 30
0.0
 10
142.2039363136959
 20
386.4232564695154
 30
0.0
 10
141.3742470235974
 20
386.0368984029876
 30
0.0
 10
141.2275296951391
 20
385.9685771361883
 30
0.0
  0
SPLINE
  5
F7
330
1F
100
AcDbEntity
  8
0
  6
Continuous
 62
     8
370
    18
100
AcDbSpline
210
0.0
220
0.0
230
1.0
 70
     8
 71
     3
 72
    31
 73
    27
 74
     0
 42
0.000000001
 43
0.00000001
 40
0.0
 40
0.0
 40
0.0
 40
0.0
 40
0.0328670821445932
 40
0.0608240725504226
 40
0.0838554416883681
 40
0.1019520784733158
 40
0.1151118443386605
 40
0.1233329164832166
 40
0.1574154214644924
 40
0.189549248346264
 40
0.2198323680708034
 40
0.2483488389357779
 40
0.2981518162263346
 40
0.340556463317731
 40
0.3752290146364619
 40
0.4389560596180566
 40
0.4702647543288793
 40
0.5022621470455401
 40
0.5320024215783781
 40
0.5648286015643506
 40
0.5909596571189658
 40
0.6270615145918991
 40
0.682838895564781
 40
0.7514800023521243
 40
0.8718960413785697
 40
1.0
 40
1.0
 40
1.0
 40
1.0
 10
107.9753393175976
 20
442.4063394840265
 30
0.0
 10
107.9837890708241
 20
442.4053152590257
 30
0.0
 10
107.999426248503
 20
442.4034198204382
 30
0.0
 10
108.0358418504141
 20
442.3999914690875
 30
0.0
 10
108.0785493643582
 20
442.3967643480538
 30
0.0
 10
108.1229703322941
 20
442.3939562159605
 30
0.0
 10
108.162210906678
 20
442.3917680776341
 30
0.0
 10
108.2266760102284
 20
442.3888509460347
 30
0.0
 10
108.3404864438891
 20
442.3855235673733
 30
0.0
 10
108.5431036075498
 20
442.3808199493386
 30
0.0
 10
108.7922996439065
 20
442.3762954504384
 30
0.0
 10
109.164640872227
 20
442.3705355077347
 30
0.0
 10
109.7059287736214
 20
442.3642722058561
 30
0.0
 10
110.4467683915631
 20
442.3581987133879
 30
0.0
 10
111.4227752334074
 20
442.3530456422733
 30
0.0
 10
112.5158685979322
 20
442.3538129592997
 30
0.0
 10
113.6861848834764
 20
442.3624966044199
 30
0.0
 10
114.572539379869
 20
442.3721897969613
 30
0.0
 10
115.4887518591773
 20
442.3859664864819
 30
0.0
 10
116.3548128345486
 20
442.4015404674778
 30
0.0
 10
117.285710232414
 20
442.4204548604642
 30
0.0
 10
118.4422686556607
 20
442.4423155377829
 30
0.0
 10
120.0163818735407
 20
442.4676549682606
 30
0.0
 10
122.4181263329321
 20
442.4957844588492
 30
0.0
 10
125.5306289668111
 20
442.5167747727797
 30
0.0
 10
127.9700740294029
 20
442.5187252776605
 30
0.0
 10
129.2275284488266
 20
442.5197306993525
 30
0.0
  0
SPLINE
  5
F8
330
1F
100
AcDbEntity
  8
0
  6
Continuous
 62
     8
370
    18
100
AcDbSpline
210
0.0
220
0.0
230
1.0
 70
     8
 71
     3
 72
    14
 73
    10
 74
     0
 42
0.000000001
 43
0.00000001
 40
0.0
 40
0.0
 40
0.0
 40
0.0
 40
0.25
 40
0.25
 40
0.5
 40
0.5
 40
0.75
 40
0.75
 40
1.0
 40
1.0
 40
1.0
 40
1.0
 10
107.0230909403231
 20
441.2475006218856
 30
0.0
 10
107.019430866199
 20
441.3724538694043
 30
0.0
 10
107.0366165482415
 20
441.5062180450905
 30
0.0
 10
107.1225815153396
 20
441.7679200348591
 30
0.0
 10
107.1915925907925
 20
441.8953086642668
 30
0.0
 10
107.3726069224911
 20
442.1155831448111
 30
0.0
 10
107.484193037374
 20
442.2079617766881
 30
0.0
 10
107.7242243065695
 20
442.3429779595425
 30
0.0
 10
107.852081744976
 20
442.3857146658225
 30
0.0
 10
107.9753392744261
 20
442.4063394895313
 30
0.0
  0
SPLINE
  5
F9
330
1F
100
AcDbEntity
  8
0
  6
Continuous
 62
     8
370
    18
100
AcDbSpline
210
0.0
220
0.0
230
1.0
 70
     8
 71
     3
 72
    30
 73
    26
 74
     0
 42
0.000000001
 43
0.00000001
 40
0.0
 40
0.0
 40
0.0
 40
0.0
 40
0.1250000000000003
 40
0.1250000000000003
 40
0.2500000000000006
 40
0.2500000000000006
 40
0.3750000000000007
 40
0.3750000000000007
 40
0.4375000000000009
 40
0.4375000000000009
 40
0.5000000000000011
 40
0.5000000000000011
 40
0.5625000000000011
 40
0.5625000000000011
 40
0.6250000000000012
 40
0.6250000000000012
 40
0.6875000000000012
 40
0.6875000000000012
 40
0.7500000000000013
 40
0.7500000000000013
 40
0.8125000000000013
 40
0.8125000000000013
 40
0.8750000000000013
 40
0.8750000000000013
 40
1.0
 40
1.0
 40
1.0
 40
1.0
 10
129.2275326053985
 20
442.5209623192698
 30
0.0
 10
130.4460748957464
 20
442.52019065543
 30
0.0
 10
131.6654802303929
 20
442.5180138656703
 30
0.0
 10
134.1050198914611
 20
442.5080676272793
 30
0.0
 10
135.3247841454155
 20
442.5003861266837
 30
0.0
 10
137.7646760242088
 20
442.4768599684956
 30
0.0
 10
138.9855190417983
 20
442.4600589662793
 30
0.0
 10
140.8155508597531
 20
442.4274734693803
 30
0.0
 10
141.425423848113
 20
442.4148986566193
 30
0.0
 10
142.6432860558347
 20
442.3915768142736
 30
0.0
 10
143.252189901832
 20
442.3809573441143
 30
0.0
 10
144.4644470164947
 20
442.3652668154753
 30
0.0
 10
145.0633781584806
 20
442.3597104677092
 30
0.0
 10
146.2014802168341
 20
442.3535772747712
 30
0.0
 10
146.74226221319
 20
442.3533396150142
 30
0.0
 10
147.6885509472601
 20
442.355897207343
 30
0.0
 10
148.1043963736647
 20
442.3587159655884
 30
0.0
 10
148.8186013584946
 20
442.3649456938872
 30
0.0
 10
149.112397043498
 20
442.3682388408674
 30
0.0
 10
149.592460036741
 20
442.3748760548198
 30
0.0
 10
149.7796275349303
 20
442.378209756607
 30
0.0
 10
150.0733096928372
 20
442.3844993626739
 30
0.0
 10
150.1803237328046
 20
442.3872720582817
 30
0.0
 10
150.4129407983346
 20
442.3962537076083
 30
0.0
 10
150.4511542078053
 20
442.4027973555462
 30
0.0
 10
150.4797200726805
 20
442.4063394840265
 30
0.0
  0
SPLINE
  5
FA
330
1F
100
AcDbEntity
  8
0
  6
Continuous
 62
     8
370
    18
100
AcDbSpline
210
0.0
220
0.0
230
1.0
 70
     8
 71
     3
 72
    14
 73
    10
 74
     0
 42
0.000000001
 43
0.00000001
 40
0.0
 40
0.0
 40
0.0
 40
0.0
 40
0.25
 40
0.25
 40
0.5
 40
0.5
 40
0.75
 40
0.75
 40
1.0
 40
1.0
 40
1.0
 40
1.0
 10
150.4797200726805
 20
442.4063394840265
 30
0.0
 10
150.6029781436127
 20
442.3857147637879
 30
0.0
 10
150.7308363183276
 20
442.3429348668503
 30
0.0
 10
150.9708509030571
 20
442.2078934936511
 30
0.0
 10
151.0824244354181
 20
442.1155109750883
 30
0.0
 10
151.2634230058309
 20
441.8952463158347
 30
0.0
 10
151.3324315566493
 20
441.7678710157138
 30
0.0
 10
151.4184108999856
 20
441.5061968716556
 30
0.0
 10
151.4356132850221
 20
441.3724465634547
 30
0.0
 10
151.4319754854801
 20
441.2475004194733
 30
0.0
  0
SPLINE
  5
FB
330
1F
100
AcDbEntity
  8
0
  6
Continuous
 62
     8
370
    18
100
AcDbSpline
210
0.0
220
0.0
230
1.0
 70
     8
 71
     3
 72
    14
 73
    10
 74
     0
 42
0.000000001
 43
0.00000001
 40
0.0622261302120969
 40
0.0622261302120969
 40
0.0622261302120969
 40
0.0622261302120969
 40
0.06568173068945
 40
0.078273995730059
 40
0.0925423581089964
 40
0.1282136236232542
 40
0.1527953535513101
 40
0.2068112086501795
 40
0.2167924849131471
 40
0.2167924849131471
 40
0.2167924849131471
 40
0.2167924849131471
 10
151.4319725479603
 20
441.2473998386433
 30
0.0
 10
151.4314341776941
 20
441.2289701795926
 30
0.0
 10
151.4286228497869
 20
441.1433662907703
 30
0.0
 10
151.4204956523947
 20
440.9812967794471
 30
0.0
 10
151.3852130147064
 20
440.6531982813053
 30
0.0
 10
151.2974855487868
 20
440.2826295509021
 30
0.0
 10
151.082153088747
 20
439.750307265317
 30
0.0
 10
150.8358110388164
 20
439.3729913896263
 30
0.0
 10
150.6140802440087
 20
439.11991600564
 30
0.0
 10
150.5784472185591
 20
439.0809146975048
 30
0.0
  0
SPLINE
  5
FC
330
1F
100
AcDbEntity
  8
0
  6
Continuous
 62
     8
370
    18
100
AcDbSpline
210
0.0
220
0.0
230
1.0
 70
     8
 71
     3
 72
    20
 73
    16
 74
     0
 42
0.000000001
 43
0.00000001
 40
0.2167924849131471
 40
0.2167924849131471
 40
0.2167924849131471
 40
0.2167924849131471
 40
0.266172872245441
 40
0.3070692811368286
 40
0.3822762262120815
 40
0.5201028327066662
 40
0.6750385335569682
 40
0.7501316763293785
 40
0.7501316763293785
 40
0.8087475145084295
 40
0.8087475145084295
 40
0.8796427203394956
 40
0.8796427203394956
 40
0.966070536463252
 40
1.0
 40
1.0
 40
1.0
 40
1.0
 10
150.5784472185591
 20
439.0809146975048
 30
0.0
 10
150.402159882935
 20
438.887963450446
 30
0.0
 10
150.0328485169821
 20
438.5562178889886
 30
0.0
 10
149.2081890928006
 20
438.0143234412957
 30
0.0
 10
147.6675073373143
 20
437.3066538242893
 30
0.0
 10
144.7821445156345
 20
436.5770941672018
 30
0.0
 10
141.2001338055873
 20
436.1702519296579
 30
0.0
 10
138.7275431526341
 20
436.0278677838191
 30
0.0
 10
137.2562690154543
 20
435.9620916204843
 30
0.0
 10
136.5996415924813
 20
435.9390694127622
 30
0.0
 10
135.1290746458248
 20
435.8985259764164
 30
0.0
 10
134.3109964715107
 20
435.8831674852833
 30
0.0
 10
132.4771937843243
 20
435.8597758235366
 30
0.0
 10
131.0571030646034
 20
435.8518506522176
 30
0.0
 10
129.6299058718874
 20
435.8507198966939
 30
0.0
 10
129.2275296951391
 20
435.8507198966939
 30
0.0
  0
SPLINE
  5
FD
330
1F
100
AcDbEntity
  8
0
  6
Continuous
 62
     8
370
    18
100
AcDbSpline
210
0.0
220
0.0
230
1.0
 70
     8
 71
     3
 72
     8
 73
     4
 74
     0
 42
0.000000001
 43
0.00000001
 40
0.2167924849138834
 40
0.2167924849138834
 40
0.2167924849138834
 40
0.2167924849138834
 40
1.0
 40
1.0
 40
1.0
 40
1.0
 10
129.2275296951391
 20
435.8507198966939
 30
0.0
 10
119.9393178382198
 20
435.8507198966939
 30
0.0
 10
110.6726527363099
 20
436.0205728309052
 30
0.0
 10
107.876612171727
 20
439.0809146974962
 30
0.0
  0
SPLINE
  5
FE
330
1F
100
AcDbEntity
  8
0
  6
Continuous
 62
     8
370
    18
100
AcDbSpline
210
0.0
220
0.0
230
1.0
 70
     8
 71
     3
 72
    10
 73
     6
 74
     0
 42
0.000000001
 43
0.00000001
 40
0.0622266704184448
 40
0.0622266704184448
 40
0.0622266704184448
 40
0.0622266704184448
 40
0.2007451596022692
 40
0.2007451596022692
 40
0.2167924849138834
 40
0.2167924849138834
 40
0.2167924849138834
 40
0.2167924849138834
 10
107.876612171727
 20
439.0809146974962
 30
0.0
 10
107.3821029806857
 20
439.6221683545166
 30
0.0
 10
107.08999262095
 20
440.2538354760241
 30
0.0
 10
107.0296983907815
 20
441.076363448889
 30
0.0
 10
107.0256208245087
 20
441.1618502753216
 30
0.0
 10
107.0230938587276
 20
441.2474000436127
 30
0.0
  0
SPLINE
  5
FF
330
1F
100
AcDbEntity
  8
0
  6
Continuous
 62
     8
370
    18
100
AcDbSpline
210
0.0
220
0.0
230
1.0
 70
     8
 71
     3
 72
    12
 73
     8
 74
     0
 42
0.000000001
 43
0.00000001
 40
0.0
 40
0.0
 40
0.0
 40
0.0
 40
0.5
 40
0.5
 40
0.75
 40
0.75
 40
1.0
 40
1.0
 40
1.0
 40
1.0
 10
106.9482708457874
 20
442.4088039349235
 30
0.0
 10
107.0316860302798
 20
442.4085003031238
 30
0.0
 10
107.1180825710217
 20
442.4083436099635
 30
0.0
 10
107.2520283394629
 20
442.4083149048992
 30
0.0
 10
107.2974015503696
 20
442.4083405946543
 30
0.0
 10
107.3895779800844
 20
442.4084586100737
 30
0.0
 10
107.4364324930399
 20
442.4085446556707
 30
0.0
 10
107.4837184666575
 20
442.4086690138473
 30
0.0
  0
SPLINE
  5
100
330
1F
100
AcDbEntity
  8
0
  6
Continuous
 62
     8
370
    18
100
AcDbSpline
210
0.0
220
0.0
230
1.0
 70
     8
 71
     3
 72
     9
 73
     5
 74
     0
 42
0.000000001
 43
0.00000001
 40
0.0
 40
0.0
 40
0.0
 40
0.0
 40
0.2095945421839654
 40
0.9999999999999999
 40
0.9999999999999999
 40
0.9999999999999999
 40
0.9999999999999999
 10
106.6028481704559
 20
442.4097060853236
 30
0.0
 10
106.6252568106507
 20
442.4100800163726
 30
0.0
 10
106.7321710459225
 20
442.4118640850087
 30
0.0
 10
106.8534680548717
 20
442.4102515876017
 30
0.0
 10
106.9493418727619
 20
442.4089770608504
 30
0.0
  0
SPLINE
  5
101
330
1F
100
AcDbEntity
  8
0
  6
Continuous
 62
     8
370
    18
100
AcDbSpline
210
0.0
220
0.0
230
1.0
 70
     8
 71
     3
 72
     9
 73
     5
 74
     0
 42
0.000000001
 43
0.00000001
 40
0.0
 40
0.0
 40
0.0
 40
0.0
 40
0.8524539480472657
 40
0.9999999999999999
 40
0.9999999999999999
 40
0.9999999999999999
 40
0.9999999999999999
 10
128.1274171304236
 20
444.1960289724467
 30
0.0
 10
124.5118229890019
 20
444.1611368654329
 30
0.0
 10
120.2704277210182
 20
444.1202054965376
 30
0.0
 10
116.0696439455734
 20
443.5847791284453
 30
0.0
 10
115.4498348843994
 20
443.505779081722
 30
0.0
  0
SPLINE
  5
102
330
1F
100
AcDbEntity
  8
0
  6
Continuous
 62
     8
370
    18
100
AcDbSpline
210
0.0
220
0.0
230
1.0
 70
     8
 71
     3
 72
    13
 73
     9
 74
     0
 42
0.000000001
 43
0.00000001
 40
0.0
 40
0.0
 40
0.0
 40
0.0
 40
0.2056971635655149
 40
0.4999097349381507
 40
0.6259209157343903
 40
0.7511120165943076
 40
0.8758306052801009
 40
1.0
 40
1.0
 40
1.0
 40
1.0
 10
107.4849926612895
 20
442.4088850102137
 30
0.0
 10
107.516937271857
 20
442.4090617870295
 30
0.0
 10
107.5945728674319
 20
442.4094914110925
 30
0.0
 10
107.6933290544847
 20
442.4096088967952
 30
0.0
 10
107.7827279581651
 20
442.4101412564975
 30
0.0
 10
107.8480063565657
 20
442.4108109981077
 30
0.0
 10
107.9161666089835
 20
442.4117449157084
 30
0.0
 10
107.9555157435789
 20
442.4081171736248
 30
0.0
 10
107.9751468971549
 20
442.4063073050543
 30
0.0
  0
SPLINE
  5
103
330
1F
100
AcDbEntity
  8
0
  6
Continuous
 62
     8
370
    18
100
AcDbSpline
210
0.0
220
0.0
230
1.0
 70
     8
 71
     3
 72
     9
 73
     5
 74
     0
 42
0.000000001
 43
0.00000001
 40
0.0
 40
0.0
 40
0.0
 40
0.0
 40
0.8486811700513986
 40
1.0
 40
1.0
 40
1.0
 40
1.0
 10
130.3276422598546
 20
444.1960289724466
 30
0.0
 10
133.9431928641386
 20
444.1606067470967
 30
0.0
 10
138.2033917843822
 20
444.1188687816511
 30
0.0
 10
142.4227986753308
 20
443.5804375593851
 30
0.0
 10
143.0612743891462
 20
443.498962776824
 30
0.0
  0
LINE
  5
104
330
1F
100
AcDbEntity
  8
0
  6
Continuous
 62
     8
370
    18
100
AcDbLine
 10
151.8429149211
 20
442.4077370285
 30
0.0
 11
151.5057175175
 21
442.4089770609
 31
0.0
  0
SPLINE
  5
105
330
1F
100
AcDbEntity
  8
0
  6
Continuous
 62
     8
370
    18
100
AcDbSpline
210
0.0
220
0.0
230
1.0
 70
     8
 71
     3
 72
     8
 73
     4
 74
     0
 42
0.000000001
 43
0.00000001
 40
0.0
 40
0.0
 40
0.0
 40
0.0
 40
1.0
 40
1.0
 40
1.0
 40
1.0
 10
150.9713409236207
 20
442.4086690138473
 30
0.0
 10
151.1681871146778
 20
442.407006351339
 30
0.0
 10
151.3351696244762
 20
442.4090001138468
 30
0.0
 10
151.5067885444907
 20
442.4088039349234
 30
0.0
  0
SPLINE
  5
106
330
1F
100
AcDbEntity
  8
0
  6
Continuous
 62
     8
370
    18
100
AcDbSpline
210
0.0
220
0.0
230
1.0
 70
     8
 71
     3
 72
     8
 73
     4
 74
     0
 42
0.000000001
 43
0.00000001
 40
0.0
 40
0.0
 40
0.0
 40
0.0
 40
1.0
 40
1.0
 40
1.0
 40
1.0
 10
150.4799124931233
 20
442.4063073050544
 30
0.0
 10
150.6619542459212
 20
442.4289168779152
 30
0.0
 10
150.814886112263
 20
442.4097697696329
 30
0.0
 10
150.9700667289886
 20
442.4088850102136
 30
0.0
  0
SPLINE
  5
107
330
1F
100
AcDbEntity
  8
0
  6
Continuous
 62
     8
370
    18
100
AcDbSpline
210
0.0
220
0.0
230
1.0
 70
     8
 71
     3
 72
    14
 73
    10
 74
     0
 42
0.000000001
 43
0.00000001
 40
0.0
 40
0.0
 40
0.0
 40
0.0
 40
0.25
 40
0.25
 40
0.5
 40
0.5
 40
0.75
 40
0.75
 40
1.0
 40
1.0
 40
1.0
 40
1.0
 10
106.5348046764198
 20
441.2495204626834
 30
0.0
 10
106.531028927267
 20
441.3744669545463
 30
0.0
 10
106.548093973967
 20
441.508218607374
 30
0.0
 10
106.63377760491
 20
441.7698956719514
 30
0.0
 10
106.7026260724687
 20
441.8972724610593
 30
0.0
 10
106.8832660061544
 20
442.1175761425098
 30
0.0
 10
106.99464054742
 20
442.2099982967408
 30
0.0
 10
107.2342514810348
 20
442.3451995763948
 30
0.0
 10
107.3618784494322
 20
442.3879534564251
 30
0.0
 10
107.4849889592067
 20
442.4088849852265
 30
0.0
  0
SPLINE
  5
108
330
1F
100
AcDbEntity
  8
0
  6
Continuous
 62
     8
370
    18
100
AcDbSpline
210
0.0
220
0.0
230
1.0
 70
     8
 71
     3
 72
     8
 73
     4
 74
     0
 42
0.000000001
 43
0.00000001
 40
0.0
 40
0.0
 40
0.0
 40
0.0
 40
1.0
 40
1.0
 40
1.0
 40
1.0
 10
151.9215941283863
 20
441.2494800679138
 30
0.0
 10
151.7656029803968
 20
441.2496841186927
 30
0.0
 10
151.6021828210915
 20
441.2602767083925
 30
0.0
 10
151.4319625613232
 20
441.2472995115345
 30
0.0
  0
SPLINE
  5
109
330
1F
100
AcDbEntity
  8
0
  6
Continuous
 62
     8
370
    18
100
AcDbSpline
210
0.0
220
0.0
230
1.0
 70
     8
 71
     3
 72
    14
 73
    10
 74
     0
 42
0.000000001
 43
0.00000001
 40
0.0
 40
0.0
 40
0.0
 40
0.0
 40
0.25
 40
0.25
 40
0.5
 40
0.5
 40
0.75
 40
0.75
 40
1.0
 40
1.0
 40
1.0
 40
1.0
 10
150.9700667289886
 20
442.4088850102136
 30
0.0
 10
151.0932739752606
 20
442.3879384217386
 30
0.0
 10
151.2209844193193
 20
442.3448831603106
 30
0.0
 10
151.4606371926836
 20
442.2095069787136
 30
0.0
 10
151.5720031896088
 20
442.1170686190428
 30
0.0
 10
151.7527265845754
 20
441.8968630869203
 30
0.0
 10
151.8216730501407
 20
441.7695966222191
 30
0.0
 10
151.9077270386685
 20
441.508109792076
 30
0.0
 10
151.9250620330935
 20
441.3744319417278
 30
0.0
 10
151.9215941283863
 20
441.2494800679138
 30
0.0
  0
SPLINE
  5
10A
330
1F
100
AcDbEntity
  8
0
  6
Continuous
 62
     8
370
    18
100
AcDbSpline
210
0.0
220
0.0
230
1.0
 70
     8
 71
     3
 72
    15
 73
    11
 74
     0
 42
0.000000001
 43
0.00000001
 40
0.0
 40
0.0
 40
0.0
 40
0.0
 40
0.1149944731873797
 40
0.2313633298468923
 40
0.3485615894796659
 40
0.4679537627858566
 40
0.5910995969958595
 40
0.7196807484732936
 40
0.8554188856759741
 40
0.9999999999999999
 40
0.9999999999999999
 40
0.9999999999999999
 40
0.9999999999999999
 10
151.9215600593559
 20
441.2482561090534
 30
0.0
 10
151.9169094838326
 20
441.1255877532984
 30
0.0
 10
151.9075527503398
 20
440.8787849421053
 30
0.0
 10
151.8540733730318
 20
440.5098669388358
 30
0.0
 10
151.7589004663302
 20
440.1446788671209
 30
0.0
 10
151.619403911856
 20
439.7861539503034
 30
0.0
 10
151.4334317113194
 20
439.435498991326
 30
0.0
 10
151.1982625816491
 20
439.0945871009749
 30
0.0
 10
150.9141106620613
 20
438.7620102645632
 30
0.0
 10
150.6926861029413
 20
438.5605725234455
 30
0.0
 10
150.5784812835366
 20
438.4566763660496
 30
0.0
  0
SPLINE
  5
10B
330
1F
100
AcDbEntity
  8
0
  6
Continuous
 62
     8
370
    18
100
AcDbSpline
210
0.0
220
0.0
230
1.0
 70
     8
 71
     3
 72
    12
 73
     8
 74
     0
 42
0.000000001
 43
0.00000001
 40
0.0
 40
0.0
 40
0.0
 40
0.0
 40
0.1900197195567575
 40
0.3889643460633271
 40
0.5968079994319326
 40
0.8136324235129327
 40
1.0
 40
1.0
 40
1.0
 40
1.0
 10
150.5784472185512
 20
439.0809146974962
 30
0.0
 10
150.5784516756907
 20
439.0376607485881
 30
0.0
 10
150.578460799314
 20
438.9491212854683
 30
0.0
 10
150.5784707062234
 20
438.8208139662397
 30
0.0
 10
150.5784613822048
 20
438.6915854471198
 30
0.0
 10
150.578434006782
 20
438.5695681341558
 30
0.0
 10
150.5784663387294
 20
438.4923629464159
 30
0.0
 10
150.5784812835366
 20
438.4566763660496
 30
0.0
  0
SPLINE
  5
10C
330
1F
100
AcDbEntity
  8
0
  6
Continuous
 62
     8
370
    18
100
AcDbSpline
210
0.0
220
0.0
230
1.0
 70
     8
 71
     3
 72
    12
 73
     8
 74
     0
 42
0.000000001
 43
0.00000001
 40
0.0
 40
0.0
 40
0.0
 40
0.0
 40
0.1900197195567575
 40
0.3889643460633271
 40
0.5968079994319326
 40
0.8136324235129327
 40
1.0
 40
1.0
 40
1.0
 40
1.0
 10
107.876612171727
 20
439.0809146974962
 30
0.0
 10
107.8766077145875
 20
439.0376607485881
 30
0.0
 10
107.8765985909642
 20
438.9491212854683
 30
0.0
 10
107.8765886840548
 20
438.8208139662397
 30
0.0
 10
107.8765980080734
 20
438.6915854471198
 30
0.0
 10
107.8766253834961
 20
438.5695681341558
 30
0.0
 10
107.8765930515487
 20
438.4923629464159
 30
0.0
 10
107.8765781067416
 20
438.4566763660496
 30
0.0
  0
SPLINE
  5
10D
330
1F
100
AcDbEntity
  8
0
  6
Continuous
 62
     8
370
    18
100
AcDbSpline
210
0.0
220
0.0
230
1.0
 70
     8
 71
     3
 72
    11
 73
     7
 74
     0
 42
0.000000001
 43
0.00000001
 40
0.2369313370957416
 40
0.2369313370957416
 40
0.2369313370957416
 40
0.2369313370957416
 40
0.4869313370957415
 40
0.7369313370957415
 40
0.7369313370957415
 40
1.0
 40
1.0
 40
1.0
 40
1.0
 10
107.8765781067416
 20
438.4566763660496
 30
0.0
 10
107.6114460296193
 20
438.6856823021505
 30
0.0
 10
107.1285573708404
 20
439.2041871039066
 30
0.0
 10
106.8042968998181
 20
439.8286557712013
 30
0.0
 10
106.5857216673741
 20
440.5161058041631
 30
0.0
 10
106.5466900383274
 20
440.8805256314325
 30
0.0
 10
106.5348415889387
 20
441.2482935482213
 30
0.0
  0
SPLINE
  5
10E
330
1F
100
AcDbEntity
  8
0
  6
Continuous
 62
     8
370
    18
100
AcDbSpline
210
0.0
220
0.0
230
1.0
 70
     8
 71
     3
 72
    20
 73
    16
 74
     0
 42
0.000000001
 43
0.00000001
 40
0.0
 40
0.0
 40
0.0
 40
0.0
 40
0.0625000000000008
 40
0.0625000000000008
 40
0.1250000000000016
 40
0.1250000000000016
 40
0.2500000000000014
 40
0.2500000000000014
 40
0.3750000000000012
 40
0.3750000000000012
 40
0.5000000000000009
 40
0.5000000000000009
 40
0.7500000000000006
 40
0.7500000000000006
 40
1.0
 40
1.0
 40
1.0
 40
1.0
 10
150.5784812835366
 20
438.4566763660496
 30
0.0
 10
150.233047643073
 20
438.1583105287141
 30
0.0
 10
149.8511572822394
 20
437.9065533805542
 30
0.0
 10
149.0411377459446
 20
437.4621538514702
 30
0.0
 10
148.6242893322858
 20
437.2758316548564
 30
0.0
 10
147.3520869645579
 20
436.7827487017287
 30
0.0
 10
146.4754563390405
 20
436.5405656005875
 30
0.0
 10
144.6938490916218
 20
436.1422835881686
 30
0.0
 10
143.790804150192
 20
435.9890128550592
 30
0.0
 10
141.9843944308219
 20
435.738744446803
 30
0.0
 10
141.078124901106
 20
435.6417584274905
 30
0.0
 10
138.3533320511689
 20
435.4057642243826
 30
0.0
 10
136.527957769624
 20
435.3205794533691
 30
0.0
 10
132.8786130505832
 20
435.2189342077883
 30
0.0
 10
131.0532231873349
 20
435.20382234246
 30
0.0
 10
129.2275296951391
 20
435.20382234246
 30
0.0
  0
SPLINE
  5
10F
330
1F
100
AcDbEntity
  8
0
  6
Continuous
 62
     8
370
    18
100
AcDbSpline
210
0.0
220
0.0
230
1.0
 70
     8
 71
     3
 72
    20
 73
    16
 74
     0
 42
0.000000001
 43
0.00000001
 40
0.0
 40
0.0
 40
0.0
 40
0.0
 40
0.0625000000000008
 40
0.0625000000000008
 40
0.1250000000000016
 40
0.1250000000000016
 40
0.2500000000000014
 40
0.2500000000000014
 40
0.3750000000000012
 40
0.3750000000000012
 40
0.5000000000000009
 40
0.5000000000000009
 40
0.7500000000000006
 40
0.7500000000000006
 40
1.0
 40
1.0
 40
1.0
 40
1.0
 10
107.8765781067416
 20
438.4566763660496
 30
0.0
 10
108.2220117472052
 20
438.1583105287141
 30
0.0
 10
108.6039021080387
 20
437.9065533805542
 30
0.0
 10
109.4139216443336
 20
437.4621538514702
 30
0.0
 10
109.8307700579924
 20
437.2758316548564
 30
0.0
 10
111.1029724257202
 20
436.7827487017287
 30
0.0
 10
111.9796030512376
 20
436.5405656005875
 30
0.0
 10
113.7612102986564
 20
436.1422835881686
 30
0.0
 10
114.6642552400862
 20
435.9890128550592
 30
0.0
 10
116.4706649594563
 20
435.738744446803
 30
0.0
 10
117.3769344891722
 20
435.6417584274905
 30
0.0
 10
120.1017273391092
 20
435.4057642243826
 30
0.0
 10
121.9271016206542
 20
435.3205794533691
 30
0.0
 10
125.576446339695
 20
435.2189342077883
 30
0.0
 10
127.4018362029432
 20
435.20382234246
 30
0.0
 10
129.2275296951391
 20
435.20382234246
 30
0.0
  0
SPLINE
  5
110
330
1F
100
AcDbEntity
  8
0
  6
Continuous
 62
     8
370
    18
100
AcDbSpline
210
0.0
220
0.0
230
1.0
 70
     8
 71
     3
 72
    15
 73
    11
 74
     0
 42
0.000000001
 43
0.00000001
 40
0.0
 40
0.0
 40
0.0
 40
0.0
 40
0.1249624284153597
 40
0.2499787827366991
 40
0.3488608171509847
 40
0.4999911648283319
 40
0.6780128236950352
 40
0.8207329653843108
 40
0.9280838064668686
 40
1.0
 40
1.0
 40
1.0
 40
1.0
 10
105.8903429746526
 20
406.6504423997222
 30
0.0
 10
105.8607413118542
 20
406.6493475304392
 30
0.0
 10
105.8015252120462
 20
406.6471573193967
 30
0.0
 10
105.72006453578
 20
406.6537383589144
 30
0.0
 10
105.6402112684609
 20
406.6576613129184
 30
0.0
 10
105.556359260312
 20
406.6573478571273
 30
0.0
 10
105.4725296071258
 20
406.6624338425613
 30
0.0
 10
105.4049864873231
 20
406.6678505045692
 30
0.0
 10
105.3597770258625
 20
406.6734379322476
 30
0.0
 10
105.3356278023208
 20
406.6665886395512
 30
0.0
 10
105.325939907178
 20
406.6638409226595
 30
0.0
  0
SPLINE
  5
111
330
1F
100
AcDbEntity
  8
0
  6
Continuous
 62
     8
370
    18
100
AcDbSpline
210
0.0
220
0.0
230
1.0
 70
     8
 71
     3
 72
    14
 73
    10
 74
     0
 42
0.000000001
 43
0.00000001
 40
0.0
 40
0.0
 40
0.0
 40
0.0
 40
0.125
 40
0.125
 40
0.25
 40
0.25
 40
0.5
 40
0.5
 40
1.0
 40
1.0
 40
1.0
 40
1.0
 10
153.1291194831001
 20
406.6638409226595
 30
0.0
 10
153.1129241509633
 20
406.6722264765774
 30
0.0
 10
153.0953126755758
 20
406.6633763220429
 30
0.0
 10
153.060029224391
 20
406.6620200118517
 30
0.0
 10
153.0414893853915
 20
406.6616904827727
 30
0.0
 10
152.9824156463247
 20
406.6607296544695
 30
0.0
 10
152.9390264860838
 20
406.6594194586269
 30
0.0
 10
152.7984448011788
 20
406.655659955198
 30
0.0
 10
152.6757156420516
 20
406.6514935333516
 30
0.0
 10
152.5647164156256
 20
406.6504423997221
 30
0.0
  0
SPLINE
  5
112
330
1F
100
AcDbEntity
  8
0
  6
Continuous
 62
     8
370
    18
100
AcDbSpline
210
0.0
220
0.0
230
1.0
 70
     8
 71
     3
 72
     9
 73
     5
 74
     0
 42
0.000000001
 43
0.00000001
 40
0.0
 40
0.0
 40
0.0
 40
0.0
 40
0.6298311284674682
 40
0.7276352572454629
 40
0.7276352572454629
 40
0.7276352572454629
 40
0.7276352572454629
 10
129.2275296951391
 20
434.8076247294591
 30
0.0
 10
121.5406914204836
 20
434.8076247294591
 30
0.0
 10
112.6384004314061
 20
435.2361638727207
 30
0.0
 10
108.3557624831875
 20
437.7375616982757
 30
0.0
 10
107.8766121764795
 20
438.1156607261352
 30
0.0
  0
SPLINE
  5
113
330
1F
100
AcDbEntity
  8
0
  6
Continuous
 62
     8
370
    18
100
AcDbSpline
210
0.0
220
0.0
230
1.0
 70
     8
 71
     3
 72
    15
 73
    11
 74
     0
 42
0.000000001
 43
0.00000001
 40
0.4845559852039255
 40
0.4845559852039255
 40
0.4845559852039255
 40
0.4845559852039255
 40
0.5103262482260962
 40
0.6021400766837032
 40
0.6939539051413102
 40
0.7016050575127774
 40
0.816372343084786
 40
0.9311396286567948
 40
0.974177360746298
 40
1.0
 40
1.0
 40
1.0
 40
1.0
 10
107.8766223886614
 20
438.1105110277528
 30
0.0
 10
107.8766213564518
 20
438.1165523266683
 30
0.0
 10
107.8766165416704
 20
438.1435766388827
 30
0.0
 10
107.8766088709581
 20
438.191258315635
 30
0.0
 10
107.8766029113439
 20
438.2342992884065
 30
0.0
 10
107.8765967253417
 20
438.282264924239
 30
0.0
 10
107.8765905259133
 20
438.3350505411764
 30
0.0
 10
107.8765831116669
 20
438.4030358835979
 30
0.0
 10
107.8765800814701
 20
438.436586277185
 30
0.0
 10
107.8765786751959
 20
438.4509860638508
 30
0.0
 10
107.8765781067416
 20
438.4566763660496
 30
0.0
  0
SPLINE
  5
114
330
1F
100
AcDbEntity
  8
0
  6
Continuous
 62
     8
370
    18
100
AcDbSpline
210
0.0
220
0.0
230
1.0
 70
     8
 71
     3
 72
    12
 73
     8
 74
     0
 42
0.000000001
 43
0.00000001
 40
0.0
 40
0.0
 40
0.0
 40
0.0
 40
0.5
 40
0.5
 40
0.75
 40
0.75
 40
1.0
 40
1.0
 40
1.0
 40
1.0
 10
150.5784812835366
 20
438.4566763660496
 30
0.0
 10
150.5821386193182
 20
438.3999179521433
 30
0.0
 10
150.583649477879
 20
438.3429019445456
 30
0.0
 10
150.5829088220145
 20
438.25744878349
 30
0.0
 10
150.582164951554
 20
438.2290216632351
 30
0.0
 10
150.5797456525606
 20
438.1726875334994
 30
0.0
 10
150.5780744128456
 20
438.1454208277083
 30
0.0
 10
150.5759367261242
 20
438.113680771476
 30
0.0
  0
SPLINE
  5
115
330
1F
100
AcDbEntity
  8
0
  6
Continuous
 62
     8
370
    18
100
AcDbSpline
210
0.0
220
0.0
230
1.0
 70
     8
 71
     3
 72
     9
 73
     5
 74
     0
 42
0.000000001
 43
0.00000001
 40
0.0
 40
0.0
 40
0.0
 40
0.0
 40
0.6298311284674682
 40
0.7276352572454629
 40
0.7276352572454629
 40
0.7276352572454629
 40
0.7276352572454629
 10
129.2275296951391
 20
434.8076247294591
 30
0.0
 10
136.9143679697946
 20
434.8076247294591
 30
0.0
 10
145.816658958872
 20
435.2361638727207
 30
0.0
 10
150.0992969070907
 20
437.7375616982757
 30
0.0
 10
150.5784472137987
 20
438.1156607261352
 30
0.0
  0
SPLINE
  5
116
330
1F
100
AcDbEntity
  8
0
  6
Continuous
 62
     8
370
    18
100
AcDbSpline
210
0.0
220
0.0
230
1.0
 70
     8
 71
     3
 72
    14
 73
    10
 74
     0
 42
0.000000001
 43
0.00000001
 40
0.0
 40
0.0
 40
0.0
 40
0.0
 40
0.25
 40
0.25
 40
0.5
 40
0.5
 40
0.75
 40
0.75
 40
1.0
 40
1.0
 40
1.0
 40
1.0
 10
106.0281124892092
 20
441.2262926988894
 30
0.0
 10
106.0178035312241
 20
441.350737569749
 30
0.0
 10
106.0284350053015
 20
441.4857690953553
 30
0.0
 10
106.1039689908431
 20
441.7524889048167
 30
0.0
 10
106.169185895891
 20
441.8835551129727
 30
0.0
 10
106.3458952350752
 20
442.1106453472159
 30
0.0
 10
106.4569125672346
 20
442.2060587889147
 30
0.0
 10
106.6968734467884
 20
442.3447822387116
 30
0.0
 10
106.8251368702408
 20
442.3882443122129
 30
0.0
 10
106.948281248198
 20
442.4088033871333
 30
0.0
  0
SPLINE
  5
117
330
1F
100
AcDbEntity
  8
0
  6
Continuous
 62
     8
370
    18
100
AcDbSpline
210
0.0
220
0.0
230
1.0
 70
     8
 71
     3
 72
    14
 73
    10
 74
     0
 42
0.000000001
 43
0.00000001
 40
0.0
 40
0.0
 40
0.0
 40
0.0
 40
0.25
 40
0.25
 40
0.5
 40
0.5
 40
0.75
 40
0.75
 40
1.0
 40
1.0
 40
1.0
 40
1.0
 10
151.5067885444907
 20
442.4088039349234
 30
0.0
 10
151.6300756703068
 20
442.388340897393
 30
0.0
 10
151.7585055693701
 20
442.3449610217434
 30
0.0
 10
151.9988377218311
 20
442.2063476092196
 30
0.0
 10
152.1100599486005
 20
442.1109613956307
 30
0.0
 10
152.2871882202332
 20
441.8838495417642
 30
0.0
 10
152.3526184645305
 20
441.7527339675569
 30
0.0
 10
152.42854578288
 20
441.4858430861781
 30
0.0
 10
152.4393564087838
 20
441.350690345509
 30
0.0
 10
152.4291956167385
 20
441.2261040854484
 30
0.0
  0
SPLINE
  5
118
330
1F
100
AcDbEntity
  8
0
  6
Continuous
 62
     8
370
    18
100
AcDbSpline
210
0.0
220
0.0
230
1.0
 70
     8
 71
     3
 72
    24
 73
    20
 74
     0
 42
0.000000001
 43
0.00000001
 40
0.0
 40
0.0
 40
0.0
 40
0.0
 40
0.0548250815495503
 40
0.1096672160139454
 40
0.1645752845454981
 40
0.2196201127680072
 40
0.2748940923439851
 40
0.3305090094833322
 40
0.386589556289151
 40
0.4432676550712923
 40
0.5006774227837152
 40
0.5589503491842119
 40
0.6182110608598973
 40
0.67857399349717
 40
0.7401412153998265
 40
0.8030014130304725
 40
0.8672275146798633
 40
0.9328776467738316
 40
1.0
 40
1.0
 40
1.0
 40
1.0
 10
150.5784178176245
 20
437.0884616924852
 30
0.0
 10
150.6401847633957
 20
437.1476541647862
 30
0.0
 10
150.7637378670656
 20
437.266057520746
 30
0.0
 10
150.9396641872312
 20
437.4529725055435
 30
0.0
 10
151.1078455658055
 20
437.6470678050052
 30
0.0
 10
151.2670452099225
 20
437.8492528034408
 30
0.0
 10
151.4168954530415
 20
438.0595777190779
 30
0.0
 10
151.556955547688
 20
438.2782398171156
 30
0.0
 10
151.6869462229907
 20
438.5053350683537
 30
0.0
 10
151.8066652561557
 20
438.7409367144621
 30
0.0
 10
151.9160077616497
 20
438.985074290789
 30
0.0
 10
152.0149565329299
 20
439.237742650464
 30
0.0
 10
152.1035754854491
 20
439.4989045656027
 30
0.0
 10
152.1820033163225
 20
439.768496055819
 30
0.0
 10
152.2504225674994
 20
440.0464332708993
 30
0.0
 10
152.3091070049247
 20
440.3326114526186
 30
0.0
 10
152.3581650277805
 20
440.6269189266282
 30
0.0
 10
152.3987279125045
 20
440.9291554716934
 30
0.0
 10
152.4180851942633
 20
441.1337080915566
 30
0.0
 10
152.4278711548151
 20
441.2371184718826
 30
0.0
  0
SPLINE
  5
119
330
1F
100
AcDbEntity
  8
0
  6
Continuous
 62
     8
370
    18
100
AcDbSpline
210
0.0
220
0.0
230
1.0
 70
     8
 71
     3
 72
    11
 73
     7
 74
     0
 42
0.000000001
 43
0.00000001
 40
0.1785637259795748
 40
0.1785637259795748
 40
0.1785637259795748
 40
0.1785637259795748
 40
0.5
 40
0.5
 40
0.75
 40
1.0
 40
1.0
 40
1.0
 40
1.0
 10
106.0249482276516
 20
441.2369010778177
 30
0.0
 10
106.0756249551915
 20
440.6355207293029
 30
0.0
 10
106.1788556515533
 20
440.040508300846
 30
0.0
 10
106.512239211796
 20
439.006270196657
 30
0.0
 10
106.9210650338735
 20
438.1456970642581
 30
0.0
 10
107.5303395435168
 20
437.4130293479
 30
0.0
 10
107.8766415726536
 20
437.0884616924852
 30
0.0
  0
SPLINE
  5
11A
330
1F
100
AcDbEntity
  8
0
  6
Continuous
 62
     8
370
    18
100
AcDbSpline
210
0.0
220
0.0
230
1.0
 70
     8
 71
     3
 72
    22
 73
    18
 74
     0
 42
0.000000001
 43
0.00000001
 40
0.0
 40
0.0
 40
0.0
 40
0.0
 40
0.2500000000000002
 40
0.2500000000000002
 40
0.3750000000000002
 40
0.3750000000000002
 40
0.5000000000000002
 40
0.5000000000000002
 40
0.6250000000000003
 40
0.6250000000000003
 40
0.7500000000000003
 40
0.7500000000000003
 40
0.8750000000000004
 40
0.8750000000000004
 40
0.9375000000000003
 40
0.9375000000000003
 40
1.0
 40
1.0
 40
1.0
 40
1.0
 10
129.2275296951391
 20
432.1408222828081
 30
0.0
 10
127.366795279864
 20
432.1408179419009
 30
0.0
 10
125.5137694270846
 20
432.232171647838
 30
0.0
 10
122.7452629450836
 20
432.4999515025327
 30
0.0
 10
121.8242417153411
 20
432.6107132112484
 30
0.0
 10
119.9857252517842
 20
432.8740249777775
 30
0.0
 10
119.0678184205521
 20
433.0265613593403
 30
0.0
 10
117.243898939152
 20
433.374227033559
 30
0.0
 10
116.3368650568798
 20
433.5692398937342
 30
0.0
 10
114.5352436426767
 20
434.0127819688834
 30
0.0
 10
113.6385459736293
 20
434.2613395703999
 30
0.0
 10
111.8745580238187
 20
434.839760279906
 30
0.0
 10
111.0083298567456
 20
435.1669452171122
 30
0.0
 10
109.7575787178383
 20
435.7747624344848
 30
0.0
 10
109.3470778840535
 20
435.9988667691504
 30
0.0
 10
108.5738926894993
 20
436.4983103331147
 30
0.0
 10
108.2106342469703
 20
436.7759039202602
 30
0.0
 10
107.8766238189648
 20
437.0884332044997
 30
0.0
  0
SPLINE
  5
11B
330
1F
100
AcDbEntity
  8
0
  6
Continuous
 62
     8
370
    18
100
AcDbSpline
210
0.0
220
0.0
230
1.0
 70
     8
 71
     3
 72
    22
 73
    18
 74
     0
 42
0.000000001
 43
0.00000001
 40
0.0
 40
0.0
 40
0.0
 40
0.0
 40
0.2500000000000002
 40
0.2500000000000002
 40
0.3750000000000002
 40
0.3750000000000002
 40
0.5000000000000002
 40
0.5000000000000002
 40
0.6250000000000003
 40
0.6250000000000003
 40
0.7500000000000003
 40
0.7500000000000003
 40
0.8750000000000004
 40
0.8750000000000004
 40
0.9375000000000003
 40
0.9375000000000003
 40
1.0
 40
1.0
 40
1.0
 40
1.0
 10
129.2275296951391
 20
432.1408222828081
 30
0.0
 10
131.0882641104141
 20
432.1408179419009
 30
0.0
 10
132.9412899631936
 20
432.232171647838
 30
0.0
 10
135.7097964451946
 20
432.4999515025327
 30
0.0
 10
136.6308176749371
 20
432.6107132112484
 30
0.0
 10
138.469334138494
 20
432.8740249777775
 30
0.0
 10
139.387240969726
 20
433.0265613593403
 30
0.0
 10
141.2111604511261
 20
433.374227033559
 30
0.0
 10
142.1181943333984
 20
433.5692398937342
 30
0.0
 10
143.9198157476015
 20
434.0127819688834
 30
0.0
 10
144.8165134166489
 20
434.2613395703999
 30
0.0
 10
146.5805013664595
 20
434.839760279906
 30
0.0
 10
147.4467295335326
 20
435.1669452171122
 30
0.0
 10
148.6974806724398
 20
435.7747624344848
 30
0.0
 10
149.1079815062247
 20
435.9988667691504
 30
0.0
 10
149.8811667007788
 20
436.4983103331147
 30
0.0
 10
150.2444251433078
 20
436.7759039202602
 30
0.0
 10
150.5784355713133
 20
437.0884332044997
 30
0.0
  0
SPLINE
  5
11C
330
1F
100
AcDbEntity
  8
0
  6
Continuous
 62
     8
370
    18
100
AcDbSpline
210
0.0
220
0.0
230
1.0
 70
     8
 71
     3
 72
    32
 73
    28
 74
     0
 42
0.000000001
 43
0.00000001
 40
0.0
 40
0.0
 40
0.0
 40
0.0
 40
0.0229619548275955
 40
0.0456393398790453
 40
0.0680388448556608
 40
0.0901351540091373
 40
0.1118358549629038
 40
0.1331108087577718
 40
0.1539709876297664
 40
0.174421511132112
 40
0.1944680967463107
 40
0.2141179828274683
 40
0.233379642893813
 40
0.2522623284372483
 40
0.3172101860012173
 40
0.3796579863323871
 40
0.4402336575372052
 40
0.4997062811698749
 40
0.5835165096172876
 40
0.6660229296457808
 40
0.7497023535535443
 40
0.807168594903201
 40
0.8746626488871766
 40
0.9120464415211615
 40
0.9456832972309924
 40
0.9751955324708319
 40
1.0
 40
1.0
 40
1.0
 40
1.0
 10
107.8766186939351
 20
437.0884379065168
 30
0.0
 10
107.8765924012129
 20
437.0462785744241
 30
0.0
 10
107.876540141617
 20
436.9624823950092
 30
0.0
 10
107.8761630340603
 20
436.8239448728381
 30
0.0
 10
107.8756466233118
 20
436.6765022665911
 30
0.0
 10
107.8750345045474
 20
436.5192284470353
 30
0.0
 10
107.8744020028672
 20
436.3529644955962
 30
0.0
 10
107.8738263179657
 20
436.1779150742904
 30
0.0
 10
107.8733886875249
 20
435.994049138802
 30
0.0
 10
107.8731754495167
 20
435.8012872943168
 30
0.0
 10
107.873267714262
 20
435.5995696803604
 30
0.0
 10
107.8737847449955
 20
435.3887960990943
 30
0.0
 10
107.8747263367286
 20
435.1690062556049
 30
0.0
 10
107.8780309107985
 20
434.7518225760747
 30
0.0
 10
107.8812130815961
 20
434.0856915313946
 30
0.0
 10
107.8802947422692
 20
433.0684510920763
 30
0.0
 10
107.8776994606233
 20
431.9093135984202
 30
0.0
 10
107.876003691475
 20
430.4145919500318
 30
0.0
 10
107.8767386127434
 20
428.4957399705673
 30
0.0
 10
107.8774353755407
 20
426.0870212844956
 30
0.0
 10
107.8778039224847
 20
423.7444465132482
 30
0.0
 10
107.8742136897753
 20
421.46590507062
 30
0.0
 10
107.874956026472
 20
419.6406019400795
 30
0.0
 10
107.8806936980671
 20
418.058805826879
 30
0.0
 10
107.8838692310558
 20
416.902608765591
 30
0.0
 10
107.8848003050664
 20
415.8869756966574
 30
0.0
 10
107.8791791518441
 20
415.2592584252081
 30
0.0
 10
107.8766121751044
 20
414.9726027210986
 30
0.0
  0
SPLINE
  5
11D
330
1F
100
AcDbEntity
  8
0
  6
Continuous
 62
     8
370
    18
100
AcDbSpline
210
0.0
220
0.0
230
1.0
 70
     8
 71
     3
 72
    26
 73
    22
 74
     0
 42
0.000000001
 43
0.00000001
 40
0.0
 40
0.0
 40
0.0
 40
0.0
 40
0.0229783973521373
 40
0.0454440410219281
 40
0.0895281388663343
 40
0.1321733324382826
 40
0.2223995746300195
 40
0.3056118485998675
 40
0.3925859688439277
 40
0.4366487500192328
 40
0.4794980365292439
 40
0.565890887011988
 40
0.6529339794810229
 40
0.6955836006339728
 40
0.7397269924016772
 40
0.8265145651672838
 40
0.8698890896517983
 40
0.9132309910306464
 40
0.9565985523750363
 40
0.97595077223109
 40
1.0
 40
1.0
 40
1.0
 40
1.0
 10
150.5784178176246
 20
437.0884616924856
 30
0.0
 10
150.5784314750664
 20
437.046232919694
 30
0.0
 10
150.5784584851896
 20
436.9627176921679
 30
0.0
 10
150.5785222344297
 20
436.7800243277642
 30
0.0
 10
150.5784507659584
 20
436.5307641554358
 30
0.0
 10
150.5784434774923
 20
436.0619987320828
 30
0.0
 10
150.5782399440446
 20
435.3584100201727
 30
0.0
 10
150.5789181004163
 20
434.2526971916025
 30
0.0
 10
150.5769579179943
 20
433.0891560250603
 30
0.0
 10
150.5777485017777
 20
431.9691952310508
 30
0.0
 10
150.5788499452989
 20
430.7320555250491
 30
0.0
 10
150.5783289960883
 20
428.9569302879157
 30
0.0
 10
150.5787238215099
 20
426.9153473427648
 30
0.0
 10
150.5779662200489
 20
425.152748170943
 30
0.0
 10
150.5776096882194
 20
423.3266528953515
 30
0.0
 10
150.5806822076005
 20
421.4139274172214
 30
0.0
 10
150.5796730727224
 20
419.460775510877
 30
0.0
 10
150.5734246853812
 20
417.9751600878491
 30
0.0
 10
150.5708500628562
 20
416.7540754796265
 30
0.0
 10
150.5714771728491
 20
415.7523435807508
 30
0.0
 10
150.5759576677473
 20
415.2506159878908
 30
0.0
 10
150.5784403601048
 20
414.9726031146129
 30
0.0
  0
SPLINE
  5
11E
330
1F
100
AcDbEntity
  8
0
  6
Continuous
 62
     8
370
    18
100
AcDbSpline
210
0.0
220
0.0
230
1.0
 70
     8
 71
     3
 72
    10
 73
     6
 74
     0
 42
0.000000001
 43
0.00000001
 40
0.0
 40
0.0
 40
0.0
 40
0.0
 40
0.5
 40
0.5
 40
1.0
 40
1.0
 40
1.0
 40
1.0
 10
105.4585334599988
 20
431.6538311886633
 30
0.0
 10
105.4042487277453
 20
431.6541178723117
 30
0.0
 10
105.3603073366204
 20
431.6544045808394
 30
0.0
 10
105.2922644608297
 20
431.6549780456167
 30
0.0
 10
105.2714029730576
 20
431.6552648096596
 30
0.0
 10
105.266494878396
 20
431.6555516120757
 30
0.0
  0
SPLINE
  5
11F
330
1F
100
AcDbEntity
  8
0
  6
Continuous
 62
     8
370
    18
100
AcDbSpline
210
0.0
220
0.0
230
1.0
 70
     8
 71
     3
 72
     8
 73
     4
 74
     0
 42
0.000000001
 43
0.00000001
 40
0.0
 40
0.0
 40
0.0
 40
0.0
 40
1.0
 40
1.0
 40
1.0
 40
1.0
 10
105.4412830455761
 20
441.2656112868684
 30
0.0
 10
105.4407086135223
 20
438.0616636142416
 30
0.0
 10
105.4328794870828
 20
434.8576909185578
 30
0.0
 10
105.4585334599988
 20
431.6538311886633
 30
0.0
  0
SPLINE
  5
120
330
1F
100
AcDbEntity
  8
0
  6
Continuous
 62
     8
370
    18
100
AcDbSpline
210
0.0
220
0.0
230
1.0
 70
     8
 71
     3
 72
     8
 73
     4
 74
     0
 42
0.000000001
 43
0.00000001
 40
0.0
 40
0.0
 40
0.0
 40
0.0
 40
1.0
 40
1.0
 40
1.0
 40
1.0
 10
153.0137763447021
 20
441.2656112868684
 30
0.0
 10
153.0143507767558
 20
438.0616636142416
 30
0.0
 10
153.0221799031953
 20
434.8576909185578
 30
0.0
 10
152.9965259302794
 20
431.6538311886633
 30
0.0
  0
SPLINE
  5
121
330
1F
100
AcDbEntity
  8
0
  6
Continuous
 62
     8
370
    18
100
AcDbSpline
210
0.0
220
0.0
230
1.0
 70
     8
 71
     3
 72
    10
 73
     6
 74
     0
 42
0.000000001
 43
0.00000001
 40
0.0
 40
0.0
 40
0.0
 40
0.0
 40
0.5
 40
0.5
 40
1.0
 40
1.0
 40
1.0
 40
1.0
 10
152.9965259302794
 20
431.6538311886633
 30
0.0
 10
153.0508106625329
 20
431.6541178723117
 30
0.0
 10
153.0947520536578
 20
431.6544045808394
 30
0.0
 10
153.1627949294485
 20
431.6549780456167
 30
0.0
 10
153.1836564172205
 20
431.6552648096596
 30
0.0
 10
153.1885645118822
 20
431.6555516120757
 30
0.0
  0
SPLINE
  5
122
330
1F
100
AcDbEntity
  8
0
  6
Continuous
 62
     8
370
    18
100
AcDbSpline
210
0.0
220
0.0
230
1.0
 70
     8
 71
     3
 72
    11
 73
     7
 74
     0
 42
0.000000001
 43
0.00000001
 40
0.0
 40
0.0
 40
0.0
 40
0.0
 40
0.3009211368496354
 40
0.6216194229347337
 40
0.9423177090198321
 40
1.0
 40
1.0
 40
1.0
 40
1.0
 10
153.0134489731806
 20
441.2658052288954
 30
0.0
 10
153.0005068899841
 20
441.3979867624779
 30
0.0
 10
152.9737721435571
 20
441.6710370689082
 30
0.0
 10
152.7520188888815
 20
442.0250996393511
 30
0.0
 10
152.5223528927518
 20
442.2469794535156
 30
0.0
 10
152.3648075310133
 20
442.2966825743175
 30
0.0
 10
152.3407905017333
 20
442.3042595749631
 30
0.0
  0
SPLINE
  5
123
330
1F
100
AcDbEntity
  8
0
  6
Continuous
 62
     8
370
    18
100
AcDbSpline
210
0.0
220
0.0
230
1.0
 70
     8
 71
     3
 72
    11
 73
     7
 74
     0
 42
0.000000001
 43
0.00000001
 40
0.0
 40
0.0
 40
0.0
 40
0.0
 40
0.2995960968725709
 40
0.6188830370106155
 40
0.9381705232165913
 40
1.0
 40
1.0
 40
1.0
 40
1.0
 10
105.4416121254772
 20
441.2658062875191
 30
0.0
 10
105.4545554514154
 20
441.3979728252611
 30
0.0
 10
105.4812927986282
 20
441.6709924978228
 30
0.0
 10
105.7029315499345
 20
442.0252690707312
 30
0.0
 10
105.9343307355384
 20
442.2479416518031
 30
0.0
 10
106.0938227127531
 20
442.2979985065566
 30
0.0
 10
106.119697461085
 20
442.3061193446179
 30
0.0
  0
ARC
  5
124
330
1F
100
AcDbEntity
  8
0
  6
Continuous
 62
     8
370
    18
100
AcDbCircle
 10
129.2275296951
 20
422.2438886809
 30
0.0
 40
3.781418633081847
100
AcDbArc
 50
185.5330909267
 51
354.4669090733
  0
ARC
  5
125
330
1F
100
AcDbEntity
  8
0
  6
Continuous
 62
     8
370
    18
100
AcDbCircle
 10
108.0683554011
 20
412.4354935707
 30
0.0
 40
0.1917516175532151
100
AcDbArc
 50
180.6753089964
 51
267.7584313435
  0
SPLINE
  5
126
330
1F
100
AcDbEntity
  8
0
  6
Continuous
 62
     8
370
    18
100
AcDbSpline
210
0.0
220
0.0
230
1.0
 70
     8
 71
     3
 72
     9
 73
     5
 74
     0
 42
0.000000001
 43
0.00000001
 40
0.0
 40
0.0
 40
0.0
 40
0.0
 40
0.4627251795972675
 40
1.0
 40
1.0
 40
1.0
 40
1.0
 10
107.8766171023189
 20
412.4332335683421
 30
0.0
 10
107.8766150793837
 20
412.8250668444201
 30
0.0
 10
107.8766107075981
 20
413.6718616447786
 30
0.0
 10
107.8766116613587
 20
414.5179960172371
 30
0.0
 10
107.8766121737903
 20
414.9726027102363
 30
0.0
  0
SPLINE
  5
127
330
1F
100
AcDbEntity
  8
0
  6
Continuous
 62
     8
370
    18
100
AcDbSpline
210
0.0
220
0.0
230
1.0
 70
     8
 71
     3
 72
     9
 73
     5
 74
     0
 42
0.000000001
 43
0.00000001
 40
0.0
 40
0.0
 40
0.0
 40
0.0
 40
0.4627251795972675
 40
1.0
 40
1.0
 40
1.0
 40
1.0
 10
150.5784422879592
 20
412.4332335683421
 30
0.0
 10
150.5784443108945
 20
412.8250668444201
 30
0.0
 10
150.5784486826801
 20
413.6718616447786
 30
0.0
 10
150.5784477289195
 20
414.5179960172371
 30
0.0
 10
150.5784472164879
 20
414.9726027102363
 30
0.0
  0
SPLINE
  5
128
330
1F
100
AcDbEntity
  8
0
  6
Continuous
 62
     7
370
    25
100
AcDbSpline
210
0.0
220
0.0
230
1.0
 70
     8
 71
     3
 72
    12
 73
     8
 74
     0
 42
0.000000001
 43
0.00000001
 40
0.0
 40
0.0
 40
0.0
 40
0.0
 40
0.0027814889492414
 40
0.2162391665122553
 40
0.4900190520508871
 40
0.8143425600521514
 40
1.0
 40
1.0
 40
1.0
 40
1.0
 10
332.5949581602372
 20
381.5912570685142
 30
0.0
 10
332.604377580025
 20
381.5937209271823
 30
0.0
 10
333.336664323247
 20
381.7852668058531
 30
0.0
 10
335.0006083024464
 20
382.1530455495426
 30
0.0
 10
337.7525736541335
 20
382.6863817319306
 30
0.0
 10
340.4212682447572
 20
383.1021988220584
 30
0.0
 10
342.2116526220691
 20
383.2823710743034
 30
0.0
 10
342.8634381080781
 20
383.3479623855788
 30
0.0
  0
SPLINE
  5
129
330
1F
100
AcDbEntity
  8
0
  6
Continuous
 62
     7
370
    25
100
AcDbSpline
210
0.0
220
0.0
230
1.0
 70
     8
 71
     3
 72
    15
 73
    11
 74
     0
 42
0.000000001
 43
0.00000001
 40
0.0
 40
0.0
 40
0.0
 40
0.0
 40
0.1204601468564232
 40
0.2761895579325039
 40
0.4331545983269641
 40
0.5953329802975695
 40
0.743770405075811
 40
0.8605888418167251
 40
0.9476910053980494
 40
1.0
 40
1.0
 40
1.0
 40
1.0
 10
292.4131854214842
 20
333.3192437328121
 30
0.0
 10
292.5119125127588
 20
334.0883294954241
 30
0.0
 10
292.7382727854856
 20
335.8516799671879
 30
0.0
 10
293.2502594019244
 20
338.8175247369817
 30
0.0
 10
293.9910962281253
 20
342.0589970873351
 30
0.0
 10
294.8953881792713
 20
345.164188086996
 30
0.0
 10
295.8314681183236
 20
347.930621070969
 30
0.0
 10
296.698862098842
 20
350.2021277243206
 30
0.0
 10
297.3797050773209
 20
351.8407181406681
 30
0.0
 10
297.780118645606
 20
352.7194283929389
 30
0.0
 10
297.9303593541325
 20
353.0491326321239
 30
0.0
  0
LINE
  5
12A
330
1F
100
AcDbEntity
  8
0
  6
Continuous
 62
     7
370
    25
100
AcDbLine
 10
313.6982779161
 20
431.7654342218
 30
0.0
 11
314.3480888423
 21
432.0722835602
 31
0.0
  0
LINE
  5
12B
330
1F
100
AcDbEntity
  8
0
  6
Continuous
 62
     7
370
    25
100
AcDbLine
 10
313.139594745
 20
431.5016166181
 30
0.0
 11
313.6982779161
 21
431.7654342218
 31
0.0
  0
SPLINE
  5
12C
330
1F
100
AcDbEntity
  8
0
  6
Continuous
 62
     7
370
    25
100
AcDbSpline
210
0.0
220
0.0
230
1.0
 70
     8
 71
     3
 72
     9
 73
     5
 74
     0
 42
0.000000001
 43
0.00000001
 40
0.0
 40
0.0
 40
0.0
 40
0.0
 40
0.3892929245248723
 40
1.0
 40
1.0
 40
1.0
 40
1.0
 10
377.0639254006663
 20
442.5101267270351
 30
0.0
 10
376.3188481266234
 20
442.7077425172801
 30
0.0
 10
374.4049236057697
 20
443.2153700075208
 30
0.0
 10
372.4979235443997
 20
443.4813468649252
 30
0.0
 10
371.3333051139895
 20
443.6437808136547
 30
0.0
  0
SPLINE
  5
12D
330
1F
100
AcDbEntity
  8
0
  6
Continuous
 62
     7
370
    25
100
AcDbSpline
210
0.0
220
0.0
230
1.0
 70
     8
 71
     3
 72
    11
 73
     7
 74
     0
 42
0.000000001
 43
0.00000001
 40
0.0
 40
0.0
 40
0.0
 40
0.0
 40
0.2524667268745402
 40
0.5439675045133181
 40
0.8188794740097154
 40
1.0
 40
1.0
 40
1.0
 40
1.0
 10
397.8901443076574
 20
392.3232432679832
 30
0.0
 10
398.2097775523125
 20
392.5049942091612
 30
0.0
 10
398.8984627529605
 20
392.8965967270038
 30
0.0
 10
399.9731717166489
 20
393.5837227622094
 30
0.0
 10
400.9417226992906
 20
394.2453926644942
 30
0.0
 10
401.4521042983356
 20
394.6340142372223
 30
0.0
 10
401.6548104313188
 20
394.7883614479151
 30
0.0
  0
SPLINE
  5
12E
330
1F
100
AcDbEntity
  8
0
  6
Continuous
 62
     7
370
    25
100
AcDbSpline
210
0.0
220
0.0
230
1.0
 70
     8
 71
     3
 72
    15
 73
    11
 74
     0
 42
0.000000001
 43
0.00000001
 40
0.0
 40
0.0
 40
0.0
 40
0.0
 40
0.1164652475375479
 40
0.2393261358847263
 40
0.3659429204191859
 40
0.4950713313054609
 40
0.6257338857298856
 40
0.7554410927925267
 40
0.8811517988596483
 40
1.0
 40
1.0
 40
1.0
 40
1.0
 10
411.1020425874389
 20
406.6218125942329
 30
0.0
 10
411.1371051321089
 20
406.691809276084
 30
0.0
 10
411.2091556665608
 20
406.8356464785659
 30
0.0
 10
411.258827724262
 20
407.0871621335643
 30
0.0
 10
411.2518336940471
 20
407.3592593383963
 30
0.0
 10
411.1753374136468
 20
407.6304934722581
 30
0.0
 10
411.0356174519716
 20
407.8730374983872
 30
0.0
 10
410.8476176172489
 20
408.0671685000615
 30
0.0
 10
410.6333542270218
 20
408.2080515439068
 30
0.0
 10
410.4798488344573
 20
408.2575296212792
 30
0.0
 10
410.4052498759489
 20
408.2815744641301
 30
0.0
  0
SPLINE
  5
12F
330
1F
100
AcDbEntity
  8
0
  6
Continuous
 62
     7
370
    25
100
AcDbSpline
210
0.0
220
0.0
230
1.0
 70
     8
 71
     3
 72
     9
 73
     5
 74
     0
 42
0.000000001
 43
0.00000001
 40
0.0
 40
0.0
 40
0.0
 40
0.0
 40
0.7214950557152406
 40
1.0
 40
1.0
 40
1.0
 40
1.0
 10
365.0398615914918
 20
409.8439295758884
 30
0.0
 10
349.4011691974218
 20
409.8429473107284
 30
0.0
 10
327.7257713271385
 20
409.8415858805259
 30
0.0
 10
306.051119290881
 20
409.8313062616904
 30
0.0
 10
300.0146215331315
 20
409.8284433370194
 30
0.0
  0
ARC
  5
130
330
1F
100
AcDbEntity
  8
0
  6
Continuous
 62
     7
370
    25
100
AcDbCircle
 10
267.3745334644
 20
407.6749494559
 30
0.0
 40
10.0
100
AcDbArc
 50
170.9531540197
 51
180.0
  0
SPLINE
  5
131
330
1F
100
AcDbEntity
  8
0
  6
Continuous
 62
     7
370
    25
100
AcDbSpline
210
0.0
220
0.0
230
1.0
 70
     8
 71
     3
 72
    16
 73
    12
 74
     0
 42
0.000000001
 43
0.00000001
 40
0.0
 40
0.0
 40
0.0
 40
0.0
 40
0.238935313633886
 40
0.3537707949133537
 40
0.4600766892930024
 40
0.5111498552455802
 40
0.5624962332320608
 40
0.6162378505347019
 40
0.6748258965754017
 40
0.8154684970445677
 40
1.0
 40
1.0
 40
1.0
 40
1.0
 10
364.7017973878237
 20
435.850719896694
 30
0.0
 10
365.3384639336616
 20
435.8851194503417
 30
0.0
 10
366.2811208669974
 20
435.9360518857929
 30
0.0
 10
367.793363851105
 20
436.1189796411613
 30
0.0
 10
368.8194232107485
 20
436.2966082086546
 30
0.0
 10
369.6568114796711
 20
436.4712663482355
 30
0.0
 10
370.2862576729614
 20
436.6184022873456
 30
0.0
 10
370.917955668917
 20
436.7833085583807
 30
0.0
 10
371.8078925364151
 20
437.0407454202049
 30
0.0
 10
372.9162871755152
 20
437.4124063051183
 30
0.0
 10
373.5772243098259
 20
437.6797847378616
 30
0.0
 10
373.9522963757404
 20
437.8315180509771
 30
0.0
  0
ARC
  5
132
330
1F
100
AcDbEntity
  8
0
  6
Continuous
 62
     7
370
    25
100
AcDbCircle
 10
278.8745334644
 20
405.8438886809
 30
0.0
 40
21.64486082191338
100
AcDbArc
 50
144.5487409478
 51
170.9531540197
  0
ARC
  5
133
330
1F
100
AcDbEntity
  8
0
  6
Continuous
 62
     7
370
    25
100
AcDbCircle
 10
278.8745334644
 20
405.8438886809
 30
0.0
 40
21.64486082191335
100
AcDbArc
 50
10.6530441907
 51
17.1984493857
  0
LINE
  5
134
330
1F
100
AcDbEntity
  8
0
  6
Continuous
 62
     7
370
    25
100
AcDbLine
 10
398.4398763792
 20
389.5889222386
 30
0.0
 11
397.8455394481
 21
392.2921216252
 31
0.0
  0
LINE
  5
135
330
1F
100
AcDbEntity
  8
0
  6
Continuous
 62
     7
370
    25
100
AcDbLine
 10
374.5717475285
 20
386.3819035108
 30
0.0
 11
374.9997416992
 21
384.4352743866
 31
0.0
  0
LINE
  5
136
330
1F
100
AcDbEntity
  8
0
  6
Continuous
 62
     7
370
    25
100
AcDbLine
 10
397.8899355249
 20
392.323122194
 30
0.0
 11
398.3365758641
 21
392.5821306145
 31
0.0
  0
LINE
  5
137
330
1F
100
AcDbEntity
  8
0
  6
Continuous
 62
     7
370
    25
100
AcDbLine
 10
401.5397077544
 20
394.7020711271
 30
0.0
 11
401.6540411569
 21
394.7877847373
 31
0.0
  0
LINE
  5
138
330
1F
100
AcDbEntity
  8
0
  6
Continuous
 62
     7
370
    25
100
AcDbLine
 10
257.3745334644
 20
407.6749494559
 30
0.0
 11
257.3745334644
 21
406.6801887093
 31
0.0
  0
LINE
  5
139
330
1F
100
AcDbEntity
  8
0
  6
Continuous
 62
     7
370
    25
100
AcDbLine
 10
304.6245334644
 20
418.2438886809
 30
0.0
 11
305.2250808343
 21
418.4624700478
 31
0.0
  0
ARC
  5
13A
330
1F
100
AcDbEntity
  8
0
  6
Continuous
 62
     7
370
    25
100
AcDbCircle
 10
305.1566768057
 20
418.650408572
 30
0.0
 40
0.2000000000000553
100
AcDbArc
 50
290.0
 51
0.0
  0
LINE
  5
13B
330
1F
100
AcDbEntity
  8
0
  6
Continuous
 62
     7
370
    25
100
AcDbLine
 10
305.3566768057
 20
418.650408572
 30
0.0
 11
305.3566768057
 21
422.1427576472
 31
0.0
  0
LINE
  5
13C
330
1F
100
AcDbEntity
  8
0
  6
Continuous
 62
     7
370
    25
100
AcDbLine
 10
304.4620008318
 20
418.2438886809
 30
0.0
 11
304.6245334644
 21
418.2438886809
 31
0.0
  0
LINE
  5
13D
330
1F
100
AcDbEntity
  8
0
  6
Continuous
 62
     7
370
    25
100
AcDbLine
 10
313.6982779161
 20
431.7654342218
 30
0.0
 11
314.3480888423
 21
432.0722835602
 31
0.0
  0
LINE
  5
13E
330
1F
100
AcDbEntity
  8
0
  6
Continuous
 62
     7
370
    25
100
AcDbLine
 10
313.139594745
 20
431.5016166181
 30
0.0
 11
313.6982779161
 21
431.7654342218
 31
0.0
  0
SPLINE
  5
13F
330
1F
100
AcDbEntity
  8
0
  6
Continuous
 62
     7
370
    25
100
AcDbSpline
210
0.0
220
0.0
230
1.0
 70
     8
 71
     3
 72
    12
 73
     8
 74
     0
 42
0.000000001
 43
0.00000001
 40
0.0
 40
0.0
 40
0.0
 40
0.0
 40
0.25
 40
0.25
 40
0.5
 40
0.5
 40
1.0
 40
1.0
 40
1.0
 40
1.0
 10
265.6304182017533
 20
416.963277688062
 30
0.0
 10
265.5191327220692
 20
416.9976209056235
 30
0.0
 10
265.4097562153477
 20
417.0315168679669
 30
0.0
 10
265.1946959716672
 20
417.0984253705715
 30
0.0
 10
265.0884629044338
 20
417.1316133271661
 30
0.0
 10
264.7906555863588
 20
417.2249803013869
 30
0.0
 10
264.6125958120771
 20
417.2812751998561
 30
0.0
 10
264.4738842055277
 20
417.3253127493887
 30
0.0
  0
SPLINE
  5
140
330
1F
100
AcDbEntity
  8
0
  6
Continuous
 62
     7
370
    25
100
AcDbSpline
210
0.0
220
0.0
230
1.0
 70
     8
 71
     3
 72
    10
 73
     6
 74
     0
 42
0.000000001
 43
0.00000001
 40
0.0
 40
0.0
 40
0.0
 40
0.0
 40
0.5
 40
0.5
 40
1.0
 40
1.0
 40
1.0
 40
1.0
 10
273.4518730872823
 20
414.7795816537918
 30
0.0
 10
272.1388437055957
 20
415.1081316246338
 30
0.0
 10
270.8304439336475
 20
415.4544059612662
 30
0.0
 10
268.2232217180016
 20
416.1823152570069
 30
0.0
 10
266.9243957378552
 20
416.5639502276097
 30
0.0
 10
265.6304218865163
 20
416.963276550927
 30
0.0
  0
SPLINE
  5
141
330
1F
100
AcDbEntity
  8
0
  6
Continuous
 62
     7
370
    25
100
AcDbSpline
210
0.0
220
0.0
230
1.0
 70
     8
 71
     3
 72
     9
 73
     5
 74
     0
 42
0.000000001
 43
0.00000001
 40
0.0
 40
0.0
 40
0.0
 40
0.0
 40
0.5104304237169558
 40
1.0
 40
1.0
 40
1.0
 40
1.0
 10
342.8659928633556
 20
383.316824038506
 30
0.0
 10
341.1814606036361
 20
383.1298314503172
 30
0.0
 10
337.881241452409
 20
382.7634884983686
 30
0.0
 10
334.6389445965023
 20
382.0477424949509
 30
0.0
 10
333.0516146985722
 20
381.6973350273315
 30
0.0
  0
SPLINE
  5
142
330
1F
100
AcDbEntity
  8
0
  6
Continuous
 62
     7
370
    25
100
AcDbSpline
210
0.0
220
0.0
230
1.0
 70
     8
 71
     3
 72
    19
 73
    15
 74
     0
 42
0.000000001
 43
0.00000001
 40
0.0
 40
0.0
 40
0.0
 40
0.0
 40
0.1013655217912277
 40
0.1994712439964879
 40
0.2954412890513666
 40
0.369127786621991
 40
0.4421301674183753
 40
0.5148185700886162
 40
0.5824123167905059
 40
0.6501991532400448
 40
0.7184790264380907
 40
0.8141261740251612
 40
0.9116771143700586
 40
1.0
 40
1.0
 40
1.0
 40
1.0
 10
332.8235857764113
 20
381.6448033728452
 30
0.0
 10
331.2886500857299
 20
381.23599762595
 30
0.0
 10
328.268140485775
 20
380.4315328587873
 30
0.0
 10
323.9347495430159
 20
378.7871640007697
 30
0.0
 10
320.1403706424746
 20
376.9907232137741
 30
0.0
 10
316.8446012220512
 20
375.0916493829696
 30
0.0
 10
313.9933876549122
 20
373.1693300495845
 30
0.0
 10
311.3626145728167
 20
371.1060459031823
 30
0.0
 10
308.942458058442
 20
368.9201778298492
 30
0.0
 10
306.7221201776612
 20
366.6268871362461
 30
0.0
 10
304.3733633227646
 20
363.8568264697332
 30
0.0
 10
301.977300623239
 20
360.5300268978885
 30
0.0
 10
299.6953925397507
 20
356.7484093890338
 30
0.0
 10
298.4438686311018
 20
354.1185877676023
 30
0.0
 10
297.8491738026772
 20
352.8689581703275
 30
0.0
  0
SPLINE
  5
143
330
1F
100
AcDbEntity
  8
0
  6
Continuous
 62
     7
370
    25
100
AcDbSpline
210
0.0
220
0.0
230
1.0
 70
     8
 71
     3
 72
    12
 73
     8
 74
     0
 42
0.000000001
 43
0.00000001
 40
0.0
 40
0.0
 40
0.0
 40
0.0
 40
0.2016125655204349
 40
0.4083267258147975
 40
0.6099827046699547
 40
0.8074955135731816
 40
1.0
 40
1.0
 40
1.0
 40
1.0
 10
296.1298193237489
 20
348.6740649866963
 30
0.0
 10
295.7773465159799
 20
347.6703581533425
 30
0.0
 10
295.0634819452696
 20
345.6375467366365
 30
0.0
 10
294.1849324529328
 20
342.5397862186242
 30
0.0
 10
293.4461881527244
 20
339.4294949214596
 30
0.0
 10
292.8467839831663
 20
336.364747623072
 30
0.0
 10
292.5583804722571
 20
334.3272636294067
 30
0.0
 10
292.4160304523579
 20
333.3216035868912
 30
0.0
  0
SPLINE
  5
144
330
1F
100
AcDbEntity
  8
0
  6
Continuous
 62
     7
370
    25
100
AcDbSpline
210
0.0
220
0.0
230
1.0
 70
    24
 71
     3
 72
    12
 73
     8
 74
     0
 42
0.000000001
 43
0.00000001
 40
0.0
 40
0.0
 40
0.0
 40
0.0
 40
0.4999999999999989
 40
0.4999999999999989
 40
0.7499999999999994
 40
0.7499999999999994
 40
1.0
 40
1.0
 40
1.0
 40
1.0
 10
250.4866647219371
 20
307.6438886809258
 30
0.0
 10
250.1711649987917
 20
307.6438886809258
 30
0.0
 10
249.858535139197
 20
307.6438886809258
 30
0.0
 10
249.4376466511903
 20
307.6438886809258
 30
0.0
 10
249.3028827346112
 20
307.6438886809258
 30
0.0
 10
249.0593413108419
 20
307.6438886809258
 30
0.0
 10
248.9493885229486
 20
307.6438886809258
 30
0.0
 10
248.8517444241509
 20
307.6438886809258
 30
0.0
  0
LINE
  5
145
330
1F
100
AcDbEntity
  8
0
  6
Continuous
 62
     7
370
    25
100
AcDbLine
 10
292.4159016934
 20
333.3216215923
 30
0.0
 11
288.8071316768
 21
307.6438886809
 31
0.0
  0
SPLINE
  5
146
330
1F
100
AcDbEntity
  8
0
  6
Continuous
 62
     7
370
    25
100
AcDbSpline
210
0.0
220
0.0
230
1.0
 70
    24
 71
     3
 72
    10
 73
     6
 74
     0
 42
0.000000001
 43
0.00000001
 40
0.0146611577316554
 40
0.0146611577316554
 40
0.0146611577316554
 40
0.0146611577316554
 40
0.3733767382841222
 40
0.4733767382841219
 40
1.0
 40
1.0
 40
1.0
 40
1.0
 10
250.486664721958
 20
307.6438886809258
 30
0.0
 10
258.470168447049
 20
307.6438886809258
 30
0.0
 10
264.6299578184824
 20
307.6438886809258
 30
0.0
 10
280.0935252158841
 20
307.6438886809258
 30
0.0
 10
288.807131676792
 20
307.6438886809258
 30
0.0
 10
288.8071316767919
 20
307.6438886809258
 30
0.0
  0
SPLINE
  5
147
330
1F
100
AcDbEntity
  8
0
  6
Continuous
 62
     7
370
    25
100
AcDbSpline
210
0.0
220
0.0
230
1.0
 70
     8
 71
     3
 72
    10
 73
     6
 74
     0
 42
0.000000001
 43
0.00000001
 40
0.0
 40
0.0
 40
0.0
 40
0.0
 40
0.4999999999999998
 40
0.4999999999999998
 40
1.0
 40
1.0
 40
1.0
 40
1.0
 10
289.239456332029
 20
412.2438886809255
 30
0.0
 10
288.0310020088909
 20
412.2438886809256
 30
0.0
 10
286.7970984642145
 20
412.2986081701621
 30
0.0
 10
284.2855637081884
 20
412.5318062007847
 30
0.0
 10
283.0078777512048
 20
412.7112023020982
 30
0.0
 10
281.7400811725908
 20
412.9531852993621
 30
0.0
  0
SPLINE
  5
148
330
1F
100
AcDbEntity
  8
0
  6
Continuous
 62
     7
370
    25
100
AcDbSpline
210
0.0
220
0.0
230
1.0
 70
     8
 71
     3
 72
    10
 73
     6
 74
     0
 42
0.000000001
 43
0.00000001
 40
0.0
 40
0.0
 40
0.0
 40
0.0
 40
0.5
 40
0.5
 40
1.0
 40
1.0
 40
1.0
 40
1.0
 10
281.7400811725908
 20
412.9531852993621
 30
0.0
 10
280.3553921515678
 20
413.2174794339558
 30
0.0
 10
278.9701233686092
 20
413.5021476810704
 30
0.0
 10
276.2060211291771
 20
414.1111483013854
 30
0.0
 10
274.8270934104341
 20
414.4354700929857
 30
0.0
 10
273.451873630009
 20
414.7795815179892
 30
0.0
  0
SPLINE
  5
149
330
1F
100
AcDbEntity
  8
0
  6
Continuous
 62
     7
370
    25
100
AcDbSpline
210
0.0
220
0.0
230
1.0
 70
     8
 71
     3
 72
    15
 73
    11
 74
     0
 42
0.000000001
 43
0.00000001
 40
0.0536665386845898
 40
0.0536665386845898
 40
0.0536665386845898
 40
0.0536665386845898
 40
0.0625
 40
0.0746556163472797
 40
0.09375
 40
0.1072113196828973
 40
0.109375
 40
0.1253581594827354
 40
0.1334116082784285
 40
0.1335492570660403
 40
0.1335492570660403
 40
0.1335492570660403
 40
0.1335492570660403
 10
256.6066651933608
 20
420.2323593452427
 30
0.0
 10
256.6684070433673
 20
420.6708479237348
 30
0.0
 10
256.8153288594479
 20
421.7129136251121
 30
0.0
 10
257.0971848702633
 20
423.70402189473
 30
0.0
 10
257.4097749393036
 20
425.923508469838
 30
0.0
 10
257.6460577849209
 20
427.6416545084511
 30
0.0
 10
257.8683422716078
 20
429.1966179257323
 30
0.0
 10
258.0657851772407
 20
430.5100908964423
 30
0.0
 10
258.2077054926172
 20
431.6746767234734
 30
0.0
 10
258.2666545364413
 20
432.1006530121091
 30
0.0
 10
258.2676482701256
 20
432.107820280658
 30
0.0
  0
SPLINE
  5
14A
330
1F
100
AcDbEntity
  8
0
  6
Continuous
 62
     7
370
    25
100
AcDbSpline
210
0.0
220
0.0
230
1.0
 70
     8
 71
     3
 72
    21
 73
    17
 74
     0
 42
0.000000001
 43
0.00000001
 40
0.0
 40
0.0
 40
0.0
 40
0.0
 40
0.1171875
 40
0.1875
 40
0.2265625
 40
0.25
 40
0.3125
 40
0.4375
 40
0.4701855173808662
 40
0.625
 40
0.75
 40
0.828125
 40
0.875
 40
0.953125
 40
0.9799107142857143
 40
1.0
 40
1.0
 40
1.0
 40
1.0
 10
279.0785025042906
 20
444.2432191133487
 30
0.0
 10
277.9697884195044
 20
444.243423347683
 30
0.0
 10
276.1958458838464
 20
444.2427426028905
 30
0.0
 10
274.0523497598832
 20
444.2429670115047
 30
0.0
 10
272.795831840183
 20
444.2446826799417
 30
0.0
 10
271.6130847853152
 20
444.243329166409
 30
0.0
 10
269.6166620162139
 20
444.2289730200028
 30
0.0
 10
267.5464146336449
 20
443.9151339537882
 30
0.0
 10
264.7616902555827
 20
442.8728481387252
 30
0.0
 10
262.2166976149455
 20
441.1654070585479
 30
0.0
 10
260.1746701990119
 20
438.433511610191
 30
0.0
 10
259.2562244874391
 20
436.4154570714989
 30
0.0
 10
258.7341397692887
 20
434.7805227324513
 30
0.0
 10
258.4983730312753
 20
433.5893156539281
 30
0.0
 10
258.3506354821808
 20
432.6502417642566
 30
0.0
 10
258.2904175731616
 20
432.2698322912657
 30
0.0
 10
258.2676482696235
 20
432.1078202782709
 30
0.0
  0
ARC
  5
14B
330
1F
100
AcDbEntity
  8
0
  6
Continuous
 62
     7
370
    25
100
AcDbCircle
 10
256.8047115612
 20
420.2044732161
 30
0.0
 40
0.200000000093191
100
AcDbArc
 50
171.9850984238
 51
249.256041414
  0
SPLINE
  5
14C
330
1F
100
AcDbEntity
  8
0
  6
Continuous
 62
     7
370
    25
100
AcDbSpline
210
0.0
220
0.0
230
1.0
 70
     8
 71
     3
 72
    16
 73
    12
 74
     0
 42
0.000000001
 43
0.00000001
 40
0.0
 40
0.0
 40
0.0
 40
0.0
 40
0.2500000000000001
 40
0.2500000000000001
 40
0.5000000000000002
 40
0.5000000000000002
 40
0.6250000000000001
 40
0.6250000000000001
 40
0.7500000000000001
 40
0.7500000000000001
 40
1.0
 40
1.0
 40
1.0
 40
1.0
 10
264.4737922570814
 20
417.3253419408088
 30
0.0
 10
263.2172834794986
 20
417.7242536995278
 30
0.0
 10
262.114178722822
 20
418.0924057538092
 30
0.0
 10
260.198328114019
 20
418.7501417114726
 30
0.0
 10
259.3855629721747
 20
419.0398220671552
 30
0.0
 10
258.3917238063288
 20
419.4002469401644
 30
0.0
 10
258.1023394552982
 20
419.5064950614283
 30
0.0
 10
257.6068113778147
 20
419.6896676017828
 30
0.0
 10
257.4003002970582
 20
419.7667278130652
 30
0.0
 10
256.9031181886959
 20
419.9530082025066
 30
0.0
 10
256.7339042579875
 20
420.0174268931278
 30
0.0
 10
256.7338730746368
 20
420.0174387036826
 30
0.0
  0
SPLINE
  5
14D
330
1F
100
AcDbEntity
  8
0
  6
Continuous
 62
     7
370
    25
100
AcDbSpline
210
0.0
220
0.0
230
1.0
 70
     8
 71
     3
 72
    11
 73
     7
 74
     0
 42
0.000000001
 43
0.00000001
 40
0.0
 40
0.0
 40
0.0
 40
0.0
 40
0.0751664193079906
 40
0.2499278898771095
 40
0.7502715047962021
 40
0.8923738069957347
 40
0.8923738069957347
 40
0.8923738069957347
 40
0.8923738069957347
 10
342.8659625499016
 20
383.3171194909174
 30
0.0
 10
343.7571150525931
 20
383.4096406930382
 30
0.0
 10
346.7230048809055
 20
383.6930542687796
 30
0.0
 10
355.6055177823498
 20
384.5483429816621
 30
0.0
 10
365.2804889333117
 20
385.4799367451268
 30
0.0
 10
372.8864477239717
 20
386.2123072777092
 30
0.0
 10
374.5717475284852
 20
386.3819035107578
 30
0.0
  0
SPLINE
  5
14E
330
1F
100
AcDbEntity
  8
0
  6
Continuous
 62
     7
370
    25
100
AcDbSpline
210
0.0
220
0.0
230
1.0
 70
     8
 71
     3
 72
    18
 73
    14
 74
     0
 42
0.000000001
 43
0.00000001
 40
0.0
 40
0.0
 40
0.0
 40
0.0
 40
0.2500000000000018
 40
0.2500000000000018
 40
0.375000000000002
 40
0.375000000000002
 40
0.5000000000000022
 40
0.5000000000000022
 40
0.7500000000000011
 40
0.7500000000000011
 40
0.8750000000000006
 40
0.8750000000000006
 40
1.0
 40
1.0
 40
1.0
 40
1.0
 10
378.4071316767918
 20
388.0348689114282
 30
0.0
 10
377.799287530148
 20
387.7973105487964
 30
0.0
 10
377.2617678051988
 20
387.5725419979156
 30
0.0
 10
376.5529391722135
 20
387.2672867997249
 30
0.0
 10
376.3330631283203
 20
387.1708703714669
 30
0.0
 10
375.9267286200634
 20
386.9909348806995
 30
0.0
 10
375.7419219024633
 20
386.9081472669216
 30
0.0
 10
375.2496653489139
 20
386.6867229269212
 30
0.0
 10
374.999690166832
 20
386.5732105367736
 30
0.0
 10
374.7442469149634
 20
386.4583633593822
 30
0.0
 10
374.679427000841
 20
386.4294322793205
 30
0.0
 10
374.593421600405
 20
386.3913129736647
 30
0.0
 10
374.5717475284851
 20
386.3819035107578
 30
0.0
 10
374.5717475284852
 20
386.3819035107578
 30
0.0
  0
LWPOLYLINE
  5
14F
330
1F
100
AcDbEntity
  8
0
  6
Continuous
 62
     7
370
    25
100
AcDbPolyline
 90
        7
 70
   128
 43
0.0
 10
253.6228924386
 20
398.8721514442
 10
252.8739738058
 20
393.4948450884
 10
252.1217465923
 20
388.165455533
 10
251.371601146
 20
382.8150727713
 10
250.6208336654
 20
377.4709770103
 10
249.869918366
 20
372.128357965
 10
240.8071316768
 20
307.6438886809
  0
SPLINE
  5
150
330
1F
100
AcDbEntity
  8
0
  6
Continuous
 62
     7
370
    25
100
AcDbSpline
210
0.0
220
0.0
230
1.0
 70
    24
 71
     3
 72
     8
 73
     4
 74
     0
 42
0.000000001
 43
0.00000001
 40
0.0
 40
0.0
 40
0.0
 40
0.0
 40
0.9613087036283728
 40
0.9613087036283728
 40
0.9613087036283728
 40
0.9613087036283728
 10
240.8071316767919
 20
307.6438886809258
 30
0.0
 10
240.8071316767919
 20
307.6438886809258
 30
0.0
 10
243.6470617419781
 20
307.6438886809258
 30
0.0
 10
248.8517444240649
 20
307.6438886809258
 30
0.0
  0
SPLINE
  5
151
330
1F
100
AcDbEntity
  8
0
  6
Continuous
 62
     7
370
    25
100
AcDbSpline
210
0.0
220
0.0
230
1.0
 70
     8
 71
     3
 72
    18
 73
    14
 74
     0
 42
0.000000001
 43
0.00000001
 40
0.0
 40
0.0
 40
0.0
 40
0.0
 40
0.25
 40
0.25
 40
0.375
 40
0.375
 40
0.5
 40
0.5
 40
0.75
 40
0.75
 40
0.875
 40
0.875
 40
1.0
 40
1.0
 40
1.0
 40
1.0
 10
259.8569826653771
 20
407.6749494559226
 30
0.0
 10
260.5037465970592
 20
407.8506746094259
 30
0.0
 10
261.2622708426377
 20
408.005629497927
 30
0.0
 10
262.5593904098326
 20
408.1816892303592
 30
0.0
 10
263.0184841702906
 20
408.2317038870868
 30
0.0
 10
263.9909914024644
 20
408.3187574809214
 30
0.0
 10
264.5056108328394
 20
408.3561527291213
 30
0.0
 10
266.0982354213118
 20
408.4551565332922
 30
0.0
 10
267.234644549873
 20
408.5081099969593
 30
0.0
 10
269.0486904594004
 20
408.5108617464103
 30
0.0
 10
269.6738501778265
 20
408.4985655368086
 30
0.0
 10
270.9522602750379
 20
408.4500125879125
 30
0.0
 10
271.6030456627765
 20
408.4126437433293
 30
0.0
 10
272.2667079307022
 20
408.3805370397132
 30
0.0
  0
SPLINE
  5
152
330
1F
100
AcDbEntity
  8
0
  6
Continuous
 62
     7
370
    25
100
AcDbSpline
210
0.0
220
0.0
230
1.0
 70
     8
 71
     3
 72
    15
 73
    11
 74
     0
 42
0.000000001
 43
0.00000001
 40
0.6533465698196066
 40
0.6533465698196066
 40
0.6533465698196066
 40
0.6533465698196066
 40
0.67901195280979
 40
0.724867388122677
 40
0.7707228234355639
 40
0.8165782587484512
 40
0.8624336940613384
 40
0.9082891293742255
 40
0.954144564687113
 40
1.0
 40
1.0
 40
1.0
 40
1.0
 10
257.3745334644177
 20
406.6801887092809
 30
0.0
 10
257.2152813570218
 20
406.5322602109509
 30
0.0
 10
256.7820241720602
 20
406.1080763423882
 30
0.0
 10
256.122756566467
 20
405.3592327180618
 30
0.0
 10
255.4376591262006
 20
404.4077211789928
 30
0.0
 10
254.8537774399682
 20
403.3894001865021
 30
0.0
 10
254.3847555604636
 20
402.3113185705678
 30
0.0
 10
254.0312090321104
 20
401.1884847501823
 30
0.0
 10
253.7937533993321
 20
400.0359071443386
 30
0.0
 10
253.6828778165565
 20
399.2595829169167
 30
0.0
 10
253.628320655958
 20
398.871388548255
 30
0.0
  0
SPLINE
  5
153
330
1F
100
AcDbEntity
  8
0
  6
Continuous
 62
     7
370
    25
100
AcDbSpline
210
0.0
220
0.0
230
1.0
 70
     8
 71
     3
 72
    16
 73
    12
 74
     0
 42
0.000000001
 43
0.00000001
 40
0.0
 40
0.0
 40
0.0
 40
0.0
 40
0.2499999999999999
 40
0.2499999999999999
 40
0.4999999999999998
 40
0.4999999999999998
 40
0.6249999999999998
 40
0.6249999999999998
 40
0.7499999999999999
 40
0.7499999999999999
 40
1.0
 40
1.0
 40
1.0
 40
1.0
 10
257.3745334644177
 20
406.6801887092809
 30
0.0
 10
257.3745334644178
 20
406.6801887142895
 30
0.0
 10
257.4283053609022
 20
406.7210914046751
 30
0.0
 10
257.6391725774075
 20
406.850473220382
 30
0.0
 10
257.7963541862529
 20
406.9329002219707
 30
0.0
 10
258.1108310975059
 20
407.0715161578113
 30
0.0
 10
258.2288708399635
 20
407.1210706311364
 30
0.0
 10
258.4888005212073
 20
407.2253897912186
 30
0.0
 10
258.6309462809157
 20
407.2800856118124
 30
0.0
 10
259.0937029435393
 20
407.4478399470621
 30
0.0
 10
259.4504609872086
 20
407.5644978973258
 30
0.0
 10
259.8569826653773
 20
407.6749494559227
 30
0.0
  0
SPLINE
  5
154
330
1F
100
AcDbEntity
  8
0
  6
Continuous
 62
     7
370
    25
100
AcDbSpline
210
0.0
220
0.0
230
1.0
 70
     8
 71
     3
 72
    12
 73
     8
 74
     0
 42
0.000000001
 43
0.00000001
 40
0.0
 40
0.0
 40
0.0
 40
0.0
 40
0.2173001707463315
 40
0.4191356990087668
 40
0.6106933090065804
 40
0.8307084348171838
 40
1.0
 40
1.0
 40
1.0
 40
1.0
 10
305.3552559103908
 20
421.4178667555174
 30
0.0
 10
305.705849087565
 20
422.3415791190504
 30
0.0
 10
306.3820847107488
 20
424.1232658330682
 30
0.0
 10
307.7805836385796
 20
426.5347706116569
 30
0.0
 10
309.5202852743466
 20
428.7171000482394
 30
0.0
 10
311.4832292606354
 20
430.517854594428
 30
0.0
 10
313.0269742754184
 20
431.3873365044886
 30
0.0
 10
313.6982779438164
 20
431.7654341762154
 30
0.0
  0
SPLINE
  5
155
330
1F
100
AcDbEntity
  8
0
  6
Continuous
 62
     7
370
    25
100
AcDbSpline
210
0.0
220
0.0
230
1.0
 70
     8
 71
     3
 72
    14
 73
    10
 74
     0
 42
0.000000001
 43
0.00000001
 40
0.0
 40
0.0
 40
0.0
 40
0.0
 40
0.5000000000000245
 40
0.5000000000000245
 40
0.7500000000000369
 40
0.7500000000000369
 40
0.8750000000000184
 40
0.8750000000000184
 40
1.0
 40
1.0
 40
1.0
 40
1.0
 10
305.2250808343389
 20
421.8792819396667
 30
0.0
 10
305.2499748247621
 20
421.9463721733172
 30
0.0
 10
305.2758673072378
 20
422.0125227853684
 30
0.0
 10
305.3163704816798
 20
422.1044403618484
 30
0.0
 10
305.330432651008
 20
422.1346001443798
 30
0.0
 10
305.3478481979155
 20
422.1635397066166
 30
0.0
 10
305.3527658380049
 20
422.169537782643
 30
0.0
 10
305.3573452513401
 20
422.1673622059163
 30
0.0
 10
305.3569898384854
 20
422.1596968986852
 30
0.0
 10
305.3552559104037
 20
422.1492993164284
 30
0.0
  0
SPLINE
  5
156
330
1F
100
AcDbEntity
  8
0
  6
Continuous
 62
     7
370
    25
100
AcDbSpline
210
0.0
220
0.0
230
1.0
 70
     8
 71
     3
 72
    10
 73
     6
 74
     0
 42
0.000000001
 43
0.00000001
 40
0.0
 40
0.0
 40
0.0
 40
0.0
 40
0.5
 40
0.5
 40
1.0
 40
1.0
 40
1.0
 40
1.0
 10
304.6245334644177
 20
419.6737861566911
 30
0.0
 10
304.6822655773278
 20
419.9985437380049
 30
0.0
 10
304.7585370476956
 20
420.3543361229969
 30
0.0
 10
304.9612246271366
 20
421.1121708948619
 30
0.0
 10
305.0823532422185
 20
421.494625749922
 30
0.0
 10
305.2250808343389
 20
421.8792819396667
 30
0.0
  0
SPLINE
  5
157
330
1F
100
AcDbEntity
  8
0
  6
Continuous
 62
     7
370
    25
100
AcDbSpline
210
0.0
220
0.0
230
1.0
 70
     8
 71
     3
 72
    14
 73
    10
 74
     0
 42
0.000000001
 43
0.00000001
 40
0.0
 40
0.0
 40
0.0
 40
0.0
 40
0.25
 40
0.25
 40
0.5
 40
0.5
 40
0.75
 40
0.75
 40
1.0
 40
1.0
 40
1.0
 40
1.0
 10
304.4620008317933
 20
418.2438886809255
 30
0.0
 10
304.4620008248046
 20
418.2438886809255
 30
0.0
 10
304.463895203584
 20
418.2758875261039
 30
0.0
 10
304.4725314185371
 20
418.4014150688302
 30
0.0
 10
304.4794262902999
 20
418.4967560912207
 30
0.0
 10
304.5011810454895
 20
418.7422751615742
 30
0.0
 10
304.5159937323813
 20
418.8923440315626
 30
0.0
 10
304.5591967223267
 20
419.2481736256771
 30
0.0
 10
304.5872255564338
 20
419.4503763840561
 30
0.0
 10
304.6245334644176
 20
419.6737861566902
 30
0.0
  0
SPLINE
  5
158
330
1F
100
AcDbEntity
  8
0
  6
Continuous
 62
     7
370
    25
100
AcDbSpline
210
0.0
220
0.0
230
1.0
 70
     8
 71
     3
 72
    14
 73
    10
 74
     0
 42
0.000000001
 43
0.00000001
 40
0.9220776240218705
 40
0.9220776240218705
 40
0.9220776240218705
 40
0.9220776240218705
 40
0.9444926072700285
 40
0.9670637152928665
 40
0.9745874179671459
 40
0.9821111206414253
 40
0.9821111206414253
 40
0.9910555603207126
 40
1.0
 40
1.0
 40
1.0
 40
1.0
 10
304.4620008317933
 20
418.2438886809254
 30
0.0
 10
304.3945784198163
 20
417.9461876785721
 30
0.0
 10
304.2653002874677
 20
417.3391527459099
 30
0.0
 10
304.1285286366003
 20
416.6079061192762
 30
0.0
 10
304.0373535866432
 20
416.0732371785
 30
0.0
 10
304.0021817791932
 20
415.8568931152545
 30
0.0
 10
303.9645485885079
 20
415.6194881140671
 30
0.0
 10
303.9247786018628
 20
415.3607826219888
 30
0.0
 10
303.8876731567422
 20
415.1019960141517
 30
0.0
 10
303.8691204341819
 20
414.972602710233
 30
0.0
  0
SPLINE
  5
159
330
1F
100
AcDbEntity
  8
0
  6
Continuous
 62
     7
370
    25
100
AcDbSpline
210
0.0
220
0.0
230
1.0
 70
     8
 71
     3
 72
     9
 73
     5
 74
     0
 42
0.000000001
 43
0.00000001
 40
0.0
 40
0.0
 40
0.0
 40
0.0
 40
0.6714672031821947
 40
1.0
 40
1.0
 40
1.0
 40
1.0
 10
377.079684921107
 20
442.5196836665498
 30
0.0
 10
376.6307092611449
 20
442.6434387898364
 30
0.0
 10
375.9620605798179
 20
442.8277443265775
 30
0.0
 10
375.2822723480772
 20
442.9643963671326
 30
0.0
 10
375.0589396190597
 20
443.009291044207
 30
0.0
  0
SPLINE
  5
15A
330
1F
100
AcDbEntity
  8
0
  6
Continuous
 62
     7
370
    25
100
AcDbSpline
210
0.0
220
0.0
230
1.0
 70
     8
 71
     3
 72
    16
 73
    12
 74
     0
 42
0.000000001
 43
0.00000001
 40
0.0
 40
0.0
 40
0.0
 40
0.0
 40
0.0173644360648657
 40
0.0400596138849509
 40
0.1085224297071257
 40
0.1765591663883916
 40
0.2444411557512065
 40
0.4472947670612525
 40
0.6505431871966239
 40
0.8252608621431285
 40
1.0
 40
1.0
 40
1.0
 40
1.0
 10
371.5213350772634
 20
443.6127281002483
 30
0.0
 10
370.9904878868371
 20
443.6813477611486
 30
0.0
 10
369.7658277020232
 20
443.8396527651417
 30
0.0
 10
366.4318036166306
 20
444.1219957069193
 30
0.0
 10
361.5242846956431
 20
444.2766235902194
 30
0.0
 10
355.2249774151724
 20
444.2350499246155
 30
0.0
 10
344.7830495167358
 20
444.2516952595055
 30
0.0
 10
330.1737146136263
 20
444.2414174428009
 30
0.0
 10
312.2713453747313
 20
444.2451722255734
 30
0.0
 10
295.2355623656677
 20
444.2434821992859
 30
0.0
 10
284.4644096386798
 20
444.2433068122518
 30
0.0
 10
279.0785025042907
 20
444.2432191133488
 30
0.0
  0
LINE
  5
15B
330
1F
100
AcDbEntity
  8
0
  6
Continuous
 62
     7
370
    25
100
AcDbLine
 10
377.0656461232
 20
442.5170698176
 30
0.0
 11
377.0798708484
 21
442.5209623193
 31
0.0
  0
LINE
  5
15C
330
1F
100
AcDbEntity
  8
0
  6
Continuous
 62
     7
370
    25
100
AcDbLine
 10
411.1018926931
 20
406.622225642
 30
0.0
 11
411.0963489235
 21
406.6197842816
 31
0.0
  0
SPLINE
  5
15D
330
1F
100
AcDbEntity
  8
0
  6
Continuous
 62
     7
370
    25
100
AcDbSpline
210
0.0
220
0.0
230
1.0
 70
     8
 71
     3
 72
    18
 73
    14
 74
     0
 42
0.000000001
 43
0.00000001
 40
0.0
 40
0.0
 40
0.0
 40
0.0
 40
0.066661219562232
 40
0.1355640704316051
 40
0.2056438197954945
 40
0.2873491233979183
 40
0.3824626147115563
 40
0.4973779418503413
 40
0.6112612352269601
 40
0.750313855730474
 40
0.8932894275206761
 40
0.9463636684210665
 40
1.0
 40
1.0
 40
1.0
 40
1.0
 10
411.1018926931099
 20
406.6222256419678
 30
0.0
 10
410.8814202324964
 20
406.2407833008465
 30
0.0
 10
410.4330614359558
 20
405.4650717741607
 30
0.0
 10
409.7550168952928
 20
404.2871785490992
 30
0.0
 10
409.0231011320108
 20
403.0254492058713
 30
0.0
 10
408.1495543338985
 20
401.6463840812439
 30
0.0
 10
407.0270044908958
 20
400.0772588048682
 30
0.0
 10
405.6611223578745
 20
398.425828205126
 30
0.0
 10
403.9639821368862
 20
396.6814816623776
 30
0.0
 10
401.9764655903244
 20
394.9731111209136
 30
0.0
 10
400.1647751878477
 20
393.6937187397093
 30
0.0
 10
398.7651318919014
 20
392.8190320022773
 30
0.0
 10
398.1531447343064
 20
392.468374378164
 30
0.0
 10
397.8455393551563
 20
392.2921220335215
 30
0.0
  0
SPLINE
  5
15E
330
1F
100
AcDbEntity
  8
0
  6
Continuous
 62
     7
370
    25
100
AcDbSpline
210
0.0
220
0.0
230
1.0
 70
     8
 71
     3
 72
    44
 73
    40
 74
     0
 42
0.000000001
 43
0.00000001
 40
0.0
 40
0.0
 40
0.0
 40
0.0
 40
0.0625000000000004
 40
0.0625000000000004
 40
0.1250000000000007
 40
0.1250000000000007
 40
0.1875000000000011
 40
0.1875000000000011
 40
0.2187500000000009
 40
0.2187500000000009
 40
0.2500000000000007
 40
0.2500000000000007
 40
0.3750000000000002
 40
0.3750000000000002
 40
0.4062500000000003
 40
0.4062500000000003
 40
0.4375000000000004
 40
0.4375000000000004
 40
0.5000000000000009
 40
0.5000000000000009
 40
0.5625000000000013
 40
0.5625000000000013
 40
0.6250000000000019
 40
0.6250000000000019
 40
0.6562500000000019
 40
0.6562500000000019
 40
0.687500000000002
 40
0.687500000000002
 40
0.7500000000000024
 40
0.7500000000000024
 40
0.812500000000003
 40
0.812500000000003
 40
0.8437500000000026
 40
0.8437500000000026
 40
0.875000000000002
 40
0.875000000000002
 40
0.9375000000000011
 40
0.9375000000000011
 40
1.0
 40
1.0
 40
1.0
 40
1.0
 10
397.845539357866
 20
392.2921220350433
 30
0.0
 10
397.8453617106504
 20
392.2929398665403
 30
0.0
 10
397.8067204783639
 20
392.2796378296072
 30
0.0
 10
397.6506132683645
 20
392.2299548477472
 30
0.0
 10
397.5316790297146
 20
392.1932176951725
 30
0.0
 10
397.2189584865449
 20
392.1052707172688
 30
0.0
 10
397.0252016293481
 20
392.0540748277626
 30
0.0
 10
396.6780805595322
 20
391.9711236467748
 30
0.0
 10
396.5529263266795
 20
391.9424289894483
 30
0.0
 10
396.2832507708738
 20
391.8835298340223
 30
0.0
 10
396.1380816444035
 20
391.8531994749467
 30
0.0
 10
395.3707467386695
 20
391.7007162087352
 30
0.0
 10
394.6306405820521
 20
391.5787723136199
 30
0.0
 10
393.5487050559831
 20
391.4286318787111
 30
0.0
 10
393.3239087095286
 20
391.3985404319026
 30
0.0
 10
392.865611161574
 20
391.3388183186165
 30
0.0
 10
392.6312865316989
 20
391.3090691258024
 30
0.0
 10
391.9132552615669
 20
391.2191452112617
 30
0.0
 10
391.414562219693
 20
391.1583598207961
 30
0.0
 10
390.3779540958199
 20
391.0279622112375
 30
0.0
 10
389.836166219969
 20
390.9577316927094
 30
0.0
 10
388.745288925263
 20
390.8040326583671
 30
0.0
 10
388.1935615043629
 20
390.7202336450597
 30
0.0
 10
387.3574631449529
 20
390.5790774108922
 30
0.0
 10
387.0773366852409
 20
390.5294604049787
 30
0.0
 10
386.5142738551155
 20
390.4243878882737
 30
0.0
 10
386.2302608799249
 20
390.3687064091745
 30
0.0
 10
385.381942002526
 20
390.1936462737372
 30
0.0
 10
384.8255075784062
 20
390.0671336997127
 30
0.0
 10
383.7302825030681
 20
389.7948472753495
 30
0.0
 10
383.1914855737233
 20
389.649100804895
 30
0.0
 10
382.3963344258095
 20
389.4177420244027
 30
0.0
 10
382.132952409146
 20
389.3383320278682
 30
0.0
 10
381.6188612401886
 20
389.1783478641128
 30
0.0
 10
381.3671184223023
 20
389.0974853045684
 30
0.0
 10
380.6271699057105
 20
388.8532214891034
 30
0.0
 10
380.1541651197367
 20
388.6881492163161
 30
0.0
 10
379.2473402096299
 20
388.3584789661795
 30
0.0
 10
378.811565162319
 20
388.1930422785185
 30
0.0
 10
378.407113177049
 20
388.0348629464197
 30
0.0
  0
LINE
  5
15F
330
1F
100
AcDbEntity
  8
0
  6
Continuous
 62
     7
370
    25
100
AcDbLine
 10
410.3996844383
 20
408.2795215544
 30
0.0
 11
410.4048741512
 21
408.2817941074
 31
0.0
  0
SPLINE
  5
160
330
1F
100
AcDbEntity
  8
0
  6
Continuous
 62
     7
370
    25
100
AcDbSpline
210
0.0
220
0.0
230
1.0
 70
     8
 71
     3
 72
    13
 73
     9
 74
     0
 42
0.000000001
 43
0.00000001
 40
0.0
 40
0.0
 40
0.0
 40
0.0
 40
0.0003887987573296
 40
0.2115875163684485
 40
0.4227862224311646
 40
0.6277676617023936
 40
0.8213449647733214
 40
1.0
 40
1.0
 40
1.0
 40
1.0
 10
411.2405809352628
 20
407.3565727222702
 30
0.0
 10
411.2405756873717
 20
407.356743413118
 30
0.0
 10
411.237719741386
 20
407.4496347916788
 30
0.0
 10
411.1707031525934
 20
407.6290305853643
 30
0.0
 10
411.0386554422803
 20
407.8711703939537
 30
0.0
 10
410.8496283298176
 20
408.0653508230249
 30
0.0
 10
410.6360171979303
 20
408.2071397422012
 30
0.0
 10
410.4798347900272
 20
408.2575833903822
 30
0.0
 10
410.4048741519662
 20
408.2817941072263
 30
0.0
  0
SPLINE
  5
161
330
1F
100
AcDbEntity
  8
0
  6
Continuous
 62
     7
370
    25
100
AcDbSpline
210
0.0
220
0.0
230
1.0
 70
     8
 71
     3
 72
    46
 73
    42
 74
     0
 42
0.000000001
 43
0.00000001
 40
0.5374422410907671
 40
0.5374422410907671
 40
0.5374422410907671
 40
0.5374422410907671
 40
0.539441159828245
 40
0.5659422428653578
 40
0.5914902166768783
 40
0.6170382501905001
 40
0.6547694208319925
 40
0.6762660482118759
 40
0.6870110299418928
 40
0.7080107947918319
 40
0.7441532852175492
 40
0.7657684867855641
 40
0.7873837499715944
 40
0.8125
 40
0.8240267832909852
 40
0.8363052562468388
 40
0.8498698906206706
 40
0.859375
 40
0.8739541532059557
 40
0.875
 40
0.8806467682230179
 40
0.890625
 40
0.8980973861344554
 40
0.90625
 40
0.9102544268311267
 40
0.9150802993576028
 40
0.9203487392215168
 40
0.921875
 40
0.9263012902724653
 40
0.9328812936333513
 40
0.9375
 40
0.9398347293868624
 40
0.9468342469857686
 40
0.953125
 40
0.9535932957927217
 40
0.9535932957927217
 40
0.953598270425846
 40
0.95703125
 40
0.9588974647357232
 40
0.9628465288642429
 40
0.963415313326451
 40
0.963415313326451
 40
0.963415313326451
 40
0.963415313326451
 10
300.1466146246858
 20
409.8437090657616
 30
0.0
 10
300.3201690677248
 20
409.843704982951
 30
0.0
 10
302.7946570832757
 20
409.8436477896799
 30
0.0
 10
307.4873062227707
 20
409.8435665425074
 30
0.0
 10
314.224538429009
 20
409.8435102394174
 30
0.0
 10
321.9367710450048
 20
409.8435016677501
 30
0.0
 10
329.2972305069738
 20
409.8435454304384
 30
0.0
 10
335.3724489297609
 20
409.843605588241
 30
0.0
 10
339.9950066650234
 20
409.8436575201732
 30
0.0
 10
345.8891639627338
 20
409.8437290865969
 30
0.0
 10
352.7146700868327
 20
409.8438134028544
 30
0.0
 10
359.6061160998053
 20
409.8438829922794
 30
0.0
 10
365.5402584510468
 20
409.8439263448444
 30
0.0
 10
370.6116031788274
 20
409.8440080851556
 30
0.0
 10
374.8606339473408
 20
409.8441512129313
 30
0.0
 10
378.1059835905471
 20
409.8442281196724
 30
0.0
 10
381.1744704393298
 20
409.8441915767981
 30
0.0
 10
384.440492808273
 20
409.8439689237685
 30
0.0
 10
386.618532680672
 20
409.8436532982398
 30
0.0
 10
388.4736220956592
 20
409.8440191523421
 30
0.0
 10
389.9316167796115
 20
409.8445358213221
 30
0.0
 10
391.9544083303316
 20
409.838266572221
 30
0.0
 10
394.1767157942842
 20
409.8057615330821
 30
0.0
 10
395.8795036679144
 20
409.764403212512
 30
0.0
 10
397.3613514771511
 20
409.7183682119542
 30
0.0
 10
398.5952727195003
 20
409.6718476718443
 30
0.0
 10
399.6141470923205
 20
409.6232718447618
 30
0.0
 10
400.5979956286836
 20
409.5680064956363
 30
0.0
 10
401.6965129992538
 20
409.497617279955
 30
0.0
 10
403.0605529136494
 20
409.3908183325656
 30
0.0
 10
404.230853500273
 20
409.2827562050587
 30
0.0
 10
405.427478257473
 20
409.1619326295614
 30
0.0
 10
406.7454094426964
 20
409.0083660829483
 30
0.0
 10
407.8514220124656
 20
408.8347743449464
 30
0.0
 10
408.3751329997737
 20
408.736435529708
 30
0.0
 10
408.4113315368654
 20
408.7295615363358
 30
0.0
 10
408.6769122254848
 20
408.6791282055079
 30
0.0
 10
409.0775770279234
 20
408.5966344809582
 30
0.0
 10
409.7275089292625
 20
408.4505696302609
 30
0.0
 10
410.1287586921109
 20
408.3524508311472
 30
0.0
 10
410.374555236002
 20
408.289593375887
 30
0.0
 10
410.4048741501232
 20
408.2817941056129
 30
0.0
  0
SPLINE
  5
162
330
1F
100
AcDbEntity
  8
0
  6
Continuous
 62
     7
370
    25
100
AcDbSpline
210
0.0
220
0.0
230
1.0
 70
     8
 71
     3
 72
    28
 73
    24
 74
     0
 42
0.000000001
 43
0.00000001
 40
0.0
 40
0.0
 40
0.0
 40
0.0
 40
0.1250000000000001
 40
0.1250000000000001
 40
0.1875000000000001
 40
0.1875000000000001
 40
0.2500000000000002
 40
0.2500000000000002
 40
0.3750000000000002
 40
0.3750000000000002
 40
0.5000000000000003
 40
0.5000000000000003
 40
0.5625000000000002
 40
0.5625000000000002
 40
0.6250000000000002
 40
0.6250000000000002
 40
0.7500000000000001
 40
0.7500000000000001
 40
0.8125
 40
0.8125
 40
0.8749999999999999
 40
0.8749999999999999
 40
1.0
 40
1.0
 40
1.0
 40
1.0
 10
272.2665674397625
 20
408.3805723203607
 30
0.0
 10
273.3144445263209
 20
408.3299123972769
 30
0.0
 10
274.3790379752117
 20
408.2920441731613
 30
0.0
 10
276.0003938506702
 20
408.2544455829482
 30
0.0
 10
276.5449237025485
 20
408.2446250437463
 30
0.0
 10
277.6422756599432
 20
408.2307077661122
 30
0.0
 10
278.197308316748
 20
408.2266508091085
 30
0.0
 10
279.8588077283651
 20
408.22383139583
 30
0.0
 10
280.9536769460586
 20
408.2343656215696
 30
0.0
 10
283.1186564803338
 20
408.2803379575219
 30
0.0
 10
284.1887635036786
 20
408.3159076673664
 30
0.0
 10
285.7746270441124
 20
408.3868850024451
 30
0.0
 10
286.2958773814007
 20
408.4133073045719
 30
0.0
 10
287.3154939721678
 20
408.4706238345311
 30
0.0
 10
287.8152337382938
 20
408.5015794285172
 30
0.0
 10
289.2847068202794
 20
408.6003477819493
 30
0.0
 10
290.2248694642526
 20
408.6740669566753
 30
0.0
 10
291.5745530626574
 20
408.7923687983624
 30
0.0
 10
292.0150180169952
 20
408.833185636737
 30
0.0
 10
292.8616602110005
 20
408.915458330454
 30
0.0
 10
293.2695964800904
 20
408.957060016776
 30
0.0
 10
294.4479801486552
 20
409.0821935123467
 30
0.0
 10
295.1732673678773
 20
409.1660778333154
 30
0.0
 10
295.8370098792097
 20
409.24736908635
 30
0.0
  0
SPLINE
  5
163
330
1F
100
AcDbEntity
  8
0
  6
Continuous
 62
     7
370
    25
100
AcDbSpline
210
0.0
220
0.0
230
1.0
 70
     8
 71
     3
 72
    11
 73
     7
 74
     0
 42
0.000000001
 43
0.00000001
 40
0.0
 40
0.0
 40
0.0
 40
0.0
 40
0.3152787316010929
 40
0.6155060207588638
 40
0.9244312697040994
 40
1.0
 40
1.0
 40
1.0
 40
1.0
 10
295.8370098792097
 20
409.24736908635
 30
0.0
 10
296.539531127344
 20
409.3370491170384
 30
0.0
 10
297.9110351794625
 20
409.5121278435681
 30
0.0
 10
299.2387399544534
 20
409.7059034008793
 30
0.0
 10
299.9167899760101
 20
409.8084666275061
 30
0.0
 10
299.9985524664185
 20
409.8210325233561
 30
0.0
 10
300.0146221265942
 20
409.8235022337955
 30
0.0
  0
SPLINE
  5
164
330
1F
100
AcDbEntity
  8
0
  6
Continuous
 62
     7
370
    25
100
AcDbSpline
210
0.0
220
0.0
230
1.0
 70
     8
 71
     3
 72
    20
 73
    16
 74
     0
 42
0.000000001
 43
0.00000001
 40
0.0
 40
0.0
 40
0.0
 40
0.0
 40
0.0393680632116066
 40
0.1049815018976176
 40
0.1679704030361882
 40
0.2073384662477948
 40
0.2309593041747587
 40
0.2536353085846441
 40
0.2687526448579011
 40
0.2687526448579011
 40
0.2771123144959892
 40
0.2938316537721656
 40
0.3356300019626065
 40
0.3774283501530473
 40
0.3920140775888328
 40
0.3920140775888328
 40
0.3920140775888328
 40
0.3920140775888328
 10
327.1220798940991
 20
434.8076247294591
 30
0.0
 10
326.6744186935199
 20
434.7901896090112
 30
0.0
 10
325.4799286931533
 20
434.7338629628507
 30
0.0
 10
323.5710637772659
 20
434.5881762088642
 30
0.0
 10
321.6762926839976
 20
434.3495972067137
 30
0.0
 10
320.2699743768917
 20
434.0986653779954
 30
0.0
 10
319.321437865112
 20
433.8941912296632
 30
0.0
 10
318.6463202729801
 20
433.728541698987
 30
0.0
 10
318.2329953891397
 20
433.6162453223561
 30
0.0
 10
317.9774599589355
 20
433.5440135004757
 30
0.0
 10
317.7052079780929
 20
433.4653913717659
 30
0.0
 10
316.9901936415694
 20
433.2455967119699
 30
0.0
 10
315.9529557737856
 20
432.8789447863165
 30
0.0
 10
314.9878222999421
 20
432.4669072371603
 30
0.0
 10
314.4528566309542
 20
432.208984153988
 30
0.0
 10
314.3157594886571
 20
432.1408222830341
 30
0.0
  0
SPLINE
  5
165
330
1F
100
AcDbEntity
  8
0
  6
Continuous
 62
     7
370
    25
100
AcDbSpline
210
0.0
220
0.0
230
1.0
 70
     8
 71
     3
 72
    14
 73
    10
 74
     0
 42
0.000000001
 43
0.00000001
 40
0.0
 40
0.0
 40
0.0
 40
0.0
 40
0.25
 40
0.25
 40
0.5
 40
0.5
 40
0.75
 40
0.75
 40
1.0
 40
1.0
 40
1.0
 40
1.0
 10
377.079870848422
 20
442.5209623192698
 30
0.0
 10
377.2000236036853
 20
442.4866408829005
 30
0.0
 10
377.3212674749713
 20
442.4320344226225
 30
0.0
 10
377.5456065817021
 20
442.2811746389289
 30
0.0
 10
377.6483233767435
 20
442.1849012726057
 30
0.0
 10
377.8160600969348
 20
441.9633041672695
 30
0.0
 10
377.8808325074473
 20
441.8383074238429
 30
0.0
 10
377.9651248830532
 20
441.5814341455104
 30
0.0
 10
377.9847668717063
 20
441.4499164085159
 30
0.0
 10
377.9851823578097
 20
441.3249553932798
 30
0.0
  0
LINE
  5
166
330
1F
100
AcDbEntity
  8
0
  6
Continuous
 62
     7
370
    25
100
AcDbLine
 10
364.7017973878
 20
435.8507198967
 30
0.0
 11
366.5899167427
 21
436.0595256527
 31
0.0
  0
SPLINE
  5
167
330
1F
100
AcDbEntity
  8
0
  6
Continuous
 62
     7
370
    25
100
AcDbSpline
210
0.0
220
0.0
230
1.0
 70
     8
 71
     3
 72
    12
 73
     8
 74
     0
 42
0.000000001
 43
0.00000001
 40
0.0
 40
0.0
 40
0.0
 40
0.0
 40
0.092487141700693
 40
0.4507843693373695
 40
0.6350038074848994
 40
0.8185175997152236
 40
1.0
 40
1.0
 40
1.0
 40
1.0
 10
373.9456032710727
 20
437.848414713483
 30
0.0
 10
374.1065641762763
 20
437.9100767523504
 30
0.0
 10
374.8910911797701
 20
438.2106188903364
 30
0.0
 10
375.9451829116426
 20
438.7778638995549
 30
0.0
 10
377.0393565782386
 20
439.5544578185462
 30
0.0
 10
377.8137969606084
 20
440.2932654837824
 30
0.0
 10
377.9268921726254
 20
440.9823718772155
 30
0.0
 10
377.9831250620595
 20
441.3250074577953
 30
0.0
  0
SPLINE
  5
168
330
1F
100
AcDbEntity
  8
0
  6
Continuous
 62
     7
370
    25
100
AcDbSpline
210
0.0
220
0.0
230
1.0
 70
     8
 71
     3
 72
     9
 73
     5
 74
     0
 42
0.000000001
 43
0.00000001
 40
0.0
 40
0.0
 40
0.0
 40
0.0
 40
0.0080919606692745
 40
0.6163562711132031
 40
0.6163562711132031
 40
0.6163562711132031
 40
0.6163562711132031
 10
364.7017973878237
 20
435.8507198966939
 30
0.0
 10
364.600488874287
 20
435.8476259090403
 30
0.0
 10
356.8838778692307
 20
435.6320814468429
 30
0.0
 10
349.1672668641745
 20
435.4165369846454
 30
0.0
 10
341.5519649812599
 20
435.20382234246
 30
0.0
  0
SPLINE
  5
169
330
1F
100
AcDbEntity
  8
0
  6
Continuous
 62
     7
370
    25
100
AcDbSpline
210
0.0
220
0.0
230
1.0
 70
     8
 71
     3
 72
    10
 73
     6
 74
     0
 42
0.000000001
 43
0.00000001
 40
0.6163562711132031
 40
0.6163562711132031
 40
0.6163562711132031
 40
0.6163562711132031
 40
0.7519807799717173
 40
0.9156583731344602
 40
1.0
 40
1.0
 40
1.0
 40
1.0
 10
341.5519649812599
 20
435.20382234246
 30
0.0
 10
339.8539834295791
 20
435.1563934231925
 30
0.0
 10
336.1068034258414
 20
435.0517252083332
 30
0.0
 10
331.3036894492417
 20
434.9175620869473
 30
0.0
 10
328.182723846147
 20
434.8489337708332
 30
0.0
 10
327.1220798940991
 20
434.8076247294591
 30
0.0
  0
SPLINE
  5
16A
330
1F
100
AcDbEntity
  8
0
  6
Continuous
 62
     7
370
    25
100
AcDbSpline
210
0.0
220
0.0
230
1.0
 70
    24
 71
     3
 72
     8
 73
     4
 74
     0
 42
0.000000001
 43
0.00000001
 40
0.0
 40
0.0
 40
0.0
 40
0.0
 40
0.0003430621114162
 40
0.0003430621114162
 40
0.0003430621114162
 40
0.0003430621114162
 10
289.5569360085396
 20
412.2438886809255
 30
0.0
 10
289.4514441922729
 20
412.2438886809255
 30
0.0
 10
289.3456110854968
 20
412.2438886809255
 30
0.0
 10
289.239456332029
 20
412.2438886809255
 30
0.0
  0
SPLINE
  5
16B
330
1F
100
AcDbEntity
  8
0
  6
Continuous
 62
     7
370
    25
100
AcDbSpline
210
0.0
220
0.0
230
1.0
 70
     8
 71
     3
 72
     9
 73
     5
 74
     0
 42
0.000000001
 43
0.00000001
 40
0.0631150928828058
 40
0.0631150928828058
 40
0.0631150928828058
 40
0.0631150928828058
 40
0.5
 40
1.0
 40
1.0
 40
1.0
 40
1.0
 10
303.50972849676
 20
412.4160755032424
 30
0.0
 10
303.5655339781288
 20
412.8134643052119
 30
0.0
 10
303.684921214071
 20
413.6656840188012
 30
0.0
 10
303.8047268554475
 20
414.5178600705527
 30
0.0
 10
303.8691204341819
 20
414.972602710233
 30
0.0
  0
ARC
  5
16C
330
1F
100
AcDbEntity
  8
0
  6
Continuous
 62
     7
370
    25
100
AcDbCircle
 10
303.3116718706
 20
412.4438886809
 30
0.0
 40
0.2000000000000455
100
AcDbArc
 50
270.0
 51
352.0062031482
  0
SPLINE
  5
16D
330
1F
100
AcDbEntity
  8
0
  6
Continuous
 62
     7
370
    25
100
AcDbSpline
210
0.0
220
0.0
230
1.0
 70
    24
 71
     3
 72
    26
 73
    22
 74
     0
 42
0.000000001
 43
0.00000001
 40
0.0
 40
0.0
 40
0.0
 40
0.0
 40
0.1249999999999999
 40
0.1249999999999999
 40
0.1874999999999998
 40
0.1874999999999998
 40
0.2499999999999997
 40
0.2499999999999997
 40
0.3749999999999996
 40
0.3749999999999996
 40
0.4999999999999994
 40
0.4999999999999994
 40
0.6249999999999992
 40
0.6249999999999992
 40
0.7499999999999992
 40
0.7499999999999992
 40
0.8124999999999993
 40
0.8124999999999993
 40
0.8749999999999996
 40
0.8749999999999996
 40
1.0
 40
1.0
 40
1.0
 40
1.0
 10
303.3116718706473
 20
412.2438886809255
 30
0.0
 10
303.3116718706473
 20
412.2438886809255
 30
0.0
 10
303.2341905060718
 20
412.2438886809256
 30
0.0
 10
303.001926565356
 20
412.2438886809256
 30
0.0
 10
302.9051004873044
 20
412.2438886809255
 30
0.0
 10
302.6718302668563
 20
412.2438886809255
 30
0.0
 10
302.535178140755
 20
412.2438886809256
 30
0.0
 10
302.0710714723762
 20
412.2438886809256
 30
0.0
 10
301.6883364615846
 20
412.2438886809256
 30
0.0
 10
300.7767796848207
 20
412.2438886809256
 30
0.0
 10
300.248005576024
 20
412.2438886809255
 30
0.0
 10
299.0353194789062
 20
412.2438886809255
 30
0.0
 10
298.3653830517725
 20
412.2438886809255
 30
0.0
 10
296.9063697515819
 20
412.2438886809255
 30
0.0
 10
296.1165300761907
 20
412.2438886809256
 30
0.0
 10
294.8382363324035
 20
412.2438886809256
 30
0.0
 10
294.3947568616844
 20
412.2438886809256
 30
0.0
 10
293.4844905574103
 20
412.2438886809256
 30
0.0
 10
293.0186085013102
 20
412.2438886809256
 30
0.0
 10
291.5892670089821
 20
412.2438886809256
 30
0.0
 10
290.5942327999267
 20
412.2438886809255
 30
0.0
 10
289.5569360085396
 20
412.2438886809255
 30
0.0
  0
LINE
  5
16E
330
1F
100
AcDbEntity
  8
0
  6
Continuous
 62
     7
370
    25
100
AcDbLine
 10
398.1981679106
 20
386.0313798009
 30
0.0
 11
397.4632041009
 21
389.3741869115
 31
0.0
  0
LINE
  5
16F
330
1F
100
AcDbEntity
  8
0
  6
Continuous
 62
     7
370
    25
100
AcDbLine
 10
398.1981679106
 20
386.0313798009
 30
0.0
 11
376.7113777873
 21
381.3072026033
 31
0.0
  0
LINE
  5
170
330
1F
100
AcDbEntity
  8
0
  6
Continuous
 62
     7
370
    25
100
AcDbLine
 10
376.7113777873
 20
381.3072026033
 30
0.0
 11
375.9764139776
 21
384.6500097138
 31
0.0
  0
LINE
  5
171
330
1F
100
AcDbEntity
  8
0
  6
Continuous
 62
     7
370
    25
100
AcDbLine
 10
374.9997416992
 20
384.4352743866
 30
0.0
 11
375.9764139776
 21
384.6500097138
 31
0.0
  0
LINE
  5
172
330
1F
100
AcDbEntity
  8
0
  6
Continuous
 62
     7
370
    25
100
AcDbLine
 10
397.4632041009
 20
389.3741869115
 30
0.0
 11
398.4398763792
 21
389.5889222386
 31
0.0
  0
SPLINE
  5
173
330
1F
100
AcDbEntity
  8
0
  6
Continuous
 62
     7
370
    25
100
AcDbSpline
210
0.0
220
0.0
230
1.0
 70
    24
 71
     3
 72
    10
 73
     6
 74
     0
 42
0.000000001
 43
0.00000001
 40
0.0
 40
0.0
 40
0.0
 40
0.0
 40
0.5
 40
0.5
 40
1.0
 40
1.0
 40
1.0
 40
1.0
 10
398.3221454095712
 20
385.4674977981358
 30
0.0
 10
398.3221454095712
 20
385.4674977981358
 30
0.0
 10
398.3107722466033
 20
385.5192259098272
 30
0.0
 10
398.2680291092486
 20
385.7136328474002
 30
0.0
 10
398.2368519924306
 20
385.8554345067555
 30
0.0
 10
398.1981679106268
 20
386.0313798009421
 30
0.0
  0
LINE
  5
174
330
1F
100
AcDbEntity
  8
0
  6
Continuous
 62
     7
370
    25
100
AcDbLine
 10
398.3221454096
 20
385.4674977981
 30
0.0
 11
376.8353552862
 21
380.7433206005
 31
0.0
  0
SPLINE
  5
175
330
1F
100
AcDbEntity
  8
0
  6
Continuous
 62
     7
370
    25
100
AcDbSpline
210
0.0
220
0.0
230
1.0
 70
    24
 71
     3
 72
    10
 73
     6
 74
     0
 42
0.000000001
 43
0.00000001
 40
0.0
 40
0.0
 40
0.0
 40
0.0
 40
0.5000000000000001
 40
0.5000000000000001
 40
1.0
 40
1.0
 40
1.0
 40
1.0
 10
376.8353552862195
 20
380.7433206004605
 30
0.0
 10
376.8353552862195
 20
380.7433206004605
 30
0.0
 10
376.8239821232515
 20
380.795048712152
 30
0.0
 10
376.7812389858969
 20
380.989455649725
 30
0.0
 10
376.7500618690789
 20
381.1312573090802
 30
0.0
 10
376.711377787275
 20
381.3072026032668
 30
0.0
  0
LINE
  5
176
330
1F
100
AcDbEntity
  8
0
  6
Continuous
 62
     7
370
    25
100
AcDbLine
 10
304.6245334644
 20
418.2438886809
 30
0.0
 11
304.6245334644
 21
419.6737861567
 31
0.0
  0
LINE
  5
177
330
1F
100
AcDbEntity
  8
0
  6
Continuous
 62
     7
370
    25
100
AcDbLine
 10
410.3996844383
 20
408.2795215544
 30
0.0
 11
410.4048741512
 21
408.2817941074
 31
0.0
  0
SPLINE
  5
178
330
1F
100
AcDbEntity
  8
0
  6
Continuous
 62
     8
370
    18
100
AcDbSpline
210
0.0
220
0.0
230
1.0
 70
     8
 71
     3
 72
    12
 73
     8
 74
     0
 42
0.000000001
 43
0.00000001
 40
0.0
 40
0.0
 40
0.0
 40
0.0
 40
0.5000000000000033
 40
0.5000000000000033
 40
0.7500000000000017
 40
0.7500000000000017
 40
1.0
 40
1.0
 40
1.0
 40
1.0
 10
264.378938522917
 20
417.5379877667862
 30
0.0
 10
264.5349495548243
 20
417.491825920188
 30
0.0
 10
264.7381760629331
 20
417.4318984643195
 30
0.0
 10
265.07628264592
 20
417.3329512841393
 30
0.0
 10
265.1969448647898
 20
417.2977518117419
 30
0.0
 10
265.4412412155987
 20
417.2267538348103
 30
0.0
 10
265.5664710834221
 20
417.1904893179793
 30
0.0
 10
265.6919302800703
 20
417.1542955795874
 30
0.0
  0
SPLINE
  5
179
330
1F
100
AcDbEntity
  8
0
  6
Continuous
 62
     8
370
    18
100
AcDbSpline
210
0.0
220
0.0
230
1.0
 70
     8
 71
     3
 72
    10
 73
     6
 74
     0
 42
0.000000001
 43
0.00000001
 40
0.0
 40
0.0
 40
0.0
 40
0.0
 40
0.5
 40
0.5
 40
1.0
 40
1.0
 40
1.0
 40
1.0
 10
265.6921673717408
 20
417.154209402254
 30
0.0
 10
265.6766975421523
 20
417.1040738323472
 30
0.0
 10
265.661057181823
 20
417.0542581054784
 30
0.0
 10
265.6382999424131
 20
416.9835005747635
 30
0.0
 10
265.6313243454257
 20
416.9629980496834
 30
0.0
 10
265.6307285631307
 20
416.9631819094628
 30
0.0
  0
SPLINE
  5
17A
330
1F
100
AcDbEntity
  8
0
  6
Continuous
 62
     8
370
    18
100
AcDbSpline
210
0.0
220
0.0
230
1.0
 70
     8
 71
     3
 72
    10
 73
     6
 74
     0
 42
0.000000001
 43
0.00000001
 40
0.0
 40
0.0
 40
0.0
 40
0.0
 40
0.5
 40
0.5
 40
1.0
 40
1.0
 40
1.0
 40
1.0
 10
264.3788977679098
 20
417.5380007049637
 30
0.0
 10
264.3691460967258
 20
417.4911534428015
 30
0.0
 10
264.3734332283242
 20
417.442524553465
 30
0.0
 10
264.4080221342212
 20
417.3651036868619
 30
0.0
 10
264.4381726439512
 20
417.3366502873463
 30
0.0
 10
264.4739250149127
 20
417.3252997934114
 30
0.0
  0
SPLINE
  5
17B
330
1F
100
AcDbEntity
  8
0
  6
Continuous
 62
     8
370
    18
100
AcDbSpline
210
0.0
220
0.0
230
1.0
 70
     8
 71
     3
 72
    14
 73
    10
 74
     0
 42
0.000000001
 43
0.00000001
 40
0.0
 40
0.0
 40
0.0
 40
0.0
 40
0.4999999999999997
 40
0.4999999999999997
 40
0.7499999999999997
 40
0.7499999999999997
 40
0.8749999999999998
 40
0.8749999999999998
 40
1.0
 40
1.0
 40
1.0
 40
1.0
 10
263.1210042065946
 20
397.537278878483
 30
0.0
 10
261.6144385398802
 20
386.8369430316228
 30
0.0
 10
260.1094210262468
 20
376.1350411956583
 30
0.0
 10
257.8568512662702
 20
360.0771748281625
 30
0.0
 10
257.1064011636686
 20
354.7241415385691
 30
0.0
 10
255.9791529135793
 20
346.6961828237374
 30
0.0
 10
255.6033950920132
 20
344.020205087161
 30
0.0
 10
254.8502755442302
 20
338.6698719969704
 30
0.0
 10
254.4722884872547
 20
335.9961491784431
 30
0.0
 10
254.0950705394688
 20
333.3216483899513
 30
0.0
  0
SPLINE
  5
17C
330
1F
100
AcDbEntity
  8
0
  6
Continuous
 62
     8
370
    18
100
AcDbSpline
210
0.0
220
0.0
230
1.0
 70
     8
 71
     3
 72
    28
 73
    24
 74
     0
 42
0.000000001
 43
0.00000001
 40
0.0
 40
0.0
 40
0.0
 40
0.0
 40
0.0513216771187389
 40
0.093257531775875
 40
0.1258319034948216
 40
0.1723136392439172
 40
0.214449852208402
 40
0.252513646307161
 40
0.2843745575477161
 40
0.3158712835509977
 40
0.3471190613958665
 40
0.3782359005369118
 40
0.409341314684361
 40
0.4405549718978189
 40
0.4719953329210669
 40
0.5037783501784492
 40
0.586382149177805
 40
0.6676355934608452
 40
0.7494614584648527
 40
0.8073384707729968
 40
0.8738011899245371
 40
0.9124870719756809
 40
0.9999999999999999
 40
0.9999999999999999
 40
0.9999999999999999
 40
0.9999999999999999
 10
272.2667079308899
 20
406.6638933653254
 30
0.0
 10
272.0158794994838
 20
406.6612993855462
 30
0.0
 10
271.560094698102
 20
406.6565858187795
 30
0.0
 10
270.9453299511043
 20
406.6369871077275
 30
0.0
 10
270.354990236794
 20
406.5999750032104
 30
0.0
 10
269.7665413953873
 20
406.528234753227
 30
0.0
 10
269.1577130590724
 20
406.4119991401637
 30
0.0
 10
268.6309317951525
 20
406.2588196600567
 30
0.0
 10
268.1682414120935
 20
406.0799978796198
 30
0.0
 10
267.7464476839853
 20
405.8899510767721
 30
0.0
 10
267.3405206383543
 20
405.6755597563982
 30
0.0
 10
266.950198015215
 20
405.4376224553204
 30
0.0
 10
266.5755681976224
 20
405.1759375664249
 30
0.0
 10
266.2166541464915
 20
404.8905624096696
 30
0.0
 10
265.8733778644286
 20
404.5815344037929
 30
0.0
 10
265.3734478212112
 20
404.0731406982885
 30
0.0
 10
264.7723571065462
 20
403.3244100492605
 30
0.0
 10
264.1698707201311
 20
402.2802800827539
 30
0.0
 10
263.7812441297064
 20
401.2678056061155
 30
0.0
 10
263.5377021550295
 20
400.2890084407342
 30
0.0
 10
263.3971936056768
 20
399.5041878686658
 30
0.0
 10
263.267646338703
 20
398.5714762559866
 30
0.0
 10
263.1810553653779
 20
397.9607725220313
 30
0.0
 10
263.1210086057323
 20
397.5372782602245
 30
0.0
  0
SPLINE
  5
17D
330
1F
100
AcDbEntity
  8
0
  6
Continuous
 62
     8
370
    18
100
AcDbSpline
210
0.0
220
0.0
230
1.0
 70
     8
 71
     3
 72
    15
 73
    11
 74
     0
 42
0.000000001
 43
0.00000001
 40
0.0
 40
0.0
 40
0.0
 40
0.0
 40
0.1249624284153597
 40
0.2499787827366991
 40
0.3488608171509847
 40
0.4999911648283319
 40
0.6780128236950352
 40
0.8207329653843108
 40
0.9280838064668686
 40
1.0
 40
1.0
 40
1.0
 40
1.0
 10
340.6192387880604
 20
406.6504423997222
 30
0.0
 10
337.7725323514624
 20
406.6493475304392
 30
0.0
 10
332.0778910192362
 20
406.6471573193967
 30
0.0
 10
324.1306566315234
 20
406.6537383589144
 30
0.0
 10
315.5872263650813
 20
406.6576613129184
 30
0.0
 10
305.8362297399984
 20
406.6573478571273
 30
0.0
 10
295.0864915004566
 20
406.6624338425613
 30
0.0
 10
285.3340366396063
 20
406.6678505045692
 30
0.0
 10
277.9987479946083
 20
406.6734379322476
 30
0.0
 10
273.9148107462407
 20
406.6665886395512
 30
0.0
 10
272.2764659040872
 20
406.6638409226595
 30
0.0
  0
LWPOLYLINE
  5
17E
330
1F
100
AcDbEntity
  8
0
  6
Continuous
 62
     8
370
    18
100
AcDbPolyline
 90
        3
 70
   128
 43
0.0
 10
248.8517309504
 20
307.6438886809
 10
250.6717180443
 20
320.5943480315
 10
252.4918352457
 20
333.5466003328
  0
LINE
  5
17F
330
1F
100
AcDbEntity
  8
0
  6
Continuous
 62
     8
370
    18
100
AcDbLine
 10
254.0949917258
 20
333.3216215923
 30
0.0
 11
250.4868116295
 21
307.6438886809
 31
0.0
  0
LWPOLYLINE
  5
180
330
1F
100
AcDbEntity
  8
0
  6
Continuous
 62
     8
370
    18
100
AcDbPolyline
 90
        3
 70
   128
 43
0.0
 10
267.7314965076
 20
431.6555516117
 10
267.7183182025
 20
431.5618565735
 10
267.7051396265
 20
431.4681625222
  0
SPLINE
  5
181
330
1F
100
AcDbEntity
  8
0
  6
Continuous
 62
     8
370
    18
100
AcDbSpline
210
0.0
220
0.0
230
1.0
 70
     8
 71
     3
 72
    18
 73
    14
 74
     0
 42
0.000000001
 43
0.00000001
 40
0.0
 40
0.0
 40
0.0
 40
0.0
 40
0.1439079125454568
 40
0.2772163699096656
 40
0.3999423611107167
 40
0.5120603659949294
 40
0.6135820066216746
 40
0.7045006235900902
 40
0.7848145048676537
 40
0.8545226200930811
 40
0.9136234060203638
 40
0.9621158735007973
 40
1.0
 40
1.0
 40
1.0
 40
1.0
 10
312.6735525684659
 20
441.2252579189421
 30
0.0
 10
311.0631310779281
 20
441.2285353467024
 30
0.0
 10
307.9609027727932
 20
441.2348488051512
 30
0.0
 10
303.4853081304738
 20
441.2420991805054
 30
0.0
 10
299.3652285113837
 20
441.2532135366654
 30
0.0
 10
295.6009715657078
 20
441.2598117896148
 30
0.0
 10
292.1925661040662
 20
441.2669599078304
 30
0.0
 10
289.1400795384386
 20
441.2720751098524
 30
0.0
 10
286.4436076010261
 20
441.2753793709999
 30
0.0
 10
284.1032070179385
 20
441.2767820334681
 30
0.0
 10
282.1189297297775
 20
441.2757660899001
 30
0.0
 10
280.490809860222
 20
441.2730419121511
 30
0.0
 10
279.5241309236528
 20
441.268011520818
 30
0.0
 10
279.1001527898804
 20
441.2658052288954
 30
0.0
  0
SPLINE
  5
182
330
1F
100
AcDbEntity
  8
0
  6
Continuous
 62
     8
370
    18
100
AcDbSpline
210
0.0
220
0.0
230
1.0
 70
     8
 71
     3
 72
     8
 73
     4
 74
     0
 42
0.000000001
 43
0.00000001
 40
0.0
 40
0.0
 40
0.0
 40
0.0
 40
1.0
 40
1.0
 40
1.0
 40
1.0
 10
267.7037061219443
 20
431.460637219799
 30
0.0
 10
267.0336021856037
 20
426.6907041503129
 30
0.0
 10
266.3628946024483
 20
421.9229703110948
 30
0.0
 10
265.6924807851176
 20
417.1541662121386
 30
0.0
  0
SPLINE
  5
183
330
1F
100
AcDbEntity
  8
0
  6
Continuous
 62
     8
370
    18
100
AcDbSpline
210
0.0
220
0.0
230
1.0
 70
     8
 71
     3
 72
    18
 73
    14
 74
     0
 42
0.000000001
 43
0.00000001
 40
0.0
 40
0.0
 40
0.0
 40
0.0
 40
0.25
 40
0.25
 40
0.5
 40
0.5
 40
0.75
 40
0.75
 40
0.8750000000000014
 40
0.8750000000000014
 40
0.9375000000000008
 40
0.9375000000000008
 40
1.0
 40
1.0
 40
1.0
 40
1.0
 10
264.3787628541647
 20
417.5380198378446
 30
0.0
 10
264.5437742468877
 20
418.7130859899838
 30
0.0
 10
264.7090507786212
 20
419.8888916189218
 30
0.0
 10
265.0411672090623
 20
422.2446599879058
 30
0.0
 10
265.2083187769141
 20
423.4254367533639
 30
0.0
 10
265.5400096206299
 20
425.7795135410651
 30
0.0
 10
265.7037125423843
 20
426.9531328668635
 30
0.0
 10
265.947177517314
 20
428.6956856899754
 30
0.0
 10
266.0289149119755
 20
429.2786534420495
 30
0.0
 10
266.1541356948405
 20
430.1654470319246
 30
0.0
 10
266.1962358219746
 20
430.4625813353863
 30
0.0
 10
266.2811950391718
 20
431.059729341228
 30
0.0
 10
266.324036414818
 20
431.3607061666362
 30
0.0
 10
266.367410719515
 20
431.6557527173803
 30
0.0
  0
LWPOLYLINE
  5
184
330
1F
100
AcDbEntity
  8
0
  6
Continuous
 62
     8
370
    18
100
AcDbPolyline
 90
        3
 70
   128
 43
0.0
 10
252.4920580208
 20
333.5474389578
 10
257.0020072221
 20
365.6379911264
 10
261.5176720196
 20
397.7625543292
  0
SPLINE
  5
185
330
1F
100
AcDbEntity
  8
0
  6
Continuous
 62
     8
370
    18
100
AcDbSpline
210
0.0
220
0.0
230
1.0
 70
     8
 71
     3
 72
    43
 73
    39
 74
     0
 42
0.000000001
 43
0.00000001
 40
0.0
 40
0.0
 40
0.0
 40
0.0
 40
0.0242015801703668
 40
0.0476570445075823
 40
0.0707865080944398
 40
0.0935173928421178
 40
0.1157949142565509
 40
0.1376001149698157
 40
0.1589264979188275
 40
0.1797724713890292
 40
0.2001404041304123
 40
0.2200356148952944
 40
0.2394636523578894
 40
0.2584274445079203
 40
0.2769271907921269
 40
0.2949605545972913
 40
0.3125228695269157
 40
0.3296053158578641
 40
0.3461925629092042
 40
0.3622695182645671
 40
0.3778222231520895
 40
0.3928374753699871
 40
0.4073025187951181
 40
0.4212047981795595
 40
0.4345317766728213
 40
0.4472708123694344
 40
0.4594090894828328
 40
0.4709339665140067
 40
0.4818334759088114
 40
0.4920951727286317
 40
0.50170523354343
 40
0.5830485543669325
 40
0.6689366806139746
 40
0.7589856599864696
 40
0.8021736506965294
 40
0.8567269206286063
 40
0.9228484115471588
 40
1.0
 40
1.0
 40
1.0
 40
1.0
 10
266.3949263047122
 20
431.8485113045045
 30
0.0
 10
266.4167702726483
 20
431.9955224023267
 30
0.0
 10
266.4597847760331
 20
432.285012360532
 30
0.0
 10
266.5335360384556
 20
432.7134435490455
 30
0.0
 10
266.6131132908869
 20
433.1316207804757
 30
0.0
 10
266.7003756554089
 20
433.5408775238208
 30
0.0
 10
266.7954593501505
 20
433.9400331477456
 30
0.0
 10
266.8988930870116
 20
434.328192744351
 30
0.0
 10
267.010974241327
 20
434.7047830448273
 30
0.0
 10
267.1318537469111
 20
435.0693557261385
 30
0.0
 10
267.2615174367851
 20
435.421547316124
 30
0.0
 10
267.3997845745597
 20
435.7610597795185
 30
0.0
 10
267.5456049540384
 20
436.0879633661957
 30
0.0
 10
267.6979631921105
 20
436.4023631646057
 30
0.0
 10
267.8558558455024
 20
436.7043753535474
 30
0.0
 10
268.0183001173327
 20
436.9941238835116
 30
0.0
 10
268.1843163325179
 20
437.2717342164422
 30
0.0
 10
268.3529548084709
 20
437.5372880012591
 30
0.0
 10
268.523554967141
 20
437.7906533554372
 30
0.0
 10
268.6953757920933
 20
438.0317371227965
 30
0.0
 10
268.8676584912945
 20
438.2605076728139
 30
0.0
 10
269.0396291505567
 20
438.476997674474
 30
0.0
 10
269.2105064953297
 20
438.6812954241628
 30
0.0
 10
269.3795068810701
 20
438.8735377143271
 30
0.0
 10
269.5458496997416
 20
439.0539026223394
 30
0.0
 10
269.7087622119698
 20
439.2226029250551
 30
0.0
 10
269.8674862827472
 20
439.3798805609702
 30
0.0
 10
270.0212853519636
 20
439.5260061252476
 30
0.0
 10
270.1694242956574
 20
439.6612931114166
 30
0.0
 10
270.3112129367283
 20
439.7860500287925
 30
0.0
 10
270.7844345778557
 20
440.188359828974
 30
0.0
 10
271.6681475526902
 20
440.8255119788571
 30
0.0
 10
273.0757325093186
 20
441.5521984852347
 30
0.0
 10
274.35751967408
 20
441.9786944396872
 30
0.0
 10
275.4884058599724
 20
442.2043828110828
 30
0.0
 10
276.4879767312981
 20
442.3243979259937
 30
0.0
 10
277.7011259470854
 20
442.3923735744118
 30
0.0
 10
278.5808358018515
 20
442.4017661569848
 30
0.0
 10
279.0545536347521
 20
442.4068239994515
 30
0.0
  0
SPLINE
  5
186
330
1F
100
AcDbEntity
  8
0
  6
Continuous
 62
     8
370
    18
100
AcDbSpline
210
0.0
220
0.0
230
1.0
 70
     8
 71
     3
 72
    22
 73
    18
 74
     0
 42
0.000000001
 43
0.00000001
 40
0.0
 40
0.0
 40
0.0
 40
0.0
 40
0.0502544667615493
 40
0.0920361054864895
 40
0.1253619388885753
 40
0.191721318181686
 40
0.251563150592522
 40
0.3760830850682411
 40
0.5029554873154015
 40
0.5848817146136316
 40
0.6670327474011036
 40
0.7509942825137448
 40
0.79089143641377
 40
0.832234711397169
 40
0.8751977777490197
 40
0.9332217085027588
 40
1.0
 40
1.0
 40
1.0
 40
1.0
 10
279.078502504291
 20
441.2656112868685
 30
0.0
 10
278.8001216636248
 20
441.2621111601232
 30
0.0
 10
278.2902945762428
 20
441.2557010227742
 30
0.0
 10
277.5960760746872
 20
441.2343917331806
 30
0.0
 10
276.8134810671843
 20
441.1918202243821
 30
0.0
 10
275.9339726792639
 20
441.093768270889
 30
0.0
 10
274.5713533873349
 20
440.8154000414927
 30
0.0
 10
272.9508356293544
 20
440.1764396653917
 30
0.0
 10
271.4250815831853
 20
439.1083322773334
 30
0.0
 10
270.2809149759676
 20
437.9664399162776
 30
0.0
 10
269.4532892954413
 20
436.8637891787673
 30
0.0
 10
268.8959194965764
 20
435.8634874039351
 30
0.0
 10
268.5323941393392
 20
435.0228851421519
 30
0.0
 10
268.3035675269952
 20
434.3733230873625
 30
0.0
 10
268.0885020841328
 20
433.614222018343
 30
0.0
 10
267.8920128457597
 20
432.7049455757507
 30
0.0
 10
267.7874469099433
 20
432.0213337816115
 30
0.0
 10
267.7314965076452
 20
431.6555516117381
 30
0.0
  0
SPLINE
  5
187
330
1F
100
AcDbEntity
  8
0
  6
Continuous
 62
     8
370
    18
100
AcDbSpline
210
0.0
220
0.0
230
1.0
 70
     8
 71
     3
 72
     8
 73
     4
 74
     0
 42
0.000000001
 43
0.00000001
 40
0.0
 40
0.0
 40
0.0
 40
0.0
 40
1.0
 40
1.0
 40
1.0
 40
1.0
 10
266.3676118374131
 20
431.6556145829904
 30
0.0
 10
266.3765966114015
 20
431.7200137821308
 30
0.0
 10
266.3856933517596
 20
431.7844951260055
 30
0.0
 10
266.3949263047122
 20
431.8485113045048
 30
0.0
  0
SPLINE
  5
188
330
1F
100
AcDbEntity
  8
0
  6
Continuous
 62
     8
370
    18
100
AcDbSpline
210
0.0
220
0.0
230
1.0
 70
     8
 71
     3
 72
    26
 73
    22
 74
     0
 42
0.000000001
 43
0.00000001
 40
0.0
 40
0.0
 40
0.0
 40
0.0
 40
0.0665986072275981
 40
0.1278529435778614
 40
0.1837650746780917
 40
0.2526683705722902
 40
0.3182737903517076
 40
0.3805640607718708
 40
0.4394986417614714
 40
0.49505925242077
 40
0.5184577431161307
 40
0.5697701702483564
 40
0.6491427245042628
 40
0.7570996813593198
 40
0.7846337245848042
 40
0.8145599098111203
 40
0.8468932114050078
 40
0.8816381419706489
 40
0.918775108703544
 40
0.9582556665594923
 40
1.0
 40
1.0
 40
1.0
 40
1.0
 10
261.5177045207962
 20
397.7626079568889
 30
0.0
 10
261.5695304871986
 20
398.1326271191057
 30
0.0
 10
261.6690235942492
 20
398.8429728911719
 30
0.0
 10
261.8139768193253
 20
399.8638727997825
 30
0.0
 10
262.012204385839
 20
400.8893226147705
 30
0.0
 10
262.2973601530475
 20
401.9209473186395
 30
0.0
 10
262.7180150412763
 20
402.9449728280691
 30
0.0
 10
263.2369082264597
 20
403.858201605395
 30
0.0
 10
263.8167637963029
 20
404.6645389506184
 30
0.0
 10
264.3330242923677
 20
405.2420443891301
 30
0.0
 10
264.8565057704484
 20
405.7511667116859
 30
0.0
 10
265.5190987127039
 20
406.3070815474189
 30
0.0
 10
266.6435320777334
 20
407.0399434186148
 30
0.0
 10
267.7667879647633
 20
407.5023173776602
 30
0.0
 10
268.6627127462372
 20
407.741670162604
 30
0.0
 10
269.1566542910684
 20
407.8409451850975
 30
0.0
 10
269.6949873415229
 20
407.9206227224239
 30
0.0
 10
270.2768262470449
 20
407.9787908384448
 30
0.0
 10
270.9006269881909
 20
408.014823322417
 30
0.0
 10
271.5645241984719
 20
408.030158655944
 30
0.0
 10
272.0202039704474
 20
408.0321665496774
 30
0.0
 10
272.2543938602685
 20
408.0331984770112
 30
0.0
  0
SPLINE
  5
189
330
1F
100
AcDbEntity
  8
0
  6
Continuous
 62
     8
370
    18
100
AcDbSpline
210
0.0
220
0.0
230
1.0
 70
     8
 71
     3
 72
    18
 73
    14
 74
     0
 42
0.000000001
 43
0.00000001
 40
0.0
 40
0.0
 40
0.0
 40
0.0
 40
0.03125
 40
0.03125
 40
0.0625
 40
0.0625
 40
0.1250000000000001
 40
0.1250000000000001
 40
0.2500000000000001
 40
0.2500000000000001
 40
0.5000000000000001
 40
0.5000000000000001
 40
1.0
 40
1.0
 40
1.0
 40
1.0
 10
272.266673530342
 20
408.0331983855938
 30
0.0
 10
272.9845503011785
 20
408.0347816863812
 30
0.0
 10
273.701885154891
 20
408.033656163005
 30
0.0
 10
275.1313414372711
 20
408.0333197829484
 30
0.0
 10
275.8436336329481
 20
408.0338858597536
 30
0.0
 10
277.9789443927412
 20
408.034920968435
 30
0.0
 10
279.4013795884452
 20
408.0351211514295
 30
0.0
 10
283.6731133269864
 20
408.0347956666113
 30
0.0
 10
286.5192536679574
 20
408.0353794986437
 30
0.0
 10
295.0573201869249
 20
408.037339980415
 30
0.0
 10
300.7516220714043
 20
408.0376738550736
 30
0.0
 10
317.8332567395254
 20
408.0391044728628
 30
0.0
 10
329.2223461856124
 20
408.0394187643428
 30
0.0
 10
340.6082375196151
 20
408.0397302309955
 30
0.0
  0
SPLINE
  5
18A
330
1F
100
AcDbEntity
  8
0
  6
Continuous
 62
     8
370
    18
100
AcDbSpline
210
0.0
220
0.0
230
1.0
 70
     8
 71
     3
 72
    18
 73
    14
 74
     0
 42
0.000000001
 43
0.00000001
 40
0.0
 40
0.0
 40
0.0
 40
0.0
 40
0.0625
 40
0.0625
 40
0.1250000000000001
 40
0.1250000000000001
 40
0.2500000000000002
 40
0.2500000000000002
 40
0.3750000000000003
 40
0.3750000000000003
 40
0.5000000000000003
 40
0.5000000000000003
 40
1.0
 40
1.0
 40
1.0
 40
1.0
 10
279.0785013017657
 20
442.4070114548097
 30
0.0
 10
279.7770020206499
 20
442.4112413622885
 30
0.0
 10
280.4711552775015
 20
442.4047180697017
 30
0.0
 10
281.8652909260076
 20
442.4010245321205
 30
0.0
 10
282.564986853396
 20
442.4032708647492
 30
0.0
 10
284.6645485969691
 20
442.4091150815865
 30
0.0
 10
286.0639169832846
 20
442.4101331374134
 30
0.0
 10
288.865742080511
 20
442.4111840963193
 30
0.0
 10
290.2683496337905
 20
442.4113462848911
 30
0.0
 10
293.068075833489
 20
442.4111530217417
 30
0.0
 10
294.4667011719725
 20
442.4108958754547
 30
0.0
 10
301.4623438257812
 20
442.409809836975
 30
0.0
 10
307.0587598168959
 20
442.4093311490222
 30
0.0
 10
312.6551256943562
 20
442.4089770608504
 30
0.0
  0
SPLINE
  5
18B
330
1F
100
AcDbEntity
  8
0
  6
Continuous
 62
     8
370
    18
100
AcDbSpline
210
0.0
220
0.0
230
1.0
 70
     8
 71
     3
 72
     8
 73
     4
 74
     0
 42
0.000000001
 43
0.00000001
 40
0.0
 40
0.0
 40
0.0
 40
0.0
 40
0.000827418256155
 40
0.000827418256155
 40
0.000827418256155
 40
0.000827418256155
 10
258.2676482696235
 20
432.1078202782709
 30
0.0
 10
258.2677882973181
 20
432.1077958694104
 30
0.0
 10
258.270906661933
 20
432.1072522882331
 30
0.0
 10
258.2770034088467
 20
432.1061895367152
 30
0.0
  0
SPLINE
  5
18C
330
1F
100
AcDbEntity
  8
0
  6
Continuous
 62
     8
370
    18
100
AcDbSpline
210
0.0
220
0.0
230
1.0
 70
     8
 71
     3
 72
    14
 73
    10
 74
     0
 42
0.000000001
 43
0.00000001
 40
0.0
 40
0.0
 40
0.0
 40
0.0
 40
0.25
 40
0.25
 40
0.5
 40
0.5
 40
0.75
 40
0.75
 40
1.0
 40
1.0
 40
1.0
 40
1.0
 10
340.6065428046266
 20
408.0396948055239
 30
0.0
 10
343.7548875275954
 20
408.0398835045914
 30
0.0
 10
346.9003585791995
 20
408.0400729967033
 30
0.0
 10
353.1885555995809
 20
408.0404820102839
 30
0.0
 10
356.3346065840088
 20
408.0407015032932
 30
0.0
 10
362.62942840615
 20
408.0411984165448
 30
0.0
 10
365.77860231487
 20
408.0414774233993
 30
0.0
 10
372.0872113333161
 20
408.0420586372888
 30
0.0
 10
375.2387676062731
 20
408.0423543382323
 30
0.0
 10
378.390860413987
 20
408.042652267369
 30
0.0
  0
SPLINE
  5
18D
330
1F
100
AcDbEntity
  8
0
  6
Continuous
 62
     8
370
    18
100
AcDbSpline
210
0.0
220
0.0
230
1.0
 70
     8
 71
     3
 72
    12
 73
     8
 74
     0
 42
0.000000001
 43
0.00000001
 40
0.0
 40
0.0
 40
0.0
 40
0.0
 40
0.5000000000000007
 40
0.5000000000000007
 40
0.7500000000000003
 40
0.7500000000000003
 40
1.0
 40
1.0
 40
1.0
 40
1.0
 10
378.4071316767913
 20
406.6453727154708
 30
0.0
 10
371.9921665181305
 20
406.6409668715737
 30
0.0
 10
365.6728154282868
 20
406.6417124926691
 30
0.0
 10
356.2547119953338
 20
406.6437808934169
 30
0.0
 10
353.1251945063456
 20
406.6448804863649
 30
0.0
 10
346.8720017139031
 20
406.6478446571701
 30
0.0
 10
343.7465364299744
 20
406.6494173998573
 30
0.0
 10
340.6192163910031
 20
406.6504704892475
 30
0.0
  0
SPLINE
  5
18E
330
1F
100
AcDbEntity
  8
0
  6
Continuous
 62
     8
370
    18
100
AcDbSpline
210
0.0
220
0.0
230
1.0
 70
    24
 71
     3
 72
    10
 73
     6
 74
     0
 42
0.000000001
 43
0.00000001
 40
0.853912469740824
 40
0.853912469740824
 40
0.853912469740824
 40
0.853912469740824
 40
0.8671968002238943
 40
0.9296968002238943
 40
0.9507843304830703
 40
0.9507843304830703
 40
0.9507843304830703
 40
0.9507843304830703
 10
272.2667079308672
 20
408.0332461097544
 30
0.0
 10
272.2667079308632
 20
408.049956572191
 30
0.0
 10
272.2667079308366
 20
408.1445705489684
 30
0.0
 10
272.2667079307829
 20
408.2609283921898
 30
0.0
 10
272.2667079307193
 20
408.3566785503752
 30
0.0
 10
272.2667079307022
 20
408.3805407549848
 30
0.0
  0
SPLINE
  5
18F
330
1F
100
AcDbEntity
  8
0
  6
Continuous
 62
     8
370
    18
100
AcDbSpline
210
0.0
220
0.0
230
1.0
 70
     8
 71
     3
 72
    12
 73
     8
 74
     0
 42
0.000000001
 43
0.00000001
 40
0.0
 40
0.0
 40
0.0
 40
0.0
 40
0.5
 40
0.5
 40
0.75
 40
0.75
 40
1.0
 40
1.0
 40
1.0
 40
1.0
 10
312.6535691906097
 20
442.4088039349235
 30
0.0
 10
317.4681886883602
 20
442.4085003031238
 30
0.0
 10
322.2827747283131
 20
442.4083436099635
 30
0.0
 10
329.5046684815454
 20
442.4083149048992
 30
0.0
 10
331.9119669602674
 20
442.4083405946543
 30
0.0
 10
336.7265788305906
 20
442.4084586100737
 30
0.0
 10
339.136700696654
 20
442.4085446556707
 30
0.0
 10
341.532272343277
 20
442.4086690138473
 30
0.0
  0
SPLINE
  5
190
330
1F
100
AcDbEntity
  8
0
  6
Continuous
 62
     8
370
    18
100
AcDbSpline
210
0.0
220
0.0
230
1.0
 70
     8
 71
     3
 72
    17
 73
    13
 74
     0
 42
0.000000001
 43
0.00000001
 40
0.0
 40
0.0
 40
0.0
 40
0.0
 40
0.0999792947953992
 40
0.2007233215108507
 40
0.3008111158905113
 40
0.4005647241589179
 40
0.5001682449796605
 40
0.5948548428955742
 40
0.6920957785065064
 40
0.7919645288958403
 40
0.8945472835860355
 40
1.0
 40
1.0
 40
1.0
 40
1.0
 10
341.5519649838466
 20
441.2470666399403
 30
0.0
 10
340.5895792695719
 20
441.24736098716
 30
0.0
 10
338.6574466461207
 20
441.2479519330326
 30
0.0
 10
335.7617691846979
 20
441.2463030260192
 30
0.0
 10
332.8682492950654
 20
441.2433322454845
 30
0.0
 10
329.9856795628669
 20
441.2379785084263
 30
0.0
 10
327.1551126122064
 20
441.2268201671815
 30
0.0
 10
324.3486955765629
 20
441.2199207777675
 30
0.0
 10
321.5397366203724
 20
441.2191648304817
 30
0.0
 10
318.6547902587386
 20
441.2194605016261
 30
0.0
 10
315.6907870456998
 20
441.2208958499701
 30
0.0
 10
313.6882859876522
 20
441.2243521132824
 30
0.0
 10
312.673222666613
 20
441.2261040854484
 30
0.0
  0
LINE
  5
191
330
1F
100
AcDbEntity
  8
0
  6
Continuous
 62
     8
370
    18
100
AcDbLine
 10
313.6982779438
 20
431.7654341762
 30
0.0
 11
314.3157594887
 21
432.140822283
 31
0.0
  0
SPLINE
  5
192
330
1F
100
AcDbEntity
  8
0
  6
Continuous
 62
     8
370
    18
100
AcDbSpline
210
0.0
220
0.0
230
1.0
 70
     8
 71
     3
 72
    18
 73
    14
 74
     0
 42
0.000000001
 43
0.00000001
 40
0.0
 40
0.0
 40
0.0
 40
0.0
 40
0.08762380654653
 40
0.1753490010490205
 40
0.2644599454437463
 40
0.3318639107957883
 40
0.3995095175336691
 40
0.4674177537604692
 40
0.5347775559021762
 40
0.6676350438197368
 40
0.8002152354642434
 40
0.9326763662285096
 40
0.9999999999999999
 40
0.9999999999999999
 40
0.9999999999999999
 40
0.9999999999999999
 10
364.6844292773893
 20
442.4063394840265
 30
0.0
 10
365.4915461181337
 20
442.4031421220108
 30
0.0
 10
367.1067137002363
 20
442.3967436983684
 30
0.0
 10
369.53016173436
 20
442.384435239109
 30
0.0
 10
371.7096789509278
 20
442.3726699754422
 30
0.0
 10
373.54292124977
 20
442.361576455691
 30
0.0
 10
374.9637151808882
 20
442.3529947150793
 30
0.0
 10
375.9807546262753
 20
442.3541080645198
 30
0.0
 10
376.6886900129488
 20
442.3754992010038
 30
0.0
 10
376.8352348385282
 20
442.4437309639276
 30
0.0
 10
376.9774184040854
 20
442.492684406687
 30
0.0
 10
377.0512144568581
 20
442.5131481388832
 30
0.0
 10
377.0620086778132
 20
442.5160813737435
 30
0.0
 10
377.0656461232417
 20
442.5170698176319
 30
0.0
  0
SPLINE
  5
193
330
1F
100
AcDbEntity
  8
0
  6
Continuous
 62
     8
370
    18
100
AcDbSpline
210
0.0
220
0.0
230
1.0
 70
     8
 71
     3
 72
    13
 73
     9
 74
     0
 42
0.000000001
 43
0.00000001
 40
0.0
 40
0.0
 40
0.0
 40
0.0
 40
0.2056971635655149
 40
0.4999097349381507
 40
0.6259209157343903
 40
0.7511120165943076
 40
0.8758306052801009
 40
1.0
 40
1.0
 40
1.0
 40
1.0
 10
341.5324395125595
 20
442.4088850102137
 30
0.0
 10
343.1199077751524
 20
442.4090617870295
 30
0.0
 10
346.9779621334118
 20
442.4094914110925
 30
0.0
 10
351.8084768305278
 20
442.4096088967952
 30
0.0
 10
356.0176207850266
 20
442.4101412564975
 30
0.0
 10
358.9186437174375
 20
442.4108109981077
 30
0.0
 10
361.8053831925901
 20
442.4117449157084
 30
0.0
 10
363.726160980998
 20
442.4081171736248
 30
0.0
 10
364.6844306897821
 20
442.4063073050543
 30
0.0
  0
SPLINE
  5
194
330
1F
100
AcDbEntity
  8
0
  6
Continuous
 62
     8
370
    18
100
AcDbSpline
210
0.0
220
0.0
230
1.0
 70
     8
 71
     3
 72
    22
 73
    18
 74
     0
 42
0.000000001
 43
0.00000001
 40
0.0
 40
0.0
 40
0.0
 40
0.0
 40
0.1123934349579252
 40
0.2352961004959291
 40
0.2836105589423375
 40
0.3346629932654197
 40
0.370583717117848
 40
0.4063181900595469
 40
0.44158888104194
 40
0.4758810169875673
 40
0.5091855599461235
 40
0.5940084429758667
 40
0.6755587558417492
 40
0.7566532284872433
 40
0.8377683011596787
 40
0.9188826875609245
 40
1.0
 40
1.0
 40
1.0
 40
1.0
 10
411.0963489234655
 20
406.6197842816296
 30
0.0
 10
411.0801827885376
 20
406.6152516964993
 30
0.0
 10
411.0463389211442
 20
406.6057627116069
 30
0.0
 10
410.9360776351427
 20
406.5227397003891
 30
0.0
 10
410.6205855343326
 20
406.4478752119179
 30
0.0
 10
410.0392710827386
 20
406.4302587205716
 30
0.0
 10
409.0134095625345
 20
406.4476402584191
 30
0.0
 10
407.7585247160943
 20
406.4784488677055
 30
0.0
 10
406.27880203458
 20
406.5134719565757
 30
0.0
 10
404.6777159661582
 20
406.5474659531434
 30
0.0
 10
402.196740939031
 20
406.5904211779971
 30
0.0
 10
398.8433878144562
 20
406.6270891689018
 30
0.0
 10
394.7060264077131
 20
406.637720932719
 30
0.0
 10
390.6251737423282
 20
406.6419737512012
 30
0.0
 10
386.5530635687711
 20
406.6440903025449
 30
0.0
 10
382.4801531954276
 20
406.6451819926962
 30
0.0
 10
379.7649121776145
 20
406.6453614107921
 30
0.0
 10
378.4072671824393
 20
406.6454511214579
 30
0.0
  0
SPLINE
  5
195
330
1F
100
AcDbEntity
  8
0
  6
Continuous
 62
     8
370
    18
100
AcDbSpline
210
0.0
220
0.0
230
1.0
 70
     8
 71
     3
 72
    22
 73
    18
 74
     0
 42
0.000000001
 43
0.00000001
 40
0.0
 40
0.0
 40
0.0
 40
0.0
 40
0.0833246987794184
 40
0.1666419396143775
 40
0.2499780614533357
 40
0.3333319684086459
 40
0.4167210992957038
 40
0.5003038390058206
 40
0.5318303525509682
 40
0.5634986441415898
 40
0.5954901412864216
 40
0.627667500457949
 40
0.6601944979461128
 40
0.6923694366032744
 40
0.7560930939894268
 40
0.8822085159080526
 40
1.0
 40
1.0
 40
1.0
 40
1.0
 10
378.3911624763409
 20
408.0426711855297
 30
0.0
 10
379.748665255879
 20
408.0429012450809
 30
0.0
 10
382.4635493122017
 20
408.043361343592
 30
0.0
 10
386.5361940992665
 20
408.0439510369884
 30
0.0
 10
390.6089322881371
 20
408.0446184109817
 30
0.0
 10
394.6841799778106
 20
408.0399842104019
 30
0.0
 10
398.758238221816
 20
408.0332171053256
 30
0.0
 10
402.0030238659082
 20
408.0171726594908
 30
0.0
 10
404.3388433930628
 20
408.0070243177566
 30
0.0
 10
405.7966783036079
 20
408.0032833387619
 30
0.0
 10
407.1375788162157
 20
408.0038385280849
 30
0.0
 10
408.2854501545702
 20
408.0093636517861
 30
0.0
 10
409.1224818937627
 20
408.0237584701043
 30
0.0
 10
409.800171869267
 20
408.0584158248719
 30
0.0
 10
410.1861547573332
 20
408.1556620642861
 30
0.0
 10
410.3434449141782
 20
408.2637371236033
 30
0.0
 10
410.3813693526292
 20
408.2743811623705
 30
0.0
 10
410.3996844383379
 20
408.2795215544309
 30
0.0
  0
SPLINE
  5
196
330
1F
100
AcDbEntity
  8
0
  6
Continuous
 62
     8
370
    18
100
AcDbSpline
210
0.0
220
0.0
230
1.0
 70
     8
 71
     3
 72
     8
 73
     4
 74
     0
 42
0.000000001
 43
0.00000001
 40
0.0
 40
0.0
 40
0.0
 40
0.0
 40
1.0
 40
1.0
 40
1.0
 40
1.0
 10
364.7017973878237
 20
441.2472995115345
 30
0.0
 10
356.7336661581364
 20
441.2466434911518
 30
0.0
 10
349.0738370249929
 20
441.2473320652365
 30
0.0
 10
341.5518247638149
 20
441.2494800679138
 30
0.0
  0
SPLINE
  5
197
330
1F
100
AcDbEntity
  8
0
  6
Continuous
 62
     8
370
    18
100
AcDbSpline
210
0.0
220
0.0
230
1.0
 70
     8
 71
     3
 72
    28
 73
    24
 74
     0
 42
0.000000001
 43
0.00000001
 40
0.0
 40
0.0
 40
0.0
 40
0.0
 40
0.0561194760392788
 40
0.1078394320177701
 40
0.1552475223523715
 40
0.1984020882569889
 40
0.2373421711869576
 40
0.2989165129562495
 40
0.3605937357569216
 40
0.4218311405542716
 40
0.4804127562649523
 40
0.5039785906144717
 40
0.5330386999241351
 40
0.5670765099324419
 40
0.6058531521378636
 40
0.6494865925273939
 40
0.6981590201132536
 40
0.7517274132582653
 40
0.8267725936610147
 40
0.8897480671397441
 40
0.9377899175081338
 40
0.972931148875435
 40
1.0
 40
1.0
 40
1.0
 40
1.0
 10
377.9831252372005
 20
441.3249492083398
 30
0.0
 10
377.9822220664129
 20
441.3246853472162
 30
0.0
 10
377.9804865294544
 20
441.3241783105204
 30
0.0
 10
377.9665955652142
 20
441.3215677513668
 30
0.0
 10
377.946344612283
 20
441.3175776498071
 30
0.0
 10
377.9205645524923
 20
441.3120847850803
 30
0.0
 10
377.8844946049148
 20
441.3035649430556
 30
0.0
 10
377.8326284528766
 20
441.2890239050234
 30
0.0
 10
377.7585542580142
 20
441.2647190502574
 30
0.0
 10
377.6646016058436
 20
441.2355282976478
 30
0.0
 10
377.4699804832843
 20
441.2007565630371
 30
0.0
 10
377.1946181249244
 20
441.1787434616673
 30
0.0
 10
376.9131372964184
 20
441.1711218102384
 30
0.0
 10
376.4710261347701
 20
441.1667045390756
 30
0.0
 10
375.8036068546721
 20
441.1667439194853
 30
0.0
 10
374.8758512716297
 20
441.1709183437555
 30
0.0
 10
373.6718132393158
 20
441.1791364757753
 30
0.0
 10
372.044561449283
 20
441.1933061846776
 30
0.0
 10
370.1473560317879
 20
441.2096447916044
 30
0.0
 10
368.2548393516228
 20
441.2240969709362
 30
0.0
 10
366.7547985158348
 20
441.2353635425189
 30
0.0
 10
365.6206282247591
 20
441.2438822677622
 30
0.0
 10
364.9803815299744
 20
441.246403417011
 30
0.0
 10
364.7017973878237
 20
441.2475004194733
 30
0.0
  0
LINE
  5
198
330
1F
100
AcDbEntity
  8
0
  6
Continuous
 62
     8
370
    18
100
AcDbLine
 10
305.2250808343
 20
418.4624700478
 30
0.0
 11
305.2250808343
 21
421.8792819397
 31
0.0
  0
LINE
  5
199
330
1F
100
AcDbEntity
  8
0
  6
Continuous
 62
     7
370
    25
100
AcDbLine
 10
153.1923910517
 20
229.5124863617
 30
0.0
 11
153.1925103229
 21
229.529468099
 31
0.0
  0
SPLINE
  5
19A
330
1F
100
AcDbEntity
  8
0
  6
Continuous
 62
     7
370
    25
100
AcDbSpline
210
0.0
220
0.0
230
1.0
 70
     8
 71
     3
 72
    12
 73
     8
 74
     0
 42
0.000000001
 43
0.00000001
 40
0.0
 40
0.0
 40
0.0
 40
0.0
 40
0.0384233319401999
 40
0.2797517896180326
 40
0.5625665539528131
 40
0.8982517016640346
 40
1.0
 40
1.0
 40
1.0
 40
1.0
 10
153.1919286107933
 20
229.2092898788948
 30
0.0
 10
153.1927196973787
 20
229.2653297993164
 30
0.0
 10
153.1984794240034
 20
229.6733440770058
 30
0.0
 10
153.2072031223251
 20
230.8197530283272
 30
0.0
 10
153.2117723725094
 20
232.3216670634252
 30
0.0
 10
153.2114021402907
 20
233.3164566335643
 30
0.0
 10
153.2120808154712
 20
233.7704338555267
 30
0.0
 10
153.2122386773023
 20
233.8760302845043
 30
0.0
  0
LINE
  5
19B
330
1F
100
AcDbEntity
  8
0
  6
Continuous
 62
     7
370
    25
100
AcDbLine
 10
153.1131048645
 20
213.3112037442
 30
0.0
 11
153.1210427636
 21
214.7416988469
 31
0.0
  0
SPLINE
  5
19C
330
1F
100
AcDbEntity
  8
0
  6
Continuous
 62
     7
370
    25
100
AcDbSpline
210
0.0
220
0.0
230
1.0
 70
     8
 71
     3
 72
    10
 73
     6
 74
     0
 42
0.000000001
 43
0.00000001
 40
0.0
 40
0.0
 40
0.0
 40
0.0
 40
0.1369289126794649
 40
0.7338198048264888
 40
1.0
 40
1.0
 40
1.0
 40
1.0
 10
153.1670753049652
 20
222.9679512376431
 30
0.0
 10
153.167710768478
 20
223.0831022626568
 30
0.0
 10
153.1711162998721
 20
223.7002115425568
 30
0.0
 10
153.1737659961303
 20
224.4342539654799
 30
0.0
 10
153.1747125376118
 20
224.7996124038801
 30
0.0
 10
153.1750044609539
 20
224.9122927866091
 30
0.0
  0
SPLINE
  5
19D
330
1F
100
AcDbEntity
  8
0
  6
Continuous
 62
     7
370
    25
100
AcDbSpline
210
0.0
220
0.0
230
1.0
 70
     8
 71
     3
 72
    10
 73
     6
 74
     0
 42
0.000000001
 43
0.00000001
 40
0.0
 40
0.0
 40
0.0
 40
0.0
 40
0.2505144011854212
 40
0.8323915283512877
 40
1.0
 40
1.0
 40
1.0
 40
1.0
 10
105.2800252850511
 20
224.9185853505493
 30
0.0
 10
105.280332116826
 20
224.8022930463046
 30
0.0
 10
105.2813516357394
 20
224.4158852054475
 30
0.0
 10
105.2840673757083
 20
223.6736050701994
 30
0.0
 10
105.2876559157805
 20
223.025316292719
 30
0.0
 10
105.2884584258192
 20
222.8803386022172
 30
0.0
  0
LINE
  5
19E
330
1F
100
AcDbEntity
  8
0
  6
Continuous
 62
     7
370
    25
100
AcDbLine
 10
105.3346685046
 20
214.6242234102
 30
0.0
 11
105.3419545257
 21
213.3112037442
 31
0.0
  0
SPLINE
  5
19F
330
1F
100
AcDbEntity
  8
0
  6
Continuous
 62
     7
370
    25
100
AcDbSpline
210
0.0
220
0.0
230
1.0
 70
     8
 71
     3
 72
    12
 73
     8
 74
     0
 42
0.000000001
 43
0.00000001
 40
0.0
 40
0.0
 40
0.0
 40
0.0
 40
0.100956711299294
 40
0.433980578904608
 40
0.7145532145330337
 40
0.953968443020397
 40
1.0
 40
1.0
 40
1.0
 40
1.0
 10
105.2428206495964
 20
233.8760787726976
 30
0.0
 10
105.242978489833
 20
233.7704615314574
 30
0.0
 10
105.2436569944752
 20
233.3164468264833
 30
0.0
 10
105.2432907265615
 20
232.3220901186977
 30
0.0
 10
105.2478458392025
 20
230.8185640692409
 30
0.0
 10
105.2567253827157
 20
229.6595677581573
 30
0.0
 10
105.2626607222438
 20
229.2412196381939
 30
0.0
 10
105.2636178635871
 20
229.173756221887
 30
0.0
  0
LINE
  5
1A0
330
1F
100
AcDbEntity
  8
0
  6
Continuous
 62
     7
370
    25
100
AcDbLine
 10
105.2624540478
 20
229.5461829845
 30
0.0
 11
105.2625817616
 21
229.5271032476
 31
0.0
  0
LWPOLYLINE
  5
1A1
330
1F
100
AcDbEntity
  8
0
  6
Continuous
 62
     7
370
    25
100
AcDbPolyline
 90
        3
 70
   128
 43
0.0
 10
106.0312099618
 20
175.6354383307
 10
106.2652750709
 20
162.5497833483
 10
106.5471237651
 20
146.7567492048
  0
SPLINE
  5
1A2
330
1F
100
AcDbEntity
  8
0
  6
Continuous
 62
     7
370
    25
100
AcDbSpline
210
0.0
220
0.0
230
1.0
 70
     8
 71
     3
 72
     9
 73
     5
 74
     0
 42
0.000000001
 43
0.00000001
 40
0.0
 40
0.0
 40
0.0
 40
0.0
 40
0.4518496086686845
 40
0.9999999999999999
 40
0.9999999999999999
 40
0.9999999999999999
 40
0.9999999999999999
 10
151.9079356251866
 20
146.7567492048404
 30
0.0
 10
151.9870099698111
 20
151.1063328667883
 30
0.0
 10
152.1620114373513
 20
160.7325084316257
 30
0.0
 10
152.3311409951997
 20
170.3587889160781
 30
0.0
 10
152.42384942852
 20
175.6354383306956
 30
0.0
  0
LINE
  5
1A3
330
1F
100
AcDbEntity
  8
0
  6
Continuous
 62
     7
370
    25
100
AcDbLine
 10
105.4406544818
 20
209.2299253948
 30
0.0
 11
105.4456169789
 21
208.9442158674
 31
0.0
  0
SPLINE
  5
1A4
330
1F
100
AcDbEntity
  8
0
  6
Continuous
 62
     7
370
    25
100
AcDbSpline
210
0.0
220
0.0
230
1.0
 70
     8
 71
     3
 72
    14
 73
    10
 74
     0
 42
0.000000001
 43
0.00000001
 40
0.0
 40
0.0
 40
0.0
 40
0.0
 40
0.1819626295566152
 40
0.4399935405928105
 40
0.6013376808234069
 40
0.7356414394426131
 40
0.8437994885105958
 40
0.927552904616927
 40
1.0
 40
1.0
 40
1.0
 40
1.0
 10
105.29810914219
 20
218.7089444285785
 30
0.0
 10
105.2962735018203
 20
218.6757143490085
 30
0.0
 10
105.2918348436878
 20
218.5953625734831
 30
0.0
 10
105.2877656599659
 20
218.3628760099117
 30
0.0
 10
105.2863981541767
 20
218.0361104313526
 30
0.0
 10
105.2874313073484
 20
217.696161945182
 30
0.0
 10
105.2908949049435
 20
217.2853865191247
 30
0.0
 10
105.2957566011782
 20
216.8390617241256
 30
0.0
 10
105.302933146701
 20
216.346430057077
 30
0.0
 10
105.3062616881574
 20
216.1179433957269
 30
0.0
  0
SPLINE
  5
1A5
330
1F
100
AcDbEntity
  8
0
  6
Continuous
 62
     7
370
    25
100
AcDbSpline
210
0.0
220
0.0
230
1.0
 70
     8
 71
     3
 72
    14
 73
    10
 74
     0
 42
0.000000001
 43
0.00000001
 40
0.0
 40
0.0
 40
0.0
 40
0.0
 40
0.0724470953824981
 40
0.156200511488941
 40
0.2643585605571018
 40
0.3986623191765508
 40
0.560006459407485
 40
0.8180373704442835
 40
1.0
 40
1.0
 40
1.0
 40
1.0
 10
153.1487977021209
 20
216.1179433957335
 30
0.0
 10
153.1521262435773
 20
216.3464300570809
 30
0.0
 10
153.1593027890999
 20
216.8390617241261
 30
0.0
 10
153.1641644853346
 20
217.285386519119
 30
0.0
 10
153.1676280829296
 20
217.6961619451692
 30
0.0
 10
153.1686612361012
 20
218.0361104313296
 30
0.0
 10
153.1672937303117
 20
218.362876009874
 30
0.0
 10
153.1632245465895
 20
218.5953625734282
 30
0.0
 10
153.1587858884567
 20
218.6757143489406
 30
0.0
 10
153.156950248087
 20
218.708944428505
 30
0.0
  0
LINE
  5
1A6
330
1F
100
AcDbEntity
  8
0
  6
Continuous
 62
     7
370
    25
100
AcDbLine
 10
153.0094424114
 20
208.9442158674
 30
0.0
 11
153.0144049085
 21
209.2299253948
 31
0.0
  0
SPLINE
  5
1A7
330
1F
100
AcDbEntity
  8
0
  6
Continuous
 62
     7
370
    25
100
AcDbSpline
210
0.0
220
0.0
230
1.0
 70
     8
 71
     3
 72
     9
 73
     5
 74
     0
 42
0.000000001
 43
0.00000001
 40
0.0
 40
0.0
 40
0.0
 40
0.0
 40
0.0449508875208606
 40
1.0
 40
1.0
 40
1.0
 40
1.0
 10
130.6260423898426
 20
110.3309762163586
 30
0.0
 10
130.6398273710042
 20
110.3307340441681
 30
0.0
 10
130.9464949791858
 20
110.3253465600966
 30
0.0
 10
131.2531387593602
 20
110.3305880197616
 30
0.0
 10
131.5459986294631
 20
110.3355938711627
 30
0.0
  0
SPLINE
  5
1A8
330
1F
100
AcDbEntity
  8
0
  6
Continuous
 62
     7
370
    25
100
AcDbSpline
210
0.0
220
0.0
230
1.0
 70
     8
 71
     3
 72
     9
 73
     5
 74
     0
 42
0.000000001
 43
0.00000001
 40
0.0
 40
0.0
 40
0.0
 40
0.0
 40
0.9550491124791373
 40
1.0
 40
1.0
 40
1.0
 40
1.0
 10
126.9090607608151
 20
110.3355938711627
 30
0.0
 10
127.2019206309179
 20
110.3305880197616
 30
0.0
 10
127.5085644110924
 20
110.3253465600966
 30
0.0
 10
127.815232019274
 20
110.3307340441681
 30
0.0
 10
127.8290170004356
 20
110.3309762163586
 30
0.0
  0
SPLINE
  5
1A9
330
1F
100
AcDbEntity
  8
0
  6
Continuous
 62
     7
370
    25
100
AcDbSpline
210
0.0
220
0.0
230
1.0
 70
     8
 71
     3
 72
     9
 73
     5
 74
     0
 42
0.000000001
 43
0.00000001
 40
0.0
 40
0.0
 40
0.0
 40
0.0
 40
0.4551746566422605
 40
1.0
 40
1.0
 40
1.0
 40
1.0
 10
105.297028453129
 20
216.7607145130379
 30
0.0
 10
105.3184682840119
 20
215.5097272892152
 30
0.0
 10
105.3655707106738
 20
212.7613598096832
 30
0.0
 10
105.4132102583194
 20
210.4753800845088
 30
0.0
 10
105.4391654912227
 20
209.2299203958318
 30
0.0
  0
SPLINE
  5
1AA
330
1F
100
AcDbEntity
  8
0
  6
Continuous
 62
     7
370
    25
100
AcDbSpline
210
0.0
220
0.0
230
1.0
 70
     8
 71
     3
 72
     9
 73
     5
 74
     0
 42
0.000000001
 43
0.00000001
 40
0.0
 40
0.0
 40
0.0
 40
0.0
 40
0.4080482366936305
 40
1.0
 40
1.0
 40
1.0
 40
1.0
 10
153.0158431811701
 20
209.2299216134013
 30
0.0
 10
153.0345482877821
 20
210.1584035160076
 30
0.0
 10
153.0803887177361
 20
212.4338254370277
 30
0.0
 10
153.1291604338161
 20
215.1518029384462
 30
0.0
 10
153.1580309371491
 20
216.7607145130379
 30
0.0
  0
SPLINE
  5
1AB
330
1F
100
AcDbEntity
  8
0
  6
Continuous
 62
     7
370
    25
100
AcDbSpline
210
0.0
220
0.0
230
1.0
 70
     8
 71
     3
 72
    24
 73
    20
 74
     0
 42
0.000000001
 43
0.00000001
 40
0.0
 40
0.0
 40
0.0
 40
0.0
 40
0.1091754435216776
 40
0.2056417946189247
 40
0.2894112563979095
 40
0.3605705055256969
 40
0.4222804126251716
 40
0.4753816790217157
 40
0.5268772307200367
 40
0.5697844502885808
 40
0.6110651515135512
 40
0.6478165275264398
 40
0.6781424153496893
 40
0.703894387806381
 40
0.7416830163715069
 40
0.7901515918095152
 40
0.8499074012388728
 40
0.9217869722852774
 40
1.0
 40
1.0
 40
1.0
 40
1.0
 10
106.3787022523949
 20
109.9013921403034
 30
0.0
 10
106.4050064658346
 20
108.0514926929324
 30
0.0
 10
106.4545528242763
 20
104.5670402377758
 30
0.0
 10
106.5290696877885
 20
99.66327362399811
 30
0.0
 10
106.5928899339957
 20
95.40355401972718
 30
0.0
 10
106.6553723575013
 20
91.73313420756439
 30
0.0
 10
106.7088144668338
 20
88.58155372643752
 30
0.0
 10
106.9551780257339
 20
85.7701585945044
 30
0.0
 10
107.5280337517191
 20
83.32130405463738
 30
0.0
 10
108.5300186211388
 20
81.22971859764945
 30
0.0
 10
109.8609626126467
 20
79.6388268130881
 30
0.0
 10
111.3833780029322
 20
78.57669172631572
 30
0.0
 10
112.8484563429681
 20
77.9814140952591
 30
0.0
 10
114.3954822594966
 20
77.59868865624016
 30
0.0
 10
116.2825595569077
 20
77.36428973651117
 30
0.0
 10
118.7538076459227
 20
77.24886744301506
 30
0.0
 10
121.8036452543333
 20
77.14639983481298
 30
0.0
 10
125.3589152368438
 20
77.06926755966005
 30
0.0
 10
127.9024009448649
 20
77.0617347019654
 30
0.0
 10
129.2278075259719
 20
77.05780934113817
 30
0.0
  0
SPLINE
  5
1AC
330
1F
100
AcDbEntity
  8
0
  6
Continuous
 62
     7
370
    25
100
AcDbSpline
210
0.0
220
0.0
230
1.0
 70
     8
 71
     3
 72
    24
 73
    20
 74
     0
 42
0.000000001
 43
0.00000001
 40
0.0
 40
0.0
 40
0.0
 40
0.0
 40
0.0782013073700899
 40
0.1500810920141753
 40
0.2098370790141839
 40
0.2583057984816457
 40
0.2960945393396432
 40
0.321846588321021
 40
0.352172566260826
 40
0.3889240514842806
 40
0.4302048753791827
 40
0.4731122224510273
 40
0.5222514276077236
 40
0.5727107641312953
 40
0.6302717039600341
 40
0.6996577118313576
 40
0.7858320944305177
 40
0.8859424873567413
 40
1.0
 40
1.0
 40
1.0
 40
1.0
 10
129.2278594959486
 20
77.0578131175692
 30
0.0
 10
130.5530635203636
 20
77.06173816828209
 30
0.0
 10
133.0963466675945
 20
77.0692709822083
 30
0.0
 10
136.6514141410805
 20
77.14640003961694
 30
0.0
 10
139.7012517230315
 20
77.24886740540944
 30
0.0
 10
142.1724998923018
 20
77.36428973603309
 30
0.0
 10
144.0595769847681
 20
77.59868867504088
 30
0.0
 10
145.6066034313985
 20
77.98141404303672
 30
0.0
 10
147.0716794834489
 20
78.57669198662077
 30
0.0
 10
148.5941059984484
 20
79.63882555189842
 30
0.0
 10
149.9250012291463
 20
81.22972400593022
 30
0.0
 10
150.9097864202724
 20
83.28495602081719
 30
0.0
 10
151.4748070634646
 20
85.64672278228373
 30
0.0
 10
151.7315597466341
 20
88.30153626831412
 30
0.0
 10
151.7945785024102
 20
91.30795725309598
 30
0.0
 10
151.8540865694924
 20
94.91873855504932
 30
0.0
 10
151.9198413858766
 20
99.25090677937295
 30
0.0
 10
151.9971832718078
 20
104.3398640822269
 30
0.0
 10
152.0488444172655
 20
107.9687750375391
 30
0.0
 10
152.0763571378833
 20
109.9013921403034
 30
0.0
  0
LINE
  5
1AD
330
1F
100
AcDbEntity
  8
0
  6
Continuous
 62
     7
370
    25
100
AcDbLine
 10
152.5647164156
 20
147.6891978283
 30
0.0
 11
153.106650697
 21
213.3112570328
 31
0.0
  0
LINE
  5
1AE
330
1F
100
AcDbEntity
  8
0
  6
Continuous
 62
     7
370
    25
100
AcDbLine
 10
153.1755951521
 20
225.1051245786
 30
0.0
 11
153.1758358858
 21
225.1874280106
 31
0.0
  0
LINE
  5
1AF
330
1F
100
AcDbEntity
  8
0
  6
Continuous
 62
     7
370
    25
100
AcDbLine
 10
153.1758358976
 20
225.1874324098
 30
0.0
 11
153.1762139543
 21
225.2819155591
 31
0.0
  0
LINE
  5
1B0
330
1F
100
AcDbEntity
  8
0
  6
Continuous
 62
     7
370
    25
100
AcDbLine
 10
153.1772097242
 20
225.5307762848
 30
0.0
 11
153.193004556
 21
229.4781878749
 31
0.0
  0
LINE
  5
1B1
330
1F
100
AcDbEntity
  8
0
  6
Continuous
 62
     7
370
    25
100
AcDbLine
 10
153.2099556463
 20
233.7145691779
 30
0.0
 11
153.2106016988
 21
233.8760292672
 31
0.0
  0
LINE
  5
1B2
330
1F
100
AcDbEntity
  8
0
  6
Continuous
 62
     7
370
    25
100
AcDbLine
 10
153.2115974686
 20
234.1248899929
 30
0.0
 11
153.2119514892
 21
234.2133660769
 31
0.0
  0
LINE
  5
1B3
330
1F
100
AcDbEntity
  8
0
  6
Continuous
 62
     7
370
    25
100
AcDbLine
 10
105.2792234926
 20
225.1874324098
 30
0.0
 11
105.278943641
 21
225.2589181066
 31
0.0
  0
LINE
  5
1B4
330
1F
100
AcDbEntity
  8
0
  6
Continuous
 62
     7
370
    25
100
AcDbLine
 10
105.2779694027
 20
225.5077789175
 30
0.0
 11
105.2624247097
 21
229.4785371211
 31
0.0
  0
LINE
  5
1B5
330
1F
100
AcDbEntity
  8
0
  6
Continuous
 62
     7
370
    25
100
AcDbLine
 10
105.2451467402
 20
233.7146099753
 30
0.0
 11
105.2444866849
 21
233.8760776346
 31
0.0
  0
LINE
  5
1B6
330
1F
100
AcDbEntity
  8
0
  6
Continuous
 62
     7
370
    25
100
AcDbLine
 10
105.2434693805
 20
234.1249382732
 30
0.0
 11
105.2431079011
 21
234.2133660769
 31
0.0
  0
LINE
  5
1B7
330
1F
100
AcDbEntity
  8
0
  6
Continuous
 62
     7
370
    25
100
AcDbLine
 10
105.2794642381
 20
225.1051245786
 30
0.0
 11
105.2792235044
 21
225.1874280106
 31
0.0
  0
LINE
  5
1B8
330
1F
100
AcDbEntity
  8
0
  6
Continuous
 62
     7
370
    25
100
AcDbLine
 10
105.8903429747
 20
147.6891978283
 30
0.0
 11
105.3484086933
 21
213.3112570328
 31
0.0
  0
SPLINE
  5
1B9
330
1F
100
AcDbEntity
  8
0
  6
Continuous
 62
     7
370
    25
100
AcDbSpline
210
0.0
220
0.0
230
1.0
 70
     8
 71
     3
 72
    28
 73
    24
 74
     0
 42
0.000000001
 43
0.00000001
 40
0.0
 40
0.0
 40
0.0
 40
0.0
 40
0.0561194760392788
 40
0.1078394320177701
 40
0.1552475223523715
 40
0.1984020882569889
 40
0.2373421711869576
 40
0.2989165129562495
 40
0.3605937357569216
 40
0.4218311405542716
 40
0.4804127562649523
 40
0.5039785906144717
 40
0.5330386999241351
 40
0.5670765099324419
 40
0.6058531521378636
 40
0.6494865925273939
 40
0.6981590201132536
 40
0.7517274132582653
 40
0.8267725936610147
 40
0.8897480671397441
 40
0.9377899175081338
 40
0.972931148875435
 40
1.0
 40
1.0
 40
1.0
 40
1.0
 10
129.2275256006822
 20
110.3253113791802
 30
0.0
 10
128.6498165764145
 20
110.3262145499679
 30
0.0
 10
127.5396883741312
 20
110.3279500869263
 30
0.0
 10
125.9415805674313
 20
110.3418410511665
 30
0.0
 10
124.4770265198462
 20
110.3620920040977
 30
0.0
 10
123.1441458034146
 20
110.3878720638884
 30
0.0
 10
121.6656386291297
 20
110.4239420114659
 30
0.0
 10
119.9968442364101
 20
110.4758081635041
 30
0.0
 10
118.0992333862818
 20
110.5498823583665
 30
0.0
 10
116.233419947852
 20
110.6438350105371
 30
0.0
 10
114.7663490425726
 20
110.8384561330964
 30
0.0
 10
113.6545059222358
 20
111.1138184914563
 30
0.0
 10
112.8066359678771
 20
111.3952993199622
 30
0.0
 10
111.8521141546175
 20
111.8374104816106
 30
0.0
 10
110.8499020930759
 20
112.5048297617086
 30
0.0
 10
109.8612174547723
 20
113.432585344751
 30
0.0
 10
108.9516824999811
 20
114.6366233770648
 30
0.0
 10
108.107325461807
 20
116.2638751670977
 30
0.0
 10
107.527890544185
 20
118.1610805845928
 30
0.0
 10
107.2164361623647
 20
120.0535972647579
 30
0.0
 10
107.088557322259
 20
121.5536381005459
 30
0.0
 10
107.0434020007143
 20
122.6878083916216
 30
0.0
 10
107.029244232786
 20
123.3280550864063
 30
0.0
 10
107.0230839047981
 20
123.606639228557
 30
0.0
  0
SPLINE
  5
1BA
330
1F
100
AcDbEntity
  8
0
  6
Continuous
 62
     7
370
    25
100
AcDbSpline
210
0.0
220
0.0
230
1.0
 70
     8
 71
     3
 72
    35
 73
    31
 74
     0
 42
0.000000001
 43
0.00000001
 40
0.0
 40
0.0
 40
0.0
 40
0.0
 40
0.1249999999999937
 40
0.1249999999999937
 40
0.1562499999999931
 40
0.1562499999999931
 40
0.1874999999999925
 40
0.2499999999999926
 40
0.2499999999999926
 40
0.3124999999999926
 40
0.3124999999999926
 40
0.3437499999999926
 40
0.3437499999999926
 40
0.3749999999999927
 40
0.3749999999999927
 40
0.4374999999999933
 40
0.4374999999999933
 40
0.4687499999999934
 40
0.4687499999999934
 40
0.4999999999999938
 40
0.4999999999999938
 40
0.5312499999999941
 40
0.5312499999999941
 40
0.5624999999999943
 40
0.5624999999999943
 40
0.6249999999999951
 40
0.6249999999999951
 40
0.7499999999999967
 40
0.7499999999999967
 40
1.0
 40
1.0
 40
1.0
 40
1.0
 10
151.4319754854801
 20
123.6066392285557
 30
0.0
 10
151.4052105425525
 20
122.3932146914754
 30
0.0
 10
151.3606994047223
 20
121.1393579534236
 30
0.0
 10
151.1504866311681
 20
119.5645214982904
 30
0.0
 10
151.1006834051822
 20
119.2499637289678
 30
0.0
 10
150.9824839374612
 20
118.6170286968619
 30
0.0
 10
150.777257717166
 20
117.6610820242317
 30
0.0
 10
150.4709220120987
 20
116.7043811248166
 30
0.0
 10
149.9417932124219
 20
115.4616706513503
 30
0.0
 10
149.6158943699821
 20
114.8557644764774
 30
0.0
 10
149.0169160624748
 20
114.000307505599
 30
0.0
 10
148.7996367008375
 20
113.7246918653309
 30
0.0
 10
148.3311967184793
 20
113.2010675604058
 30
0.0
 10
148.0812335750726
 20
112.9535463760146
 30
0.0
 10
147.274448116253
 20
112.2619021993506
 30
0.0
 10
146.6508504342495
 20
111.8640626800134
 30
0.0
 10
145.6842111475615
 20
111.4201842158625
 30
0.0
 10
145.3572437273703
 20
111.2978617226092
 30
0.0
 10
144.698852852126
 20
111.0887370265558
 30
0.0
 10
144.3675667670999
 20
111.0030629707239
 30
0.0
 10
143.7069549757771
 20
110.8619671754939
 30
0.0
 10
143.3774487057673
 20
110.8067213248274
 30
0.0
 10
142.728294570166
 20
110.7178096312469
 30
0.0
 10
142.4079134078901
 20
110.6841464081151
 30
0.0
 10
141.4567799818981
 20
110.6033814910904
 30
0.0
 10
140.836237284066
 20
110.5736979420566
 30
0.0
 10
138.9891893636552
 20
110.4877637827034
 30
0.0
 10
137.7786474106397
 20
110.4522361419253
 30
0.0
 10
134.1120924322229
 20
110.3534167271941
 30
0.0
 10
131.6667130118916
 20
110.3281230063569
 30
0.0
 10
129.2275378972087
 20
110.323254258571
 30
0.0
  0
SPLINE
  5
1BB
330
1F
100
AcDbEntity
  8
0
  6
Continuous
 62
     7
370
    25
100
AcDbSpline
210
0.0
220
0.0
230
1.0
 70
     8
 71
     3
 72
     8
 73
     4
 74
     0
 42
0.000000001
 43
0.00000001
 40
0.0
 40
0.0
 40
0.0
 40
0.0
 40
1.0
 40
1.0
 40
1.0
 40
1.0
 10
151.9215941283863
 20
146.7566118525659
 30
0.0
 10
151.7656029803968
 20
139.0397728801271
 30
0.0
 10
151.6021828210915
 20
131.3228390633003
 30
0.0
 10
151.4319625613232
 20
123.6066392285571
 30
0.0
  0
LINE
  5
1BC
330
1F
100
AcDbEntity
  8
0
  6
Continuous
 62
     7
370
    25
100
AcDbLine
 10
151.9215941284
 20
146.7566118526
 30
0.0
 11
151.8919521209
 21
146.7572378204
 31
0.0
  0
SPLINE
  5
1BD
330
1F
100
AcDbEntity
  8
0
  6
Continuous
 62
     7
370
    25
100
AcDbSpline
210
0.0
220
0.0
230
1.0
 70
     8
 71
     3
 72
     8
 73
     4
 74
     0
 42
0.000000001
 43
0.00000001
 40
0.0
 40
0.0
 40
0.0
 40
0.0
 40
1.0
 40
1.0
 40
1.0
 40
1.0
 10
107.023096828955
 20
123.606639228557
 30
0.0
 10
106.8477343460874
 20
131.5747704582442
 30
0.0
 10
106.6855832639461
 20
139.2345995913878
 30
0.0
 10
106.5334652618919
 20
146.7566118525659
 30
0.0
  0
LINE
  5
1BE
330
1F
100
AcDbEntity
  8
0
  6
Continuous
 62
     7
370
    25
100
AcDbLine
 10
106.5348046764
 20
146.7564582023
 30
0.0
 11
106.5640168906
 21
146.7570955171
 31
0.0
  0
SPLINE
  5
1BF
330
1F
100
AcDbEntity
  8
0
  6
Continuous
 62
     7
370
    25
100
AcDbSpline
210
0.0
220
0.0
230
1.0
 70
     8
 71
     3
 72
    14
 73
    10
 74
     0
 42
0.000000001
 43
0.00000001
 40
0.0
 40
0.0
 40
0.0
 40
0.0
 40
0.1249999999999999
 40
0.1249999999999999
 40
0.2499999999999998
 40
0.2499999999999998
 40
0.4999999999999999
 40
0.4999999999999999
 40
1.0
 40
1.0
 40
1.0
 40
1.0
 10
153.0134489731806
 20
209.2082838265003
 30
0.0
 10
152.9922566176343
 20
207.8068652412112
 30
0.0
 10
152.9708135797792
 20
206.4104821447241
 30
0.0
 10
152.9276358849653
 20
203.6126836498982
 30
0.0
 10
152.9057681241574
 20
202.2134855443456
 30
0.0
 10
152.8386444943867
 20
198.0166804736871
 30
0.0
 10
152.7933777013663
 20
195.2191706078627
 30
0.0
 10
152.6456109071241
 20
186.8234119067575
 30
0.0
 10
152.5376544511509
 20
181.229910932111
 30
0.0
 10
152.4268415283805
 20
175.6348840479148
 30
0.0
  0
LINE
  5
1C0
330
1F
100
AcDbEntity
  8
0
  6
Continuous
 62
     7
370
    25
100
AcDbLine
 10
152.4291956167
 20
175.6352139498
 30
0.0
 11
152.4068683959
 21
175.6357875783
 31
0.0
  0
LINE
  5
1C1
330
1F
100
AcDbEntity
  8
0
  6
Continuous
 62
     7
370
    25
100
AcDbLine
 10
106.0281124892
 20
175.6358590516
 30
0.0
 11
106.0503029595
 21
175.6363659775
 31
0.0
  0
SPLINE
  5
1C2
330
1F
100
AcDbEntity
  8
0
  6
Continuous
 62
     7
370
    25
100
AcDbSpline
210
0.0
220
0.0
230
1.0
 70
     8
 71
     3
 72
    18
 73
    14
 74
     0
 42
0.000000001
 43
0.00000001
 40
0.0
 40
0.0
 40
0.0
 40
0.0
 40
0.1439079125454568
 40
0.2772163699096656
 40
0.3999423611107167
 40
0.5120603659949294
 40
0.6135820066216746
 40
0.7045006235900902
 40
0.7848145048676537
 40
0.8545226200930811
 40
0.9136234060203638
 40
0.9621158735007973
 40
1.0
 40
1.0
 40
1.0
 40
1.0
 10
106.0282178618977
 20
175.6348840479148
 30
0.0
 10
105.996176851479
 20
177.2453055384526
 30
0.0
 10
105.9344547929806
 20
180.3475338435875
 30
0.0
 10
105.8441825476343
 20
184.8231284859069
 30
0.0
 10
105.7741592675502
 20
188.9432081049969
 30
0.0
 10
105.7048538459352
 20
192.7074650506729
 30
0.0
 10
105.6481388442485
 20
196.1158705123145
 30
0.0
 10
105.5979141105784
 20
199.1683570779421
 30
0.0
 10
105.5547611652256
 20
201.8648290153545
 30
0.0
 10
105.5181980642572
 20
204.2052295984422
 30
0.0
 10
105.4876672888446
 20
206.1895068866032
 30
0.0
 10
105.4627185622525
 20
207.8176267561587
 30
0.0
 10
105.4480457865219
 20
208.7843056927279
 30
0.0
 10
105.4416104170976
 20
209.2082838265003
 30
0.0
  0
LINE
  5
1C3
330
1F
100
AcDbEntity
  8
0
  6
Continuous
 62
     7
370
    25
100
AcDbLine
 10
105.2533960488
 20
221.8645818274
 30
0.0
 11
105.2468952411
 21
222.6159558313
 31
0.0
  0
SPLINE
  5
1C4
330
1F
100
AcDbEntity
  8
0
  6
Continuous
 62
     7
370
    25
100
AcDbSpline
210
0.0
220
0.0
230
1.0
 70
     8
 71
     3
 72
     8
 73
     4
 74
     0
 42
0.000000001
 43
0.00000001
 40
0.0
 40
0.0
 40
0.0
 40
0.0
 40
1.0
 40
1.0
 40
1.0
 40
1.0
 10
153.188923344081
 20
220.603296989917
 30
0.0
 10
153.1888051320597
 20
220.5945615521702
 30
0.0
 10
153.1886858494507
 20
220.585806199056
 30
0.0
 10
153.1885645118828
 20
220.5769401087354
 30
0.0
  0
LINE
  5
1C5
330
1F
100
AcDbEntity
  8
0
  6
Continuous
 62
     7
370
    25
100
AcDbLine
 10
153.2007833365
 20
221.8650307099
 30
0.0
 11
153.2078460624
 21
222.6165135573
 31
0.0
  0
SPLINE
  5
1C6
330
1F
100
AcDbEntity
  8
0
  6
Continuous
 62
     7
370
    25
100
AcDbSpline
210
0.0
220
0.0
230
1.0
 70
     8
 71
     3
 72
    16
 73
    12
 74
     0
 42
0.000000001
 43
0.00000001
 40
0.0
 40
0.0
 40
0.0
 40
0.0
 40
0.2499999999999999
 40
0.2499999999999999
 40
0.4999999999999998
 40
0.4999999999999998
 40
0.6249999999999998
 40
0.6249999999999998
 40
0.7499999999999999
 40
0.7499999999999999
 40
1.0
 40
1.0
 40
1.0
 40
1.0
 10
152.561161426746
 20
223.9296727347083
 30
0.0
 10
150.903738803782
 20
225.1918195519942
 30
0.0
 10
149.1599231679956
 20
226.2997047417218
 30
0.0
 10
145.5052406508373
 20
228.223643967592
 30
0.0
 10
143.5943995547674
 20
229.0397147623347
 30
0.0
 10
140.5962505712513
 20
230.0374911819164
 30
0.0
 10
139.5868289648171
 20
230.3280225367666
 30
0.0
 10
137.5553218864449
 20
230.8254914345766
 30
0.0
 10
136.5320947692489
 20
231.0328032497717
 30
0.0
 10
133.4401432773473
 20
231.5318993397951
 30
0.0
 10
131.3492977990433
 20
231.7017408514689
 30
0.0
 10
129.2275296951391
 20
231.7017714230199
 30
0.0
  0
SPLINE
  5
1C7
330
1F
100
AcDbEntity
  8
0
  6
Continuous
 62
     7
370
    25
100
AcDbSpline
210
0.0
220
0.0
230
1.0
 70
     8
 71
     3
 72
    23
 73
    19
 74
     0
 42
0.000000001
 43
0.00000001
 40
0.0
 40
0.0
 40
0.0
 40
0.0
 40
0.015625
 40
0.015625
 40
0.03125
 40
0.0624999999999999
 40
0.0624999999999999
 40
0.1249999999999999
 40
0.1249999999999999
 40
0.2499999999999999
 40
0.2499999999999999
 40
0.3749999999999999
 40
0.3749999999999999
 40
0.4999999999999999
 40
0.4999999999999999
 40
0.7499999999999999
 40
0.7499999999999999
 40
1.0
 40
1.0
 40
1.0
 40
1.0
 10
129.2275296951391
 20
231.7017714230199
 30
0.0
 10
129.0968014433136
 20
231.7017695426689
 30
0.0
 10
128.962431115597
 20
231.7010995058003
 30
0.0
 10
128.6976953068306
 20
231.6984300877634
 30
0.0
 10
128.3009546265221
 20
231.6924317450649
 30
0.0
 10
127.9052976780346
 20
231.6804800230938
 30
0.0
 10
127.1154162018341
 20
231.6487062299275
 30
0.0
 10
126.5907378523889
 20
231.6170334692571
 30
0.0
 10
125.0223522105335
 20
231.4909524643708
 30
0.0
 10
123.9842852205365
 20
231.3655363493092
 30
0.0
 10
121.9230029945868
 20
231.0328102356518
 30
0.0
 10
120.8997875164404
 20
230.825501866573
 30
0.0
 10
118.8683080423324
 20
230.328043358151
 30
0.0
 10
117.8589353235697
 20
230.0375300430035
 30
0.0
 10
114.8607277734585
 20
229.0397438500034
 30
0.0
 10
112.9498601498951
 20
228.2236640656832
 30
0.0
 10
109.2951435701136
 20
226.2997103114948
 30
0.0
 10
107.5513204696158
 20
225.1918194629884
 30
0.0
 10
105.8938979635322
 20
223.9296727347083
 30
0.0
  0
SPLINE
  5
1C8
330
1F
100
AcDbEntity
  8
0
  6
Continuous
 62
     7
370
    25
100
AcDbSpline
210
0.0
220
0.0
230
1.0
 70
     8
 71
     3
 72
    12
 73
     8
 74
     0
 42
0.000000001
 43
0.00000001
 40
0.0
 40
0.0
 40
0.0
 40
0.0
 40
0.5000000000000033
 40
0.5000000000000033
 40
0.7500000000000017
 40
0.7500000000000017
 40
1.0
 40
1.0
 40
1.0
 40
1.0
 10
105.89386922435
 20
223.9294980934637
 30
0.0
 10
105.6895656363118
 20
223.7734870615564
 30
0.0
 10
105.5228265000685
 20
223.5702605534476
 30
0.0
 10
105.3566919759743
 20
223.2321539704607
 30
0.0
 10
105.3140248655485
 20
223.1114917515909
 30
0.0
 10
105.258822145577
 20
222.867195400782
 30
0.0
 10
105.2456065865746
 20
222.7419655329586
 30
0.0
 10
105.2472133965729
 20
222.6165063363104
 30
0.0
  0
SPLINE
  5
1C9
330
1F
100
AcDbEntity
  8
0
  6
Continuous
 62
     7
370
    25
100
AcDbSpline
210
0.0
220
0.0
230
1.0
 70
     8
 71
     3
 72
    12
 73
     8
 74
     0
 42
0.000000001
 43
0.00000001
 40
0.0
 40
0.0
 40
0.0
 40
0.0
 40
0.5000000000000014
 40
0.5000000000000014
 40
0.7500000000000007
 40
0.7500000000000007
 40
1.0
 40
1.0
 40
1.0
 40
1.0
 10
153.2078459937053
 20
222.6165063363104
 30
0.0
 10
153.2110601029237
 20
222.8674629278918
 30
0.0
 10
153.1534879908479
 20
223.1202652578951
 30
0.0
 10
152.9871933614155
 20
223.4582631116121
 30
0.0
 10
152.917290013554
 20
223.566545241039
 30
0.0
 10
152.7557873627813
 20
223.762404078072
 30
0.0
 10
152.6633575109353
 20
223.8514807024079
 30
0.0
 10
152.5611901659281
 20
223.9294980934637
 30
0.0
  0
LINE
  5
1CA
330
1F
100
AcDbEntity
  8
0
  6
Continuous
 62
     7
370
    25
100
AcDbLine
 10
106.3652747352
 20
109.9011960201
 30
0.0
 11
106.399357149
 21
109.9017182837
 31
0.0
  0
LINE
  5
1CB
330
1F
100
AcDbEntity
  8
0
  6
Continuous
 62
     7
370
    25
100
AcDbLine
 10
152.0897413574
 20
109.9011694339
 30
0.0
 11
152.05595355
 21
109.9016778915
 31
0.0
  0
SPLINE
  5
1CC
330
1F
100
AcDbEntity
  8
0
  6
Continuous
 62
     7
370
    25
100
AcDbSpline
210
0.0
220
0.0
230
1.0
 70
     8
 71
     3
 72
     8
 73
     4
 74
     0
 42
0.000000001
 43
0.00000001
 40
0.0
 40
0.0
 40
0.0
 40
0.0
 40
1.0
 40
1.0
 40
1.0
 40
1.0
 10
152.5650103346834
 20
147.689220225223
 30
0.0
 10
152.4267847958723
 20
135.0929804255933
 30
0.0
 10
152.2681280930931
 20
122.496980008905
 30
0.0
 10
152.0897830373504
 20
109.9013049395894
 30
0.0
  0
SPLINE
  5
1CD
330
1F
100
AcDbEntity
  8
0
  6
Continuous
 62
     7
370
    25
100
AcDbSpline
210
0.0
220
0.0
230
1.0
 70
     8
 71
     3
 72
    12
 73
     8
 74
     0
 42
0.000000001
 43
0.00000001
 40
0.0
 40
0.0
 40
0.0
 40
0.0
 40
0.5000000000000007
 40
0.5000000000000007
 40
0.7500000000000003
 40
0.7500000000000003
 40
1.0
 40
1.0
 40
1.0
 40
1.0
 10
106.3652763529278
 20
109.9013049395894
 30
0.0
 10
106.2746701308612
 20
116.3162700982502
 30
0.0
 10
106.1902635303612
 20
122.6356211880939
 30
0.0
 10
106.0717860203085
 20
132.0537246210469
 30
0.0
 10
106.0336555558555
 20
135.1832421100351
 30
0.0
 10
105.9599658647847
 20
141.4364349024776
 30
0.0
 10
105.9243856536854
 20
144.5619001864062
 30
0.0
 10
105.8900490555931
 20
147.6892202253776
 30
0.0
  0
SPLINE
  5
1CE
330
1F
100
AcDbEntity
  8
0
  6
Continuous
 62
     7
370
    25
100
AcDbSpline
210
0.0
220
0.0
230
1.0
 70
     8
 71
     3
 72
     8
 73
     4
 74
     0
 42
0.000000001
 43
0.00000001
 40
0.0
 40
0.0
 40
0.0
 40
0.0
 40
0.9613087036283728
 40
0.9613087036283728
 40
0.9613087036283728
 40
0.9613087036283728
 10
129.2275296951391
 20
247.5013049395888
 30
0.0
 10
137.657136370833
 20
247.5013049395888
 30
0.0
 10
145.83154569548
 20
244.6613748744026
 30
0.0
 10
152.4375863555257
 20
239.4566921923158
 30
0.0
  0
SPLINE
  5
1CF
330
1F
100
AcDbEntity
  8
0
  6
Continuous
 62
     7
370
    25
100
AcDbSpline
210
0.0
220
0.0
230
1.0
 70
     8
 71
     3
 72
     8
 73
     4
 74
     0
 42
0.000000001
 43
0.00000001
 40
0.0
 40
0.0
 40
0.0
 40
0.0
 40
0.9613087036283728
 40
0.9613087036283728
 40
0.9613087036283728
 40
0.9613087036283728
 10
129.2275296951391
 20
247.5013049395888
 30
0.0
 10
120.7979230194452
 20
247.5013049395888
 30
0.0
 10
112.6235136947981
 20
244.6613748744026
 30
0.0
 10
106.0174730347525
 20
239.4566921923158
 30
0.0
  0
SPLINE
  5
1D0
330
1F
100
AcDbEntity
  8
0
  6
Continuous
 62
     7
370
    25
100
AcDbSpline
210
0.0
220
0.0
230
1.0
 70
     8
 71
     3
 72
    12
 73
     8
 74
     0
 42
0.000000001
 43
0.00000001
 40
0.0
 40
0.0
 40
0.0
 40
0.0
 40
0.4999999999999989
 40
0.4999999999999989
 40
0.7499999999999994
 40
0.7499999999999994
 40
1.0
 40
1.0
 40
1.0
 40
1.0
 10
153.2237768415679
 20
237.8217718944436
 30
0.0
 10
153.2250559989708
 20
238.137271617589
 30
0.0
 10
153.1537745682755
 20
238.4499014771837
 30
0.0
 10
152.951627465966
 20
238.8707899651904
 30
0.0
 10
152.8669736282882
 20
239.0055538817695
 30
0.0
 10
152.6719673550803
 20
239.2490953055388
 30
0.0
 10
152.5615185092875
 20
239.3590480934321
 30
0.0
 10
152.4375863554579
 20
239.4566921922298
 30
0.0
  0
LINE
  5
1D1
330
1F
100
AcDbEntity
  8
0
  6
Continuous
 62
     7
370
    25
100
AcDbLine
 10
153.212477666
 20
234.429483185
 30
0.0
 11
153.2237762408
 21
237.8216249869
 31
0.0
  0
SPLINE
  5
1D2
330
1F
100
AcDbEntity
  8
0
  6
Continuous
 62
     7
370
    25
100
AcDbSpline
210
0.0
220
0.0
230
1.0
 70
     8
 71
     3
 72
    12
 73
     8
 74
     0
 42
0.000000001
 43
0.00000001
 40
0.0
 40
0.0
 40
0.0
 40
0.0
 40
0.4999999999999989
 40
0.4999999999999989
 40
0.7499999999999994
 40
0.7499999999999994
 40
1.0
 40
1.0
 40
1.0
 40
1.0
 10
105.2312825487102
 20
237.8217718944436
 30
0.0
 10
105.2300033913074
 20
238.137271617589
 30
0.0
 10
105.3012848220027
 20
238.4499014771837
 30
0.0
 10
105.5034319243121
 20
238.8707899651904
 30
0.0
 10
105.58808576199
 20
239.0055538817695
 30
0.0
 10
105.7830920351978
 20
239.2490953055388
 30
0.0
 10
105.8935408809907
 20
239.3590480934321
 30
0.0
 10
106.0174730348203
 20
239.4566921922298
 30
0.0
  0
LINE
  5
1D3
330
1F
100
AcDbEntity
  8
0
  6
Continuous
 62
     7
370
    25
100
AcDbLine
 10
105.2425817243
 20
234.429483185
 30
0.0
 11
105.2312831495
 21
237.8216249869
 31
0.0
  0
LINE
  5
1D4
330
1F
100
AcDbEntity
  8
0
  6
Continuous
 62
     8
370
    18
100
AcDbLine
 10
153.1316887966
 20
216.4967254975
 30
0.0
 11
153.1375913992
 21
217.5650858718
 31
0.0
  0
SPLINE
  5
1D5
330
1F
100
AcDbEntity
  8
0
  6
Continuous
 62
     8
370
    18
100
AcDbSpline
210
0.0
220
0.0
230
1.0
 70
     8
 71
     3
 72
    11
 73
     7
 74
     0
 42
0.000000001
 43
0.00000001
 40
0.0
 40
0.0
 40
0.0
 40
0.0
 40
0.2270455860639227
 40
0.5106849474856696
 40
0.7994791662232712
 40
0.9999999999999999
 40
0.9999999999999999
 40
0.9999999999999999
 40
0.9999999999999999
 10
153.1656047451147
 20
222.9806252116158
 30
0.0
 10
153.1670840513434
 20
223.2817488959453
 30
0.0
 10
153.170411398229
 20
223.9590548748212
 30
0.0
 10
153.1735394317267
 20
224.602511088544
 30
0.0
 10
153.1751283965916
 20
224.9126306606175
 30
0.0
 10
153.1754594760828
 20
225.0491706311399
 30
0.0
 10
153.1755951521371
 20
225.1051245785861
 30
0.0
  0
LINE
  5
1D6
330
1F
100
AcDbEntity
  8
0
  6
Continuous
 62
     8
370
    18
100
AcDbLine
 10
153.1941375541
 20
229.7613443998
 30
0.0
 11
153.2099556463
 21
233.7145691779
 31
0.0
  0
LWPOLYLINE
  5
1D7
330
1F
100
AcDbEntity
  8
0
  6
Continuous
 62
     8
370
    18
100
AcDbPolyline
 90
        3
 70
   128
 43
0.0
 10
105.262234588
 20
229.5271020808
 10
105.2615548756
 20
229.7007287635
 10
105.2451467402
 20
233.7146099753
  0
LINE
  5
1D8
330
1F
100
AcDbEntity
  8
0
  6
Continuous
 62
     8
370
    18
100
AcDbLine
 10
105.3233705937
 20
216.4967254975
 30
0.0
 11
105.3174679911
 21
217.5650858718
 31
0.0
  0
SPLINE
  5
1D9
330
1F
100
AcDbEntity
  8
0
  6
Continuous
 62
     8
370
    18
100
AcDbSpline
210
0.0
220
0.0
230
1.0
 70
     8
 71
     3
 72
    11
 73
     7
 74
     0
 42
0.000000001
 43
0.00000001
 40
0.0
 40
0.0
 40
0.0
 40
0.0
 40
0.2453839360251011
 40
0.5222939512153795
 40
0.8042365246884081
 40
1.0
 40
1.0
 40
1.0
 40
1.0
 10
105.2899015306547
 20
222.8895675356059
 30
0.0
 10
105.2882587590958
 20
223.2239492230428
 30
0.0
 10
105.2847621583715
 20
223.9356728002847
 30
0.0
 10
105.2815144380384
 20
224.6036169970506
 30
0.0
 10
105.2799319013313
 20
224.9124488347567
 30
0.0
 10
105.2796001780287
 20
225.0491177781731
 30
0.0
 10
105.2794642381411
 20
225.1051245785861
 30
0.0
  0
SPLINE
  5
1DA
330
1F
100
AcDbEntity
  8
0
  6
Continuous
 62
     8
370
    18
100
AcDbSpline
210
0.0
220
0.0
230
1.0
 70
     8
 71
     3
 72
    16
 73
    12
 74
     0
 42
0.000000001
 43
0.00000001
 40
0.0
 40
0.0
 40
0.0
 40
0.0
 40
0.25
 40
0.25
 40
0.5
 40
0.5
 40
0.75
 40
0.75
 40
0.875
 40
0.875
 40
1.0
 40
1.0
 40
1.0
 40
1.0
 10
152.0406062689771
 20
209.2538829816285
 30
0.0
 10
152.063589440494
 20
210.6407565408484
 30
0.0
 10
152.1004549084996
 20
212.1165267514069
 30
0.0
 10
152.2281310676521
 20
215.2160769292942
 30
0.0
 10
152.3067797924638
 20
216.6531978872699
 30
0.0
 10
152.4251042232811
 20
219.0649169983639
 30
0.0
 10
152.4596182222729
 20
220.0266676998581
 30
0.0
 10
152.4972680161387
 20
221.0391381123636
 30
0.0
 10
152.5080421149039
 20
221.3007644658168
 30
0.0
 10
152.525283458414
 20
221.6805662596206
 30
0.0
 10
152.5324407156951
 20
221.8099124570256
 30
0.0
 10
152.5356122551294
 20
221.9135103116683
 30
0.0
  0
SPLINE
  5
1DB
330
1F
100
AcDbEntity
  8
0
  6
Continuous
 62
     8
370
    18
100
AcDbSpline
210
0.0
220
0.0
230
1.0
 70
     8
 71
     3
 72
     8
 73
     4
 74
     0
 42
0.000000001
 43
0.00000001
 40
0.0
 40
0.0
 40
0.0
 40
0.0
 40
0.000827418256155
 40
0.000827418256155
 40
0.000827418256155
 40
0.000827418256155
 10
129.2275296951391
 20
230.0407883467572
 30
0.0
 10
129.5033357438977
 20
230.0406483190626
 30
0.0
 10
129.7791568116995
 20
230.0375299544477
 30
0.0
 10
130.0548934559303
 20
230.031433207534
 30
0.0
  0
SPLINE
  5
1DC
330
1F
100
AcDbEntity
  8
0
  6
Continuous
 62
     8
370
    18
100
AcDbSpline
210
0.0
220
0.0
230
1.0
 70
     8
 71
     3
 72
    24
 73
    20
 74
     0
 42
0.000000001
 43
0.00000001
 40
0.0
 40
0.0
 40
0.0
 40
0.0
 40
0.023721315477605
 40
0.0474138258151056
 40
0.0710791930813104
 40
0.0947190431279766
 40
0.1558702830923262
 40
0.2240185484492439
 40
0.3456397422033033
 40
0.4826273585029761
 40
0.5250953232822249
 40
0.6119761882140188
 40
0.6834264613186344
 40
0.7413126571181917
 40
0.7966699073540423
 40
0.8502130463198047
 40
0.9019474418687495
 40
0.951876130292397
 40
1.0
 40
1.0
 40
1.0
 40
1.0
 10
152.5344428365406
 20
221.9423187845426
 30
0.0
 10
152.3835261487383
 20
222.0615381859165
 30
0.0
 10
152.0818760334737
 20
222.2998322188027
 30
0.0
 10
151.6227560587114
 20
222.6481776914198
 30
0.0
 10
151.1592430546558
 20
222.9895182146563
 30
0.0
 10
150.4431352038089
 20
223.4998450614279
 30
0.0
 10
149.4133268540609
 20
224.1911760180753
 30
0.0
 10
147.6768716662513
 20
225.2520832901367
 30
0.0
 10
145.3317992645376
 20
226.4899795121177
 30
0.0
 10
143.0810343004242
 20
227.4423907347272
 30
0.0
 10
141.0470903503758
 20
228.1647989428417
 30
0.0
 10
139.4912013454118
 20
228.6446150800317
 30
0.0
 10
137.7919365765902
 20
229.0742485974813
 30
0.0
 10
136.3264131902821
 20
229.3802824421794
 30
0.0
 10
134.9937025769116
 20
229.6083112705555
 30
0.0
 10
133.7031675833688
 20
229.7832566688081
 30
0.0
 10
132.4511632293915
 20
229.9094769218724
 30
0.0
 10
131.2395352455308
 20
229.9947730181029
 30
0.0
 10
130.4448985201924
 20
230.019364023701
 30
0.0
 10
130.0548934559301
 20
230.031433207534
 30
0.0
  0
SPLINE
  5
1DD
330
1F
100
AcDbEntity
  8
0
  6
Continuous
 62
     8
370
    18
100
AcDbSpline
210
0.0
220
0.0
230
1.0
 70
     8
 71
     3
 72
     8
 73
     4
 74
     0
 42
0.000000001
 43
0.00000001
 40
0.0
 40
0.0
 40
0.0
 40
0.0
 40
1.0
 40
1.0
 40
1.0
 40
1.0
 10
152.5356122551294
 20
221.9135103116683
 30
0.0
 10
152.53589629751
 20
221.9227885130603
 30
0.0
 10
152.5361319604662
 20
221.9318551125145
 30
0.0
 10
152.5363276511693
 20
221.9408247789677
 30
0.0
  0
SPLINE
  5
1DE
330
1F
100
AcDbEntity
  8
0
  6
Continuous
 62
     8
370
    18
100
AcDbSpline
210
0.0
220
0.0
230
1.0
 70
     8
 71
     3
 72
     8
 73
     4
 74
     0
 42
0.000000001
 43
0.00000001
 40
0.0
 40
0.0
 40
0.0
 40
0.0
 40
0.000827418256155
 40
0.000827418256155
 40
0.000827418256155
 40
0.000827418256155
 10
129.2275296951391
 20
230.0407883467572
 30
0.0
 10
128.9517236463805
 20
230.0406483190626
 30
0.0
 10
128.6759025785787
 20
230.0375299544477
 30
0.0
 10
128.4001659343478
 20
230.031433207534
 30
0.0
  0
SPLINE
  5
1DF
330
1F
100
AcDbEntity
  8
0
  6
Continuous
 62
     8
370
    18
100
AcDbSpline
210
0.0
220
0.0
230
1.0
 70
     8
 71
     3
 72
    43
 73
    39
 74
     0
 42
0.000000001
 43
0.00000001
 40
0.0
 40
0.0
 40
0.0
 40
0.0
 40
0.0242015801703668
 40
0.0476570445075823
 40
0.0707865080944398
 40
0.0935173928421178
 40
0.1157949142565509
 40
0.1376001149698157
 40
0.1589264979188275
 40
0.1797724713890292
 40
0.2001404041304123
 40
0.2200356148952944
 40
0.2394636523578894
 40
0.2584274445079203
 40
0.2769271907921269
 40
0.2949605545972913
 40
0.3125228695269157
 40
0.3296053158578641
 40
0.3461925629092042
 40
0.3622695182645671
 40
0.3778222231520895
 40
0.3928374753699871
 40
0.4073025187951181
 40
0.4212047981795595
 40
0.4345317766728213
 40
0.4472708123694344
 40
0.4594090894828328
 40
0.4709339665140067
 40
0.4818334759088114
 40
0.4920951727286317
 40
0.50170523354343
 40
0.5830485543669325
 40
0.6689366806139746
 40
0.7589856599864696
 40
0.8021736506965294
 40
0.8567269206286063
 40
0.9228484115471588
 40
1.0
 40
1.0
 40
1.0
 40
1.0
 10
105.9194471351489
 20
221.9135103116685
 30
0.0
 10
105.9198409172551
 20
221.8916663437324
 30
0.0
 10
105.9206163414723
 20
221.8486518403476
 30
0.0
 10
105.9220415837119
 20
221.7749005779251
 30
0.0
 10
105.9249798545242
 20
221.6953233254938
 30
0.0
 10
105.9285709534038
 20
221.6080609609718
 30
0.0
 10
105.9325733695196
 20
221.5129772662303
 30
0.0
 10
105.9369440963296
 20
221.4095435293691
 30
0.0
 10
105.9416746073973
 20
221.2974623750537
 30
0.0
 10
105.9467456688956
 20
221.1765828694696
 30
0.0
 10
105.9521387269247
 20
221.0469191795955
 30
0.0
 10
105.9578327351024
 20
220.908652041821
 30
0.0
 10
105.9638025559664
 20
220.7628316623422
 30
0.0
 10
105.9700228190546
 20
220.6104734242702
 30
0.0
 10
105.9764676135003
 20
220.4525807708783
 30
0.0
 10
105.9831106712305
 20
220.290136499048
 30
0.0
 10
105.9899250094033
 20
220.1241202838627
 30
0.0
 10
105.9968830634749
 20
219.9554818079098
 30
0.0
 10
106.0039612013244
 20
219.7848816492397
 30
0.0
 10
106.011133805235
 20
219.6130608242874
 30
0.0
 10
106.0183749890528
 20
219.4407781250861
 30
0.0
 10
106.0256587800892
 20
219.268807465824
 30
0.0
 10
106.0329592869273
 20
219.097930121051
 30
0.0
 10
106.0402507926459
 20
218.9289297353105
 30
0.0
 10
106.0475079470735
 20
218.7625869166391
 30
0.0
 10
106.0547056210751
 20
218.5996744044109
 30
0.0
 10
106.0618199759493
 20
218.4409503336335
 30
0.0
 10
106.0688256456185
 20
218.2871512644171
 30
0.0
 10
106.0756976735699
 20
218.1390123207233
 30
0.0
 10
106.0823945302803
 20
217.9972236796524
 30
0.0
 10
106.105404035929
 20
217.524002038525
 30
0.0
 10
106.1492055081426
 20
216.6402890636905
 30
0.0
 10
106.216470358321
 20
215.232704107062
 30
0.0
 10
106.2794876093387
 20
213.9509169423007
 30
0.0
 10
106.3267119896073
 20
212.8200307564083
 30
0.0
 10
106.3580931276425
 20
211.8204598850826
 30
0.0
 10
106.3897134947975
 20
210.6073106692953
 30
0.0
 10
106.4057939203989
 20
209.7276008145292
 30
0.0
 10
106.4144531213011
 20
209.2538829816285
 30
0.0
  0
SPLINE
  5
1E0
330
1F
100
AcDbEntity
  8
0
  6
Continuous
 62
     8
370
    18
100
AcDbSpline
210
0.0
220
0.0
230
1.0
 70
     8
 71
     3
 72
     8
 73
     4
 74
     0
 42
0.000000001
 43
0.00000001
 40
0.0
 40
0.0
 40
0.0
 40
0.0
 40
1.0
 40
1.0
 40
1.0
 40
1.0
 10
105.9187317391088
 20
221.9408247789677
 30
0.0
 10
105.9189791649123
 20
221.9318400049793
 30
0.0
 10
105.9192341860955
 20
221.922743264621
 30
0.0
 10
105.9194471351489
 20
221.9135103116685
 30
0.0
  0
SPLINE
  5
1E1
330
1F
100
AcDbEntity
  8
0
  6
Continuous
 62
     8
370
    18
100
AcDbSpline
210
0.0
220
0.0
230
1.0
 70
     8
 71
     3
 72
    12
 73
     8
 74
     0
 42
0.000000001
 43
0.00000001
 40
0.0
 40
0.0
 40
0.0
 40
0.0
 40
0.5
 40
0.5
 40
0.75
 40
0.75
 40
1.0
 40
1.0
 40
1.0
 40
1.0
 10
106.9482708457874
 20
175.654867425771
 30
0.0
 10
107.0316860302798
 20
170.8402479280204
 30
0.0
 10
107.1180825710217
 20
166.0256618880676
 30
0.0
 10
107.2520283394629
 20
158.8037681348353
 30
0.0
 10
107.2974015503696
 20
156.3964696561133
 30
0.0
 10
107.3895779800844
 20
151.5818577857901
 30
0.0
 10
107.4364324930399
 20
149.1717359197267
 30
0.0
 10
107.4837184666575
 20
146.7761642731036
 30
0.0
  0
SPLINE
  5
1E2
330
1F
100
AcDbEntity
  8
0
  6
Continuous
 62
     8
370
    18
100
AcDbSpline
210
0.0
220
0.0
230
1.0
 70
     8
 71
     3
 72
    18
 73
    14
 74
     0
 42
0.000000001
 43
0.00000001
 40
0.0
 40
0.0
 40
0.0
 40
0.0
 40
0.0625
 40
0.0625
 40
0.1250000000000001
 40
0.1250000000000001
 40
0.2500000000000002
 40
0.2500000000000002
 40
0.3750000000000003
 40
0.3750000000000003
 40
0.5000000000000003
 40
0.5000000000000003
 40
1.0
 40
1.0
 40
1.0
 40
1.0
 10
106.414841922443
 20
209.229935314615
 30
0.0
 10
106.425314723314
 20
208.5314345957308
 30
0.0
 10
106.4356817483449
 20
207.8372813388793
 30
0.0
 10
106.4563919799229
 20
206.4431456903731
 30
0.0
 10
106.4667349293659
 20
205.7434497629847
 30
0.0
 10
106.4979834893386
 20
203.6438880194116
 30
0.0
 10
106.5191478422271
 20
202.244519633096
 30
0.0
 10
106.5617785653392
 20
199.4426945358697
 30
0.0
 10
106.5832385811135
 20
198.0400869825902
 30
0.0
 10
106.6265894188821
 20
195.2403607828917
 30
0.0
 10
106.6485114303801
 20
193.8417354444082
 30
0.0
 10
106.759483900722
 20
186.8460927905995
 30
0.0
 10
106.8523936913135
 20
181.2496767994848
 30
0.0
 10
106.9493418727619
 20
175.6533109220245
 30
0.0
  0
SPLINE
  5
1E3
330
1F
100
AcDbEntity
  8
0
  6
Continuous
 62
     8
370
    18
100
AcDbSpline
210
0.0
220
0.0
230
1.0
 70
     8
 71
     3
 72
    31
 73
    27
 74
     0
 42
0.000000001
 43
0.00000001
 40
0.0
 40
0.0
 40
0.0
 40
0.0
 40
0.0328670821445932
 40
0.0608240725504226
 40
0.0838554416883681
 40
0.1019520784733158
 40
0.1151118443386605
 40
0.1233329164832166
 40
0.1574154214644924
 40
0.189549248346264
 40
0.2198323680708034
 40
0.2483488389357779
 40
0.2981518162263346
 40
0.340556463317731
 40
0.3752290146364619
 40
0.4389560596180566
 40
0.4702647543288793
 40
0.5022621470455401
 40
0.5320024215783781
 40
0.5648286015643506
 40
0.5909596571189658
 40
0.6270615145918991
 40
0.682838895564781
 40
0.7514800023521243
 40
0.8718960413785697
 40
1.0
 40
1.0
 40
1.0
 40
1.0
 10
107.9753393175976
 20
123.6240073389914
 30
0.0
 10
107.9837890708241
 20
123.301496023501
 30
0.0
 10
107.999426248503
 20
122.7046541266323
 30
0.0
 10
108.0358418504141
 20
121.8823012519156
 30
0.0
 10
108.0785493643582
 20
121.2054812760831
 30
0.0
 10
108.1229703322941
 20
120.674429981575
 30
0.0
 10
108.162210906678
 20
120.2888984002664
 30
0.0
 10
108.2266760102284
 20
119.7483074747152
 30
0.0
 10
108.3404864438891
 20
119.0260610666884
 30
0.0
 10
108.5431036075498
 20
118.1001867270758
 30
0.0
 10
108.7922996439065
 20
117.2422538139467
 30
0.0
 10
109.164640872227
 20
116.2425374039573
 30
0.0
 10
109.7059287736214
 20
115.1821361380787
 30
0.0
 10
110.4467683915631
 20
114.1745445779778
 30
0.0
 10
111.4227752334074
 20
113.1905290007669
 30
0.0
 10
112.5158685979322
 20
112.497448310552
 30
0.0
 10
113.6861848834764
 20
112.0611358728344
 30
0.0
 10
114.572539379869
 20
111.8343432304076
 30
0.0
 10
115.4887518591773
 20
111.6819436825442
 30
0.0
 10
116.3548128345486
 20
111.5900813628658
 30
0.0
 10
117.285710232414
 20
111.5281430883834
 30
0.0
 10
118.4422686556607
 20
111.4668054584246
 30
0.0
 10
120.0163818735407
 20
111.4012259920247
 30
0.0
 10
122.4181263329321
 20
111.3202157818819
 30
0.0
 10
125.5306289668111
 20
111.2483910536597
 30
0.0
 10
127.9700740294029
 20
111.2355406846858
 30
0.0
 10
129.2275284488266
 20
111.2289167383198
 30
0.0
  0
SPLINE
  5
1E4
330
1F
100
AcDbEntity
  8
0
  6
Continuous
 62
     8
370
    18
100
AcDbSpline
210
0.0
220
0.0
230
1.0
 70
     8
 71
     3
 72
    13
 73
     9
 74
     0
 42
0.000000001
 43
0.00000001
 40
0.0
 40
0.0
 40
0.0
 40
0.0
 40
0.2056971635655149
 40
0.4999097349381507
 40
0.6259209157343903
 40
0.7511120165943076
 40
0.8758306052801009
 40
1.0
 40
1.0
 40
1.0
 40
1.0
 10
107.4849926612895
 20
146.7759971038212
 30
0.0
 10
107.516937271857
 20
145.1885288412283
 30
0.0
 10
107.5945728674319
 20
141.3304744829689
 30
0.0
 10
107.6933290544847
 20
136.499959785853
 30
0.0
 10
107.7827279581651
 20
132.2908158313541
 30
0.0
 10
107.8480063565657
 20
129.3897928989432
 30
0.0
 10
107.9161666089835
 20
126.5030534237906
 30
0.0
 10
107.9555157435789
 20
124.5822756353827
 30
0.0
 10
107.9751468971549
 20
123.6240059265986
 30
0.0
  0
SPLINE
  5
1E5
330
1F
100
AcDbEntity
  8
0
  6
Continuous
 62
     8
370
    18
100
AcDbSpline
210
0.0
220
0.0
230
1.0
 70
     8
 71
     3
 72
    30
 73
    26
 74
     0
 42
0.000000001
 43
0.00000001
 40
0.0
 40
0.0
 40
0.0
 40
0.0
 40
0.1250000000000003
 40
0.1250000000000003
 40
0.2500000000000006
 40
0.2500000000000006
 40
0.3750000000000007
 40
0.3750000000000007
 40
0.4375000000000009
 40
0.4375000000000009
 40
0.5000000000000011
 40
0.5000000000000011
 40
0.5625000000000011
 40
0.5625000000000011
 40
0.6250000000000012
 40
0.6250000000000012
 40
0.6875000000000012
 40
0.6875000000000012
 40
0.7500000000000013
 40
0.7500000000000013
 40
0.8125000000000013
 40
0.8125000000000013
 40
0.8750000000000013
 40
0.8750000000000013
 40
1.0
 40
1.0
 40
1.0
 40
1.0
 10
129.2275326053985
 20
111.2285657679588
 30
0.0
 10
130.4460748957464
 20
111.231634953371
 30
0.0
 10
131.6654802303929
 20
111.2396238529516
 30
0.0
 10
134.1050198914611
 20
111.275404740688
 30
0.0
 10
135.3247841454155
 20
111.3027208635863
 30
0.0
 10
137.7646760242088
 20
111.3771770004979
 30
0.0
 10
138.9855190417983
 20
111.4189326425729
 30
0.0
 10
140.8155508597531
 20
111.508432840492
 30
0.0
 10
141.425423848113
 20
111.5387553868244
 30
0.0
 10
142.6432860558347
 20
111.6415480681966
 30
0.0
 10
143.252189901832
 20
111.7152904538865
 30
0.0
 10
144.4644470164947
 20
111.9697834650916
 30
0.0
 10
145.0633781584806
 20
112.1474549359387
 30
0.0
 10
146.2014802168341
 20
112.6641335839455
 30
0.0
 10
146.74226221319
 20
113.007727449543
 30
0.0
 10
147.6885509472601
 20
113.8196290171641
 30
0.0
 10
148.1043963736647
 20
114.2933050053469
 30
0.0
 10
148.8186013584946
 20
115.3209256299609
 30
0.0
 10
149.112397043498
 20
115.871921215353
 30
0.0
 10
149.592460036741
 20
117.0138189117057
 30
0.0
 10
149.7796275349303
 20
117.6054160165471
 30
0.0
 10
150.0733096928372
 20
118.8000656375069
 30
0.0
 10
150.1803237328046
 20
119.3997638110753
 30
0.0
 10
150.4129407983346
 20
121.201803383907
 30
0.0
 10
150.4511542078053
 20
122.4130952436627
 30
0.0
 10
150.4797200726805
 20
123.6240073389914
 30
0.0
  0
SPLINE
  5
1E6
330
1F
100
AcDbEntity
  8
0
  6
Continuous
 62
     8
370
    18
100
AcDbSpline
210
0.0
220
0.0
230
1.0
 70
     8
 71
     3
 72
    14
 73
    10
 74
     0
 42
0.000000001
 43
0.00000001
 40
0.0
 40
0.0
 40
0.0
 40
0.0
 40
0.5000000000000002
 40
0.5000000000000002
 40
0.7500000000000003
 40
0.7500000000000003
 40
0.8750000000000002
 40
0.8750000000000002
 40
1.0
 40
1.0
 40
1.0
 40
1.0
 10
151.5057175175163
 20
175.6533109220245
 30
0.0
 10
151.6018269507717
 20
181.2480400322471
 30
0.0
 10
151.6928724383457
 20
186.8425630825934
 30
0.0
 10
151.8272081466236
 20
195.2351629414944
 30
0.0
 10
151.8705871407806
 20
198.0327473906677
 30
0.0
 10
151.9359045137841
 20
202.2295611500412
 30
0.0
 10
151.957715118461
 20
203.630318640753
 30
0.0
 10
151.9991043411172
 20
206.4293636675453
 30
0.0
 10
152.017976859898
 20
207.8051363038786
 30
0.0
 10
152.0402174678351
 20
209.229935314615
 30
0.0
  0
SPLINE
  5
1E7
330
1F
100
AcDbEntity
  8
0
  6
Continuous
 62
     8
370
    18
100
AcDbSpline
210
0.0
220
0.0
230
1.0
 70
     8
 71
     3
 72
     8
 73
     4
 74
     0
 42
0.000000001
 43
0.00000001
 40
0.0
 40
0.0
 40
0.0
 40
0.0
 40
1.0
 40
1.0
 40
1.0
 40
1.0
 10
150.9713409236207
 20
146.7761642731036
 30
0.0
 10
151.1681871146778
 20
156.4019924203022
 30
0.0
 10
151.3351696244762
 20
166.0286706563363
 30
0.0
 10
151.5067885444907
 20
175.654867425771
 30
0.0
  0
SPLINE
  5
1E8
330
1F
100
AcDbEntity
  8
0
  6
Continuous
 62
     8
370
    18
100
AcDbSpline
210
0.0
220
0.0
230
1.0
 70
     8
 71
     3
 72
     8
 73
     4
 74
     0
 42
0.000000001
 43
0.00000001
 40
0.0
 40
0.0
 40
0.0
 40
0.0
 40
1.0
 40
1.0
 40
1.0
 40
1.0
 10
150.4799124931233
 20
123.6240059265986
 30
0.0
 10
150.6619542459212
 20
131.3467816804936
 30
0.0
 10
150.814886112263
 20
139.0582210419589
 30
0.0
 10
150.9700667289886
 20
146.7759971038212
 30
0.0
  0
SPLINE
  5
1E9
330
1F
100
AcDbEntity
  8
0
  6
Continuous
 62
     8
370
    18
100
AcDbSpline
210
0.0
220
0.0
230
1.0
 70
     8
 71
     3
 72
    14
 73
    10
 74
     0
 42
0.000000001
 43
0.00000001
 40
0.0
 40
0.0
 40
0.0
 40
0.0
 40
0.25
 40
0.25
 40
0.5
 40
0.5
 40
0.75
 40
0.75
 40
1.0
 40
1.0
 40
1.0
 40
1.0
 10
129.2275267848797
 20
111.2285657679587
 30
0.0
 10
129.2263497198519
 20
111.1084130126954
 30
0.0
 10
129.225342721704
 20
110.9871691414094
 30
0.0
 10
129.2239437227423
 20
110.7628300346785
 30
0.0
 10
129.2235568382518
 20
110.6601132396372
 30
0.0
 10
129.2235385013899
 20
110.4923765194459
 30
0.0
 10
129.223907305379
 20
110.4276041089333
 30
0.0
 10
129.2252974336444
 20
110.3433117333275
 30
0.0
 10
129.2263139071911
 20
110.3236697446744
 30
0.0
 10
129.2275214930695
 20
110.3232542585711
 30
0.0
  0
SPLINE
  5
1EA
330
1F
100
AcDbEntity
  8
0
  6
Continuous
 62
     8
370
    18
100
AcDbSpline
210
0.0
220
0.0
230
1.0
 70
     8
 71
     3
 72
    14
 73
    10
 74
     0
 42
0.000000001
 43
0.00000001
 40
0.0
 40
0.0
 40
0.0
 40
0.0
 40
0.25
 40
0.25
 40
0.5
 40
0.5
 40
0.75
 40
0.75
 40
1.0
 40
1.0
 40
1.0
 40
1.0
 10
107.0230909403231
 20
123.6066375536604
 30
0.0
 10
107.019430866199
 20
123.6061601673765
 30
0.0
 10
107.0366165482415
 20
123.6061156019983
 30
0.0
 10
107.1225815153396
 20
123.607185393146
 30
0.0
 10
107.1915925907925
 20
123.608306615802
 30
0.0
 10
107.3726069224911
 20
123.6116088473915
 30
0.0
 10
107.484193037374
 20
123.613782245189
 30
0.0
 10
107.7242243065695
 20
123.6186595272173
 30
0.0
 10
107.852081744976
 20
123.621350105842
 30
0.0
 10
107.9753392744261
 20
123.6240091694124
 30
0.0
  0
SPLINE
  5
1EB
330
1F
100
AcDbEntity
  8
0
  6
Continuous
 62
     8
370
    18
100
AcDbSpline
210
0.0
220
0.0
230
1.0
 70
     8
 71
     3
 72
    14
 73
    10
 74
     0
 42
0.000000001
 43
0.00000001
 40
0.0
 40
0.0
 40
0.0
 40
0.0
 40
0.25
 40
0.25
 40
0.5
 40
0.5
 40
0.75
 40
0.75
 40
1.0
 40
1.0
 40
1.0
 40
1.0
 10
150.4797200726805
 20
123.6240073389914
 30
0.0
 10
150.6029781436127
 20
123.6213486052376
 30
0.0
 10
150.7308363183276
 20
123.6186585240489
 30
0.0
 10
150.9708509030571
 20
123.6137824535742
 30
0.0
 10
151.0824244354181
 20
123.6116097310023
 30
0.0
 10
151.2634230058309
 20
123.6083085125295
 30
0.0
 10
151.3324315566493
 20
123.6071876129059
 30
0.0
 10
151.4184108999856
 20
123.6061179061575
 30
0.0
 10
151.4356132850221
 20
123.6061622393801
 30
0.0
 10
151.4319754854801
 20
123.6066392285557
 30
0.0
  0
SPLINE
  5
1EC
330
1F
100
AcDbEntity
  8
0
  6
Continuous
 62
     8
370
    18
100
AcDbSpline
210
0.0
220
0.0
230
1.0
 70
     8
 71
     3
 72
    11
 73
     7
 74
     0
 42
0.000000001
 43
0.00000001
 40
0.0
 40
0.0
 40
0.0
 40
0.0
 40
0.1325385494864973
 40
0.4279190948589177
 40
0.7232996402313446
 40
1.0
 40
1.0
 40
1.0
 40
1.0
 10
151.8919521208804
 20
146.7572378204158
 30
0.0
 10
151.885798886551
 20
146.7573705201309
 30
0.0
 10
151.8659323158448
 20
146.7577989595713
 30
0.0
 10
151.6774345032414
 20
146.7616488361626
 30
0.0
 10
151.3628552824852
 20
146.7680439948281
 30
0.0
 10
151.0981147179803
 20
146.7734044121459
 30
0.0
 10
150.9700667289886
 20
146.7759971038212
 30
0.0
  0
SPLINE
  5
1ED
330
1F
100
AcDbEntity
  8
0
  6
Continuous
 62
     8
370
    18
100
AcDbSpline
210
0.0
220
0.0
230
1.0
 70
     8
 71
     3
 72
    11
 73
     7
 74
     0
 42
0.000000001
 43
0.00000001
 40
0.0
 40
0.0
 40
0.0
 40
0.0
 40
0.1327226245454126
 40
0.4281668426758905
 40
0.7235110482310918
 40
1.0
 40
1.0
 40
1.0
 40
1.0
 10
106.5640168905602
 20
146.7570955171328
 30
0.0
 10
106.5700433010947
 20
146.7572309375941
 30
0.0
 10
106.5894846674785
 20
146.7576678077324
 30
0.0
 10
106.7777912698625
 20
146.761589466147
 30
0.0
 10
107.0923214974869
 20
146.7680978320413
 30
0.0
 10
107.3570090165399
 20
146.7735445320178
 30
0.0
 10
107.4849889592067
 20
146.7761780840387
 30
0.0
  0
SPLINE
  5
1EE
330
1F
100
AcDbEntity
  8
0
  6
Continuous
 62
     8
370
    18
100
AcDbSpline
210
0.0
220
0.0
230
1.0
 70
     8
 71
     3
 72
    11
 73
     7
 74
     0
 42
0.000000001
 43
0.00000001
 40
0.0
 40
0.0
 40
0.0
 40
0.0
 40
0.1181924046958752
 40
0.4189836728847541
 40
0.719774941073621
 40
1.0
 40
1.0
 40
1.0
 40
1.0
 10
152.4068683959351
 20
175.6357875783359
 30
0.0
 10
152.4039281872153
 20
175.6358758703856
 30
0.0
 10
152.3935053563096
 20
175.6361888594255
 30
0.0
 10
152.2144306914583
 20
175.6400413789644
 30
0.0
 10
151.9023653743487
 20
175.6466353682772
 30
0.0
 10
151.6354987321959
 20
175.6521889330352
 30
0.0
 10
151.5067885444907
 20
175.654867425771
 30
0.0
  0
SPLINE
  5
1EF
330
1F
100
AcDbEntity
  8
0
  6
Continuous
 62
     8
370
    18
100
AcDbSpline
210
0.0
220
0.0
230
1.0
 70
     8
 71
     3
 72
    14
 73
    10
 74
     0
 42
0.000000001
 43
0.00000001
 40
0.0
 40
0.0
 40
0.0
 40
0.0
 40
0.25
 40
0.25
 40
0.5
 40
0.5
 40
0.75
 40
0.75
 40
1.0
 40
1.0
 40
1.0
 40
1.0
 10
152.0402174678351
 20
209.229935314615
 30
0.0
 10
152.1636342551107
 20
209.2279491102994
 30
0.0
 10
152.2916011437663
 20
209.2257616230547
 30
0.0
 10
152.53253719786
 20
209.221317913555
 30
0.0
 10
152.6449610936868
 20
209.2190692449716
 30
0.0
 10
152.8291878897109
 20
209.2149707501503
 30
0.0
 10
152.9005937472498
 20
209.2131297569234
 30
0.0
 10
152.9926200271603
 20
209.2101660510467
 30
0.0
 10
153.013438910215
 20
209.2090435001863
 30
0.0
 10
153.0134489731806
 20
209.2082838265003
 30
0.0
  0
SPLINE
  5
1F0
330
1F
100
AcDbEntity
  8
0
  6
Continuous
 62
     8
370
    18
100
AcDbSpline
210
0.0
220
0.0
230
1.0
 70
     8
 71
     3
 72
    11
 73
     7
 74
     0
 42
0.000000001
 43
0.00000001
 40
0.0
 40
0.0
 40
0.0
 40
0.0
 40
0.1171100526357989
 40
0.4182729014609983
 40
0.7194364027816573
 40
1.0
 40
1.0
 40
1.0
 40
1.0
 10
106.0503029594578
 20
175.6363659775451
 30
0.0
 10
106.0531587253886
 20
175.6364393100691
 30
0.0
 10
106.0633584433026
 20
175.6367012261632
 30
0.0
 10
106.2417705837095
 20
175.6402938399632
 30
0.0
 10
106.5531810701753
 20
175.6464883270469
 30
0.0
 10
106.8197274695791
 20
175.651735864032
 30
0.0
 10
106.9482812481982
 20
175.6542667206085
 30
0.0
  0
SPLINE
  5
1F1
330
1F
100
AcDbEntity
  8
0
  6
Continuous
 62
     8
370
    18
100
AcDbSpline
210
0.0
220
0.0
230
1.0
 70
     8
 71
     3
 72
    14
 73
    10
 74
     0
 42
0.000000001
 43
0.00000001
 40
0.0
 40
0.0
 40
0.0
 40
0.0
 40
0.25
 40
0.25
 40
0.5
 40
0.5
 40
0.75
 40
0.75
 40
1.0
 40
1.0
 40
1.0
 40
1.0
 10
105.4416121254772
 20
209.2081708575873
 30
0.0
 10
105.4416185757558
 20
209.2091690907959
 30
0.0
 10
105.4624311532664
 20
209.210545308132
 30
0.0
 10
105.5544478965507
 20
209.2140027980272
 30
0.0
 10
105.6258493583737
 20
209.2160828940002
 30
0.0
 10
105.8100691939584
 20
209.2205937353354
 30
0.0
 10
105.9224905373877
 20
209.2230147587988
 30
0.0
 10
106.1634234312643
 20
209.2277099298567
 30
0.0
 10
106.2913896877762
 20
209.2299767405507
 30
0.0
 10
106.4148064551074
 20
209.2320006547078
 30
0.0
  0
ARC
  5
1F2
330
1F
100
AcDbEntity
  8
0
  6
Continuous
 62
     8
370
    18
100
AcDbCircle
 10
106.6232797235
 20
180.9836311662
 30
0.0
 40
28.27102308474383
100
AcDbArc
 50
90.4232245761
 51
92.3962050057
  0
ARC
  5
1F3
330
1F
100
AcDbEntity
  8
0
  6
Continuous
 62
     8
370
    18
100
AcDbCircle
 10
151.8317796668
 20
180.9836311664
 30
0.0
 40
28.2710230845247
100
AcDbArc
 50
87.6037949943
 51
89.5767754239
  0
SPLINE
  5
1F4
330
1F
100
AcDbEntity
  8
0
  6
Continuous
 62
     8
370
    18
100
AcDbSpline
210
0.0
220
0.0
230
1.0
 70
     8
 71
     3
 72
    22
 73
    18
 74
     0
 42
0.000000001
 43
0.00000001
 40
0.0
 40
0.0
 40
0.0
 40
0.0
 40
0.0502544667615493
 40
0.0920361054864895
 40
0.1253619388885753
 40
0.191721318181686
 40
0.251563150592522
 40
0.3760830850682411
 40
0.5029554873154015
 40
0.5848817146136316
 40
0.6670327474011036
 40
0.7509942825137448
 40
0.79089143641377
 40
0.832234711397169
 40
0.8751977777490197
 40
0.9332217085027588
 40
1.0
 40
1.0
 40
1.0
 40
1.0
 10
105.4412830455761
 20
209.2299341120897
 30
0.0
 10
105.4370822290036
 20
209.5083149527559
 30
0.0
 10
105.4293888472583
 20
210.0181420401379
 30
0.0
 10
105.4188952533514
 20
210.7123605416935
 30
0.0
 10
105.4070046503001
 20
211.4949555491963
 30
0.0
 10
105.3935459279153
 20
212.3744639371167
 30
0.0
 10
105.3725802098927
 20
213.7370832290458
 30
0.0
 10
105.3474381635651
 20
215.3576009870263
 30
0.0
 10
105.323480686983
 20
216.8833550331955
 30
0.0
 10
105.3055797271002
 20
218.0275216404131
 30
0.0
 10
105.2925830271136
 20
218.8551473209394
 30
0.0
 10
105.2838862927809
 20
219.4125171198042
 30
0.0
 10
105.2783000948567
 20
219.7760424770415
 30
0.0
 10
105.2747778265496
 20
220.0048690893856
 30
0.0
 10
105.271512047493
 20
220.2199345322479
 30
0.0
 10
105.2686565803989
 20
220.4164237706211
 30
0.0
 10
105.2672483723896
 20
220.5209897064375
 30
0.0
 10
105.2664948783953
 20
220.5769401087355
 30
0.0
  0
ARC
  5
1F5
330
1F
100
AcDbEntity
  8
0
  6
Continuous
 62
     8
370
    18
100
AcDbCircle
 10
106.957546157
 20
220.5785917465
 30
0.0
 40
1.691052085179901
100
AcDbArc
 50
127.8704110354
 51
180.055960363
  0
SPLINE
  5
1F6
330
1F
100
AcDbEntity
  8
0
  6
Continuous
 62
     8
370
    18
100
AcDbSpline
210
0.0
220
0.0
230
1.0
 70
     8
 71
     3
 72
    16
 73
    12
 74
     0
 42
0.000000001
 43
0.00000001
 40
0.0
 40
0.0
 40
0.0
 40
0.0
 40
0.125
 40
0.125
 40
0.25
 40
0.25
 40
0.5
 40
0.5
 40
0.75
 40
0.75
 40
1.0
 40
1.0
 40
1.0
 40
1.0
 10
153.1885645118828
 20
220.5769401087355
 30
0.0
 10
153.187227446605
 20
220.4792412531929
 30
0.0
 10
153.1856323762408
 20
220.3604352204694
 30
0.0
 10
153.180554590817
 20
220.0214967754319
 30
0.0
 10
153.1770665702743
 20
219.7962658587687
 30
0.0
 10
153.1635322862483
 20
218.9164368920906
 30
0.0
 10
153.1503323879118
 20
218.0808885619189
 30
0.0
 10
153.117690346484
 20
215.9978616528129
 30
0.0
 10
153.0980621716705
 20
214.7453256129124
 30
0.0
 10
153.0559688846612
 20
212.0169563574001
 30
0.0
 10
153.0346627450828
 20
210.6113622073522
 30
0.0
 10
153.013776344702
 20
209.2299341120897
 30
0.0
  0
ARC
  5
1F7
330
1F
100
AcDbEntity
  8
0
  6
Continuous
 62
     8
370
    18
100
AcDbCircle
 10
151.4975132333
 20
220.5785917465
 30
0.0
 40
1.69105208514465
100
AcDbArc
 50
359.9440396364
 51
52.1295889652
  0
LWPOLYLINE
  5
1F8
330
1F
100
AcDbEntity
  8
0
  6
Continuous
 62
     8
370
    18
100
AcDbPolyline
 90
        3
 70
   128
 43
0.0
 10
105.2664948784
 20
220.5769401087
 10
105.2663143049
 20
220.5901184139
 10
105.2661360462
 20
220.6032969899
  0
LINE
  5
1F9
330
1F
100
AcDbEntity
  8
0
  6
Continuous
 62
     8
370
    18
100
AcDbLine
 10
105.4412830456
 20
209.2299341121
 30
0.0
 11
105.4398627776
 21
209.2299341121
 31
0.0
  0
LWPOLYLINE
  5
1FA
330
1F
100
AcDbEntity
  8
0
  6
Continuous
 62
     8
370
    18
100
AcDbPolyline
 90
        3
 70
   128
 43
0.0
 10
105.2661208418
 20
220.6047304944
 10
105.2542697603
 20
221.7635968148
 10
105.2533960488
 20
221.8645818274
  0
LINE
  5
1FB
330
1F
100
AcDbEntity
  8
0
  6
Continuous
 62
     8
370
    18
100
AcDbLine
 10
153.0137763447
 20
209.2299341121
 30
0.0
 11
153.0151988069
 21
209.2299341121
 31
0.0
  0
LINE
  5
1FC
330
1F
100
AcDbEntity
  8
0
  6
Continuous
 62
     8
370
    18
100
AcDbLine
 10
153.1889385484
 20
220.6047304944
 30
0.0
 11
153.2007833365
 21
221.8650307099
 31
0.0
  0
SPLINE
  5
1FD
330
1F
100
AcDbEntity
  8
0
  6
Continuous
 62
     8
370
    18
100
AcDbSpline
210
0.0
220
0.0
230
1.0
 70
     8
 71
     3
 72
    10
 73
     6
 74
     0
 42
0.000000001
 43
0.00000001
 40
0.0
 40
0.0
 40
0.0
 40
0.0
 40
0.5
 40
0.5
 40
1.0
 40
1.0
 40
1.0
 40
1.0
 10
152.5360644870387
 20
221.9410258968657
 30
0.0
 10
152.5408584801827
 20
222.2878926821971
 30
0.0
 10
152.5449608827233
 20
222.6078427451742
 30
0.0
 10
152.553116519344
 20
223.264392362259
 30
0.0
 10
152.5571221285863
 20
223.5988823539097
 30
0.0
 10
152.561190153308
 20
223.92949706781
 30
0.0
  0
SPLINE
  5
1FE
330
1F
100
AcDbEntity
  8
0
  6
Continuous
 62
     8
370
    18
100
AcDbSpline
210
0.0
220
0.0
230
1.0
 70
     8
 71
     3
 72
    18
 73
    14
 74
     0
 42
0.000000001
 43
0.00000001
 40
0.0
 40
0.0
 40
0.0
 40
0.0
 40
0.25
 40
0.25
 40
0.5
 40
0.5
 40
0.75
 40
0.75
 40
0.8750000000000014
 40
0.8750000000000014
 40
0.9375000000000008
 40
0.9375000000000008
 40
1.0
 40
1.0
 40
1.0
 40
1.0
 10
105.8938979506327
 20
223.9296737622159
 30
0.0
 10
105.8959695201613
 20
223.764662369493
 30
0.0
 10
105.8980438764943
 20
223.5993858377595
 30
0.0
 10
105.9022112634724
 20
223.2672694073184
 30
0.0
 10
105.9043078592785
 20
223.1001178394666
 30
0.0
 10
105.9084815034303
 20
222.7684269957509
 30
0.0
 10
105.9105493652809
 20
222.6047240739964
 30
0.0
 10
105.913636199688
 20
222.3612590990667
 30
0.0
 10
105.9146739751776
 20
222.2795217044052
 30
0.0
 10
105.9162720660124
 20
222.1543009215402
 30
0.0
 10
105.9168107011659
 20
222.1122007944061
 30
0.0
 10
105.9179013491864
 20
222.0272415772089
 30
0.0
 10
105.9184565874653
 20
221.9844002015628
 30
0.0
 10
105.9189949032395
 20
221.9410258968657
 30
0.0
  0
SPLINE
  5
1FF
330
1F
100
AcDbEntity
  8
0
  6
Continuous
 62
     8
370
    18
100
AcDbSpline
210
0.0
220
0.0
230
1.0
 70
     8
 71
     3
 72
    10
 73
     6
 74
     0
 42
0.000000001
 43
0.00000001
 40
0.0
 40
0.0
 40
0.0
 40
0.0
 40
0.5
 40
0.5
 40
1.0
 40
1.0
 40
1.0
 40
1.0
 10
152.5363276511693
 20
221.9408247789677
 30
0.0
 10
152.7325611031972
 20
221.7873976048362
 30
0.0
 10
152.9035379154383
 20
221.5811241217068
 30
0.0
 10
153.1325954198851
 20
221.1116592128577
 30
0.0
 10
153.1895162320628
 20
220.8508450197587
 30
0.0
 10
153.188923344081
 20
220.603296989917
 30
0.0
  0
SPLINE
  5
200
330
1F
100
AcDbEntity
  8
0
  6
Continuous
 62
     8
370
    18
100
AcDbSpline
210
0.0
220
0.0
230
1.0
 70
     8
 71
     3
 72
    10
 73
     6
 74
     0
 42
0.000000001
 43
0.00000001
 40
0.0
 40
0.0
 40
0.0
 40
0.0
 40
0.5
 40
0.5
 40
1.0
 40
1.0
 40
1.0
 40
1.0
 10
105.2661355968507
 20
220.6033310861521
 30
0.0
 10
105.2655456619979
 20
220.850670256966
 30
0.0
 10
105.3223913596758
 20
221.1112700896965
 30
0.0
 10
105.5514574898535
 20
221.580362433009
 30
0.0
 10
105.7224696325234
 20
221.7864642928258
 30
0.0
 10
105.9187412814949
 20
221.939732288752
 30
0.0
  0
LINE
  5
201
330
1F
100
AcDbEntity
  8
0
  6
Continuous
 62
     8
370
    18
100
AcDbLine
 10
151.0705272001
 20
119.2843412465
 30
0.0
 11
150.9551707248
 21
109.9175762024
 31
0.0
  0
SPLINE
  5
202
330
1F
100
AcDbEntity
  8
0
  6
Continuous
 62
     8
370
    18
100
AcDbSpline
210
0.0
220
0.0
230
1.0
 70
     8
 71
     3
 72
    30
 73
    26
 74
     0
 42
0.000000001
 43
0.00000001
 40
0.0
 40
0.0
 40
0.0
 40
0.0
 40
0.1250000000000014
 40
0.1250000000000014
 40
0.1875000000000023
 40
0.1875000000000023
 40
0.2500000000000031
 40
0.2500000000000031
 40
0.312500000000004
 40
0.312500000000004
 40
0.3437500000000042
 40
0.3437500000000042
 40
0.3750000000000046
 40
0.3750000000000046
 40
0.4375000000000043
 40
0.4375000000000043
 40
0.500000000000004
 40
0.500000000000004
 40
0.5625000000000037
 40
0.5625000000000037
 40
0.6250000000000033
 40
0.6250000000000033
 40
0.750000000000002
 40
0.750000000000002
 40
1.0
 40
1.0
 40
1.0
 40
1.0
 10
129.2275296951402
 20
77.9035624651701
 30
0.0
 10
131.2789268978051
 20
77.89947812238688
 30
0.0
 10
133.3304609019523
 20
77.92879550981453
 30
0.0
 10
136.4077451453782
 20
78.01150904162122
 30
0.0
 10
137.4336510027005
 20
78.04662229403158
 30
0.0
 10
139.4855501072258
 20
78.13474227779255
 30
0.0
 10
140.5110185244769
 20
78.1806335254971
 30
0.0
 10
142.5675646938081
 20
78.33337545721947
 30
0.0
 10
143.6063819906825
 20
78.44890885957815
 30
0.0
 10
145.1262858864582
 20
78.84495709269811
 30
0.0
 10
145.6233301216193
 20
79.01355195933297
 30
0.0
 10
146.5805412954877
 20
79.46225866108041
 30
0.0
 10
147.0420821885108
 20
79.74786617886971
 30
0.0
 10
148.2693731384875
 20
80.74078363896774
 30
0.0
 10
148.9154609263082
 20
81.60650224103709
 30
0.0
 10
149.8220746849088
 20
83.4686351342681
 30
0.0
 10
150.1000879150655
 20
84.47530156724568
 30
0.0
 10
150.4651716057983
 20
86.48614866571762
 30
0.0
 10
150.5546828184898
 20
87.51004513186392
 30
0.0
 10
150.6521549573481
 20
89.55039637932427
 30
0.0
 10
150.6668175522717
 20
90.57072896301247
 30
0.0
 10
150.7208956899337
 20
93.62554978186844
 30
0.0
 10
150.7508340361994
 20
95.66261021454022
 30
0.0
 10
150.8410682214664
 20
101.7734928119571
 30
0.0
 10
150.8986841039063
 20
105.8441359493652
 30
0.0
 10
150.9550534130893
 20
109.9172741400399
 30
0.0
  0
SPLINE
  5
203
330
1F
100
AcDbEntity
  8
0
  6
Continuous
 62
     8
370
    18
100
AcDbSpline
210
0.0
220
0.0
230
1.0
 70
     8
 71
     3
 72
    35
 73
    31
 74
     0
 42
0.000000001
 43
0.00000001
 40
0.0
 40
0.0
 40
0.0
 40
0.0
 40
0.096819436545353
 40
0.1703961771368463
 40
0.2207380534186157
 40
0.2479116749227523
 40
0.3087043658044432
 40
0.3616691754616851
 40
0.4068518199074378
 40
0.4443033495249589
 40
0.4740895224761122
 40
0.4962346416741859
 40
0.5309778708402615
 40
0.5589037814577901
 40
0.5934380802046022
 40
0.6225470940261234
 40
0.6438417881059347
 40
0.6652813381542548
 40
0.6867611701718528
 40
0.7055456120608204
 40
0.7266387930728253
 40
0.7500303412321747
 40
0.7698399264013011
 40
0.7922706834901285
 40
0.8172996654140494
 40
0.8449142614513193
 40
0.8751143708028937
 40
0.9183810778400859
 40
0.9599154751494414
 40
1.0
 40
1.0
 40
1.0
 40
1.0
 10
107.5000059771888
 20
109.9172741400399
 30
0.0
 10
107.5221686495865
 20
108.326766170766
 30
0.0
 10
107.5611735724249
 20
105.5275712225182
 30
0.0
 10
107.612936042466
 20
101.9013990160999
 30
0.0
 10
107.6489327382163
 20
99.41934087597808
 30
0.0
 10
107.6819757322648
 20
97.14729343724241
 30
0.0
 10
107.7190609413875
 20
94.83220651056781
 30
0.0
 10
107.7645902859846
 20
92.22135940251171
 30
0.0
 10
107.7905757066683
 20
89.99369313392484
 30
0.0
 10
107.8615793795177
 20
88.14771404145846
 30
0.0
 10
107.9857887078359
 20
86.68370122631816
 30
0.0
 10
108.1892094413938
 20
85.2736938444985
 30
0.0
 10
108.5140743617979
 20
83.91448432195426
 30
0.0
 10
109.0899379714451
 20
82.4194954167808
 30
0.0
 10
109.8928058277285
 20
81.13170354660514
 30
0.0
 10
110.8779076584241
 20
80.1271578567382
 30
0.0
 10
111.8621794025936
 20
79.4659438310714
 30
0.0
 10
112.8208771780272
 20
79.0177080567354
 30
0.0
 10
113.7884428771049
 20
78.7075969700416
 30
0.0
 10
114.7757403781435
 20
78.50037756519411
 30
0.0
 10
115.8048915232024
 20
78.35266578351403
 30
0.0
 10
116.8567891821625
 20
78.25675972934685
 30
0.0
 10
117.9325152901163
 20
78.1878144777897
 30
0.0
 10
119.0358122954528
 20
78.12828353985847
 30
0.0
 10
120.2677996904452
 20
78.07437004860247
 30
0.0
 10
121.6277764810636
 20
78.0253360643874
 30
0.0
 10
123.2875863021992
 20
77.9760968917682
 30
0.0
 10
125.1764273877946
 20
77.93374928786794
 30
0.0
 10
127.2280282858775
 20
77.90568725229409
 30
0.0
 10
128.5689693511467
 20
77.90426229024057
 30
0.0
 10
129.2275296951391
 20
77.90356246567374
 30
0.0
  0
LINE
  5
204
330
1F
100
AcDbEntity
  8
0
  6
Continuous
 62
     8
370
    18
100
AcDbLine
 10
107.3767189951
 20
119.3415551916
 30
0.0
 11
107.4998886655
 21
109.9175762024
 31
0.0
  0
SPLINE
  5
205
330
1F
100
AcDbEntity
  8
0
  6
Continuous
 62
     8
370
    18
100
AcDbSpline
210
0.0
220
0.0
230
1.0
 70
     8
 71
     3
 72
    11
 73
     7
 74
     0
 42
0.000000001
 43
0.00000001
 40
0.0
 40
0.0
 40
0.0
 40
0.0
 40
0.2387976657637138
 40
0.5009621674140384
 40
0.7795192380769718
 40
1.0
 40
1.0
 40
1.0
 40
1.0
 10
106.0657618151868
 20
226.7907320957647
 30
0.0
 10
106.066424385604
 20
226.7085900771259
 30
0.0
 10
106.0678143602974
 20
226.5362682767371
 30
0.0
 10
106.0795764346996
 20
226.1372818029536
 30
0.0
 10
106.1057572486011
 20
225.351872021842
 30
0.0
 10
106.153392682071
 20
224.5008572489071
 30
0.0
 10
106.1744385747472
 20
224.1248689504404
 30
0.0
  0
SPLINE
  5
206
330
1F
100
AcDbEntity
  8
0
  6
Continuous
 62
     8
370
    18
100
AcDbSpline
210
0.0
220
0.0
230
1.0
 70
     8
 71
     3
 72
    11
 73
     7
 74
     0
 42
0.000000001
 43
0.00000001
 40
0.0
 40
0.0
 40
0.0
 40
0.0
 40
0.2388216401675678
 40
0.5010124621657847
 40
0.7795974989300076
 40
1.0
 40
1.0
 40
1.0
 40
1.0
 10
152.3892975750913
 20
226.7907320957647
 30
0.0
 10
152.3886350411492
 20
226.7085904794527
 30
0.0
 10
152.387245142975
 20
226.536269523086
 30
0.0
 10
152.3754824382833
 20
226.1372760970864
 30
0.0
 10
152.3493074797763
 20
225.3519963969818
 30
0.0
 10
152.3016826940928
 20
224.5011645660743
 30
0.0
 10
152.280646854354
 20
224.125352648334
 30
0.0
  0
SPLINE
  5
207
330
1F
100
AcDbEntity
  8
0
  6
Continuous
 62
     8
370
    18
100
AcDbSpline
210
0.0
220
0.0
230
1.0
 70
     8
 71
     3
 72
    13
 73
     9
 74
     0
 42
0.000000001
 43
0.00000001
 40
0.0
 40
0.0
 40
0.0
 40
0.0
 40
0.128123072520608
 40
0.3123339824918615
 40
0.4965448823904128
 40
0.6753329824436416
 40
0.8441742119350814
 40
1.0
 40
1.0
 40
1.0
 40
1.0
 10
129.2278335232461
 20
77.06188420081185
 30
0.0
 10
129.2278322143823
 20
77.0611404905298
 30
0.0
 10
129.2278290236796
 20
77.05932749939838
 30
0.0
 10
129.2277869217657
 20
77.13409021452091
 30
0.0
 10
129.2277116112923
 20
77.27072713177017
 30
0.0
 10
129.2276246739088
 20
77.4585740112672
 30
0.0
 10
129.2275484497591
 20
77.67247146231344
 30
0.0
 10
129.2275357773396
 20
77.8286187043918
 30
0.0
 10
129.2275296951395
 20
77.90356246441448
 30
0.0
  0
SPLINE
  5
208
330
1F
100
AcDbEntity
  8
0
  6
Continuous
 62
     8
370
    18
100
AcDbSpline
210
0.0
220
0.0
230
1.0
 70
     8
 71
     3
 72
    11
 73
     7
 74
     0
 42
0.000000001
 43
0.00000001
 40
0.0
 40
0.0
 40
0.0
 40
0.0
 40
0.1274852175414619
 40
0.42473700066668
 40
0.7219844165656883
 40
1.0
 40
1.0
 40
1.0
 40
1.0
 10
106.3993571490473
 20
109.9017182836567
 30
0.0
 10
106.405660811249
 20
109.9018189169577
 30
0.0
 10
106.4266624507205
 20
109.9021541925861
 30
0.0
 10
106.6501267570735
 20
109.9053727177658
 30
0.0
 10
107.0274123253286
 20
109.910763276291
 30
0.0
 10
107.3460235004828
 20
109.9152840900514
 30
0.0
 10
107.5000032833852
 20
109.9174689284238
 30
0.0
  0
SPLINE
  5
209
330
1F
100
AcDbEntity
  8
0
  6
Continuous
 62
     8
370
    18
100
AcDbSpline
210
0.0
220
0.0
230
1.0
 70
     8
 71
     3
 72
    11
 73
     7
 74
     0
 42
0.000000001
 43
0.00000001
 40
0.0
 40
0.0
 40
0.0
 40
0.0
 40
0.1286399584909621
 40
0.4254930324260862
 40
0.722346106361201
 40
1.0
 40
1.0
 40
1.0
 40
1.0
 10
152.0559535500006
 20
109.901677891461
 30
0.0
 10
152.0496052710268
 20
109.9017770005471
 30
0.0
 10
152.0286075304884
 20
109.9021048164612
 30
0.0
 10
151.8049381596286
 20
109.9052915088343
 30
0.0
 10
151.4276169258953
 20
109.9106294175538
 30
0.0
 10
151.1090256327657
 20
109.9151091344002
 30
0.0
 10
150.9550534130893
 20
109.9172741400399
 30
0.0
  0
SPLINE
  5
20A
330
1F
100
AcDbEntity
  8
0
  6
Continuous
 62
     8
370
    18
100
AcDbSpline
210
0.0
220
0.0
230
1.0
 70
     8
 71
     3
 72
    10
 73
     6
 74
     0
 42
0.000000001
 43
0.00000001
 40
0.0
 40
0.0
 40
0.0
 40
0.0
 40
0.3360544922614944
 40
0.6950868010145963
 40
1.0
 40
1.0
 40
1.0
 40
1.0
 10
152.5650103346834
 20
147.689220225223
 30
0.0
 10
152.5532039801371
 20
147.6893635852228
 30
0.0
 10
152.5287840083701
 20
147.6896601075009
 30
0.0
 10
152.2955803778566
 20
147.692255562001
 30
0.0
 10
152.0415793821215
 20
147.6950572604345
 30
0.0
 10
151.9249308691752
 20
147.6963439245087
 30
0.0
  0
SPLINE
  5
20B
330
1F
100
AcDbEntity
  8
0
  6
Continuous
 62
     8
370
    18
100
AcDbSpline
210
0.0
220
0.0
230
1.0
 70
     8
 71
     3
 72
    10
 73
     6
 74
     0
 42
0.000000001
 43
0.00000001
 40
0.0
 40
0.0
 40
0.0
 40
0.0
 40
0.3360052416072556
 40
0.694986926643149
 40
0.9999999999999999
 40
0.9999999999999999
 40
0.9999999999999999
 40
0.9999999999999999
 10
105.890333460267
 20
147.6900586929906
 30
0.0
 10
105.9021236402263
 20
147.6901560179461
 30
0.0
 10
105.9265102268618
 20
147.6903573230549
 30
0.0
 10
106.1596753177154
 20
147.6925820962117
 30
0.0
 10
106.4136791840437
 20
147.6950377055324
 30
0.0
 10
106.5303585688341
 20
147.6961657158614
 30
0.0
  0
SPLINE
  5
20C
330
1F
100
AcDbEntity
  8
0
  6
Continuous
 62
     8
370
    18
100
AcDbSpline
210
0.0
220
0.0
230
1.0
 70
     8
 71
     3
 72
    10
 73
     6
 74
     0
 42
0.000000001
 43
0.00000001
 40
0.0
 40
0.0
 40
0.0
 40
0.0
 40
0.5
 40
0.5
 40
1.0
 40
1.0
 40
1.0
 40
1.0
 10
105.279223569148
 20
225.1873981692014
 30
0.0
 10
105.2784278824289
 20
225.4844935540748
 30
0.0
 10
105.3470192604705
 20
225.7976866141144
 30
0.0
 10
105.6232314218977
 20
226.3607932512067
 30
0.0
 10
105.829425571895
 20
226.6077938981067
 30
0.0
 10
106.0657340535804
 20
226.7908378050588
 30
0.0
  0
SPLINE
  5
20D
330
1F
100
AcDbEntity
  8
0
  6
Continuous
 62
     8
370
    18
100
AcDbSpline
210
0.0
220
0.0
230
1.0
 70
     8
 71
     3
 72
    10
 73
     6
 74
     0
 42
0.000000001
 43
0.00000001
 40
0.0
 40
0.0
 40
0.0
 40
0.0
 40
0.5
 40
0.5
 40
1.0
 40
1.0
 40
1.0
 40
1.0
 10
152.3892976339066
 20
226.790768671938
 30
0.0
 10
152.6256132901491
 20
226.6077462591228
 30
0.0
 10
152.831814398446
 20
226.3607608862729
 30
0.0
 10
153.1080375458439
 20
225.7976861690297
 30
0.0
 10
153.1766315630247
 20
225.4845078154296
 30
0.0
 10
153.1758358858471
 20
225.1874280106484
 30
0.0
  0
SPLINE
  5
20E
330
1F
100
AcDbEntity
  8
0
  6
Continuous
 62
     8
370
    18
100
AcDbSpline
210
0.0
220
0.0
230
1.0
 70
     8
 71
     3
 72
    10
 73
     6
 74
     0
 42
0.000000001
 43
0.00000001
 40
0.0
 40
0.0
 40
0.0
 40
0.0
 40
0.4999999999999998
 40
0.4999999999999998
 40
1.0
 40
1.0
 40
1.0
 40
1.0
 10
152.3893386730755
 20
226.7907645966104
 30
0.0
 10
152.394671531683
 20
228.2898023445573
 30
0.0
 10
152.401901157684
 20
229.7993615824648
 30
0.0
 10
152.415831404883
 20
232.8066670932163
 30
0.0
 10
152.4201762581106
 20
234.3117722867636
 30
0.0
 10
152.4249511814427
 20
235.8163785956114
 30
0.0
  0
LINE
  5
20F
330
1F
100
AcDbEntity
  8
0
  6
Continuous
 62
     8
370
    18
100
AcDbLine
 10
152.4375692541
 20
239.456705666
 30
0.0
 11
152.4248185268
 21
235.8166013707
 31
0.0
  0
LWPOLYLINE
  5
210
330
1F
100
AcDbEntity
  8
0
  6
Continuous
 62
     8
370
    18
100
AcDbPolyline
 90
        3
 70
   128
 43
0.0
 10
106.0301082088
 20
235.8163785956
 10
106.0474141171
 20
231.3064293943
 10
106.0657207171
 20
226.7907645967
  0
LWPOLYLINE
  5
211
330
1F
100
AcDbEntity
  8
0
  6
Continuous
 62
     8
370
    18
100
AcDbPolyline
 90
        3
 70
   128
 43
0.0
 10
106.0174901362
 20
239.456705666
 10
106.0237085528
 20
237.6367185721
 10
106.0302408635
 20
235.8166013707
  0
SPLINE
  5
212
330
1F
100
AcDbEntity
  8
0
  6
Continuous
 62
     8
370
    18
100
AcDbSpline
210
0.0
220
0.0
230
1.0
 70
     8
 71
     3
 72
    10
 73
     6
 74
     0
 42
0.000000001
 43
0.00000001
 40
0.0
 40
0.0
 40
0.0
 40
0.0
 40
0.5
 40
0.5
 40
1.0
 40
1.0
 40
1.0
 40
1.0
 10
152.4249511814427
 20
235.8163785956114
 30
0.0
 10
152.6614208740184
 20
235.6335685840509
 30
0.0
 10
152.8678081930673
 20
235.3866807102985
 30
0.0
 10
153.1442287183104
 20
234.8236497202901
 30
0.0
 10
153.2128260970757
 20
234.5104311890952
 30
0.0
 10
153.2119514891584
 20
234.2133660769119
 30
0.0
  0
SPLINE
  5
213
330
1F
100
AcDbEntity
  8
0
  6
Continuous
 62
     8
370
    18
100
AcDbSpline
210
0.0
220
0.0
230
1.0
 70
     8
 71
     3
 72
    10
 73
     6
 74
     0
 42
0.000000001
 43
0.00000001
 40
0.0
 40
0.0
 40
0.0
 40
0.0
 40
0.5
 40
0.5
 40
1.0
 40
1.0
 40
1.0
 40
1.0
 10
105.2433015026583
 20
234.2133793169976
 30
0.0
 10
105.2424031233553
 20
234.5104417249462
 30
0.0
 10
105.3109509195194
 20
234.8236675838692
 30
0.0
 10
105.5873026707028
 20
235.3867419475883
 30
0.0
 10
105.7936604729141
 20
235.6336624883542
 30
0.0
 10
106.0301077526638
 20
235.8165059075163
 30
0.0
  0
LINE
  5
214
330
1F
100
AcDbEntity
  8
0
  6
Continuous
 62
     8
370
    18
100
AcDbLine
 10
153.2117580838
 20
234.2134448905
 30
0.0
 11
153.212477666
 21
234.429483185
 31
0.0
  0
LINE
  5
215
330
1F
100
AcDbEntity
  8
0
  6
Continuous
 62
     8
370
    18
100
AcDbLine
 10
105.2433013065
 20
234.2134448905
 30
0.0
 11
105.2425817243
 21
234.429483185
 31
0.0
  0
ENDSEC
  0
SECTION
  2
OBJECTS
  0
DICTIONARY
  5
C
330
0
100
AcDbDictionary
281
     1
  3
ACAD_GROUP
350
D
  3
ACAD_LAYOUT
350
1A
  3
ACAD_MLINESTYLE
350
17
  3
ACAD_PLOTSETTINGS
350
19
  3
ACAD_PLOTSTYLENAME
350
E
  3
ACAD_SCALELIST
350
47
  0
DICTIONARY
  5
D
102
{ACAD_REACTORS
330
C
102
}
330
C
100
AcDbDictionary
281
     1
  0
DICTIONARY
  5
1A
102
{ACAD_REACTORS
330
C
102
}
330
C
100
AcDbDictionary
281
     1
  3
Layout1
350
1E
  3
Layout2
350
26
  3
Model
350
22
  0
DICTIONARY
  5
17
102
{ACAD_REACTORS
330
C
102
}
330
C
100
AcDbDictionary
281
     1
  3
Standard
350
18
  0
DICTIONARY
  5
19
102
{ACAD_REACTORS
330
C
102
}
330
C
100
AcDbDictionary
281
     1
  0
ACDBDICTIONARYWDFLT
  5
E
102
{ACAD_REACTORS
330
C
102
}
330
C
100
AcDbDictionary
281
     1
  3
Normal
350
F
100
AcDbDictionaryWithDefault
340
F
  0
DICTIONARY
  5
47
102
{ACAD_REACTORS
330
C
102
}
330
C
100
AcDbDictionary
281
     1
  3
A0
350
48
  3
A1
350
49
  3
A2
350
4A
  3
A3
350
4B
  3
A4
350
4C
  3
A5
350
4D
  3
A6
350
4E
  3
A7
350
4F
  3
A8
350
50
  3
A9
350
51
  3
B0
350
52
  3
B1
350
53
  3
B2
350
54
  3
B3
350
55
  3
B4
350
56
  3
B5
350
57
  3
B6
350
58
  3
B7
350
59
  3
B8
350
5A
  3
B9
350
5B
  3
C0
350
5C
  3
C1
350
5D
  3
C2
350
5E
  3
C3
350
5F
  3
C4
350
60
  3
C5
350
61
  3
C6
350
62
  3
C7
350
63
  3
C8
350
64
  3
C9
350
65
  3
D0
350
66
  3
D1
350
67
  3
D2
350
68
  0
LAYOUT
  5
1E
102
{ACAD_REACTORS
330
1A
102
}
330
1A
100
AcDbPlotSettings
  1

  2
none_device
  4

  6

 40
0.0
 41
0.0
 42
0.0
 43
0.0
 44
0.0
 45
0.0
 46
0.0
 47
0.0
 48
0.0
 49
0.0
140
0.0
141
0.0
142
1.0
143
1.0
 70
   688
 72
     1
 73
     0
 74
     5
  7

 75
    16
147
1.0
148
0.0
149
0.0
100
AcDbLayout
  1
Layout1
 70
     1
 71
     1
 10
0.0
 20
0.0
 11
420.0
 21
297.0
 12
0.0
 22
0.0
 32
0.0
 14
1.0000000000E+20
 24
1.0000000000E+20
 34
1.0000000000E+20
 15
-1.0000000000E+20
 25
-1.0000000000E+20
 35
-1.0000000000E+20
146
0.0
 13
0.0
 23
0.0
 33
0.0
 16
1.0
 26
0.0
 36
0.0
 17
0.0
 27
1.0
 37
0.0
 76
     0
330
1B
  0
LAYOUT
  5
26
102
{ACAD_REACTORS
330
1A
102
}
330
1A
100
AcDbPlotSettings
  1

  2
none_device
  4

  6

 40
0.0
 41
0.0
 42
0.0
 43
0.0
 44
0.0
 45
0.0
 46
0.0
 47
0.0
 48
0.0
 49
0.0
140
0.0
141
0.0
142
1.0
143
1.0
 70
   688
 72
     1
 73
     0
 74
     5
  7

 75
    16
147
1.0
148
0.0
149
0.0
100
AcDbLayout
  1
Layout2
 70
     1
 71
     2
 10
0.0
 20
0.0
 11
0.0
 21
0.0
 12
0.0
 22
0.0
 32
0.0
 14
0.0
 24
0.0
 34
0.0
 15
0.0
 25
0.0
 35
0.0
146
0.0
 13
0.0
 23
0.0
 33
0.0
 16
1.0
 26
0.0
 36
0.0
 17
0.0
 27
1.0
 37
0.0
 76
     0
330
23
  0
LAYOUT
  5
22
102
{ACAD_REACTORS
330
1A
102
}
330
1A
100
AcDbPlotSettings
  1

  2
none_device
  4
Letter_(8.50_x_11.00_Inches)
  6

 40
6.35
 41
6.35
 42
6.35000508
 43
6.35000508
 44
215.9
 45
279.4
 46
0.0
 47
0.0
 48
0.0
 49
0.0
140
0.0
141
0.0
142
1.0
143
1.0
 70
  1712
 72
     1
 73
     0
 74
     0
  7

 75
     0
147
1.0
148
0.0
149
0.0
100
AcDbLayout
  1
Model
 70
     1
 71
     0
 10
0.0
 20
0.0
 11
594.0
 21
841.0
 12
0.0
 22
0.0
 32
0.0
 14
0.0
 24
0.0
 34
0.0
 15
594.0
 25
841.0
 35
0.0
146
0.0
 13
0.0
 23
0.0
 33
0.0
 16
1.0
 26
0.0
 36
0.0
 17
0.0
 27
1.0
 37
0.0
 76
     0
330
1F
331
29
  0
MLINESTYLE
  5
18
102
{ACAD_REACTORS
330
17
102
}
330
17
100
AcDbMlineStyle
  2
Standard
 70
     0
  3

 62
   256
 51
90.0
 52
90.0
 71
     2
 49
0.5
 62
   256
  6
BYLAYER
 49
-0.5
 62
   256
  6
BYLAYER
  0
ACDBPLACEHOLDER
  5
F
102
{ACAD_REACTORS
330
E
102
}
330
E
  0
SCALE
  5
48
102
{ACAD_REACTORS
330
47
102
}
330
47
100
AcDbScale
 70
     0
300
1:1
140
1.0
141
1.0
290
     1
  0
SCALE
  5
49
102
{ACAD_REACTORS
330
47
102
}
330
47
100
AcDbScale
 70
     0
300
1:2
140
1.0
141
2.0
290
     0
  0
SCALE
  5
4A
102
{ACAD_REACTORS
330
47
102
}
330
47
100
AcDbScale
 70
     0
300
1:4
140
1.0
141
4.0
290
     0
  0
SCALE
  5
4B
102
{ACAD_REACTORS
330
47
102
}
330
47
100
AcDbScale
 70
     0
300
1:5
140
1.0
141
5.0
290
     0
  0
SCALE
  5
4C
102
{ACAD_REACTORS
330
47
102
}
330
47
100
AcDbScale
 70
     0
300
1:8
140
1.0
141
8.0
290
     0
  0
SCALE
  5
4D
102
{ACAD_REACTORS
330
47
102
}
330
47
100
AcDbScale
 70
     0
300
1:10
140
1.0
141
10.0
290
     0
  0
SCALE
  5
4E
102
{ACAD_REACTORS
330
47
102
}
330
47
100
AcDbScale
 70
     0
300
1:16
140
1.0
141
16.0
290
     0
  0
SCALE
  5
4F
102
{ACAD_REACTORS
330
47
102
}
330
47
100
AcDbScale
 70
     0
300
1:20
140
1.0
141
20.0
290
     0
  0
SCALE
  5
50
102
{ACAD_REACTORS
330
47
102
}
330
47
100
AcDbScale
 70
     0
300
1:30
140
1.0
141
30.0
290
     0
  0
SCALE
  5
51
102
{ACAD_REACTORS
330
47
102
}
330
47
100
AcDbScale
 70
     0
300
1:40
140
1.0
141
40.0
290
     0
  0
SCALE
  5
52
102
{ACAD_REACTORS
330
47
102
}
330
47
100
AcDbScale
 70
     0
300
1:50
140
1.0
141
50.0
290
     0
  0
SCALE
  5
53
102
{ACAD_REACTORS
330
47
102
}
330
47
100
AcDbScale
 70
     0
300
1:100
140
1.0
141
100.0
290
     0
  0
SCALE
  5
54
102
{ACAD_REACTORS
330
47
102
}
330
47
100
AcDbScale
 70
     0
300
2:1
140
2.0
141
1.0
290
     0
  0
SCALE
  5
55
102
{ACAD_REACTORS
330
47
102
}
330
47
100
AcDbScale
 70
     0
300
4:1
140
4.0
141
1.0
290
     0
  0
SCALE
  5
56
102
{ACAD_REACTORS
330
47
102
}
330
47
100
AcDbScale
 70
     0
300
8:1
140
8.0
141
1.0
290
     0
  0
SCALE
  5
57
102
{ACAD_REACTORS
330
47
102
}
330
47
100
AcDbScale
 70
     0
300
10:1
140
10.0
141
1.0
290
     0
  0
SCALE
  5
58
102
{ACAD_REACTORS
330
47
102
}
330
47
100
AcDbScale
 70
     0
300
100:1
140
100.0
141
1.0
290
     0
  0
SCALE
  5
59
102
{ACAD_REACTORS
330
47
102
}
330
47
100
AcDbScale
 70
     0
300
1/128" = 1'-0"
140
0.0078125
141
12.0
290
     0
  0
SCALE
  5
5A
102
{ACAD_REACTORS
330
47
102
}
330
47
100
AcDbScale
 70
     0
300
1/64" = 1'-0"
140
0.015625
141
12.0
290
     0
  0
SCALE
  5
5B
102
{ACAD_REACTORS
330
47
102
}
330
47
100
AcDbScale
 70
     0
300
1/32" = 1'-0"
140
0.03125
141
12.0
290
     0
  0
SCALE
  5
5C
102
{ACAD_REACTORS
330
47
102
}
330
47
100
AcDbScale
 70
     0
300
1/16" = 1'-0"
140
0.0625
141
12.0
290
     0
  0
SCALE
  5
5D
102
{ACAD_REACTORS
330
47
102
}
330
47
100
AcDbScale
 70
     0
300
3/32" = 1'-0"
140
0.09375
141
12.0
290
     0
  0
SCALE
  5
5E
102
{ACAD_REACTORS
330
47
102
}
330
47
100
AcDbScale
 70
     0
300
1/8" = 1'-0"
140
0.125
141
12.0
290
     0
  0
SCALE
  5
5F
102
{ACAD_REACTORS
330
47
102
}
330
47
100
AcDbScale
 70
     0
300
3/16" = 1'-0"
140
0.1875
141
12.0
290
     0
  0
SCALE
  5
60
102
{ACAD_REACTORS
330
47
102
}
330
47
100
AcDbScale
 70
     0
300
1/4" = 1'-0"
140
0.25
141
12.0
290
     0
  0
SCALE
  5
61
102
{ACAD_REACTORS
330
47
102
}
330
47
100
AcDbScale
 70
     0
300
3/8" = 1'-0"
140
0.375
141
12.0
290
     0
  0
SCALE
  5
62
102
{ACAD_REACTORS
330
47
102
}
330
47
100
AcDbScale
 70
     0
300
1/2" = 1'-0"
140
0.5
141
12.0
290
     0
  0
SCALE
  5
63
102
{ACAD_REACTORS
330
47
102
}
330
47
100
AcDbScale
 70
     0
300
3/4" = 1'-0"
140
0.75
141
12.0
290
     0
  0
SCALE
  5
64
102
{ACAD_REACTORS
330
47
102
}
330
47
100
AcDbScale
 70
     0
300
1" = 1'-0"
140
1.0
141
12.0
290
     0
  0
SCALE
  5
65
102
{ACAD_REACTORS
330
47
102
}
330
47
100
AcDbScale
 70
     0
300
1-1/2" = 1'-0"
140
1.5
141
12.0
290
     0
  0
SCALE
  5
66
102
{ACAD_REACTORS
330
47
102
}
330
47
100
AcDbScale
 70
     0
300
3" = 1'-0"
140
3.0
141
12.0
290
     0
  0
SCALE
  5
67
102
{ACAD_REACTORS
330
47
102
}
330
47
100
AcDbScale
 70
     0
300
6" = 1'-0"
140
6.0
141
12.0
290
     0
  0
SCALE
  5
68
102
{ACAD_REACTORS
330
47
102
}
330
47
100
AcDbScale
 70
     0
300
1'-0" = 1'-0"
140
12.0
141
12.0
290
     0
  0
ENDSEC
  0
EOF
