  0
SECTION
  2
HEADER
  9
$ACADVER
  1
AC1015
  9
$ACADMAINTVER
 70
     6
  9
$DWGCODEPAGE
  3
ANSI_1252
  9
$INSBASE
 10
0.0
 20
0.0
 30
0.0
  9
$EXTMIN
 10
0.0
 20
0.0
 30
0.0
  9
$EXTMAX
 10
594.0
 20
841.0
 30
0.0
  9
$LIMMIN
 10
0.0
 20
0.0
  9
$LIMMAX
 10
594.0
 20
841.0
  9
$ORTHOMODE
 70
     0
  9
$REGENMODE
 70
     1
  9
$FILLMODE
 70
     1
  9
$QTEXTMODE
 70
     0
  9
$MIRRTEXT
 70
     1
  9
$LTSCALE
 40
1.0
  9
$ATTMODE
 70
     1
  9
$TEXTSIZE
 40
10.0
  9
$TRACEWID
 40
1.0
  9
$TEXTSTYLE
  7
Standard
  9
$CLAYER
  8
0
  9
$CELTYPE
  6
ByLayer
  9
$CECOLOR
 62
   256
  9
$CELTSCALE
 40
1.0
  9
$DISPSILH
 70
     0
  9
$DIMSCALE
 40
1.0
  9
$DIMASZ
 40
2.5
  9
$DIMEXO
 40
0.0
  9
$DIMDLI
 40
3.75
  9
$DIMRND
 40
0.0
  9
$DIMDLE
 40
0.0
  9
$DIMEXE
 40
1.0
  9
$DIMTP
 40
0.0
  9
$DIMTM
 40
0.0
  9
$DIMTXT
 40
3.5
  9
$DIMCEN
 40
2.5
  9
$DIMTSZ
 40
0.0
  9
$DIMTOL
 70
     0
  9
$DIMLIM
 70
     0
  9
$DIMTIH
 70
     1
  9
$DIMTOH
 70
     1
  9
$DIMSE1
 70
     0
  9
$DIMSE2
 70
     0
  9
$DIMTAD
 70
     1
  9
$DIMZIN
 70
     0
  9
$DIMBLK
  1

  9
$DIMASO
 70
     1
  9
$DIMSHO
 70
     1
  9
$DIMPOST
  1

  9
$DIMAPOST
  1

  9
$DIMALT
 70
     0
  9
$DIMALTD
 70
     3
  9
$DIMALTF
 40
0.0393700787
  9
$DIMLFAC
 40
1.0
  9
$DIMTOFL
 70
     1
  9
$DIMTVP
 40
0.0
  9
$DIMTIX
 70
     0
  9
$DIMSOXD
 70
     0
  9
$DIMSAH
 70
     0
  9
$DIMBLK1
  1

  9
$DIMBLK2
  1

  9
$DIMSTYLE
  2
ISO-25
  9
$DIMCLRD
 70
     0
  9
$DIMCLRE
 70
     0
  9
$DIMCLRT
 70
     0
  9
$DIMTFAC
 40
1.0
  9
$DIMGAP
 40
1.5
  9
$DIMJUST
 70
     0
  9
$DIMSD1
 70
     0
  9
$DIMSD2
 70
     0
  9
$DIMTOLJ
 70
     0
  9
$DIMTZIN
 70
     0
  9
$DIMALTZ
 70
     0
  9
$DIMALTTZ
 70
     0
  9
$DIMUPT
 70
     0
  9
$DIMDEC
 70
     2
  9
$DIMTDEC
 70
     2
  9
$DIMALTU
 70
     2
  9
$DIMALTTD
 70
     3
  9
$DIMTXSTY
  7
Standard
  9
$DIMAUNIT
 70
     0
  9
$DIMADEC
 70
     2
  9
$DIMALTRND
 40
0.0
  9
$DIMAZIN
 70
     0
  9
$DIMDSEP
 70
    44
  9
$DIMATFIT
 70
     3
  9
$DIMFRAC
 70
     0
  9
$DIMLDRBLK
  1

  9
$DIMLUNIT
 70
     2
  9
$DIMLWD
 70
    -2
  9
$DIMLWE
 70
    -2
  9
$DIMTMOVE
 70
     0
  9
$LUNITS
 70
     2
  9
$LUPREC
 70
     2
  9
$SKETCHINC
 40
1.0
  9
$FILLETRAD
 40
10.0
  9
$AUNITS
 70
     0
  9
$AUPREC
 70
     2
  9
$MENU
  1
.
  9
$ELEVATION
 40
0.0
  9
$PELEVATION
 40
0.0
  9
$THICKNESS
 40
0.0
  9
$LIMCHECK
 70
     0
  9
$CHAMFERA
 40
0.0
  9
$CHAMFERB
 40
0.0
  9
$CHAMFERC
 40
0.0
  9
$CHAMFERD
 40
0.0
  9
$SKPOLY
 70
     0
  9
$TDCREATE
 40
2459451.418257234
  9
$TDUCREATE
 40
2459451.334923901
  9
$TDUPDATE
 40
2459451.418257963
  9
$TDUUPDATE
 40
2459451.334924629
  9
$TDINDWG
 40
0.0000000116
  9
$TDUSRTIMER
 40
0.0000000116
  9
$USRTIMER
 70
     1
  9
$ANGBASE
 50
0.0
  9
$ANGDIR
 70
     0
  9
$PDMODE
 70
     0
  9
$PDSIZE
 40
-1.0
  9
$PLINEWID
 40
0.0
  9
$SPLFRAME
 70
     0
  9
$SPLINETYPE
 70
     6
  9
$SPLINESEGS
 70
     8
  9
$HANDSEED
  5
121
  9
$SURFTAB1
 70
     6
  9
$SURFTAB2
 70
     6
  9
$SURFTYPE
 70
     6
  9
$SURFU
 70
     6
  9
$SURFV
 70
     6
  9
$UCSBASE
  2

  9
$UCSNAME
  2

  9
$UCSORG
 10
0.0
 20
0.0
 30
0.0
  9
$UCSXDIR
 10
1.0
 20
0.0
 30
0.0
  9
$UCSYDIR
 10
0.0
 20
1.0
 30
0.0
  9
$UCSORTHOREF
  2

  9
$UCSORTHOVIEW
 70
     0
  9
$UCSORGTOP
 10
0.0
 20
0.0
 30
0.0
  9
$UCSORGBOTTOM
 10
0.0
 20
0.0
 30
0.0
  9
$UCSORGLEFT
 10
0.0
 20
0.0
 30
0.0
  9
$UCSORGRIGHT
 10
0.0
 20
0.0
 30
0.0
  9
$UCSORGFRONT
 10
0.0
 20
0.0
 30
0.0
  9
$UCSORGBACK
 10
0.0
 20
0.0
 30
0.0
  9
$PUCSBASE
  2

  9
$PUCSNAME
  2

  9
$PUCSORG
 10
0.0
 20
0.0
 30
0.0
  9
$PUCSXDIR
 10
1.0
 20
0.0
 30
0.0
  9
$PUCSYDIR
 10
0.0
 20
1.0
 30
0.0
  9
$PUCSORTHOREF
  2

  9
$PUCSORTHOVIEW
 70
     0
  9
$PUCSORGTOP
 10
0.0
 20
0.0
 30
0.0
  9
$PUCSORGBOTTOM
 10
0.0
 20
0.0
 30
0.0
  9
$PUCSORGLEFT
 10
0.0
 20
0.0
 30
0.0
  9
$PUCSORGRIGHT
 10
0.0
 20
0.0
 30
0.0
  9
$PUCSORGFRONT
 10
0.0
 20
0.0
 30
0.0
  9
$PUCSORGBACK
 10
0.0
 20
0.0
 30
0.0
  9
$USERI1
 70
     0
  9
$USERI2
 70
     0
  9
$USERI3
 70
     0
  9
$USERI4
 70
     0
  9
$USERI5
 70
     0
  9
$USERR1
 40
0.0
  9
$USERR2
 40
0.0
  9
$USERR3
 40
0.0
  9
$USERR4
 40
0.0
  9
$USERR5
 40
0.0
  9
$WORLDVIEW
 70
     1
  9
$SHADEDGE
 70
     3
  9
$SHADEDIF
 70
    70
  9
$TILEMODE
 70
     1
  9
$MAXACTVP
 70
    64
  9
$PINSBASE
 10
0.0
 20
0.0
 30
0.0
  9
$PLIMCHECK
 70
     0
  9
$PEXTMIN
 10
1.0000000000E+20
 20
1.0000000000E+20
 30
1.0000000000E+20
  9
$PEXTMAX
 10
-1.0000000000E+20
 20
-1.0000000000E+20
 30
-1.0000000000E+20
  9
$PLIMMIN
 10
0.0
 20
0.0
  9
$PLIMMAX
 10
420.0
 20
297.0
  9
$UNITMODE
 70
     0
  9
$VISRETAIN
 70
     1
  9
$PLINEGEN
 70
     0
  9
$PSLTSCALE
 70
     1
  9
$TREEDEPTH
 70
  3020
  9
$CMLSTYLE
  2
Standard
  9
$CMLJUST
 70
     0
  9
$CMLSCALE
 40
20.0
  9
$PROXYGRAPHICS
 70
     1
  9
$MEASUREMENT
 70
     1
  9
$CELWEIGHT
370
    -1
  9
$ENDCAPS
280
     0
  9
$JOINSTYLE
280
     0
  9
$LWDISPLAY
290
     1
  9
$INSUNITS
 70
     4
  9
$HYPERLINKBASE
  1

  9
$STYLESHEET
  1

  9
$XEDIT
290
     1
  9
$CEPSNTYPE
380
     0
  9
$PSTYLEMODE
290
     1
  9
$FINGERPRINTGUID
  2
{76bd6c6b-34bc-4d5c-9a0e-651ceb028fb6}
  9
$VERSIONGUID
  2
{FAEB1C32-E019-11D5-929B-00C0DF256EC4}
  9
$EXTNAMES
290
     1
  9
$PSVPSCALE
 40
0.0
  9
$OLESTARTUP
290
     0
  0
ENDSEC
  0
SECTION
  2
CLASSES
  0
CLASS
  1
ACDBDICTIONARYWDFLT
  2
AcDbDictionaryWithDefault
  3
ObjectDBX Classes
 90
        0
280
     0
281
     0
  0
CLASS
  1
VISUALSTYLE
  2
AcDbVisualStyle
  3
ObjectDBX Classes
 90
     4095
280
     0
281
     0
  0
CLASS
  1
MATERIAL
  2
AcDbMaterial
  3
ObjectDBX Classes
 90
     1153
280
     0
281
     0
  0
CLASS
  1
SCALE
  2
AcDbScale
  3
ObjectDBX Classes
 90
     1153
280
     0
281
     0
  0
CLASS
  1
TABLESTYLE
  2
AcDbTableStyle
  3
ObjectDBX Classes
 90
     4095
280
     0
281
     0
  0
CLASS
  1
MLEADERSTYLE
  2
AcDbMLeaderStyle
  3
ACDB_MLEADERSTYLE_CLASS
 90
     4095
280
     0
281
     0
  0
CLASS
  1
SUN
  2
AcDbSun
  3
SCENEOE
 90
     1153
280
     0
281
     0
  0
CLASS
  1
ACDBPLACEHOLDER
  2
AcDbPlaceHolder
  3
ObjectDBX Classes
 90
        0
280
     0
281
     0
  0
CLASS
  1
LAYOUT
  2
AcDbLayout
  3
ObjectDBX Classes
 90
        0
280
     0
281
     0
  0
ENDSEC
  0
SECTION
  2
TABLES
  0
TABLE
  2
VPORT
  5
8
330
0
100
AcDbSymbolTable
 70
     1
  0
VPORT
  5
29
330
8
100
AcDbSymbolTableRecord
100
AcDbViewportTableRecord
  2
*Active
 70
     0
 10
0.0
 20
0.0
 11
1.0
 21
1.0
 12
297.0
 22
420.5
 13
0.0
 23
0.0
 14
10.0
 24
10.0
 15
10.0
 25
10.0
 16
0.0
 26
0.0
 36
1.0
 17
0.0
 27
0.0
 37
0.0
 40
841.0
 41
0.7063020214
 42
50.0
 43
0.0
 44
0.0
 50
0.0
 51
0.0
 71
     0
 72
  2000
 73
     1
 74
     3
 75
     0
 76
     0
 77
     0
 78
     0
281
     0
 65
     1
110
0.0
120
0.0
130
0.0
111
1.0
121
0.0
131
0.0
112
0.0
122
1.0
132
0.0
 79
     0
146
0.0
  0
ENDTAB
  0
TABLE
  2
LTYPE
  5
5
330
0
100
AcDbSymbolTable
 70
     6
  0
LTYPE
  5
14
330
5
100
AcDbSymbolTableRecord
100
AcDbLinetypeTableRecord
  2
ByBlock
 70
     0
  3

 72
    65
 73
     0
 40
0.0
  0
LTYPE
  5
15
330
5
100
AcDbSymbolTableRecord
100
AcDbLinetypeTableRecord
  2
ByLayer
 70
     0
  3

 72
    65
 73
     0
 40
0.0
  0
LTYPE
  5
16
330
5
100
AcDbSymbolTableRecord
100
AcDbLinetypeTableRecord
  2
Continuous
 70
     0
  3
Solid line
 72
    65
 73
     0
 40
0.0
  0
LTYPE
  5
6E
330
5
100
AcDbSymbolTableRecord
100
AcDbLinetypeTableRecord
  2
HIDDEN
 70
     0
  3
Hidden __ __ __ __ __ __ __ __ __ __ __ __ __ __
 72
    65
 73
     2
 40
1.905
 49
1.27
 74
     0
 49
-0.635
 74
     0
  0
LTYPE
  5
6F
330
5
100
AcDbSymbolTableRecord
100
AcDbLinetypeTableRecord
  2
PHANTOM
 70
     0
  3
Phantom ______  __  __  ______  __  __  ______
 72
    65
 73
     6
 40
12.7
 49
6.35
 74
     0
 49
-1.27
 74
     0
 49
1.27
 74
     0
 49
-1.27
 74
     0
 49
1.27
 74
     0
 49
-1.27
 74
     0
  0
LTYPE
  5
70
330
5
100
AcDbSymbolTableRecord
100
AcDbLinetypeTableRecord
  2
CENTER
 70
     0
  3
Center ____ _ ____ _ ____ _ ____ _ ____ _ ____
 72
    65
 73
     4
 40
10.16
 49
6.35
 74
     0
 49
-1.27
 74
     0
 49
1.27
 74
     0
 49
-1.27
 74
     0
  0
LTYPE
  5
71
330
5
100
AcDbSymbolTableRecord
100
AcDbLinetypeTableRecord
  2
CENTERX2
 70
     0
  3
Center (2x) ________  __  ________  __  _____
 72
    65
 73
     4
 40
20.32
 49
12.7
 74
     0
 49
-2.54
 74
     0
 49
2.54
 74
     0
 49
-2.54
 74
     0
  0
LTYPE
  5
72
330
5
100
AcDbSymbolTableRecord
100
AcDbLinetypeTableRecord
  2
DOT2
 70
     0
  3
Dot (.5x) ........................................
 72
    65
 73
     2
 40
0.635
 49
0.0
 74
     0
 49
-0.635
 74
     0
  0
ENDTAB
  0
TABLE
  2
LAYER
  5
2
330
0
100
AcDbSymbolTable
 70
     1
  0
LAYER
  5
10
330
2
100
AcDbSymbolTableRecord
100
AcDbLayerTableRecord
  2
0
 70
     0
 62
     7
  6
Continuous
370
    -3
390
F
  0
ENDTAB
  0
TABLE
  2
STYLE
  5
3
330
0
100
AcDbSymbolTable
 70
     3
  0
STYLE
  5
11
330
3
100
AcDbSymbolTableRecord
100
AcDbTextStyleTableRecord
  2
Standard
 70
     0
 40
0.0
 41
1.0
 50
0.0
 71
     0
 42
10.0
  3
txt
  4

  0
STYLE
  5
76
330
3
100
AcDbSymbolTableRecord
100
AcDbTextStyleTableRecord
  2
SLDTEXTSTYLE0
 70
     0
 40
0.0
 41
0.96
 50
0.0
 71
     0
 42
10.0
  3
ISOCP3
  4

  0
STYLE
  5
8D
330
3
100
AcDbSymbolTableRecord
100
AcDbTextStyleTableRecord
  2
SLDTEXTSTYLE1
 70
     0
 40
0.0
 41
0.605
 50
0.0
 71
     0
 42
10.0
  3
TXT
  4

  0
ENDTAB
  0
TABLE
  2
VIEW
  5
6
330
0
100
AcDbSymbolTable
 70
     0
  0
ENDTAB
  0
TABLE
  2
UCS
  5
7
330
0
100
AcDbSymbolTable
 70
     0
  0
ENDTAB
  0
TABLE
  2
APPID
  5
9
330
0
100
AcDbSymbolTable
 70
     1
  0
APPID
  5
12
330
9
100
AcDbSymbolTableRecord
100
AcDbRegAppTableRecord
  2
ACAD
 70
     0
  0
ENDTAB
  0
TABLE
  2
DIMSTYLE
  5
A
330
0
100
AcDbSymbolTable
 70
     2
100
AcDbDimStyleTable
  0
DIMSTYLE
105
27
330
A
100
AcDbSymbolTableRecord
100
AcDbDimStyleTableRecord
  2
ISO-25
 70
     0
 41
2.5
 42
0.625
 43
3.75
 44
1.25
 73
     0
 74
     0
 77
     1
 78
     8
140
2.5
141
2.5
143
0.0393700787
147
0.625
171
     3
172
     1
178
     0
271
     2
272
     2
274
     3
278
    44
283
     0
284
     8
340
11
  0
DIMSTYLE
105
77
102
{ACAD_REACTORS
330
75
330
82
102
}
330
A
100
AcDbSymbolTableRecord
100
AcDbDimStyleTableRecord
  2
SLDDIMSTYLE0
 70
     0
 41
2.5
 44
0.0
 45
0.000000001
 73
     0
 74
     0
 77
     1
 78
    12
 79
     3
140
6.0
147
1.5
173
     1
178
     0
271
     2
272
     2
276
     2
284
    12
340
76
  0
ENDTAB
  0
TABLE
  2
BLOCK_RECORD
  5
1
330
0
100
AcDbSymbolTable
 70
     3
  0
BLOCK_RECORD
  5
1F
330
1
100
AcDbSymbolTableRecord
100
AcDbBlockTableRecord
  2
*Model_Space
340
22
  0
BLOCK_RECORD
  5
1B
330
1
100
AcDbSymbolTableRecord
100
AcDbBlockTableRecord
  2
*Paper_Space
340
1E
  0
BLOCK_RECORD
  5
23
330
1
100
AcDbSymbolTableRecord
100
AcDbBlockTableRecord
  2
*Paper_Space0
340
26
  0
BLOCK_RECORD
  5
78
330
1
100
AcDbSymbolTableRecord
100
AcDbBlockTableRecord
  2
_D
340
0
  0
BLOCK_RECORD
  5
83
330
1
100
AcDbSymbolTableRecord
100
AcDbBlockTableRecord
  2
_D_1
340
0
  0
ENDTAB
  0
ENDSEC
  0
SECTION
  2
BLOCKS
  0
BLOCK
  5
20
330
1F
100
AcDbEntity
  8
0
100
AcDbBlockBegin
  2
*Model_Space
 70
     0
 10
0.0
 20
0.0
 30
0.0
  3
*Model_Space
  1

  0
ENDBLK
  5
21
330
1F
100
AcDbEntity
  8
0
100
AcDbBlockEnd
  0
BLOCK
  5
1C
330
1B
100
AcDbEntity
 67
     1
  8
0
100
AcDbBlockBegin
  2
*Paper_Space
 70
     0
 10
0.0
 20
0.0
 30
0.0
  3
*Paper_Space
  1

  0
ENDBLK
  5
1D
330
1B
100
AcDbEntity
 67
     1
  8
0
100
AcDbBlockEnd
  0
BLOCK
  5
24
330
23
100
AcDbEntity
  8
0
100
AcDbBlockBegin
  2
*Paper_Space0
 70
     0
 10
0.0
 20
0.0
 30
0.0
  3
*Paper_Space0
  1

  0
ENDBLK
  5
25
330
23
100
AcDbEntity
  8
0
100
AcDbBlockEnd
  0
BLOCK
  5
79
330
78
100
AcDbEntity
  8
0
100
AcDbBlockBegin
  2
_D
 70
     0
 10
0.0
 20
0.0
 30
0.0
  3
_D
  1

  0
SOLID
  5
7B
330
78
100
AcDbEntity
  8
0
  6
Continuous
 62
     7
370
    18
100
AcDbTrace
 10
42.7614395004
 20
152.0299240879
 30
0.0
 11
42.4614395004
 21
149.5299240879
 31
0.0
 12
43.0614395004
 22
149.5299240879
 32
0.0
 13
43.0614395004
 23
149.5299240879
 33
0.0
  0
SOLID
  5
7C
330
78
100
AcDbEntity
  8
0
  6
Continuous
 62
     7
370
    18
100
AcDbTrace
 10
42.7614395004
 20
52.0299240879
 30
0.0
 11
43.0614395004
 21
54.5299240879
 31
0.0
 12
42.4614395004
 22
54.5299240879
 32
0.0
 13
42.4614395004
 23
54.5299240879
 33
0.0
  0
LINE
  5
7D
330
78
100
AcDbEntity
  8
0
  6
Continuous
 62
     7
370
     0
100
AcDbLine
 10
56.6850079902
 20
152.0299240879
 30
0.0
 11
41.7614395004
 21
152.0299240879
 31
0.0
  0
LINE
  5
7E
330
78
100
AcDbEntity
  8
0
  6
Continuous
 62
     7
370
     0
100
AcDbLine
 10
56.6850079902
 20
52.0299240879
 30
0.0
 11
41.7614395004
 21
52.0299240879
 31
0.0
  0
LINE
  5
7F
330
78
100
AcDbEntity
  8
0
  6
Continuous
 62
     7
370
     0
100
AcDbLine
 10
42.7614395004
 20
152.0299240879
 30
0.0
 11
42.7614395004
 21
52.0299240879
 31
0.0
  0
MTEXT
  5
80
330
78
100
AcDbEntity
  8
0
  6
Continuous
 62
     7
370
    18
100
AcDbMText
 10
35.0270332946
 20
94.3680541463
 30
0.0
 40
6.0
 41
0.0
 71
     1
 72
     1
  1
100
  7
SLDTEXTSTYLE0
 11
-7.044195017643634E-15
 21
1.0
 31
0.0
 73
     1
 44
1.0
  0
MTEXT
  5
81
330
78
100
AcDbEntity
  8
0
  6
Continuous
 62
     7
370
    18
100
AcDbMText
 10
35.0270332946
 20
105.7430548466
 30
0.0
 40
6.0
 41
0.0
 71
     1
 72
     1
  1
mm
  7
SLDTEXTSTYLE0
 11
-7.044195017643634E-15
 21
1.0
 31
0.0
 73
     1
 44
1.0
  0
ENDBLK
  5
7A
330
78
100
AcDbEntity
  8
0
100
AcDbBlockEnd
  0
BLOCK
  5
84
330
83
100
AcDbEntity
  8
0
100
AcDbBlockBegin
  2
_D_1
 70
     0
 10
0.0
 20
0.0
 30
0.0
  3
_D_1
  1

  0
SOLID
  5
86
330
83
100
AcDbEntity
  8
0
  6
Continuous
 62
     7
370
    18
100
AcDbTrace
 10
56.6850079902
 20
38.4602342313
 30
0.0
 11
59.1850079902
 21
38.1602342313
 31
0.0
 12
59.1850079902
 22
38.7602342313
 32
0.0
 13
59.1850079902
 23
38.7602342313
 33
0.0
  0
SOLID
  5
87
330
83
100
AcDbEntity
  8
0
  6
Continuous
 62
     7
370
    18
100
AcDbTrace
 10
156.6850079902
 20
38.4602342313
 30
0.0
 11
154.1850079902
 21
38.7602342313
 31
0.0
 12
154.1850079902
 22
38.1602342313
 32
0.0
 13
154.1850079902
 23
38.1602342313
 33
0.0
  0
LINE
  5
88
330
83
100
AcDbEntity
  8
0
  6
Continuous
 62
     7
370
     0
100
AcDbLine
 10
56.6850079902
 20
52.0299240879
 30
0.0
 11
56.6850079902
 21
37.4602342313
 31
0.0
  0
LINE
  5
89
330
83
100
AcDbEntity
  8
0
  6
Continuous
 62
     7
370
     0
100
AcDbLine
 10
156.6850079902
 20
52.0299240879
 30
0.0
 11
156.6850079902
 21
37.4602342313
 31
0.0
  0
LINE
  5
8A
330
83
100
AcDbEntity
  8
0
  6
Continuous
 62
     7
370
     0
100
AcDbLine
 10
56.6850079902
 20
38.4602342313
 30
0.0
 11
156.6850079902
 21
38.4602342313
 31
0.0
  0
MTEXT
  5
8B
330
83
100
AcDbEntity
  8
0
  6
Continuous
 62
     7
370
    18
100
AcDbMText
 10
93.9626484861
 20
46.1946404371
 30
0.0
 40
6.0
 41
0.0
 71
     1
 72
     1
  1
100
  7
SLDTEXTSTYLE0
 73
     1
 44
1.0
  0
MTEXT
  5
8C
330
83
100
AcDbEntity
  8
0
  6
Continuous
 62
     7
370
    18
100
AcDbMText
 10
105.3376491864
 20
46.1946404371
 30
0.0
 40
6.0
 41
0.0
 71
     1
 72
     1
  1
mm
  7
SLDTEXTSTYLE0
 73
     1
 44
1.0
  0
ENDBLK
  5
85
330
83
100
AcDbEntity
  8
0
100
AcDbBlockEnd
  0
ENDSEC
  0
SECTION
  2
ENTITIES
  0
LINE
  5
73
330
1F
100
AcDbEntity
  8
0
  6
Continuous
 62
     7
370
    18
100
AcDbLine
 10
56.6850079902
 20
152.0299240879
 30
0.0
 11
56.6850079902
 21
52.0299240879
 31
0.0
  0
LINE
  5
74
330
1F
100
AcDbEntity
  8
0
  6
Continuous
 62
     7
370
    18
100
AcDbLine
 10
56.6850079902
 20
52.0299240879
 30
0.0
 11
156.6850079902
 21
52.0299240879
 31
0.0
  0
DIMENSION
  5
75
330
1F
100
AcDbEntity
  8
0
  6
Continuous
 62
     7
370
    18
100
AcDbDimension
  2
_D
 10
42.7614395004
 20
52.0299240879
 30
0.0
 11
42.7614395004
 21
105.4472211621
 31
0.0
 70
   160
  1
<>mm
 71
     2
 42
-1.0
  3
SLDDIMSTYLE0
100
AcDbAlignedDimension
 13
56.6850079902
 23
152.0299240879
 33
0.0
 14
56.6850079902
 24
52.0299240879
 34
0.0
 50
90.0
100
AcDbRotatedDimension
  0
DIMENSION
  5
82
330
1F
100
AcDbEntity
  8
0
  6
Continuous
 62
     7
370
    18
100
AcDbDimension
  2
_D_1
 10
156.6850079902
 20
38.4602342313
 30
0.0
 11
105.0418155019
 21
38.4602342313
 31
0.0
 70
   160
  1
<>mm
 71
     2
 42
-1.0
  3
SLDDIMSTYLE0
100
AcDbAlignedDimension
 13
56.6850079902
 23
52.0299240879
 33
0.0
 14
156.6850079902
 24
52.0299240879
 34
0.0
100
AcDbRotatedDimension
  0
MTEXT
  5
8E
330
1F
100
AcDbEntity
  8
0
  6
Continuous
 62
     7
370
     0
100
AcDbMText
 10
412.8252631579
 20
48.4342449499
 30
0.0
 40
10.0
 41
0.0
 71
     1
 72
     1
  1
KLUDI GmbH & Co KG
  7
SLDTEXTSTYLE1
 73
     1
 44
1.0
  0
MTEXT
  5
8F
330
1F
100
AcDbEntity
  8
0
  6
Continuous
 62
     7
370
     0
100
AcDbMText
 10
210.0873490389
 20
48.4342449499
 30
0.0
 40
10.0
 41
0.0
 71
     1
 72
     1
  1
38 659 .. 76
  7
SLDTEXTSTYLE1
 73
     1
 44
1.0
  0
SPLINE
  5
90
330
1F
100
AcDbEntity
  8
0
  6
Continuous
 62
     7
370
    25
100
AcDbSpline
210
0.0
220
0.0
230
1.0
 70
     8
 71
     3
 72
    13
 73
     9
 74
     0
 42
0.00000001
 43
0.00000001
 40
0.0
 40
0.0
 40
0.0
 40
0.0
 40
0.0438788485903002
 40
0.154851434227278
 40
0.2980086306739472
 40
0.5301667564822519
 40
0.7885206613249165
 40
1.0
 40
1.0
 40
1.0
 40
1.0
 10
197.2670901496075
 20
310.0359088959241
 30
0.0
 10
197.2735838648721
 20
310.0329365090026
 30
0.0
 10
197.2965006266945
 20
310.0224467538551
 30
0.0
 10
197.4047852061529
 20
309.9620601324545
 30
0.0
 10
197.6139695783432
 20
309.8084026468809
 30
0.0
 10
197.8630586633207
 20
309.5181419436368
 30
0.0
 10
198.0505569782622
 20
309.125868112616
 30
0.0
 10
198.0550101222123
 20
308.8390024610673
 30
0.0
 10
198.0570145524023
 20
308.7098797156781
 30
0.0
  0
SPLINE
  5
91
330
1F
100
AcDbEntity
  8
0
  6
Continuous
 62
     7
370
    25
100
AcDbSpline
210
0.0
220
0.0
230
1.0
 70
     8
 71
     3
 72
    14
 73
    10
 74
     0
 42
0.00000001
 43
0.00000001
 40
0.0
 40
0.0
 40
0.0
 40
0.0
 40
0.0004523518599717
 40
0.2650050637675259
 40
0.4814343862920252
 40
0.6644213282282833
 40
0.8124671088788936
 40
0.9204471016542376
 40
0.9999999999999999
 40
0.9999999999999999
 40
0.9999999999999999
 40
0.9999999999999999
 10
208.07501311399
 20
308.7020688920742
 30
0.0
 10
208.0749619224171
 20
308.7023377693195
 30
0.0
 10
208.0449719362119
 20
308.8598563689489
 30
0.0
 10
208.1308888770251
 20
309.1573219265971
 30
0.0
 10
208.2927413250063
 20
309.5198447951561
 30
0.0
 10
208.5040134874387
 20
309.7730022526269
 30
0.0
 10
208.6950719620685
 20
309.9286794905181
 30
0.0
 10
208.8261135676581
 20
310.0079929468673
 30
0.0
 10
208.8680867799764
 20
310.0288146732238
 30
0.0
 10
208.8858921402673
 20
310.0376474100858
 30
0.0
  0
LINE
  5
92
330
1F
100
AcDbEntity
  8
0
  6
Continuous
 62
     7
370
    25
100
AcDbLine
 10
198.0748672477
 20
308.7109880475
 30
0.0
 11
198.0748672477
 21
229.9055524243
 31
0.0
  0
LINE
  5
93
330
1F
100
AcDbEntity
  8
0
  6
Continuous
 62
     7
370
    25
100
AcDbLine
 10
208.0748672477
 20
229.9055524243
 30
0.0
 11
208.0748672477
 21
308.6894525173
 31
0.0
  0
SPLINE
  5
94
330
1F
100
AcDbEntity
  8
0
  6
Continuous
 62
     7
370
    25
100
AcDbSpline
210
0.0
220
0.0
230
1.0
 70
     8
 71
     3
 72
    12
 73
     8
 74
     0
 42
0.00000001
 43
0.00000001
 40
0.0
 40
0.0
 40
0.0
 40
0.0
 40
0.1262464130294117
 40
0.3977223912989326
 40
0.629916561560618
 40
0.8822259671353181
 40
1.0
 40
1.0
 40
1.0
 40
1.0
 10
207.2478040144104
 20
228.92126026655
 30
0.0
 10
207.3036207851787
 20
228.9337405129853
 30
0.0
 10
207.4794640349933
 20
228.9730578554518
 30
0.0
 10
207.7415107352263
 20
229.1317337888892
 30
0.0
 10
207.9605940881563
 20
229.4080806366815
 30
0.0
 10
208.0737821911268
 20
229.678214887139
 30
0.0
 10
208.0622154584073
 20
229.8510913279889
 30
0.0
 10
208.0585345026608
 20
229.9061069096427
 30
0.0
  0
SPLINE
  5
95
330
1F
100
AcDbEntity
  8
0
  6
Continuous
 62
     7
370
    25
100
AcDbSpline
210
0.0
220
0.0
230
1.0
 70
     8
 71
     3
 72
    16
 73
    12
 74
     0
 42
0.00000001
 43
0.00000001
 40
0.0
 40
0.0
 40
0.0
 40
0.0
 40
0.2416247248303138
 40
0.4235413208386575
 40
0.5755124181535018
 40
0.7036451769656111
 40
0.8081082931811884
 40
0.8851343162792084
 40
0.9276545682954849
 40
0.9588084784742262
 40
1.0
 40
1.0
 40
1.0
 40
1.0
 10
198.0748672476578
 20
229.90555242432
 30
0.0
 10
198.0893345930149
 20
229.775959
 30
0.0
 10
198.114694243464
 20
229.5487961128119
 30
0.0
 10
198.2792223422877
 20
229.2814122736515
 30
0.0
 10
198.4566138051614
 20
229.108644370235
 30
0.0
 10
198.6334514558002
 20
229.0018568418416
 30
0.0
 10
198.7874257037768
 20
228.9439292865669
 30
0.0
 10
198.9037702760348
 20
228.9188673983998
 30
0.0
 10
198.9703893391163
 20
228.9105854863722
 30
0.0
 10
199.0046244475085
 20
228.9076430214559
 30
0.0
 10
199.0172326182796
 20
228.9068887265935
 30
0.0
 10
199.0244113678631
 20
228.9064592516103
 30
0.0
  0
CIRCLE
  5
96
330
1F
100
AcDbEntity
  8
0
  6
Continuous
 62
     7
370
    25
100
AcDbCircle
 10
203.0748585456
 20
333.9314012915
 30
0.0
 40
24.37127483919126
  0
SPLINE
  5
97
330
1F
100
AcDbEntity
  8
0
  6
Continuous
 62
     7
370
    25
100
AcDbSpline
210
0.0
220
0.0
230
1.0
 70
     8
 71
     3
 72
     8
 73
     4
 74
     0
 42
0.00000001
 43
0.00000001
 40
0.0
 40
0.0
 40
0.0
 40
0.0
 40
1.0
 40
1.0
 40
1.0
 40
1.0
 10
178.2165317792112
 20
336.3637907301338
 30
0.0
 10
178.0350923799428
 20
334.6669061498401
 30
0.0
 10
178.0279902178649
 20
332.9407469071896
 30
0.0
 10
178.2139129628436
 20
331.1852944325239
 30
0.0
  0
ELLIPSE
  5
98
330
1F
100
AcDbEntity
  8
0
  6
Continuous
 62
     7
370
    25
100
AcDbEllipse
 10
203.0748672477
 20
333.7013042167
 30
0.0
 11
1.386979420203716E-11
 21
25.02146862014069
 31
0.0
210
0.0
220
0.0
230
1.0
 40
0.9991529203
 41
4.818998897738133
 42
7.747371716622167
  0
SPLINE
  5
99
330
1F
100
AcDbEntity
  8
0
  6
Continuous
 62
     7
370
    25
100
AcDbSpline
210
0.0
220
0.0
230
1.0
 70
     8
 71
     3
 72
     8
 73
     4
 74
     0
 42
0.00000001
 43
0.00000001
 40
0.0
 40
0.0
 40
0.0
 40
0.0
 40
1.0
 40
1.0
 40
1.0
 40
1.0
 10
227.9358215324711
 20
331.1852944325241
 30
0.0
 10
228.1217442774498
 20
332.9407469071897
 30
0.0
 10
228.1146421153719
 20
334.6669061498403
 30
0.0
 10
227.9332027161035
 20
336.3637907301339
 30
0.0
  0
ARC
  5
9A
330
1F
100
AcDbEntity
  8
0
  6
Continuous
 62
     7
370
    25
100
AcDbCircle
 10
203.0749486706
 20
333.8183917462
 30
0.0
 40
24.99992401823561
100
AcDbArc
 50
282.0718377047
 51
353.9541538463
  0
ARC
  5
9B
330
1F
100
AcDbEntity
  8
0
  6
Continuous
 62
     7
370
    25
100
AcDbCircle
 10
203.0747858098
 20
333.8183917394
 30
0.0
 40
24.99992400272563
100
AcDbArc
 50
186.0458461418
 51
257.9202431152
  0
SPLINE
  5
9C
330
1F
100
AcDbEntity
  8
0
  6
Continuous
 62
     7
370
    25
100
AcDbSpline
210
0.0
220
0.0
230
1.0
 70
     8
 71
     3
 72
     9
 73
     5
 74
     0
 42
0.00000001
 43
0.00000001
 40
0.0
 40
0.0
 40
0.0
 40
0.0
 40
0.4124468156588043
 40
1.0
 40
1.0
 40
1.0
 40
1.0
 10
209.1553305310619
 20
310.1401435545854
 30
0.0
 10
209.140499162483
 20
310.1316499199144
 30
0.0
 10
209.1045396932478
 20
310.1110566352809
 30
0.0
 10
208.9481125143856
 20
310.0619079630478
 30
0.0
 10
208.8562032273276
 20
310.0330305041711
 30
0.0
  0
SPLINE
  5
9D
330
1F
100
AcDbEntity
  8
0
  6
Continuous
 62
     7
370
    25
100
AcDbSpline
210
0.0
220
0.0
230
1.0
 70
     8
 71
     3
 72
     9
 73
     5
 74
     0
 42
0.00000001
 43
0.00000001
 40
0.0
 40
0.0
 40
0.0
 40
0.0
 40
0.6456918965880203
 40
0.9999999999999999
 40
0.9999999999999999
 40
0.9999999999999999
 40
0.9999999999999999
 10
197.2807184542401
 20
310.0369289700488
 30
0.0
 10
197.1845477207653
 20
310.0673441809847
 30
0.0
 10
197.0356055798108
 20
310.1144490170473
 30
0.0
 10
197.0073910709888
 20
310.1326547177802
 30
0.0
 10
196.9973944418794
 20
310.1391051450782
 30
0.0
  0
LWPOLYLINE
  5
9E
330
1F
100
AcDbEntity
  8
0
  6
Continuous
 62
     7
370
    25
100
AcDbPolyline
 90
       25
 70
   128
 43
0.0
 10
199.0804518876
 20
228.9048935548
 10
199.2231980983
 20
228.9021669985
 10
199.6571896295
 20
228.8990280854
 10
200.3446546748
 20
228.8963734186
 10
201.2346070967
 20
228.8943998828
 10
202.2610431954
 20
228.8932538458
 10
203.3478369011
 20
228.8930203042
 10
204.4143856963
 20
228.8937165786
 10
205.3815885361
 20
228.8952910295
 10
206.1777124105
 20
228.8976268872
 10
206.7437124537
 20
228.9005509116
 10
207.0376110318
 20
228.9038462414
 10
207.0376110318
 20
228.9072684769
 10
206.7437124537
 20
228.9105638066
 10
206.1777124105
 20
228.9134878311
 10
205.3815885361
 20
228.9158236887
 10
204.4143856963
 20
228.9173981396
 10
203.3478369011
 20
228.918094414
 10
202.2610431954
 20
228.9178608724
 10
201.2346070967
 20
228.9167148355
 10
200.3446546748
 20
228.9147412996
 10
199.6571896295
 20
228.9120866329
 10
199.2231980983
 20
228.9089477198
 10
199.0748672477
 20
228.9055573591
 10
199.0748672477
 20
228.9055573591
  0
SPLINE
  5
9F
330
1F
100
AcDbEntity
  8
0
  6
Continuous
 62
     7
370
    25
100
AcDbSpline
210
0.0
220
0.0
230
1.0
 70
    11
 71
     3
 72
    97
 73
    93
 74
     0
 42
0.00000001
 43
0.00000001
 40
0.0
 40
0.0
 40
0.0
 40
0.0
 40
0.0312500000000005
 40
0.0312500000000005
 40
0.0468750000000008
 40
0.0468750000000008
 40
0.0625000000000011
 40
0.0625000000000011
 40
0.0937500000000011
 40
0.0937500000000011
 40
0.1093750000000011
 40
0.1093750000000011
 40
0.1250000000000011
 40
0.1250000000000011
 40
0.1562500000000011
 40
0.1562500000000011
 40
0.1718750000000014
 40
0.1718750000000014
 40
0.1875000000000017
 40
0.203125000000002
 40
0.203125000000002
 40
0.2187500000000023
 40
0.2187500000000023
 40
0.2500000000000028
 40
0.2500000000000028
 40
0.2656250000000031
 40
0.2656250000000031
 40
0.2812500000000033
 40
0.2812500000000033
 40
0.3125000000000039
 40
0.3125000000000039
 40
0.3281250000000041
 40
0.3281250000000041
 40
0.3437500000000044
 40
0.3437500000000044
 40
0.3750000000000048
 40
0.3750000000000048
 40
0.3906250000000051
 40
0.3906250000000051
 40
0.4062500000000053
 40
0.4062500000000053
 40
0.4218750000000056
 40
0.4218750000000056
 40
0.4375000000000058
 40
0.4375000000000058
 40
0.4687500000000064
 40
0.4687500000000064
 40
0.5000000000000069
 40
0.5000000000000069
 40
0.5312500000000074
 40
0.5312500000000074
 40
0.5468750000000077
 40
0.5468750000000077
 40
0.5625000000000079
 40
0.5781250000000082
 40
0.5781250000000082
 40
0.5937500000000084
 40
0.5937500000000084
 40
0.6250000000000084
 40
0.6250000000000084
 40
0.6406250000000081
 40
0.6406250000000081
 40
0.6562500000000078
 40
0.6562500000000078
 40
0.6875000000000078
 40
0.6875000000000078
 40
0.7031250000000074
 40
0.7031250000000074
 40
0.7187500000000072
 40
0.7187500000000072
 40
0.7500000000000061
 40
0.7500000000000061
 40
0.7656250000000059
 40
0.7656250000000059
 40
0.7812500000000056
 40
0.7968750000000053
 40
0.7968750000000053
 40
0.812500000000005
 40
0.812500000000005
 40
0.8437500000000042
 40
0.8437500000000042
 40
0.8750000000000033
 40
0.8750000000000033
 40
0.9062500000000026
 40
0.9062500000000026
 40
0.9218750000000021
 40
0.9218750000000021
 40
0.9375000000000018
 40
0.9375000000000018
 40
0.9687500000000009
 40
0.9687500000000009
 40
1.0
 40
1.0
 40
1.0
 40
1.0
 10
194.9543622971633
 20
393.9834256527025
 30
0.0
 10
194.4299517891625
 20
394.5198927067353
 30
0.0
 10
193.9671040749247
 20
395.0986843372443
 30
0.0
 10
193.3612388955301
 20
396.0276510819078
 30
0.0
 10
193.1741281715265
 20
396.3475121290375
 30
0.0
 10
192.8302438182698
 20
397.0080908956037
 30
0.0
 10
192.6732024168852
 20
397.3499783232265
 30
0.0
 10
192.258073647658
 20
398.3852566027103
 30
0.0
 10
192.0515927521801
 20
399.09457025887
 30
0.0
 10
191.8461774695578
 20
400.1869329744932
 30
0.0
 10
191.7951172915436
 20
400.5569797979433
 30
0.0
 10
191.7297946947737
 20
401.3018685272895
 30
0.0
 10
191.71573550277
 20
401.673004849353
 30
0.0
 10
191.7275994982081
 20
402.782613772664
 30
0.0
 10
191.8070551128814
 20
403.5173221270867
 30
0.0
 10
192.0360033236803
 20
404.611666387643
 30
0.0
 10
192.1310280547161
 20
404.9751638734204
 30
0.0
 10
192.3538914451263
 20
405.6835634440648
 30
0.0
 10
192.6102991978463
 20
406.377512089829
 30
0.0
 10
192.932759272231
 20
407.0430054394545
 30
0.0
 10
193.2886813066017
 20
407.6940834428166
 30
0.0
 10
193.484415398817
 20
408.0139019304905
 30
0.0
 10
194.1162996842256
 20
408.9398371203794
 30
0.0
 10
194.5918647296576
 20
409.5070971598984
 30
0.0
 10
195.3844180629921
 20
410.2850220716767
 30
0.0
 10
195.6618986643013
 20
410.5320818219554
 30
0.0
 10
196.2442457709367
 20
411.0009732087711
 30
0.0
 10
196.5481958777642
 20
411.2217766185472
 30
0.0
 10
197.4812401338899
 20
411.8320118054309
 30
0.0
 10
198.1372840177619
 20
412.1747239430225
 30
0.0
 10
199.1725679023753
 20
412.5922550971018
 30
0.0
 10
199.5283195598471
 20
412.7157663200455
 30
0.0
 10
200.2457634387426
 20
412.9256065789061
 30
0.0
 10
200.6072389648413
 20
413.012155374333
 30
0.0
 10
201.6997173340415
 20
413.2180819929499
 30
0.0
 10
202.4386935916285
 20
413.2842629635071
 30
0.0
 10
203.5637279650709
 20
413.2729831995946
 30
0.0
 10
203.9376632830545
 20
413.2505834979096
 30
0.0
 10
204.6763576766393
 20
413.1699566264784
 30
0.0
 10
205.042259489405
 20
413.1117209336649
 30
0.0
 10
205.7672373909896
 20
412.9597433640437
 30
0.0
 10
206.1263136432143
 20
412.8660023372862
 30
0.0
 10
206.8375071038782
 20
412.6423205662439
 30
0.0
 10
207.1911987650194
 20
412.5115617116821
 30
0.0
 10
208.2202010376972
 20
412.0721859124732
 30
0.0
 10
208.869263362855
 20
411.7158937659501
 30
0.0
 10
210.0946430831986
 20
410.8785038132914
 30
0.0
 10
210.6741734111323
 20
410.3922948637078
 30
0.0
 10
211.7107657789274
 20
409.3326458096413
 30
0.0
 10
212.1742631547622
 20
408.7560667089638
 30
0.0
 10
212.785853541395
 20
407.8198223521369
 30
0.0
 10
212.9757343444296
 20
407.4951391120056
 30
0.0
 10
213.3189641947535
 20
406.8358773697906
 30
0.0
 10
213.6280629144479
 20
406.1633606526635
 30
0.0
 10
213.8701010354245
 20
405.4648005736881
 30
0.0
 10
214.0782421473024
 20
404.75307636564
 30
0.0
 10
214.1656542477426
 20
404.3890061708373
 30
0.0
 10
214.372916680702
 20
403.287812717151
 30
0.0
 10
214.4372936577876
 20
402.5511245089163
 30
0.0
 10
214.4266012093492
 20
401.4423725442231
 30
0.0
 10
214.4050312207483
 20
401.0721641236267
 30
0.0
 10
214.3248739734718
 20
400.3304635511773
 30
0.0
 10
214.2661441193695
 20
399.9598904224907
 30
0.0
 10
214.038291922678
 20
398.8704433367821
 30
0.0
 10
213.817293750663
 20
398.1656433392974
 30
0.0
 10
213.3820136637977
 20
397.1407334868255
 30
0.0
 10
213.2184754630318
 20
396.8027355682599
 30
0.0
 10
212.8605170852946
 20
396.1477948250692
 30
0.0
 10
212.6666647002176
 20
395.831373843915
 30
0.0
 10
212.0416544634067
 20
394.9143925401704
 30
0.0
 10
211.5674630718837
 20
394.3458021734886
 30
0.0
 10
210.7669319795523
 20
393.559217034187
 30
0.0
 10
210.4868133243178
 20
393.3100752533115
 30
0.0
 10
209.9084614104964
 20
392.8442947353331
 30
0.0
 10
209.3097158902636
 20
392.4087429518813
 30
0.0
 10
208.6706111998978
 20
392.0330142686663
 30
0.0
 10
208.0109530587384
 20
391.6877513536868
 30
0.0
 10
207.6688889099237
 20
391.5296594839894
 30
0.0
 10
206.6301377842672
 20
391.1106867241712
 30
0.0
 10
205.9191159253973
 20
390.9025528261776
 30
0.0
 10
204.4606976029127
 20
390.6260820174567
 30
0.0
 10
203.7062156522035
 20
390.5588762308407
 30
0.0
 10
202.2207969021097
 20
390.5734437288061
 30
0.0
 10
201.4841820583288
 20
390.6528420348836
 30
0.0
 10
200.3885293501164
 20
390.8816230059348
 30
0.0
 10
200.0236020176966
 20
390.9768751879752
 30
0.0
 10
199.312419523707
 20
391.2005400408002
 30
0.0
 10
198.9643869921449
 20
391.329188517679
 30
0.0
 10
197.9425107747961
 20
391.7645703108794
 30
0.0
 10
197.2889613676161
 20
392.1214265127756
 30
0.0
 10
196.0506110379811
 20
392.9672918095175
 30
0.0
 10
195.4787728051641
 20
393.4469585986698
 30
0.0
 10
194.9543622971633
 20
393.9834256527025
 30
0.0
  0
ARC
  5
A0
330
1F
100
AcDbEntity
  8
0
  6
Continuous
 62
     7
370
    25
100
AcDbCircle
 10
203.0748672477
 20
363.4061455972
 30
0.0
 40
85.25000000000009
100
AcDbArc
 50
90.0
 51
266.6376141055
  0
ARC
  5
A1
330
1F
100
AcDbEntity
  8
0
  6
Continuous
 62
     7
370
    25
100
AcDbCircle
 10
203.0748672477
 20
363.4061455972
 30
0.0
 40
85.25000000000009
100
AcDbArc
 50
273.3623858945
 51
90.0
  0
CIRCLE
  5
A2
330
1F
100
AcDbEntity
  8
0
  6
Continuous
 62
     8
370
    18
100
AcDbCircle
 10
203.0748586388
 20
333.9346467751
 30
0.0
 40
23.37142664851217
  0
SPLINE
  5
A3
330
1F
100
AcDbEntity
  8
0
  6
Continuous
 62
     8
370
    18
100
AcDbSpline
210
0.0
220
0.0
230
1.0
 70
     8
 71
     3
 72
    20
 73
    16
 74
     0
 42
0.00000001
 43
0.00000001
 40
0.0
 40
0.0
 40
0.0
 40
0.0
 40
0.0223327633943269
 40
0.104735415571361
 40
0.1899203626560886
 40
0.2710226953916988
 40
0.3546997944280546
 40
0.4377252135796419
 40
0.5231702280239826
 40
0.6098586112210096
 40
0.6989848046230361
 40
0.787248706606202
 40
0.8779680943504747
 40
0.9644554244801449
 40
0.9999999999999999
 40
0.9999999999999999
 40
0.9999999999999999
 40
0.9999999999999999
 10
201.3403502449479
 20
309.5764792105759
 30
0.0
 10
201.4277867087157
 20
309.5710799187584
 30
0.0
 10
201.8378431897303
 20
309.5457585081333
 30
0.0
 10
202.6087657757193
 20
309.5178478200893
 30
0.0
 10
203.6317818859532
 20
309.5195061999416
 30
0.0
 10
204.6414961060293
 20
309.5601871515016
 30
0.0
 10
205.5933608769991
 20
309.6333959038384
 30
0.0
 10
206.4835008928359
 20
309.7323629359053
 30
0.0
 10
207.281847953755
 20
309.8454277614717
 30
0.0
 10
207.9738423190813
 20
309.9607884525913
 30
0.0
 10
208.5282566322603
 20
310.0625430798572
 30
0.0
 10
208.934454528256
 20
310.1384327833927
 30
0.0
 10
209.1582394205579
 20
310.1728040121845
 30
0.0
 10
209.2322493670438
 20
310.1733434573586
 30
0.0
 10
209.1726811366483
 20
310.1476324669067
 30
0.0
 10
209.1553305310619
 20
310.1401435545854
 30
0.0
  0
SPLINE
  5
A4
330
1F
100
AcDbEntity
  8
0
  6
Continuous
 62
     8
370
    18
100
AcDbSpline
210
0.0
220
0.0
230
1.0
 70
     8
 71
     3
 72
    16
 73
    12
 74
     0
 42
0.00000001
 43
0.00000001
 40
0.0
 40
0.0
 40
0.0
 40
0.0
 40
0.0655667910348882
 40
0.1859542403057489
 40
0.3094935361276872
 40
0.4278009579065807
 40
0.5491396135085072
 40
0.6681030270912416
 40
0.7903879427560779
 40
0.8939549207846054
 40
1.0
 40
1.0
 40
1.0
 40
1.0
 10
196.9973944418794
 20
310.1391051450782
 30
0.0
 10
196.9768188860574
 20
310.1484073307736
 30
0.0
 10
196.9184644692655
 20
310.1747892971149
 30
0.0
 10
197.007340425448
 20
310.1710470801606
 30
0.0
 10
197.2426938735344
 20
310.133372930342
 30
0.0
 10
197.644780468825
 20
310.0581870842009
 30
0.0
 10
198.1863351873889
 20
309.9590654308077
 30
0.0
 10
198.8720950597774
 20
309.8446624125272
 30
0.0
 10
199.6440474181865
 20
309.7359303947698
 30
0.0
 10
200.4740321483282
 20
309.641013727936
 30
0.0
 10
201.0493105041322
 20
309.5981595948128
 30
0.0
 10
201.3403502449479
 20
309.5764792105759
 30
0.0
  0
SPLINE
  5
A5
330
1F
100
AcDbEntity
  8
0
  6
Continuous
 62
     8
370
    18
100
AcDbSpline
210
0.0
220
0.0
230
1.0
 70
     8
 71
     3
 72
    11
 73
     7
 74
     0
 42
0.00000001
 43
0.00000001
 40
0.0
 40
0.0
 40
0.0
 40
0.0
 40
0.2305682701456569
 40
0.4950337005281633
 40
0.7460709073538233
 40
1.0
 40
1.0
 40
1.0
 40
1.0
 10
201.6586459174867
 20
308.0760690353145
 30
0.0
 10
201.197084932466
 20
308.1274582982677
 30
0.0
 10
200.2061062419035
 20
308.2377918536659
 30
0.0
 10
199.0469859187142
 20
308.4907596983782
 30
0.0
 10
198.2296778721343
 20
308.7010800789295
 30
0.0
 10
198.1276122541574
 20
308.7077516284223
 30
0.0
 10
198.0762871859491
 20
308.7111065067796
 30
0.0
  0
SPLINE
  5
A6
330
1F
100
AcDbEntity
  8
0
  6
Continuous
 62
     8
370
    18
100
AcDbSpline
210
0.0
220
0.0
230
1.0
 70
     8
 71
     3
 72
    14
 73
    10
 74
     0
 42
0.00000001
 43
0.00000001
 40
0.0
 40
0.0
 40
0.0
 40
0.0
 40
0.0756286639104828
 40
0.2581668025113578
 40
0.440865936545722
 40
0.6193117546505047
 40
0.7959185144819662
 40
0.9759748877550596
 40
1.0
 40
1.0
 40
1.0
 40
1.0
 10
208.0079239040546
 20
308.6895002848347
 30
0.0
 10
208.023633042193
 20
308.7009458550167
 30
0.0
 10
208.0772579213552
 20
308.740016573763
 30
0.0
 10
207.5698798233925
 20
308.6062912497811
 30
0.0
 10
206.5685939050593
 20
308.3667808867659
 30
0.0
 10
205.1655095968851
 20
308.1235665865044
 30
0.0
 10
203.5416565957644
 20
307.9942137017094
 30
0.0
 10
202.336493645626
 20
308.0211755965301
 30
0.0
 10
201.7300395900645
 20
308.0702874356535
 30
0.0
 10
201.6586459174867
 20
308.0760690353145
 30
0.0
  0
LWPOLYLINE
  5
A7
330
1F
100
AcDbEntity
  8
0
  6
Continuous
 62
     8
370
    18
100
AcDbPolyline
 90
       14
 70
   128
 43
0.0
 10
198.0748672477
 20
229.9055524243
 10
198.2201581605
 20
229.9093115798
 10
198.6475871194
 20
229.9128522668
 10
199.3323135068
 20
229.9159687135
 10
200.234543514
 20
229.9184798034
 10
201.3018428124
 20
229.920239601
 10
202.4721838464
 20
229.9211458332
 10
203.6775506489
 20
229.9211458332
 10
204.8478916829
 20
229.920239601
 10
205.9151909813
 20
229.9184798034
 10
206.8174209885
 20
229.9159687135
 10
207.5021473759
 20
229.9128522668
 10
207.9295763348
 20
229.9093115798
 10
208.0748672477
 20
229.9055524243
  0
LINE
  5
A8
330
1F
100
AcDbEntity
  8
0
  6
Continuous
 62
     8
370
    18
100
AcDbLine
 10
199.0748672477
 20
228.9055573591
 30
0.0
 11
199.0804518876
 21
228.9048935548
 31
0.0
  0
CIRCLE
  5
A9
330
1F
100
AcDbEntity
  8
0
  6
Continuous
 62
     8
370
    18
100
AcDbCircle
 10
203.0748672477
 20
401.9061455972
 30
0.0
 40
10.77434613606385
  0
CIRCLE
  5
AA
330
1F
100
AcDbEntity
  8
0
  6
Continuous
 62
     8
370
    18
100
AcDbCircle
 10
203.0748672477
 20
401.9061455972
 30
0.0
 40
11.25844862367734
  0
ARC
  5
AB
330
1F
100
AcDbEntity
  8
0
  6
Continuous
 62
     8
370
    18
100
AcDbCircle
 10
203.0748672477
 20
363.4061455972
 30
0.0
 40
83.84299899996654
100
AcDbArc
 50
90.0
 51
266.58112213
  0
ARC
  5
AC
330
1F
100
AcDbEntity
  8
0
  6
Continuous
 62
     8
370
    18
100
AcDbCircle
 10
203.0748672477
 20
363.4061455972
 30
0.0
 40
83.84299899996654
100
AcDbArc
 50
273.41887787
 51
90.0
  0
ARC
  5
AD
330
1F
100
AcDbEntity
  8
0
  6
Continuous
 62
     8
370
    18
100
AcDbCircle
 10
203.0748672477
 20
363.4061455972
 30
0.0
 40
85.00775885773243
100
AcDbArc
 50
90.0
 51
266.628021469
  0
ARC
  5
AE
330
1F
100
AcDbEntity
  8
0
  6
Continuous
 62
     8
370
    18
100
AcDbCircle
 10
203.0748672477
 20
363.4061455972
 30
0.0
 40
85.00775885773243
100
AcDbArc
 50
273.371978531
 51
90.0
  0
LINE
  5
AF
330
1F
100
AcDbEntity
  8
0
  6
Continuous
 62
     7
370
    25
100
AcDbLine
 10
117.8248672477
 20
182.4187750998
 30
0.0
 11
118.0671083899
 21
173.1679590982
 31
0.0
  0
LINE
  5
B0
330
1F
100
AcDbEntity
  8
0
  6
Continuous
 62
     7
370
    25
100
AcDbLine
 10
288.0826261054
 20
173.1679590982
 30
0.0
 11
288.3248672477
 21
182.4187750998
 31
0.0
  0
ARC
  5
B1
330
1F
100
AcDbEntity
  8
0
  6
Continuous
 62
     7
370
    25
100
AcDbCircle
 10
286.6831058504
 20
173.2046068258
 30
0.0
 40
1.40000000000003
100
AcDbArc
 50
279.653305255
 51
358.5
  0
ARC
  5
B2
330
1F
100
AcDbEntity
  8
0
  6
Continuous
 62
     7
370
    25
100
AcDbCircle
 10
119.4666286449
 20
173.2046068258
 30
0.0
 40
1.400000000000027
100
AcDbArc
 50
181.5
 51
260.346694745
  0
ARC
  5
B3
330
1F
100
AcDbEntity
  8
0
  6
Continuous
 62
     7
370
    25
100
AcDbCircle
 10
203.0748672477
 20
664.7446585386
 30
0.0
 40
500.0000000000001
100
AcDbArc
 50
260.346694745
 51
268.7015793862
  0
ARC
  5
B4
330
1F
100
AcDbEntity
  8
0
  6
Continuous
 62
     7
370
    25
100
AcDbCircle
 10
203.0748672477
 20
664.7446585386
 30
0.0
 40
500.0000000000001
100
AcDbArc
 50
271.2984206138
 51
279.653305255
  0
LINE
  5
B5
330
1F
100
AcDbEntity
  8
0
  6
Continuous
 62
     7
370
    25
100
AcDbLine
 10
191.7190623204
 20
166.3578449143
 30
0.0
 11
191.816418624
 21
160.7803060184
 31
0.0
  0
LINE
  5
B6
330
1F
100
AcDbEntity
  8
0
  6
Continuous
 62
     7
370
    25
100
AcDbLine
 10
214.3333158713
 20
160.7803060184
 30
0.0
 11
214.4306761049
 21
166.3580700634
 31
0.0
  0
ARC
  5
B7
330
1F
100
AcDbEntity
  8
0
  6
Continuous
 62
     7
370
    25
100
AcDbCircle
 10
192.3163424716
 20
160.7890322216
 30
0.0
 40
0.5000000000000063
100
AcDbArc
 50
181.0
 51
268.1867030123
  0
ARC
  5
B8
330
1F
100
AcDbEntity
  8
0
  6
Continuous
 62
     7
370
    25
100
AcDbCircle
 10
213.8333920238
 20
160.7890322216
 30
0.0
 40
0.5000000000000063
100
AcDbArc
 50
271.8132969877
 51
359.0
  0
ARC
  5
B9
330
1F
100
AcDbEntity
  8
0
  6
Continuous
 62
     7
370
    25
100
AcDbCircle
 10
203.0748672477
 20
500.6187750998
 30
0.0
 40
340.5000000000001
100
AcDbArc
 50
268.1867030123
 51
270.0
  0
ARC
  5
BA
330
1F
100
AcDbEntity
  8
0
  6
Continuous
 62
     7
370
    25
100
AcDbCircle
 10
203.0748672477
 20
500.6187750998
 30
0.0
 40
340.5
100
AcDbArc
 50
270.0
 51
271.8132969877
  0
LINE
  5
BB
330
1F
100
AcDbEntity
  8
0
  6
Continuous
 62
     7
370
    25
100
AcDbLine
 10
178.0780700256
 20
137.2196996662
 30
0.0
 11
178.7035542546
 21
101.385909073
 31
0.0
  0
LINE
  5
BC
330
1F
100
AcDbEntity
  8
0
  6
Continuous
 62
     7
370
    25
100
AcDbLine
 10
227.4461802407
 20
101.385909073
 30
0.0
 11
228.0716741719
 21
137.2202554999
 31
0.0
  0
LINE
  5
BD
330
1F
100
AcDbEntity
  8
0
  6
Continuous
 62
     7
370
    25
100
AcDbLine
 10
227.5748668852
 20
145.4179236868
 30
0.0
 11
227.5748668852
 21
165.345269254
 31
0.0
  0
LINE
  5
BE
330
1F
100
AcDbEntity
  8
0
  6
Continuous
 62
     7
370
    25
100
AcDbLine
 10
178.5748676101
 20
165.345269254
 30
0.0
 11
178.5748676101
 21
145.4179236868
 31
0.0
  0
ARC
  5
BF
330
1F
100
AcDbEntity
  8
0
  6
Continuous
 62
     7
370
    25
100
AcDbCircle
 10
203.0749020431
 20
145.4596429205
 30
0.0
 40
24.50000000000003
100
AcDbArc
 50
340.2661423024
 51
359.9024352176
  0
ARC
  5
C0
330
1F
100
AcDbEntity
  8
0
  6
Continuous
 62
     7
370
    25
100
AcDbCircle
 10
203.0748324522
 20
145.4596429205
 30
0.0
 40
24.5
100
AcDbArc
 50
180.0975647824
 51
199.7174511213
  0
SPLINE
  5
C1
330
1F
100
AcDbEntity
  8
0
  6
Continuous
 62
     7
370
    25
100
AcDbSpline
210
0.0
220
0.0
230
1.0
 70
     8
 71
     3
 72
    14
 73
    10
 74
     0
 42
0.00000001
 43
0.00000001
 40
0.0
 40
0.0
 40
0.0
 40
0.0
 40
0.2169096322000987
 40
0.4239567677865884
 40
0.5964038335696101
 40
0.7424453363448036
 40
0.8595085394582284
 40
0.9469398395474689
 40
1.0
 40
1.0
 40
1.0
 40
1.0
 10
178.7152936894302
 20
101.3651654920432
 30
0.0
 10
178.7243189466967
 20
101.2600504165796
 30
0.0
 10
178.7419590987747
 20
101.0545996618705
 30
0.0
 10
178.8911511784477
 20
100.8008681067743
 30
0.0
 10
179.0673183582682
 20
100.6200603622539
 30
0.0
 10
179.2425292744212
 20
100.5094434369373
 30
0.0
 10
179.3858596322035
 20
100.4522411295919
 30
0.0
 10
179.4740288834685
 20
100.4287875450159
 30
0.0
 10
179.5033435307023
 20
100.4232864902404
 30
0.0
 10
179.5144149501312
 20
100.421208877495
 30
0.0
  0
SPLINE
  5
C2
330
1F
100
AcDbEntity
  8
0
  6
Continuous
 62
     7
370
    25
100
AcDbSpline
210
0.0
220
0.0
230
1.0
 70
     8
 71
     3
 72
    12
 73
     8
 74
     0
 42
0.00000001
 43
0.00000001
 40
0.0
 40
0.0
 40
0.0
 40
0.0
 40
0.0751319116774552
 40
0.2599083249059489
 40
0.4810665902041804
 40
0.7416193878286791
 40
1.0
 40
1.0
 40
1.0
 40
1.0
 10
226.7340736495642
 20
100.4469241359132
 30
0.0
 10
226.7572753500615
 20
100.4537553773546
 30
0.0
 10
226.8375383831265
 20
100.4773871002857
 30
0.0
 10
227.0231996135976
 20
100.5724905417321
 30
0.0
 10
227.2316949031731
 20
100.7610374894543
 30
0.0
 10
227.4038143762208
 20
101.0375648611685
 30
0.0
 10
227.4285067826786
 20
101.2596873958494
 30
0.0
 10
227.4408013063614
 20
101.3702837756632
 30
0.0
  0
LINE
  5
C3
330
1F
100
AcDbEntity
  8
0
  6
Continuous
 62
     7
370
    25
100
AcDbLine
 10
227.9413621559
 20
137.3950146783
 30
0.0
 11
226.2095464388
 21
137.3950146783
 31
0.0
  0
LINE
  5
C4
330
1F
100
AcDbEntity
  8
0
  6
Continuous
 62
     7
370
    25
100
AcDbLine
 10
179.9401880566
 20
137.3950146783
 30
0.0
 11
178.2084142426
 21
137.3950146783
 31
0.0
  0
LINE
  5
C5
330
1F
100
AcDbEntity
  8
0
  6
Continuous
 62
     7
370
    25
100
AcDbLine
 10
203.0748672477
 20
182.4187750998
 30
0.0
 11
117.8248672477
 21
182.4187750998
 31
0.0
  0
LINE
  5
C6
330
1F
100
AcDbEntity
  8
0
  6
Continuous
 62
     7
370
    25
100
AcDbLine
 10
288.3248672477
 20
182.4187750998
 30
0.0
 11
203.0748672477
 21
182.4187750998
 31
0.0
  0
SPLINE
  5
C7
330
1F
100
AcDbEntity
  8
0
  6
Continuous
 62
     7
370
    25
100
AcDbSpline
210
0.0
220
0.0
230
1.0
 70
     8
 71
     3
 72
    27
 73
    23
 74
     0
 42
0.00000001
 43
0.00000001
 40
0.0
 40
0.0
 40
0.0
 40
0.0
 40
0.0221444502851794
 40
0.0767623219539451
 40
0.1298744799973273
 40
0.1845305887926655
 40
0.2375728565610017
 40
0.2921612345906772
 40
0.3450627222414501
 40
0.3995069296898269
 40
0.4522590853185116
 40
0.5065465281811417
 40
0.5592066601663572
 40
0.6133939399960981
 40
0.6660593748262925
 40
0.7202466941490168
 40
0.7730120203533842
 40
0.8272990919446791
 40
0.8802152415505369
 40
0.9346581492091846
 40
0.987710279178611
 40
1.0
 40
1.0
 40
1.0
 40
1.0
 10
191.7573655507278
 20
166.3585134996514
 30
0.0
 10
191.747811971069
 20
166.3788375507919
 30
0.0
 10
191.7146950976252
 20
166.4492895754284
 30
0.0
 10
191.9986522549898
 20
166.5676791215215
 30
0.0
 10
192.5983167505992
 20
166.7096885877987
 30
0.0
 10
193.5097470843873
 20
166.8405333199504
 30
0.0
 10
194.6987675625635
 20
166.9587988457481
 30
0.0
 10
196.1154257435333
 20
167.058895255328
 30
0.0
 10
197.7433567022952
 20
167.139844333387
 30
0.0
 10
199.5053258103232
 20
167.1978520143067
 30
0.0
 10
201.3839767282377
 20
167.2324264479142
 30
0.0
 10
203.2907079668551
 20
167.2420156006442
 30
0.0
 10
205.2074590201214
 20
167.2265980010772
 30
0.0
 10
207.045505754998
 20
167.1869503695872
 30
0.0
 10
208.7871743500969
 20
167.1234951328383
 30
0.0
 10
210.3529487270771
 20
167.0391460021708
 30
0.0
 10
211.7273301873014
 20
166.9347600799225
 30
0.0
 10
212.8453932818869
 20
166.8150414779329
 30
0.0
 10
213.7036956491496
 20
166.6812345128068
 30
0.0
 10
214.2279068314149
 20
166.5394530245169
 30
0.0
 10
214.4592359412271
 20
166.4297012133697
 30
0.0
 10
214.4107439161613
 20
166.3698367042639
 30
0.0
 10
214.4016233687187
 20
166.3585771807714
 30
0.0
  0
SPLINE
  5
C8
330
1F
100
AcDbEntity
  8
0
  6
Continuous
 62
     7
370
    25
100
AcDbSpline
210
0.0
220
0.0
230
1.0
 70
     8
 71
     3
 72
    12
 73
     8
 74
     0
 42
0.00000001
 43
0.00000001
 40
0.0
 40
0.0
 40
0.0
 40
0.0
 40
0.1656314351251207
 40
0.3320468726413662
 40
0.5841157803758222
 40
0.8403712004363026
 40
1.0
 40
1.0
 40
1.0
 40
1.0
 10
178.2165317792112
 20
136.7296979245561
 30
0.0
 10
178.18973347803
 20
136.7991479330448
 30
0.0
 10
178.1360100281752
 20
136.9383766857642
 30
0.0
 10
178.0828326047514
 20
137.131109502476
 30
0.0
 10
178.0696329348775
 20
137.2938755616721
 30
0.0
 10
178.1147216156716
 20
137.383435789411
 30
0.0
 10
178.1824269215887
 20
137.3908679636831
 30
0.0
 10
178.2084142425729
 20
137.393720654411
 30
0.0
  0
ELLIPSE
  5
C9
330
1F
100
AcDbEntity
  8
0
  6
Continuous
 62
     7
370
    25
100
AcDbEllipse
 10
203.0748672477
 20
137.4341515581
 30
0.0
 11
25.00027344184798
 21
1.136868377216160E-13
 31
0.0
210
0.0
220
0.0
230
1.0
 40
0.264809179
 41
3.248202570942714
 42
6.176575389826762
  0
SPLINE
  5
CA
330
1F
100
AcDbEntity
  8
0
  6
Continuous
 62
     7
370
    25
100
AcDbSpline
210
0.0
220
0.0
230
1.0
 70
     8
 71
     3
 72
    12
 73
     8
 74
     0
 42
0.00000001
 43
0.00000001
 40
0.0
 40
0.0
 40
0.0
 40
0.0
 40
0.1533991809398139
 40
0.3197974453040436
 40
0.5718924738666907
 40
0.828200976017898
 40
0.9999999999999999
 40
0.9999999999999999
 40
0.9999999999999999
 40
0.9999999999999999
 10
227.9413621558668
 20
137.3937712076939
 30
0.0
 10
227.9665172349881
 20
137.3912503293938
 30
0.0
 10
228.0189590406754
 20
137.385994952961
 30
0.0
 10
228.0689541359389
 20
137.3232361532099
 30
0.0
 10
228.0790471950562
 20
137.1891701316534
 30
0.0
 10
228.0296592027467
 20
136.9804636998088
 30
0.0
 10
227.9608255687942
 20
136.8015113018702
 30
0.0
 10
227.9332027161035
 20
136.7296979245563
 30
0.0
  0
SPLINE
  5
CB
330
1F
100
AcDbEntity
  8
0
  6
Continuous
 62
     7
370
    25
100
AcDbSpline
210
0.0
220
0.0
230
1.0
 70
     8
 71
     3
 72
    48
 73
    44
 74
     0
 42
0.00000001
 43
0.00000001
 40
0.0
 40
0.0
 40
0.0
 40
0.0
 40
0.0625
 40
0.0625
 40
0.125
 40
0.125
 40
0.1562499999999999
 40
0.1562499999999999
 40
0.1874999999999999
 40
0.1874999999999999
 40
0.2499999999999999
 40
0.2499999999999999
 40
0.2812499999999998
 40
0.2812499999999998
 40
0.3124999999999998
 40
0.3124999999999998
 40
0.3749999999999997
 40
0.3749999999999997
 40
0.4062499999999996
 40
0.4062499999999996
 40
0.4374999999999996
 40
0.4374999999999996
 40
0.4999999999999996
 40
0.4999999999999996
 40
0.5312499999999996
 40
0.5312499999999996
 40
0.5624999999999996
 40
0.5624999999999996
 40
0.6249999999999996
 40
0.6249999999999996
 40
0.6562499999999996
 40
0.6562499999999996
 40
0.6874999999999996
 40
0.6874999999999996
 40
0.7499999999999997
 40
0.7499999999999997
 40
0.8124999999999997
 40
0.8124999999999997
 40
0.8749999999999998
 40
0.8749999999999998
 40
0.9374999999999999
 40
0.9374999999999999
 40
1.0
 40
1.0
 40
1.0
 40
1.0
 10
180.3152619383748
 20
136.7296979245561
 30
0.0
 10
180.5811594454291
 20
136.3938389676614
 30
0.0
 10
180.9555203685103
 20
136.0692465097039
 30
0.0
 10
181.9102075284343
 20
135.4414559779377
 30
0.0
 10
182.4905575859175
 20
135.1382603784677
 30
0.0
 10
183.5213037523176
 20
134.7001097395188
 30
0.0
 10
183.8922388034901
 20
134.5568354806569
 30
0.0
 10
184.6730239336904
 20
134.2817188591569
 30
0.0
 10
185.0845692869692
 20
134.1491048378064
 30
0.0
 10
186.3815358371874
 20
133.7658320106923
 30
0.0
 10
187.3288248648486
 20
133.5296342989946
 30
0.0
 10
188.8775263986372
 20
133.2052024435878
 30
0.0
 10
189.4145802580211
 20
133.1023010055307
 30
0.0
 10
190.5108589712305
 20
132.9104567602108
 30
0.0
 10
191.0725358241247
 20
132.8209794405682
 30
0.0
 10
192.7975138156928
 20
132.5715652771385
 30
0.0
 10
194.0004638273641
 20
132.4305040932859
 30
0.0
 10
195.8870058802846
 20
132.2580058179804
 30
0.0
 10
196.527247387657
 20
132.2073532816119
 30
0.0
 10
197.8111293133941
 20
132.1209968266517
 30
0.0
 10
198.4574968990316
 20
132.0850338462758
 30
0.0
 10
200.4096806072653
 20
131.9984664184259
 30
0.0
 10
201.7284792104807
 20
131.9690229802775
 30
0.0
 10
203.7336426073623
 20
131.9688106734889
 30
0.0
 10
204.4021160126232
 20
131.9761634071698
 30
0.0
 10
205.7240514823918
 20
132.005220495696
 30
0.0
 10
206.3798675433451
 20
132.0269206580494
 30
0.0
 10
208.3320706262697
 20
132.1132437682704
 30
0.0
 10
209.6133281771135
 20
132.1989283730458
 30
0.0
 10
211.5036988784212
 20
132.3713280153828
 30
0.0
 10
212.1223765390168
 20
132.4356235411929
 30
0.0
 10
213.3285584882033
 20
132.5765912275452
 30
0.0
 10
213.9175292009167
 20
132.6533965314787
 30
0.0
 10
215.6425968118197
 20
132.9025457032636
 30
0.0
 10
216.7371690610411
 20
133.0934796256869
 30
0.0
 10
218.8106485780219
 20
133.5271292042956
 30
0.0
 10
219.7607511803144
 20
133.7638795130972
 30
0.0
 10
221.4903688002678
 20
134.2745125384338
 30
0.0
 10
222.2714395977997
 20
134.5488801597014
 30
0.0
 10
223.65393401683
 20
135.1355181223945
 30
0.0
 10
224.2365796233345
 20
135.4396985533265
 30
0.0
 10
225.193898840106
 20
136.0688590837926
 30
0.0
 10
225.5685750173744
 20
136.3938389265963
 30
0.0
 10
225.8344725569398
 20
136.7296979245563
 30
0.0
  0
SPLINE
  5
CC
330
1F
100
AcDbEntity
  8
0
  6
Continuous
 62
     7
370
    25
100
AcDbSpline
210
0.0
220
0.0
230
1.0
 70
     8
 71
     3
 72
     9
 73
     5
 74
     0
 42
0.00000001
 43
0.00000001
 40
0.0
 40
0.0
 40
0.0
 40
0.0
 40
0.6230745555796101
 40
1.0
 40
1.0
 40
1.0
 40
1.0
 10
226.1172440783375
 20
137.1931476583607
 30
0.0
 10
226.0923259226647
 20
137.123342124759
 30
0.0
 10
226.0523336690095
 20
137.0113081266176
 30
0.0
 10
225.8941107870426
 20
136.8067871024747
 30
0.0
 10
225.8344725569398
 20
136.7296979245563
 30
0.0
  0
SPLINE
  5
CD
330
1F
100
AcDbEntity
  8
0
  6
Continuous
 62
     7
370
    25
100
AcDbSpline
210
0.0
220
0.0
230
1.0
 70
     8
 71
     3
 72
     9
 73
     5
 74
     0
 42
0.00000001
 43
0.00000001
 40
0.0
 40
0.0
 40
0.0
 40
0.0
 40
0.840671097572376
 40
1.0
 40
1.0
 40
1.0
 40
1.0
 10
180.3152619383748
 20
136.7296979245561
 30
0.0
 10
180.1803200724199
 20
136.9041055537911
 30
0.0
 10
180.0198032349259
 20
137.1115679368071
 30
0.0
 10
180.0240582191089
 20
137.1876244665218
 30
0.0
 10
180.0247361610686
 20
137.1997424699237
 30
0.0
  0
LWPOLYLINE
  5
CE
330
1F
100
AcDbEntity
  8
0
  6
Continuous
 62
     7
370
    25
100
AcDbPolyline
 90
       15
 70
   128
 43
0.0
 10
203.0748672477
 20
100.3299470236
 10
205.6916411196
 20
100.3304086952
 10
208.2755075418
 20
100.3317879041
 10
210.7939728949
 20
100.3340673061
 10
213.2153660157
 20
100.3372182362
 10
215.5092364808
 20
100.3412010698
 10
217.6467375382
 20
100.3459657204
 10
219.600988872
 20
100.3514522698
 10
221.3474146376
 20
100.3575917213
 10
222.8640525178
 20
100.3643068679
 10
224.1318299113
 20
100.3715132626
 10
225.1348037818
 20
100.3791202809
 10
225.8603611509
 20
100.3870322602
 10
226.2993777137
 20
100.3951497026
 10
226.4450511128
 20
100.4026016524
  0
LWPOLYLINE
  5
CF
330
1F
100
AcDbEntity
  8
0
  6
Continuous
 62
     7
370
    25
100
AcDbPolyline
 90
       29
 70
   128
 43
0.0
 10
226.4450423727
 20
100.4041420183
 10
226.2993777137
 20
100.4115913507
 10
225.8603611509
 20
100.4197087931
 10
225.1348037818
 20
100.4276207723
 10
224.1318299113
 20
100.4352277907
 10
222.8640525178
 20
100.4424341854
 10
221.3474146376
 20
100.449149332
 10
219.600988872
 20
100.4552887835
 10
217.6467375382
 20
100.4607753329
 10
215.5092364808
 20
100.4655399834
 10
213.2153660157
 20
100.469522817
 10
210.7939728949
 20
100.4726737472
 10
208.2755075418
 20
100.4749531491
 10
205.6916411196
 20
100.4763323581
 10
203.0748672477
 20
100.4767940297
 10
200.4580933757
 20
100.4763323581
 10
197.8742269535
 20
100.4749531491
 10
195.3557616004
 20
100.4726737472
 10
192.9343684797
 20
100.469522817
 10
190.6404980145
 20
100.4655399834
 10
188.5029969571
 20
100.4607753329
 10
186.5487456233
 20
100.4552887835
 10
184.8023198577
 20
100.449149332
 10
183.2856819775
 20
100.4424341854
 10
182.017904584
 20
100.4352277907
 10
181.0149307135
 20
100.4276207723
 10
180.2893733444
 20
100.4197087931
 10
179.8503567816
 20
100.4115913507
 10
179.7041077462
 20
100.403941157
  0
LWPOLYLINE
  5
D0
330
1F
100
AcDbEntity
  8
0
  6
Continuous
 62
     7
370
    25
100
AcDbPolyline
 90
       15
 70
   128
 43
0.0
 10
179.70629988
 20
100.4022143069
 10
179.8503567816
 20
100.3951497026
 10
180.2893733444
 20
100.3870322602
 10
181.0149307135
 20
100.3791202809
 10
182.017904584
 20
100.3715132626
 10
183.2856819775
 20
100.3643068679
 10
184.8023198577
 20
100.3575917213
 10
186.5487456233
 20
100.3514522698
 10
188.5029969571
 20
100.3459657204
 10
190.6404980145
 20
100.3412010698
 10
192.9343684797
 20
100.3372182362
 10
195.3557616004
 20
100.3340673061
 10
197.8742269535
 20
100.3317879041
 10
200.4580933757
 20
100.3304086952
 10
203.0748672477
 20
100.3299470236
  0
LINE
  5
D1
330
1F
100
AcDbEntity
  8
0
  6
Continuous
 62
     8
370
    18
100
AcDbLine
 10
203.0748672477
 20
173.1679590982
 30
0.0
 11
118.0671083899
 21
173.1679590982
 31
0.0
  0
LINE
  5
D2
330
1F
100
AcDbEntity
  8
0
  6
Continuous
 62
     8
370
    18
100
AcDbLine
 10
288.0826261054
 20
173.1679590982
 30
0.0
 11
203.0748672477
 21
173.1679590982
 31
0.0
  0
LINE
  5
D3
330
1F
100
AcDbEntity
  8
0
  6
Continuous
 62
     8
370
    18
100
AcDbLine
 10
203.0748672477
 20
171.8244301865
 30
0.0
 11
119.2318682477
 21
171.8244301865
 31
0.0
  0
LINE
  5
D4
330
1F
100
AcDbEntity
  8
0
  6
Continuous
 62
     8
370
    18
100
AcDbLine
 10
286.9178662476
 20
171.8244301865
 30
0.0
 11
203.0748672477
 21
171.8244301865
 31
0.0
  0
LINE
  5
D5
330
1F
100
AcDbEntity
  8
0
  6
Continuous
 62
     8
370
    18
100
AcDbLine
 10
191.816418624
 20
160.7803060184
 30
0.0
 11
214.3333158713
 21
160.7803060184
 31
0.0
  0
LINE
  5
D6
330
1F
100
AcDbEntity
  8
0
  6
Continuous
 62
     8
370
    18
100
AcDbLine
 10
203.0748672477
 20
160.2892825997
 30
0.0
 11
192.3005211116
 21
160.2892825997
 31
0.0
  0
LINE
  5
D7
330
1F
100
AcDbEntity
  8
0
  6
Continuous
 62
     8
370
    18
100
AcDbLine
 10
213.8492133837
 20
160.2892825997
 30
0.0
 11
203.0748672477
 21
160.2892825997
 31
0.0
  0
LWPOLYLINE
  5
D8
330
1F
100
AcDbEntity
  8
0
  6
Continuous
 62
     8
370
    18
100
AcDbPolyline
 90
       16
 70
   128
 43
0.0
 10
203.0748672477
 20
101.4624778836
 10
205.7559120373
 20
101.4620131882
 10
208.4044125751
 20
101.460624743
 10
210.9882196522
 20
101.4583294017
 10
213.4759693508
 20
101.4551550267
 10
215.8374637596
 20
101.4511401505
 10
218.0440375354
 20
101.4463335085
 10
220.0689058617
 20
101.4407934466
 10
221.88748958
 20
101.4345872137
 10
223.4777135474
 20
101.4277901451
 10
224.8202745991
 20
101.4204847479
 10
225.8988758627
 20
101.4127596999
 10
226.7004245799
 20
101.4047087726
 10
227.2151910352
 20
101.3964296934
 10
227.436926661
 20
101.3880229591
 10
227.4461802407
 20
101.385909073
  0
LWPOLYLINE
  5
D9
330
1F
100
AcDbEntity
  8
0
  6
Continuous
 62
     8
370
    18
100
AcDbPolyline
 90
       16
 70
   128
 43
0.0
 10
178.7035542546
 20
101.385909073
 10
178.7128078343
 20
101.3880229591
 10
178.9345434601
 20
101.3964296934
 10
179.4493099154
 20
101.4047087726
 10
180.2508586326
 20
101.4127596999
 10
181.3294598962
 20
101.4204847479
 10
182.672020948
 20
101.4277901451
 10
184.2622449153
 20
101.4345872137
 10
186.0808286336
 20
101.4407934466
 10
188.1056969599
 20
101.4463335085
 10
190.3122707357
 20
101.4511401505
 10
192.6737651445
 20
101.4551550267
 10
195.1615148431
 20
101.4583294017
 10
197.7453219202
 20
101.460624743
 10
200.393822458
 20
101.4620131882
 10
203.0748672477
 20
101.4624778836
  0
LINE
  5
DA
330
1F
100
AcDbEntity
  8
0
  6
Continuous
 62
     8
370
    18
100
AcDbLine
 10
227.9332027161
 20
136.7296979246
 30
0.0
 11
225.8344725569
 21
136.7296979246
 31
0.0
  0
LINE
  5
DB
330
1F
100
AcDbEntity
  8
0
  6
Continuous
 62
     8
370
    18
100
AcDbLine
 10
180.3152619384
 20
136.7296979246
 30
0.0
 11
178.2165317792
 21
136.7296979246
 31
0.0
  0
LINE
  5
DC
330
1F
100
AcDbEntity
  8
0
  6
Continuous
 62
     8
370
    18
100
AcDbLine
 10
227.5748665228
 20
145.4179236868
 30
0.0
 11
178.5748679726
 21
145.4179236868
 31
0.0
  0
LWPOLYLINE
  5
DD
330
1F
100
AcDbEntity
  8
0
  6
Continuous
 62
     8
370
    18
100
AcDbPolyline
 90
        3
 70
   128
 43
0.0
 10
226.4450511128
 20
100.4026016524
 10
226.4463325822
 20
100.4033705266
 10
226.4450423727
 20
100.4041420183
  0
LWPOLYLINE
  5
DE
330
1F
100
AcDbEntity
  8
0
  6
Continuous
 62
     8
370
    18
100
AcDbPolyline
 90
        3
 70
   128
 43
0.0
 10
179.7041077462
 20
100.403941157
 10
179.7034019131
 20
100.4033705266
 10
179.70629988
 20
100.4022143069
  0
LINE
  5
DF
330
1F
100
AcDbEntity
  8
0
  6
Continuous
 62
     7
370
    25
100
AcDbLine
 10
386.8810673624
 20
278.1561455972
 30
0.0
 11
396.1318833639
 21
278.3983867395
 31
0.0
  0
LINE
  5
E0
330
1F
100
AcDbEntity
  8
0
  6
Continuous
 62
     7
370
    25
100
AcDbLine
 10
396.1318833639
 20
448.4139044549
 30
0.0
 11
386.8810673624
 21
448.6561455972
 31
0.0
  0
ARC
  5
E1
330
1F
100
AcDbEntity
  8
0
  6
Continuous
 62
     7
370
    25
100
AcDbCircle
 10
396.0952356363
 20
447.0143842
 30
0.0
 40
1.400000000000086
100
AcDbArc
 50
9.653305255
 51
88.5
  0
ARC
  5
E2
330
1F
100
AcDbEntity
  8
0
  6
Continuous
 62
     7
370
    25
100
AcDbCircle
 10
396.0952356363
 20
279.7979069944
 30
0.0
 40
1.400000000000076
100
AcDbArc
 50
271.5
 51
350.346694745
  0
ARC
  5
E3
330
1F
100
AcDbEntity
  8
0
  6
Continuous
 62
     7
370
    25
100
AcDbCircle
 10
-95.4448160764
 20
363.4061455972
 30
0.0
 40
500.0
100
AcDbArc
 50
359.4202397485
 51
0.0
  0
ARC
  5
E4
330
1F
100
AcDbEntity
  8
0
  6
Continuous
 62
     7
370
    25
100
AcDbCircle
 10
-95.4448160764
 20
363.4061455972
 30
0.0
 40
500.0000000000001
100
AcDbArc
 50
350.346694745
 51
353.8052246137
  0
ARC
  5
E5
330
1F
100
AcDbEntity
  8
0
  6
Continuous
 62
     7
370
    25
100
AcDbCircle
 10
-95.4448160764
 20
363.4061455972
 30
0.0
 40
500.0000000000002
100
AcDbArc
 50
5.7222783464
 51
9.653305255
  0
ARC
  5
E6
330
1F
100
AcDbEntity
  8
0
  6
Continuous
 62
     7
370
    25
100
AcDbCircle
 10
-95.4448160764
 20
363.4061455972
 30
0.0
 40
500.0
100
AcDbArc
 50
0.0
 51
3.1182193873
  0
LINE
  5
E7
330
1F
100
AcDbEntity
  8
0
  6
Continuous
 62
     7
370
    25
100
AcDbLine
 10
466.0235392468
 20
309.5197756748
 30
0.0
 11
467.9904938026
 21
309.5602906063
 31
0.0
  0
LINE
  5
E8
330
1F
100
AcDbEntity
  8
0
  6
Continuous
 62
     7
370
    25
100
AcDbLine
 10
446.2104197341
 20
309.1116690525
 30
0.0
 11
453.0683165217
 21
309.2529266213
 31
0.0
  0
LINE
  5
E9
330
1F
100
AcDbEntity
  8
0
  6
Continuous
 62
     7
370
    25
100
AcDbLine
 10
431.9751942102
 20
308.8184547607
 30
0.0
 11
438.236743787
 21
308.9474288905
 31
0.0
  0
LINE
  5
EA
330
1F
100
AcDbEntity
  8
0
  6
Continuous
 62
     7
370
    25
100
AcDbLine
 10
467.8373645786
 20
358.3026761306
 30
0.0
 11
438.4859927898
 21
358.7227728368
 31
0.0
  0
LINE
  5
EB
330
1F
100
AcDbEntity
  8
0
  6
Continuous
 62
     7
370
    25
100
AcDbLine
 10
423.8819187753
 20
358.4061452348
 30
0.0
 11
404.5266953976
 21
358.4061452348
 31
0.0
  0
LINE
  5
EC
330
1F
100
AcDbEntity
  8
0
  6
Continuous
 62
     7
370
    25
100
AcDbLine
 10
401.6333692493
 20
309.4061459597
 30
0.0
 11
423.8819187753
 21
309.4061459597
 31
0.0
  0
ARC
  5
ED
330
1F
100
AcDbEntity
  8
0
  6
Continuous
 62
     7
370
    25
100
AcDbCircle
 10
423.8401995416
 20
333.9061803926
 30
0.0
 40
24.50000000000002
100
AcDbArc
 50
56.5711119697
 51
89.9024352176
  0
ARC
  5
EE
330
1F
100
AcDbEntity
  8
0
  6
Continuous
 62
     7
370
    25
100
AcDbCircle
 10
423.8401995416
 20
333.9061108018
 30
0.0
 40
24.49999999999998
100
AcDbArc
 50
270.0975647824
 51
289.4333920894
  0
ARC
  5
EF
330
1F
100
AcDbEntity
  8
0
  6
Continuous
 62
     7
370
    25
100
AcDbCircle
 10
467.9699003733
 20
310.5600785391
 30
0.0
 40
1.0
100
AcDbArc
 50
271.18
 51
0.18
  0
ARC
  5
F0
330
1F
100
AcDbEntity
  8
0
  6
Continuous
 62
     7
370
    25
100
AcDbCircle
 10
467.8230533673
 20
357.3027785413
 30
0.0
 40
1.00000000000002
100
AcDbArc
 50
0.18
 51
89.18
  0
LINE
  5
F1
330
1F
100
AcDbEntity
  8
0
  6
Continuous
 62
     7
370
    25
100
AcDbLine
 10
403.8146737162
 20
390.5655732891
 30
0.0
 11
408.5195364437
 21
390.6476969735
 31
0.0
  0
LINE
  5
F2
330
1F
100
AcDbEntity
  8
0
  6
Continuous
 62
     7
370
    25
100
AcDbLine
 10
408.5195364437
 20
413.1645942209
 30
0.0
 11
402.0634973672
 21
413.2772848022
 31
0.0
  0
ARC
  5
F3
330
1F
100
AcDbEntity
  8
0
  6
Continuous
 62
     7
370
    25
100
AcDbCircle
 10
408.5108102405
 20
391.1476208211
 30
0.0
 40
0.5000000000000285
100
AcDbArc
 50
271.0
 51
358.1867030123
  0
ARC
  5
F4
330
1F
100
AcDbEntity
  8
0
  6
Continuous
 62
     7
370
    25
100
AcDbCircle
 10
408.5108102405
 20
412.6646703733
 30
0.0
 40
0.5000000000000268
100
AcDbArc
 50
1.8132969877
 51
89.0
  0
ARC
  5
F5
330
1F
100
AcDbEntity
  8
0
  6
Continuous
 62
     7
370
    25
100
AcDbCircle
 10
68.6810673624
 20
401.9061455972
 30
0.0
 40
340.5000000000001
100
AcDbArc
 50
358.1867030123
 51
0.0
  0
ARC
  5
F6
330
1F
100
AcDbEntity
  8
0
  6
Continuous
 62
     7
370
    25
100
AcDbCircle
 10
68.6810673624
 20
401.9061455972
 30
0.0
 40
340.5000000000001
100
AcDbArc
 50
0.0
 51
1.8132969877
  0
SPLINE
  5
F7
330
1F
100
AcDbEntity
  8
0
  6
Continuous
 62
     7
370
    25
100
AcDbSpline
210
0.0
220
0.0
230
1.0
 70
     8
 71
     3
 72
    14
 73
    10
 74
     0
 42
0.00000001
 43
0.00000001
 40
0.0
 40
0.0
 40
0.0
 40
0.0
 40
0.0320795791307089
 40
0.2702697656237237
 40
0.4860636532988288
 40
0.6613134383427964
 40
0.8094129320178189
 40
0.9328806802327114
 40
1.0
 40
1.0
 40
1.0
 40
1.0
 10
464.588610444853
 20
308.040378102973
 30
0.0
 10
464.5853284702821
 20
308.0645459425822
 30
0.0
 10
464.5576779049658
 20
308.2681594725552
 30
0.0
 10
464.6866963267164
 20
308.6368761279502
 30
0.0
 10
464.9442446804115
 20
309.0398250772413
 30
0.0
 10
465.2677136680215
 20
309.3019746328119
 30
0.0
 10
465.5768883787844
 20
309.4450959528418
 30
0.0
 10
465.828371280961
 20
309.5089204667075
 30
0.0
 10
465.9730470033626
 20
309.5144735350224
 30
0.0
 10
466.0239976590248
 20
309.5164291670171
 30
0.0
  0
SPLINE
  5
F8
330
1F
100
AcDbEntity
  8
0
  6
Continuous
 62
     7
370
    25
100
AcDbSpline
210
0.0
220
0.0
230
1.0
 70
     8
 71
     3
 72
    13
 73
     9
 74
     0
 42
0.00000001
 43
0.00000001
 40
0.0
 40
0.0
 40
0.0
 40
0.0
 40
0.0364898801699894
 40
0.2744133668240686
 40
0.4713478623823272
 40
0.6933735065266325
 40
0.9252537299582028
 40
0.9999999999999999
 40
0.9999999999999999
 40
0.9999999999999999
 40
0.9999999999999999
 10
453.0668560877302
 20
309.2518250372662
 30
0.0
 10
453.0946373183813
 20
309.2531400460241
 30
0.0
 10
453.3035593812099
 20
309.2630292530855
 30
0.0
 10
453.6748975563788
 20
309.1629743713291
 30
0.0
 10
454.1124339815379
 20
308.8858266652446
 30
0.0
 10
454.4253617917551
 20
308.4790937724224
 30
0.0
 10
454.585346205895
 20
308.0781447912865
 30
0.0
 10
454.5667349705331
 20
307.8387150784695
 30
0.0
 10
454.5621981139543
 20
307.7803493522483
 30
0.0
  0
LINE
  5
F9
330
1F
100
AcDbEntity
  8
0
  6
Continuous
 62
     7
370
    25
100
AcDbLine
 10
454.5785785215
 20
307.7766985687
 30
0.0
 11
454.8232680951
 21
229.8898444869
 31
0.0
  0
LINE
  5
FA
330
1F
100
AcDbEntity
  8
0
  6
Continuous
 62
     7
370
    25
100
AcDbLine
 10
464.8232187471
 20
229.9212603617
 30
0.0
 11
464.5778234522
 21
308.0327518002
 31
0.0
  0
ARC
  5
FB
330
1F
100
AcDbEntity
  8
0
  6
Continuous
 62
     7
370
    25
100
AcDbCircle
 10
455.8232631603
 20
229.8929860744
 30
0.0
 40
1.0
100
AcDbArc
 50
180.18
 51
270.18
  0
ARC
  5
FC
330
1F
100
AcDbEntity
  8
0
  6
Continuous
 62
     7
370
    25
100
AcDbCircle
 10
463.8232236819
 20
229.9181187743
 30
0.0
 40
1.000000000000029
100
AcDbArc
 50
270.18
 51
0.18
  0
LINE
  5
FD
330
1F
100
AcDbEntity
  8
0
  6
Continuous
 62
     7
370
    25
100
AcDbLine
 10
438.2248140027
 20
308.9492956289
 30
0.0
 11
438.2256346058
 21
308.6880904227
 31
0.0
  0
LINE
  5
FE
330
1F
100
AcDbEntity
  8
0
  6
Continuous
 62
     7
370
    25
100
AcDbLine
 10
446.2255951274
 20
308.7132231225
 30
0.0
 11
446.2243361604
 21
309.1139634439
 31
0.0
  0
LINE
  5
FF
330
1F
100
AcDbEntity
  8
0
  6
Continuous
 62
     7
370
    25
100
AcDbLine
 10
438.2256346058
 20
308.6880904227
 30
0.0
 11
438.4461015662
 21
308.0882327088
 31
0.0
  0
LINE
  5
100
330
1F
100
AcDbEntity
  8
0
  6
Continuous
 62
     7
370
    25
100
AcDbLine
 10
446.0089015113
 20
308.1119920237
 30
0.0
 11
446.2255951274
 21
308.7132231225
 31
0.0
  0
ARC
  5
101
330
1F
100
AcDbEntity
  8
0
  6
Continuous
 62
     7
370
    25
100
AcDbCircle
 10
445.8207490173
 20
308.1798052895
 30
0.0
 40
0.2000000000000691
100
AcDbArc
 50
270.18
 51
340.18
  0
ARC
  5
102
330
1F
100
AcDbEntity
  8
0
  6
Continuous
 62
     7
370
    25
100
AcDbCircle
 10
438.6338242656
 20
308.1572268252
 30
0.0
 40
0.200000000000068
100
AcDbArc
 50
200.18
 51
270.18
  0
LINE
  5
103
330
1F
100
AcDbEntity
  8
0
  6
Continuous
 62
     7
370
    25
100
AcDbLine
 10
438.6344525831
 20
307.9572278122
 30
0.0
 11
445.8213773348
 21
307.9798062765
 31
0.0
  0
LINE
  5
104
330
1F
100
AcDbEntity
  8
0
  6
Continuous
 62
     7
370
    25
100
AcDbLine
 10
386.8810673624
 20
448.6561455972
 30
0.0
 11
386.8810673624
 21
278.1561455972
 31
0.0
  0
SPLINE
  5
105
330
1F
100
AcDbEntity
  8
0
  6
Continuous
 62
     7
370
    25
100
AcDbSpline
210
0.0
220
0.0
230
1.0
 70
     8
 71
     3
 72
    16
 73
    12
 74
     0
 42
0.00000001
 43
0.00000001
 40
0.0
 40
0.0
 40
0.0
 40
0.0
 40
0.1056648388479065
 40
0.2120620344809076
 40
0.3207706008809375
 40
0.4302785776761445
 40
0.5359437089950515
 40
0.750870033304223
 40
0.860389696689767
 40
0.9659538679694112
 40
1.0
 40
1.0
 40
1.0
 40
1.0
 10
402.0544888025098
 20
316.5512021612278
 30
0.0
 10
402.0268824375219
 20
316.0856613490061
 30
0.0
 10
401.9714783694538
 20
315.1513530885666
 30
0.0
 10
401.8972771665685
 20
313.9003188656249
 30
0.0
 10
401.8301212550336
 20
312.7682116259681
 30
0.0
 10
401.7722677668121
 20
311.7930529711795
 30
0.0
 10
401.7079538227907
 20
310.7091125054489
 30
0.0
 10
401.6619512057028
 20
309.9339037517756
 30
0.0
 10
401.6388110424975
 20
309.543980694904
 30
0.0
 10
401.628618674576
 20
309.3722385240885
 30
0.0
 10
401.6324456846344
 20
309.4367245828798
 30
0.0
 10
401.6333789602354
 20
309.4524505058217
 30
0.0
  0
SPLINE
  5
106
330
1F
100
AcDbEntity
  8
0
  6
Continuous
 62
     7
370
    25
100
AcDbSpline
210
0.0
220
0.0
230
1.0
 70
     8
 71
     3
 72
    30
 73
    26
 74
     0
 42
0.00000001
 43
0.00000001
 40
0.0
 40
0.0
 40
0.0
 40
0.0
 40
0.0155626131514253
 40
0.0519162029510111
 40
0.0869659445971408
 40
0.1582556585649071
 40
0.1945805902219551
 40
0.2296444569892206
 40
0.3009608596004456
 40
0.3372979951508914
 40
0.3724088444395557
 40
0.4438199114107192
 40
0.4802047542715598
 40
0.515375128726758
 40
0.5869079069422083
 40
0.6233553369831513
 40
0.65857189995464
 40
0.7302005403616002
 40
0.766698251775142
 40
0.8019273108159052
 40
0.8374011723588912
 40
0.8736475732490312
 40
0.9101611274990468
 40
0.9548284287189953
 40
0.9999999999999999
 40
0.9999999999999999
 40
0.9999999999999999
 40
0.9999999999999999
 10
404.5266873277078
 20
358.3468951103017
 30
0.0
 10
404.5278475107092
 20
358.3665580186533
 30
0.0
 10
404.5317178309166
 20
358.4321526286751
 30
0.0
 10
404.5203653160428
 20
358.2397473978477
 30
0.0
 10
404.495278144001
 20
357.8145766312961
 30
0.0
 10
404.4481566674088
 20
357.0160193397459
 30
0.0
 10
404.3825828671522
 20
355.9049209736928
 30
0.0
 10
404.3046535753609
 20
354.5846115073439
 30
0.0
 10
404.2090715632681
 20
352.9655070324606
 30
0.0
 10
404.0979650092551
 20
351.0839013693251
 30
0.0
 10
403.9772333610433
 20
349.0396502495784
 30
0.0
 10
403.8431302350547
 20
346.7696099116099
 30
0.0
 10
403.6988604220268
 20
344.3282761410604
 30
0.0
 10
403.5486493213845
 20
341.7869664261582
 30
0.0
 10
403.3908935088585
 20
339.1189200655743
 30
0.0
 10
403.2295002171694
 20
336.3903622773212
 30
0.0
 10
403.0665916241713
 20
333.6368574091111
 30
0.0
 10
402.9028740287476
 20
330.8706994118705
 30
0.0
 10
402.7425543818762
 20
328.1629479160313
 30
0.0
 10
402.6250135122698
 20
326.1781918301476
 30
0.0
 10
402.5109320616432
 20
324.2522955161821
 30
0.0
 10
402.3994929415474
 20
322.3714326488134
 30
0.0
 10
402.2841272410428
 20
320.4247320533988
 30
0.0
 10
402.1666504777122
 20
318.4428558656373
 30
0.0
 10
402.0920156705392
 20
317.1841085331653
 30
0.0
 10
402.0544888025098
 20
316.5512021612278
 30
0.0
  0
SPLINE
  5
107
330
1F
100
AcDbEntity
  8
0
  6
Continuous
 62
     7
370
    25
100
AcDbSpline
210
0.0
220
0.0
230
1.0
 70
     8
 71
     3
 72
    21
 73
    17
 74
     0
 42
0.00000001
 43
0.00000001
 40
0.0
 40
0.0
 40
0.0
 40
0.0
 40
0.0710425374539986
 40
0.1441489197703975
 40
0.2151901517632135
 40
0.2882849603284811
 40
0.3594421857671649
 40
0.4326601852582442
 40
0.5038597000283219
 40
0.5771289583075669
 40
0.6482347816545554
 40
0.7214132434414746
 40
0.7923303439718983
 40
0.8653155378553705
 40
0.9360324513117982
 40
1.0
 40
1.0
 40
1.0
 40
1.0
 10
403.5532674347906
 20
393.9834256527026
 30
0.0
 10
403.5168164610823
 20
394.4556513989713
 30
0.0
 10
403.4428555825306
 20
395.4138214426085
 30
0.0
 10
403.3135904980983
 20
397.0879732961237
 30
0.0
 10
403.1737573930682
 20
398.8985174003129
 30
0.0
 10
403.0281698056623
 20
400.7830224822437
 30
0.0
 10
402.8787202385694
 20
402.7169396284006
 30
0.0
 10
402.73217217235
 20
404.6127414458398
 30
0.0
 10
402.5901509475722
 20
406.4494451663346
 30
0.0
 10
402.4593118647828
 20
408.1410657781693
 30
0.0
 10
402.3410357791033
 20
409.6698734061063
 30
0.0
 10
402.2409764363319
 20
410.9629287612223
 30
0.0
 10
402.1598917367794
 20
412.0105846051511
 30
0.0
 10
402.1023953837905
 20
412.753362707818
 30
0.0
 10
402.0674235511436
 20
413.2051100609032
 30
0.0
 10
402.0645586297148
 20
413.2421158907512
 30
0.0
 10
402.063197953078
 20
413.2596915797717
 30
0.0
  0
SPLINE
  5
108
330
1F
100
AcDbEntity
  8
0
  6
Continuous
 62
     7
370
    25
100
AcDbSpline
210
0.0
220
0.0
230
1.0
 70
     8
 71
     3
 72
    12
 73
     8
 74
     0
 42
0.00000001
 43
0.00000001
 40
0.0
 40
0.0
 40
0.0
 40
0.0
 40
0.1021419726562043
 40
0.3163049322137123
 40
0.5243199565598348
 40
0.7383522254940141
 40
1.0
 40
1.0
 40
1.0
 40
1.0
 10
403.8139918456706
 20
390.6046373109018
 30
0.0
 10
403.8145844992231
 20
390.5969549255702
 30
0.0
 10
403.8164197804192
 20
390.573164741101
 30
0.0
 10
403.792934525244
 20
390.8775969904651
 30
0.0
 10
403.744824512414
 20
391.5011749016128
 30
0.0
 10
403.668764390312
 20
392.4869467579539
 30
0.0
 10
403.5942526256906
 20
393.4523859131512
 30
0.0
 10
403.5532674347906
 20
393.9834256527026
 30
0.0
  0
LINE
  5
109
330
1F
100
AcDbEntity
  8
0
  6
Continuous
 62
     7
370
    25
100
AcDbLine
 10
438.4859927898
 20
358.7227728368
 30
0.0
 11
432.5701445376
 21
336.3637907301
 31
0.0
  0
LINE
  5
10A
330
1F
100
AcDbEntity
  8
0
  6
Continuous
 62
     7
370
    25
100
AcDbLine
 10
431.9751942102
 20
308.8184547607
 30
0.0
 11
431.9049264798
 21
331.1852944325
 31
0.0
  0
SPLINE
  5
10B
330
1F
100
AcDbEntity
  8
0
  6
Continuous
 62
     7
370
    25
100
AcDbSpline
210
0.0
220
0.0
230
1.0
 70
     8
 71
     3
 72
    12
 73
     8
 74
     0
 42
0.00000001
 43
0.00000001
 40
0.0
 40
0.0
 40
0.0
 40
0.0
 40
0.2115240067272424
 40
0.4291246675066092
 40
0.6406666569724182
 40
0.8584635577155633
 40
1.0
 40
1.0
 40
1.0
 40
1.0
 10
439.3961126437047
 20
309.1327097530607
 30
0.0
 10
439.247442098529
 20
309.1117648615364
 30
0.0
 10
438.9458300061067
 20
309.0692733743982
 30
0.0
 10
438.606991662915
 20
309.0140606875769
 30
0.0
 10
438.3659362421309
 20
308.972667434777
 30
0.0
 10
438.2371698689983
 20
308.9494239051597
 30
0.0
 10
438.2368360268975
 20
308.9493599213734
 30
0.0
 10
438.2367045311036
 20
308.9493347190435
 30
0.0
  0
SPLINE
  5
10C
330
1F
100
AcDbEntity
  8
0
  6
Continuous
 62
     7
370
    25
100
AcDbSpline
210
0.0
220
0.0
230
1.0
 70
     8
 71
     3
 72
    21
 73
    17
 74
     0
 42
0.00000001
 43
0.00000001
 40
0.0
 40
0.0
 40
0.0
 40
0.0
 40
0.0436945304724979
 40
0.1135028132772377
 40
0.1853233606044018
 40
0.2553844100594367
 40
0.3274413146420482
 40
0.3981224070853924
 40
0.470854315050195
 40
0.5414649293539073
 40
0.6141661930354712
 40
0.6840355784804475
 40
0.7559468445567958
 40
0.825598430314835
 40
0.8972295348386794
 40
1.0
 40
1.0
 40
1.0
 40
1.0
 10
446.2103733656558
 20
309.1139201905419
 30
0.0
 10
446.211765359984
 20
309.1137267707948
 30
0.0
 10
446.2153812650093
 20
309.1132243352448
 30
0.0
 10
446.0948765493758
 20
309.1300807494279
 30
0.0
 10
445.8681872767476
 20
309.1601579634382
 30
0.0
 10
445.5323377305633
 20
309.2009528717142
 30
0.0
 10
445.1074096517326
 20
309.2460564734482
 30
0.0
 10
444.5952201336642
 20
309.290687140027
 30
0.0
 10
444.018868992179
 20
309.328110263408
 30
0.0
 10
443.3854817054635
 20
309.3535024196713
 30
0.0
 10
442.7268852037274
 20
309.3623708858699
 30
0.0
 10
442.0505550955311
 20
309.3528469606798
 30
0.0
 10
441.3883818382799
 20
309.3252931754473
 30
0.0
 10
440.7468929719362
 20
309.2813408401961
 30
0.0
 10
440.0528245282712
 20
309.2167452441893
 30
0.0
 10
439.6396097407017
 20
309.1638686198566
 30
0.0
 10
439.3961126437047
 20
309.1327097530607
 30
0.0
  0
SPLINE
  5
10D
330
1F
100
AcDbEntity
  8
0
  6
Continuous
 62
     7
370
    25
100
AcDbSpline
210
0.0
220
0.0
230
1.0
 70
     8
 71
     3
 72
     8
 73
     4
 74
     0
 42
0.00000001
 43
0.00000001
 40
0.0
 40
0.0
 40
0.0
 40
0.0
 40
1.0
 40
1.0
 40
1.0
 40
1.0
 10
432.5701445375735
 20
336.3637907301338
 30
0.0
 10
432.1211745607341
 20
334.6669061498402
 30
0.0
 10
431.8994115450607
 20
332.9407469071896
 30
0.0
 10
431.9049264798023
 20
331.185294432524
 30
0.0
  0
LINE
  5
10E
330
1F
100
AcDbEntity
  8
0
  6
Continuous
 62
     7
370
    25
100
AcDbLine
 10
468.9698954385
 20
310.5632201266
 30
0.0
 11
468.8230484325
 21
357.3059201288
 31
0.0
  0
LINE
  5
10F
330
1F
100
AcDbEntity
  8
0
  6
Continuous
 62
     7
370
    25
100
AcDbLine
 10
459.8263850086
 20
228.9055573591
 30
0.0
 11
455.8264047478
 21
228.8929910092
 31
0.0
  0
LINE
  5
110
330
1F
100
AcDbEntity
  8
0
  6
Continuous
 62
     7
370
    25
100
AcDbLine
 10
463.8263652694
 20
228.9181237091
 30
0.0
 11
459.8263850086
 21
228.9055573591
 31
0.0
  0
LINE
  5
111
330
1F
100
AcDbEntity
  8
0
  6
Continuous
 62
     7
370
    25
100
AcDbLine
 10
438.2256346058
 20
308.6880904227
 30
0.0
 11
446.2255951274
 21
308.7132231225
 31
0.0
  0
LINE
  5
112
330
1F
100
AcDbEntity
  8
0
  6
Continuous
 62
     8
370
    18
100
AcDbLine
 10
396.1318833639
 20
448.4139044549
 30
0.0
 11
396.1318833639
 21
278.3983867395
 31
0.0
  0
LINE
  5
113
330
1F
100
AcDbEntity
  8
0
  6
Continuous
 62
     8
370
    18
100
AcDbLine
 10
397.4754122757
 20
447.2491445972
 30
0.0
 11
397.4754122757
 21
279.5631465972
 31
0.0
  0
SPLINE
  5
114
330
1F
100
AcDbEntity
  8
0
  6
Continuous
 62
     8
370
    18
100
AcDbSpline
210
0.0
220
0.0
230
1.0
 70
     8
 71
     3
 72
    10
 73
     6
 74
     0
 42
0.00000001
 43
0.00000001
 40
0.0
 40
0.0
 40
0.0
 40
0.0
 40
0.1556876640890108
 40
0.7301385820367925
 40
1.0
 40
1.0
 40
1.0
 40
1.0
 10
465.7806117337178
 20
309.5764792105759
 30
0.0
 10
465.806402523914
 20
309.5711314018089
 30
0.0
 10
465.9273552730846
 20
309.5460514346003
 30
0.0
 10
466.0451451226197
 20
309.5206488496469
 30
0.0
 10
466.02868569061
 20
309.52419464288
 30
0.0
 10
466.0234248819352
 20
309.5253279590109
 30
0.0
  0
SPLINE
  5
115
330
1F
100
AcDbEntity
  8
0
  6
Continuous
 62
     8
370
    18
100
AcDbSpline
210
0.0
220
0.0
230
1.0
 70
     8
 71
     3
 72
    25
 73
    21
 74
     0
 42
0.00000001
 43
0.00000001
 40
0.0
 40
0.0
 40
0.0
 40
0.0
 40
0.0219968768785892
 40
0.0784617025298861
 40
0.1332743365758707
 40
0.189746152090228
 40
0.2468125864596587
 40
0.3054843124338642
 40
0.3651665088114484
 40
0.4265102655943614
 40
0.4864858489325087
 40
0.5481189821330902
 40
0.6063369506224234
 40
0.6660791153988714
 40
0.7232912068161536
 40
0.7819691676098695
 40
0.8394984890241037
 40
0.8986340501645239
 40
0.948717834644703
 40
1.0
 40
1.0
 40
1.0
 40
1.0
 10
453.0682178284346
 20
309.257718068165
 30
0.0
 10
453.0631573305842
 20
309.2564287796989
 30
0.0
 10
453.0451068009942
 20
309.2518299555724
 30
0.0
 10
453.1979080162703
 20
309.2907970550085
 30
0.0
 10
453.5192140494385
 20
309.3699810556815
 30
0.0
 10
454.0088063248972
 20
309.483991011752
 30
0.0
 10
454.6504986990432
 20
309.6207139995605
 30
0.0
 10
455.4324083899751
 20
309.7677309380235
 30
0.0
 10
456.3422886964713
 20
309.9111241100123
 30
0.0
 10
457.3455997679843
 20
310.0338998133963
 30
0.0
 10
458.419602008385
 20
310.1238069330514
 30
0.0
 10
459.50671138064
 20
310.1704338476324
 30
0.0
 10
460.5934799984474
 20
310.1724224166612
 30
0.0
 10
461.6281112968161
 20
310.1330181917338
 30
0.0
 10
462.6129122756009
 20
310.0582831197706
 30
0.0
 10
463.5096449170493
 20
309.9590400033861
 30
0.0
 10
464.3159234319189
 20
309.8446694141859
 30
0.0
 10
464.9608539971648
 20
309.7359288269697
 30
0.0
 10
465.4645295570923
 20
309.6410141026917
 30
0.0
 10
465.674423862172
 20
309.5981597207121
 30
0.0
 10
465.7806117337178
 20
309.5764792105759
 30
0.0
  0
LINE
  5
116
330
1F
100
AcDbEntity
  8
0
  6
Continuous
 62
     8
370
    18
100
AcDbLine
 10
467.9904938026
 20
309.5602906063
 30
0.0
 11
467.8373645786
 21
358.3026761306
 31
0.0
  0
LINE
  5
117
330
1F
100
AcDbEntity
  8
0
  6
Continuous
 62
     8
370
    18
100
AcDbLine
 10
423.8819187753
 20
358.4061448723
 30
0.0
 11
423.8819187753
 21
309.4061463221
 31
0.0
  0
LINE
  5
118
330
1F
100
AcDbEntity
  8
0
  6
Continuous
 62
     8
370
    18
100
AcDbLine
 10
408.5195364437
 20
390.6476969735
 30
0.0
 11
408.5195364437
 21
413.1645942209
 31
0.0
  0
LINE
  5
119
330
1F
100
AcDbEntity
  8
0
  6
Continuous
 62
     8
370
    18
100
AcDbLine
 10
409.0105598624
 20
412.6804917333
 30
0.0
 11
409.0105598624
 21
391.1317994611
 31
0.0
  0
SPLINE
  5
11A
330
1F
100
AcDbEntity
  8
0
  6
Continuous
 62
     8
370
    18
100
AcDbSpline
210
0.0
220
0.0
230
1.0
 70
     8
 71
     3
 72
    16
 73
    12
 74
     0
 42
0.00000001
 43
0.00000001
 40
0.0
 40
0.0
 40
0.0
 40
0.0
 40
0.1038248578148235
 40
0.2229136018516926
 40
0.335955618814561
 40
0.450907570745456
 40
0.5695650083194109
 40
0.6895915993025401
 40
0.8066526319980087
 40
0.9207670922342235
 40
0.9999999999999999
 40
0.9999999999999999
 40
0.9999999999999999
 40
0.9999999999999999
 10
464.372925364152
 20
308.0760690353146
 30
0.0
 10
464.1917338896097
 20
308.1272936924603
 30
0.0
 10
463.8027129454434
 20
308.2372738366022
 30
0.0
 10
462.6731768409159
 20
308.4931397468863
 30
0.0
 10
461.2068402094407
 20
308.6930057167251
 30
0.0
 10
459.5427149277716
 20
308.743684295685
 30
0.0
 10
457.8562767233241
 20
308.5965349181193
 30
0.0
 10
456.369795917379
 20
308.3026844869513
 30
0.0
 10
455.2792642048252
 20
307.995596903097
 30
0.0
 10
454.6501778990079
 20
307.7828809963102
 30
0.0
 10
454.6401950996553
 20
307.7790240918773
 30
0.0
 10
454.6361041920391
 20
307.7774435492697
 30
0.0
  0
SPLINE
  5
11B
330
1F
100
AcDbEntity
  8
0
  6
Continuous
 62
     8
370
    18
100
AcDbSpline
210
0.0
220
0.0
230
1.0
 70
     8
 71
     3
 72
     9
 73
     5
 74
     0
 42
0.00000001
 43
0.00000001
 40
0.0
 40
0.0
 40
0.0
 40
0.0
 40
0.844252914916018
 40
1.0
 40
1.0
 40
1.0
 40
1.0
 10
464.5215571223058
 20
308.0325701792569
 30
0.0
 10
464.5232156307265
 20
308.0323328542984
 30
0.0
 10
464.52518009942
 20
308.0320517478262
 30
0.0
 10
464.3934430288853
 20
308.0701373186716
 30
0.0
 10
464.372925364152
 20
308.0760690353146
 30
0.0
  0
LINE
  5
11C
330
1F
100
AcDbEntity
  8
0
  6
Continuous
 62
     8
370
    18
100
AcDbLine
 10
459.8232434211
 20
229.9055524243
 30
0.0
 11
464.8232187471
 21
229.9212603617
 31
0.0
  0
LINE
  5
11D
330
1F
100
AcDbEntity
  8
0
  6
Continuous
 62
     8
370
    18
100
AcDbLine
 10
454.8232680951
 20
229.8898444869
 30
0.0
 11
459.8232434211
 21
229.9055524243
 31
0.0
  0
LINE
  5
11E
330
1F
100
AcDbEntity
  8
0
  6
Continuous
 62
     8
370
    18
100
AcDbLine
 10
442.4360590612
 20
308.1007675712
 30
0.0
 11
446.0089015113
 21
308.1119920237
 31
0.0
  0
LINE
  5
11F
330
1F
100
AcDbEntity
  8
0
  6
Continuous
 62
     8
370
    18
100
AcDbLine
 10
438.4461015662
 20
308.0882327088
 30
0.0
 11
442.4360590612
 21
308.1007675712
 31
0.0
  0
ENDSEC
  0
SECTION
  2
OBJECTS
  0
DICTIONARY
  5
C
330
0
100
AcDbDictionary
281
     1
  3
ACAD_GROUP
350
D
  3
ACAD_LAYOUT
350
1A
  3
ACAD_MLINESTYLE
350
17
  3
ACAD_PLOTSETTINGS
350
19
  3
ACAD_PLOTSTYLENAME
350
E
  3
ACAD_SCALELIST
350
47
  3
DWGPROPS
350
120
  0
DICTIONARY
  5
D
102
{ACAD_REACTORS
330
C
102
}
330
C
100
AcDbDictionary
281
     1
  0
DICTIONARY
  5
1A
102
{ACAD_REACTORS
330
C
102
}
330
C
100
AcDbDictionary
281
     1
  3
Layout1
350
1E
  3
Layout2
350
26
  3
Model
350
22
  0
DICTIONARY
  5
17
102
{ACAD_REACTORS
330
C
102
}
330
C
100
AcDbDictionary
281
     1
  3
Standard
350
18
  0
DICTIONARY
  5
19
102
{ACAD_REACTORS
330
C
102
}
330
C
100
AcDbDictionary
281
     1
  0
ACDBDICTIONARYWDFLT
  5
E
102
{ACAD_REACTORS
330
C
102
}
330
C
100
AcDbDictionary
281
     1
  3
Normal
350
F
100
AcDbDictionaryWithDefault
340
F
  0
DICTIONARY
  5
47
102
{ACAD_REACTORS
330
C
102
}
330
C
100
AcDbDictionary
281
     1
  3
A0
350
48
  3
A1
350
49
  3
A2
350
4A
  3
A3
350
4B
  3
A4
350
4C
  3
A5
350
4D
  3
A6
350
4E
  3
A7
350
4F
  3
A8
350
50
  3
A9
350
51
  3
B0
350
52
  3
B1
350
53
  3
B2
350
54
  3
B3
350
55
  3
B4
350
56
  3
B5
350
57
  3
B6
350
58
  3
B7
350
59
  3
B8
350
5A
  3
B9
350
5B
  3
C0
350
5C
  3
C1
350
5D
  3
C2
350
5E
  3
C3
350
5F
  3
C4
350
60
  3
C5
350
61
  3
C6
350
62
  3
C7
350
63
  3
C8
350
64
  3
C9
350
65
  3
D0
350
66
  3
D1
350
67
  3
D2
350
68
  0
XRECORD
  5
120
102
{ACAD_REACTORS
330
C
102
}
330
C
100
AcDbXrecord
280
     1
  1
DWGPROPS COOKIE
  2

  3

  4

  6

  7

  8
mkramer
  9

300
=
301
=
302
=
303
=
304
=
305
=
306
=
307
=
308
=
309
=
 40
0.0
 41
2459451.334923901
 42
2459451.334924629
  1

 90
        0
  0
LAYOUT
  5
1E
102
{ACAD_REACTORS
330
1A
102
}
330
1A
100
AcDbPlotSettings
  1

  2
none_device
  4

  6

 40
0.0
 41
0.0
 42
0.0
 43
0.0
 44
0.0
 45
0.0
 46
0.0
 47
0.0
 48
0.0
 49
0.0
140
0.0
141
0.0
142
1.0
143
1.0
 70
   688
 72
     1
 73
     0
 74
     5
  7

 75
    16
147
1.0
148
0.0
149
0.0
100
AcDbLayout
  1
Layout1
 70
     1
 71
     1
 10
0.0
 20
0.0
 11
420.0
 21
297.0
 12
0.0
 22
0.0
 32
0.0
 14
1.0000000000E+20
 24
1.0000000000E+20
 34
1.0000000000E+20
 15
-1.0000000000E+20
 25
-1.0000000000E+20
 35
-1.0000000000E+20
146
0.0
 13
0.0
 23
0.0
 33
0.0
 16
1.0
 26
0.0
 36
0.0
 17
0.0
 27
1.0
 37
0.0
 76
     0
330
1B
  0
LAYOUT
  5
26
102
{ACAD_REACTORS
330
1A
102
}
330
1A
100
AcDbPlotSettings
  1

  2
none_device
  4

  6

 40
0.0
 41
0.0
 42
0.0
 43
0.0
 44
0.0
 45
0.0
 46
0.0
 47
0.0
 48
0.0
 49
0.0
140
0.0
141
0.0
142
1.0
143
1.0
 70
   688
 72
     1
 73
     0
 74
     5
  7

 75
    16
147
1.0
148
0.0
149
0.0
100
AcDbLayout
  1
Layout2
 70
     1
 71
     2
 10
0.0
 20
0.0
 11
0.0
 21
0.0
 12
0.0
 22
0.0
 32
0.0
 14
0.0
 24
0.0
 34
0.0
 15
0.0
 25
0.0
 35
0.0
146
0.0
 13
0.0
 23
0.0
 33
0.0
 16
1.0
 26
0.0
 36
0.0
 17
0.0
 27
1.0
 37
0.0
 76
     0
330
23
  0
LAYOUT
  5
22
102
{ACAD_REACTORS
330
1A
102
}
330
1A
100
AcDbPlotSettings
  1

  2
none_device
  4
Letter_(8.50_x_11.00_Inches)
  6

 40
6.35
 41
6.35
 42
6.35000508
 43
6.35000508
 44
215.9
 45
279.4
 46
0.0
 47
0.0
 48
0.0
 49
0.0
140
0.0
141
0.0
142
1.0
143
1.0
 70
  1712
 72
     1
 73
     0
 74
     0
  7

 75
     0
147
1.0
148
0.0
149
0.0
100
AcDbLayout
  1
Model
 70
     1
 71
     0
 10
0.0
 20
0.0
 11
594.0
 21
841.0
 12
0.0
 22
0.0
 32
0.0
 14
0.0
 24
0.0
 34
0.0
 15
594.0
 25
841.0
 35
0.0
146
0.0
 13
0.0
 23
0.0
 33
0.0
 16
1.0
 26
0.0
 36
0.0
 17
0.0
 27
1.0
 37
0.0
 76
     0
330
1F
331
29
  0
MLINESTYLE
  5
18
102
{ACAD_REACTORS
330
17
102
}
330
17
100
AcDbMlineStyle
  2
Standard
 70
     0
  3

 62
   256
 51
90.0
 52
90.0
 71
     2
 49
0.5
 62
   256
  6
BYLAYER
 49
-0.5
 62
   256
  6
BYLAYER
  0
ACDBPLACEHOLDER
  5
F
102
{ACAD_REACTORS
330
E
102
}
330
E
  0
SCALE
  5
48
102
{ACAD_REACTORS
330
47
102
}
330
47
100
AcDbScale
 70
     0
300
1:1
140
1.0
141
1.0
290
     1
  0
SCALE
  5
49
102
{ACAD_REACTORS
330
47
102
}
330
47
100
AcDbScale
 70
     0
300
1:2
140
1.0
141
2.0
290
     0
  0
SCALE
  5
4A
102
{ACAD_REACTORS
330
47
102
}
330
47
100
AcDbScale
 70
     0
300
1:4
140
1.0
141
4.0
290
     0
  0
SCALE
  5
4B
102
{ACAD_REACTORS
330
47
102
}
330
47
100
AcDbScale
 70
     0
300
1:5
140
1.0
141
5.0
290
     0
  0
SCALE
  5
4C
102
{ACAD_REACTORS
330
47
102
}
330
47
100
AcDbScale
 70
     0
300
1:8
140
1.0
141
8.0
290
     0
  0
SCALE
  5
4D
102
{ACAD_REACTORS
330
47
102
}
330
47
100
AcDbScale
 70
     0
300
1:10
140
1.0
141
10.0
290
     0
  0
SCALE
  5
4E
102
{ACAD_REACTORS
330
47
102
}
330
47
100
AcDbScale
 70
     0
300
1:16
140
1.0
141
16.0
290
     0
  0
SCALE
  5
4F
102
{ACAD_REACTORS
330
47
102
}
330
47
100
AcDbScale
 70
     0
300
1:20
140
1.0
141
20.0
290
     0
  0
SCALE
  5
50
102
{ACAD_REACTORS
330
47
102
}
330
47
100
AcDbScale
 70
     0
300
1:30
140
1.0
141
30.0
290
     0
  0
SCALE
  5
51
102
{ACAD_REACTORS
330
47
102
}
330
47
100
AcDbScale
 70
     0
300
1:40
140
1.0
141
40.0
290
     0
  0
SCALE
  5
52
102
{ACAD_REACTORS
330
47
102
}
330
47
100
AcDbScale
 70
     0
300
1:50
140
1.0
141
50.0
290
     0
  0
SCALE
  5
53
102
{ACAD_REACTORS
330
47
102
}
330
47
100
AcDbScale
 70
     0
300
1:100
140
1.0
141
100.0
290
     0
  0
SCALE
  5
54
102
{ACAD_REACTORS
330
47
102
}
330
47
100
AcDbScale
 70
     0
300
2:1
140
2.0
141
1.0
290
     0
  0
SCALE
  5
55
102
{ACAD_REACTORS
330
47
102
}
330
47
100
AcDbScale
 70
     0
300
4:1
140
4.0
141
1.0
290
     0
  0
SCALE
  5
56
102
{ACAD_REACTORS
330
47
102
}
330
47
100
AcDbScale
 70
     0
300
8:1
140
8.0
141
1.0
290
     0
  0
SCALE
  5
57
102
{ACAD_REACTORS
330
47
102
}
330
47
100
AcDbScale
 70
     0
300
10:1
140
10.0
141
1.0
290
     0
  0
SCALE
  5
58
102
{ACAD_REACTORS
330
47
102
}
330
47
100
AcDbScale
 70
     0
300
100:1
140
100.0
141
1.0
290
     0
  0
SCALE
  5
59
102
{ACAD_REACTORS
330
47
102
}
330
47
100
AcDbScale
 70
     0
300
1/128" = 1'-0"
140
0.0078125
141
12.0
290
     0
  0
SCALE
  5
5A
102
{ACAD_REACTORS
330
47
102
}
330
47
100
AcDbScale
 70
     0
300
1/64" = 1'-0"
140
0.015625
141
12.0
290
     0
  0
SCALE
  5
5B
102
{ACAD_REACTORS
330
47
102
}
330
47
100
AcDbScale
 70
     0
300
1/32" = 1'-0"
140
0.03125
141
12.0
290
     0
  0
SCALE
  5
5C
102
{ACAD_REACTORS
330
47
102
}
330
47
100
AcDbScale
 70
     0
300
1/16" = 1'-0"
140
0.0625
141
12.0
290
     0
  0
SCALE
  5
5D
102
{ACAD_REACTORS
330
47
102
}
330
47
100
AcDbScale
 70
     0
300
3/32" = 1'-0"
140
0.09375
141
12.0
290
     0
  0
SCALE
  5
5E
102
{ACAD_REACTORS
330
47
102
}
330
47
100
AcDbScale
 70
     0
300
1/8" = 1'-0"
140
0.125
141
12.0
290
     0
  0
SCALE
  5
5F
102
{ACAD_REACTORS
330
47
102
}
330
47
100
AcDbScale
 70
     0
300
3/16" = 1'-0"
140
0.1875
141
12.0
290
     0
  0
SCALE
  5
60
102
{ACAD_REACTORS
330
47
102
}
330
47
100
AcDbScale
 70
     0
300
1/4" = 1'-0"
140
0.25
141
12.0
290
     0
  0
SCALE
  5
61
102
{ACAD_REACTORS
330
47
102
}
330
47
100
AcDbScale
 70
     0
300
3/8" = 1'-0"
140
0.375
141
12.0
290
     0
  0
SCALE
  5
62
102
{ACAD_REACTORS
330
47
102
}
330
47
100
AcDbScale
 70
     0
300
1/2" = 1'-0"
140
0.5
141
12.0
290
     0
  0
SCALE
  5
63
102
{ACAD_REACTORS
330
47
102
}
330
47
100
AcDbScale
 70
     0
300
3/4" = 1'-0"
140
0.75
141
12.0
290
     0
  0
SCALE
  5
64
102
{ACAD_REACTORS
330
47
102
}
330
47
100
AcDbScale
 70
     0
300
1" = 1'-0"
140
1.0
141
12.0
290
     0
  0
SCALE
  5
65
102
{ACAD_REACTORS
330
47
102
}
330
47
100
AcDbScale
 70
     0
300
1-1/2" = 1'-0"
140
1.5
141
12.0
290
     0
  0
SCALE
  5
66
102
{ACAD_REACTORS
330
47
102
}
330
47
100
AcDbScale
 70
     0
300
3" = 1'-0"
140
3.0
141
12.0
290
     0
  0
SCALE
  5
67
102
{ACAD_REACTORS
330
47
102
}
330
47
100
AcDbScale
 70
     0
300
6" = 1'-0"
140
6.0
141
12.0
290
     0
  0
SCALE
  5
68
102
{ACAD_REACTORS
330
47
102
}
330
47
100
AcDbScale
 70
     0
300
1'-0" = 1'-0"
140
12.0
141
12.0
290
     0
  0
ENDSEC
  0
EOF
