  0
SECTION
  2
HEADER
  9
$ACADVER
  1
AC1015
  9
$ACADMAINTVER
 70
     6
  9
$DWGCODEPAGE
  3
ANSI_1252
  9
$INSBASE
 10
0.0
 20
0.0
 30
0.0
  9
$EXTMIN
 10
0.0
 20
0.0
 30
0.0
  9
$EXTMAX
 10
594.0
 20
841.0
 30
0.0
  9
$LIMMIN
 10
0.0
 20
0.0
  9
$LIMMAX
 10
594.0
 20
841.0
  9
$ORTHOMODE
 70
     0
  9
$REGENMODE
 70
     1
  9
$FILLMODE
 70
     1
  9
$QTEXTMODE
 70
     0
  9
$MIRRTEXT
 70
     1
  9
$LTSCALE
 40
1.0
  9
$ATTMODE
 70
     1
  9
$TEXTSIZE
 40
10.0
  9
$TRACEWID
 40
1.0
  9
$TEXTSTYLE
  7
Standard
  9
$CLAYER
  8
0
  9
$CELTYPE
  6
ByLayer
  9
$CECOLOR
 62
   256
  9
$CELTSCALE
 40
1.0
  9
$DISPSILH
 70
     0
  9
$DIMSCALE
 40
1.0
  9
$DIMASZ
 40
2.5
  9
$DIMEXO
 40
0.0
  9
$DIMDLI
 40
3.75
  9
$DIMRND
 40
0.0
  9
$DIMDLE
 40
0.0
  9
$DIMEXE
 40
1.0
  9
$DIMTP
 40
0.0
  9
$DIMTM
 40
0.0
  9
$DIMTXT
 40
3.5
  9
$DIMCEN
 40
2.5
  9
$DIMTSZ
 40
0.0
  9
$DIMTOL
 70
     0
  9
$DIMLIM
 70
     0
  9
$DIMTIH
 70
     1
  9
$DIMTOH
 70
     1
  9
$DIMSE1
 70
     0
  9
$DIMSE2
 70
     0
  9
$DIMTAD
 70
     1
  9
$DIMZIN
 70
     0
  9
$DIMBLK
  1

  9
$DIMASO
 70
     1
  9
$DIMSHO
 70
     1
  9
$DIMPOST
  1

  9
$DIMAPOST
  1

  9
$DIMALT
 70
     0
  9
$DIMALTD
 70
     3
  9
$DIMALTF
 40
0.0393700787
  9
$DIMLFAC
 40
1.0
  9
$DIMTOFL
 70
     1
  9
$DIMTVP
 40
0.0
  9
$DIMTIX
 70
     0
  9
$DIMSOXD
 70
     0
  9
$DIMSAH
 70
     0
  9
$DIMBLK1
  1

  9
$DIMBLK2
  1

  9
$DIMSTYLE
  2
ISO-25
  9
$DIMCLRD
 70
     0
  9
$DIMCLRE
 70
     0
  9
$DIMCLRT
 70
     0
  9
$DIMTFAC
 40
1.0
  9
$DIMGAP
 40
1.5
  9
$DIMJUST
 70
     0
  9
$DIMSD1
 70
     0
  9
$DIMSD2
 70
     0
  9
$DIMTOLJ
 70
     0
  9
$DIMTZIN
 70
     0
  9
$DIMALTZ
 70
     0
  9
$DIMALTTZ
 70
     0
  9
$DIMUPT
 70
     0
  9
$DIMDEC
 70
     2
  9
$DIMTDEC
 70
     2
  9
$DIMALTU
 70
     2
  9
$DIMALTTD
 70
     3
  9
$DIMTXSTY
  7
Standard
  9
$DIMAUNIT
 70
     0
  9
$DIMADEC
 70
     2
  9
$DIMALTRND
 40
0.0
  9
$DIMAZIN
 70
     0
  9
$DIMDSEP
 70
    44
  9
$DIMATFIT
 70
     3
  9
$DIMFRAC
 70
     0
  9
$DIMLDRBLK
  1

  9
$DIMLUNIT
 70
     2
  9
$DIMLWD
 70
    -2
  9
$DIMLWE
 70
    -2
  9
$DIMTMOVE
 70
     0
  9
$LUNITS
 70
     2
  9
$LUPREC
 70
     2
  9
$SKETCHINC
 40
1.0
  9
$FILLETRAD
 40
10.0
  9
$AUNITS
 70
     0
  9
$AUPREC
 70
     2
  9
$MENU
  1
.
  9
$ELEVATION
 40
0.0
  9
$PELEVATION
 40
0.0
  9
$THICKNESS
 40
0.0
  9
$LIMCHECK
 70
     0
  9
$CHAMFERA
 40
0.0
  9
$CHAMFERB
 40
0.0
  9
$CHAMFERC
 40
0.0
  9
$CHAMFERD
 40
0.0
  9
$SKPOLY
 70
     0
  9
$TDCREATE
 40
2458962.260649838
  9
$TDUCREATE
 40
2458962.177316505
  9
$TDUPDATE
 40
2458962.260651099
  9
$TDUUPDATE
 40
2458962.177317766
  9
$TDINDWG
 40
0.0000000116
  9
$TDUSRTIMER
 40
0.0000000116
  9
$USRTIMER
 70
     1
  9
$ANGBASE
 50
0.0
  9
$ANGDIR
 70
     0
  9
$PDMODE
 70
     0
  9
$PDSIZE
 40
-1.0
  9
$PLINEWID
 40
0.0
  9
$SPLFRAME
 70
     0
  9
$SPLINETYPE
 70
     6
  9
$SPLINESEGS
 70
     8
  9
$HANDSEED
  5
188
  9
$SURFTAB1
 70
     6
  9
$SURFTAB2
 70
     6
  9
$SURFTYPE
 70
     6
  9
$SURFU
 70
     6
  9
$SURFV
 70
     6
  9
$UCSBASE
  2

  9
$UCSNAME
  2

  9
$UCSORG
 10
0.0
 20
0.0
 30
0.0
  9
$UCSXDIR
 10
1.0
 20
0.0
 30
0.0
  9
$UCSYDIR
 10
0.0
 20
1.0
 30
0.0
  9
$UCSORTHOREF
  2

  9
$UCSORTHOVIEW
 70
     0
  9
$UCSORGTOP
 10
0.0
 20
0.0
 30
0.0
  9
$UCSORGBOTTOM
 10
0.0
 20
0.0
 30
0.0
  9
$UCSORGLEFT
 10
0.0
 20
0.0
 30
0.0
  9
$UCSORGRIGHT
 10
0.0
 20
0.0
 30
0.0
  9
$UCSORGFRONT
 10
0.0
 20
0.0
 30
0.0
  9
$UCSORGBACK
 10
0.0
 20
0.0
 30
0.0
  9
$PUCSBASE
  2

  9
$PUCSNAME
  2

  9
$PUCSORG
 10
0.0
 20
0.0
 30
0.0
  9
$PUCSXDIR
 10
1.0
 20
0.0
 30
0.0
  9
$PUCSYDIR
 10
0.0
 20
1.0
 30
0.0
  9
$PUCSORTHOREF
  2

  9
$PUCSORTHOVIEW
 70
     0
  9
$PUCSORGTOP
 10
0.0
 20
0.0
 30
0.0
  9
$PUCSORGBOTTOM
 10
0.0
 20
0.0
 30
0.0
  9
$PUCSORGLEFT
 10
0.0
 20
0.0
 30
0.0
  9
$PUCSORGRIGHT
 10
0.0
 20
0.0
 30
0.0
  9
$PUCSORGFRONT
 10
0.0
 20
0.0
 30
0.0
  9
$PUCSORGBACK
 10
0.0
 20
0.0
 30
0.0
  9
$USERI1
 70
     0
  9
$USERI2
 70
     0
  9
$USERI3
 70
     0
  9
$USERI4
 70
     0
  9
$USERI5
 70
     0
  9
$USERR1
 40
0.0
  9
$USERR2
 40
0.0
  9
$USERR3
 40
0.0
  9
$USERR4
 40
0.0
  9
$USERR5
 40
0.0
  9
$WORLDVIEW
 70
     1
  9
$SHADEDGE
 70
     3
  9
$SHADEDIF
 70
    70
  9
$TILEMODE
 70
     1
  9
$MAXACTVP
 70
    64
  9
$PINSBASE
 10
0.0
 20
0.0
 30
0.0
  9
$PLIMCHECK
 70
     0
  9
$PEXTMIN
 10
1.0000000000E+20
 20
1.0000000000E+20
 30
1.0000000000E+20
  9
$PEXTMAX
 10
-1.0000000000E+20
 20
-1.0000000000E+20
 30
-1.0000000000E+20
  9
$PLIMMIN
 10
0.0
 20
0.0
  9
$PLIMMAX
 10
420.0
 20
297.0
  9
$UNITMODE
 70
     0
  9
$VISRETAIN
 70
     1
  9
$PLINEGEN
 70
     0
  9
$PSLTSCALE
 70
     1
  9
$TREEDEPTH
 70
  3020
  9
$CMLSTYLE
  2
Standard
  9
$CMLJUST
 70
     0
  9
$CMLSCALE
 40
20.0
  9
$PROXYGRAPHICS
 70
     1
  9
$MEASUREMENT
 70
     1
  9
$CELWEIGHT
370
    -1
  9
$ENDCAPS
280
     0
  9
$JOINSTYLE
280
     0
  9
$LWDISPLAY
290
     1
  9
$INSUNITS
 70
     4
  9
$HYPERLINKBASE
  1

  9
$STYLESHEET
  1

  9
$XEDIT
290
     1
  9
$CEPSNTYPE
380
     0
  9
$PSTYLEMODE
290
     1
  9
$FINGERPRINTGUID
  2
{02ecf624-ea89-4d01-b5ba-fbf43c435ed8}
  9
$VERSIONGUID
  2
{FAEB1C32-E019-11D5-929B-00C0DF256EC4}
  9
$EXTNAMES
290
     1
  9
$PSVPSCALE
 40
0.0
  9
$OLESTARTUP
290
     0
  0
ENDSEC
  0
SECTION
  2
CLASSES
  0
CLASS
  1
ACDBDICTIONARYWDFLT
  2
AcDbDictionaryWithDefault
  3
ObjectDBX Classes
 90
        0
280
     0
281
     0
  0
CLASS
  1
VISUALSTYLE
  2
AcDbVisualStyle
  3
ObjectDBX Classes
 90
     4095
280
     0
281
     0
  0
CLASS
  1
MATERIAL
  2
AcDbMaterial
  3
ObjectDBX Classes
 90
     1153
280
     0
281
     0
  0
CLASS
  1
SCALE
  2
AcDbScale
  3
ObjectDBX Classes
 90
     1153
280
     0
281
     0
  0
CLASS
  1
TABLESTYLE
  2
AcDbTableStyle
  3
ObjectDBX Classes
 90
     4095
280
     0
281
     0
  0
CLASS
  1
MLEADERSTYLE
  2
AcDbMLeaderStyle
  3
ACDB_MLEADERSTYLE_CLASS
 90
     4095
280
     0
281
     0
  0
CLASS
  1
SUN
  2
AcDbSun
  3
SCENEOE
 90
     1153
280
     0
281
     0
  0
CLASS
  1
ACDBPLACEHOLDER
  2
AcDbPlaceHolder
  3
ObjectDBX Classes
 90
        0
280
     0
281
     0
  0
CLASS
  1
LAYOUT
  2
AcDbLayout
  3
ObjectDBX Classes
 90
        0
280
     0
281
     0
  0
ENDSEC
  0
SECTION
  2
TABLES
  0
TABLE
  2
VPORT
  5
8
330
0
100
AcDbSymbolTable
 70
     1
  0
VPORT
  5
29
330
8
100
AcDbSymbolTableRecord
100
AcDbViewportTableRecord
  2
*Active
 70
     0
 10
0.0
 20
0.0
 11
1.0
 21
1.0
 12
297.0
 22
420.5
 13
0.0
 23
0.0
 14
10.0
 24
10.0
 15
10.0
 25
10.0
 16
0.0
 26
0.0
 36
1.0
 17
0.0
 27
0.0
 37
0.0
 40
841.0
 41
0.7063020214
 42
50.0
 43
0.0
 44
0.0
 50
0.0
 51
0.0
 71
     0
 72
  2000
 73
     1
 74
     3
 75
     0
 76
     0
 77
     0
 78
     0
281
     0
 65
     1
110
0.0
120
0.0
130
0.0
111
1.0
121
0.0
131
0.0
112
0.0
122
1.0
132
0.0
 79
     0
146
0.0
  0
ENDTAB
  0
TABLE
  2
LTYPE
  5
5
330
0
100
AcDbSymbolTable
 70
     6
  0
LTYPE
  5
14
330
5
100
AcDbSymbolTableRecord
100
AcDbLinetypeTableRecord
  2
ByBlock
 70
     0
  3

 72
    65
 73
     0
 40
0.0
  0
LTYPE
  5
15
330
5
100
AcDbSymbolTableRecord
100
AcDbLinetypeTableRecord
  2
ByLayer
 70
     0
  3

 72
    65
 73
     0
 40
0.0
  0
LTYPE
  5
16
330
5
100
AcDbSymbolTableRecord
100
AcDbLinetypeTableRecord
  2
Continuous
 70
     0
  3
Solid line
 72
    65
 73
     0
 40
0.0
  0
LTYPE
  5
6E
330
5
100
AcDbSymbolTableRecord
100
AcDbLinetypeTableRecord
  2
HIDDEN
 70
     0
  3
Hidden __ __ __ __ __ __ __ __ __ __ __ __ __ __
 72
    65
 73
     2
 40
1.905
 49
1.27
 74
     0
 49
-0.635
 74
     0
  0
LTYPE
  5
6F
330
5
100
AcDbSymbolTableRecord
100
AcDbLinetypeTableRecord
  2
PHANTOM
 70
     0
  3
Phantom ______  __  __  ______  __  __  ______
 72
    65
 73
     6
 40
12.7
 49
6.35
 74
     0
 49
-1.27
 74
     0
 49
1.27
 74
     0
 49
-1.27
 74
     0
 49
1.27
 74
     0
 49
-1.27
 74
     0
  0
LTYPE
  5
70
330
5
100
AcDbSymbolTableRecord
100
AcDbLinetypeTableRecord
  2
CENTER
 70
     0
  3
Center ____ _ ____ _ ____ _ ____ _ ____ _ ____
 72
    65
 73
     4
 40
10.16
 49
6.35
 74
     0
 49
-1.27
 74
     0
 49
1.27
 74
     0
 49
-1.27
 74
     0
  0
LTYPE
  5
71
330
5
100
AcDbSymbolTableRecord
100
AcDbLinetypeTableRecord
  2
CENTERX2
 70
     0
  3
Center (2x) ________  __  ________  __  _____
 72
    65
 73
     4
 40
20.32
 49
12.7
 74
     0
 49
-2.54
 74
     0
 49
2.54
 74
     0
 49
-2.54
 74
     0
  0
LTYPE
  5
72
330
5
100
AcDbSymbolTableRecord
100
AcDbLinetypeTableRecord
  2
DOT2
 70
     0
  3
Dot (.5x) ........................................
 72
    65
 73
     2
 40
0.635
 49
0.0
 74
     0
 49
-0.635
 74
     0
  0
ENDTAB
  0
TABLE
  2
LAYER
  5
2
330
0
100
AcDbSymbolTable
 70
     1
  0
LAYER
  5
10
330
2
100
AcDbSymbolTableRecord
100
AcDbLayerTableRecord
  2
0
 70
     0
 62
     7
  6
Continuous
370
    -3
390
F
  0
ENDTAB
  0
TABLE
  2
STYLE
  5
3
330
0
100
AcDbSymbolTable
 70
     3
  0
STYLE
  5
11
330
3
100
AcDbSymbolTableRecord
100
AcDbTextStyleTableRecord
  2
Standard
 70
     0
 40
0.0
 41
1.0
 50
0.0
 71
     0
 42
10.0
  3
txt
  4

  0
STYLE
  5
76
330
3
100
AcDbSymbolTableRecord
100
AcDbTextStyleTableRecord
  2
SLDTEXTSTYLE0
 70
     0
 40
0.0
 41
0.96
 50
0.0
 71
     0
 42
10.0
  3
ISOCP3
  4

  0
STYLE
  5
8D
330
3
100
AcDbSymbolTableRecord
100
AcDbTextStyleTableRecord
  2
SLDTEXTSTYLE1
 70
     0
 40
0.0
 41
0.605
 50
0.0
 71
     0
 42
10.0
  3
TXT
  4

  0
ENDTAB
  0
TABLE
  2
VIEW
  5
6
330
0
100
AcDbSymbolTable
 70
     0
  0
ENDTAB
  0
TABLE
  2
UCS
  5
7
330
0
100
AcDbSymbolTable
 70
     0
  0
ENDTAB
  0
TABLE
  2
APPID
  5
9
330
0
100
AcDbSymbolTable
 70
     1
  0
APPID
  5
12
330
9
100
AcDbSymbolTableRecord
100
AcDbRegAppTableRecord
  2
ACAD
 70
     0
  0
ENDTAB
  0
TABLE
  2
DIMSTYLE
  5
A
330
0
100
AcDbSymbolTable
 70
     2
100
AcDbDimStyleTable
  0
DIMSTYLE
105
27
330
A
100
AcDbSymbolTableRecord
100
AcDbDimStyleTableRecord
  2
ISO-25
 70
     0
 41
2.5
 42
0.625
 43
3.75
 44
1.25
 73
     0
 74
     0
 77
     1
 78
     8
140
2.5
141
2.5
143
0.0393700787
147
0.625
171
     3
172
     1
178
     0
271
     2
272
     2
274
     3
278
    44
283
     0
284
     8
340
11
  0
DIMSTYLE
105
77
102
{ACAD_REACTORS
330
75
330
82
102
}
330
A
100
AcDbSymbolTableRecord
100
AcDbDimStyleTableRecord
  2
SLDDIMSTYLE0
 70
     0
 41
2.5
 44
0.0
 45
0.000000001
 73
     0
 74
     0
 77
     1
 78
    12
 79
     3
140
6.0
147
1.5
173
     1
178
     0
271
     2
272
     2
276
     2
284
    12
340
76
  0
ENDTAB
  0
TABLE
  2
BLOCK_RECORD
  5
1
330
0
100
AcDbSymbolTable
 70
     3
  0
BLOCK_RECORD
  5
1F
330
1
100
AcDbSymbolTableRecord
100
AcDbBlockTableRecord
  2
*Model_Space
340
22
  0
BLOCK_RECORD
  5
1B
330
1
100
AcDbSymbolTableRecord
100
AcDbBlockTableRecord
  2
*Paper_Space
340
1E
  0
BLOCK_RECORD
  5
23
330
1
100
AcDbSymbolTableRecord
100
AcDbBlockTableRecord
  2
*Paper_Space0
340
26
  0
BLOCK_RECORD
  5
78
330
1
100
AcDbSymbolTableRecord
100
AcDbBlockTableRecord
  2
_D
340
0
  0
BLOCK_RECORD
  5
83
330
1
100
AcDbSymbolTableRecord
100
AcDbBlockTableRecord
  2
_D_1
340
0
  0
ENDTAB
  0
ENDSEC
  0
SECTION
  2
BLOCKS
  0
BLOCK
  5
20
330
1F
100
AcDbEntity
  8
0
100
AcDbBlockBegin
  2
*Model_Space
 70
     0
 10
0.0
 20
0.0
 30
0.0
  3
*Model_Space
  1

  0
ENDBLK
  5
21
330
1F
100
AcDbEntity
  8
0
100
AcDbBlockEnd
  0
BLOCK
  5
1C
330
1B
100
AcDbEntity
 67
     1
  8
0
100
AcDbBlockBegin
  2
*Paper_Space
 70
     0
 10
0.0
 20
0.0
 30
0.0
  3
*Paper_Space
  1

  0
ENDBLK
  5
1D
330
1B
100
AcDbEntity
 67
     1
  8
0
100
AcDbBlockEnd
  0
BLOCK
  5
24
330
23
100
AcDbEntity
  8
0
100
AcDbBlockBegin
  2
*Paper_Space0
 70
     0
 10
0.0
 20
0.0
 30
0.0
  3
*Paper_Space0
  1

  0
ENDBLK
  5
25
330
23
100
AcDbEntity
  8
0
100
AcDbBlockEnd
  0
BLOCK
  5
79
330
78
100
AcDbEntity
  8
0
100
AcDbBlockBegin
  2
_D
 70
     0
 10
0.0
 20
0.0
 30
0.0
  3
_D
  1

  0
SOLID
  5
7B
330
78
100
AcDbEntity
  8
0
  6
Continuous
 62
     7
370
    18
100
AcDbTrace
 10
42.7614395004
 20
152.0299240879
 30
0.0
 11
42.4614395004
 21
149.5299240879
 31
0.0
 12
43.0614395004
 22
149.5299240879
 32
0.0
 13
43.0614395004
 23
149.5299240879
 33
0.0
  0
SOLID
  5
7C
330
78
100
AcDbEntity
  8
0
  6
Continuous
 62
     7
370
    18
100
AcDbTrace
 10
42.7614395004
 20
52.0299240879
 30
0.0
 11
43.0614395004
 21
54.5299240879
 31
0.0
 12
42.4614395004
 22
54.5299240879
 32
0.0
 13
42.4614395004
 23
54.5299240879
 33
0.0
  0
LINE
  5
7D
330
78
100
AcDbEntity
  8
0
  6
Continuous
 62
     7
370
     0
100
AcDbLine
 10
56.6850079902
 20
152.0299240879
 30
0.0
 11
41.7614395004
 21
152.0299240879
 31
0.0
  0
LINE
  5
7E
330
78
100
AcDbEntity
  8
0
  6
Continuous
 62
     7
370
     0
100
AcDbLine
 10
56.6850079902
 20
52.0299240879
 30
0.0
 11
41.7614395004
 21
52.0299240879
 31
0.0
  0
LINE
  5
7F
330
78
100
AcDbEntity
  8
0
  6
Continuous
 62
     7
370
     0
100
AcDbLine
 10
42.7614395004
 20
152.0299240879
 30
0.0
 11
42.7614395004
 21
52.0299240879
 31
0.0
  0
MTEXT
  5
80
330
78
100
AcDbEntity
  8
0
  6
Continuous
 62
     7
370
    18
100
AcDbMText
 10
35.0270332946
 20
94.3680541463
 30
0.0
 40
6.0
 41
0.0
 71
     1
 72
     1
  1
100
  7
SLDTEXTSTYLE0
 11
-7.044195017643634E-15
 21
1.0
 31
0.0
 73
     1
 44
1.0
  0
MTEXT
  5
81
330
78
100
AcDbEntity
  8
0
  6
Continuous
 62
     7
370
    18
100
AcDbMText
 10
35.0270332946
 20
105.7430548466
 30
0.0
 40
6.0
 41
0.0
 71
     1
 72
     1
  1
mm
  7
SLDTEXTSTYLE0
 11
-7.044195017643634E-15
 21
1.0
 31
0.0
 73
     1
 44
1.0
  0
ENDBLK
  5
7A
330
78
100
AcDbEntity
  8
0
100
AcDbBlockEnd
  0
BLOCK
  5
84
330
83
100
AcDbEntity
  8
0
100
AcDbBlockBegin
  2
_D_1
 70
     0
 10
0.0
 20
0.0
 30
0.0
  3
_D_1
  1

  0
SOLID
  5
86
330
83
100
AcDbEntity
  8
0
  6
Continuous
 62
     7
370
    18
100
AcDbTrace
 10
56.6850079902
 20
38.4602342313
 30
0.0
 11
59.1850079902
 21
38.1602342313
 31
0.0
 12
59.1850079902
 22
38.7602342313
 32
0.0
 13
59.1850079902
 23
38.7602342313
 33
0.0
  0
SOLID
  5
87
330
83
100
AcDbEntity
  8
0
  6
Continuous
 62
     7
370
    18
100
AcDbTrace
 10
156.6850079902
 20
38.4602342313
 30
0.0
 11
154.1850079902
 21
38.7602342313
 31
0.0
 12
154.1850079902
 22
38.1602342313
 32
0.0
 13
154.1850079902
 23
38.1602342313
 33
0.0
  0
LINE
  5
88
330
83
100
AcDbEntity
  8
0
  6
Continuous
 62
     7
370
     0
100
AcDbLine
 10
56.6850079902
 20
52.0299240879
 30
0.0
 11
56.6850079902
 21
37.4602342313
 31
0.0
  0
LINE
  5
89
330
83
100
AcDbEntity
  8
0
  6
Continuous
 62
     7
370
     0
100
AcDbLine
 10
156.6850079902
 20
52.0299240879
 30
0.0
 11
156.6850079902
 21
37.4602342313
 31
0.0
  0
LINE
  5
8A
330
83
100
AcDbEntity
  8
0
  6
Continuous
 62
     7
370
     0
100
AcDbLine
 10
56.6850079902
 20
38.4602342313
 30
0.0
 11
156.6850079902
 21
38.4602342313
 31
0.0
  0
MTEXT
  5
8B
330
83
100
AcDbEntity
  8
0
  6
Continuous
 62
     7
370
    18
100
AcDbMText
 10
93.9626484861
 20
46.1946404371
 30
0.0
 40
6.0
 41
0.0
 71
     1
 72
     1
  1
100
  7
SLDTEXTSTYLE0
 73
     1
 44
1.0
  0
MTEXT
  5
8C
330
83
100
AcDbEntity
  8
0
  6
Continuous
 62
     7
370
    18
100
AcDbMText
 10
105.3376491864
 20
46.1946404371
 30
0.0
 40
6.0
 41
0.0
 71
     1
 72
     1
  1
mm
  7
SLDTEXTSTYLE0
 73
     1
 44
1.0
  0
ENDBLK
  5
85
330
83
100
AcDbEntity
  8
0
100
AcDbBlockEnd
  0
ENDSEC
  0
SECTION
  2
ENTITIES
  0
LINE
  5
73
330
1F
100
AcDbEntity
  8
0
  6
Continuous
 62
     7
370
    18
100
AcDbLine
 10
56.6850079902
 20
152.0299240879
 30
0.0
 11
56.6850079902
 21
52.0299240879
 31
0.0
  0
LINE
  5
74
330
1F
100
AcDbEntity
  8
0
  6
Continuous
 62
     7
370
    18
100
AcDbLine
 10
56.6850079902
 20
52.0299240879
 30
0.0
 11
156.6850079902
 21
52.0299240879
 31
0.0
  0
DIMENSION
  5
75
330
1F
100
AcDbEntity
  8
0
  6
Continuous
 62
     7
370
    18
100
AcDbDimension
  2
_D
 10
42.7614395004
 20
52.0299240879
 30
0.0
 11
42.7614395004
 21
105.4472211621
 31
0.0
 70
   160
  1
<>mm
 71
     2
 42
-1.0
  3
SLDDIMSTYLE0
100
AcDbAlignedDimension
 13
56.6850079902
 23
152.0299240879
 33
0.0
 14
56.6850079902
 24
52.0299240879
 34
0.0
 50
90.0
100
AcDbRotatedDimension
  0
DIMENSION
  5
82
330
1F
100
AcDbEntity
  8
0
  6
Continuous
 62
     7
370
    18
100
AcDbDimension
  2
_D_1
 10
156.6850079902
 20
38.4602342313
 30
0.0
 11
105.0418155019
 21
38.4602342313
 31
0.0
 70
   160
  1
<>mm
 71
     2
 42
-1.0
  3
SLDDIMSTYLE0
100
AcDbAlignedDimension
 13
56.6850079902
 23
52.0299240879
 33
0.0
 14
156.6850079902
 24
52.0299240879
 34
0.0
100
AcDbRotatedDimension
  0
MTEXT
  5
8E
330
1F
100
AcDbEntity
  8
0
  6
Continuous
 62
     7
370
     0
100
AcDbMText
 10
412.8252631579
 20
48.4342449499
 30
0.0
 40
10.0
 41
0.0
 71
     1
 72
     1
  1
KLUDI GmbH & Co KG
  7
SLDTEXTSTYLE1
 73
     1
 44
1.0
  0
MTEXT
  5
8F
330
1F
100
AcDbEntity
  8
0
  6
Continuous
 62
     7
370
     0
100
AcDbMText
 10
210.0873490389
 20
48.4342449499
 30
0.0
 40
10.0
 41
0.0
 71
     1
 72
     1
  1
20 835 05 15
  7
SLDTEXTSTYLE1
 73
     1
 44
1.0
  0
CIRCLE
  5
90
330
1F
100
AcDbEntity
  8
0
  6
Continuous
 62
     7
370
    25
100
AcDbCircle
 10
202.1753371695
 20
305.0421428572
 30
0.0
 40
22.90000000000002
  0
LINE
  5
91
330
1F
100
AcDbEntity
  8
0
  6
Continuous
 62
     7
370
    25
100
AcDbLine
 10
196.1753371695
 20
327.142142867
 30
0.0
 11
196.1753371695
 21
334.7421428572
 31
0.0
  0
ARC
  5
92
330
1F
100
AcDbEntity
  8
0
  6
Continuous
 62
     7
370
    25
100
AcDbCircle
 10
207.1753371695
 20
334.7421428572
 30
0.0
 40
1.0
100
AcDbArc
 50
0.0
 51
90.0
  0
LINE
  5
93
330
1F
100
AcDbEntity
  8
0
  6
Continuous
 62
     7
370
    25
100
AcDbLine
 10
197.1753371695
 20
335.7421428572
 30
0.0
 11
207.1753371695
 21
335.7421428572
 31
0.0
  0
LINE
  5
94
330
1F
100
AcDbEntity
  8
0
  6
Continuous
 62
     7
370
    25
100
AcDbLine
 10
208.1753371695
 20
334.7421428572
 30
0.0
 11
208.1753371695
 21
327.1421428606
 31
0.0
  0
ARC
  5
95
330
1F
100
AcDbEntity
  8
0
  6
Continuous
 62
     7
370
    25
100
AcDbCircle
 10
197.1753371695
 20
334.7421428572
 30
0.0
 40
1.0
100
AcDbArc
 50
90.0
 51
180.0
  0
ARC
  5
96
330
1F
100
AcDbEntity
  8
0
  6
Continuous
 62
     7
370
    25
100
AcDbCircle
 10
205.4253371695
 20
402.0421428571
 30
0.0
 40
1.0
100
AcDbArc
 50
0.0
 51
90.0
  0
LINE
  5
97
330
1F
100
AcDbEntity
  8
0
  6
Continuous
 62
     7
370
    25
100
AcDbLine
 10
197.9253371695
 20
385.2669689446
 30
0.0
 11
197.9253371695
 21
402.0421428571
 31
0.0
  0
LINE
  5
98
330
1F
100
AcDbEntity
  8
0
  6
Continuous
 62
     7
370
    25
100
AcDbLine
 10
206.4253371695
 20
402.0421428571
 30
0.0
 11
206.4253371695
 21
385.2669689446
 31
0.0
  0
ARC
  5
99
330
1F
100
AcDbEntity
  8
0
  6
Continuous
 62
     7
370
    25
100
AcDbCircle
 10
198.9253371695
 20
402.0421428571
 30
0.0
 40
1.0
100
AcDbArc
 50
90.0
 51
180.0
  0
LINE
  5
9A
330
1F
100
AcDbEntity
  8
0
  6
Continuous
 62
     7
370
    25
100
AcDbLine
 10
198.9253371695
 20
403.0421428571
 30
0.0
 11
205.4253371695
 21
403.0421428571
 31
0.0
  0
ARC
  5
9B
330
1F
100
AcDbEntity
  8
0
  6
Continuous
 62
     7
370
    25
100
AcDbCircle
 10
202.1753371695
 20
368.0421428571
 30
0.0
 40
13.99999999999998
100
AcDbArc
 50
120.9765069015
 51
59.0234930985
  0
SPLINE
  5
9C
330
1F
100
AcDbEntity
  8
0
  6
Continuous
 62
     7
370
    25
100
AcDbSpline
210
0.0
220
0.0
230
1.0
 70
     8
 71
     3
 72
    20
 73
    16
 74
     0
 42
0.000000001
 43
0.00000001
 40
0.0
 40
0.0
 40
0.0
 40
0.0
 40
0.1250000000000005
 40
0.1250000000000005
 40
0.2500000000000011
 40
0.2500000000000011
 40
0.4999999999999989
 40
0.4999999999999989
 40
0.6249999999999992
 40
0.6249999999999992
 40
0.7499999999999994
 40
0.7499999999999994
 40
0.8749999999999998
 40
0.8749999999999998
 40
1.0
 40
1.0
 40
1.0
 40
1.0
 10
206.4253371694867
 20
385.2669689445806
 30
0.0
 10
206.4253371694867
 20
385.0088612794112
 30
0.0
 10
206.4255596325297
 20
384.7500086521194
 30
0.0
 10
206.4473319729071
 20
384.22512906395
 30
0.0
 10
206.4688591456427
 20
383.9593768461568
 30
0.0
 10
206.5892917584134
 20
383.1630568807611
 30
0.0
 10
206.7457642563816
 20
382.6360254852286
 30
0.0
 10
207.1540569270692
 20
381.9147157164729
 30
0.0
 10
207.3200100095848
 20
381.684495318012
 30
0.0
 10
207.6990532773505
 20
381.2545066357907
 30
0.0
 10
207.9113430842618
 20
381.0552772927933
 30
0.0
 10
208.3473672788454
 20
380.69963080024
 30
0.0
 10
208.5703012881789
 20
380.5437525914469
 30
0.0
 10
208.9944148990056
 20
380.2722626879216
 30
0.0
 10
209.1947941221601
 20
380.1571899339522
 30
0.0
 10
209.3809490888609
 20
380.0454406068185
 30
0.0
  0
SPLINE
  5
9D
330
1F
100
AcDbEntity
  8
0
  6
Continuous
 62
     7
370
    25
100
AcDbSpline
210
0.0
220
0.0
230
1.0
 70
     8
 71
     3
 72
    20
 73
    16
 74
     0
 42
0.000000001
 43
0.00000001
 40
0.0
 40
0.0
 40
0.0
 40
0.0
 40
0.1249999999999997
 40
0.1249999999999997
 40
0.2499999999999994
 40
0.2499999999999994
 40
0.3749999999999992
 40
0.3749999999999992
 40
0.4999999999999989
 40
0.4999999999999989
 40
0.750000000000001
 40
0.750000000000001
 40
0.8750000000000004
 40
0.8750000000000004
 40
1.0
 40
1.0
 40
1.0
 40
1.0
 10
194.9697252501121
 20
380.0454406068183
 30
0.0
 10
195.155880216813
 20
380.1571899339521
 30
0.0
 10
195.3562594399674
 20
380.2722626879215
 30
0.0
 10
195.7803730507941
 20
380.5437525914469
 30
0.0
 10
196.0033070601276
 20
380.6996308002399
 30
0.0
 10
196.4393312547112
 20
381.0552772927933
 30
0.0
 10
196.6516210616225
 20
381.2545066357907
 30
0.0
 10
197.0306643293883
 20
381.684495318012
 30
0.0
 10
197.196617411904
 20
381.9147157164729
 30
0.0
 10
197.6049100825916
 20
382.6360254852286
 30
0.0
 10
197.7613825805599
 20
383.1630568807611
 30
0.0
 10
197.8818151933307
 20
383.9593768461568
 30
0.0
 10
197.9033423660662
 20
384.22512906395
 30
0.0
 10
197.9251147064436
 20
384.7500086521195
 30
0.0
 10
197.9253371694867
 20
385.0088612794112
 30
0.0
 10
197.9253371694867
 20
385.2669689445806
 30
0.0
  0
CIRCLE
  5
9E
330
1F
100
AcDbEntity
  8
0
  6
Continuous
 62
     7
370
    25
100
AcDbCircle
 10
202.1753371695
 20
337.0421428571
 30
0.0
 40
85.25000000000006
  0
CIRCLE
  5
9F
330
1F
100
AcDbEntity
  8
0
  6
Continuous
 62
     8
370
    18
100
AcDbCircle
 10
202.1753371695
 20
305.0421428572
 30
0.0
 40
22.60000000000002
  0
LINE
  5
A0
330
1F
100
AcDbEntity
  8
0
  6
Continuous
 62
     8
370
    18
100
AcDbLine
 10
196.1753371695
 20
334.7421428572
 30
0.0
 11
197.1753371695
 21
334.7421428572
 31
0.0
  0
LINE
  5
A1
330
1F
100
AcDbEntity
  8
0
  6
Continuous
 62
     8
370
    18
100
AcDbLine
 10
197.1753371695
 20
334.7421428572
 30
0.0
 11
197.1753371695
 21
327.3896259462
 31
0.0
  0
LINE
  5
A2
330
1F
100
AcDbEntity
  8
0
  6
Continuous
 62
     8
370
    18
100
AcDbLine
 10
207.1753371695
 20
334.7421428572
 30
0.0
 11
207.1753371695
 21
335.7421428572
 31
0.0
  0
LINE
  5
A3
330
1F
100
AcDbEntity
  8
0
  6
Continuous
 62
     8
370
    18
100
AcDbLine
 10
207.1753371695
 20
334.7421428572
 30
0.0
 11
208.1753371695
 21
334.7421428572
 31
0.0
  0
LINE
  5
A4
330
1F
100
AcDbEntity
  8
0
  6
Continuous
 62
     8
370
    18
100
AcDbLine
 10
207.1753371695
 20
334.7421428572
 30
0.0
 11
197.1753371695
 21
334.7421428572
 31
0.0
  0
LINE
  5
A5
330
1F
100
AcDbEntity
  8
0
  6
Continuous
 62
     8
370
    18
100
AcDbLine
 10
207.1753371695
 20
327.3896259409
 30
0.0
 11
207.1753371695
 21
334.7421428572
 31
0.0
  0
LINE
  5
A6
330
1F
100
AcDbEntity
  8
0
  6
Continuous
 62
     8
370
    18
100
AcDbLine
 10
197.1753371695
 20
334.7421428572
 30
0.0
 11
197.1753371695
 21
335.7421428572
 31
0.0
  0
LINE
  5
A7
330
1F
100
AcDbEntity
  8
0
  6
Continuous
 62
     8
370
    18
100
AcDbLine
 10
206.4253371695
 20
402.0421428571
 30
0.0
 11
205.4253371695
 21
402.0421428571
 31
0.0
  0
LINE
  5
A8
330
1F
100
AcDbEntity
  8
0
  6
Continuous
 62
     8
370
    18
100
AcDbLine
 10
205.4253371695
 20
403.0421428571
 30
0.0
 11
205.4253371695
 21
402.0421428571
 31
0.0
  0
SPLINE
  5
A9
330
1F
100
AcDbEntity
  8
0
  6
Continuous
 62
     8
370
    18
100
AcDbSpline
210
0.0
220
0.0
230
1.0
 70
     8
 71
     3
 72
    22
 73
    18
 74
     0
 42
0.000000001
 43
0.00000001
 40
0.0
 40
0.0
 40
0.0
 40
0.0
 40
0.125
 40
0.125
 40
0.25
 40
0.25
 40
0.375
 40
0.375
 40
0.5
 40
0.5
 40
0.625
 40
0.625
 40
0.75
 40
0.75
 40
0.875
 40
0.875
 40
1.0
 40
1.0
 40
1.0
 40
1.0
 10
198.9253371694867
 20
385.2669689445806
 30
0.0
 10
198.9253371694867
 20
384.9569360794482
 30
0.0
 10
198.9243105046159
 20
384.6470111305674
 30
0.0
 10
198.8924304812931
 20
384.0302964184525
 30
0.0
 10
198.8621807506462
 20
383.7234432058378
 30
0.0
 10
198.7583020165176
 20
383.114296524155
 30
0.0
 10
198.6837886472753
 20
382.8090162884551
 30
0.0
 10
198.48351081575
 20
382.2206375019989
 30
0.0
 10
198.3586283802473
 20
381.9386384456113
 30
0.0
 10
198.0554878163368
 20
381.4009368210664
 30
0.0
 10
197.874734518896
 20
381.1429352969474
 30
0.0
 10
197.4743735925741
 20
380.6669003999913
 30
0.0
 10
197.2557333084553
 20
380.4481922528532
 30
0.0
 10
196.7889453577638
 20
380.0416412059082
 30
0.0
 10
196.5396605526808
 20
379.8534300042991
 30
0.0
 10
196.0217624212842
 20
379.5053454737134
 30
0.0
 10
195.7518759393694
 20
379.3486216288034
 30
0.0
 10
195.484411815782
 20
379.1880621961274
 30
0.0
  0
LINE
  5
AA
330
1F
100
AcDbEntity
  8
0
  6
Continuous
 62
     8
370
    18
100
AcDbLine
 10
198.9253371695
 20
402.0421428571
 30
0.0
 11
198.9253371695
 21
385.2669689446
 31
0.0
  0
LINE
  5
AB
330
1F
100
AcDbEntity
  8
0
  6
Continuous
 62
     8
370
    18
100
AcDbLine
 10
205.4253371695
 20
402.0421428571
 30
0.0
 11
198.9253371695
 21
402.0421428571
 31
0.0
  0
LINE
  5
AC
330
1F
100
AcDbEntity
  8
0
  6
Continuous
 62
     8
370
    18
100
AcDbLine
 10
205.4253371695
 20
385.2669689446
 30
0.0
 11
205.4253371695
 21
402.0421428571
 31
0.0
  0
SPLINE
  5
AD
330
1F
100
AcDbEntity
  8
0
  6
Continuous
 62
     8
370
    18
100
AcDbSpline
210
0.0
220
0.0
230
1.0
 70
     8
 71
     3
 72
    22
 73
    18
 74
     0
 42
0.000000001
 43
0.00000001
 40
0.0
 40
0.0
 40
0.0
 40
0.0
 40
0.1250000000000001
 40
0.1250000000000001
 40
0.2500000000000001
 40
0.2500000000000001
 40
0.3750000000000002
 40
0.3750000000000002
 40
0.5000000000000002
 40
0.5000000000000002
 40
0.6250000000000001
 40
0.6250000000000001
 40
0.7500000000000001
 40
0.7500000000000001
 40
0.875
 40
0.875
 40
1.0
 40
1.0
 40
1.0
 40
1.0
 10
208.8662625231914
 20
379.1880621961274
 30
0.0
 10
208.5989821062599
 20
379.3485113492036
 30
0.0
 10
208.3289955894918
 20
379.5053562660931
 30
0.0
 10
207.813522384835
 20
379.8516772573104
 30
0.0
 10
207.5658754935551
 20
380.038276171259
 30
0.0
 10
207.0967709215651
 20
380.446355232714
 30
0.0
 10
206.8731605050694
 20
380.6701130325981
 30
0.0
 10
206.4715324779381
 20
381.1487067278871
 30
0.0
 10
206.2937641861592
 20
381.4028961645356
 30
0.0
 10
205.9892180198463
 20
381.9442260269233
 30
0.0
 10
205.8612135046558
 20
382.2352529538477
 30
0.0
 10
205.6624442757954
 20
382.8250820685902
 30
0.0
 10
205.5903721011647
 20
383.1240384208887
 30
0.0
 10
205.4880399884451
 20
383.7281386534688
 30
0.0
 10
205.458028595267
 20
384.0333193143372
 30
0.0
 10
205.4263783292717
 20
384.6478793056073
 30
0.0
 10
205.4253371694867
 20
384.9573470877738
 30
0.0
 10
205.4253371694867
 20
385.2669689445806
 30
0.0
  0
ARC
  5
AE
330
1F
100
AcDbEntity
  8
0
  6
Continuous
 62
     8
370
    18
100
AcDbCircle
 10
202.1753371695
 20
368.0421428571
 30
0.0
 40
12.99999999999996
100
AcDbArc
 50
120.9765069015
 51
59.0234930985
  0
LINE
  5
AF
330
1F
100
AcDbEntity
  8
0
  6
Continuous
 62
     8
370
    18
100
AcDbLine
 10
198.9253371695
 20
385.2669689446
 30
0.0
 11
197.9253371695
 21
385.2669689446
 31
0.0
  0
LINE
  5
B0
330
1F
100
AcDbEntity
  8
0
  6
Continuous
 62
     8
370
    18
100
AcDbLine
 10
198.9253371695
 20
402.0421428571
 30
0.0
 11
197.9253371695
 21
402.0421428571
 31
0.0
  0
LINE
  5
B1
330
1F
100
AcDbEntity
  8
0
  6
Continuous
 62
     8
370
    18
100
AcDbLine
 10
206.4253371695
 20
385.2669689446
 30
0.0
 11
205.4253371695
 21
385.2669689446
 31
0.0
  0
LINE
  5
B2
330
1F
100
AcDbEntity
  8
0
  6
Continuous
 62
     8
370
    18
100
AcDbLine
 10
198.9253371695
 20
402.0421428571
 30
0.0
 11
198.9253371695
 21
403.0421428571
 31
0.0
  0
LINE
  5
B3
330
1F
100
AcDbEntity
  8
0
  6
Continuous
 62
     8
370
    18
100
AcDbLine
 10
195.4844118158
 20
379.1880621961
 30
0.0
 11
194.9697252501
 21
380.0454406068
 31
0.0
  0
LINE
  5
B4
330
1F
100
AcDbEntity
  8
0
  6
Continuous
 62
     8
370
    18
100
AcDbLine
 10
209.3809490889
 20
380.0454406068
 30
0.0
 11
208.8662625232
 21
379.1880621961
 31
0.0
  0
CIRCLE
  5
B5
330
1F
100
AcDbEntity
  8
0
  6
Continuous
 62
     8
370
    18
100
AcDbCircle
 10
202.1753371695
 20
337.0421428571
 30
0.0
 40
83.89473357063696
  0
CIRCLE
  5
B6
330
1F
100
AcDbEntity
  8
0
  6
Continuous
 62
     8
370
    18
100
AcDbCircle
 10
202.1753371695
 20
337.0421428571
 30
0.0
 40
84.8824059336738
  0
LINE
  5
B7
330
1F
100
AcDbEntity
  8
0
  6
Continuous
 62
     7
370
    25
100
AcDbLine
 10
372.2731943123
 20
251.7921428571
 30
0.0
 11
386.3110453521
 21
252.1597369235
 31
0.0
  0
LINE
  5
B8
330
1F
100
AcDbEntity
  8
0
  6
Continuous
 62
     7
370
    25
100
AcDbLine
 10
386.3110453521
 20
421.9245487908
 30
0.0
 11
372.2731943123
 21
422.2921428571
 31
0.0
  0
ARC
  5
B9
330
1F
100
AcDbEntity
  8
0
  6
Continuous
 62
     7
370
    25
100
AcDbCircle
 10
386.2848684038
 20
420.9248914658
 30
0.0
 40
0.999999999999248
100
AcDbArc
 50
0.686704177
 51
88.5
  0
ARC
  5
BA
330
1F
100
AcDbEntity
  8
0
  6
Continuous
 62
     7
370
    25
100
AcDbCircle
 10
386.2848684038
 20
253.1593942484
 30
0.0
 40
0.9999999999991912
100
AcDbArc
 50
271.5
 51
359.313295823
  0
LINE
  5
BB
330
1F
100
AcDbEntity
  8
0
  6
Continuous
 62
     7
370
    25
100
AcDbLine
 10
372.2231943123
 20
252.7921428571
 30
0.0
 11
372.2731943123
 21
252.7921428571
 31
0.0
  0
LINE
  5
BC
330
1F
100
AcDbEntity
  8
0
  6
Continuous
 62
     7
370
    25
100
AcDbLine
 10
372.2731943123
 20
421.2921428571
 30
0.0
 11
372.2231943123
 21
421.2921428571
 31
0.0
  0
ARC
  5
BD
330
1F
100
AcDbEntity
  8
0
  6
Continuous
 62
     7
370
    25
100
AcDbCircle
 10
-6612.2124477696
 20
337.0421428572
 30
0.0
 40
7000.000000000001
100
AcDbArc
 50
359.9249507537
 51
0.0
  0
ARC
  5
BE
330
1F
100
AcDbEntity
  8
0
  6
Continuous
 62
     7
370
    25
100
AcDbCircle
 10
-6612.2124477696
 20
337.0421428572
 30
0.0
 40
7000.000000000002
100
AcDbArc
 50
359.313295823
 51
359.5512089403
  0
ARC
  5
BF
330
1F
100
AcDbEntity
  8
0
  6
Continuous
 62
     7
370
    25
100
AcDbCircle
 10
-6612.2124477696
 20
337.0421428572
 30
0.0
 40
7000.000000000001
100
AcDbArc
 50
0.3679869497
 51
0.686704177
  0
ARC
  5
C0
330
1F
100
AcDbEntity
  8
0
  6
Continuous
 62
     7
370
    25
100
AcDbCircle
 10
-6612.2124477696
 20
337.0421428572
 30
0.0
 40
7000.000000000001
100
AcDbArc
 50
0.0
 51
0.1394985499
  0
LINE
  5
C1
330
1F
100
AcDbEntity
  8
0
  6
Continuous
 62
     7
370
    25
100
AcDbLine
 10
402.4731943123
 20
282.1421428638
 30
0.0
 11
447.2731943123
 21
282.1421428638
 31
0.0
  0
ARC
  5
C2
330
1F
100
AcDbEntity
  8
0
  6
Continuous
 62
     7
370
    25
100
AcDbCircle
 10
402.4731943123
 20
282.4421428638
 30
0.0
 40
0.3000000000000114
100
AcDbArc
 50
244.4712206348
 51
270.0
  0
LINE
  5
C3
330
1F
100
AcDbEntity
  8
0
  6
Continuous
 62
     7
370
    25
100
AcDbLine
 10
399.2731943123
 20
327.9421428572
 30
0.0
 11
387.7813220005
 21
327.9421428572
 31
0.0
  0
LINE
  5
C4
330
1F
100
AcDbEntity
  8
0
  6
Continuous
 62
     7
370
    25
100
AcDbLine
 10
387.5725842794
 20
282.1421428572
 30
0.0
 11
399.2731943123
 21
282.1421428572
 31
0.0
  0
ARC
  5
C5
330
1F
100
AcDbEntity
  8
0
  6
Continuous
 62
     7
370
    25
100
AcDbCircle
 10
399.2731943123
 20
283.1421428572
 30
0.0
 40
1.0
100
AcDbArc
 50
270.0
 51
0.0
  0
ARC
  5
C6
330
1F
100
AcDbEntity
  8
0
  6
Continuous
 62
     7
370
    25
100
AcDbCircle
 10
399.2731943123
 20
326.9421428572
 30
0.0
 40
1.0
100
AcDbArc
 50
0.0
 51
90.0
  0
LINE
  5
C7
330
1F
100
AcDbEntity
  8
0
  6
Continuous
 62
     7
370
    25
100
AcDbLine
 10
450.1731943123
 20
327.9421428572
 30
0.0
 11
448.1731943123
 21
327.9421428572
 31
0.0
  0
LINE
  5
C8
330
1F
100
AcDbEntity
  8
0
  6
Continuous
 62
     7
370
    25
100
AcDbLine
 10
448.1731943123
 20
282.1421428572
 30
0.0
 11
450.1731943123
 21
282.1421428572
 31
0.0
  0
ARC
  5
C9
330
1F
100
AcDbEntity
  8
0
  6
Continuous
 62
     7
370
    25
100
AcDbCircle
 10
448.1731943123
 20
282.4421428572
 30
0.0
 40
0.3000000000000114
100
AcDbArc
 50
180.0
 51
270.0
  0
ARC
  5
CA
330
1F
100
AcDbEntity
  8
0
  6
Continuous
 62
     7
370
    25
100
AcDbCircle
 10
448.1731943123
 20
327.6421428572
 30
0.0
 40
0.3000000000000682
100
AcDbArc
 50
90.0
 51
179.999998739
  0
ARC
  5
CB
330
1F
100
AcDbEntity
  8
0
  6
Continuous
 62
     7
370
    25
100
AcDbCircle
 10
450.1731943123
 20
327.6421428572
 30
0.0
 40
0.3000000000000682
100
AcDbArc
 50
0.0
 51
90.0
  0
ARC
  5
CC
330
1F
100
AcDbEntity
  8
0
  6
Continuous
 62
     7
370
    25
100
AcDbCircle
 10
450.1731943123
 20
282.4421428572
 30
0.0
 40
0.3000000000000682
100
AcDbArc
 50
270.0
 51
0.0
  0
LINE
  5
CD
330
1F
100
AcDbEntity
  8
0
  6
Continuous
 62
     7
370
    25
100
AcDbLine
 10
402.3439049905
 20
327.9128535419
 30
0.0
 11
402.2024836342
 21
327.7714321857
 31
0.0
  0
LINE
  5
CE
330
1F
100
AcDbEntity
  8
0
  6
Continuous
 62
     7
370
    25
100
AcDbLine
 10
402.2024836342
 20
282.3128535419
 30
0.0
 11
402.3439049905
 21
282.1714321857
 31
0.0
  0
LINE
  5
CF
330
1F
100
AcDbEntity
  8
0
  6
Continuous
 62
     7
370
    25
100
AcDbLine
 10
429.9731943123
 20
327.9421428638
 30
0.0
 11
402.4731943123
 21
327.9421428638
 31
0.0
  0
LINE
  5
D0
330
1F
100
AcDbEntity
  8
0
  6
Continuous
 62
     7
370
    25
100
AcDbLine
 10
447.5731943123
 20
327.9421428638
 30
0.0
 11
441.9731943123
 21
327.9421428638
 31
0.0
  0
ARC
  5
D1
330
1F
100
AcDbEntity
  8
0
  6
Continuous
 62
     7
370
    25
100
AcDbCircle
 10
402.4731943123
 20
327.6421428638
 30
0.0
 40
0.3000000000000114
100
AcDbArc
 50
90.0
 51
115.5287793652
  0
ARC
  5
D2
330
1F
100
AcDbEntity
  8
0
  6
Continuous
 62
     7
370
    25
100
AcDbCircle
 10
447.5731943123
 20
327.6421428638
 30
0.0
 40
0.3000000000000114
100
AcDbArc
 50
0.0
 51
90.0
  0
ARC
  5
D3
330
1F
100
AcDbEntity
  8
0
  6
Continuous
 62
     7
370
    25
100
AcDbCircle
 10
402.4731943123
 20
282.4421428638
 30
0.0
 40
0.3000000000000119
100
AcDbArc
 50
180.0
 51
205.5287793652
  0
ARC
  5
D4
330
1F
100
AcDbEntity
  8
0
  6
Continuous
 62
     7
370
    25
100
AcDbCircle
 10
402.4731943123
 20
327.6421428638
 30
0.0
 40
0.3000000000000119
100
AcDbArc
 50
154.4712206348
 51
180.0
  0
LINE
  5
D5
330
1F
100
AcDbEntity
  8
0
  6
Continuous
 62
     7
370
    25
100
AcDbLine
 10
402.1631943123
 20
283.3017715565
 30
0.0
 11
402.1731943123
 21
283.3017715565
 31
0.0
  0
LINE
  5
D6
330
1F
100
AcDbEntity
  8
0
  6
Continuous
 62
     7
370
    25
100
AcDbLine
 10
402.1731943123
 20
326.7825141711
 30
0.0
 11
402.1631943123
 21
326.7825141711
 31
0.0
  0
LINE
  5
D7
330
1F
100
AcDbEntity
  8
0
  6
Continuous
 62
     7
370
    25
100
AcDbLine
 10
402.1631943123
 20
325.4421428597
 30
0.0
 11
400.2731943123
 21
325.4421428597
 31
0.0
  0
LINE
  5
D8
330
1F
100
AcDbEntity
  8
0
  6
Continuous
 62
     7
370
    25
100
AcDbLine
 10
400.2731943123
 20
284.6421428567
 30
0.0
 11
402.1631943123
 21
284.6421428567
 31
0.0
  0
LINE
  5
D9
330
1F
100
AcDbEntity
  8
0
  6
Continuous
 62
     7
370
    25
100
AcDbLine
 10
395.7731943123
 20
382.0421428572
 30
0.0
 11
387.643094702
 21
382.0421428572
 31
0.0
  0
LINE
  5
DA
330
1F
100
AcDbEntity
  8
0
  6
Continuous
 62
     7
370
    25
100
AcDbLine
 10
387.7667188662
 20
354.0421428572
 30
0.0
 11
395.7731943123
 21
354.0421428572
 31
0.0
  0
ARC
  5
DB
330
1F
100
AcDbEntity
  8
0
  6
Continuous
 62
     7
370
    25
100
AcDbCircle
 10
395.7731943123
 20
354.5421428572
 30
0.0
 40
0.5
100
AcDbArc
 50
270.0
 51
0.0
  0
ARC
  5
DC
330
1F
100
AcDbEntity
  8
0
  6
Continuous
 62
     7
370
    25
100
AcDbCircle
 10
395.7731943123
 20
381.5421428572
 30
0.0
 40
0.5
100
AcDbArc
 50
0.0
 51
90.0
  0
ARC
  5
DD
330
1F
100
AcDbEntity
  8
0
  6
Continuous
 62
     7
370
    25
100
AcDbCircle
 10
397.1731943123
 20
381.6421428571
 30
0.0
 40
0.4000000000000341
100
AcDbArc
 50
90.0
 51
180.0
  0
ARC
  5
DE
330
1F
100
AcDbEntity
  8
0
  6
Continuous
 62
     7
370
    25
100
AcDbCircle
 10
397.1731943123
 20
354.4421428571
 30
0.0
 40
0.4000000000000341
100
AcDbArc
 50
180.0
 51
270.0
  0
LINE
  5
DF
330
1F
100
AcDbEntity
  8
0
  6
Continuous
 62
     7
370
    25
100
AcDbLine
 10
397.1731943123
 20
354.0421428571
 30
0.0
 11
419.4731943123
 21
354.0421428571
 31
0.0
  0
LINE
  5
E0
330
1F
100
AcDbEntity
  8
0
  6
Continuous
 62
     7
370
    25
100
AcDbLine
 10
407.6068371104
 20
382.0421428571
 30
0.0
 11
397.1731943123
 21
382.0421428571
 31
0.0
  0
ARC
  5
E1
330
1F
100
AcDbEntity
  8
0
  6
Continuous
 62
     7
370
    25
100
AcDbCircle
 10
419.4731943123
 20
355.0421428571
 30
0.0
 40
1.000000000000057
100
AcDbArc
 50
270.0
 51
0.0
  0
LINE
  5
E2
330
1F
100
AcDbEntity
  8
0
  6
Continuous
 62
     7
370
    25
100
AcDbLine
 10
396.7731943123
 20
380.0421428572
 30
0.0
 11
396.2731943123
 21
380.0421428572
 31
0.0
  0
LINE
  5
E3
330
1F
100
AcDbEntity
  8
0
  6
Continuous
 62
     7
370
    25
100
AcDbLine
 10
396.2731943123
 20
356.0421428572
 30
0.0
 11
396.7731943123
 21
356.0421428572
 31
0.0
  0
LINE
  5
E4
330
1F
100
AcDbEntity
  8
0
  6
Continuous
 62
     7
370
    25
100
AcDbLine
 10
411.9913317895
 20
385.8792806316
 30
0.0
 11
411.9015393962
 21
384.9025134685
 31
0.0
  0
SPLINE
  5
E5
330
1F
100
AcDbEntity
  8
0
  6
Continuous
 62
     7
370
    25
100
AcDbSpline
210
0.0
220
0.0
230
1.0
 70
     8
 71
     3
 72
     9
 73
     5
 74
     0
 42
0.000000001
 43
0.00000001
 40
0.0
 40
0.0
 40
0.0
 40
0.0
 40
0.5006426855848808
 40
1.0
 40
1.0
 40
1.0
 40
1.0
 10
411.952597079971
 20
385.1541745772593
 30
0.0
 10
411.9128542974551
 20
385.0212812213425
 30
0.0
 10
411.8334707697212
 20
384.7558357055221
 30
0.0
 10
411.7221093939546
 20
384.5213021760526
 30
0.0
 10
411.6665002764221
 20
384.4041861426364
 30
0.0
  0
SPLINE
  5
E6
330
1F
100
AcDbEntity
  8
0
  6
Continuous
 62
     7
370
    25
100
AcDbSpline
210
0.0
220
0.0
230
1.0
 70
     8
 71
     3
 72
    11
 73
     7
 74
     0
 42
0.000000001
 43
0.00000001
 40
0.0
 40
0.0
 40
0.0
 40
0.0
 40
0.2465998217618103
 40
0.4856354408418378
 40
0.7506985523680259
 40
1.0
 40
1.0
 40
1.0
 40
1.0
 10
411.6635337050881
 20
384.3961650207044
 30
0.0
 10
411.4850146774374
 20
384.0187792552752
 30
0.0
 10
411.1334525146082
 20
383.2755836550017
 30
0.0
 10
410.106978742378
 20
382.4827944674061
 30
0.0
 10
408.8867719368643
 20
382.0880861645415
 30
0.0
 10
408.0234921739791
 20
382.074884942586
 30
0.0
 10
407.6050790256257
 20
382.0684865940112
 30
0.0
  0
LINE
  5
E7
330
1F
100
AcDbEntity
  8
0
  6
Continuous
 62
     7
370
    25
100
AcDbLine
 10
372.2731943123
 20
422.2921428571
 30
0.0
 11
372.2731943123
 21
251.7921428571
 31
0.0
  0
LINE
  5
E8
330
1F
100
AcDbEntity
  8
0
  6
Continuous
 62
     7
370
    25
100
AcDbLine
 10
372.2231943123
 20
252.7921428571
 30
0.0
 11
372.2231943123
 21
421.2921428571
 31
0.0
  0
SPLINE
  5
E9
330
1F
100
AcDbEntity
  8
0
  6
Continuous
 62
     7
370
    25
100
AcDbSpline
210
0.0
220
0.0
230
1.0
 70
     8
 71
     3
 72
    12
 73
     8
 74
     0
 42
0.000000001
 43
0.00000001
 40
0.0
 40
0.0
 40
0.0
 40
0.0
 40
0.2117220186052347
 40
0.4295839501113014
 40
0.6413059825167767
 40
0.8591680370521547
 40
1.0
 40
1.0
 40
1.0
 40
1.0
 10
387.6029244062298
 20
288.8492451869994
 30
0.0
 10
387.5990211407033
 20
287.9954288288492
 30
0.0
 10
387.5911014154228
 20
286.2630355415564
 30
0.0
 10
387.5822244183912
 20
284.3212487521199
 30
0.0
 10
387.5759300796162
 20
282.9444032243063
 30
0.0
 10
387.5725750031212
 20
282.2105027517368
 30
0.0
 10
387.5725818397793
 20
282.2119982265999
 30
0.0
 10
387.5725845240169
 20
282.2125853862687
 30
0.0
  0
SPLINE
  5
EA
330
1F
100
AcDbEntity
  8
0
  6
Continuous
 62
     7
370
    25
100
AcDbSpline
210
0.0
220
0.0
230
1.0
 70
     8
 71
     3
 72
    22
 73
    18
 74
     0
 42
0.000000001
 43
0.00000001
 40
0.0
 40
0.0
 40
0.0
 40
0.0
 40
0.0515072963928961
 40
0.1220722510412111
 40
0.1946835859832662
 40
0.2652487090765351
 40
0.3378601942006568
 40
0.4084258853858539
 40
0.4810379456537991
 40
0.5516043556250562
 40
0.6242171639556188
 40
0.694784128406665
 40
0.7673975298894176
 40
0.8379646415004085
 40
0.9105782212636903
 40
0.9550408975317453
 40
1.0
 40
1.0
 40
1.0
 40
1.0
 10
387.7813215943958
 20
327.873098090139
 30
0.0
 10
387.7812985973989
 20
327.8680674988375
 30
0.0
 10
387.7812440945346
 20
327.8561450014973
 30
0.0
 10
387.7776958529674
 20
327.0799679307486
 30
0.0
 10
387.7713488874592
 20
325.6915716315414
 30
0.0
 10
387.7621436507095
 20
323.6779318302586
 30
0.0
 10
387.7506425985274
 20
321.1620875883513
 30
0.0
 10
387.7369276670226
 20
318.1619648129175
 30
0.0
 10
387.7216436130361
 20
314.8186055886272
 30
0.0
 10
387.7049453025359
 20
311.1658887404438
 30
0.0
 10
387.6876067154004
 20
307.3731221582542
 30
0.0
 10
387.6698057837568
 20
303.4792289002635
 30
0.0
 10
387.6523691076163
 20
299.6650249912846
 30
0.0
 10
387.6354677240795
 20
295.9679233584436
 30
0.0
 10
387.6218159066896
 20
292.9816567476987
 30
0.0
 10
387.6109715715226
 20
290.6095167202654
 30
0.0
 10
387.6056167038672
 20
289.4381699471786
 30
0.0
 10
387.6029244062298
 20
288.8492451869994
 30
0.0
  0
SPLINE
  5
EB
330
1F
100
AcDbEntity
  8
0
  6
Continuous
 62
     7
370
    25
100
AcDbSpline
210
0.0
220
0.0
230
1.0
 70
     8
 71
     3
 72
    12
 73
     8
 74
     0
 42
0.000000001
 43
0.00000001
 40
0.0
 40
0.0
 40
0.0
 40
0.0
 40
0.2117066123861292
 40
0.4295526933540582
 40
0.6412593186904099
 40
0.859105515111747
 40
1.0
 40
1.0
 40
1.0
 40
1.0
 10
387.7487478046239
 20
358.1431179381785
 30
0.0
 10
387.7510596056337
 20
357.621101084198
 30
0.0
 10
387.7557502496294
 20
356.5619289446214
 30
0.0
 10
387.7610080172988
 20
355.3746958206169
 30
0.0
 10
387.764736326712
 20
354.5328224435067
 30
0.0
 10
387.7667239697858
 20
354.0840011597275
 30
0.0
 10
387.7667202016513
 20
354.0848520256732
 30
0.0
 10
387.7667187217261
 20
354.0851862010967
 30
0.0
  0
SPLINE
  5
EC
330
1F
100
AcDbEntity
  8
0
  6
Continuous
 62
     7
370
    25
100
AcDbSpline
210
0.0
220
0.0
230
1.0
 70
     8
 71
     3
 72
    21
 73
    17
 74
     0
 42
0.000000001
 43
0.00000001
 40
0.0
 40
0.0
 40
0.0
 40
0.0
 40
0.0514906929520694
 40
0.122066179617112
 40
0.1946883525104606
 40
0.265263997215977
 40
0.3378863110035618
 40
0.4084624889090354
 40
0.4810853425128133
 40
0.5516621950999241
 40
0.6242857508641867
 40
0.6948631239314961
 40
0.7674872364751589
 40
0.838064747712869
 40
0.910689027638283
 40
1.0
 40
1.0
 40
1.0
 40
1.0
 10
387.643094943241
 20
381.9999033769731
 30
0.0
 10
387.6431084344361
 20
381.9968570418695
 30
0.0
 10
387.6431404172772
 20
381.9896352612599
 30
0.0
 10
387.6452412207829
 20
381.5152700364346
 30
0.0
 10
387.648999694466
 20
380.6665995214807
 30
0.0
 10
387.654451079453
 20
379.4356655959695
 30
0.0
 10
387.6612622210577
 20
377.8976944746696
 30
0.0
 10
387.6693845854671
 20
376.0636443103193
 30
0.0
 10
387.678436365333
 20
374.019727289512
 30
0.0
 10
387.6883256395287
 20
371.7866986694883
 30
0.0
 10
387.6985947534847
 20
369.4678976922685
 30
0.0
 10
387.7091355889911
 20
367.0877374884457
 30
0.0
 10
387.7194688507055
 20
364.7544447154003
 30
0.0
 10
387.7294551181971
 20
362.4995013374385
 30
0.0
 10
387.7395694568531
 20
360.2156358512112
 30
0.0
 10
387.7454851599206
 20
358.879839814532
 30
0.0
 10
387.7487478046239
 20
358.1431179381785
 30
0.0
  0
LINE
  5
ED
330
1F
100
AcDbEntity
  8
0
  6
Continuous
 62
     7
370
    25
100
AcDbLine
 10
447.2731943123
 20
282.1421428638
 30
0.0
 11
447.2731943123
 21
282.1913223096
 31
0.0
  0
LINE
  5
EE
330
1F
100
AcDbEntity
  8
0
  6
Continuous
 62
     7
370
    25
100
AcDbLine
 10
447.5731943123
 20
282.1913223096
 30
0.0
 11
447.2731943123
 21
282.1913223096
 31
0.0
  0
LINE
  5
EF
330
1F
100
AcDbEntity
  8
0
  6
Continuous
 62
     7
370
    25
100
AcDbLine
 10
447.8731943123
 20
307.2398502863
 30
0.0
 11
447.8731943123
 21
282.4919765615
 31
0.0
  0
SPLINE
  5
F0
330
1F
100
AcDbEntity
  8
0
  6
Continuous
 62
     7
370
    25
100
AcDbSpline
210
0.0
220
0.0
230
1.0
 70
     8
 71
     3
 72
    10
 73
     6
 74
     0
 42
0.000000001
 43
0.00000001
 40
0.0
 40
0.0
 40
0.0
 40
0.0
 40
0.5
 40
0.5
 40
1.0
 40
1.0
 40
1.0
 40
1.0
 10
447.8731943123479
 20
282.4919765673004
 30
0.0
 10
447.8731943123479
 20
282.4126583876304
 30
0.0
 10
447.8407989080285
 20
282.3350738143713
 30
0.0
 10
447.7302386534346
 20
282.2240724688629
 30
0.0
 10
447.6525174060264
 20
282.1913223096089
 30
0.0
 10
447.5731943123482
 20
282.1913223096089
 30
0.0
  0
LINE
  5
F1
330
1F
100
AcDbEntity
  8
0
  6
Continuous
 62
     7
370
    25
100
AcDbLine
 10
400.2731943123
 20
326.9421428572
 30
0.0
 11
400.2731943123
 21
283.1421428572
 31
0.0
  0
LINE
  5
F2
330
1F
100
AcDbEntity
  8
0
  6
Continuous
 62
     7
370
    25
100
AcDbLine
 10
447.8731943123
 20
282.4421428646
 30
0.0
 11
447.8731943123
 21
282.4919765615
 31
0.0
  0
LINE
  5
F3
330
1F
100
AcDbEntity
  8
0
  6
Continuous
 62
     7
370
    25
100
AcDbLine
 10
447.8731943123
 20
327.6421428638
 30
0.0
 11
447.8731943123
 21
307.2398502863
 31
0.0
  0
LINE
  5
F4
330
1F
100
AcDbEntity
  8
0
  6
Continuous
 62
     7
370
    25
100
AcDbLine
 10
450.4731943123
 20
327.6421428572
 30
0.0
 11
450.4731943123
 21
282.4421428572
 31
0.0
  0
LINE
  5
F5
330
1F
100
AcDbEntity
  8
0
  6
Continuous
 62
     7
370
    25
100
AcDbLine
 10
402.2024836342
 20
307.2524228572
 30
0.0
 11
402.2024836342
 21
282.3128535419
 31
0.0
  0
LINE
  5
F6
330
1F
100
AcDbEntity
  8
0
  6
Continuous
 62
     7
370
    25
100
AcDbLine
 10
402.2024836342
 20
327.7714321857
 30
0.0
 11
402.2024836342
 21
307.2524228572
 31
0.0
  0
SPLINE
  5
F7
330
1F
100
AcDbEntity
  8
0
  6
Continuous
 62
     7
370
    25
100
AcDbSpline
210
0.0
220
0.0
230
1.0
 70
     8
 71
     3
 72
    12
 73
     8
 74
     0
 42
0.000000001
 43
0.00000001
 40
0.0
 40
0.0
 40
0.0
 40
0.0
 40
0.2500000000000178
 40
0.2500000000000178
 40
0.5000000000000356
 40
0.5000000000000356
 40
1.0
 40
1.0
 40
1.0
 40
1.0
 10
429.9731943123452
 20
327.3896259462039
 30
0.0
 10
429.9731943123452
 20
327.3603683250324
 30
0.0
 10
429.9985143624631
 20
327.330530145387
 30
0.0
 10
430.0969823594161
 20
327.2724102704191
 30
0.0
 10
430.1696810704184
 20
327.2447076301107
 30
0.0
 10
430.4443087399766
 20
327.1731185271101
 30
0.0
 10
430.7049751277602
 20
327.1421428670116
 30
0.0
 10
430.9731943123452
 20
327.1421428670116
 30
0.0
  0
LINE
  5
F8
330
1F
100
AcDbEntity
  8
0
  6
Continuous
 62
     7
370
    25
100
AcDbLine
 10
440.9731943123
 20
327.142142867
 30
0.0
 11
430.9731943123
 21
327.142142867
 31
0.0
  0
SPLINE
  5
F9
330
1F
100
AcDbEntity
  8
0
  6
Continuous
 62
     7
370
    25
100
AcDbSpline
210
0.0
220
0.0
230
1.0
 70
     8
 71
     3
 72
    14
 73
    10
 74
     0
 42
0.000000001
 43
0.00000001
 40
0.0
 40
0.0
 40
0.0
 40
0.0
 40
0.25
 40
0.25
 40
0.5
 40
0.5
 40
0.75
 40
0.75
 40
1.0
 40
1.0
 40
1.0
 40
1.0
 10
440.9731943123453
 20
327.1421428670117
 30
0.0
 10
441.1072289999905
 20
327.1421428670117
 30
0.0
 10
441.2388227688504
 20
327.1494976816654
 30
0.0
 10
441.4823243842466
 20
327.1768882850142
 30
0.0
 10
441.593307835815
 20
327.1969287343534
 30
0.0
 10
441.7761022537712
 20
327.244520805473
 30
0.0
 10
441.8493429697732
 20
327.2724388376843
 30
0.0
 10
441.9472903924994
 20
327.3301200291069
 30
0.0
 10
441.9731943123453
 20
327.3603837616881
 30
0.0
 10
441.9731943123453
 20
327.389625946204
 30
0.0
  0
LINE
  5
FA
330
1F
100
AcDbEntity
  8
0
  6
Continuous
 62
     7
370
    25
100
AcDbLine
 10
402.1731943123
 20
282.4421428638
 30
0.0
 11
402.1731943123
 21
307.2398502863
 31
0.0
  0
LINE
  5
FB
330
1F
100
AcDbEntity
  8
0
  6
Continuous
 62
     7
370
    25
100
AcDbLine
 10
402.1731943123
 20
307.2398502863
 30
0.0
 11
402.1731943123
 21
327.6421428638
 31
0.0
  0
LINE
  5
FC
330
1F
100
AcDbEntity
  8
0
  6
Continuous
 62
     7
370
    25
100
AcDbLine
 10
402.1631943123
 20
283.3017715565
 30
0.0
 11
402.1631943123
 21
326.7825141711
 31
0.0
  0
LINE
  5
FD
330
1F
100
AcDbEntity
  8
0
  6
Continuous
 62
     7
370
    25
100
AcDbLine
 10
396.2731943123
 20
372.2843808205
 30
0.0
 11
396.2731943123
 21
354.5421428572
 31
0.0
  0
LINE
  5
FE
330
1F
100
AcDbEntity
  8
0
  6
Continuous
 62
     7
370
    25
100
AcDbLine
 10
396.2731943123
 20
381.5421428572
 30
0.0
 11
396.2731943123
 21
372.2843808205
 31
0.0
  0
LINE
  5
FF
330
1F
100
AcDbEntity
  8
0
  6
Continuous
 62
     7
370
    25
100
AcDbLine
 10
396.7731943123
 20
354.4421428571
 30
0.0
 11
396.7731943123
 21
381.6421428571
 31
0.0
  0
LINE
  5
100
330
1F
100
AcDbEntity
  8
0
  6
Continuous
 62
     7
370
    25
100
AcDbLine
 10
420.4731943123
 20
379.1880621961
 30
0.0
 11
420.4731943123
 21
355.0421428571
 31
0.0
  0
SPLINE
  5
101
330
1F
100
AcDbEntity
  8
0
  6
Continuous
 62
     7
370
    25
100
AcDbSpline
210
0.0
220
0.0
230
1.0
 70
    24
 71
     3
 72
    22
 73
    18
 74
     0
 42
0.000000001
 43
0.00000001
 40
0.0
 40
0.0
 40
0.0
 40
0.0
 40
0.125
 40
0.125
 40
0.25
 40
0.25
 40
0.375
 40
0.375
 40
0.5
 40
0.5
 40
0.625
 40
0.625
 40
0.75
 40
0.75
 40
0.875
 40
0.875
 40
1.0
 40
1.0
 40
1.0
 40
1.0
 10
420.4731943123458
 20
385.2669689445806
 30
0.0
 10
420.4731943123458
 20
384.9569360794482
 30
0.0
 10
420.4731943123459
 20
384.6470111305674
 30
0.0
 10
420.4731943123458
 20
384.0302964184525
 30
0.0
 10
420.4731943123458
 20
383.7234432058378
 30
0.0
 10
420.4731943123458
 20
383.114296524155
 30
0.0
 10
420.4731943123458
 20
382.8090162884551
 30
0.0
 10
420.4731943123458
 20
382.2206375019989
 30
0.0
 10
420.4731943123459
 20
381.9386384456113
 30
0.0
 10
420.4731943123459
 20
381.4009368210664
 30
0.0
 10
420.4731943123459
 20
381.1429352969474
 30
0.0
 10
420.4731943123459
 20
380.6669003999913
 30
0.0
 10
420.4731943123459
 20
380.4481922528532
 30
0.0
 10
420.4731943123459
 20
380.0416412059082
 30
0.0
 10
420.4731943123459
 20
379.8534300042991
 30
0.0
 10
420.4731943123459
 20
379.5053454737134
 30
0.0
 10
420.4731943123458
 20
379.3486216288034
 30
0.0
 10
420.4731943123458
 20
379.1880621961274
 30
0.0
  0
LINE
  5
102
330
1F
100
AcDbEntity
  8
0
  6
Continuous
 62
     7
370
    25
100
AcDbLine
 10
429.9731943123
 20
327.3896259462
 30
0.0
 11
429.9731943123
 21
334.7421428572
 31
0.0
  0
ARC
  5
103
330
1F
100
AcDbEntity
  8
0
  6
Continuous
 62
     7
370
    25
100
AcDbCircle
 10
430.9731943123
 20
334.7421428572
 30
0.0
 40
1.0
100
AcDbArc
 50
90.0
 51
180.0
  0
LINE
  5
104
330
1F
100
AcDbEntity
  8
0
  6
Continuous
 62
     7
370
    25
100
AcDbLine
 10
430.9731943123
 20
335.7421428572
 30
0.0
 11
440.9731943123
 21
335.7421428572
 31
0.0
  0
LINE
  5
105
330
1F
100
AcDbEntity
  8
0
  6
Continuous
 62
     7
370
    25
100
AcDbLine
 10
441.9731943123
 20
334.7421428572
 30
0.0
 11
441.9731943123
 21
327.3896259462
 31
0.0
  0
ARC
  5
106
330
1F
100
AcDbEntity
  8
0
  6
Continuous
 62
     7
370
    25
100
AcDbCircle
 10
440.9731943123
 20
334.7421428572
 30
0.0
 40
1.0
100
AcDbArc
 50
0.0
 51
90.0
  0
LINE
  5
107
330
1F
100
AcDbEntity
  8
0
  6
Continuous
 62
     7
370
    25
100
AcDbLine
 10
411.9731943123
 20
385.992948946
 30
0.0
 11
411.9731943123
 21
402.0421428571
 31
0.0
  0
ARC
  5
108
330
1F
100
AcDbEntity
  8
0
  6
Continuous
 62
     7
370
    25
100
AcDbCircle
 10
412.9731943123
 20
402.0421428571
 30
0.0
 40
1.0
100
AcDbArc
 50
90.0
 51
180.0
  0
LINE
  5
109
330
1F
100
AcDbEntity
  8
0
  6
Continuous
 62
     7
370
    25
100
AcDbLine
 10
412.9731943123
 20
403.0421428571
 30
0.0
 11
419.4731943123
 21
403.0421428571
 31
0.0
  0
LINE
  5
10A
330
1F
100
AcDbEntity
  8
0
  6
Continuous
 62
     7
370
    25
100
AcDbLine
 10
420.4731943123
 20
402.0421428571
 30
0.0
 11
420.4731943123
 21
385.2669689446
 31
0.0
  0
ARC
  5
10B
330
1F
100
AcDbEntity
  8
0
  6
Continuous
 62
     7
370
    25
100
AcDbCircle
 10
419.4731943123
 20
402.0421428571
 30
0.0
 40
1.0
100
AcDbArc
 50
0.0
 51
90.0
  0
LINE
  5
10C
330
1F
100
AcDbEntity
  8
0
  6
Continuous
 62
     8
370
    18
100
AcDbLine
 10
387.2847965815
 20
420.9368764278
 30
0.0
 11
387.2847965815
 21
253.1474092865
 31
0.0
  0
ARC
  5
10D
330
1F
100
AcDbEntity
  8
0
  6
Continuous
 62
     8
370
    18
100
AcDbCircle
 10
402.4706781733
 20
304.4473796936
 30
0.0
 40
2.821644821934175
100
AcDbArc
 50
89.9489077556
 51
92.5750988231
  0
ARC
  5
10E
330
1F
100
AcDbEntity
  8
0
  6
Continuous
 62
     8
370
    18
100
AcDbCircle
 10
447.6474850872
 20
306.4758853043
 30
0.0
 40
0.7966097840098518
100
AcDbArc
 50
73.5405164015
 51
95.3511044033
  0
ARC
  5
10F
330
1F
100
AcDbEntity
  8
0
  6
Continuous
 62
     8
370
    18
100
AcDbCircle
 10
402.2016441642
 20
307.2139757128
 30
0.0
 40
0.0384563079766525
100
AcDbArc
 50
88.7491801896
 51
137.7141050389
  0
SPLINE
  5
110
330
1F
100
AcDbEntity
  8
0
  6
Continuous
 62
     8
370
    18
100
AcDbSpline
210
0.0
220
0.0
230
1.0
 70
     8
 71
     3
 72
     9
 73
     5
 74
     0
 42
0.000000001
 43
0.00000001
 40
0.0
 40
0.0
 40
0.0
 40
0.0
 40
0.9964450710798546
 40
1.0
 40
1.0
 40
1.0
 40
1.0
 10
407.7300370445931
 20
381.659681660231
 30
0.0
 10
407.6478512159408
 20
381.9137494241851
 30
0.0
 10
407.5653721801789
 20
382.1687236032223
 30
0.0
 10
407.606690227657
 20
382.0412363740726
 30
0.0
 10
407.606837110379
 20
382.0407831660348
 30
0.0
  0
SPLINE
  5
111
330
1F
100
AcDbEntity
  8
0
  6
Continuous
 62
     8
370
    18
100
AcDbSpline
210
0.0
220
0.0
230
1.0
 70
     8
 71
     3
 72
    24
 73
    20
 74
     0
 42
0.000000001
 43
0.00000001
 40
0.0
 40
0.0
 40
0.0
 40
0.0
 40
0.0313965838690735
 40
0.0626701743565698
 40
0.0938672300040239
 40
0.1250345515700929
 40
0.1562190736299133
 40
0.2311805427854308
 40
0.3057567825660281
 40
0.3750735274567404
 40
0.4436596408143707
 40
0.5712783485516814
 40
0.6888029567245586
 40
0.7439109976308733
 40
0.7987361782876888
 40
0.850430313312548
 40
0.901809167988295
 40
0.9510036401246033
 40
1.0
 40
1.0
 40
1.0
 40
1.0
 10
412.9731943123458
 20
380.0454406068185
 30
0.0
 10
412.8954630939118
 20
380.0458792277618
 30
0.0
 10
412.7403051623185
 20
380.0467547513891
 30
0.0
 10
412.5082496251626
 20
380.0538725062322
 30
0.0
 10
412.2774492693703
 20
380.0652213422917
 30
0.0
 10
412.0479005930991
 20
380.0811837563903
 30
0.0
 10
411.7130145827643
 20
380.1110957385669
 30
0.0
 10
411.2777394527832
 20
380.1650146517131
 30
0.0
 10
410.7656784086593
 20
380.2539993397343
 30
0.0
 10
410.287286685816
 20
380.3605748215026
 30
0.0
 10
409.7190682006267
 20
380.5160311180742
 30
0.0
 10
409.1061232802892
 20
380.7315093978511
 30
0.0
 10
408.6163329479878
 20
380.9590910079098
 30
0.0
 10
408.3093332740434
 20
381.1324858833352
 30
0.0
 10
408.1224094780968
 20
381.2540948840763
 30
0.0
 10
407.9708836072837
 20
381.3692403586975
 30
0.0
 10
407.8566437284484
 20
381.4749850620044
 30
0.0
 10
407.7731168028072
 20
381.5729819831263
 30
0.0
 10
407.7445858555595
 20
381.6308250313863
 30
0.0
 10
407.7303491643095
 20
381.659688202731
 30
0.0
  0
LINE
  5
112
330
1F
100
AcDbEntity
  8
0
  6
Continuous
 62
     8
370
    18
100
AcDbLine
 10
419.4731943123
 20
380.0454406068
 30
0.0
 11
412.9731943123
 21
380.0454406068
 31
0.0
  0
ARC
  5
113
330
1F
100
AcDbEntity
  8
0
  6
Continuous
 62
     8
370
    18
100
AcDbCircle
 10
419.5394198776
 20
379.1108202638
 30
0.0
 40
0.9369637192365006
100
AcDbArc
 50
4.7287476393
 51
94.0531045291
  0
LINE
  5
114
330
1F
100
AcDbEntity
  8
0
  6
Continuous
 62
     8
370
    18
100
AcDbLine
 10
412.9731943123
 20
385.2669689446
 30
0.0
 11
419.4731943123
 21
385.2669689446
 31
0.0
  0
LINE
  5
115
330
1F
100
AcDbEntity
  8
0
  6
Continuous
 62
     8
370
    18
100
AcDbLine
 10
420.4731943123
 20
385.2669689446
 30
0.0
 11
419.4731943123
 21
385.2669689446
 31
0.0
  0
SPLINE
  5
116
330
1F
100
AcDbEntity
  8
0
  6
Continuous
 62
     8
370
    18
100
AcDbSpline
210
0.0
220
0.0
230
1.0
 70
     8
 71
     3
 72
    18
 73
    14
 74
     0
 42
0.000000001
 43
0.00000001
 40
0.0
 40
0.0
 40
0.0
 40
0.0
 40
0.0549552946371359
 40
0.1173358414242824
 40
0.1871605233606508
 40
0.2644423350809065
 40
0.35860712052592
 40
0.4017025639375883
 40
0.5360493729718477
 40
0.6676320445141419
 40
0.7815711105316889
 40
0.8881240084018304
 40
1.0
 40
1.0
 40
1.0
 40
1.0
 10
411.9731943123458
 20
385.9929489459885
 30
0.0
 10
411.973879365765
 20
385.9768979747853
 30
0.0
 10
411.9753420331913
 20
385.942627314893
 30
0.0
 10
411.9880181400682
 20
385.8853980129088
 30
0.0
 10
412.0114741316871
 20
385.8199781701582
 30
0.0
 10
412.0508247854484
 20
385.7428855773479
 30
0.0
 10
412.0978823667502
 20
385.673816720465
 30
0.0
 10
412.1690300781665
 20
385.5867291478304
 30
0.0
 10
412.2676540513449
 20
385.4904907324732
 30
0.0
 10
412.4224617120211
 20
385.3868085501694
 30
0.0
 10
412.5950791710785
 20
385.3138516911596
 30
0.0
 10
412.7794280310145
 20
385.2737254526073
 30
0.0
 10
412.9075646589412
 20
385.2692574092039
 30
0.0
 10
412.9731943123458
 20
385.2669689445807
 30
0.0
  0
LINE
  5
117
330
1F
100
AcDbEntity
  8
0
  6
Continuous
 62
     8
370
    18
100
AcDbLine
 10
411.9733152235
 20
385.9929494032
 30
0.0
 11
411.8856863234
 21
385.1929213924
 31
0.0
  0
LINE
  5
118
330
1F
100
AcDbEntity
  8
0
  6
Continuous
 62
     7
370
    25
100
AcDbLine
 10
116.9253371695
 20
185.96
 30
0.0
 11
117.2929312358
 21
171.9221489603
 31
0.0
  0
LINE
  5
119
330
1F
100
AcDbEntity
  8
0
  6
Continuous
 62
     7
370
    25
100
AcDbLine
 10
287.0577431032
 20
171.9221489603
 30
0.0
 11
287.4253371695
 21
185.96
 31
0.0
  0
ARC
  5
11A
330
1F
100
AcDbEntity
  8
0
  6
Continuous
 62
     7
370
    25
100
AcDbCircle
 10
286.0580857782
 20
171.9483259086
 30
0.0
 40
0.9999999999991912
100
AcDbArc
 50
270.686704177
 51
358.5
  0
ARC
  5
11B
330
1F
100
AcDbEntity
  8
0
  6
Continuous
 62
     7
370
    25
100
AcDbCircle
 10
118.2925885608
 20
171.9483259086
 30
0.0
 40
0.999999999999177
100
AcDbArc
 50
181.5
 51
269.313295823
  0
LINE
  5
11C
330
1F
100
AcDbEntity
  8
0
  6
Continuous
 62
     7
370
    25
100
AcDbLine
 10
117.9253371695
 20
186.01
 30
0.0
 11
117.9253371695
 21
185.96
 31
0.0
  0
LINE
  5
11D
330
1F
100
AcDbEntity
  8
0
  6
Continuous
 62
     7
370
    25
100
AcDbLine
 10
286.4253371695
 20
185.96
 30
0.0
 11
286.4253371695
 21
186.01
 31
0.0
  0
ARC
  5
11E
330
1F
100
AcDbEntity
  8
0
  6
Continuous
 62
     7
370
    25
100
AcDbCircle
 10
202.1753371694
 20
7170.445642082
 30
0.0
 40
7000.000000000002
100
AcDbArc
 50
269.313295823
 51
269.8854083646
  0
ARC
  5
11F
330
1F
100
AcDbEntity
  8
0
  6
Continuous
 62
     7
370
    25
100
AcDbCircle
 10
202.1753371694
 20
7170.445642082
 30
0.0
 40
7000.000000000002
100
AcDbArc
 50
270.1145916354
 51
270.686704177
  0
LINE
  5
120
330
1F
100
AcDbEntity
  8
0
  6
Continuous
 62
     7
370
    25
100
AcDbLine
 10
188.1753371695
 20
161.06
 30
0.0
 11
188.1753371695
 21
138.76
 31
0.0
  0
LINE
  5
121
330
1F
100
AcDbEntity
  8
0
  6
Continuous
 62
     7
370
    25
100
AcDbLine
 10
216.1753371695
 20
138.76
 30
0.0
 11
216.1753371695
 21
161.06
 31
0.0
  0
LINE
  5
122
330
1F
100
AcDbEntity
  8
0
  6
Continuous
 62
     7
370
    25
100
AcDbLine
 10
216.1753371695
 20
162.46
 30
0.0
 11
216.1753371695
 21
170.5282876191
 31
0.0
  0
LINE
  5
123
330
1F
100
AcDbEntity
  8
0
  6
Continuous
 62
     7
370
    25
100
AcDbLine
 10
188.1753371695
 20
170.5282819769
 30
0.0
 11
188.1753371695
 21
162.46
 31
0.0
  0
ARC
  5
124
330
1F
100
AcDbEntity
  8
0
  6
Continuous
 62
     7
370
    25
100
AcDbCircle
 10
188.6753371695
 20
162.46
 30
0.0
 40
0.5
100
AcDbArc
 50
180.0
 51
270.0
  0
ARC
  5
125
330
1F
100
AcDbEntity
  8
0
  6
Continuous
 62
     7
370
    25
100
AcDbCircle
 10
215.6753371695
 20
162.46
 30
0.0
 40
0.5
100
AcDbArc
 50
270.0
 51
0.0
  0
ARC
  5
126
330
1F
100
AcDbEntity
  8
0
  6
Continuous
 62
     7
370
    25
100
AcDbCircle
 10
215.7753371695
 20
161.06
 30
0.0
 40
0.4000000000000057
100
AcDbArc
 50
0.0
 51
90.0
  0
ARC
  5
127
330
1F
100
AcDbEntity
  8
0
  6
Continuous
 62
     7
370
    25
100
AcDbCircle
 10
188.5753371695
 20
161.06
 30
0.0
 40
0.4000000000000057
100
AcDbArc
 50
90.0
 51
180.0
  0
ARC
  5
128
330
1F
100
AcDbEntity
  8
0
  6
Continuous
 62
     7
370
    25
100
AcDbCircle
 10
189.1753371695
 20
138.76
 30
0.0
 40
1.0
100
AcDbArc
 50
180.0
 51
270.0
  0
ARC
  5
129
330
1F
100
AcDbEntity
  8
0
  6
Continuous
 62
     7
370
    25
100
AcDbCircle
 10
215.1753371695
 20
138.76
 30
0.0
 40
1.0
100
AcDbArc
 50
270.0
 51
0.0
  0
LINE
  5
12A
330
1F
100
AcDbEntity
  8
0
  6
Continuous
 62
     7
370
    25
100
AcDbLine
 10
214.1753371695
 20
161.46
 30
0.0
 11
214.1753371695
 21
161.96
 31
0.0
  0
LINE
  5
12B
330
1F
100
AcDbEntity
  8
0
  6
Continuous
 62
     7
370
    25
100
AcDbLine
 10
190.1753371695
 20
161.96
 30
0.0
 11
190.1753371695
 21
161.46
 31
0.0
  0
LINE
  5
12C
330
1F
100
AcDbEntity
  8
0
  6
Continuous
 62
     7
370
    25
100
AcDbLine
 10
225.0753371695
 20
158.96
 30
0.0
 11
225.0753371695
 21
170.4831000393
 31
0.0
  0
LINE
  5
12D
330
1F
100
AcDbEntity
  8
0
  6
Continuous
 62
     7
370
    25
100
AcDbLine
 10
179.2753371695
 20
170.4831000393
 30
0.0
 11
179.2753371695
 21
158.96
 31
0.0
  0
ARC
  5
12E
330
1F
100
AcDbEntity
  8
0
  6
Continuous
 62
     7
370
    25
100
AcDbCircle
 10
180.2753371695
 20
158.96
 30
0.0
 40
1.000000000000028
100
AcDbArc
 50
180.0
 51
270.0
  0
ARC
  5
12F
330
1F
100
AcDbEntity
  8
0
  6
Continuous
 62
     7
370
    25
100
AcDbCircle
 10
224.0753371695
 20
158.96
 30
0.0
 40
1.000000000000028
100
AcDbArc
 50
270.0
 51
0.0
  0
ARC
  5
130
330
1F
100
AcDbEntity
  8
0
  6
Continuous
 62
     7
370
    25
100
AcDbCircle
 10
179.5753371695
 20
110.06
 30
0.0
 40
0.3000000000000114
100
AcDbArc
 50
90.0000009064
 51
180.0
  0
ARC
  5
131
330
1F
100
AcDbEntity
  8
0
  6
Continuous
 62
     7
370
    25
100
AcDbCircle
 10
224.7753371695
 20
110.06
 30
0.0
 40
0.3000000000000117
100
AcDbArc
 50
0.0
 51
90.0000025378
  0
LINE
  5
132
330
1F
100
AcDbEntity
  8
0
  6
Continuous
 62
     7
370
    25
100
AcDbLine
 10
225.0753371695
 20
108.06
 30
0.0
 11
225.0753371695
 21
110.06
 31
0.0
  0
LINE
  5
133
330
1F
100
AcDbEntity
  8
0
  6
Continuous
 62
     7
370
    25
100
AcDbLine
 10
179.2753371695
 20
110.06
 30
0.0
 11
179.2753371695
 21
108.06
 31
0.0
  0
ARC
  5
134
330
1F
100
AcDbEntity
  8
0
  6
Continuous
 62
     7
370
    25
100
AcDbCircle
 10
224.7753371695
 20
108.06
 30
0.0
 40
0.3000000000000114
100
AcDbArc
 50
270.0
 51
0.0
  0
ARC
  5
135
330
1F
100
AcDbEntity
  8
0
  6
Continuous
 62
     7
370
    25
100
AcDbCircle
 10
179.5753371695
 20
108.06
 30
0.0
 40
0.3000000000000114
100
AcDbArc
 50
180.0
 51
270.0
  0
LINE
  5
136
330
1F
100
AcDbEntity
  8
0
  6
Continuous
 62
     7
370
    25
100
AcDbLine
 10
225.0460478358
 20
155.8892893219
 30
0.0
 11
224.9046264795
 21
156.0307106781
 31
0.0
  0
LINE
  5
137
330
1F
100
AcDbEntity
  8
0
  6
Continuous
 62
     7
370
    25
100
AcDbLine
 10
179.4460478358
 20
156.0307106781
 30
0.0
 11
179.3046264795
 21
155.8892893219
 31
0.0
  0
LINE
  5
138
330
1F
100
AcDbEntity
  8
0
  6
Continuous
 62
     7
370
    25
100
AcDbLine
 10
180.4349658504
 20
156.07
 30
0.0
 11
180.4349658504
 21
156.06
 31
0.0
  0
LINE
  5
139
330
1F
100
AcDbEntity
  8
0
  6
Continuous
 62
     7
370
    25
100
AcDbLine
 10
223.915708465
 20
156.06
 30
0.0
 11
223.915708465
 21
156.07
 31
0.0
  0
LINE
  5
13A
330
1F
100
AcDbEntity
  8
0
  6
Continuous
 62
     7
370
    25
100
AcDbLine
 10
222.5753371692
 20
156.07
 30
0.0
 11
222.5753371692
 21
157.96
 31
0.0
  0
LINE
  5
13B
330
1F
100
AcDbEntity
  8
0
  6
Continuous
 62
     7
370
    25
100
AcDbLine
 10
181.7753371662
 20
157.96
 30
0.0
 11
181.7753371662
 21
156.07
 31
0.0
  0
LINE
  5
13C
330
1F
100
AcDbEntity
  8
0
  6
Continuous
 62
     7
370
    25
100
AcDbLine
 10
179.2753371577
 20
155.76
 30
0.0
 11
179.2753371577
 21
110.66
 31
0.0
  0
LINE
  5
13D
330
1F
100
AcDbEntity
  8
0
  6
Continuous
 62
     7
370
    25
100
AcDbLine
 10
225.0753371577
 20
110.66
 30
0.0
 11
225.0753371577
 21
155.76
 31
0.0
  0
ARC
  5
13E
330
1F
100
AcDbEntity
  8
0
  6
Continuous
 62
     7
370
    25
100
AcDbCircle
 10
224.7753371577
 20
110.66
 30
0.0
 40
0.3000000000000256
100
AcDbArc
 50
270.0
 51
0.0
  0
ARC
  5
13F
330
1F
100
AcDbEntity
  8
0
  6
Continuous
 62
     7
370
    25
100
AcDbCircle
 10
179.5753371577
 20
110.66
 30
0.0
 40
0.3000000000000256
100
AcDbArc
 50
180.0
 51
270.0
  0
ARC
  5
140
330
1F
100
AcDbEntity
  8
0
  6
Continuous
 62
     7
370
    25
100
AcDbCircle
 10
224.7753371577
 20
155.76
 30
0.0
 40
0.3000000000000114
100
AcDbArc
 50
0.0
 51
25.5287793652
  0
ARC
  5
141
330
1F
100
AcDbEntity
  8
0
  6
Continuous
 62
     7
370
    25
100
AcDbCircle
 10
179.5753371577
 20
155.76
 30
0.0
 40
0.2999999999999985
100
AcDbArc
 50
154.4712206348
 51
180.0
  0
ARC
  5
142
330
1F
100
AcDbEntity
  8
0
  6
Continuous
 62
     7
370
    25
100
AcDbCircle
 10
224.7753371577
 20
155.76
 30
0.0
 40
0.3000000000000114
100
AcDbArc
 50
64.4712206348
 51
90.0
  0
ARC
  5
143
330
1F
100
AcDbEntity
  8
0
  6
Continuous
 62
     7
370
    25
100
AcDbCircle
 10
179.5753371577
 20
155.76
 30
0.0
 40
0.3000000000000114
100
AcDbArc
 50
90.0
 51
115.5287793652
  0
LINE
  5
144
330
1F
100
AcDbEntity
  8
0
  6
Continuous
 62
     7
370
    25
100
AcDbLine
 10
202.1753371695
 20
185.96
 30
0.0
 11
116.9253371695
 21
185.96
 31
0.0
  0
LINE
  5
145
330
1F
100
AcDbEntity
  8
0
  6
Continuous
 62
     7
370
    25
100
AcDbLine
 10
287.4253371695
 20
185.96
 30
0.0
 11
202.1753371695
 21
185.96
 31
0.0
  0
LINE
  5
146
330
1F
100
AcDbEntity
  8
0
  6
Continuous
 62
     7
370
    25
100
AcDbLine
 10
117.9253371695
 20
186.01
 30
0.0
 11
286.4253371695
 21
186.01
 31
0.0
  0
SPLINE
  5
147
330
1F
100
AcDbEntity
  8
0
  6
Continuous
 62
     7
370
    25
100
AcDbSpline
210
0.0
220
0.0
230
1.0
 70
     8
 71
     3
 72
    27
 73
    23
 74
     0
 42
0.000000001
 43
0.00000001
 40
0.0
 40
0.0
 40
0.0
 40
0.0
 40
0.001692301980645
 40
0.0546193693492636
 40
0.1090813243868463
 40
0.1620083895885603
 40
0.2164703604982074
 40
0.269397107901988
 40
0.3238587623475878
 40
0.3767850156013363
 40
0.4312461599404729
 40
0.4841719592657049
 40
0.5386326234231326
 40
0.5915582079830457
 40
0.6460186323317078
 40
0.6989443354084722
 40
0.7534048654157722
 40
0.8063309683469445
 40
0.8607919031702641
 40
0.913718512055015
 40
0.9681799734387008
 40
1.0
 40
1.0
 40
1.0
 40
1.0
 10
216.1691808509071
 20
170.5282876190714
 30
0.0
 10
216.1712255904649
 20
170.5283970037335
 30
0.0
 10
216.2372199498692
 20
170.5319274145782
 30
0.0
 10
216.0015189296134
 20
170.5390276220116
 30
0.0
 10
215.4393077722162
 20
170.5491233311148
 30
0.0
 10
214.4458210037082
 20
170.5587279107593
 30
0.0
 10
213.1271139585886
 20
170.5673826411944
 30
0.0
 10
211.4806578371388
 20
170.5750020670778
 30
0.0
 10
209.5870069574655
 20
170.5812323564309
 30
0.0
 10
207.4645204109657
 20
170.5860095816902
 30
0.0
 10
205.2117944548215
 20
170.5891124659585
 30
0.0
 10
202.8519599048139
 20
170.5905090715416
 30
0.0
 10
200.4943093124985
 20
170.5901347407126
 30
0.0
 10
198.1631379363873
 20
170.587993346354
 30
0.0
 10
195.9663555836327
 20
170.5841840533764
 30
0.0
 10
193.9267125556032
 20
170.5787461203011
 30
0.0
 10
192.1382247689007
 20
170.5719313414987
 30
0.0
 10
190.6208989622184
 20
170.563809902777
 30
0.0
 10
189.4391341697165
 20
170.5547580127275
 30
0.0
 10
188.6270099255003
 20
170.5448682483848
 30
0.0
 10
188.2046201199568
 20
170.5359529776412
 30
0.0
 10
188.2171014645558
 20
170.5303487704044
 30
0.0
 10
188.2217044996461
 20
170.5282819768502
 30
0.0
  0
LINE
  5
148
330
1F
100
AcDbEntity
  8
0
  6
Continuous
 62
     7
370
    25
100
AcDbLine
 10
206.4253371695
 20
145.26
 30
0.0
 11
206.4253371695
 21
138.76
 31
0.0
  0
LINE
  5
149
330
1F
100
AcDbEntity
  8
0
  6
Continuous
 62
     7
370
    25
100
AcDbLine
 10
197.9253371695
 20
138.76
 30
0.0
 11
197.9253371695
 21
145.26
 31
0.0
  0
LINE
  5
14A
330
1F
100
AcDbEntity
  8
0
  6
Continuous
 62
     7
370
    25
100
AcDbLine
 10
198.9253371695
 20
146.26
 30
0.0
 11
205.4253371695
 21
146.26
 31
0.0
  0
ARC
  5
14B
330
1F
100
AcDbEntity
  8
0
  6
Continuous
 62
     7
370
    25
100
AcDbCircle
 10
205.4253371695
 20
145.26
 30
0.0
 40
1.0
100
AcDbArc
 50
0.0
 51
90.0
  0
ARC
  5
14C
330
1F
100
AcDbEntity
  8
0
  6
Continuous
 62
     7
370
    25
100
AcDbCircle
 10
198.9253371695
 20
145.26
 30
0.0
 40
1.0
100
AcDbArc
 50
90.0
 51
180.0
  0
ARC
  5
14D
330
1F
100
AcDbEntity
  8
0
  6
Continuous
 62
     7
370
    25
100
AcDbCircle
 10
198.9253371695
 20
138.76
 30
0.0
 40
1.0
100
AcDbArc
 50
180.0
 51
270.0
  0
LINE
  5
14E
330
1F
100
AcDbEntity
  8
0
  6
Continuous
 62
     7
370
    25
100
AcDbLine
 10
205.4253371695
 20
137.76
 30
0.0
 11
198.9253371695
 21
137.76
 31
0.0
  0
ARC
  5
14F
330
1F
100
AcDbEntity
  8
0
  6
Continuous
 62
     7
370
    25
100
AcDbCircle
 10
205.4253371695
 20
138.76
 30
0.0
 40
1.0
100
AcDbArc
 50
270.0
 51
0.0
  0
SPLINE
  5
150
330
1F
100
AcDbEntity
  8
0
  6
Continuous
 62
     7
370
    25
100
AcDbSpline
210
0.0
220
0.0
230
1.0
 70
    24
 71
     3
 72
    22
 73
    18
 74
     0
 42
0.000000001
 43
0.00000001
 40
0.0
 40
0.0
 40
0.0
 40
0.0
 40
0.125
 40
0.125
 40
0.25
 40
0.25
 40
0.375
 40
0.375
 40
0.5
 40
0.5
 40
0.625
 40
0.625
 40
0.75
 40
0.75
 40
0.875
 40
0.875
 40
1.0
 40
1.0
 40
1.0
 40
1.0
 10
198.9253371694867
 20
137.7599999999995
 30
0.0
 10
198.9253371694867
 20
137.7599999999995
 30
0.0
 10
198.9243105046159
 20
137.7599999999995
 30
0.0
 10
198.8924304812931
 20
137.7599999999995
 30
0.0
 10
198.8621807506462
 20
137.7599999999995
 30
0.0
 10
198.7583020165176
 20
137.7599999999995
 30
0.0
 10
198.6837886472753
 20
137.7599999999995
 30
0.0
 10
198.48351081575
 20
137.7599999999995
 30
0.0
 10
198.3586283802473
 20
137.7599999999995
 30
0.0
 10
198.0554878163368
 20
137.7599999999995
 30
0.0
 10
197.874734518896
 20
137.7599999999994
 30
0.0
 10
197.4743735925741
 20
137.7599999999994
 30
0.0
 10
197.2557333084553
 20
137.7599999999995
 30
0.0
 10
196.7889453577638
 20
137.7599999999995
 30
0.0
 10
196.5396605526808
 20
137.7599999999994
 30
0.0
 10
196.0217624212842
 20
137.7599999999994
 30
0.0
 10
195.7518759393694
 20
137.7599999999995
 30
0.0
 10
195.484411815782
 20
137.7599999999995
 30
0.0
  0
SPLINE
  5
151
330
1F
100
AcDbEntity
  8
0
  6
Continuous
 62
     7
370
    25
100
AcDbSpline
210
0.0
220
0.0
230
1.0
 70
    24
 71
     3
 72
    22
 73
    18
 74
     0
 42
0.000000001
 43
0.00000001
 40
0.0
 40
0.0
 40
0.0
 40
0.0
 40
0.1250000000000001
 40
0.1250000000000001
 40
0.2500000000000001
 40
0.2500000000000001
 40
0.3750000000000002
 40
0.3750000000000002
 40
0.5000000000000002
 40
0.5000000000000002
 40
0.6250000000000001
 40
0.6250000000000001
 40
0.7500000000000001
 40
0.7500000000000001
 40
0.875
 40
0.875
 40
1.0
 40
1.0
 40
1.0
 40
1.0
 10
208.8662625231914
 20
137.7599999999995
 30
0.0
 10
208.5989821062599
 20
137.7599999999995
 30
0.0
 10
208.3289955894918
 20
137.7599999999994
 30
0.0
 10
207.813522384835
 20
137.7599999999993
 30
0.0
 10
207.5658754935551
 20
137.7599999999995
 30
0.0
 10
207.0967709215651
 20
137.7599999999995
 30
0.0
 10
206.8731605050694
 20
137.7599999999995
 30
0.0
 10
206.4715324779381
 20
137.7599999999995
 30
0.0
 10
206.2937641861592
 20
137.7599999999995
 30
0.0
 10
205.9892180198463
 20
137.7599999999995
 30
0.0
 10
205.8612135046558
 20
137.7599999999995
 30
0.0
 10
205.6624442757954
 20
137.7599999999995
 30
0.0
 10
205.5903721011647
 20
137.7599999999995
 30
0.0
 10
205.4880399884451
 20
137.7599999999995
 30
0.0
 10
205.458028595267
 20
137.7599999999994
 30
0.0
 10
205.4263783292717
 20
137.7599999999995
 30
0.0
 10
205.4253371694867
 20
137.7599999999995
 30
0.0
 10
205.4253371694867
 20
137.7599999999995
 30
0.0
  0
LINE
  5
152
330
1F
100
AcDbEntity
  8
0
  6
Continuous
 62
     7
370
    25
100
AcDbLine
 10
189.3591982399
 20
161.96
 30
0.0
 11
188.6753371695
 21
161.96
 31
0.0
  0
LINE
  5
153
330
1F
100
AcDbEntity
  8
0
  6
Continuous
 62
     7
370
    25
100
AcDbLine
 10
215.6753371695
 20
161.96
 30
0.0
 11
189.3591982399
 21
161.96
 31
0.0
  0
LINE
  5
154
330
1F
100
AcDbEntity
  8
0
  6
Continuous
 62
     7
370
    25
100
AcDbLine
 10
188.5753371695
 20
161.46
 30
0.0
 11
215.7753371695
 21
161.46
 31
0.0
  0
LINE
  5
155
330
1F
100
AcDbEntity
  8
0
  6
Continuous
 62
     7
370
    25
100
AcDbLine
 10
195.4844118158
 20
137.76
 30
0.0
 11
189.1753371695
 21
137.76
 31
0.0
  0
LINE
  5
156
330
1F
100
AcDbEntity
  8
0
  6
Continuous
 62
     7
370
    25
100
AcDbLine
 10
215.1753371695
 20
137.76
 30
0.0
 11
208.8662625232
 21
137.76
 31
0.0
  0
ARC
  5
157
330
1F
100
AcDbEntity
  8
0
  6
Continuous
 62
     7
370
    25
100
AcDbCircle
 10
197.1753371695
 20
127.26
 30
0.0
 40
1.0
100
AcDbArc
 50
90.0
 51
180.0
  0
LINE
  5
158
330
1F
100
AcDbEntity
  8
0
  6
Continuous
 62
     7
370
    25
100
AcDbLine
 10
197.1753371695
 20
128.26
 30
0.0
 11
207.1753371695
 21
128.26
 31
0.0
  0
LINE
  5
159
330
1F
100
AcDbEntity
  8
0
  6
Continuous
 62
     7
370
    25
100
AcDbLine
 10
196.1753371695
 20
117.26
 30
0.0
 11
196.1753371695
 21
127.26
 31
0.0
  0
ARC
  5
15A
330
1F
100
AcDbEntity
  8
0
  6
Continuous
 62
     7
370
    25
100
AcDbCircle
 10
207.1753371695
 20
127.26
 30
0.0
 40
1.0
100
AcDbArc
 50
0.0
 51
90.0
  0
LINE
  5
15B
330
1F
100
AcDbEntity
  8
0
  6
Continuous
 62
     7
370
    25
100
AcDbLine
 10
208.1753371695
 20
127.26
 30
0.0
 11
208.1753371695
 21
117.26
 31
0.0
  0
LINE
  5
15C
330
1F
100
AcDbEntity
  8
0
  6
Continuous
 62
     7
370
    25
100
AcDbLine
 10
207.1753371695
 20
116.26
 30
0.0
 11
197.1753371695
 21
116.26
 31
0.0
  0
ARC
  5
15D
330
1F
100
AcDbEntity
  8
0
  6
Continuous
 62
     7
370
    25
100
AcDbCircle
 10
197.1753371695
 20
117.26
 30
0.0
 40
1.0
100
AcDbArc
 50
180.0
 51
270.0
  0
ARC
  5
15E
330
1F
100
AcDbEntity
  8
0
  6
Continuous
 62
     7
370
    25
100
AcDbCircle
 10
207.1753371695
 20
117.26
 30
0.0
 40
1.0
100
AcDbArc
 50
270.0
 51
0.0
  0
LINE
  5
15F
330
1F
100
AcDbEntity
  8
0
  6
Continuous
 62
     7
370
    25
100
AcDbLine
 10
224.6682267472
 20
110.36
 30
0.0
 11
179.6824475682
 21
110.36
 31
0.0
  0
LINE
  5
160
330
1F
100
AcDbEntity
  8
0
  6
Continuous
 62
     7
370
    25
100
AcDbLine
 10
179.4130198959
 20
155.8892893219
 30
0.0
 11
188.1753371695
 21
155.8892893219
 31
0.0
  0
LINE
  5
161
330
1F
100
AcDbEntity
  8
0
  6
Continuous
 62
     7
370
    25
100
AcDbLine
 10
216.1753371695
 20
155.8892893219
 30
0.0
 11
224.9376544194
 21
155.8892893219
 31
0.0
  0
LINE
  5
162
330
1F
100
AcDbEntity
  8
0
  6
Continuous
 62
     7
370
    25
100
AcDbLine
 10
224.0753371695
 20
157.96
 30
0.0
 11
216.1753371695
 21
157.96
 31
0.0
  0
LINE
  5
163
330
1F
100
AcDbEntity
  8
0
  6
Continuous
 62
     7
370
    25
100
AcDbLine
 10
188.1753371695
 20
157.96
 30
0.0
 11
180.2753371695
 21
157.96
 31
0.0
  0
LINE
  5
164
330
1F
100
AcDbEntity
  8
0
  6
Continuous
 62
     7
370
    25
100
AcDbLine
 10
179.6824475682
 20
110.36
 30
0.0
 11
179.5753371577
 21
110.36
 31
0.0
  0
LINE
  5
165
330
1F
100
AcDbEntity
  8
0
  6
Continuous
 62
     7
370
    25
100
AcDbLine
 10
224.7753371577
 20
110.36
 30
0.0
 11
224.6682267472
 21
110.36
 31
0.0
  0
LINE
  5
166
330
1F
100
AcDbEntity
  8
0
  6
Continuous
 62
     7
370
    25
100
AcDbLine
 10
224.7753371695
 20
107.76
 30
0.0
 11
179.5753371695
 21
107.76
 31
0.0
  0
LINE
  5
167
330
1F
100
AcDbEntity
  8
0
  6
Continuous
 62
     7
370
    25
100
AcDbLine
 10
224.9376544194
 20
155.8892893219
 30
0.0
 11
225.0460478358
 21
155.8892893219
 31
0.0
  0
LINE
  5
168
330
1F
100
AcDbEntity
  8
0
  6
Continuous
 62
     7
370
    25
100
AcDbLine
 10
179.3046264795
 20
155.8892893219
 30
0.0
 11
179.4130198959
 21
155.8892893219
 31
0.0
  0
LINE
  5
169
330
1F
100
AcDbEntity
  8
0
  6
Continuous
 62
     7
370
    25
100
AcDbLine
 10
179.5537709999
 20
156.0307106781
 30
0.0
 11
179.4460478358
 21
156.0307106781
 31
0.0
  0
LINE
  5
16A
330
1F
100
AcDbEntity
  8
0
  6
Continuous
 62
     7
370
    25
100
AcDbLine
 10
224.9046264795
 20
156.0307106781
 30
0.0
 11
224.7969033154
 21
156.0307106781
 31
0.0
  0
LINE
  5
16B
330
1F
100
AcDbEntity
  8
0
  6
Continuous
 62
     7
370
    25
100
AcDbLine
 10
224.7969033154
 20
156.0307106781
 30
0.0
 11
216.1753371695
 21
156.0307106781
 31
0.0
  0
LINE
  5
16C
330
1F
100
AcDbEntity
  8
0
  6
Continuous
 62
     7
370
    25
100
AcDbLine
 10
188.1753371695
 20
156.0307106781
 30
0.0
 11
179.5537709999
 21
156.0307106781
 31
0.0
  0
LINE
  5
16D
330
1F
100
AcDbEntity
  8
0
  6
Continuous
 62
     7
370
    25
100
AcDbLine
 10
179.6824475682
 20
156.06
 30
0.0
 11
188.1753371695
 21
156.06
 31
0.0
  0
LINE
  5
16E
330
1F
100
AcDbEntity
  8
0
  6
Continuous
 62
     7
370
    25
100
AcDbLine
 10
216.1753371695
 20
156.06
 30
0.0
 11
224.6682267472
 21
156.06
 31
0.0
  0
LINE
  5
16F
330
1F
100
AcDbEntity
  8
0
  6
Continuous
 62
     7
370
    25
100
AcDbLine
 10
180.4349658504
 20
156.07
 30
0.0
 11
188.1753371695
 21
156.07
 31
0.0
  0
LINE
  5
170
330
1F
100
AcDbEntity
  8
0
  6
Continuous
 62
     7
370
    25
100
AcDbLine
 10
216.1753371695
 20
156.07
 30
0.0
 11
223.915708465
 21
156.07
 31
0.0
  0
LINE
  5
171
330
1F
100
AcDbEntity
  8
0
  6
Continuous
 62
     7
370
    25
100
AcDbLine
 10
224.6682267472
 20
156.06
 30
0.0
 11
224.7753371577
 21
156.06
 31
0.0
  0
LINE
  5
172
330
1F
100
AcDbEntity
  8
0
  6
Continuous
 62
     7
370
    25
100
AcDbLine
 10
179.5753371577
 20
156.06
 30
0.0
 11
179.6824475682
 21
156.06
 31
0.0
  0
LINE
  5
173
330
1F
100
AcDbEntity
  8
0
  6
Continuous
 62
     8
370
    18
100
AcDbLine
 10
202.1753371695
 20
170.9483977308
 30
0.0
 11
118.2806035989
 21
170.9483977308
 31
0.0
  0
LINE
  5
174
330
1F
100
AcDbEntity
  8
0
  6
Continuous
 62
     8
370
    18
100
AcDbLine
 10
286.0700707401
 20
170.9483977308
 30
0.0
 11
202.1753371695
 21
170.9483977308
 31
0.0
  0
SPLINE
  5
175
330
1F
100
AcDbEntity
  8
0
  6
Continuous
 62
     8
370
    18
100
AcDbSpline
210
0.0
220
0.0
230
1.0
 70
     8
 71
     3
 72
    21
 73
    17
 74
     0
 42
0.000000001
 43
0.00000001
 40
0.0
 40
0.0
 40
0.0
 40
0.0
 40
0.0562903888062159
 40
0.1123394979409531
 40
0.1681509031315662
 40
0.2237282259876213
 40
0.2790751340721253
 40
0.3341953409438857
 40
0.3890926061698405
 40
0.443770735306194
 40
0.4982335798472378
 40
0.5972270017546445
 40
0.6968778182255303
 40
0.7972087959017883
 40
0.8982422415728957
 40
1.0
 40
1.0
 40
1.0
 40
1.0
 10
198.9253160383593
 20
150.503157262988
 30
0.0
 10
199.0450569346112
 20
150.5119846854404
 30
0.0
 10
199.2840254770786
 20
150.5296016930225
 30
0.0
 10
199.6445549415356
 20
150.5522768391766
 30
0.0
 10
200.0052798918489
 20
150.5721273070186
 30
0.0
 10
200.3661578326561
 20
150.5888913792502
 30
0.0
 10
200.7268695103131
 20
150.6026387385025
 30
0.0
 10
201.0871756053201
 20
150.6133507904975
 30
0.0
 10
201.4468209704763
 20
150.6210325936757
 30
0.0
 10
201.8055638818648
 20
150.6256823629186
 30
0.0
 10
202.2610747775735
 20
150.6277457073233
 30
0.0
 10
202.8150858473613
 20
150.6236033261106
 30
0.0
 10
203.4679696197475
 20
150.6088026217887
 30
0.0
 10
204.1220195372397
 20
150.5838336135681
 30
0.0
 10
204.7764350847046
 20
150.5495541007905
 30
0.0
 10
205.2085253999619
 20
150.5184514436967
 30
0.0
 10
205.4253422097154
 20
150.502844570208
 30
0.0
  0
SPLINE
  5
176
330
1F
100
AcDbEntity
  8
0
  6
Continuous
 62
     8
370
    18
100
AcDbSpline
210
0.0
220
0.0
230
1.0
 70
     8
 71
     3
 72
    24
 73
    20
 74
     0
 42
0.000000001
 43
0.00000001
 40
0.0
 40
0.0
 40
0.0
 40
0.0
 40
0.024408953696606
 40
0.0488258733797018
 40
0.0732959274442411
 40
0.0978639912248558
 40
0.1492801989866233
 40
0.2009201502152605
 40
0.2555669434218808
 40
0.3106742111738024
 40
0.4284870256972916
 40
0.5562087767167079
 40
0.6250510825926187
 40
0.6947395797015556
 40
0.7691911508143686
 40
0.8444284465249393
 40
0.8961754682160551
 40
0.9479613563691397
 40
1.0
 40
1.0
 40
1.0
 40
1.0
 10
205.4253370785642
 20
150.5028446877089
 30
0.0
 10
205.4837478824035
 20
150.496509267434
 30
0.0
 10
205.6005885527459
 20
150.4838363592877
 30
0.0
 10
205.7740619469743
 20
150.4549821570817
 30
0.0
 10
205.9460741141385
 20
150.4189291741031
 30
0.0
 10
206.1781813762063
 20
150.3590665283352
 30
0.0
 10
206.466379545324
 20
150.26313694462
 30
0.0
 10
206.8081765652594
 20
150.1121785159432
 30
0.0
 10
207.1406969465441
 20
149.9255576848282
 30
0.0
 10
207.5810872697631
 20
149.6187877835794
 30
0.0
 10
208.0998541846245
 20
149.1290025081687
 30
0.0
 10
208.5353193677804
 20
148.5146989718864
 30
0.0
 10
208.8297001743281
 20
147.9449270491716
 30
0.0
 10
209.0234989340376
 20
147.4654384216683
 30
0.0
 10
209.1795727553605
 20
146.9520376480069
 30
0.0
 10
209.2817934454202
 20
146.4667595917968
 30
0.0
 10
209.3421722916545
 20
146.029580476756
 30
0.0
 10
209.3749333366997
 20
145.6459283341222
 30
0.0
 10
209.3789405863263
 20
145.3888513915679
 30
0.0
 10
209.3809490888609
 20
145.2599999999995
 30
0.0
  0
SPLINE
  5
177
330
1F
100
AcDbEntity
  8
0
  6
Continuous
 62
     8
370
    18
100
AcDbSpline
210
0.0
220
0.0
230
1.0
 70
     8
 71
     3
 72
    24
 73
    20
 74
     0
 42
0.000000001
 43
0.00000001
 40
0.0
 40
0.0
 40
0.0
 40
0.0
 40
0.0313965838690735
 40
0.0626701743565698
 40
0.0938672300040239
 40
0.1250345515700929
 40
0.1562190736299133
 40
0.2311805427854308
 40
0.3057567825660281
 40
0.3750735274567404
 40
0.4436596408143707
 40
0.5712783485516814
 40
0.6888029567245586
 40
0.7439109976308733
 40
0.7987361782876888
 40
0.850430313312548
 40
0.901809167988295
 40
0.9510036401246033
 40
1.0
 40
1.0
 40
1.0
 40
1.0
 10
194.9697252501124
 20
145.2599999999995
 30
0.0
 10
194.9704556529268
 20
145.3377312184336
 30
0.0
 10
194.9719135972662
 20
145.4928891500268
 30
0.0
 10
194.983782663528
 20
145.7249446871827
 30
0.0
 10
195.002763490317
 20
145.955745042975
 30
0.0
 10
195.0295748344693
 20
146.1852937192462
 30
0.0
 10
195.0801132243632
 20
146.520179729581
 30
0.0
 10
195.1721815414881
 20
146.9554548595621
 30
0.0
 10
195.3281452394602
 20
147.467515903686
 30
0.0
 10
195.5213985566097
 20
147.9459076265293
 30
0.0
 10
195.8149669777557
 20
148.5141261117186
 30
0.0
 10
196.249574586929
 20
149.1270710320561
 30
0.0
 10
196.7670696543402
 20
149.6168613643575
 30
0.0
 10
197.2069973873114
 20
149.9238610383019
 30
0.0
 10
197.5399373191444
 20
150.1107848342486
 30
0.0
 10
197.8820251463218
 20
150.2623107050616
 30
0.0
 10
198.2257988209113
 20
150.3765505838969
 30
0.0
 10
198.5737639949437
 20
150.4600775095381
 30
0.0
 10
198.8083080816241
 20
150.4886084567858
 30
0.0
 10
198.9253435139776
 20
150.5028451480358
 30
0.0
  0
LINE
  5
178
330
1F
100
AcDbEntity
  8
0
  6
Continuous
 62
     8
370
    18
100
AcDbLine
 10
194.9697252501
 20
138.76
 30
0.0
 11
194.9697252501
 21
145.26
 31
0.0
  0
LINE
  5
179
330
1F
100
AcDbEntity
  8
0
  6
Continuous
 62
     8
370
    18
100
AcDbLine
 10
209.3809490889
 20
145.26
 30
0.0
 11
209.3809490889
 21
138.76
 31
0.0
  0
LWPOLYLINE
  5
17A
330
1F
100
AcDbEntity
  8
0
  6
Continuous
 62
     8
370
    18
100
AcDbPolyline
 90
        9
 70
   128
 43
0.0
 10
195.4844118158
 20
137.76
 10
195.3840014479
 20
137.7792147196
 10
195.2874497942
 20
137.8361204675
 10
195.1984672806
 20
137.9285303877
 10
195.120473455
 20
138.0528932188
 10
195.0564655766
 20
138.204429767
 10
195.0089034321
 20
138.3773165676
 10
194.9796148082
 20
138.564909678
 10
194.9697252501
 20
138.76
  0
LWPOLYLINE
  5
17B
330
1F
100
AcDbEntity
  8
0
  6
Continuous
 62
     8
370
    18
100
AcDbPolyline
 90
        9
 70
   128
 43
0.0
 10
209.3809490889
 20
138.76
 10
209.3710595308
 20
138.564909678
 10
209.3417709069
 20
138.3773165676
 10
209.2942087624
 20
138.204429767
 10
209.230200884
 20
138.0528932188
 10
209.1522070584
 20
137.9285303877
 10
209.0632245447
 20
137.8361204675
 10
208.966672891
 20
137.7792147196
 10
208.8662625232
 20
137.76
  0
LINE
  5
17C
330
1F
100
AcDbEntity
  8
0
  6
Continuous
 62
     8
370
    18
100
AcDbLine
 10
224.9668049276
 20
155.76
 30
0.0
 11
216.1753371695
 21
155.76
 31
0.0
  0
LINE
  5
17D
330
1F
100
AcDbEntity
  8
0
  6
Continuous
 62
     8
370
    18
100
AcDbLine
 10
188.1753371695
 20
155.76
 30
0.0
 11
179.3838693878
 21
155.76
 31
0.0
  0
ARC
  5
17E
330
1F
100
AcDbEntity
  8
0
  6
Continuous
 62
     8
370
    18
100
AcDbCircle
 10
179.6831601706
 20
110.6592907748
 30
0.0
 40
0.2992916231797799
100
AcDbArc
 50
179.8642272507
 51
269.863580704
  0
ARC
  5
17F
330
1F
100
AcDbEntity
  8
0
  6
Continuous
 62
     8
370
    18
100
AcDbCircle
 10
224.6675141447
 20
110.6592907748
 30
0.0
 40
0.2992916231797798
100
AcDbArc
 50
270.136419296
 51
0.1357727493
  0
ARC
  5
180
330
1F
100
AcDbEntity
  8
0
  6
Continuous
 62
     8
370
    18
100
AcDbCircle
 10
224.6656220186
 20
155.7600240206
 30
0.0
 40
0.3011829099578199
100
AcDbArc
 50
359.9954304212
 51
25.4162945777
  0
ARC
  5
181
330
1F
100
AcDbEntity
  8
0
  6
Continuous
 62
     8
370
    18
100
AcDbCircle
 10
179.6850522968
 20
155.7600240206
 30
0.0
 40
0.3011829099431522
100
AcDbArc
 50
154.5837054217
 51
180.0045695795
  0
ARC
  5
182
330
1F
100
AcDbEntity
  8
0
  6
Continuous
 62
     8
370
    18
100
AcDbCircle
 10
179.6824717032
 20
155.7625923837
 30
0.0
 40
0.2974076172332089
100
AcDbArc
 50
90.0046496219
 51
115.6416869804
  0
ARC
  5
183
330
1F
100
AcDbEntity
  8
0
  6
Continuous
 62
     8
370
    18
100
AcDbCircle
 10
224.6682026122
 20
155.7625923838
 30
0.0
 40
0.2974076172171111
100
AcDbArc
 50
64.3583130189
 51
89.9953503789
  0
LINE
  5
184
330
1F
100
AcDbEntity
  8
0
  6
Continuous
 62
     8
370
    18
100
AcDbLine
 10
224.9668049276
 20
110.66
 30
0.0
 11
225.0753371577
 21
110.66
 31
0.0
  0
LINE
  5
185
330
1F
100
AcDbEntity
  8
0
  6
Continuous
 62
     8
370
    18
100
AcDbLine
 10
179.3838693878
 20
155.76
 30
0.0
 11
179.2753371577
 21
155.76
 31
0.0
  0
LINE
  5
186
330
1F
100
AcDbEntity
  8
0
  6
Continuous
 62
     8
370
    18
100
AcDbLine
 10
225.0753371577
 20
155.76
 30
0.0
 11
224.9668049276
 21
155.76
 31
0.0
  0
LINE
  5
187
330
1F
100
AcDbEntity
  8
0
  6
Continuous
 62
     8
370
    18
100
AcDbLine
 10
179.2753371577
 20
110.66
 30
0.0
 11
179.3838693878
 21
110.66
 31
0.0
  0
ENDSEC
  0
SECTION
  2
OBJECTS
  0
DICTIONARY
  5
C
330
0
100
AcDbDictionary
281
     1
  3
ACAD_GROUP
350
D
  3
ACAD_LAYOUT
350
1A
  3
ACAD_MLINESTYLE
350
17
  3
ACAD_PLOTSETTINGS
350
19
  3
ACAD_PLOTSTYLENAME
350
E
  3
ACAD_SCALELIST
350
47
  0
DICTIONARY
  5
D
102
{ACAD_REACTORS
330
C
102
}
330
C
100
AcDbDictionary
281
     1
  0
DICTIONARY
  5
1A
102
{ACAD_REACTORS
330
C
102
}
330
C
100
AcDbDictionary
281
     1
  3
Layout1
350
1E
  3
Layout2
350
26
  3
Model
350
22
  0
DICTIONARY
  5
17
102
{ACAD_REACTORS
330
C
102
}
330
C
100
AcDbDictionary
281
     1
  3
Standard
350
18
  0
DICTIONARY
  5
19
102
{ACAD_REACTORS
330
C
102
}
330
C
100
AcDbDictionary
281
     1
  0
ACDBDICTIONARYWDFLT
  5
E
102
{ACAD_REACTORS
330
C
102
}
330
C
100
AcDbDictionary
281
     1
  3
Normal
350
F
100
AcDbDictionaryWithDefault
340
F
  0
DICTIONARY
  5
47
102
{ACAD_REACTORS
330
C
102
}
330
C
100
AcDbDictionary
281
     1
  3
A0
350
48
  3
A1
350
49
  3
A2
350
4A
  3
A3
350
4B
  3
A4
350
4C
  3
A5
350
4D
  3
A6
350
4E
  3
A7
350
4F
  3
A8
350
50
  3
A9
350
51
  3
B0
350
52
  3
B1
350
53
  3
B2
350
54
  3
B3
350
55
  3
B4
350
56
  3
B5
350
57
  3
B6
350
58
  3
B7
350
59
  3
B8
350
5A
  3
B9
350
5B
  3
C0
350
5C
  3
C1
350
5D
  3
C2
350
5E
  3
C3
350
5F
  3
C4
350
60
  3
C5
350
61
  3
C6
350
62
  3
C7
350
63
  3
C8
350
64
  3
C9
350
65
  3
D0
350
66
  3
D1
350
67
  3
D2
350
68
  0
LAYOUT
  5
1E
102
{ACAD_REACTORS
330
1A
102
}
330
1A
100
AcDbPlotSettings
  1

  2
none_device
  4

  6

 40
0.0
 41
0.0
 42
0.0
 43
0.0
 44
0.0
 45
0.0
 46
0.0
 47
0.0
 48
0.0
 49
0.0
140
0.0
141
0.0
142
1.0
143
1.0
 70
   688
 72
     1
 73
     0
 74
     5
  7

 75
    16
147
1.0
148
0.0
149
0.0
100
AcDbLayout
  1
Layout1
 70
     1
 71
     1
 10
0.0
 20
0.0
 11
420.0
 21
297.0
 12
0.0
 22
0.0
 32
0.0
 14
1.0000000000E+20
 24
1.0000000000E+20
 34
1.0000000000E+20
 15
-1.0000000000E+20
 25
-1.0000000000E+20
 35
-1.0000000000E+20
146
0.0
 13
0.0
 23
0.0
 33
0.0
 16
1.0
 26
0.0
 36
0.0
 17
0.0
 27
1.0
 37
0.0
 76
     0
330
1B
  0
LAYOUT
  5
26
102
{ACAD_REACTORS
330
1A
102
}
330
1A
100
AcDbPlotSettings
  1

  2
none_device
  4

  6

 40
0.0
 41
0.0
 42
0.0
 43
0.0
 44
0.0
 45
0.0
 46
0.0
 47
0.0
 48
0.0
 49
0.0
140
0.0
141
0.0
142
1.0
143
1.0
 70
   688
 72
     1
 73
     0
 74
     5
  7

 75
    16
147
1.0
148
0.0
149
0.0
100
AcDbLayout
  1
Layout2
 70
     1
 71
     2
 10
0.0
 20
0.0
 11
0.0
 21
0.0
 12
0.0
 22
0.0
 32
0.0
 14
0.0
 24
0.0
 34
0.0
 15
0.0
 25
0.0
 35
0.0
146
0.0
 13
0.0
 23
0.0
 33
0.0
 16
1.0
 26
0.0
 36
0.0
 17
0.0
 27
1.0
 37
0.0
 76
     0
330
23
  0
LAYOUT
  5
22
102
{ACAD_REACTORS
330
1A
102
}
330
1A
100
AcDbPlotSettings
  1

  2
none_device
  4
Letter_(8.50_x_11.00_Inches)
  6

 40
6.35
 41
6.35
 42
6.35000508
 43
6.35000508
 44
215.9
 45
279.4
 46
0.0
 47
0.0
 48
0.0
 49
0.0
140
0.0
141
0.0
142
1.0
143
1.0
 70
  1712
 72
     1
 73
     0
 74
     0
  7

 75
     0
147
1.0
148
0.0
149
0.0
100
AcDbLayout
  1
Model
 70
     1
 71
     0
 10
0.0
 20
0.0
 11
594.0
 21
841.0
 12
0.0
 22
0.0
 32
0.0
 14
0.0
 24
0.0
 34
0.0
 15
594.0
 25
841.0
 35
0.0
146
0.0
 13
0.0
 23
0.0
 33
0.0
 16
1.0
 26
0.0
 36
0.0
 17
0.0
 27
1.0
 37
0.0
 76
     0
330
1F
331
29
  0
MLINESTYLE
  5
18
102
{ACAD_REACTORS
330
17
102
}
330
17
100
AcDbMlineStyle
  2
Standard
 70
     0
  3

 62
   256
 51
90.0
 52
90.0
 71
     2
 49
0.5
 62
   256
  6
BYLAYER
 49
-0.5
 62
   256
  6
BYLAYER
  0
ACDBPLACEHOLDER
  5
F
102
{ACAD_REACTORS
330
E
102
}
330
E
  0
SCALE
  5
48
102
{ACAD_REACTORS
330
47
102
}
330
47
100
AcDbScale
 70
     0
300
1:1
140
1.0
141
1.0
290
     1
  0
SCALE
  5
49
102
{ACAD_REACTORS
330
47
102
}
330
47
100
AcDbScale
 70
     0
300
1:2
140
1.0
141
2.0
290
     0
  0
SCALE
  5
4A
102
{ACAD_REACTORS
330
47
102
}
330
47
100
AcDbScale
 70
     0
300
1:4
140
1.0
141
4.0
290
     0
  0
SCALE
  5
4B
102
{ACAD_REACTORS
330
47
102
}
330
47
100
AcDbScale
 70
     0
300
1:5
140
1.0
141
5.0
290
     0
  0
SCALE
  5
4C
102
{ACAD_REACTORS
330
47
102
}
330
47
100
AcDbScale
 70
     0
300
1:8
140
1.0
141
8.0
290
     0
  0
SCALE
  5
4D
102
{ACAD_REACTORS
330
47
102
}
330
47
100
AcDbScale
 70
     0
300
1:10
140
1.0
141
10.0
290
     0
  0
SCALE
  5
4E
102
{ACAD_REACTORS
330
47
102
}
330
47
100
AcDbScale
 70
     0
300
1:16
140
1.0
141
16.0
290
     0
  0
SCALE
  5
4F
102
{ACAD_REACTORS
330
47
102
}
330
47
100
AcDbScale
 70
     0
300
1:20
140
1.0
141
20.0
290
     0
  0
SCALE
  5
50
102
{ACAD_REACTORS
330
47
102
}
330
47
100
AcDbScale
 70
     0
300
1:30
140
1.0
141
30.0
290
     0
  0
SCALE
  5
51
102
{ACAD_REACTORS
330
47
102
}
330
47
100
AcDbScale
 70
     0
300
1:40
140
1.0
141
40.0
290
     0
  0
SCALE
  5
52
102
{ACAD_REACTORS
330
47
102
}
330
47
100
AcDbScale
 70
     0
300
1:50
140
1.0
141
50.0
290
     0
  0
SCALE
  5
53
102
{ACAD_REACTORS
330
47
102
}
330
47
100
AcDbScale
 70
     0
300
1:100
140
1.0
141
100.0
290
     0
  0
SCALE
  5
54
102
{ACAD_REACTORS
330
47
102
}
330
47
100
AcDbScale
 70
     0
300
2:1
140
2.0
141
1.0
290
     0
  0
SCALE
  5
55
102
{ACAD_REACTORS
330
47
102
}
330
47
100
AcDbScale
 70
     0
300
4:1
140
4.0
141
1.0
290
     0
  0
SCALE
  5
56
102
{ACAD_REACTORS
330
47
102
}
330
47
100
AcDbScale
 70
     0
300
8:1
140
8.0
141
1.0
290
     0
  0
SCALE
  5
57
102
{ACAD_REACTORS
330
47
102
}
330
47
100
AcDbScale
 70
     0
300
10:1
140
10.0
141
1.0
290
     0
  0
SCALE
  5
58
102
{ACAD_REACTORS
330
47
102
}
330
47
100
AcDbScale
 70
     0
300
100:1
140
100.0
141
1.0
290
     0
  0
SCALE
  5
59
102
{ACAD_REACTORS
330
47
102
}
330
47
100
AcDbScale
 70
     0
300
1/128" = 1'-0"
140
0.0078125
141
12.0
290
     0
  0
SCALE
  5
5A
102
{ACAD_REACTORS
330
47
102
}
330
47
100
AcDbScale
 70
     0
300
1/64" = 1'-0"
140
0.015625
141
12.0
290
     0
  0
SCALE
  5
5B
102
{ACAD_REACTORS
330
47
102
}
330
47
100
AcDbScale
 70
     0
300
1/32" = 1'-0"
140
0.03125
141
12.0
290
     0
  0
SCALE
  5
5C
102
{ACAD_REACTORS
330
47
102
}
330
47
100
AcDbScale
 70
     0
300
1/16" = 1'-0"
140
0.0625
141
12.0
290
     0
  0
SCALE
  5
5D
102
{ACAD_REACTORS
330
47
102
}
330
47
100
AcDbScale
 70
     0
300
3/32" = 1'-0"
140
0.09375
141
12.0
290
     0
  0
SCALE
  5
5E
102
{ACAD_REACTORS
330
47
102
}
330
47
100
AcDbScale
 70
     0
300
1/8" = 1'-0"
140
0.125
141
12.0
290
     0
  0
SCALE
  5
5F
102
{ACAD_REACTORS
330
47
102
}
330
47
100
AcDbScale
 70
     0
300
3/16" = 1'-0"
140
0.1875
141
12.0
290
     0
  0
SCALE
  5
60
102
{ACAD_REACTORS
330
47
102
}
330
47
100
AcDbScale
 70
     0
300
1/4" = 1'-0"
140
0.25
141
12.0
290
     0
  0
SCALE
  5
61
102
{ACAD_REACTORS
330
47
102
}
330
47
100
AcDbScale
 70
     0
300
3/8" = 1'-0"
140
0.375
141
12.0
290
     0
  0
SCALE
  5
62
102
{ACAD_REACTORS
330
47
102
}
330
47
100
AcDbScale
 70
     0
300
1/2" = 1'-0"
140
0.5
141
12.0
290
     0
  0
SCALE
  5
63
102
{ACAD_REACTORS
330
47
102
}
330
47
100
AcDbScale
 70
     0
300
3/4" = 1'-0"
140
0.75
141
12.0
290
     0
  0
SCALE
  5
64
102
{ACAD_REACTORS
330
47
102
}
330
47
100
AcDbScale
 70
     0
300
1" = 1'-0"
140
1.0
141
12.0
290
     0
  0
SCALE
  5
65
102
{ACAD_REACTORS
330
47
102
}
330
47
100
AcDbScale
 70
     0
300
1-1/2" = 1'-0"
140
1.5
141
12.0
290
     0
  0
SCALE
  5
66
102
{ACAD_REACTORS
330
47
102
}
330
47
100
AcDbScale
 70
     0
300
3" = 1'-0"
140
3.0
141
12.0
290
     0
  0
SCALE
  5
67
102
{ACAD_REACTORS
330
47
102
}
330
47
100
AcDbScale
 70
     0
300
6" = 1'-0"
140
6.0
141
12.0
290
     0
  0
SCALE
  5
68
102
{ACAD_REACTORS
330
47
102
}
330
47
100
AcDbScale
 70
     0
300
1'-0" = 1'-0"
140
12.0
141
12.0
290
     0
  0
ENDSEC
  0
EOF
