  0
SECTION
  2
HEADER
  9
$ACADVER
  1
AC1015
  9
$ACADMAINTVER
 70
     6
  9
$DWGCODEPAGE
  3
ANSI_1252
  9
$INSBASE
 10
0.0
 20
0.0
 30
0.0
  9
$EXTMIN
 10
0.0
 20
0.0
 30
0.0
  9
$EXTMAX
 10
594.0
 20
841.0
 30
0.0
  9
$LIMMIN
 10
0.0
 20
0.0
  9
$LIMMAX
 10
594.0
 20
841.0
  9
$ORTHOMODE
 70
     0
  9
$REGENMODE
 70
     1
  9
$FILLMODE
 70
     1
  9
$QTEXTMODE
 70
     0
  9
$MIRRTEXT
 70
     1
  9
$LTSCALE
 40
1.0
  9
$ATTMODE
 70
     1
  9
$TEXTSIZE
 40
10.0
  9
$TRACEWID
 40
1.0
  9
$TEXTSTYLE
  7
Standard
  9
$CLAYER
  8
0
  9
$CELTYPE
  6
ByLayer
  9
$CECOLOR
 62
   256
  9
$CELTSCALE
 40
1.0
  9
$DISPSILH
 70
     0
  9
$DIMSCALE
 40
1.0
  9
$DIMASZ
 40
2.5
  9
$DIMEXO
 40
0.0
  9
$DIMDLI
 40
3.75
  9
$DIMRND
 40
0.0
  9
$DIMDLE
 40
0.0
  9
$DIMEXE
 40
1.0
  9
$DIMTP
 40
0.0
  9
$DIMTM
 40
0.0
  9
$DIMTXT
 40
3.5
  9
$DIMCEN
 40
2.5
  9
$DIMTSZ
 40
0.0
  9
$DIMTOL
 70
     0
  9
$DIMLIM
 70
     0
  9
$DIMTIH
 70
     1
  9
$DIMTOH
 70
     1
  9
$DIMSE1
 70
     0
  9
$DIMSE2
 70
     0
  9
$DIMTAD
 70
     1
  9
$DIMZIN
 70
     0
  9
$DIMBLK
  1

  9
$DIMASO
 70
     1
  9
$DIMSHO
 70
     1
  9
$DIMPOST
  1

  9
$DIMAPOST
  1

  9
$DIMALT
 70
     0
  9
$DIMALTD
 70
     3
  9
$DIMALTF
 40
0.0393700787
  9
$DIMLFAC
 40
1.0
  9
$DIMTOFL
 70
     1
  9
$DIMTVP
 40
0.0
  9
$DIMTIX
 70
     0
  9
$DIMSOXD
 70
     0
  9
$DIMSAH
 70
     0
  9
$DIMBLK1
  1

  9
$DIMBLK2
  1

  9
$DIMSTYLE
  2
ISO-25
  9
$DIMCLRD
 70
     0
  9
$DIMCLRE
 70
     0
  9
$DIMCLRT
 70
     0
  9
$DIMTFAC
 40
1.0
  9
$DIMGAP
 40
1.5
  9
$DIMJUST
 70
     0
  9
$DIMSD1
 70
     0
  9
$DIMSD2
 70
     0
  9
$DIMTOLJ
 70
     0
  9
$DIMTZIN
 70
     0
  9
$DIMALTZ
 70
     0
  9
$DIMALTTZ
 70
     0
  9
$DIMUPT
 70
     0
  9
$DIMDEC
 70
     2
  9
$DIMTDEC
 70
     2
  9
$DIMALTU
 70
     2
  9
$DIMALTTD
 70
     3
  9
$DIMTXSTY
  7
Standard
  9
$DIMAUNIT
 70
     0
  9
$DIMADEC
 70
     2
  9
$DIMALTRND
 40
0.0
  9
$DIMAZIN
 70
     0
  9
$DIMDSEP
 70
    44
  9
$DIMATFIT
 70
     3
  9
$DIMFRAC
 70
     0
  9
$DIMLDRBLK
  1

  9
$DIMLUNIT
 70
     2
  9
$DIMLWD
 70
    -2
  9
$DIMLWE
 70
    -2
  9
$DIMTMOVE
 70
     0
  9
$LUNITS
 70
     2
  9
$LUPREC
 70
     2
  9
$SKETCHINC
 40
1.0
  9
$FILLETRAD
 40
10.0
  9
$AUNITS
 70
     0
  9
$AUPREC
 70
     2
  9
$MENU
  1
.
  9
$ELEVATION
 40
0.0
  9
$PELEVATION
 40
0.0
  9
$THICKNESS
 40
0.0
  9
$LIMCHECK
 70
     0
  9
$CHAMFERA
 40
0.0
  9
$CHAMFERB
 40
0.0
  9
$CHAMFERC
 40
0.0
  9
$CHAMFERD
 40
0.0
  9
$SKPOLY
 70
     0
  9
$TDCREATE
 40
2459863.418314178
  9
$TDUCREATE
 40
2459863.334980845
  9
$TDUPDATE
 40
2459863.418314722
  9
$TDUUPDATE
 40
2459863.334981389
  9
$TDINDWG
 40
0.0000000116
  9
$TDUSRTIMER
 40
0.0000000116
  9
$USRTIMER
 70
     1
  9
$ANGBASE
 50
0.0
  9
$ANGDIR
 70
     0
  9
$PDMODE
 70
     0
  9
$PDSIZE
 40
-1.0
  9
$PLINEWID
 40
0.0
  9
$SPLFRAME
 70
     0
  9
$SPLINETYPE
 70
     6
  9
$SPLINESEGS
 70
     8
  9
$HANDSEED
  5
144
  9
$SURFTAB1
 70
     6
  9
$SURFTAB2
 70
     6
  9
$SURFTYPE
 70
     6
  9
$SURFU
 70
     6
  9
$SURFV
 70
     6
  9
$UCSBASE
  2

  9
$UCSNAME
  2

  9
$UCSORG
 10
0.0
 20
0.0
 30
0.0
  9
$UCSXDIR
 10
1.0
 20
0.0
 30
0.0
  9
$UCSYDIR
 10
0.0
 20
1.0
 30
0.0
  9
$UCSORTHOREF
  2

  9
$UCSORTHOVIEW
 70
     0
  9
$UCSORGTOP
 10
0.0
 20
0.0
 30
0.0
  9
$UCSORGBOTTOM
 10
0.0
 20
0.0
 30
0.0
  9
$UCSORGLEFT
 10
0.0
 20
0.0
 30
0.0
  9
$UCSORGRIGHT
 10
0.0
 20
0.0
 30
0.0
  9
$UCSORGFRONT
 10
0.0
 20
0.0
 30
0.0
  9
$UCSORGBACK
 10
0.0
 20
0.0
 30
0.0
  9
$PUCSBASE
  2

  9
$PUCSNAME
  2

  9
$PUCSORG
 10
0.0
 20
0.0
 30
0.0
  9
$PUCSXDIR
 10
1.0
 20
0.0
 30
0.0
  9
$PUCSYDIR
 10
0.0
 20
1.0
 30
0.0
  9
$PUCSORTHOREF
  2

  9
$PUCSORTHOVIEW
 70
     0
  9
$PUCSORGTOP
 10
0.0
 20
0.0
 30
0.0
  9
$PUCSORGBOTTOM
 10
0.0
 20
0.0
 30
0.0
  9
$PUCSORGLEFT
 10
0.0
 20
0.0
 30
0.0
  9
$PUCSORGRIGHT
 10
0.0
 20
0.0
 30
0.0
  9
$PUCSORGFRONT
 10
0.0
 20
0.0
 30
0.0
  9
$PUCSORGBACK
 10
0.0
 20
0.0
 30
0.0
  9
$USERI1
 70
     0
  9
$USERI2
 70
     0
  9
$USERI3
 70
     0
  9
$USERI4
 70
     0
  9
$USERI5
 70
     0
  9
$USERR1
 40
0.0
  9
$USERR2
 40
0.0
  9
$USERR3
 40
0.0
  9
$USERR4
 40
0.0
  9
$USERR5
 40
0.0
  9
$WORLDVIEW
 70
     1
  9
$SHADEDGE
 70
     3
  9
$SHADEDIF
 70
    70
  9
$TILEMODE
 70
     1
  9
$MAXACTVP
 70
    64
  9
$PINSBASE
 10
0.0
 20
0.0
 30
0.0
  9
$PLIMCHECK
 70
     0
  9
$PEXTMIN
 10
1.0000000000E+20
 20
1.0000000000E+20
 30
1.0000000000E+20
  9
$PEXTMAX
 10
-1.0000000000E+20
 20
-1.0000000000E+20
 30
-1.0000000000E+20
  9
$PLIMMIN
 10
0.0
 20
0.0
  9
$PLIMMAX
 10
420.0
 20
297.0
  9
$UNITMODE
 70
     0
  9
$VISRETAIN
 70
     1
  9
$PLINEGEN
 70
     0
  9
$PSLTSCALE
 70
     1
  9
$TREEDEPTH
 70
  3020
  9
$CMLSTYLE
  2
Standard
  9
$CMLJUST
 70
     0
  9
$CMLSCALE
 40
20.0
  9
$PROXYGRAPHICS
 70
     1
  9
$MEASUREMENT
 70
     1
  9
$CELWEIGHT
370
    -1
  9
$ENDCAPS
280
     0
  9
$JOINSTYLE
280
     0
  9
$LWDISPLAY
290
     1
  9
$INSUNITS
 70
     4
  9
$HYPERLINKBASE
  1

  9
$STYLESHEET
  1

  9
$XEDIT
290
     1
  9
$CEPSNTYPE
380
     0
  9
$PSTYLEMODE
290
     1
  9
$FINGERPRINTGUID
  2
{b51d502e-7ad8-4204-99cc-835fba8a595d}
  9
$VERSIONGUID
  2
{FAEB1C32-E019-11D5-929B-00C0DF256EC4}
  9
$EXTNAMES
290
     1
  9
$PSVPSCALE
 40
0.0
  9
$OLESTARTUP
290
     0
  0
ENDSEC
  0
SECTION
  2
CLASSES
  0
CLASS
  1
ACDBDICTIONARYWDFLT
  2
AcDbDictionaryWithDefault
  3
ObjectDBX Classes
 90
        0
280
     0
281
     0
  0
CLASS
  1
VISUALSTYLE
  2
AcDbVisualStyle
  3
ObjectDBX Classes
 90
     4095
280
     0
281
     0
  0
CLASS
  1
MATERIAL
  2
AcDbMaterial
  3
ObjectDBX Classes
 90
     1153
280
     0
281
     0
  0
CLASS
  1
SCALE
  2
AcDbScale
  3
ObjectDBX Classes
 90
     1153
280
     0
281
     0
  0
CLASS
  1
TABLESTYLE
  2
AcDbTableStyle
  3
ObjectDBX Classes
 90
     4095
280
     0
281
     0
  0
CLASS
  1
MLEADERSTYLE
  2
AcDbMLeaderStyle
  3
ACDB_MLEADERSTYLE_CLASS
 90
     4095
280
     0
281
     0
  0
CLASS
  1
SUN
  2
AcDbSun
  3
SCENEOE
 90
     1153
280
     0
281
     0
  0
CLASS
  1
ACDBPLACEHOLDER
  2
AcDbPlaceHolder
  3
ObjectDBX Classes
 90
        0
280
     0
281
     0
  0
CLASS
  1
LAYOUT
  2
AcDbLayout
  3
ObjectDBX Classes
 90
        0
280
     0
281
     0
  0
ENDSEC
  0
SECTION
  2
TABLES
  0
TABLE
  2
VPORT
  5
8
330
0
100
AcDbSymbolTable
 70
     1
  0
VPORT
  5
29
330
8
100
AcDbSymbolTableRecord
100
AcDbViewportTableRecord
  2
*Active
 70
     0
 10
0.0
 20
0.0
 11
1.0
 21
1.0
 12
297.0
 22
420.5
 13
0.0
 23
0.0
 14
10.0
 24
10.0
 15
10.0
 25
10.0
 16
0.0
 26
0.0
 36
1.0
 17
0.0
 27
0.0
 37
0.0
 40
841.0
 41
0.7063020214
 42
50.0
 43
0.0
 44
0.0
 50
0.0
 51
0.0
 71
     0
 72
  2000
 73
     1
 74
     3
 75
     0
 76
     0
 77
     0
 78
     0
281
     0
 65
     1
110
0.0
120
0.0
130
0.0
111
1.0
121
0.0
131
0.0
112
0.0
122
1.0
132
0.0
 79
     0
146
0.0
  0
ENDTAB
  0
TABLE
  2
LTYPE
  5
5
330
0
100
AcDbSymbolTable
 70
     6
  0
LTYPE
  5
14
330
5
100
AcDbSymbolTableRecord
100
AcDbLinetypeTableRecord
  2
ByBlock
 70
     0
  3

 72
    65
 73
     0
 40
0.0
  0
LTYPE
  5
15
330
5
100
AcDbSymbolTableRecord
100
AcDbLinetypeTableRecord
  2
ByLayer
 70
     0
  3

 72
    65
 73
     0
 40
0.0
  0
LTYPE
  5
16
330
5
100
AcDbSymbolTableRecord
100
AcDbLinetypeTableRecord
  2
Continuous
 70
     0
  3
Solid line
 72
    65
 73
     0
 40
0.0
  0
LTYPE
  5
6E
330
5
100
AcDbSymbolTableRecord
100
AcDbLinetypeTableRecord
  2
HIDDEN
 70
     0
  3
Hidden __ __ __ __ __ __ __ __ __ __ __ __ __ __
 72
    65
 73
     2
 40
1.905
 49
1.27
 74
     0
 49
-0.635
 74
     0
  0
LTYPE
  5
6F
330
5
100
AcDbSymbolTableRecord
100
AcDbLinetypeTableRecord
  2
PHANTOM
 70
     0
  3
Phantom ______  __  __  ______  __  __  ______
 72
    65
 73
     6
 40
12.7
 49
6.35
 74
     0
 49
-1.27
 74
     0
 49
1.27
 74
     0
 49
-1.27
 74
     0
 49
1.27
 74
     0
 49
-1.27
 74
     0
  0
LTYPE
  5
70
330
5
100
AcDbSymbolTableRecord
100
AcDbLinetypeTableRecord
  2
CENTER
 70
     0
  3
Center ____ _ ____ _ ____ _ ____ _ ____ _ ____
 72
    65
 73
     4
 40
10.16
 49
6.35
 74
     0
 49
-1.27
 74
     0
 49
1.27
 74
     0
 49
-1.27
 74
     0
  0
LTYPE
  5
71
330
5
100
AcDbSymbolTableRecord
100
AcDbLinetypeTableRecord
  2
CENTERX2
 70
     0
  3
Center (2x) ________  __  ________  __  _____
 72
    65
 73
     4
 40
20.32
 49
12.7
 74
     0
 49
-2.54
 74
     0
 49
2.54
 74
     0
 49
-2.54
 74
     0
  0
LTYPE
  5
72
330
5
100
AcDbSymbolTableRecord
100
AcDbLinetypeTableRecord
  2
DOT2
 70
     0
  3
Dot (.5x) ........................................
 72
    65
 73
     2
 40
0.635
 49
0.0
 74
     0
 49
-0.635
 74
     0
  0
ENDTAB
  0
TABLE
  2
LAYER
  5
2
330
0
100
AcDbSymbolTable
 70
     1
  0
LAYER
  5
10
330
2
100
AcDbSymbolTableRecord
100
AcDbLayerTableRecord
  2
0
 70
     0
 62
     7
  6
Continuous
370
    -3
390
F
  0
ENDTAB
  0
TABLE
  2
STYLE
  5
3
330
0
100
AcDbSymbolTable
 70
     3
  0
STYLE
  5
11
330
3
100
AcDbSymbolTableRecord
100
AcDbTextStyleTableRecord
  2
Standard
 70
     0
 40
0.0
 41
1.0
 50
0.0
 71
     0
 42
10.0
  3
txt
  4

  0
STYLE
  5
76
330
3
100
AcDbSymbolTableRecord
100
AcDbTextStyleTableRecord
  2
SLDTEXTSTYLE0
 70
     0
 40
0.0
 41
0.96
 50
0.0
 71
     0
 42
10.0
  3
ISOCP3
  4

  0
STYLE
  5
8D
330
3
100
AcDbSymbolTableRecord
100
AcDbTextStyleTableRecord
  2
SLDTEXTSTYLE1
 70
     0
 40
0.0
 41
0.605
 50
0.0
 71
     0
 42
10.0
  3
TXT
  4

  0
ENDTAB
  0
TABLE
  2
VIEW
  5
6
330
0
100
AcDbSymbolTable
 70
     0
  0
ENDTAB
  0
TABLE
  2
UCS
  5
7
330
0
100
AcDbSymbolTable
 70
     0
  0
ENDTAB
  0
TABLE
  2
APPID
  5
9
330
0
100
AcDbSymbolTable
 70
     1
  0
APPID
  5
12
330
9
100
AcDbSymbolTableRecord
100
AcDbRegAppTableRecord
  2
ACAD
 70
     0
  0
ENDTAB
  0
TABLE
  2
DIMSTYLE
  5
A
330
0
100
AcDbSymbolTable
 70
     2
100
AcDbDimStyleTable
  0
DIMSTYLE
105
27
330
A
100
AcDbSymbolTableRecord
100
AcDbDimStyleTableRecord
  2
ISO-25
 70
     0
 41
2.5
 42
0.625
 43
3.75
 44
1.25
 73
     0
 74
     0
 77
     1
 78
     8
140
2.5
141
2.5
143
0.0393700787
147
0.625
171
     3
172
     1
178
     0
271
     2
272
     2
274
     3
278
    44
283
     0
284
     8
340
11
  0
DIMSTYLE
105
77
102
{ACAD_REACTORS
330
75
330
82
102
}
330
A
100
AcDbSymbolTableRecord
100
AcDbDimStyleTableRecord
  2
SLDDIMSTYLE0
 70
     0
 41
2.5
 44
0.0
 45
0.000000001
 73
     0
 74
     0
 77
     1
 78
    12
 79
     3
140
6.0
147
1.5
173
     1
178
     0
271
     2
272
     2
276
     2
284
    12
340
76
  0
ENDTAB
  0
TABLE
  2
BLOCK_RECORD
  5
1
330
0
100
AcDbSymbolTable
 70
     3
  0
BLOCK_RECORD
  5
1F
330
1
100
AcDbSymbolTableRecord
100
AcDbBlockTableRecord
  2
*Model_Space
340
22
  0
BLOCK_RECORD
  5
1B
330
1
100
AcDbSymbolTableRecord
100
AcDbBlockTableRecord
  2
*Paper_Space
340
1E
  0
BLOCK_RECORD
  5
23
330
1
100
AcDbSymbolTableRecord
100
AcDbBlockTableRecord
  2
*Paper_Space0
340
26
  0
BLOCK_RECORD
  5
78
330
1
100
AcDbSymbolTableRecord
100
AcDbBlockTableRecord
  2
_D
340
0
  0
BLOCK_RECORD
  5
83
330
1
100
AcDbSymbolTableRecord
100
AcDbBlockTableRecord
  2
_D_1
340
0
  0
ENDTAB
  0
ENDSEC
  0
SECTION
  2
BLOCKS
  0
BLOCK
  5
20
330
1F
100
AcDbEntity
  8
0
100
AcDbBlockBegin
  2
*Model_Space
 70
     0
 10
0.0
 20
0.0
 30
0.0
  3
*Model_Space
  1

  0
ENDBLK
  5
21
330
1F
100
AcDbEntity
  8
0
100
AcDbBlockEnd
  0
BLOCK
  5
1C
330
1B
100
AcDbEntity
 67
     1
  8
0
100
AcDbBlockBegin
  2
*Paper_Space
 70
     0
 10
0.0
 20
0.0
 30
0.0
  3
*Paper_Space
  1

  0
ENDBLK
  5
1D
330
1B
100
AcDbEntity
 67
     1
  8
0
100
AcDbBlockEnd
  0
BLOCK
  5
24
330
23
100
AcDbEntity
  8
0
100
AcDbBlockBegin
  2
*Paper_Space0
 70
     0
 10
0.0
 20
0.0
 30
0.0
  3
*Paper_Space0
  1

  0
ENDBLK
  5
25
330
23
100
AcDbEntity
  8
0
100
AcDbBlockEnd
  0
BLOCK
  5
79
330
78
100
AcDbEntity
  8
0
100
AcDbBlockBegin
  2
_D
 70
     0
 10
0.0
 20
0.0
 30
0.0
  3
_D
  1

  0
SOLID
  5
7B
330
78
100
AcDbEntity
  8
0
  6
Continuous
 62
     7
370
    18
100
AcDbTrace
 10
42.7614395004
 20
152.0299240879
 30
0.0
 11
42.4614395004
 21
149.5299240879
 31
0.0
 12
43.0614395004
 22
149.5299240879
 32
0.0
 13
43.0614395004
 23
149.5299240879
 33
0.0
  0
SOLID
  5
7C
330
78
100
AcDbEntity
  8
0
  6
Continuous
 62
     7
370
    18
100
AcDbTrace
 10
42.7614395004
 20
52.0299240879
 30
0.0
 11
43.0614395004
 21
54.5299240879
 31
0.0
 12
42.4614395004
 22
54.5299240879
 32
0.0
 13
42.4614395004
 23
54.5299240879
 33
0.0
  0
LINE
  5
7D
330
78
100
AcDbEntity
  8
0
  6
Continuous
 62
     7
370
     0
100
AcDbLine
 10
56.6850079902
 20
152.0299240879
 30
0.0
 11
41.7614395004
 21
152.0299240879
 31
0.0
  0
LINE
  5
7E
330
78
100
AcDbEntity
  8
0
  6
Continuous
 62
     7
370
     0
100
AcDbLine
 10
56.6850079902
 20
52.0299240879
 30
0.0
 11
41.7614395004
 21
52.0299240879
 31
0.0
  0
LINE
  5
7F
330
78
100
AcDbEntity
  8
0
  6
Continuous
 62
     7
370
     0
100
AcDbLine
 10
42.7614395004
 20
152.0299240879
 30
0.0
 11
42.7614395004
 21
52.0299240879
 31
0.0
  0
MTEXT
  5
80
330
78
100
AcDbEntity
  8
0
  6
Continuous
 62
     7
370
    18
100
AcDbMText
 10
35.0270332946
 20
94.3680541463
 30
0.0
 40
6.0
 41
0.0
 71
     1
 72
     1
  1
100
  7
SLDTEXTSTYLE0
 11
-7.044195017643634E-15
 21
1.0
 31
0.0
 73
     1
 44
1.0
  0
MTEXT
  5
81
330
78
100
AcDbEntity
  8
0
  6
Continuous
 62
     7
370
    18
100
AcDbMText
 10
35.0270332946
 20
105.7430548466
 30
0.0
 40
6.0
 41
0.0
 71
     1
 72
     1
  1
mm
  7
SLDTEXTSTYLE0
 11
-7.044195017643634E-15
 21
1.0
 31
0.0
 73
     1
 44
1.0
  0
ENDBLK
  5
7A
330
78
100
AcDbEntity
  8
0
100
AcDbBlockEnd
  0
BLOCK
  5
84
330
83
100
AcDbEntity
  8
0
100
AcDbBlockBegin
  2
_D_1
 70
     0
 10
0.0
 20
0.0
 30
0.0
  3
_D_1
  1

  0
SOLID
  5
86
330
83
100
AcDbEntity
  8
0
  6
Continuous
 62
     7
370
    18
100
AcDbTrace
 10
56.6850079902
 20
38.4602342313
 30
0.0
 11
59.1850079902
 21
38.1602342313
 31
0.0
 12
59.1850079902
 22
38.7602342313
 32
0.0
 13
59.1850079902
 23
38.7602342313
 33
0.0
  0
SOLID
  5
87
330
83
100
AcDbEntity
  8
0
  6
Continuous
 62
     7
370
    18
100
AcDbTrace
 10
156.6850079902
 20
38.4602342313
 30
0.0
 11
154.1850079902
 21
38.7602342313
 31
0.0
 12
154.1850079902
 22
38.1602342313
 32
0.0
 13
154.1850079902
 23
38.1602342313
 33
0.0
  0
LINE
  5
88
330
83
100
AcDbEntity
  8
0
  6
Continuous
 62
     7
370
     0
100
AcDbLine
 10
56.6850079902
 20
52.0299240879
 30
0.0
 11
56.6850079902
 21
37.4602342313
 31
0.0
  0
LINE
  5
89
330
83
100
AcDbEntity
  8
0
  6
Continuous
 62
     7
370
     0
100
AcDbLine
 10
156.6850079902
 20
52.0299240879
 30
0.0
 11
156.6850079902
 21
37.4602342313
 31
0.0
  0
LINE
  5
8A
330
83
100
AcDbEntity
  8
0
  6
Continuous
 62
     7
370
     0
100
AcDbLine
 10
56.6850079902
 20
38.4602342313
 30
0.0
 11
156.6850079902
 21
38.4602342313
 31
0.0
  0
MTEXT
  5
8B
330
83
100
AcDbEntity
  8
0
  6
Continuous
 62
     7
370
    18
100
AcDbMText
 10
93.9626484861
 20
46.1946404371
 30
0.0
 40
6.0
 41
0.0
 71
     1
 72
     1
  1
100
  7
SLDTEXTSTYLE0
 73
     1
 44
1.0
  0
MTEXT
  5
8C
330
83
100
AcDbEntity
  8
0
  6
Continuous
 62
     7
370
    18
100
AcDbMText
 10
105.3376491864
 20
46.1946404371
 30
0.0
 40
6.0
 41
0.0
 71
     1
 72
     1
  1
mm
  7
SLDTEXTSTYLE0
 73
     1
 44
1.0
  0
ENDBLK
  5
85
330
83
100
AcDbEntity
  8
0
100
AcDbBlockEnd
  0
ENDSEC
  0
SECTION
  2
ENTITIES
  0
LINE
  5
73
330
1F
100
AcDbEntity
  8
0
  6
Continuous
 62
     7
370
    18
100
AcDbLine
 10
56.6850079902
 20
152.0299240879
 30
0.0
 11
56.6850079902
 21
52.0299240879
 31
0.0
  0
LINE
  5
74
330
1F
100
AcDbEntity
  8
0
  6
Continuous
 62
     7
370
    18
100
AcDbLine
 10
56.6850079902
 20
52.0299240879
 30
0.0
 11
156.6850079902
 21
52.0299240879
 31
0.0
  0
DIMENSION
  5
75
330
1F
100
AcDbEntity
  8
0
  6
Continuous
 62
     7
370
    18
100
AcDbDimension
  2
_D
 10
42.7614395004
 20
52.0299240879
 30
0.0
 11
42.7614395004
 21
105.4472211621
 31
0.0
 70
   160
  1
<>mm
 71
     2
 42
-1.0
  3
SLDDIMSTYLE0
100
AcDbAlignedDimension
 13
56.6850079902
 23
152.0299240879
 33
0.0
 14
56.6850079902
 24
52.0299240879
 34
0.0
 50
90.0
100
AcDbRotatedDimension
  0
DIMENSION
  5
82
330
1F
100
AcDbEntity
  8
0
  6
Continuous
 62
     7
370
    18
100
AcDbDimension
  2
_D_1
 10
156.6850079902
 20
38.4602342313
 30
0.0
 11
105.0418155019
 21
38.4602342313
 31
0.0
 70
   160
  1
<>mm
 71
     2
 42
-1.0
  3
SLDDIMSTYLE0
100
AcDbAlignedDimension
 13
56.6850079902
 23
52.0299240879
 33
0.0
 14
156.6850079902
 24
52.0299240879
 34
0.0
100
AcDbRotatedDimension
  0
MTEXT
  5
8E
330
1F
100
AcDbEntity
  8
0
  6
Continuous
 62
     7
370
     0
100
AcDbMText
 10
412.8252631579
 20
48.4342449499
 30
0.0
 40
10.0
 41
0.0
 71
     1
 72
     1
  1
KLUDI GmbH & Co KG
  7
SLDTEXTSTYLE1
 73
     1
 44
1.0
  0
MTEXT
  5
8F
330
1F
100
AcDbEntity
  8
0
  6
Continuous
 62
     7
370
     0
100
AcDbMText
 10
210.0873490389
 20
48.4342449499
 30
0.0
 40
10.0
 41
0.0
 71
     1
 72
     1
  1
20 289 .. 15
  7
SLDTEXTSTYLE1
 73
     1
 44
1.0
  0
LINE
  5
90
330
1F
100
AcDbEntity
  8
0
  6
Continuous
 62
     7
370
    25
100
AcDbLine
 10
171.2885818182
 20
405.8833818119
 30
0.0
 11
171.2885818182
 21
419.1422307502
 31
0.0
  0
LINE
  5
91
330
1F
100
AcDbEntity
  8
0
  6
Continuous
 62
     7
370
    25
100
AcDbLine
 10
150.2885818182
 20
419.1422307501
 30
0.0
 11
150.2885818182
 21
405.8833818143
 31
0.0
  0
SPLINE
  5
92
330
1F
100
AcDbEntity
  8
0
  6
Continuous
 62
     7
370
    25
100
AcDbSpline
210
0.0
220
0.0
230
1.0
 70
    24
 71
     3
 72
     9
 73
     5
 74
     0
 42
0.00000001
 43
0.00000001
 40
0.0
 40
0.0
 40
0.0
 40
0.0
 40
0.5000000000000008
 40
1.0
 40
1.0
 40
1.0
 40
1.0
 10
171.2885818181823
 20
435.9004762666085
 30
0.0
 10
171.2885818181823
 20
436.2618414901474
 30
0.0
 10
171.2885818181823
 20
436.9845719372253
 30
0.0
 10
171.2885818181822
 20
437.0893320194322
 30
0.0
 10
171.2885818181822
 20
437.1417120605358
 30
0.0
  0
SPLINE
  5
93
330
1F
100
AcDbEntity
  8
0
  6
Continuous
 62
     7
370
    25
100
AcDbSpline
210
0.0
220
0.0
230
1.0
 70
    24
 71
     3
 72
    14
 73
    10
 74
     0
 42
0.00000001
 43
0.00000001
 40
0.0
 40
0.0
 40
0.0
 40
0.0
 40
0.1435191418308275
 40
0.2962866785723332
 40
0.4583005661617202
 40
0.5859196118433458
 40
0.718742911261357
 40
0.8567699020966908
 40
1.0
 40
1.0
 40
1.0
 40
1.0
 10
171.2885818181824
 20
418.9459760855302
 30
0.0
 10
171.2885818181824
 20
420.1064750545269
 30
0.0
 10
171.2885818181824
 20
422.5022557192132
 30
0.0
 10
171.2885818181824
 20
425.8427654518537
 30
0.0
 10
171.2885818181823
 20
428.7283042741619
 30
0.0
 10
171.2885818181823
 20
431.1265401546725
 30
0.0
 10
171.2885818181823
 20
433.0593704828235
 30
0.0
 10
171.2885818181823
 20
434.7260115588904
 30
0.0
 10
171.2885818181823
 20
435.5041894091826
 30
0.0
 10
171.2885818181823
 20
435.9004762732165
 30
0.0
  0
SPLINE
  5
94
330
1F
100
AcDbEntity
  8
0
  6
Continuous
 62
     7
370
    25
100
AcDbSpline
210
0.0
220
0.0
230
1.0
 70
     8
 71
     3
 72
    23
 73
    19
 74
     0
 42
0.00000001
 43
0.00000001
 40
0.0
 40
0.0
 40
0.0
 40
0.0
 40
0.055015171361153
 40
0.1386619740500104
 40
0.2123470887680605
 40
0.2755719033516368
 40
0.3287567272386051
 40
0.3740865870754977
 40
0.4172108795371602
 40
0.5004508615973468
 40
0.580017050318538
 40
0.6233735289060208
 40
0.677032184579695
 40
0.741634642908877
 40
0.8172417965699907
 40
0.9034946557266055
 40
0.9505350215258123
 40
1.0
 40
1.0
 40
1.0
 40
1.0
 10
171.0849881125698
 20
434.5405960339577
 30
0.0
 10
171.1756026888808
 20
434.9545841018597
 30
0.0
 10
171.4039905266011
 20
435.9980126927043
 30
0.0
 10
171.089784448488
 20
438.7430476131411
 30
0.0
 10
170.3229207613277
 20
441.0929506576502
 30
0.0
 10
169.2073596165148
 20
443.057551130367
 30
0.0
 10
167.8977995232038
 20
444.5550934360012
 30
0.0
 10
166.4719889403891
 20
445.6362350117912
 30
0.0
 10
164.5764847231058
 20
446.6353071446679
 30
0.0
 10
162.0531616818721
 20
447.3112407351038
 30
0.0
 10
159.4427197839662
 20
447.2487341622115
 30
0.0
 10
157.2982332376197
 20
446.6847692307522
 30
0.0
 10
155.5050213267033
 20
445.816534958351
 30
0.0
 10
153.640171729317
 20
444.370167741229
 30
0.0
 10
151.9119755247716
 20
442.2243434239035
 30
0.0
 10
150.8689625368923
 20
439.8833444806797
 30
0.0
 10
150.3655824289968
 20
437.6974081426567
 30
0.0
 10
150.3146750231896
 20
436.5094027629876
 30
0.0
 10
150.2885818181823
 20
435.9004762732164
 30
0.0
  0
SPLINE
  5
95
330
1F
100
AcDbEntity
  8
0
  6
Continuous
 62
     7
370
    25
100
AcDbSpline
210
0.0
220
0.0
230
1.0
 70
     8
 71
     3
 72
     9
 73
     5
 74
     0
 42
0.00000001
 43
0.00000001
 40
0.0
 40
0.0
 40
0.0
 40
0.0
 40
0.105065983125981
 40
1.0
 40
1.0
 40
1.0
 40
1.0
 10
150.4702280535536
 20
434.292240290431
 30
0.0
 10
150.4540477969711
 20
434.3491559605988
 30
0.0
 10
150.3000468910541
 20
434.8908695435716
 30
0.0
 10
150.2939965100014
 20
435.423662095003
 30
0.0
 10
150.2885818181823
 20
435.900476273216
 30
0.0
  0
SPLINE
  5
96
330
1F
100
AcDbEntity
  8
0
  6
Continuous
 62
     7
370
    25
100
AcDbSpline
210
0.0
220
0.0
230
1.0
 70
    24
 71
     3
 72
    14
 73
    10
 74
     0
 42
0.00000001
 43
0.00000001
 40
0.0
 40
0.0
 40
0.0
 40
0.0
 40
0.1435191418308284
 40
0.2962866785723334
 40
0.4583005661617199
 40
0.5859196118433464
 40
0.7187429112613575
 40
0.8567699020966909
 40
1.0
 40
1.0
 40
1.0
 40
1.0
 10
150.2885818181823
 20
435.900476273216
 30
0.0
 10
150.2885818181823
 20
435.5029862486278
 30
0.0
 10
150.2885818181823
 20
434.6823918829668
 30
0.0
 10
150.2885818181823
 20
432.8119512878226
 30
0.0
 10
150.2885818181823
 20
430.5807674375665
 30
0.0
 10
150.2885818181824
 20
428.0714401492735
 30
0.0
 10
150.2885818181824
 20
425.4115854474118
 30
0.0
 10
150.2885818181824
 20
422.3790630299459
 30
0.0
 10
150.2885818181824
 20
420.1043653011132
 30
0.0
 10
150.2885818181824
 20
418.9459760855302
 30
0.0
  0
SPLINE
  5
97
330
1F
100
AcDbEntity
  8
0
  6
Continuous
 62
     7
370
    25
100
AcDbSpline
210
0.0
220
0.0
230
1.0
 70
    24
 71
     3
 72
     9
 73
     5
 74
     0
 42
0.00000001
 43
0.00000001
 40
0.0
 40
0.0
 40
0.0
 40
0.0
 40
0.4999999999998918
 40
1.0
 40
1.0
 40
1.0
 40
1.0
 10
150.2885818181822
 20
437.1417120742234
 30
0.0
 10
150.2885818181822
 20
437.0893320331052
 30
0.0
 10
150.2885818181822
 20
436.9845719508687
 30
0.0
 10
150.2885818181823
 20
436.2618415035258
 30
0.0
 10
150.2885818181823
 20
435.9004762798542
 30
0.0
  0
ARC
  5
98
330
1F
100
AcDbEntity
  8
0
  6
Continuous
 62
     7
370
    25
100
AcDbCircle
 10
136.5885818182
 20
312.0833818182
 30
0.0
 40
0.8000000000000114
100
AcDbArc
 50
90.0
 51
180.0
  0
ARC
  5
99
330
1F
100
AcDbEntity
  8
0
  6
Continuous
 62
     7
370
    25
100
AcDbCircle
 10
184.9885818182
 20
312.0833818182
 30
0.0
 40
0.8000000000000114
100
AcDbArc
 50
0.0
 51
90.0
  0
LINE
  5
9A
330
1F
100
AcDbEntity
  8
0
  6
Continuous
 62
     7
370
    25
100
AcDbLine
 10
185.7885818182
 20
305.8833818182
 30
0.0
 11
185.7885818182
 21
312.0833818182
 31
0.0
  0
LINE
  5
9B
330
1F
100
AcDbEntity
  8
0
  6
Continuous
 62
     7
370
    25
100
AcDbLine
 10
135.7885818182
 20
312.0833818182
 30
0.0
 11
135.7885818182
 21
305.8833818182
 31
0.0
  0
LINE
  5
9C
330
1F
100
AcDbEntity
  8
0
  6
Continuous
 62
     7
370
    25
100
AcDbLine
 10
178.7885818182
 20
312.8833818182
 30
0.0
 11
178.7885818182
 21
477.0833818182
 31
0.0
  0
LINE
  5
9D
330
1F
100
AcDbEntity
  8
0
  6
Continuous
 62
     7
370
    25
100
AcDbLine
 10
142.7885818182
 20
477.0833818182
 30
0.0
 11
142.7885818182
 21
312.8833818182
 31
0.0
  0
LINE
  5
9E
330
1F
100
AcDbEntity
  8
0
  6
Continuous
 62
     7
370
    25
100
AcDbLine
 10
178.7885818182
 20
481.7406067135
 30
0.0
 11
178.7885818182
 21
502.0833818182
 31
0.0
  0
LINE
  5
9F
330
1F
100
AcDbEntity
  8
0
  6
Continuous
 62
     7
370
    25
100
AcDbLine
 10
142.7885818182
 20
502.0833818182
 30
0.0
 11
142.7885818182
 21
481.7370552767
 31
0.0
  0
ARC
  5
A0
330
1F
100
AcDbEntity
  8
0
  6
Continuous
 62
     7
370
    25
100
AcDbCircle
 10
177.9885818182
 20
477.0833818182
 30
0.0
 40
0.8000000000000114
100
AcDbArc
 50
0.0
 51
90.0
  0
ARC
  5
A1
330
1F
100
AcDbEntity
  8
0
  6
Continuous
 62
     7
370
    25
100
AcDbCircle
 10
143.5885818182
 20
477.0833818182
 30
0.0
 40
0.8000000000000114
100
AcDbArc
 50
90.0
 51
180.0
  0
ARC
  5
A2
330
1F
100
AcDbEntity
  8
0
  6
Continuous
 62
     7
370
    25
100
AcDbCircle
 10
143.5885818182
 20
502.0833818182
 30
0.0
 40
0.8000000000000114
100
AcDbArc
 50
90.0
 51
180.0
  0
ARC
  5
A3
330
1F
100
AcDbEntity
  8
0
  6
Continuous
 62
     7
370
    25
100
AcDbCircle
 10
177.9885818182
 20
502.0833818182
 30
0.0
 40
0.8000000000000114
100
AcDbArc
 50
0.0
 51
90.0
  0
LINE
  5
A4
330
1F
100
AcDbEntity
  8
0
  6
Continuous
 62
     7
370
    25
100
AcDbLine
 10
177.2885818182
 20
477.8833818182
 30
0.0
 11
177.2885818182
 21
478.2846256098
 31
0.0
  0
LINE
  5
A5
330
1F
100
AcDbEntity
  8
0
  6
Continuous
 62
     7
370
    25
100
AcDbLine
 10
144.2885818182
 20
478.2846256098
 30
0.0
 11
144.2885818182
 21
477.8833818182
 31
0.0
  0
ARC
  5
A6
330
1F
100
AcDbEntity
  8
0
  6
Continuous
 62
     7
370
    25
100
AcDbCircle
 10
145.2885818182
 20
478.2846256098
 30
0.0
 40
1.0
100
AcDbArc
 50
168.6348556495
 51
180.0
  0
ARC
  5
A7
330
1F
100
AcDbEntity
  8
0
  6
Continuous
 62
     7
370
    25
100
AcDbCircle
 10
176.2885818182
 20
478.2846256098
 30
0.0
 40
1.000000000000006
100
AcDbArc
 50
0.0
 51
11.3651443505
  0
ARC
  5
A8
330
1F
100
AcDbEntity
  8
0
  6
Continuous
 62
     7
370
    25
100
AcDbCircle
 10
177.6414926473
 20
471.7816139317
 30
0.0
 40
34.00000000000001
100
AcDbArc
 50
164.472606992
 51
168.6348556495
  0
ARC
  5
A9
330
1F
100
AcDbEntity
  8
0
  6
Continuous
 62
     7
370
    25
100
AcDbCircle
 10
143.9356709891
 20
471.7816139317
 30
0.0
 40
34.00000000000001
100
AcDbArc
 50
11.3651443505
 51
15.527393008
  0
SPLINE
  5
AA
330
1F
100
AcDbEntity
  8
0
  6
Continuous
 62
     7
370
    25
100
AcDbSpline
210
0.0
220
0.0
230
1.0
 70
     8
 71
     3
 72
    12
 73
     8
 74
     0
 42
0.00000001
 43
0.00000001
 40
0.0
 40
0.0
 40
0.0
 40
0.0
 40
0.0690804565912539
 40
0.3033225372134508
 40
0.5480454696885448
 40
0.7936328223721341
 40
1.0
 40
1.0
 40
1.0
 40
1.0
 10
142.8050015855291
 20
481.7670003625618
 30
0.0
 10
142.7985826485664
 20
481.7330620598528
 30
0.0
 10
142.7703980021146
 20
481.5840437615615
 30
0.0
 10
142.890481491811
 20
481.2502790604776
 30
0.0
 10
143.2162855267393
 20
480.9875240837832
 30
0.0
 10
143.5384698577272
 20
480.8923389907691
 30
0.0
 10
143.7695115919326
 20
480.8940548294819
 30
0.0
 10
143.8750076704195
 20
480.89483829943
 30
0.0
  0
SPLINE
  5
AB
330
1F
100
AcDbEntity
  8
0
  6
Continuous
 62
     7
370
    25
100
AcDbSpline
210
0.0
220
0.0
230
1.0
 70
     8
 71
     3
 72
    12
 73
     8
 74
     0
 42
0.00000001
 43
0.00000001
 40
0.0
 40
0.0
 40
0.0
 40
0.0
 40
0.2627674394458661
 40
0.5098886639483994
 40
0.7424936026961667
 40
0.9812709077006053
 40
1.0
 40
1.0
 40
1.0
 40
1.0
 10
177.7293639089199
 20
480.9007998931351
 30
0.0
 10
177.8598610641406
 20
480.9007977129392
 30
0.0
 10
178.1130850566752
 20
480.900793482365
 30
0.0
 10
178.4586762962749
 20
481.0359827630877
 30
0.0
 10
178.7494059342143
 20
481.3584422756321
 30
0.0
 10
178.8114548824041
 20
481.6598180450538
 30
0.0
 10
178.7827789441566
 20
481.7803937820825
 30
0.0
 10
178.7806932705585
 20
481.7891635607423
 30
0.0
  0
SPLINE
  5
AC
330
1F
100
AcDbEntity
  8
0
  6
Continuous
 62
     7
370
    25
100
AcDbSpline
210
0.0
220
0.0
230
1.0
 70
    11
 71
     3
 72
    95
 73
    91
 74
     0
 42
0.00000001
 43
0.00000001
 40
0.0
 40
0.0
 40
0.0
 40
0.0
 40
0.0312499999999998
 40
0.0312499999999998
 40
0.0468750000000003
 40
0.0468750000000003
 40
0.0625000000000007
 40
0.0625000000000007
 40
0.0937500000000005
 40
0.0937500000000005
 40
0.1093750000000005
 40
0.1093750000000005
 40
0.1250000000000009
 40
0.1250000000000009
 40
0.1562500000000021
 40
0.1562500000000021
 40
0.1718750000000026
 40
0.1718750000000026
 40
0.187500000000003
 40
0.2031250000000035
 40
0.2031250000000035
 40
0.218750000000004
 40
0.218750000000004
 40
0.250000000000005
 40
0.250000000000005
 40
0.2656250000000055
 40
0.2656250000000055
 40
0.2812500000000061
 40
0.2812500000000061
 40
0.312500000000007
 40
0.312500000000007
 40
0.3281250000000075
 40
0.3281250000000075
 40
0.3437500000000079
 40
0.3437500000000079
 40
0.3750000000000088
 40
0.3750000000000088
 40
0.4062500000000097
 40
0.4062500000000097
 40
0.42187500000001
 40
0.42187500000001
 40
0.43750000000001
 40
0.43750000000001
 40
0.4687500000000097
 40
0.4687500000000097
 40
0.5000000000000093
 40
0.5000000000000093
 40
0.5312500000000089
 40
0.5312500000000089
 40
0.5468750000000087
 40
0.5468750000000087
 40
0.5625000000000085
 40
0.5781250000000083
 40
0.5781250000000083
 40
0.5937500000000081
 40
0.5937500000000081
 40
0.6250000000000077
 40
0.6250000000000077
 40
0.6406250000000074
 40
0.6406250000000074
 40
0.6562500000000073
 40
0.6562500000000073
 40
0.6875000000000069
 40
0.6875000000000069
 40
0.7031250000000069
 40
0.7031250000000069
 40
0.7187500000000069
 40
0.7187500000000069
 40
0.7500000000000067
 40
0.7500000000000067
 40
0.7656250000000067
 40
0.7656250000000067
 40
0.7812500000000066
 40
0.7968750000000064
 40
0.7968750000000064
 40
0.8125000000000063
 40
0.8125000000000063
 40
0.8437500000000057
 40
0.8437500000000057
 40
0.8750000000000051
 40
0.8750000000000051
 40
0.9062500000000044
 40
0.9062500000000044
 40
0.9218750000000036
 40
0.9218750000000036
 40
0.9375000000000027
 40
0.9375000000000027
 40
0.9687500000000014
 40
0.9687500000000014
 40
1.0
 40
1.0
 40
1.0
 40
1.0
 10
150.3467088458504
 20
406.4350415628717
 30
0.0
 10
150.2738189360462
 20
406.0901175137157
 30
0.0
 10
150.2698365738644
 20
405.7473812453163
 30
0.0
 10
150.3629972049705
 20
405.2364243040115
 30
0.0
 10
150.4106959706852
 20
405.0666338011914
 30
0.0
 10
150.5401435166666
 20
404.7281338667713
 30
0.0
 10
150.6223592965177
 20
404.5589497653773
 30
0.0
 10
150.9152344594117
 20
404.0639758499513
 30
0.0
 10
151.172590810857
 20
403.747151067835
 30
0.0
 10
151.6509500912199
 20
403.291473816215
 30
0.0
 10
151.82656275776
 20
403.142367346185
 30
0.0
 10
152.207054380664
 20
402.8532023154968
 30
0.0
 10
152.4100841152555
 20
402.7144346609026
 30
0.0
 10
153.0563274577862
 20
402.3150315283216
 30
0.0
 10
153.5363434865514
 20
402.0711359000686
 30
0.0
 10
154.3319090811104
 20
401.7396530837265
 30
0.0
 10
154.6097312901697
 20
401.6351058255071
 30
0.0
 10
155.1785322856175
 20
401.4421807162493
 30
0.0
 10
155.7634133048674
 20
401.2641395900411
 30
0.0
 10
156.3799684337439
 20
401.1154166362812
 30
0.0
 10
157.0125762411141
 20
400.9815523542212
 30
0.0
 10
157.3386686085822
 20
400.9217922244253
 30
0.0
 10
158.3283042501831
 20
400.7678020697776
 30
0.0
 10
158.9987938071668
 20
400.6988428928017
 30
0.0
 10
160.0201971965366
 20
400.6446064072072
 30
0.0
 10
160.3632953014582
 20
400.6347869907698
 30
0.0
 10
161.0549121120455
 20
400.6321693460712
 30
0.0
 10
161.4013254632849
 20
400.6394654212363
 30
0.0
 10
162.4268372735452
 20
400.6862756525072
 30
0.0
 10
163.0985615515658
 20
400.7504192745076
 30
0.0
 10
164.0881227638184
 20
400.8963150055575
 30
0.0
 10
164.4167032040057
 20
400.9536839048482
 30
0.0
 10
165.055875043419
 20
401.0833543320417
 30
0.0
 10
165.3670124137674
 20
401.1556219920774
 30
0.0
 10
166.2756874312497
 20
401.3941869475449
 30
0.0
 10
166.8487294414971
 20
401.5820338015372
 30
0.0
 10
167.9267767342122
 20
402.0175814931662
 30
0.0
 10
168.4157058919305
 20
402.2589538996262
 30
0.0
 10
169.0726743662187
 20
402.6529935746364
 30
0.0
 10
169.2790925624559
 20
402.7898153878101
 30
0.0
 10
169.6662573651735
 20
403.0746399222378
 30
0.0
 10
169.8475755937845
 20
403.223316337208
 30
0.0
 10
170.3412383552863
 20
403.6770574141819
 30
0.0
 10
170.6075600554572
 20
403.9920623932909
 30
0.0
 10
171.0161832758735
 20
404.6467846689167
 30
0.0
 10
171.1578215870229
 20
404.9891684867512
 30
0.0
 10
171.3023066905143
 20
405.6705846786419
 30
0.0
 10
171.3080401293457
 20
406.0126855739351
 30
0.0
 10
171.2148484419066
 20
406.5279685889132
 30
0.0
 10
171.1663949745617
 20
406.7002808318805
 30
0.0
 10
171.0372610710048
 20
407.0380387286169
 30
0.0
 10
170.875701686955
 20
407.3708610198577
 30
0.0
 10
170.6503807078543
 20
407.6939779166328
 30
0.0
 10
170.3928001954567
 20
408.012184467365
 30
0.0
 10
170.2471211539714
 20
408.1695374695198
 30
0.0
 10
169.7651516597929
 20
408.6288362816798
 30
0.0
 10
169.3886646271545
 20
408.9147992359632
 30
0.0
 10
168.7436608204935
 20
409.3143017392535
 30
0.0
 10
168.5151836806305
 20
409.4425266774572
 30
0.0
 10
168.0305068709953
 20
409.6888087251673
 30
0.0
 10
167.7749739541645
 20
409.8063763798817
 30
0.0
 10
166.9835060118862
 20
410.1362107354306
 30
0.0
 10
166.4179677415754
 20
410.3284385134174
 30
0.0
 10
165.5127009693404
 20
410.5751999624666
 30
0.0
 10
165.1995668265284
 20
410.6508292882493
 30
0.0
 10
164.5638502859217
 20
410.785383078418
 30
0.0
 10
164.2415334427857
 20
410.8443857302315
 30
0.0
 10
163.2615511504859
 20
410.9972092705101
 30
0.0
 10
162.5909801459594
 20
411.0670799604197
 30
0.0
 10
161.5583337954085
 20
411.1221692601791
 30
0.0
 10
161.2128897444215
 20
411.1319513299698
 30
0.0
 10
160.5267734117242
 20
411.1346060457
 30
0.0
 10
159.8431520747283
 20
411.1204767277353
 30
0.0
 10
159.1644722679806
 20
411.0731053444074
 30
0.0
 10
158.4883108119392
 20
411.0087928164173
 30
0.0
 10
158.1498449708699
 20
410.9678667126784
 30
0.0
 10
157.1582409917477
 20
410.8216920505577
 30
0.0
 10
156.5242678242503
 20
410.6932030550462
 30
0.0
 10
155.3096589997933
 20
410.3751258064735
 30
0.0
 10
154.725054928085
 20
410.1832384424715
 30
0.0
 10
153.6584313372827
 20
409.7525577848721
 30
0.0
 10
153.1704962541646
 20
409.5128105663364
 30
0.0
 10
152.5078028852308
 20
409.1159639769325
 30
0.0
 10
152.2981182115071
 20
408.9769725868691
 30
0.0
 10
151.9112577028359
 20
408.6923925795732
 30
0.0
 10
151.7328533444984
 20
408.546148155635
 30
0.0
 10
151.241882801202
 20
408.0957714140983
 30
0.0
 10
150.9724550875952
 20
407.7790279246169
 30
0.0
 10
150.5594301615887
 20
407.1177365624201
 30
0.0
 10
150.4195987556546
 20
406.7799656120275
 30
0.0
 10
150.3467088458504
 20
406.4350415628716
 30
0.0
  0
SPLINE
  5
AD
330
1F
100
AcDbEntity
  8
0
  6
Continuous
 62
     7
370
    25
100
AcDbSpline
210
0.0
220
0.0
230
1.0
 70
     8
 71
     3
 72
    22
 73
    18
 74
     0
 42
0.00000001
 43
0.00000001
 40
0.0
 40
0.0
 40
0.0
 40
0.0
 40
0.125
 40
0.125
 40
0.2499999999999999
 40
0.2499999999999999
 40
0.3749999999999999
 40
0.3749999999999999
 40
0.5
 40
0.5
 40
0.6250000000000001
 40
0.6250000000000001
 40
0.75
 40
0.75
 40
0.875
 40
0.875
 40
1.0
 40
1.0
 40
1.0
 40
1.0
 10
171.2885818181822
 20
437.1417120673796
 30
0.0
 10
171.2885818181822
 20
438.5161588533252
 30
0.0
 10
171.015294923201
 20
439.8900648531522
 30
0.0
 10
169.9633388959066
 20
442.4297113612765
 30
0.0
 10
169.1850836633693
 20
443.5944526271207
 30
0.0
 10
167.2413223779262
 20
445.5382139125697
 30
0.0
 10
166.0765811120837
 20
446.3164691451111
 30
0.0
 10
163.536934603959
 20
447.3684251724126
 30
0.0
 10
162.1630286041299
 20
447.6417120673964
 30
0.0
 10
159.4141350322345
 20
447.6417120673964
 30
0.0
 10
158.0402290324054
 20
447.3684251724125
 30
0.0
 10
155.5005825242808
 20
446.3164691451111
 30
0.0
 10
154.3358412584382
 20
445.5382139125697
 30
0.0
 10
152.392079972995
 20
443.5944526271206
 30
0.0
 10
151.6138247404578
 20
442.4297113612765
 30
0.0
 10
150.5618687131634
 20
439.8900648531522
 30
0.0
 10
150.2885818181822
 20
438.5161588533252
 30
0.0
 10
150.2885818181822
 20
437.1417120673796
 30
0.0
  0
LINE
  5
AE
330
1F
100
AcDbEntity
  8
0
  6
Continuous
 62
     7
370
    25
100
AcDbLine
 10
156.2885818182
 20
494.6833818182
 30
0.0
 11
156.2885818182
 21
502.0833818182
 31
0.0
  0
ARC
  5
AF
330
1F
100
AcDbEntity
  8
0
  6
Continuous
 62
     7
370
    25
100
AcDbCircle
 10
157.0885818182
 20
502.0833818182
 30
0.0
 40
0.8000000000000114
100
AcDbArc
 50
90.0
 51
180.0
  0
ARC
  5
B0
330
1F
100
AcDbEntity
  8
0
  6
Continuous
 62
     7
370
    25
100
AcDbCircle
 10
157.0885818182
 20
494.6833818182
 30
0.0
 40
0.8000000000000114
100
AcDbArc
 50
180.0
 51
270.0
  0
LINE
  5
B1
330
1F
100
AcDbEntity
  8
0
  6
Continuous
 62
     7
370
    25
100
AcDbLine
 10
157.0885818182
 20
502.8833818182
 30
0.0
 11
164.4885818182
 21
502.8833818182
 31
0.0
  0
LINE
  5
B2
330
1F
100
AcDbEntity
  8
0
  6
Continuous
 62
     7
370
    25
100
AcDbLine
 10
164.4885818182
 20
493.8833818182
 30
0.0
 11
157.0885818182
 21
493.8833818182
 31
0.0
  0
ARC
  5
B3
330
1F
100
AcDbEntity
  8
0
  6
Continuous
 62
     7
370
    25
100
AcDbCircle
 10
164.4885818182
 20
494.6833818182
 30
0.0
 40
0.8000000000000114
100
AcDbArc
 50
270.0
 51
0.0
  0
ARC
  5
B4
330
1F
100
AcDbEntity
  8
0
  6
Continuous
 62
     7
370
    25
100
AcDbCircle
 10
164.4885818182
 20
502.0833818182
 30
0.0
 40
0.8000000000000114
100
AcDbArc
 50
0.0
 51
90.0
  0
LINE
  5
B5
330
1F
100
AcDbEntity
  8
0
  6
Continuous
 62
     7
370
    25
100
AcDbLine
 10
165.2885818182
 20
502.0833818182
 30
0.0
 11
165.2885818182
 21
494.6833818182
 31
0.0
  0
LINE
  5
B6
330
1F
100
AcDbEntity
  8
0
  6
Continuous
 62
     7
370
    25
100
AcDbLine
 10
136.5885818182
 20
312.8833818182
 30
0.0
 11
184.9885818182
 21
312.8833818182
 31
0.0
  0
LINE
  5
B7
330
1F
100
AcDbEntity
  8
0
  6
Continuous
 62
     7
370
    25
100
AcDbLine
 10
184.1499334753
 20
305.8833818182
 30
0.0
 11
135.7885818182
 21
305.8833818182
 31
0.0
  0
LINE
  5
B8
330
1F
100
AcDbEntity
  8
0
  6
Continuous
 62
     7
370
    25
100
AcDbLine
 10
185.7885818182
 20
305.8833818182
 30
0.0
 11
184.1499334753
 21
305.8833818182
 31
0.0
  0
SPLINE
  5
B9
330
1F
100
AcDbEntity
  8
0
  6
Continuous
 62
     7
370
    25
100
AcDbSpline
210
0.0
220
0.0
230
1.0
 70
    24
 71
     3
 72
    22
 73
    18
 74
     0
 42
0.00000001
 43
0.00000001
 40
0.0
 40
0.0
 40
0.0
 40
0.0
 40
0.1250000000000001
 40
0.1250000000000001
 40
0.2500000000000002
 40
0.2500000000000002
 40
0.3750000000000002
 40
0.3750000000000002
 40
0.5000000000000002
 40
0.5000000000000002
 40
0.6250000000000002
 40
0.6250000000000002
 40
0.7500000000000001
 40
0.7500000000000001
 40
0.8750000000000001
 40
0.8750000000000001
 40
1.0
 40
1.0
 40
1.0
 40
1.0
 10
157.0885818181817
 20
502.8833818181818
 30
0.0
 10
157.0885818181817
 20
502.8833818181818
 30
0.0
 10
157.0874530979346
 20
502.8833818181818
 30
0.0
 10
157.0635468156534
 20
502.8833818181818
 30
0.0
 10
157.041481093499
 20
502.8833818181819
 30
0.0
 10
156.9673037667455
 20
502.8833818181819
 30
0.0
 10
156.9154776160377
 20
502.8833818181819
 30
0.0
 10
156.7789538675746
 20
502.8833818181819
 30
0.0
 10
156.6926914526328
 20
502.8833818181819
 30
0.0
 10
156.4875494644297
 20
502.8833818181819
 30
0.0
 10
156.3699050562714
 20
502.8833818181819
 30
0.0
 10
156.1076065041781
 20
502.8833818181819
 30
0.0
 10
155.9626530993951
 20
502.8833818181819
 30
0.0
 10
155.6626833590186
 20
502.8833818181819
 30
0.0
 10
155.5060260911561
 20
502.8833818181819
 30
0.0
 10
155.1828257624198
 20
502.8833818181819
 30
0.0
 10
155.0156179703133
 20
502.8833818181819
 30
0.0
 10
154.8484997234755
 20
502.8833818181819
 30
0.0
  0
SPLINE
  5
BA
330
1F
100
AcDbEntity
  8
0
  6
Continuous
 62
     7
370
    25
100
AcDbSpline
210
0.0
220
0.0
230
1.0
 70
    24
 71
     3
 72
    22
 73
    18
 74
     0
 42
0.00000001
 43
0.00000001
 40
0.0
 40
0.0
 40
0.0
 40
0.0
 40
0.1249999999999999
 40
0.1249999999999999
 40
0.2499999999999999
 40
0.2499999999999999
 40
0.3749999999999998
 40
0.3749999999999998
 40
0.4999999999999998
 40
0.4999999999999998
 40
0.6249999999999998
 40
0.6249999999999998
 40
0.7499999999999998
 40
0.7499999999999998
 40
0.8749999999999998
 40
0.8749999999999998
 40
1.0
 40
1.0
 40
1.0
 40
1.0
 10
166.7286639128878
 20
502.8833818181817
 30
0.0
 10
166.5626874487293
 20
502.8833818181817
 30
0.0
 10
166.3966145048694
 20
502.8833818181818
 30
0.0
 10
166.0737055361168
 20
502.8833818181818
 30
0.0
 10
165.9163326812847
 20
502.8833818181819
 30
0.0
 10
165.6130479259432
 20
502.8833818181819
 30
0.0
 10
165.4692049971692
 20
502.8833818181819
 30
0.0
 10
165.207709936781
 20
502.8833818181819
 30
0.0
 10
165.0878479949901
 20
502.8833818181817
 30
0.0
 10
164.8830404482079
 20
502.8833818181818
 30
0.0
 10
164.7984457380234
 20
502.8833818181818
 30
0.0
 10
164.6614745620287
 20
502.8833818181817
 30
0.0
 10
164.6094806093805
 20
502.8833818181819
 30
0.0
 10
164.5360947966992
 20
502.8833818181819
 30
0.0
 10
164.5138918933241
 20
502.8833818181819
 30
0.0
 10
164.4897728033613
 20
502.8833818181819
 30
0.0
 10
164.4885818181817
 20
502.8833818181819
 30
0.0
 10
164.4885818181817
 20
502.8833818181819
 30
0.0
  0
LINE
  5
BB
330
1F
100
AcDbEntity
  8
0
  6
Continuous
 62
     7
370
    25
100
AcDbLine
 10
142.8218324443
 20
481.7603753061
 30
0.0
 11
142.8277742983
 21
481.7370552767
 31
0.0
  0
LINE
  5
BC
330
1F
100
AcDbEntity
  8
0
  6
Continuous
 62
     7
370
    25
100
AcDbLine
 10
178.7431205796
 20
481.7406067135
 30
0.0
 11
178.7392380849
 21
481.7751201405
 31
0.0
  0
LINE
  5
BD
330
1F
100
AcDbEntity
  8
0
  6
Continuous
 62
     7
370
    25
100
AcDbLine
 10
160.7885818182
 20
477.8833818182
 30
0.0
 11
177.9885818182
 21
477.8833818182
 31
0.0
  0
LINE
  5
BE
330
1F
100
AcDbEntity
  8
0
  6
Continuous
 62
     7
370
    25
100
AcDbLine
 10
143.5885818182
 20
477.8833818182
 30
0.0
 11
160.7885818182
 21
477.8833818182
 31
0.0
  0
LINE
  5
BF
330
1F
100
AcDbEntity
  8
0
  6
Continuous
 62
     7
370
    25
100
AcDbLine
 10
177.70918294
 20
480.8833818182
 30
0.0
 11
143.8679806964
 21
480.8833818182
 31
0.0
  0
LINE
  5
C0
330
1F
100
AcDbEntity
  8
0
  6
Continuous
 62
     7
370
    25
100
AcDbLine
 10
166.7286639129
 20
502.8833818182
 30
0.0
 11
177.9885818182
 21
502.8833818182
 31
0.0
  0
LINE
  5
C1
330
1F
100
AcDbEntity
  8
0
  6
Continuous
 62
     7
370
    25
100
AcDbLine
 10
143.5885818182
 20
502.8833818182
 30
0.0
 11
154.8484997235
 21
502.8833818182
 31
0.0
  0
LINE
  5
C2
330
1F
100
AcDbEntity
  8
0
  6
Continuous
 62
     8
370
    18
100
AcDbLine
 10
157.0885818182
 20
502.0833818182
 30
0.0
 11
157.0885818182
 21
494.6833818182
 31
0.0
  0
LINE
  5
C3
330
1F
100
AcDbEntity
  8
0
  6
Continuous
 62
     8
370
    18
100
AcDbLine
 10
157.0885818182
 20
502.0833818182
 30
0.0
 11
156.2885818182
 21
502.0833818182
 31
0.0
  0
LINE
  5
C4
330
1F
100
AcDbEntity
  8
0
  6
Continuous
 62
     8
370
    18
100
AcDbLine
 10
157.0885818182
 20
502.0833818182
 30
0.0
 11
157.0885818182
 21
502.8833818182
 31
0.0
  0
LINE
  5
C5
330
1F
100
AcDbEntity
  8
0
  6
Continuous
 62
     8
370
    18
100
AcDbLine
 10
157.0885818182
 20
493.8833818182
 30
0.0
 11
157.0885818182
 21
494.6833818182
 31
0.0
  0
LINE
  5
C6
330
1F
100
AcDbEntity
  8
0
  6
Continuous
 62
     8
370
    18
100
AcDbLine
 10
164.4885818182
 20
502.0833818182
 30
0.0
 11
157.0885818182
 21
502.0833818182
 31
0.0
  0
LINE
  5
C7
330
1F
100
AcDbEntity
  8
0
  6
Continuous
 62
     8
370
    18
100
AcDbLine
 10
164.4885818182
 20
502.0833818182
 30
0.0
 11
164.4885818182
 21
502.8833818182
 31
0.0
  0
LINE
  5
C8
330
1F
100
AcDbEntity
  8
0
  6
Continuous
 62
     8
370
    18
100
AcDbLine
 10
164.4885818182
 20
494.6833818182
 30
0.0
 11
164.4885818182
 21
502.0833818182
 31
0.0
  0
LINE
  5
C9
330
1F
100
AcDbEntity
  8
0
  6
Continuous
 62
     8
370
    18
100
AcDbLine
 10
164.4885818182
 20
493.8833818182
 30
0.0
 11
164.4885818182
 21
494.6833818182
 31
0.0
  0
LINE
  5
CA
330
1F
100
AcDbEntity
  8
0
  6
Continuous
 62
     8
370
    18
100
AcDbLine
 10
165.2885818182
 20
502.0833818182
 30
0.0
 11
164.4885818182
 21
502.0833818182
 31
0.0
  0
LINE
  5
CB
330
1F
100
AcDbEntity
  8
0
  6
Continuous
 62
     8
370
    18
100
AcDbLine
 10
185.7885818182
 20
312.0833818182
 30
0.0
 11
135.7885818182
 21
312.0833818182
 31
0.0
  0
SPLINE
  5
CC
330
1F
100
AcDbEntity
  8
0
  6
Continuous
 62
     8
370
    18
100
AcDbSpline
210
0.0
220
0.0
230
1.0
 70
    24
 71
     3
 72
    20
 73
    16
 74
     0
 42
0.00000001
 43
0.00000001
 40
0.0
 40
0.0
 40
0.0
 40
0.0
 40
0.1250000000000001
 40
0.1250000000000001
 40
0.2500000000000002
 40
0.2500000000000002
 40
0.5000000000000001
 40
0.5000000000000001
 40
0.6250000000000002
 40
0.6250000000000002
 40
0.7500000000000001
 40
0.7500000000000001
 40
0.8750000000000001
 40
0.8750000000000001
 40
1.0
 40
1.0
 40
1.0
 40
1.0
 10
156.2885818181817
 20
502.0833818181819
 30
0.0
 10
156.2885818181817
 20
502.0833818181819
 30
0.0
 10
156.2883847134429
 20
502.0833818181819
 30
0.0
 10
156.2745213999413
 20
502.0833818181819
 30
0.0
 10
156.2608804352414
 20
502.0833818181819
 30
0.0
 10
156.1866314563749
 20
502.0833818181819
 30
0.0
 10
156.0913923512151
 20
502.083381818182
 30
0.0
 10
155.8567557902708
 20
502.0833818181819
 30
0.0
 10
155.7630779957502
 20
502.0833818181819
 30
0.0
 10
155.551147956159
 20
502.0833818181819
 30
0.0
 10
155.4332344298938
 20
502.0833818181819
 30
0.0
 10
155.1882732083873
 20
502.0833818181819
 30
0.0
 10
155.0615642319515
 20
502.0833818181819
 30
0.0
 10
154.8126969069514
 20
502.083381818182
 30
0.0
 10
154.6908772771927
 20
502.0833818181819
 30
0.0
 10
154.5722168353496
 20
502.0833818181819
 30
0.0
  0
SPLINE
  5
CD
330
1F
100
AcDbEntity
  8
0
  6
Continuous
 62
     8
370
    18
100
AcDbSpline
210
0.0
220
0.0
230
1.0
 70
    24
 71
     3
 72
    20
 73
    16
 74
     0
 42
0.00000001
 43
0.00000001
 40
0.0
 40
0.0
 40
0.0
 40
0.0
 40
0.125
 40
0.125
 40
0.25
 40
0.25
 40
0.375
 40
0.375
 40
0.5
 40
0.5
 40
0.75
 40
0.75
 40
0.875
 40
0.875
 40
1.0
 40
1.0
 40
1.0
 40
1.0
 10
167.0049468010137
 20
502.0833818181819
 30
0.0
 10
166.8862863591707
 20
502.0833818181818
 30
0.0
 10
166.7644667294119
 20
502.0833818181819
 30
0.0
 10
166.5155994044119
 20
502.0833818181818
 30
0.0
 10
166.3888904279761
 20
502.0833818181819
 30
0.0
 10
166.1439292064696
 20
502.0833818181819
 30
0.0
 10
166.0260156802043
 20
502.0833818181819
 30
0.0
 10
165.8140856406131
 20
502.0833818181819
 30
0.0
 10
165.7204078460926
 20
502.0833818181818
 30
0.0
 10
165.4857712851483
 20
502.0833818181819
 30
0.0
 10
165.3905321799885
 20
502.0833818181819
 30
0.0
 10
165.316283201122
 20
502.0833818181819
 30
0.0
 10
165.3026422364221
 20
502.0833818181819
 30
0.0
 10
165.2887789229205
 20
502.0833818181819
 30
0.0
 10
165.2885818181817
 20
502.0833818181819
 30
0.0
 10
165.2885818181817
 20
502.0833818181819
 30
0.0
  0
LINE
  5
CE
330
1F
100
AcDbEntity
  8
0
  6
Continuous
 62
     8
370
    18
100
AcDbLine
 10
160.7885818182
 20
477.0833818182
 30
0.0
 11
142.7885818182
 21
477.0833818182
 31
0.0
  0
LINE
  5
CF
330
1F
100
AcDbEntity
  8
0
  6
Continuous
 62
     8
370
    18
100
AcDbLine
 10
178.7885818182
 20
477.0833818182
 30
0.0
 11
160.7885818182
 21
477.0833818182
 31
0.0
  0
LINE
  5
D0
330
1F
100
AcDbEntity
  8
0
  6
Continuous
 62
     8
370
    18
100
AcDbLine
 10
154.5722168353
 20
502.0833818182
 30
0.0
 11
142.7885818182
 21
502.0833818182
 31
0.0
  0
LINE
  5
D1
330
1F
100
AcDbEntity
  8
0
  6
Continuous
 62
     8
370
    18
100
AcDbLine
 10
178.7885818182
 20
502.0833818182
 30
0.0
 11
167.004946801
 21
502.0833818182
 31
0.0
  0
SPLINE
  5
D2
330
1F
100
AcDbEntity
  8
0
  6
Continuous
 62
     8
370
    18
100
AcDbSpline
210
0.0
220
0.0
230
1.0
 70
     8
 71
     3
 72
     9
 73
     5
 74
     0
 42
0.00000001
 43
0.00000001
 40
0.0
 40
0.0
 40
0.0
 40
0.0
 40
0.4112589403431042
 40
1.0
 40
1.0
 40
1.0
 40
1.0
 10
142.8277742983375
 20
481.7370552767105
 30
0.0
 10
142.8286398257742
 20
481.6459683907044
 30
0.0
 10
142.8307444060075
 20
481.4244853369131
 30
0.0
 10
143.179316340158
 20
481.3986135823679
 30
0.0
 10
143.3845349500365
 20
481.3833818181819
 30
0.0
  0
SPLINE
  5
D3
330
1F
100
AcDbEntity
  8
0
  6
Continuous
 62
     8
370
    18
100
AcDbSpline
210
0.0
220
0.0
230
1.0
 70
     8
 71
     3
 72
    10
 73
     6
 74
     0
 42
0.00000001
 43
0.00000001
 40
0.0
 40
0.0
 40
0.0
 40
0.0
 40
0.3885710808597079
 40
0.7823666478226068
 40
1.0
 40
1.0
 40
1.0
 40
1.0
 10
178.1926286863268
 20
481.3833818181819
 30
0.0
 10
178.3269559795108
 20
481.3942310472479
 30
0.0
 10
178.5974166474715
 20
481.4160753773947
 30
0.0
 10
178.7897926877919
 20
481.5292052677898
 30
0.0
 10
178.7553722616554
 20
481.6851126850136
 30
0.0
 10
178.7431205795891
 20
481.7406067134731
 30
0.0
  0
LINE
  5
D4
330
1F
100
AcDbEntity
  8
0
  6
Continuous
 62
     8
370
    18
100
AcDbLine
 10
143.38453495
 20
481.3833818182
 30
0.0
 11
178.1926286863
 21
481.3833818182
 31
0.0
  0
ARC
  5
D5
330
1F
100
AcDbEntity
  8
0
  6
Continuous
 62
     8
370
    18
100
AcDbCircle
 10
177.7007640996
 20
481.375241713
 30
0.0
 40
0.4919319394101382
100
AcDbArc
 50
270.9805981978
 51
0.9481290407
  0
ARC
  5
D6
330
1F
100
AcDbEntity
  8
0
  6
Continuous
 62
     8
370
    18
100
AcDbCircle
 10
143.8763995368
 20
481.375241713
 30
0.0
 40
0.4919319394101382
100
AcDbArc
 50
179.0518709593
 51
269.0194018022
  0
LINE
  5
D7
330
1F
100
AcDbEntity
  8
0
  6
Continuous
 62
     8
370
    18
100
AcDbLine
 10
177.2885818182
 20
478.2846256098
 30
0.0
 11
144.2885818182
 21
478.2846256098
 31
0.0
  0
LINE
  5
D8
330
1F
100
AcDbEntity
  8
0
  6
Continuous
 62
     8
370
    18
100
AcDbLine
 10
160.4083775107
 20
478.4816865697
 30
0.0
 11
177.2689730554
 21
478.4816865697
 31
0.0
  0
LINE
  5
D9
330
1F
100
AcDbEntity
  8
0
  6
Continuous
 62
     8
370
    18
100
AcDbLine
 10
144.3081905809
 20
478.4816865697
 30
0.0
 11
160.4083775107
 21
478.4816865697
 31
0.0
  0
ARC
  5
DA
330
1F
100
AcDbEntity
  8
0
  6
Continuous
 62
     7
370
    25
100
AcDbCircle
 10
339.211642124
 20
312.0833818182
 30
0.0
 40
0.8000000000000114
100
AcDbArc
 50
90.0
 51
180.0
  0
ARC
  5
DB
330
1F
100
AcDbEntity
  8
0
  6
Continuous
 62
     7
370
    25
100
AcDbCircle
 10
387.611642124
 20
312.0833818182
 30
0.0
 40
0.8000000000000682
100
AcDbArc
 50
0.0
 51
90.0
  0
LINE
  5
DC
330
1F
100
AcDbEntity
  8
0
  6
Continuous
 62
     7
370
    25
100
AcDbLine
 10
388.411642124
 20
305.8833818182
 30
0.0
 11
388.411642124
 21
312.0833818182
 31
0.0
  0
LINE
  5
DD
330
1F
100
AcDbEntity
  8
0
  6
Continuous
 62
     7
370
    25
100
AcDbLine
 10
338.411642124
 20
312.0833818182
 30
0.0
 11
338.411642124
 21
305.8833818182
 31
0.0
  0
LINE
  5
DE
330
1F
100
AcDbEntity
  8
0
  6
Continuous
 62
     7
370
    25
100
AcDbLine
 10
381.411642124
 20
448.1417120675
 30
0.0
 11
381.411642124
 21
477.0833818182
 31
0.0
  0
LINE
  5
DF
330
1F
100
AcDbEntity
  8
0
  6
Continuous
 62
     7
370
    25
100
AcDbLine
 10
381.411642124
 20
312.8833818182
 30
0.0
 11
381.411642124
 21
426.1417120674
 31
0.0
  0
LINE
  5
E0
330
1F
100
AcDbEntity
  8
0
  6
Continuous
 62
     7
370
    25
100
AcDbLine
 10
345.411642124
 20
477.0833818182
 30
0.0
 11
345.411642124
 21
312.8833818182
 31
0.0
  0
ARC
  5
E1
330
1F
100
AcDbEntity
  8
0
  6
Continuous
 62
     7
370
    25
100
AcDbCircle
 10
380.611642124
 20
477.0833818182
 30
0.0
 40
0.8000000000000114
100
AcDbArc
 50
0.0
 51
90.0
  0
ARC
  5
E2
330
1F
100
AcDbEntity
  8
0
  6
Continuous
 62
     7
370
    25
100
AcDbCircle
 10
346.211642124
 20
477.0833818182
 30
0.0
 40
0.8000000000000114
100
AcDbArc
 50
90.0
 51
180.0
  0
ARC
  5
E3
330
1F
100
AcDbEntity
  8
0
  6
Continuous
 62
     7
370
    25
100
AcDbCircle
 10
346.211642124
 20
502.0833818182
 30
0.0
 40
0.8000000000000114
100
AcDbArc
 50
90.0
 51
180.0
  0
LINE
  5
E4
330
1F
100
AcDbEntity
  8
0
  6
Continuous
 62
     7
370
    25
100
AcDbLine
 10
381.411642124
 20
481.3833818182
 30
0.0
 11
381.411642124
 21
491.7620614746
 31
0.0
  0
LINE
  5
E5
330
1F
100
AcDbEntity
  8
0
  6
Continuous
 62
     7
370
    25
100
AcDbLine
 10
345.411642124
 20
502.0833818182
 30
0.0
 11
345.411642124
 21
486.5885924364
 31
0.0
  0
ARC
  5
E6
330
1F
100
AcDbEntity
  8
0
  6
Continuous
 62
     7
370
    25
100
AcDbCircle
 10
345.911642124
 20
486.5885924364
 30
0.0
 40
0.5000000000000279
100
AcDbArc
 50
187.5704450962
 51
253.5
  0
ARC
  5
E7
330
1F
100
AcDbEntity
  8
0
  6
Continuous
 62
     7
370
    25
100
AcDbCircle
 10
380.911642124
 20
481.3833818182
 30
0.0
 40
0.5
100
AcDbArc
 50
270.0
 51
0.0
  0
ARC
  5
E8
330
1F
100
AcDbEntity
  8
0
  6
Continuous
 62
     7
370
    25
100
AcDbCircle
 10
380.2645529531
 20
471.7816139317
 30
0.0
 40
34.00000000000004
100
AcDbArc
 50
156.8417748147
 51
168.6348556495
  0
ARC
  5
E9
330
1F
100
AcDbEntity
  8
0
  6
Continuous
 62
     7
370
    25
100
AcDbCircle
 10
346.558731295
 20
471.7816139317
 30
0.0
 40
34.00000000000007
100
AcDbArc
 50
11.3651443505
 51
15.527393008
  0
LINE
  5
EA
330
1F
100
AcDbEntity
  8
0
  6
Continuous
 62
     7
370
    25
100
AcDbLine
 10
379.911642124
 20
477.8833818182
 30
0.0
 11
379.911642124
 21
478.2846256098
 31
0.0
  0
LINE
  5
EB
330
1F
100
AcDbEntity
  8
0
  6
Continuous
 62
     7
370
    25
100
AcDbLine
 10
346.911642124
 20
478.2846256098
 30
0.0
 11
346.911642124
 21
477.8833818182
 31
0.0
  0
ARC
  5
EC
330
1F
100
AcDbEntity
  8
0
  6
Continuous
 62
     7
370
    25
100
AcDbCircle
 10
347.911642124
 20
478.2846256098
 30
0.0
 40
1.000000000000034
100
AcDbArc
 50
168.6348556495
 51
180.0
  0
ARC
  5
ED
330
1F
100
AcDbEntity
  8
0
  6
Continuous
 62
     7
370
    25
100
AcDbCircle
 10
378.911642124
 20
478.2846256098
 30
0.0
 40
1.000000000000034
100
AcDbArc
 50
0.0
 51
11.3651443505
  0
LINE
  5
EE
330
1F
100
AcDbEntity
  8
0
  6
Continuous
 62
     7
370
    25
100
AcDbLine
 10
381.4156549809
 20
447.6328714782
 30
0.0
 11
381.4114610811
 21
448.289971824
 31
0.0
  0
LINE
  5
EF
330
1F
100
AcDbEntity
  8
0
  6
Continuous
 62
     7
370
    25
100
AcDbLine
 10
381.4114637617
 20
425.993915647
 30
0.0
 11
381.4166756474
 21
426.6688290364
 31
0.0
  0
LINE
  5
F0
330
1F
100
AcDbEntity
  8
0
  6
Continuous
 62
     7
370
    25
100
AcDbLine
 10
476.663630184
 20
413.8921741234
 30
0.0
 11
484.3186286711
 21
400.6333278119
 31
0.0
  0
LINE
  5
F1
330
1F
100
AcDbEntity
  8
0
  6
Continuous
 62
     7
370
    25
100
AcDbLine
 10
502.505099868
 20
411.1334356878
 30
0.0
 11
494.8500982762
 21
424.3922873768
 31
0.0
  0
SPLINE
  5
F2
330
1F
100
AcDbEntity
  8
0
  6
Continuous
 62
     7
370
    25
100
AcDbSpline
210
0.0
220
0.0
230
1.0
 70
     8
 71
     3
 72
    18
 73
    14
 74
     0
 42
0.00000001
 43
0.00000001
 40
0.0
 40
0.0
 40
0.0
 40
0.0
 40
0.108721795069212
 40
0.2037937343477918
 40
0.2852108935582942
 40
0.3529690556763936
 40
0.4070647111493025
 40
0.4523057436100083
 40
0.5426203221114227
 40
0.6639891335475452
 40
0.7621924286543938
 40
0.8741980283936045
 40
0.9999999999999999
 40
0.9999999999999999
 40
0.9999999999999999
 40
0.9999999999999999
 10
454.5798565315108
 20
426.6417120673204
 30
0.0
 10
455.5535146592065
 20
426.6098276280317
 30
0.0
 10
457.3785896195203
 20
426.550061792248
 30
0.0
 10
459.9010123502292
 20
426.1152998940231
 30
0.0
 10
462.0175949382782
 20
425.5610990849937
 30
0.0
 10
463.7365872661
 20
424.9598378363531
 30
0.0
 10
465.1146681201847
 20
424.3768465578613
 30
0.0
 10
466.641737136506
 20
423.6343061643695
 30
0.0
 10
468.6355854880862
 20
422.4819724076107
 30
0.0
 10
470.8755602168291
 20
420.8315500904142
 30
0.0
 10
473.0437898917056
 20
418.8001891169312
 30
0.0
 10
475.0250233690089
 20
416.5226812604902
 30
0.0
 10
476.148813548945
 20
414.7113681225071
 30
0.0
 10
476.7433069013135
 20
413.7531700186136
 30
0.0
  0
SPLINE
  5
F3
330
1F
100
AcDbEntity
  8
0
  6
Continuous
 62
     7
370
    25
100
AcDbSpline
210
0.0
220
0.0
230
1.0
 70
     8
 71
     3
 72
    21
 73
    17
 74
     0
 42
0.00000001
 43
0.00000001
 40
0.0
 40
0.0
 40
0.0
 40
0.0
 40
0.1033618809963275
 40
0.1989880317322289
 40
0.280879803355179
 40
0.3332879318532957
 40
0.3779646061085624
 40
0.4149090939418698
 40
0.4489600863443908
 40
0.5060591065744446
 40
0.5770543793467592
 40
0.6619421441504055
 40
0.734735875349752
 40
0.8153443508601881
 40
0.9037662197154787
 40
1.0
 40
1.0
 40
1.0
 40
1.0
 10
494.8368240069298
 20
424.3837017633226
 30
0.0
 10
493.9582580123331
 20
425.8145248769021
 30
0.0
 10
492.2668789823998
 20
428.5690865429991
 30
0.0
 10
489.3614839728588
 20
432.0970206749502
 30
0.0
 10
486.7536192436615
 20
434.7694893875728
 30
0.0
 10
484.579012743868
 20
436.6969663686378
 30
0.0
 10
482.8802993237821
 20
438.0562108429428
 30
0.0
 10
481.3654864934595
 20
439.1653434821271
 30
0.0
 10
479.6436720727874
 20
440.3303810174341
 30
0.0
 10
477.3953086321822
 20
441.7000428981536
 30
0.0
 10
474.3272666343378
 20
443.2977501190267
 30
0.0
 10
470.9025518619907
 20
444.7391091090427
 30
0.0
 10
467.22387044947
 20
445.9428167110215
 30
0.0
 10
463.4036828421524
 20
446.8543196320589
 30
0.0
 10
459.1397566461937
 20
447.5098263632674
 30
0.0
 10
456.1421033003182
 20
447.5965275266331
 30
0.0
 10
454.5798683251091
 20
447.6417120673964
 30
0.0
  0
LINE
  5
F4
330
1F
100
AcDbEntity
  8
0
  6
Continuous
 62
     7
370
    25
100
AcDbLine
 10
381.3964663243
 20
426.6417120674
 30
0.0
 11
454.5798565315
 21
426.6417120674
 31
0.0
  0
LINE
  5
F5
330
1F
100
AcDbEntity
  8
0
  6
Continuous
 62
     7
370
    25
100
AcDbLine
 10
454.5798683251
 20
447.6417120674
 30
0.0
 11
381.4070601607
 21
447.6417120674
 31
0.0
  0
SPLINE
  5
F6
330
1F
100
AcDbEntity
  8
0
  6
Continuous
 62
     7
370
    25
100
AcDbSpline
210
0.0
220
0.0
230
1.0
 70
     8
 71
     3
 72
    17
 73
    13
 74
     0
 42
0.00000001
 43
0.00000001
 40
0.0
 40
0.0
 40
0.0
 40
0.0
 40
0.1554072486061635
 40
0.2333647770965017
 40
0.270448437472815
 40
0.2883805162792351
 40
0.3065716982545749
 40
0.3261115814618281
 40
0.3483748746830991
 40
0.4040182091358511
 40
0.5609834355097467
 40
0.9999999999999999
 40
0.9999999999999999
 40
0.9999999999999999
 40
0.9999999999999999
 10
381.4107668066166
 20
491.7620614746222
 30
0.0
 10
381.4156351376736
 20
492.0783955048695
 30
0.0
 10
381.422945588133
 20
492.5534133764219
 30
0.0
 10
381.6085134692618
 20
493.0574805156652
 30
0.0
 10
381.7519357007673
 20
493.2783394917918
 30
0.0
 10
381.8482278448752
 20
493.3905671528861
 30
0.0
 10
381.9271629222191
 20
493.4673220765615
 30
0.0
 10
382.0124270828454
 20
493.5365853962886
 30
0.0
 10
382.1397323537885
 20
493.6233867588187
 30
0.0
 10
382.3941670117886
 20
493.7532874668355
 30
0.0
 10
382.8921593140322
 20
493.8896225748926
 30
0.0
 10
383.0564997924255
 20
493.8860289678674
 30
0.0
 10
383.1775575048202
 20
493.8833818181818
 30
0.0
  0
LINE
  5
F7
330
1F
100
AcDbEntity
  8
0
  6
Continuous
 62
     7
370
    25
100
AcDbLine
 10
354.7944166997
 20
312.8833818182
 30
0.0
 11
387.611642124
 21
312.8833818182
 31
0.0
  0
LINE
  5
F8
330
1F
100
AcDbEntity
  8
0
  6
Continuous
 62
     7
370
    25
100
AcDbLine
 10
339.211642124
 20
312.8833818182
 30
0.0
 11
354.7944166997
 21
312.8833818182
 31
0.0
  0
LINE
  5
F9
330
1F
100
AcDbEntity
  8
0
  6
Continuous
 62
     7
370
    25
100
AcDbLine
 10
388.411642124
 20
305.8833818182
 30
0.0
 11
338.411642124
 21
305.8833818182
 31
0.0
  0
LINE
  5
FA
330
1F
100
AcDbEntity
  8
0
  6
Continuous
 62
     7
370
    25
100
AcDbLine
 10
346.2116422352
 20
477.8833818182
 30
0.0
 11
380.611642124
 21
477.8833818182
 31
0.0
  0
LINE
  5
FB
330
1F
100
AcDbEntity
  8
0
  6
Continuous
 62
     7
370
    25
100
AcDbLine
 10
346.211642124
 20
502.8833818182
 30
0.0
 11
379.5533714214
 21
502.8833818182
 31
0.0
  0
SPLINE
  5
FC
330
1F
100
AcDbEntity
  8
0
  6
Continuous
 62
     7
370
    25
100
AcDbSpline
210
0.0
220
0.0
230
1.0
 70
     8
 71
     3
 72
    24
 73
    20
 74
     0
 42
0.00000001
 43
0.00000001
 40
0.0
 40
0.0
 40
0.0
 40
0.0
 40
0.045322069658459
 40
0.090572636369567
 40
0.1357745118588708
 40
0.1809505816117546
 40
0.2261237703340833
 40
0.2713170071156498
 40
0.3165531905603185
 40
0.3618551541473938
 40
0.4072456320846913
 40
0.4527472259051367
 40
0.4983823720458607
 40
0.581075924668641
 40
0.6639619544130401
 40
0.7471702086684651
 40
0.8308289356113697
 40
0.9150643259125613
 40
1.0
 40
1.0
 40
1.0
 40
1.0
 10
367.8774295883794
 20
480.8833818181819
 30
0.0
 10
367.7462450661239
 20
480.8838641118491
 30
0.0
 10
367.4840829865655
 20
480.8848279382867
 30
0.0
 10
367.0884521249711
 20
480.8926978308136
 30
0.0
 10
366.6916496109081
 20
480.9053437895401
 30
0.0
 10
366.293536726844
 20
480.9232754024458
 30
0.0
 10
365.8942383080712
 20
480.9464247100533
 30
0.0
 10
365.4938104712386
 20
480.9748773777202
 30
0.0
 10
365.0923296331485
 20
481.0086769317667
 30
0.0
 10
364.6898683458069
 20
481.0478771986782
 30
0.0
 10
364.2865029450766
 20
481.0925280547324
 30
0.0
 10
363.882307089273
 20
481.142679775052
 30
0.0
 10
363.3682376453874
 20
481.2133910751142
 30
0.0
 10
362.7450745052129
 20
481.3109863690179
 30
0.0
 10
362.0150128772539
 20
481.4434282746769
 30
0.0
 10
361.2875397479189
 20
481.5935052797183
 30
0.0
 10
360.5633687690709
 20
481.7615467990605
 30
0.0
 10
359.8419365836568
 20
481.9461348788973
 30
0.0
 10
359.3678043990984
 20
482.0830120813557
 30
0.0
 10
359.1297569714988
 20
482.1517339842415
 30
0.0
  0
LINE
  5
FD
330
1F
100
AcDbEntity
  8
0
  6
Continuous
 62
     7
370
    25
100
AcDbLine
 10
359.1297569715
 20
482.1517339842
 30
0.0
 11
345.7696344517
 21
486.109182569
 31
0.0
  0
LINE
  5
FE
330
1F
100
AcDbEntity
  8
0
  6
Continuous
 62
     7
370
    25
100
AcDbLine
 10
380.911642124
 20
480.8833818182
 30
0.0
 11
367.8774295884
 21
480.8833818182
 31
0.0
  0
SPLINE
  5
FF
330
1F
100
AcDbEntity
  8
0
  6
Continuous
 62
     7
370
    25
100
AcDbSpline
210
0.0
220
0.0
230
1.0
 70
     8
 71
     3
 72
    17
 73
    13
 74
     0
 42
0.00000001
 43
0.00000001
 40
0.0
 40
0.0
 40
0.0
 40
0.0
 40
0.0927633467198816
 40
0.1886597195718031
 40
0.2813227537123434
 40
0.3761737300392594
 40
0.4795739509248038
 40
0.5854415457949703
 40
0.6985645281957571
 40
0.8156187407902535
 40
0.9181592531895431
 40
1.0
 40
1.0
 40
1.0
 40
1.0
 10
378.0294951118362
 20
437.1417120673796
 30
0.0
 10
378.0460062099111
 20
436.6185654922429
 30
0.0
 10
378.0795860584482
 20
435.5546033816662
 30
0.0
 10
378.3376773404111
 20
434.0214107559006
 30
0.0
 10
378.708870096519
 20
432.5717569225916
 30
0.0
 10
379.1748443062032
 20
431.2042633210267
 30
0.0
 10
379.7030142965251
 20
429.9251043333753
 30
0.0
 10
380.2564996568609
 20
428.7578130113816
 30
0.0
 10
380.7740504706943
 20
427.7687958368501
 30
0.0
 10
381.1604742018402
 20
427.0769558001356
 30
0.0
 10
381.3841783047727
 20
426.6901218986422
 30
0.0
 10
381.3927618454709
 20
426.6754965058385
 30
0.0
 10
381.3965717954844
 20
426.6690047773701
 30
0.0
  0
SPLINE
  5
100
330
1F
100
AcDbEntity
  8
0
  6
Continuous
 62
     7
370
    25
100
AcDbSpline
210
0.0
220
0.0
230
1.0
 70
     8
 71
     3
 72
    17
 73
    13
 74
     0
 42
0.00000001
 43
0.00000001
 40
0.0
 40
0.0
 40
0.0
 40
0.0
 40
0.0064735499993479
 40
0.0980098529241485
 40
0.1922501144263697
 40
0.376472453280215
 40
0.4778857170713334
 40
0.5816746041165335
 40
0.6942062686012787
 40
0.8103420088653851
 40
0.9036517164082769
 40
1.0
 40
1.0
 40
1.0
 40
1.0
 10
381.4072863570742
 20
447.6328073834958
 30
0.0
 10
381.4089906241576
 20
447.6357443918257
 30
0.0
 10
381.4347933083421
 20
447.6802108367381
 30
0.0
 10
381.3459103894574
 20
447.5279427101245
 30
0.0
 10
381.0864302614647
 20
447.0773402144904
 30
0.0
 10
380.5619517612336
 20
446.1328095966367
 30
0.0
 10
379.9151555168831
 20
444.8203508965038
 30
0.0
 10
379.3605553777944
 20
443.5565957708685
 30
0.0
 10
378.8052630318443
 20
442.047421985846
 30
0.0
 10
378.3656309154607
 20
440.4154162555556
 30
0.0
 10
378.0823826244423
 20
438.7532904579612
 30
0.0
 10
378.0473115778138
 20
437.6846120857607
 30
0.0
 10
378.0294951118362
 20
437.1417120673796
 30
0.0
  0
SPLINE
  5
101
330
1F
100
AcDbEntity
  8
0
  6
Continuous
 62
     7
370
    25
100
AcDbSpline
210
0.0
220
0.0
230
1.0
 70
    24
 71
     3
 72
    17
 73
    13
 74
     0
 42
0.00000001
 43
0.00000001
 40
0.0
 40
0.0
 40
0.0
 40
0.0
 40
0.0992032616652168
 40
0.2012834246392223
 40
0.3004866863044325
 40
0.4025668492784382
 40
0.5017701109436757
 40
0.6038502739177062
 40
0.7030535355830162
 40
0.8051336985571232
 40
0.9043369602225128
 40
1.0
 40
1.0
 40
1.0
 40
1.0
 10
494.3673538196754
 20
406.4350415628717
 30
0.0
 10
493.8636343439431
 20
406.1442149956204
 30
0.0
 10
492.8415874935581
 20
405.5541278709656
 30
0.0
 10
491.3241609074469
 20
404.6780291962955
 30
0.0
 10
489.8543775821246
 20
403.8294377486742
 30
0.0
 10
488.4979067715586
 20
403.0462682100336
 30
0.0
 10
487.2692381234435
 20
402.3368862972118
 30
0.0
 10
486.2256173820005
 20
401.7343433097586
 30
0.0
 10
485.3758707995694
 20
401.2437351567925
 30
0.0
 10
484.7666952002249
 20
400.8920226323702
 30
0.0
 10
484.3850818225118
 20
400.6716950214588
 30
0.0
 10
484.3457587578942
 20
400.6489915278529
 30
0.0
 10
484.3264544252988
 20
400.6378460132316
 30
0.0
  0
SPLINE
  5
102
330
1F
100
AcDbEntity
  8
0
  6
Continuous
 62
     7
370
    25
100
AcDbSpline
210
0.0
220
0.0
230
1.0
 70
    24
 71
     3
 72
    16
 73
    12
 74
     0
 42
0.00000001
 43
0.00000001
 40
0.0
 40
0.0
 40
0.0
 40
0.0
 40
0.0489731156470404
 40
0.1657323758720037
 40
0.2792010372306729
 40
0.3959602974556597
 40
0.5094289588142848
 40
0.6261882190392297
 40
0.7396568803977708
 40
0.856416140622626
 40
0.9999999999999999
 40
0.9999999999999999
 40
0.9999999999999999
 40
0.9999999999999999
 10
502.4742837602302
 20
411.1156439996363
 30
0.0
 10
502.4814551948774
 20
411.1197844861993
 30
0.0
 10
502.5057244063988
 20
411.1337965143552
 30
0.0
 10
502.2743747766372
 20
411.0002249097222
 30
0.0
 10
501.7909584864242
 20
410.7211205530132
 30
0.0
 10
501.060268452627
 20
410.2992506740594
 30
0.0
 10
500.108846017012
 20
409.7499391340328
 30
0.0
 10
498.9758809767681
 20
409.0958124834983
 30
0.0
 10
497.6735363300377
 20
408.3438931291072
 30
0.0
 10
496.1416243703568
 20
407.4594312053003
 30
0.0
 10
494.9980534919034
 20
406.7991811871614
 30
0.0
 10
494.3673538196754
 20
406.4350415628717
 30
0.0
  0
SPLINE
  5
103
330
1F
100
AcDbEntity
  8
0
  6
Continuous
 62
     7
370
    25
100
AcDbSpline
210
0.0
220
0.0
230
1.0
 70
    24
 71
     3
 72
    22
 73
    18
 74
     0
 42
0.00000001
 43
0.00000001
 40
0.0
 40
0.0
 40
0.0
 40
0.0
 40
0.1250000000000001
 40
0.1250000000000001
 40
0.2500000000000002
 40
0.2500000000000002
 40
0.3750000000000002
 40
0.3750000000000002
 40
0.5000000000000002
 40
0.5000000000000002
 40
0.6250000000000002
 40
0.6250000000000002
 40
0.7500000000000001
 40
0.7500000000000001
 40
0.8750000000000001
 40
0.8750000000000001
 40
1.0
 40
1.0
 40
1.0
 40
1.0
 10
382.7646558268678
 20
502.8833818181818
 30
0.0
 10
382.5877084547215
 20
502.8833818181818
 30
0.0
 10
382.4108066484276
 20
502.8833818181818
 30
0.0
 10
382.0578769883855
 20
502.8833818181818
 30
0.0
 10
381.8818203980294
 20
502.8833818181819
 30
0.0
 10
381.5309201540506
 20
502.8833818181819
 30
0.0
 10
381.3584413228349
 20
502.8833818181819
 30
0.0
 10
381.029539543874
 20
502.8833818181819
 30
0.0
 10
380.8701459553209
 20
502.8833818181819
 30
0.0
 10
380.5765102109274
 20
502.8833818181819
 30
0.0
 10
380.4431575452645
 20
502.8833818181819
 30
0.0
 10
380.2005802362496
 20
502.8833818181819
 30
0.0
 10
380.0915875450492
 20
502.8833818181819
 30
0.0
 10
379.902286943347
 20
502.8833818181819
 30
0.0
 10
379.8205471366616
 20
502.8833818181819
 30
0.0
 10
379.6761956507232
 20
502.8833818181819
 30
0.0
 10
379.6148701670957
 20
502.8833818181819
 30
0.0
 10
379.5533714213631
 20
502.8833818181819
 30
0.0
  0
LINE
  5
104
330
1F
100
AcDbEntity
  8
0
  6
Continuous
 62
     7
370
    25
100
AcDbLine
 10
452.611642124
 20
493.8833818182
 30
0.0
 11
383.1898506468
 21
493.8833818182
 31
0.0
  0
LINE
  5
105
330
1F
100
AcDbEntity
  8
0
  6
Continuous
 62
     7
370
    25
100
AcDbLine
 10
382.7646558269
 20
502.8833818182
 30
0.0
 11
452.611642124
 21
502.8833818182
 31
0.0
  0
LINE
  5
106
330
1F
100
AcDbEntity
  8
0
  6
Continuous
 62
     7
370
    25
100
AcDbLine
 10
453.411642124
 20
502.0833818182
 30
0.0
 11
453.411642124
 21
494.6833818182
 31
0.0
  0
ARC
  5
107
330
1F
100
AcDbEntity
  8
0
  6
Continuous
 62
     7
370
    25
100
AcDbCircle
 10
452.611642124
 20
494.6833818182
 30
0.0
 40
0.8000000000000682
100
AcDbArc
 50
270.0
 51
0.0
  0
ARC
  5
108
330
1F
100
AcDbEntity
  8
0
  6
Continuous
 62
     7
370
    25
100
AcDbCircle
 10
452.611642124
 20
502.0833818182
 30
0.0
 40
0.8000000000000682
100
AcDbArc
 50
0.0
 51
90.0
  0
LINE
  5
109
330
1F
100
AcDbEntity
  8
0
  6
Continuous
 62
     8
370
    18
100
AcDbLine
 10
354.5095497435
 20
312.0833818182
 30
0.0
 11
338.411642124
 21
312.0833818182
 31
0.0
  0
LINE
  5
10A
330
1F
100
AcDbEntity
  8
0
  6
Continuous
 62
     8
370
    18
100
AcDbLine
 10
388.411642124
 20
312.0833818182
 30
0.0
 11
354.5095497435
 21
312.0833818182
 31
0.0
  0
LINE
  5
10B
330
1F
100
AcDbEntity
  8
0
  6
Continuous
 62
     8
370
    18
100
AcDbLine
 10
381.411642124
 20
477.0833818182
 30
0.0
 11
345.411642124
 21
477.0833818182
 31
0.0
  0
SPLINE
  5
10C
330
1F
100
AcDbEntity
  8
0
  6
Continuous
 62
     8
370
    18
100
AcDbSpline
210
0.0
220
0.0
230
1.0
 70
     8
 71
     3
 72
    89
 73
    85
 74
     0
 42
0.00000001
 43
0.00000001
 40
0.0
 40
0.0
 40
0.0
 40
0.0
 40
0.0067588991193856
 40
0.0135190056876774
 40
0.0202811084987658
 40
0.0308804104858676
 40
0.0347159257175203
 40
0.0500772180289223
 40
0.0654819280907949
 40
0.0732048277868001
 40
0.1042390859129633
 40
0.1198692108284562
 40
0.1277137623540391
 40
0.1434606839735634
 40
0.1553239294613656
 40
0.159288626981678
 40
0.1831693350034963
 40
0.1991764101966443
 40
0.2152424975442513
 40
0.2313577956311909
 40
0.2555868058887542
 40
0.2636721621948196
 40
0.2798428946446412
 40
0.2879281618703764
 40
0.2960082996406762
 40
0.308113951341015
 40
0.3161721026650907
 40
0.3201967107942706
 40
0.3362585183063616
 40
0.3442659077797007
 40
0.3522549828935765
 40
0.3681718225869725
 40
0.3760987335786539
 40
0.3840028735513611
 40
0.3997401487820081
 40
0.4075745410051289
 40
0.4153856641130753
 40
0.4309397713569852
 40
0.438686460426682
 40
0.4464152784898364
 40
0.4618213468472545
 40
0.4695045403912851
 40
0.4771666214092155
 40
0.492467133529508
 40
0.5077567310808782
 40
0.5154053158008371
 40
0.5307200040319312
 40
0.5384048954709038
 40
0.5461029408638152
 40
0.5615453114632837
 40
0.5692921502968995
 40
0.5770594217022551
 40
0.5926581205953659
 40
0.6004930485014639
 40
0.6083513049287506
 40
0.6241362775107607
 40
0.6320642217674907
 40
0.6400139277202639
 40
0.6559732461423002
 40
0.6639815427369469
 40
0.6720064321378464
 40
0.6840707888988153
 40
0.6961606051503103
 40
0.7042319941526121
 40
0.7163514348501114
 40
0.72847989801803
 40
0.7365673532960959
 40
0.7527356059727502
 40
0.7769430098381572
 40
0.7809704852190481
 40
0.8010611153698612
 40
0.8170695113539193
 40
0.8330073850326999
 40
0.8488711264844178
 40
0.8725170545421556
 40
0.880361399759616
 40
0.8959901275021209
 40
0.9115451703634937
 40
0.9270342418734442
 40
0.95783335765072
 40
0.9693452048017734
 40
0.9731790952539702
 40
0.9866075966982687
 40
1.0
 40
1.0
 40
1.0
 40
1.0
 10
381.4115149667971
 20
426.1417120673796
 30
0.0
 10
381.4112010285533
 20
426.1422164463924
 30
0.0
 10
381.410573095982
 20
426.1432252945232
 30
0.0
 10
381.40557629831
 20
426.1513863877506
 30
0.0
 10
381.3961119152196
 20
426.166881517629
 30
0.0
 10
381.3834702915951
 20
426.187622281167
 30
0.0
 10
381.3608190768663
 20
426.2248391347583
 30
0.0
 10
381.3269570278659
 20
426.2806040826504
 30
0.0
 10
381.2762151813146
 20
426.3646110944572
 30
0.0
 10
381.1915576275202
 20
426.5054920029703
 30
0.0
 10
381.0845695182242
 20
426.6849657974141
 30
0.0
 10
380.9541613317599
 20
426.9075628915934
 30
0.0
 10
380.852583530175
 20
427.0826790391465
 30
0.0
 10
380.7540187097838
 20
427.2543284636212
 30
0.0
 10
380.6599355841882
 20
427.4205730770011
 30
0.0
 10
380.5374665132795
 20
427.6389353215203
 30
0.0
 10
380.3943285961544
 20
427.8982135506059
 30
0.0
 10
380.2004136562184
 20
428.2597642237486
 30
0.0
 10
380.0269610811354
 20
428.591765181572
 30
0.0
 10
379.8180603668138
 20
429.0035604371888
 30
0.0
 10
379.634221954359
 20
429.3813516586745
 30
0.0
 10
379.4490008223336
 20
429.7777078955085
 30
0.0
 10
379.3252180304516
 20
430.0512034462355
 30
0.0
 10
379.2020637060876
 20
430.3333249598843
 30
0.0
 10
379.0949810159031
 20
430.5849978685736
 30
0.0
 10
378.989053597756
 20
430.8426182500772
 30
0.0
 10
378.8996343663977
 20
431.0683657492952
 30
0.0
 10
378.7966957539277
 20
431.3345526073675
 30
0.0
 10
378.6959140548582
 20
431.6061269267611
 30
0.0
 10
378.584574034148
 20
431.9236345454119
 30
0.0
 10
378.4764369662285
 20
432.2446559471082
 30
0.0
 10
378.3730807710709
 20
432.5721938726422
 30
0.0
 10
378.2754697942163
 20
432.9056648729057
 30
0.0
 10
378.1823073195491
 20
433.2416262393706
 30
0.0
 10
378.0957168972078
 20
433.5830186014785
 30
0.0
 10
378.0166099812886
 20
433.929130449254
 30
0.0
 10
377.9430010447705
 20
434.2768374475178
 30
0.0
 10
377.8775739406612
 20
434.628764338713
 30
0.0
 10
377.8210888318067
 20
434.9840520513019
 30
0.0
 10
377.7708909524868
 20
435.3402627511152
 30
0.0
 10
377.7301455582485
 20
435.6993458648815
 30
0.0
 10
377.6993850399156
 20
436.0601389619222
 30
0.0
 10
377.6754063827783
 20
436.421078523783
 30
0.0
 10
377.6582153178952
 20
436.8736436887265
 30
0.0
 10
377.6583366332093
 20
437.326932285192
 30
0.0
 10
377.6714242346708
 20
437.7796084922247
 30
0.0
 10
377.6922514724162
 20
438.1413364092292
 30
0.0
 10
377.7231403169538
 20
438.5014540247079
 30
0.0
 10
377.7607515314934
 20
438.8613422545732
 30
0.0
 10
377.8081330999999
 20
439.2189558160105
 30
0.0
 10
377.8646520052257
 20
439.5733230783312
 30
0.0
 10
377.9272934465098
 20
439.9265588132275
 30
0.0
 10
377.9985565435379
 20
440.2760732549339
 30
0.0
 10
378.0775811879639
 20
440.621069158339
 30
0.0
 10
378.1618858128558
 20
440.9642469791668
 30
0.0
 10
378.2532649831927
 20
441.302370273545
 30
0.0
 10
378.3507388603762
 20
441.6348094693014
 30
0.0
 10
378.452387231612
 20
441.9644917232479
 30
0.0
 10
378.5593198171368
 20
442.2879398977939
 30
0.0
 10
378.6705307113874
 20
442.6046399306268
 30
0.0
 10
378.770322583941
 20
442.8783110652122
 30
0.0
 10
378.8872704448015
 20
443.1851940996365
 30
0.0
 10
379.0068770160581
 20
443.484462235684
 30
0.0
 10
379.1282222015973
 20
443.7773030989985
 30
0.0
 10
379.250910418843
 20
444.0634434286141
 30
0.0
 10
379.3744279630594
 20
444.3410810657094
 30
0.0
 10
379.5135657037881
 20
444.6451238294044
 30
0.0
 10
379.6985484729184
 20
445.0365804455488
 30
0.0
 10
379.8657305212763
 20
445.3740343781888
 30
0.0
 10
380.0438272400788
 20
445.7239877243802
 30
0.0
 10
380.1888416402909
 20
446.0023963995673
 30
0.0
 10
380.3690274322879
 20
446.3383253315366
 30
0.0
 10
380.5268278852355
 20
446.6258417252305
 30
0.0
 10
380.6993070217767
 20
446.9337897747085
 30
0.0
 10
380.8338957162114
 20
447.1687533829564
 30
0.0
 10
380.9558136168958
 20
447.3787721720669
 30
0.0
 10
381.0491038808018
 20
447.5378654611184
 30
0.0
 10
381.1473406608117
 20
447.7035737630111
 30
0.0
 10
381.2586860442793
 20
447.8897094551576
 30
0.0
 10
381.3349652242771
 20
448.0157554827482
 30
0.0
 10
381.3738475971016
 20
448.0797517475389
 30
0.0
 10
381.392971600263
 20
448.1112142491756
 30
0.0
 10
381.4079354693758
 20
448.1357969733543
 30
0.0
 10
381.4103225839564
 20
448.1397421392986
 30
0.0
 10
381.4115145348429
 20
448.1417120673797
 30
0.0
  0
LINE
  5
10D
330
1F
100
AcDbEntity
  8
0
  6
Continuous
 62
     8
370
    18
100
AcDbLine
 10
380.3041495282
 20
502.0833818182
 30
0.0
 11
345.411642124
 21
502.0833818182
 31
0.0
  0
ARC
  5
10E
330
1F
100
AcDbEntity
  8
0
  6
Continuous
 62
     8
370
    18
100
AcDbCircle
 10
379.5279537135
 20
502.1072356414
 30
0.0
 40
0.7765622625506992
100
AcDbArc
 50
358.2397568356
 51
88.1243132558
  0
SPLINE
  5
10F
330
1F
100
AcDbEntity
  8
0
  6
Continuous
 62
     8
370
    18
100
AcDbSpline
210
0.0
220
0.0
230
1.0
 70
     8
 71
     3
 72
    21
 73
    17
 74
     0
 42
0.00000001
 43
0.00000001
 40
0.0
 40
0.0
 40
0.0
 40
0.0
 40
0.0276447721780825
 40
0.0552428195415966
 40
0.0828588255560674
 40
0.1105573478725324
 40
0.167419926807062
 40
0.224427323929411
 40
0.3414926866829843
 40
0.4633589029261929
 40
0.5906748595160445
 40
0.7227374015014345
 40
0.7913815171671887
 40
0.860222821498367
 40
0.9300718087027425
 40
1.0
 40
1.0
 40
1.0
 40
1.0
 10
381.104703380963
 20
491.7620614746442
 30
0.0
 10
381.096649393003
 20
491.7594478108174
 30
0.0
 10
381.0805550298231
 20
491.7542249007426
 30
0.0
 10
381.0551921516786
 20
491.7543567177268
 30
0.0
 10
381.0289905155025
 20
491.7603517095922
 30
0.0
 10
380.9924027004561
 20
491.7770945188898
 30
0.0
 10
380.9442396887973
 20
491.8143309614474
 30
0.0
 10
380.8624450760649
 20
491.910097351461
 30
0.0
 10
380.7532230106231
 20
492.0991647108224
 30
0.0
 10
380.6202315383482
 20
492.434428532202
 30
0.0
 10
380.494975204172
 20
492.8764772236822
 30
0.0
 10
380.4085869361884
 20
493.322411927781
 30
0.0
 10
380.3560913300302
 20
493.7161364509639
 30
0.0
 10
380.3266728769161
 20
494.0303760527157
 30
0.0
 10
380.3076765224956
 20
494.3540862819387
 30
0.0
 10
380.305325637015
 20
494.5735751819769
 30
0.0
 10
380.3041495282155
 20
494.6833818181819
 30
0.0
  0
SPLINE
  5
110
330
1F
100
AcDbEntity
  8
0
  6
Continuous
 62
     8
370
    18
100
AcDbSpline
210
0.0
220
0.0
230
1.0
 70
    24
 71
     3
 72
     8
 73
     4
 74
     0
 42
0.00000001
 43
0.00000001
 40
0.0
 40
0.0
 40
0.0
 40
0.0
 40
1.0
 40
1.0
 40
1.0
 40
1.0
 10
381.4116421240371
 20
491.7620614746222
 30
0.0
 10
381.4116421240362
 20
491.7620614746222
 30
0.0
 10
381.3087456648149
 20
491.7620614746223
 30
0.0
 10
381.104703380961
 20
491.7620614746223
 30
0.0
  0
LINE
  5
111
330
1F
100
AcDbEntity
  8
0
  6
Continuous
 62
     8
370
    18
100
AcDbLine
 10
380.3041495282
 20
494.6833818182
 30
0.0
 11
380.3041495282
 21
502.0833818182
 31
0.0
  0
SPLINE
  5
112
330
1F
100
AcDbEntity
  8
0
  6
Continuous
 62
     8
370
    18
100
AcDbSpline
210
0.0
220
0.0
230
1.0
 70
     8
 71
     3
 72
    12
 73
     8
 74
     0
 42
0.00000001
 43
0.00000001
 40
0.0
 40
0.0
 40
0.0
 40
0.0
 40
0.2499999999999999
 40
0.2499999999999999
 40
0.4999999999999999
 40
0.4999999999999999
 40
1.0
 40
1.0
 40
1.0
 40
1.0
 10
359.1534824301311
 20
482.6311438516756
 30
0.0
 10
359.8649708904605
 20
482.4262456038679
 30
0.0
 10
360.5878844607226
 20
482.2448899107028
 30
0.0
 10
362.0573897913823
 20
481.9312646584273
 30
0.0
 10
362.8089238112216
 20
481.7984632235443
 30
0.0
 10
365.0504737551616
 20
481.48415062996
 30
0.0
 10
366.5340299776512
 20
481.3833818181819
 30
0.0
 10
368.0050235159321
 20
481.3833818181819
 30
0.0
  0
LINE
  5
113
330
1F
100
AcDbEntity
  8
0
  6
Continuous
 62
     8
370
    18
100
AcDbLine
 10
345.411642124
 20
486.5885924364
 30
0.0
 11
359.1534824301
 21
482.6311438517
 31
0.0
  0
LINE
  5
114
330
1F
100
AcDbEntity
  8
0
  6
Continuous
 62
     8
370
    18
100
AcDbLine
 10
368.0050235159
 20
481.3833818182
 30
0.0
 11
381.411642124
 21
481.3833818182
 31
0.0
  0
LINE
  5
115
330
1F
100
AcDbEntity
  8
0
  6
Continuous
 62
     8
370
    18
100
AcDbLine
 10
379.8876471015
 20
478.4816865697
 30
0.0
 11
379.8920333613
 21
478.4816865697
 31
0.0
  0
LINE
  5
116
330
1F
100
AcDbEntity
  8
0
  6
Continuous
 62
     8
370
    18
100
AcDbLine
 10
346.9312508868
 20
478.4816865697
 30
0.0
 11
379.8876471015
 21
478.4816865697
 31
0.0
  0
LINE
  5
117
330
1F
100
AcDbEntity
  8
0
  6
Continuous
 62
     8
370
    18
100
AcDbLine
 10
379.911642124
 20
478.2846256098
 30
0.0
 11
346.911642124
 21
478.2846256098
 31
0.0
  0
SPLINE
  5
118
330
1F
100
AcDbEntity
  8
0
  6
Continuous
 62
     8
370
    18
100
AcDbSpline
210
0.0
220
0.0
230
1.0
 70
    24
 71
     3
 72
    20
 73
    16
 74
     0
 42
0.00000001
 43
0.00000001
 40
0.0
 40
0.0
 40
0.0
 40
0.0
 40
0.1250000000000001
 40
0.1250000000000001
 40
0.2500000000000002
 40
0.2500000000000002
 40
0.5000000000000001
 40
0.5000000000000001
 40
0.6250000000000002
 40
0.6250000000000002
 40
0.7500000000000001
 40
0.7500000000000001
 40
0.8750000000000001
 40
0.8750000000000001
 40
1.0
 40
1.0
 40
1.0
 40
1.0
 10
382.7646558268678
 20
502.0833818181819
 30
0.0
 10
382.6302436361336
 20
502.0833818181819
 30
0.0
 10
382.4952611359153
 20
502.0833818181819
 30
0.0
 10
382.2213501932935
 20
502.0833818181819
 30
0.0
 10
382.0826497721426
 20
502.0833818181819
 30
0.0
 10
381.671480241952
 20
502.0833818181819
 30
0.0
 10
381.406676044975
 20
502.083381818182
 30
0.0
 10
381.070311261335
 20
502.0833818181819
 30
0.0
 10
380.9673435682297
 20
502.0833818181819
 30
0.0
 10
380.781851798114
 20
502.0833818181819
 30
0.0
 10
380.6994968951003
 20
502.0833818181819
 30
0.0
 10
380.5564667167367
 20
502.0833818181819
 30
0.0
 10
380.4959606153836
 20
502.0833818181819
 30
0.0
 10
380.391550682377
 20
502.083381818182
 30
0.0
 10
380.3478160247202
 20
502.0833818181819
 30
0.0
 10
380.3041495282155
 20
502.0833818181819
 30
0.0
  0
LINE
  5
119
330
1F
100
AcDbEntity
  8
0
  6
Continuous
 62
     8
370
    18
100
AcDbLine
 10
382.7646558269
 20
502.0833818182
 30
0.0
 11
382.7646558269
 21
502.8833818182
 31
0.0
  0
LINE
  5
11A
330
1F
100
AcDbEntity
  8
0
  6
Continuous
 62
     8
370
    18
100
AcDbLine
 10
382.7646558269
 20
502.0833818182
 30
0.0
 11
382.7646558269
 21
494.6833818182
 31
0.0
  0
SPLINE
  5
11B
330
1F
100
AcDbEntity
  8
0
  6
Continuous
 62
     8
370
    18
100
AcDbSpline
210
0.0
220
0.0
230
1.0
 70
     8
 71
     3
 72
    17
 73
    13
 74
     0
 42
0.00000001
 43
0.00000001
 40
0.0
 40
0.0
 40
0.0
 40
0.0
 40
0.0571821084760977
 40
0.1151571412022654
 40
0.174120176473636
 40
0.2342566777818133
 40
0.3505549998483427
 40
0.4811250368318574
 40
0.591165886042496
 40
0.7403127443770092
 40
0.8960290661571496
 40
0.9999999999999999
 40
0.9999999999999999
 40
0.9999999999999999
 40
0.9999999999999999
 10
382.7646558268678
 20
494.6833818181819
 30
0.0
 10
382.7651029661661
 20
494.6579013075837
 30
0.0
 10
382.7660034450864
 20
494.6065869570802
 30
0.0
 10
382.773190774188
 20
494.5299861048452
 30
0.0
 10
382.7846376114856
 20
494.454060284832
 30
0.0
 10
382.8056370681104
 20
494.3570074760174
 30
0.0
 10
382.8433883398043
 20
494.2397539034889
 30
0.0
 10
382.898754007006
 20
494.1230280917466
 30
0.0
 10
382.968032244012
 20
494.0193405676371
 30
0.0
 10
383.0459235163414
 20
493.9377010560455
 30
0.0
 10
383.1237416187013
 20
493.8903908496761
 30
0.0
 10
383.1709498833783
 20
493.8853857206676
 30
0.0
 10
383.1898506467285
 20
493.8833818181819
 30
0.0
  0
LINE
  5
11C
330
1F
100
AcDbEntity
  8
0
  6
Continuous
 62
     8
370
    18
100
AcDbLine
 10
452.611642124
 20
502.0833818182
 30
0.0
 11
382.7646558269
 21
502.0833818182
 31
0.0
  0
LINE
  5
11D
330
1F
100
AcDbEntity
  8
0
  6
Continuous
 62
     8
370
    18
100
AcDbLine
 10
452.611642124
 20
494.6833818182
 30
0.0
 11
452.611642124
 21
502.0833818182
 31
0.0
  0
LINE
  5
11E
330
1F
100
AcDbEntity
  8
0
  6
Continuous
 62
     8
370
    18
100
AcDbLine
 10
452.611642124
 20
493.8833818182
 30
0.0
 11
452.611642124
 21
494.6833818182
 31
0.0
  0
LINE
  5
11F
330
1F
100
AcDbEntity
  8
0
  6
Continuous
 62
     8
370
    18
100
AcDbLine
 10
452.611642124
 20
502.0833818182
 30
0.0
 11
452.611642124
 21
502.8833818182
 31
0.0
  0
LINE
  5
120
330
1F
100
AcDbEntity
  8
0
  6
Continuous
 62
     8
370
    18
100
AcDbLine
 10
453.411642124
 20
502.0833818182
 30
0.0
 11
452.611642124
 21
502.0833818182
 31
0.0
  0
LINE
  5
121
330
1F
100
AcDbEntity
  8
0
  6
Continuous
 62
     7
370
    25
100
AcDbLine
 10
150.2885818182
 20
218.3335845406
 30
0.0
 11
150.2885818182
 21
141.7855539517
 31
0.0
  0
LINE
  5
122
330
1F
100
AcDbEntity
  8
0
  6
Continuous
 62
     7
370
    25
100
AcDbLine
 10
171.2885818182
 20
141.7855539517
 30
0.0
 11
171.2885818182
 21
218.3306222855
 31
0.0
  0
SPLINE
  5
123
330
1F
100
AcDbEntity
  8
0
  6
Continuous
 62
     7
370
    25
100
AcDbSpline
210
0.0
220
0.0
230
1.0
 70
    24
 71
     3
 72
    19
 73
    15
 74
     0
 42
0.00000001
 43
0.00000001
 40
0.0
 40
0.0
 40
0.0
 40
0.0
 40
0.1087148038532889
 40
0.2037806296524566
 40
0.2851925534367087
 40
0.3529463584528889
 40
0.4070385353738876
 40
0.452276658667887
 40
0.5090411050951495
 40
0.5796203784633428
 40
0.6640107402963896
 40
0.7622077205659967
 40
0.8742061179284257
 40
1.0
 40
1.0
 40
1.0
 40
1.0
 10
150.2885818181822
 20
141.7855539517086
 30
0.0
 10
150.2885818181822
 20
140.4109779954708
 30
0.0
 10
150.2885818181822
 20
137.8344020008596
 30
0.0
 10
150.2885818181823
 20
134.2733373561808
 30
0.0
 10
150.2885818181823
 20
131.285224887908
 30
0.0
 10
150.2885818181823
 20
128.8584149187175
 30
0.0
 10
150.2885818181823
 20
126.912896350502
 30
0.0
 10
150.2885818181823
 20
125.1383669556438
 30
0.0
 10
150.2885818181823
 20
123.2299319047164
 30
0.0
 10
150.2885818181823
 20
120.9804025945485
 30
0.0
 10
150.2885818181824
 20
118.4386870869332
 30
0.0
 10
150.2885818181824
 20
115.7188384442273
 30
0.0
 10
150.2885818181824
 20
112.9218677166456
 30
0.0
 10
150.2885818181824
 20
111.3353449127581
 30
0.0
 10
150.2885818181824
 20
110.4960625652777
 30
0.0
  0
SPLINE
  5
124
330
1F
100
AcDbEntity
  8
0
  6
Continuous
 62
     7
370
    25
100
AcDbSpline
210
0.0
220
0.0
230
1.0
 70
    24
 71
     3
 72
    19
 73
    15
 74
     0
 42
0.00000001
 43
0.00000001
 40
0.0
 40
0.0
 40
0.0
 40
0.0
 40
0.1087148038532888
 40
0.2037806296524569
 40
0.2851925534367089
 40
0.3529463584528887
 40
0.4070385353738878
 40
0.4522766586678871
 40
0.5090411050951494
 40
0.5796203784633429
 40
0.6640107402963894
 40
0.7622077205659966
 40
0.8742061179284261
 40
1.0
 40
1.0
 40
1.0
 40
1.0
 10
171.2885818181824
 20
110.4960625652778
 30
0.0
 10
171.2885818181824
 20
111.2150178860846
 30
0.0
 10
171.2885818181824
 20
112.5626647821201
 30
0.0
 10
171.2885818181824
 20
114.8573435032852
 30
0.0
 10
171.2885818181824
 20
117.0152043458131
 30
0.0
 10
171.2885818181823
 20
118.9532103442772
 30
0.0
 10
171.2885818181823
 20
120.6307409830309
 30
0.0
 10
171.2885818181823
 20
122.2583818130754
 30
0.0
 10
171.2885818181823
 20
124.1219552523914
 30
0.0
 10
171.2885818181823
 20
126.4972804429943
 30
0.0
 10
171.2885818181823
 20
129.4496923728025
 30
0.0
 10
171.2885818181823
 20
133.0098067842906
 30
0.0
 10
171.2885818181823
 20
137.1875460732615
 30
0.0
 10
171.2885818181822
 20
140.1947308619893
 30
0.0
 10
171.2885818181822
 20
141.7855539517087
 30
0.0
  0
LINE
  5
125
330
1F
100
AcDbEntity
  8
0
  6
Continuous
 62
     7
370
    25
100
AcDbLine
 10
171.2885818182
 20
102.9535539481
 30
0.0
 11
171.2885818182
 21
110.6085539517
 31
0.0
  0
LINE
  5
126
330
1F
100
AcDbEntity
  8
0
  6
Continuous
 62
     7
370
    25
100
AcDbLine
 10
150.2885818182
 20
110.6085539517
 30
0.0
 11
150.2885818182
 21
102.9535539495
 31
0.0
  0
ARC
  5
127
330
1F
100
AcDbEntity
  8
0
  6
Continuous
 62
     7
370
    25
100
AcDbCircle
 10
160.7885818182
 20
232.9537760578
 30
0.0
 40
18.00000000000001
100
AcDbArc
 50
290.2033829341
 51
249.7966170659
  0
LINE
  5
128
330
1F
100
AcDbEntity
  8
0
  6
Continuous
 62
     7
370
    25
100
AcDbLine
 10
165.2885818182
 20
213.600762355
 30
0.0
 11
165.2885818182
 21
143.7537760578
 31
0.0
  0
SPLINE
  5
129
330
1F
100
AcDbEntity
  8
0
  6
Continuous
 62
     7
370
    25
100
AcDbSpline
210
0.0
220
0.0
230
1.0
 70
     8
 71
     3
 72
    20
 73
    16
 74
     0
 42
0.00000001
 43
0.00000001
 40
0.0
 40
0.0
 40
0.0
 40
0.0
 40
0.125
 40
0.125
 40
0.25
 40
0.25
 40
0.375
 40
0.375
 40
0.5
 40
0.5
 40
0.75
 40
0.75
 40
0.875
 40
0.875
 40
1.0
 40
1.0
 40
1.0
 40
1.0
 10
167.0049468010137
 20
216.061268653603
 30
0.0
 10
166.8862863591707
 20
216.0176021570983
 30
0.0
 10
166.7644667294119
 20
215.9738674994414
 30
0.0
 10
166.5155994044119
 20
215.8694575664349
 30
0.0
 10
166.3888904279761
 20
215.8089514650817
 30
0.0
 10
166.1439292064696
 20
215.6659212867182
 30
0.0
 10
166.0260156802043
 20
215.5835663837044
 30
0.0
 10
165.8140856406131
 20
215.3980746135888
 30
0.0
 10
165.7204078460926
 20
215.2951069204835
 30
0.0
 10
165.4857712851483
 20
214.9587421368435
 30
0.0
 10
165.3905321799885
 20
214.6939379398665
 30
0.0
 10
165.316283201122
 20
214.2827684096758
 30
0.0
 10
165.3026422364221
 20
214.144067988525
 30
0.0
 10
165.2887789229205
 20
213.8701570459032
 30
0.0
 10
165.2885818181817
 20
213.7351745456849
 30
0.0
 10
165.2885818181817
 20
213.6007623549506
 30
0.0
  0
LINE
  5
12A
330
1F
100
AcDbEntity
  8
0
  6
Continuous
 62
     7
370
    25
100
AcDbLine
 10
156.2885818182
 20
143.7537760578
 30
0.0
 11
156.2885818182
 21
213.600762355
 31
0.0
  0
SPLINE
  5
12B
330
1F
100
AcDbEntity
  8
0
  6
Continuous
 62
     7
370
    25
100
AcDbSpline
210
0.0
220
0.0
230
1.0
 70
     8
 71
     3
 72
    20
 73
    16
 74
     0
 42
0.00000001
 43
0.00000001
 40
0.0
 40
0.0
 40
0.0
 40
0.0
 40
0.1250000000000001
 40
0.1250000000000001
 40
0.2500000000000002
 40
0.2500000000000002
 40
0.5000000000000001
 40
0.5000000000000001
 40
0.6250000000000002
 40
0.6250000000000002
 40
0.7500000000000001
 40
0.7500000000000001
 40
0.8750000000000001
 40
0.8750000000000001
 40
1.0
 40
1.0
 40
1.0
 40
1.0
 10
156.2885818181817
 20
213.6007623549506
 30
0.0
 10
156.2885818181817
 20
213.7351745456848
 30
0.0
 10
156.2883847134429
 20
213.8701570459031
 30
0.0
 10
156.2745213999413
 20
214.1440679885249
 30
0.0
 10
156.2608804352414
 20
214.2827684096758
 30
0.0
 10
156.1866314563749
 20
214.6939379398664
 30
0.0
 10
156.0913923512151
 20
214.9587421368434
 30
0.0
 10
155.8567557902708
 20
215.2951069204834
 30
0.0
 10
155.7630779957502
 20
215.3980746135887
 30
0.0
 10
155.551147956159
 20
215.5835663837044
 30
0.0
 10
155.4332344298938
 20
215.6659212867182
 30
0.0
 10
155.1882732083873
 20
215.8089514650817
 30
0.0
 10
155.0615642319515
 20
215.8694575664348
 30
0.0
 10
154.8126969069514
 20
215.9738674994414
 30
0.0
 10
154.6908772771927
 20
216.0176021570982
 30
0.0
 10
154.5722168353496
 20
216.0612686536029
 30
0.0
  0
LINE
  5
12C
330
1F
100
AcDbEntity
  8
0
  6
Continuous
 62
     7
370
    25
100
AcDbLine
 10
164.4885818182
 20
142.9537760578
 30
0.0
 11
157.0885818182
 21
142.9537760578
 31
0.0
  0
ARC
  5
12D
330
1F
100
AcDbEntity
  8
0
  6
Continuous
 62
     7
370
    25
100
AcDbCircle
 10
164.4885818182
 20
143.7537760578
 30
0.0
 40
0.799999999999983
100
AcDbArc
 50
270.0
 51
0.0
  0
ARC
  5
12E
330
1F
100
AcDbEntity
  8
0
  6
Continuous
 62
     7
370
    25
100
AcDbCircle
 10
157.0885818182
 20
143.7537760578
 30
0.0
 40
0.8000000000000114
100
AcDbArc
 50
180.0
 51
270.0
  0
LINE
  5
12F
330
1F
100
AcDbEntity
  8
0
  6
Continuous
 62
     7
370
    25
100
AcDbLine
 10
150.3467088459
 20
101.9980643621
 30
0.0
 11
150.3222639855
 21
102.954199794
 31
0.0
  0
SPLINE
  5
130
330
1F
100
AcDbEntity
  8
0
  6
Continuous
 62
     7
370
    25
100
AcDbSpline
210
0.0
220
0.0
230
1.0
 70
     8
 71
     3
 72
    25
 73
    21
 74
     0
 42
0.00000001
 43
0.00000001
 40
0.0
 40
0.0
 40
0.0
 40
0.0
 40
0.041782545840019
 40
0.0965459465463871
 40
0.152897489583176
 40
0.2076608902895537
 40
0.2640124333263515
 40
0.3187758340327665
 40
0.3751273770696018
 40
0.4298907777760606
 40
0.4862423208129418
 40
0.5410057215194356
 40
0.5973572645563532
 40
0.6521206652628558
 40
0.7084722082997849
 40
0.7632356090062662
 40
0.819587152043175
 40
0.8743505527496157
 40
0.9307020957864813
 40
1.0
 40
1.0
 40
1.0
 40
1.0
 10
171.2591492035577
 20
102.954606642053
 30
0.0
 10
171.2546712192726
 20
102.5697714652981
 30
0.0
 10
171.244324046243
 20
101.6805418681739
 30
0.0
 10
170.8773150375013
 20
100.3000184087029
 30
0.0
 10
170.2313265377831
 20
98.87613587714918
 30
0.0
 10
169.2999384025836
 20
97.55568088252643
 30
0.0
 10
168.1391248734895
 20
96.3996431435755
 30
0.0
 10
166.7574009744816
 20
95.41997826259167
 30
0.0
 10
165.219667062634
 20
94.66203690070819
 30
0.0
 10
163.5415247236822
 20
94.13363387727226
 30
0.0
 10
161.8007425983467
 20
93.85923503291242
 30
0.0
 10
160.0152475948123
 20
93.84166905134337
 30
0.0
 10
158.26770744337
 20
94.0817480196567
 30
0.0
 10
156.5761734259414
 20
94.57700208004067
 30
0.0
 10
155.0188157931888
 20
95.30448247197239
 30
0.0
 10
153.6122593323581
 20
96.25675465522356
 30
0.0
 10
152.4194951582335
 20
97.38948935345495
 30
0.0
 10
151.4608081316283
 20
98.69189478042338
 30
0.0
 10
150.6886103880812
 20
100.2237896523898
 30
0.0
 10
150.4682445330298
 20
101.3673632114904
 30
0.0
 10
150.3467088458504
 20
101.998064362143
 30
0.0
  0
ARC
  5
131
330
1F
100
AcDbEntity
  8
0
  6
Continuous
 62
     7
370
    25
100
AcDbCircle
 10
160.7885818182
 20
232.9537760578
 30
0.0
 40
25.00000000000001
100
AcDbArc
 50
294.8345874897
 51
159.1401238225
  0
ARC
  5
132
330
1F
100
AcDbEntity
  8
0
  6
Continuous
 62
     7
370
    25
100
AcDbCircle
 10
160.7885818182
 20
232.9537760578
 30
0.0
 40
25.00000000000001
100
AcDbArc
 50
159.1401238225
 51
245.1654125103
  0
SPLINE
  5
133
330
1F
100
AcDbEntity
  8
0
  6
Continuous
 62
     8
370
    18
100
AcDbSpline
210
0.0
220
0.0
230
1.0
 70
     8
 71
     3
 72
    22
 73
    18
 74
     0
 42
0.00000001
 43
0.00000001
 40
0.0
 40
0.0
 40
0.0
 40
0.0
 40
0.1250000000000001
 40
0.1250000000000001
 40
0.2500000000000002
 40
0.2500000000000002
 40
0.3750000000000002
 40
0.3750000000000002
 40
0.5000000000000002
 40
0.5000000000000002
 40
0.6250000000000002
 40
0.6250000000000002
 40
0.7500000000000001
 40
0.7500000000000001
 40
0.8750000000000001
 40
0.8750000000000001
 40
1.0
 40
1.0
 40
1.0
 40
1.0
 10
157.0885818181817
 20
213.6007623549506
 30
0.0
 10
157.0885818181817
 20
213.7777097270969
 30
0.0
 10
157.0874530979346
 20
213.9546115333907
 30
0.0
 10
157.0635468156534
 20
214.3075411934329
 30
0.0
 10
157.041481093499
 20
214.483597783789
 30
0.0
 10
156.9673037667455
 20
214.8344980277677
 30
0.0
 10
156.9154776160377
 20
215.0069768589835
 30
0.0
 10
156.7789538675746
 20
215.3358786379444
 30
0.0
 10
156.6926914526328
 20
215.4952722264975
 30
0.0
 10
156.4875494644297
 20
215.788907970891
 30
0.0
 10
156.3699050562714
 20
215.9222606365538
 30
0.0
 10
156.1076065041781
 20
216.1648379455689
 30
0.0
 10
155.9626530993951
 20
216.2738306367693
 30
0.0
 10
155.6626833590186
 20
216.4631312384714
 30
0.0
 10
155.5060260911561
 20
216.5448710451568
 30
0.0
 10
155.1828257624198
 20
216.6892225310952
 30
0.0
 10
155.0156179703133
 20
216.7505480147227
 30
0.0
 10
154.8484997234755
 20
216.8120467604553
 30
0.0
  0
ARC
  5
134
330
1F
100
AcDbEntity
  8
0
  6
Continuous
 62
     8
370
    18
100
AcDbCircle
 10
160.7885818182
 20
232.9537760578
 30
0.0
 40
17.2
100
AcDbArc
 50
290.2033829341
 51
249.7966170659
  0
SPLINE
  5
135
330
1F
100
AcDbEntity
  8
0
  6
Continuous
 62
     8
370
    18
100
AcDbSpline
210
0.0
220
0.0
230
1.0
 70
     8
 71
     3
 72
    22
 73
    18
 74
     0
 42
0.00000001
 43
0.00000001
 40
0.0
 40
0.0
 40
0.0
 40
0.0
 40
0.1249999999999999
 40
0.1249999999999999
 40
0.2499999999999999
 40
0.2499999999999999
 40
0.3749999999999998
 40
0.3749999999999998
 40
0.4999999999999998
 40
0.4999999999999998
 40
0.6249999999999998
 40
0.6249999999999998
 40
0.7499999999999998
 40
0.7499999999999998
 40
0.8749999999999998
 40
0.8749999999999998
 40
1.0
 40
1.0
 40
1.0
 40
1.0
 10
166.7286639128878
 20
216.8120467604554
 30
0.0
 10
166.5626874487293
 20
216.7509681854942
 30
0.0
 10
166.3966145048694
 20
216.6901225142752
 30
0.0
 10
166.0737055361168
 20
216.5461330825451
 30
0.0
 10
165.9163326812847
 20
216.4642852392074
 30
0.0
 10
165.6130479259432
 20
216.2729226017046
 30
0.0
 10
165.4692049971692
 20
216.1645061164591
 30
0.0
 10
165.207709936781
 20
215.922684224891
 30
0.0
 10
165.0878479949901
 20
215.7867404642957
 30
0.0
 10
164.8830404482079
 20
215.4928566418674
 30
0.0
 10
164.7984457380234
 20
215.3364414622682
 30
0.0
 10
164.6614745620287
 20
215.0064730833819
 30
0.0
 10
164.6094806093805
 20
214.8326828788339
 30
0.0
 10
164.5360947966992
 20
214.4855690014368
 30
0.0
 10
164.5138918933241
 20
214.3101978271258
 30
0.0
 10
164.4897728033613
 20
213.9569154594202
 30
0.0
 10
164.4885818181817
 20
213.778913466443
 30
0.0
 10
164.4885818181817
 20
213.6007623549506
 30
0.0
  0
LINE
  5
136
330
1F
100
AcDbEntity
  8
0
  6
Continuous
 62
     8
370
    18
100
AcDbLine
 10
164.4885818182
 20
143.7537760578
 30
0.0
 11
164.4885818182
 21
213.600762355
 31
0.0
  0
LINE
  5
137
330
1F
100
AcDbEntity
  8
0
  6
Continuous
 62
     8
370
    18
100
AcDbLine
 10
157.0885818182
 20
143.7537760578
 30
0.0
 11
164.4885818182
 21
143.7537760578
 31
0.0
  0
LINE
  5
138
330
1F
100
AcDbEntity
  8
0
  6
Continuous
 62
     8
370
    18
100
AcDbLine
 10
157.0885818182
 20
213.600762355
 30
0.0
 11
157.0885818182
 21
143.7537760578
 31
0.0
  0
LINE
  5
139
330
1F
100
AcDbEntity
  8
0
  6
Continuous
 62
     8
370
    18
100
AcDbLine
 10
167.004946801
 20
216.0612686536
 30
0.0
 11
166.7286639129
 21
216.8120467605
 31
0.0
  0
LINE
  5
13A
330
1F
100
AcDbEntity
  8
0
  6
Continuous
 62
     8
370
    18
100
AcDbLine
 10
154.5722168353
 20
216.0612686536
 30
0.0
 11
154.8484997235
 21
216.8120467605
 31
0.0
  0
LINE
  5
13B
330
1F
100
AcDbEntity
  8
0
  6
Continuous
 62
     8
370
    18
100
AcDbLine
 10
165.2885818182
 20
213.600762355
 30
0.0
 11
164.4885818182
 21
213.600762355
 31
0.0
  0
LINE
  5
13C
330
1F
100
AcDbEntity
  8
0
  6
Continuous
 62
     8
370
    18
100
AcDbLine
 10
164.4885818182
 20
143.7537760578
 30
0.0
 11
165.2885818182
 21
143.7537760578
 31
0.0
  0
LINE
  5
13D
330
1F
100
AcDbEntity
  8
0
  6
Continuous
 62
     8
370
    18
100
AcDbLine
 10
156.2885818182
 20
213.600762355
 30
0.0
 11
157.0885818182
 21
213.600762355
 31
0.0
  0
LINE
  5
13E
330
1F
100
AcDbEntity
  8
0
  6
Continuous
 62
     8
370
    18
100
AcDbLine
 10
156.2885818182
 20
143.7537760578
 30
0.0
 11
157.0885818182
 21
143.7537760578
 31
0.0
  0
LINE
  5
13F
330
1F
100
AcDbEntity
  8
0
  6
Continuous
 62
     8
370
    18
100
AcDbLine
 10
157.0885818182
 20
142.9537760578
 30
0.0
 11
157.0885818182
 21
143.7537760578
 31
0.0
  0
LINE
  5
140
330
1F
100
AcDbEntity
  8
0
  6
Continuous
 62
     8
370
    18
100
AcDbLine
 10
164.4885818182
 20
142.9537760578
 30
0.0
 11
164.4885818182
 21
143.7537760578
 31
0.0
  0
ARC
  5
141
330
1F
100
AcDbEntity
  8
0
  6
Continuous
 62
     8
370
    18
100
AcDbCircle
 10
160.7885818182
 20
232.9537760578
 30
0.0
 40
24.2
100
AcDbArc
 50
159.1401238225
 51
244.2856787749
  0
ARC
  5
142
330
1F
100
AcDbEntity
  8
0
  6
Continuous
 62
     8
370
    18
100
AcDbCircle
 10
160.7885818182
 20
232.9537760578
 30
0.0
 40
24.2
100
AcDbArc
 50
295.7143212251
 51
159.1401238225
  0
ENDSEC
  0
SECTION
  2
OBJECTS
  0
DICTIONARY
  5
C
330
0
100
AcDbDictionary
281
     1
  3
ACAD_GROUP
350
D
  3
ACAD_LAYOUT
350
1A
  3
ACAD_MLINESTYLE
350
17
  3
ACAD_PLOTSETTINGS
350
19
  3
ACAD_PLOTSTYLENAME
350
E
  3
ACAD_SCALELIST
350
47
  3
DWGPROPS
350
143
  0
DICTIONARY
  5
D
102
{ACAD_REACTORS
330
C
102
}
330
C
100
AcDbDictionary
281
     1
  0
DICTIONARY
  5
1A
102
{ACAD_REACTORS
330
C
102
}
330
C
100
AcDbDictionary
281
     1
  3
Layout1
350
1E
  3
Layout2
350
26
  3
Model
350
22
  0
DICTIONARY
  5
17
102
{ACAD_REACTORS
330
C
102
}
330
C
100
AcDbDictionary
281
     1
  3
Standard
350
18
  0
DICTIONARY
  5
19
102
{ACAD_REACTORS
330
C
102
}
330
C
100
AcDbDictionary
281
     1
  0
ACDBDICTIONARYWDFLT
  5
E
102
{ACAD_REACTORS
330
C
102
}
330
C
100
AcDbDictionary
281
     1
  3
Normal
350
F
100
AcDbDictionaryWithDefault
340
F
  0
DICTIONARY
  5
47
102
{ACAD_REACTORS
330
C
102
}
330
C
100
AcDbDictionary
281
     1
  3
A0
350
48
  3
A1
350
49
  3
A2
350
4A
  3
A3
350
4B
  3
A4
350
4C
  3
A5
350
4D
  3
A6
350
4E
  3
A7
350
4F
  3
A8
350
50
  3
A9
350
51
  3
B0
350
52
  3
B1
350
53
  3
B2
350
54
  3
B3
350
55
  3
B4
350
56
  3
B5
350
57
  3
B6
350
58
  3
B7
350
59
  3
B8
350
5A
  3
B9
350
5B
  3
C0
350
5C
  3
C1
350
5D
  3
C2
350
5E
  3
C3
350
5F
  3
C4
350
60
  3
C5
350
61
  3
C6
350
62
  3
C7
350
63
  3
C8
350
64
  3
C9
350
65
  3
D0
350
66
  3
D1
350
67
  3
D2
350
68
  0
XRECORD
  5
143
102
{ACAD_REACTORS
330
C
102
}
330
C
100
AcDbXrecord
280
     1
  1
DWGPROPS COOKIE
  2

  3

  4

  6

  7

  8
fue-task
  9

300
=
301
=
302
=
303
=
304
=
305
=
306
=
307
=
308
=
309
=
 40
0.0
 41
2459863.334980845
 42
2459863.334981389
  1

 90
        0
  0
LAYOUT
  5
1E
102
{ACAD_REACTORS
330
1A
102
}
330
1A
100
AcDbPlotSettings
  1

  2
none_device
  4

  6

 40
0.0
 41
0.0
 42
0.0
 43
0.0
 44
0.0
 45
0.0
 46
0.0
 47
0.0
 48
0.0
 49
0.0
140
0.0
141
0.0
142
1.0
143
1.0
 70
   688
 72
     1
 73
     0
 74
     5
  7

 75
    16
147
1.0
148
0.0
149
0.0
100
AcDbLayout
  1
Layout1
 70
     1
 71
     1
 10
0.0
 20
0.0
 11
420.0
 21
297.0
 12
0.0
 22
0.0
 32
0.0
 14
1.0000000000E+20
 24
1.0000000000E+20
 34
1.0000000000E+20
 15
-1.0000000000E+20
 25
-1.0000000000E+20
 35
-1.0000000000E+20
146
0.0
 13
0.0
 23
0.0
 33
0.0
 16
1.0
 26
0.0
 36
0.0
 17
0.0
 27
1.0
 37
0.0
 76
     0
330
1B
  0
LAYOUT
  5
26
102
{ACAD_REACTORS
330
1A
102
}
330
1A
100
AcDbPlotSettings
  1

  2
none_device
  4

  6

 40
0.0
 41
0.0
 42
0.0
 43
0.0
 44
0.0
 45
0.0
 46
0.0
 47
0.0
 48
0.0
 49
0.0
140
0.0
141
0.0
142
1.0
143
1.0
 70
   688
 72
     1
 73
     0
 74
     5
  7

 75
    16
147
1.0
148
0.0
149
0.0
100
AcDbLayout
  1
Layout2
 70
     1
 71
     2
 10
0.0
 20
0.0
 11
0.0
 21
0.0
 12
0.0
 22
0.0
 32
0.0
 14
0.0
 24
0.0
 34
0.0
 15
0.0
 25
0.0
 35
0.0
146
0.0
 13
0.0
 23
0.0
 33
0.0
 16
1.0
 26
0.0
 36
0.0
 17
0.0
 27
1.0
 37
0.0
 76
     0
330
23
  0
LAYOUT
  5
22
102
{ACAD_REACTORS
330
1A
102
}
330
1A
100
AcDbPlotSettings
  1

  2
none_device
  4
Letter_(8.50_x_11.00_Inches)
  6

 40
6.35
 41
6.35
 42
6.35000508
 43
6.35000508
 44
215.9
 45
279.4
 46
0.0
 47
0.0
 48
0.0
 49
0.0
140
0.0
141
0.0
142
1.0
143
1.0
 70
  1712
 72
     1
 73
     0
 74
     0
  7

 75
     0
147
1.0
148
0.0
149
0.0
100
AcDbLayout
  1
Model
 70
     1
 71
     0
 10
0.0
 20
0.0
 11
594.0
 21
841.0
 12
0.0
 22
0.0
 32
0.0
 14
0.0
 24
0.0
 34
0.0
 15
594.0
 25
841.0
 35
0.0
146
0.0
 13
0.0
 23
0.0
 33
0.0
 16
1.0
 26
0.0
 36
0.0
 17
0.0
 27
1.0
 37
0.0
 76
     0
330
1F
331
29
  0
MLINESTYLE
  5
18
102
{ACAD_REACTORS
330
17
102
}
330
17
100
AcDbMlineStyle
  2
Standard
 70
     0
  3

 62
   256
 51
90.0
 52
90.0
 71
     2
 49
0.5
 62
   256
  6
BYLAYER
 49
-0.5
 62
   256
  6
BYLAYER
  0
ACDBPLACEHOLDER
  5
F
102
{ACAD_REACTORS
330
E
102
}
330
E
  0
SCALE
  5
48
102
{ACAD_REACTORS
330
47
102
}
330
47
100
AcDbScale
 70
     0
300
1:1
140
1.0
141
1.0
290
     1
  0
SCALE
  5
49
102
{ACAD_REACTORS
330
47
102
}
330
47
100
AcDbScale
 70
     0
300
1:2
140
1.0
141
2.0
290
     0
  0
SCALE
  5
4A
102
{ACAD_REACTORS
330
47
102
}
330
47
100
AcDbScale
 70
     0
300
1:4
140
1.0
141
4.0
290
     0
  0
SCALE
  5
4B
102
{ACAD_REACTORS
330
47
102
}
330
47
100
AcDbScale
 70
     0
300
1:5
140
1.0
141
5.0
290
     0
  0
SCALE
  5
4C
102
{ACAD_REACTORS
330
47
102
}
330
47
100
AcDbScale
 70
     0
300
1:8
140
1.0
141
8.0
290
     0
  0
SCALE
  5
4D
102
{ACAD_REACTORS
330
47
102
}
330
47
100
AcDbScale
 70
     0
300
1:10
140
1.0
141
10.0
290
     0
  0
SCALE
  5
4E
102
{ACAD_REACTORS
330
47
102
}
330
47
100
AcDbScale
 70
     0
300
1:16
140
1.0
141
16.0
290
     0
  0
SCALE
  5
4F
102
{ACAD_REACTORS
330
47
102
}
330
47
100
AcDbScale
 70
     0
300
1:20
140
1.0
141
20.0
290
     0
  0
SCALE
  5
50
102
{ACAD_REACTORS
330
47
102
}
330
47
100
AcDbScale
 70
     0
300
1:30
140
1.0
141
30.0
290
     0
  0
SCALE
  5
51
102
{ACAD_REACTORS
330
47
102
}
330
47
100
AcDbScale
 70
     0
300
1:40
140
1.0
141
40.0
290
     0
  0
SCALE
  5
52
102
{ACAD_REACTORS
330
47
102
}
330
47
100
AcDbScale
 70
     0
300
1:50
140
1.0
141
50.0
290
     0
  0
SCALE
  5
53
102
{ACAD_REACTORS
330
47
102
}
330
47
100
AcDbScale
 70
     0
300
1:100
140
1.0
141
100.0
290
     0
  0
SCALE
  5
54
102
{ACAD_REACTORS
330
47
102
}
330
47
100
AcDbScale
 70
     0
300
2:1
140
2.0
141
1.0
290
     0
  0
SCALE
  5
55
102
{ACAD_REACTORS
330
47
102
}
330
47
100
AcDbScale
 70
     0
300
4:1
140
4.0
141
1.0
290
     0
  0
SCALE
  5
56
102
{ACAD_REACTORS
330
47
102
}
330
47
100
AcDbScale
 70
     0
300
8:1
140
8.0
141
1.0
290
     0
  0
SCALE
  5
57
102
{ACAD_REACTORS
330
47
102
}
330
47
100
AcDbScale
 70
     0
300
10:1
140
10.0
141
1.0
290
     0
  0
SCALE
  5
58
102
{ACAD_REACTORS
330
47
102
}
330
47
100
AcDbScale
 70
     0
300
100:1
140
100.0
141
1.0
290
     0
  0
SCALE
  5
59
102
{ACAD_REACTORS
330
47
102
}
330
47
100
AcDbScale
 70
     0
300
1/128" = 1'-0"
140
0.0078125
141
12.0
290
     0
  0
SCALE
  5
5A
102
{ACAD_REACTORS
330
47
102
}
330
47
100
AcDbScale
 70
     0
300
1/64" = 1'-0"
140
0.015625
141
12.0
290
     0
  0
SCALE
  5
5B
102
{ACAD_REACTORS
330
47
102
}
330
47
100
AcDbScale
 70
     0
300
1/32" = 1'-0"
140
0.03125
141
12.0
290
     0
  0
SCALE
  5
5C
102
{ACAD_REACTORS
330
47
102
}
330
47
100
AcDbScale
 70
     0
300
1/16" = 1'-0"
140
0.0625
141
12.0
290
     0
  0
SCALE
  5
5D
102
{ACAD_REACTORS
330
47
102
}
330
47
100
AcDbScale
 70
     0
300
3/32" = 1'-0"
140
0.09375
141
12.0
290
     0
  0
SCALE
  5
5E
102
{ACAD_REACTORS
330
47
102
}
330
47
100
AcDbScale
 70
     0
300
1/8" = 1'-0"
140
0.125
141
12.0
290
     0
  0
SCALE
  5
5F
102
{ACAD_REACTORS
330
47
102
}
330
47
100
AcDbScale
 70
     0
300
3/16" = 1'-0"
140
0.1875
141
12.0
290
     0
  0
SCALE
  5
60
102
{ACAD_REACTORS
330
47
102
}
330
47
100
AcDbScale
 70
     0
300
1/4" = 1'-0"
140
0.25
141
12.0
290
     0
  0
SCALE
  5
61
102
{ACAD_REACTORS
330
47
102
}
330
47
100
AcDbScale
 70
     0
300
3/8" = 1'-0"
140
0.375
141
12.0
290
     0
  0
SCALE
  5
62
102
{ACAD_REACTORS
330
47
102
}
330
47
100
AcDbScale
 70
     0
300
1/2" = 1'-0"
140
0.5
141
12.0
290
     0
  0
SCALE
  5
63
102
{ACAD_REACTORS
330
47
102
}
330
47
100
AcDbScale
 70
     0
300
3/4" = 1'-0"
140
0.75
141
12.0
290
     0
  0
SCALE
  5
64
102
{ACAD_REACTORS
330
47
102
}
330
47
100
AcDbScale
 70
     0
300
1" = 1'-0"
140
1.0
141
12.0
290
     0
  0
SCALE
  5
65
102
{ACAD_REACTORS
330
47
102
}
330
47
100
AcDbScale
 70
     0
300
1-1/2" = 1'-0"
140
1.5
141
12.0
290
     0
  0
SCALE
  5
66
102
{ACAD_REACTORS
330
47
102
}
330
47
100
AcDbScale
 70
     0
300
3" = 1'-0"
140
3.0
141
12.0
290
     0
  0
SCALE
  5
67
102
{ACAD_REACTORS
330
47
102
}
330
47
100
AcDbScale
 70
     0
300
6" = 1'-0"
140
6.0
141
12.0
290
     0
  0
SCALE
  5
68
102
{ACAD_REACTORS
330
47
102
}
330
47
100
AcDbScale
 70
     0
300
1'-0" = 1'-0"
140
12.0
141
12.0
290
     0
  0
ENDSEC
  0
EOF
