  0
SECTION
  2
HEADER
  9
$ACADVER
  1
AC1032
  9
$ACADMAINTVER
 90
        4
  9
$DWGCODEPAGE
  3
ANSI_1252
  9
$LASTSAVEDBY
  1
MKramer
  9
$REQUIREDVERSIONS
160
                 0
  9
$INSBASE
 10
0.0
 20
0.0
 30
0.0
  9
$EXTMIN
 10
33.76143973320001
 20
37.46023423129998
 30
0.0
  9
$EXTMAX
 10
520.6771150059001
 20
424.6518806858
 30
0.0
  9
$LIMMIN
 10
0.0
 20
0.0
  9
$LIMMAX
 10
594.0
 20
841.0
  9
$ORTHOMODE
 70
     0
  9
$REGENMODE
 70
     1
  9
$FILLMODE
 70
     1
  9
$QTEXTMODE
 70
     0
  9
$MIRRTEXT
 70
     1
  9
$LTSCALE
 40
1.0
  9
$ATTMODE
 70
     1
  9
$TEXTSIZE
 40
10.0
  9
$TRACEWID
 40
1.0
  9
$TEXTSTYLE
  7
STANDARD
  9
$CLAYER
  8
0
  9
$CELTYPE
  6
ByLayer
  9
$CECOLOR
 62
   256
  9
$CELTSCALE
 40
1.0
  9
$DISPSILH
 70
     0
  9
$DIMSCALE
 40
1.0
  9
$DIMASZ
 40
2.5
  9
$DIMEXO
 40
0.0
  9
$DIMDLI
 40
3.75
  9
$DIMRND
 40
0.0
  9
$DIMDLE
 40
0.0
  9
$DIMEXE
 40
1.0
  9
$DIMTP
 40
0.0
  9
$DIMTM
 40
0.0
  9
$DIMTXT
 40
3.5
  9
$DIMCEN
 40
2.5
  9
$DIMTSZ
 40
0.0
  9
$DIMTOL
 70
     0
  9
$DIMLIM
 70
     0
  9
$DIMTIH
 70
     1
  9
$DIMTOH
 70
     1
  9
$DIMSE1
 70
     0
  9
$DIMSE2
 70
     0
  9
$DIMTAD
 70
     1
  9
$DIMZIN
 70
     0
  9
$DIMBLK
  1

  9
$DIMASO
 70
     1
  9
$DIMSHO
 70
     1
  9
$DIMPOST
  1

  9
$DIMAPOST
  1

  9
$DIMALT
 70
     0
  9
$DIMALTD
 70
     3
  9
$DIMALTF
 40
0.0393700787
  9
$DIMLFAC
 40
1.0
  9
$DIMTOFL
 70
     1
  9
$DIMTVP
 40
0.0
  9
$DIMTIX
 70
     0
  9
$DIMSOXD
 70
     0
  9
$DIMSAH
 70
     0
  9
$DIMBLK1
  1

  9
$DIMBLK2
  1

  9
$DIMSTYLE
  2
ISO-25
  9
$DIMCLRD
 70
     0
  9
$DIMCLRE
 70
     0
  9
$DIMCLRT
 70
     0
  9
$DIMTFAC
 40
1.0
  9
$DIMGAP
 40
1.5
  9
$DIMJUST
 70
     0
  9
$DIMSD1
 70
     0
  9
$DIMSD2
 70
     0
  9
$DIMTOLJ
 70
     1
  9
$DIMTZIN
 70
     0
  9
$DIMALTZ
 70
     0
  9
$DIMALTTZ
 70
     0
  9
$DIMUPT
 70
     0
  9
$DIMDEC
 70
     2
  9
$DIMTDEC
 70
     2
  9
$DIMALTU
 70
     2
  9
$DIMALTTD
 70
     2
  9
$DIMTXSTY
  7
STANDARD
  9
$DIMAUNIT
 70
     0
  9
$DIMADEC
 70
     0
  9
$DIMALTRND
 40
0.0
  9
$DIMAZIN
 70
     0
  9
$DIMDSEP
 70
    46
  9
$DIMATFIT
 70
     3
  9
$DIMFRAC
 70
     0
  9
$DIMLDRBLK
  1

  9
$DIMLUNIT
 70
     2
  9
$DIMLWD
 70
    -2
  9
$DIMLWE
 70
    -2
  9
$DIMTMOVE
 70
     2
  9
$DIMFXL
 40
1.0
  9
$DIMFXLON
 70
     0
  9
$DIMJOGANG
 40
0.7853981633974483
  9
$DIMTFILL
 70
     0
  9
$DIMTFILLCLR
 70
     0
  9
$DIMARCSYM
 70
     0
  9
$DIMLTYPE
  6

  9
$DIMLTEX1
  6

  9
$DIMLTEX2
  6

  9
$DIMTXTDIRECTION
 70
     0
  9
$LUNITS
 70
     2
  9
$LUPREC
 70
     2
  9
$SKETCHINC
 40
1.0
  9
$FILLETRAD
 40
10.0
  9
$AUNITS
 70
     0
  9
$AUPREC
 70
     2
  9
$MENU
  1
.
  9
$ELEVATION
 40
0.0
  9
$PELEVATION
 40
0.0
  9
$THICKNESS
 40
0.0
  9
$LIMCHECK
 70
     0
  9
$CHAMFERA
 40
0.0
  9
$CHAMFERB
 40
0.0
  9
$CHAMFERC
 40
0.0
  9
$CHAMFERD
 40
0.0
  9
$SKPOLY
 70
     0
  9
$TDCREATE
 40
2458400.483826551
  9
$TDUCREATE
 40
2458400.442159884
  9
$TDUPDATE
 40
2459915.605569664
  9
$TDUUPDATE
 40
2459915.563902998
  9
$TDINDWG
 40
0.0002223843
  9
$TDUSRTIMER
 40
0.0002223727
  9
$USRTIMER
 70
     1
  9
$ANGBASE
 50
0.0
  9
$ANGDIR
 70
     0
  9
$PDMODE
 70
     0
  9
$PDSIZE
 40
-1.0
  9
$PLINEWID
 40
0.0
  9
$SPLFRAME
 70
     0
  9
$SPLINETYPE
 70
     6
  9
$SPLINESEGS
 70
     8
  9
$HANDSEED
  5
553
  9
$SURFTAB1
 70
     6
  9
$SURFTAB2
 70
     6
  9
$SURFTYPE
 70
     6
  9
$SURFU
 70
     6
  9
$SURFV
 70
     6
  9
$UCSBASE
  2

  9
$UCSNAME
  2

  9
$UCSORG
 10
0.0
 20
0.0
 30
0.0
  9
$UCSXDIR
 10
1.0
 20
0.0
 30
0.0
  9
$UCSYDIR
 10
0.0
 20
1.0
 30
0.0
  9
$UCSORTHOREF
  2

  9
$UCSORTHOVIEW
 70
     0
  9
$UCSORGTOP
 10
0.0
 20
0.0
 30
0.0
  9
$UCSORGBOTTOM
 10
0.0
 20
0.0
 30
0.0
  9
$UCSORGLEFT
 10
0.0
 20
0.0
 30
0.0
  9
$UCSORGRIGHT
 10
0.0
 20
0.0
 30
0.0
  9
$UCSORGFRONT
 10
0.0
 20
0.0
 30
0.0
  9
$UCSORGBACK
 10
0.0
 20
0.0
 30
0.0
  9
$PUCSBASE
  2

  9
$PUCSNAME
  2

  9
$PUCSORG
 10
0.0
 20
0.0
 30
0.0
  9
$PUCSXDIR
 10
1.0
 20
0.0
 30
0.0
  9
$PUCSYDIR
 10
0.0
 20
1.0
 30
0.0
  9
$PUCSORTHOREF
  2

  9
$PUCSORTHOVIEW
 70
     0
  9
$PUCSORGTOP
 10
0.0
 20
0.0
 30
0.0
  9
$PUCSORGBOTTOM
 10
0.0
 20
0.0
 30
0.0
  9
$PUCSORGLEFT
 10
0.0
 20
0.0
 30
0.0
  9
$PUCSORGRIGHT
 10
0.0
 20
0.0
 30
0.0
  9
$PUCSORGFRONT
 10
0.0
 20
0.0
 30
0.0
  9
$PUCSORGBACK
 10
0.0
 20
0.0
 30
0.0
  9
$USERI1
 70
     0
  9
$USERI2
 70
     0
  9
$USERI3
 70
     0
  9
$USERI4
 70
     0
  9
$USERI5
 70
     0
  9
$USERR1
 40
0.0
  9
$USERR2
 40
0.0
  9
$USERR3
 40
0.0
  9
$USERR4
 40
0.0
  9
$USERR5
 40
0.0
  9
$WORLDVIEW
 70
     1
  9
$SHADEDGE
 70
     3
  9
$SHADEDIF
 70
    70
  9
$TILEMODE
 70
     1
  9
$MAXACTVP
 70
    64
  9
$PINSBASE
 10
0.0
 20
0.0
 30
0.0
  9
$PLIMCHECK
 70
     0
  9
$PEXTMIN
 10
1.000000000000000E+20
 20
1.000000000000000E+20
 30
1.000000000000000E+20
  9
$PEXTMAX
 10
-1.000000000000000E+20
 20
-1.000000000000000E+20
 30
-1.000000000000000E+20
  9
$PLIMMIN
 10
0.0
 20
0.0
  9
$PLIMMAX
 10
0.0
 20
0.0
  9
$UNITMODE
 70
     0
  9
$VISRETAIN
 70
     1
  9
$PLINEGEN
 70
     0
  9
$PSLTSCALE
 70
     1
  9
$TREEDEPTH
 70
  3020
  9
$CMLSTYLE
  2
Standard
  9
$CMLJUST
 70
     0
  9
$CMLSCALE
 40
1.0
  9
$PROXYGRAPHICS
 70
     1
  9
$MEASUREMENT
 70
     0
  9
$CELWEIGHT
370
    -1
  9
$ENDCAPS
280
     0
  9
$JOINSTYLE
280
     0
  9
$LWDISPLAY
290
     0
  9
$INSUNITS
 70
     0
  9
$HYPERLINKBASE
  1

  9
$STYLESHEET
  1

  9
$XEDIT
290
     1
  9
$CEPSNTYPE
380
     0
  9
$PSTYLEMODE
290
     1
  9
$FINGERPRINTGUID
  2
{d592a234-2db5-48e1-a437-2e46910f1f3f}
  9
$VERSIONGUID
  2
{FAEB1C32-E019-11D5-929B-00C0DF256EC4}
  9
$EXTNAMES
290
     1
  9
$PSVPSCALE
 40
0.0
  9
$OLESTARTUP
290
     0
  9
$SORTENTS
280
   127
  9
$INDEXCTL
280
     0
  9
$HIDETEXT
280
     1
  9
$XCLIPFRAME
280
     2
  9
$HALOGAP
280
     0
  9
$OBSCOLOR
 70
   257
  9
$OBSLTYPE
280
     0
  9
$INTERSECTIONDISPLAY
280
     0
  9
$INTERSECTIONCOLOR
 70
   257
  9
$DIMASSOC
280
     2
  9
$PROJECTNAME
  1

  9
$CAMERADISPLAY
290
     0
  9
$LENSLENGTH
 40
50.0
  9
$CAMERAHEIGHT
 40
0.0
  9
$STEPSPERSEC
 40
2.0
  9
$STEPSIZE
 40
6.0
  9
$3DDWFPREC
 40
2.0
  9
$PSOLWIDTH
 40
0.25
  9
$PSOLHEIGHT
 40
4.0
  9
$LOFTANG1
 40
1.570796326794897
  9
$LOFTANG2
 40
1.570796326794897
  9
$LOFTMAG1
 40
0.0
  9
$LOFTMAG2
 40
0.0
  9
$LOFTPARAM
 70
     7
  9
$LOFTNORMALS
280
     1
  9
$LATITUDE
 40
37.795
  9
$LONGITUDE
 40
-122.394
  9
$NORTHDIRECTION
 40
0.0
  9
$TIMEZONE
 70
 -8000
  9
$LIGHTGLYPHDISPLAY
280
     1
  9
$TILEMODELIGHTSYNCH
280
     1
  9
$SOLIDHIST
280
     0
  9
$SHOWHIST
280
     1
  9
$DWFFRAME
280
     2
  9
$DGNFRAME
280
     2
  9
$REALWORLDSCALE
290
     1
  9
$INTERFERECOLOR
 62
   256
  9
$CSHADOW
280
     0
  9
$SHADOWPLANELOCATION
 40
0.0
  0
ENDSEC
  0
SECTION
  2
CLASSES
  0
CLASS
  1
ACDBDICTIONARYWDFLT
  2
AcDbDictionaryWithDefault
  3
ObjectDBX Classes
 90
        0
 91
        3
280
     0
281
     0
  0
CLASS
  1
MATERIAL
  2
AcDbMaterial
  3
ObjectDBX Classes
 90
     1153
 91
        3
280
     0
281
     0
  0
CLASS
  1
SCALE
  2
AcDbScale
  3
ObjectDBX Classes
 90
     1153
 91
        3
280
     0
281
     0
  0
CLASS
  1
VISUALSTYLE
  2
AcDbVisualStyle
  3
ObjectDBX Classes
 90
     4095
 91
        3
280
     0
281
     0
  0
CLASS
  1
TABLESTYLE
  2
AcDbTableStyle
  3
ObjectDBX Classes
 90
     4095
 91
        3
280
     0
281
     0
  0
CLASS
  1
MLEADERSTYLE
  2
AcDbMLeaderStyle
  3
ACDB_MLEADERSTYLE_CLASS
 90
     4095
 91
        3
280
     0
281
     0
  0
CLASS
  1
DICTIONARYVAR
  2
AcDbDictionaryVar
  3
ObjectDBX Classes
 90
        0
 91
        3
280
     0
281
     0
  0
CLASS
  1
CELLSTYLEMAP
  2
AcDbCellStyleMap
  3
ObjectDBX Classes
 90
     1152
 91
        3
280
     0
281
     0
  0
ENDSEC
  0
SECTION
  2
TABLES
  0
TABLE
  2
VPORT
  5
4DA
330
0
100
AcDbSymbolTable
 70
     1
  0
VPORT
  5
4F1
330
4DA
100
AcDbSymbolTableRecord
100
AcDbViewportTableRecord
  2
*ACTIVE
 70
     0
 10
0.0
 20
0.0
 11
1.0
 21
1.0
 12
297.0
 22
420.5
 13
0.0
 23
0.0
 14
10.0
 24
10.0
 15
10.0
 25
10.0
 16
0.0
 26
0.0
 36
1.0
 17
0.0
 27
0.0
 37
0.0
 40
841.0
 41
0.7063020214
 42
50.0
 43
0.0
 44
0.0
 50
0.0
 51
0.0
 71
     0
 72
  2000
 73
     1
 74
     3
 75
     0
 76
     0
 77
     0
 78
     0
281
     0
 65
     0
110
0.0
120
0.0
130
0.0
111
1.0
121
0.0
131
0.0
112
0.0
122
1.0
132
0.0
 79
     0
146
0.0
348
52E
 60
     3
 61
     5
292
     1
282
     1
141
0.0
142
0.0
 63
   256
  0
ENDTAB
  0
TABLE
  2
LTYPE
  5
4D7
330
0
100
AcDbSymbolTable
 70
     6
  0
LTYPE
  5
4E5
330
4D7
100
AcDbSymbolTableRecord
100
AcDbLinetypeTableRecord
  2
ByBlock
 70
     0
  3

 72
    65
 73
     0
 40
0.0
  0
LTYPE
  5
4E6
330
4D7
100
AcDbSymbolTableRecord
100
AcDbLinetypeTableRecord
  2
ByLayer
 70
     0
  3

 72
    65
 73
     0
 40
0.0
  0
LTYPE
  5
4E7
330
4D7
100
AcDbSymbolTableRecord
100
AcDbLinetypeTableRecord
  2
CONTINUOUS
 70
     0
  3
Solid line
 72
    65
 73
     0
 40
0.0
  0
LTYPE
  5
4F3
330
4D7
100
AcDbSymbolTableRecord
100
AcDbLinetypeTableRecord
  2
HIDDEN
 70
     0
  3
Hidden __ __ __ __ __ __ __ __ __ __ __ __ __ __
 72
    65
 73
     2
 40
1.905
 49
1.27
 74
     0
 49
-0.635
 74
     0
  0
LTYPE
  5
4F4
330
4D7
100
AcDbSymbolTableRecord
100
AcDbLinetypeTableRecord
  2
PHANTOM
 70
     0
  3
Phantom ______  __  __  ______  __  __  ______
 72
    65
 73
     6
 40
12.7
 49
6.35
 74
     0
 49
-1.27
 74
     0
 49
1.27
 74
     0
 49
-1.27
 74
     0
 49
1.27
 74
     0
 49
-1.27
 74
     0
  0
LTYPE
  5
4F5
330
4D7
100
AcDbSymbolTableRecord
100
AcDbLinetypeTableRecord
  2
CENTER
 70
     0
  3
Center ____ _ ____ _ ____ _ ____ _ ____ _ ____
 72
    65
 73
     4
 40
10.16
 49
6.35
 74
     0
 49
-1.27
 74
     0
 49
1.27
 74
     0
 49
-1.27
 74
     0
  0
LTYPE
  5
4F6
330
4D7
100
AcDbSymbolTableRecord
100
AcDbLinetypeTableRecord
  2
CENTERX2
 70
     0
  3
Center (2x) ________  __  ________  __  _____
 72
    65
 73
     4
 40
20.32
 49
12.7
 74
     0
 49
-2.54
 74
     0
 49
2.54
 74
     0
 49
-2.54
 74
     0
  0
LTYPE
  5
4F7
330
4D7
100
AcDbSymbolTableRecord
100
AcDbLinetypeTableRecord
  2
DOT2
 70
     0
  3
Dot (.5x) ........................................
 72
    65
 73
     2
 40
0.635
 49
0.0
 74
     0
 49
-0.635
 74
     0
  0
ENDTAB
  0
TABLE
  2
LAYER
  5
4D5
330
0
100
AcDbSymbolTable
 70
     1
  0
LAYER
  5
4E2
330
4D5
100
AcDbSymbolTableRecord
100
AcDbLayerTableRecord
  2
0
 70
     0
 62
     7
  6
CONTINUOUS
370
    -3
390
4E1
347
4FC
348
0
  0
ENDTAB
  0
TABLE
  2
STYLE
  5
4D6
330
0
100
AcDbSymbolTable
 70
     1
  0
STYLE
  5
4E3
330
4D6
100
AcDbSymbolTableRecord
100
AcDbTextStyleTableRecord
  2
STANDARD
 70
     0
 40
0.0
 41
1.0
 50
0.0
 71
     0
 42
10.0
  3
txt
  4

  0
ENDTAB
  0
TABLE
  2
VIEW
  5
4D8
330
0
100
AcDbSymbolTable
 70
     0
  0
ENDTAB
  0
TABLE
  2
UCS
  5
4D9
330
0
100
AcDbSymbolTable
 70
     0
  0
ENDTAB
  0
TABLE
  2
APPID
  5
4DB
330
0
100
AcDbSymbolTable
 70
     1
  0
APPID
  5
4E4
330
4DB
100
AcDbSymbolTableRecord
100
AcDbRegAppTableRecord
  2
ACAD
 70
     0
  0
ENDTAB
  0
TABLE
  2
DIMSTYLE
  5
4DC
330
0
100
AcDbSymbolTable
 70
     2
100
AcDbDimStyleTable
  0
DIMSTYLE
105
4FF
330
4DC
100
AcDbSymbolTableRecord
100
AcDbDimStyleTableRecord
  2
ISO-25
 70
     0
 41
2.5
 42
0.625
 43
3.75
 44
1.25
 73
     0
 74
     0
 77
     1
 78
     8
140
2.5
141
2.5
143
0.0393700787
147
0.625
171
     3
172
     1
178
     0
340
4E3
  0
DIMSTYLE
105
500
330
4DC
100
AcDbSymbolTableRecord
100
AcDbDimStyleTableRecord
  2
SLDDIMSTYLE0
 70
     0
 41
2.5
 44
0.0
 45
0.000000001
 73
     0
 74
     0
 77
     1
 78
    12
140
6.0
147
1.5
173
     1
178
     0
340
4E3
  0
ENDTAB
  0
TABLE
  2
BLOCK_RECORD
  5
4D4
330
0
100
AcDbSymbolTable
 70
     2
  0
BLOCK_RECORD
  5
4EE
102
{ACAD_XDICTIONARY
360
547
102
}
330
4D4
100
AcDbSymbolTableRecord
100
AcDbBlockTableRecord
  2
*Model_Space
340
4EF
 70
     0
280
     1
281
     0
  0
BLOCK_RECORD
  5
4EC
330
4D4
100
AcDbSymbolTableRecord
100
AcDbBlockTableRecord
  2
*Paper_Space
340
4ED
 70
     0
280
     1
281
     0
  0
BLOCK_RECORD
  5
504
330
4D4
100
AcDbSymbolTableRecord
100
AcDbBlockTableRecord
  2
_D
340
0
 70
     0
280
     1
281
     0
  0
BLOCK_RECORD
  5
506
330
4D4
100
AcDbSymbolTableRecord
100
AcDbBlockTableRecord
  2
_D_1
340
0
 70
     0
280
     1
281
     0
  0
ENDTAB
  0
ENDSEC
  0
SECTION
  2
BLOCKS
  0
BLOCK
  5
501
330
4EE
100
AcDbEntity
  8
0
100
AcDbBlockBegin
  2
*Model_Space
 70
     0
 10
0.0
 20
0.0
 30
0.0
  3
*Model_Space
  1

  0
ENDBLK
  5
21
330
4EE
100
AcDbEntity
  8
0
100
AcDbBlockEnd
  0
BLOCK
  5
502
330
4EC
100
AcDbEntity
 67
     1
  8
0
100
AcDbBlockBegin
  2
*Paper_Space
 70
     0
 10
0.0
 20
0.0
 30
0.0
  3
*Paper_Space
  1

  0
ENDBLK
  5
1D
330
4EC
100
AcDbEntity
 67
     1
  8
0
100
AcDbBlockEnd
  0
BLOCK
  5
503
330
504
100
AcDbEntity
  8
0
100
AcDbBlockBegin
  2
_D
 70
     0
 10
0.0
 20
0.0
 30
0.0
  3
_D
  1

  0
SOLID
  5
7A
330
504
100
AcDbEntity
  8
0
  6
Continuous
 62
     7
100
AcDbTrace
 10
42.7614395004
 20
152.0299240879
 30
0.0
 11
42.4614395004
 21
149.5299240879
 31
0.0
 12
43.0614395004
 22
149.5299240879
 32
0.0
 13
43.0614395004
 23
149.5299240879
 33
0.0
  0
SOLID
  5
7B
330
504
100
AcDbEntity
  8
0
  6
Continuous
 62
     7
100
AcDbTrace
 10
42.7614395004
 20
52.0299240879
 30
0.0
 11
43.0614395004
 21
54.5299240879
 31
0.0
 12
42.4614395004
 22
54.5299240879
 32
0.0
 13
42.4614395004
 23
54.5299240879
 33
0.0
  0
LINE
  5
7C
330
504
100
AcDbEntity
  8
0
  6
Continuous
 62
     7
100
AcDbLine
 10
56.6850079902
 20
152.0299240879
 30
0.0
 11
41.7614395004
 21
152.0299240879
 31
0.0
  0
LINE
  5
7D
330
504
100
AcDbEntity
  8
0
  6
Continuous
 62
     7
100
AcDbLine
 10
56.6850079902
 20
52.0299240879
 30
0.0
 11
41.7614395004
 21
52.0299240879
 31
0.0
  0
LINE
  5
7E
330
504
100
AcDbEntity
  8
0
  6
Continuous
 62
     7
100
AcDbLine
 10
42.7614395004
 20
152.0299240879
 30
0.0
 11
42.7614395004
 21
52.0299240879
 31
0.0
  0
TEXT
  5
7F
330
504
100
AcDbEntity
  8
0
  6
Continuous
 62
     7
100
AcDbText
 10
39.7614397332
 20
94.3680541463
 30
0.0
 40
6.0
  1
100
 50
90.0
 41
0.7
 11
42.7614397332
 21
94.3680541463
 31
0.0
100
AcDbText
 73
     1
  0
TEXT
  5
80
330
504
100
AcDbEntity
  8
0
  6
Continuous
 62
     7
100
AcDbText
 10
39.7614397332
 20
105.7430548466
 30
0.0
 40
6.0
  1
mm
 50
90.0
 41
0.7
 11
42.7614397332
 21
105.7430548466
 31
0.0
100
AcDbText
 73
     1
  0
ENDBLK
  5
79
330
504
100
AcDbEntity
  8
0
100
AcDbBlockEnd
  0
BLOCK
  5
505
330
506
100
AcDbEntity
  8
0
100
AcDbBlockBegin
  2
_D_1
 70
     0
 10
0.0
 20
0.0
 30
0.0
  3
_D_1
  1

  0
SOLID
  5
85
330
506
100
AcDbEntity
  8
0
  6
Continuous
 62
     7
100
AcDbTrace
 10
56.6850079902
 20
38.4602342313
 30
0.0
 11
59.1850079902
 21
38.1602342313
 31
0.0
 12
59.1850079902
 22
38.7602342313
 32
0.0
 13
59.1850079902
 23
38.7602342313
 33
0.0
  0
SOLID
  5
86
330
506
100
AcDbEntity
  8
0
  6
Continuous
 62
     7
100
AcDbTrace
 10
156.6850079902
 20
38.4602342313
 30
0.0
 11
154.1850079902
 21
38.7602342313
 31
0.0
 12
154.1850079902
 22
38.1602342313
 32
0.0
 13
154.1850079902
 23
38.1602342313
 33
0.0
  0
LINE
  5
87
330
506
100
AcDbEntity
  8
0
  6
Continuous
 62
     7
100
AcDbLine
 10
56.6850079902
 20
52.0299240879
 30
0.0
 11
56.6850079902
 21
37.4602342313
 31
0.0
  0
LINE
  5
88
330
506
100
AcDbEntity
  8
0
  6
Continuous
 62
     7
100
AcDbLine
 10
156.6850079902
 20
52.0299240879
 30
0.0
 11
156.6850079902
 21
37.4602342313
 31
0.0
  0
LINE
  5
89
330
506
100
AcDbEntity
  8
0
  6
Continuous
 62
     7
100
AcDbLine
 10
56.6850079902
 20
38.4602342313
 30
0.0
 11
156.6850079902
 21
38.4602342313
 31
0.0
  0
TEXT
  5
8A
330
506
100
AcDbEntity
  8
0
  6
Continuous
 62
     7
100
AcDbText
 10
93.9626484861
 20
41.4602339984
 30
0.0
 40
6.0
  1
100
 41
0.7
 11
93.9626484861
 21
38.4602339984
 31
0.0
100
AcDbText
 73
     1
  0
TEXT
  5
8B
330
506
100
AcDbEntity
  8
0
  6
Continuous
 62
     7
100
AcDbText
 10
105.3376491864
 20
41.4602339984
 30
0.0
 40
6.0
  1
mm
 41
0.7
 11
105.3376491864
 21
38.4602339984
 31
0.0
100
AcDbText
 73
     1
  0
ENDBLK
  5
84
330
506
100
AcDbEntity
  8
0
100
AcDbBlockEnd
  0
ENDSEC
  0
SECTION
  2
ENTITIES
  0
LINE
  5
73
330
4EE
100
AcDbEntity
  8
0
  6
Continuous
 62
     7
100
AcDbLine
 10
56.6850079902
 20
152.0299240879
 30
0.0
 11
56.6850079902
 21
52.0299240879
 31
0.0
  0
LINE
  5
74
330
4EE
100
AcDbEntity
  8
0
  6
Continuous
 62
     7
100
AcDbLine
 10
56.6850079902
 20
52.0299240879
 30
0.0
 11
156.6850079902
 21
52.0299240879
 31
0.0
  0
DIMENSION
  5
75
330
4EE
100
AcDbEntity
  8
0
  6
Continuous
 62
     7
100
AcDbDimension
280
     0
  2
_D
 10
42.7614395004
 20
52.0299240879
 30
0.0
 11
42.7614395004
 21
105.4472211621
 31
0.0
 70
   160
  1
<>mm
 71
     5
 42
-1.0
 73
     0
 74
     0
 75
     0
  3
SLDDIMSTYLE0
100
AcDbAlignedDimension
 13
56.6850079902
 23
152.0299240879
 33
0.0
 14
56.6850079902
 24
52.0299240879
 34
0.0
 50
90.0
100
AcDbRotatedDimension
  0
DIMENSION
  5
81
330
4EE
100
AcDbEntity
  8
0
  6
Continuous
 62
     7
100
AcDbDimension
280
     0
  2
_D_1
 10
156.6850079902
 20
38.4602342313
 30
0.0
 11
105.0418155019
 21
38.4602342313
 31
0.0
 70
   160
  1
<>mm
 71
     5
 42
-1.0
 73
     0
 74
     0
 75
     0
  3
SLDDIMSTYLE0
100
AcDbAlignedDimension
 13
56.6850079902
 23
52.0299240879
 33
0.0
 14
156.6850079902
 24
52.0299240879
 34
0.0
100
AcDbRotatedDimension
  0
TEXT
  5
8C
330
4EE
100
AcDbEntity
  8
0
  6
Continuous
 62
     7
100
AcDbText
 10
412.8252631579
 20
40.5435675522
 30
0.0
 40
10.0
  1
KLUDI GmbH & Co KG
 41
0.6222222222
 11
412.8252631579
 21
35.5435675522
 31
0.0
100
AcDbText
 73
     1
  0
TEXT
  5
8D
330
4EE
100
AcDbEntity
  8
0
  6
Continuous
 62
     7
100
AcDbText
 10
210.0873490389
 20
40.5435675522
 30
0.0
 40
10.0
  1
48 263 .. 65
 41
0.6125
 11
210.0873490389
 21
35.5435675522
 31
0.0
100
AcDbText
 73
     1
  0
ARC
  5
8E
330
4EE
100
AcDbEntity
  8
0
  6
Continuous
 62
     7
100
AcDbCircle
 10
261.2370241835
 20
422.7688651849
 30
0.0
 40
1.5
100
AcDbArc
 50
90.0
 51
180.0
  0
LINE
  5
8F
330
4EE
100
AcDbEntity
  8
0
  6
Continuous
 62
     7
100
AcDbLine
 10
259.7370241835
 20
422.7688651849
 30
0.0
 11
259.7370241835
 21
401.8963700825
 31
0.0
  0
ARC
  5
90
330
4EE
100
AcDbEntity
  8
0
  6
Continuous
 62
     7
100
AcDbCircle
 10
259.9370241835
 20
401.8963700825
 30
0.0
 40
0.2000000000000134
100
AcDbArc
 50
196.0348427898
 51
248.0
  0
LINE
  5
91
330
4EE
100
AcDbEntity
  8
0
  6
Continuous
 62
     7
100
AcDbLine
 10
305.7856513291
 20
328.0779392479
 30
0.0
 11
305.7856513291
 21
335.5890209026
 31
0.0
  0
LWPOLYLINE
  5
92
330
4EE
100
AcDbEntity
  8
0
  6
Continuous
 62
     7
100
AcDbPolyline
 90
       10
 70
   128
 43
0.0
 10
366.0814497489
 20
424.2684034207
 10
355.9785607793
 20
424.3943078673
 10
344.301633633
 20
424.4387697121
 10
332.8931470764
 20
424.4752637183
 10
321.7531132593
 20
424.4911371319
 10
310.8815125239
 20
424.5068615042
 10
297.6694511431
 20
424.5726317826
 10
284.8768096067
 20
424.6452984653
 10
272.5037541715
 20
424.551721539
 10
261.59952343
 20
424.26803162
  0
LWPOLYLINE
  5
93
330
4EE
100
AcDbEntity
  8
0
  6
Continuous
 62
     7
100
AcDbPolyline
 90
        3
 70
   128
 43
0.0
 10
383.3782810666
 20
387.3859603633
 10
382.8189795227
 20
387.3873085872
 10
377.6865133364
 20
387.4015450156
  0
ARC
  5
94
330
4EE
100
AcDbEntity
  8
0
  6
Continuous
 62
     7
100
AcDbCircle
 10
282.7856513291
 20
386.7688651849
 30
0.0
 40
21.64486082191336
100
AcDbArc
 50
143.9171424534
 51
170.9531540197
  0
ARC
  5
95
330
4EE
100
AcDbEntity
  8
0
  6
Continuous
 62
     7
100
AcDbCircle
 10
282.7856513291
 20
386.7688651849
 30
0.0
 40
21.6448608219134
100
AcDbArc
 50
9.0468459803
 51
15.2684548419
  0
LINE
  5
96
330
4EE
100
AcDbEntity
  8
0
  6
Continuous
 62
     7
100
AcDbLine
 10
261.2856513291
 20
388.5999259599
 30
0.0
 11
261.2856513291
 21
387.2770428879
 31
0.0
  0
LINE
  5
97
330
4EE
100
AcDbEntity
  8
0
  6
Continuous
 62
     7
100
AcDbLine
 10
304.2856513291
 20
387.5762968598
 30
0.0
 11
304.2856513291
 21
388.5999259599
 31
0.0
  0
ARC
  5
98
330
4EE
100
AcDbEntity
  8
0
  6
Continuous
 62
     7
100
AcDbCircle
 10
294.2856513291
 20
388.5999259599
 30
0.0
 40
10.0
100
AcDbArc
 50
0.0
 51
9.0468459803
  0
ARC
  5
99
330
4EE
100
AcDbEntity
  8
0
  6
Continuous
 62
     7
100
AcDbCircle
 10
271.2856513291
 20
388.5999259599
 30
0.0
 40
10.0
100
AcDbArc
 50
170.9531540197
 51
180.0
  0
LWPOLYLINE
  5
9A
330
4EE
100
AcDbEntity
  8
0
  6
Continuous
 62
     7
100
AcDbPolyline
 90
        3
 70
   128
 43
0.0
 10
356.6515973764
 20
366.8746559339
 10
362.109973789
 20
366.8292077004
 10
364.4046406847
 20
366.8297135207
  0
ARC
  5
9B
330
4EE
100
AcDbEntity
  8
0
  6
Continuous
 62
     7
100
AcDbCircle
 10
319.0663520141
 20
593.5422130333
 30
0.0
 40
230.0546462242379
100
AcDbArc
 50
286.4479982999
 51
287.8337599276
  0
LINE
  5
9C
330
4EE
100
AcDbEntity
  8
0
  6
Continuous
 62
     7
100
AcDbLine
 10
305.7370241835
 20
392.6688651849
 30
0.0
 11
305.7370241835
 21
396.9329059642
 31
0.0
  0
ARC
  5
9D
330
4EE
100
AcDbEntity
  8
0
  6
Continuous
 62
     7
100
AcDbCircle
 10
305.5370241835
 20
392.6688651849
 30
0.0
 40
0.1999999999999886
100
AcDbArc
 50
270.0
 51
0.0
  0
LINE
  5
9E
330
4EE
100
AcDbEntity
  8
0
  6
Continuous
 62
     7
100
AcDbLine
 10
388.9034257921
 20
371.6418585641
 30
0.0
 11
387.801361139
 21
374.0052438397
 31
0.0
  0
LINE
  5
9F
330
4EE
100
AcDbEntity
  8
0
  6
Continuous
 62
     7
100
AcDbLine
 10
364.6342515866
 20
366.8984326072
 30
0.0
 11
367.1520389032
 21
361.4990202824
 31
0.0
  0
LINE
  5
A0
330
4EE
100
AcDbEntity
  8
0
  6
Continuous
 62
     7
100
AcDbLine
 10
367.1520389032
 20
361.4990202824
 30
0.0
 11
368.3023454575
 21
361.3983814993
 31
0.0
  0
LINE
  5
A1
330
4EE
100
AcDbEntity
  8
0
  6
Continuous
 62
     7
100
AcDbLine
 10
388.2411167723
 20
370.6959832576
 30
0.0
 11
388.9034257921
 21
371.6418585641
 31
0.0
  0
LWPOLYLINE
  5
A2
330
4EE
100
AcDbEntity
  8
0
  6
Continuous
 62
     7
100
AcDbPolyline
 90
       22
 70
   128
 43
0.0
 10
305.8012457106
 20
335.5885163568
 10
305.8781512509
 20
338.1814803057
 10
306.1067995128
 20
340.7682032091
 10
306.3982925098
 20
342.8247619419
 10
306.7325553588
 20
344.5845019562
 10
307.105672521
 20
346.1651918741
 10
307.5009080444
 20
347.5717784398
 10
308.2623794856
 20
349.7974478912
 10
309.370464722
 20
352.3419246099
 10
310.9408873368
 20
355.1187589351
 10
312.9844229075
 20
357.8550067978
 10
315.3292577176
 20
360.2034533583
 10
317.8957454459
 20
362.1034581975
 10
320.6466294312
 20
363.5812376641
 10
323.3785566677
 20
364.6422861627
 10
324.9724306988
 20
365.1193068163
 10
326.3534083577
 20
365.4646701075
 10
327.5526680919
 20
365.7188934977
 10
328.9189105961
 20
365.9607845458
 10
330.9445692451
 20
366.2334564021
 10
333.6331909939
 20
366.4556512213
 10
336.98327768
 20
366.5612814913
  0
LINE
  5
A3
330
4EE
100
AcDbEntity
  8
0
  6
Continuous
 62
     7
100
AcDbLine
 10
305.7357051546
 20
399.4688651849
 30
0.0
 11
305.8870241835
 21
399.4688651849
 31
0.0
  0
LINE
  5
A4
330
4EE
100
AcDbEntity
  8
0
  6
Continuous
 62
     7
100
AcDbLine
 10
305.8870241835
 20
399.4688651849
 30
0.0
 11
306.4875715534
 21
399.6874465518
 31
0.0
  0
ARC
  5
A5
330
4EE
100
AcDbEntity
  8
0
  6
Continuous
 62
     7
100
AcDbCircle
 10
306.4191675248
 20
399.875385076
 30
0.0
 40
0.2000000000000359
100
AcDbArc
 50
289.9999999999999
 51
0.0
  0
LINE
  5
A6
330
4EE
100
AcDbEntity
  8
0
  6
Continuous
 62
     7
100
AcDbLine
 10
306.6191675248
 20
399.875385076
 30
0.0
 11
306.6191675248
 21
406.9044298149
 31
0.0
  0
LWPOLYLINE
  5
A7
330
4EE
100
AcDbEntity
  8
0
  6
Continuous
 62
     7
100
AcDbPolyline
 90
        3
 70
   128
 43
0.0
 10
306.6658194859
 20
406.7877778505
 10
306.9384685102
 20
407.7831596485
 10
307.251416529
 20
408.5017512033
  0
ARC
  5
A8
330
4EE
100
AcDbEntity
  8
0
  6
Continuous
 62
     7
100
AcDbCircle
 10
323.244839996
 20
402.081578595
 30
0.0
 40
17.21374427853953
100
AcDbArc
 50
91.32820346509999
 51
157.6362739788
  0
LWPOLYLINE
  5
A9
330
4EE
100
AcDbEntity
  8
0
  6
Continuous
 62
     7
100
AcDbPolyline
 90
        3
 70
   128
 43
0.0
 10
323.605701081
 20
419.3358080841
 10
323.6261844658
 20
419.3399764111
 10
323.6444667758
 20
419.346112085
  0
LWPOLYLINE
  5
AA
330
4EE
100
AcDbEntity
  8
0
  6
Continuous
 62
     7
100
AcDbPolyline
 90
        3
 70
   128
 43
0.0
 10
321.9435306536
 20
419.2084876675
 10
322.824210766
 20
419.289063819
 10
323.7373377977
 20
419.3406385281
  0
LINE
  5
AB
330
4EE
100
AcDbEntity
  8
0
  6
Continuous
 62
     7
100
AcDbLine
 10
255.2245040752
 20
327.6105972422
 30
0.0
 11
259.7856513291
 21
315.0789481553
 31
0.0
  0
LINE
  5
AC
330
4EE
100
AcDbEntity
  8
0
  6
Continuous
 62
     7
100
AcDbLine
 10
259.7856513291
 20
326.7741657559
 30
0.0
 11
258.9832745583
 21
328.9786778155
 31
0.0
  0
LINE
  5
AD
330
4EE
100
AcDbEntity
  8
0
  6
Continuous
 62
     7
100
AcDbLine
 10
240.3451188336
 20
328.9265569556
 30
0.0
 11
253.3451188336
 21
328.9265569556
 31
0.0
  0
LINE
  5
AE
330
4EE
100
AcDbEntity
  8
0
  6
Continuous
 62
     7
100
AcDbLine
 10
253.3451188336
 20
332.9265569556
 30
0.0
 11
240.3451188336
 21
332.9265569556
 31
0.0
  0
ARC
  5
AF
330
4EE
100
AcDbEntity
  8
0
  6
Continuous
 62
     7
100
AcDbCircle
 10
253.3451188336
 20
326.9265569556
 30
0.0
 40
2.000000000000002
100
AcDbArc
 50
20.0
 51
90.0
  0
ARC
  5
B0
330
4EE
100
AcDbEntity
  8
0
  6
Continuous
 62
     7
100
AcDbCircle
 10
253.3451188336
 20
326.9265569556
 30
0.0
 40
6.000000000000018
100
AcDbArc
 50
20.0
 51
90.0
  0
LINE
  5
B1
330
4EE
100
AcDbEntity
  8
0
  6
Continuous
 62
     7
100
AcDbLine
 10
377.9881461867
 20
387.4007083468
 30
0.0
 11
377.686428551
 21
387.4015452559
 31
0.0
  0
LWPOLYLINE
  5
B2
330
4EE
100
AcDbEntity
  8
0
  6
Continuous
 62
     7
100
AcDbPolyline
 90
        5
 70
   128
 43
0.0
 10
286.1963134484
 20
387.2762380592
 10
292.4332973418
 20
387.2759580597
 10
298.7167370245
 20
387.275003792
 10
305.0631949155
 20
387.2737472028
 10
311.4334360792
 20
387.2718495617
  0
ARC
  5
B3
330
4EE
100
AcDbEntity
  8
0
  6
Continuous
 62
     7
100
AcDbCircle
 10
286.3665719241
 20
411.1412695898
 30
0.0
 40
18.67418754378906
100
AcDbArc
 50
247.2082048978
 51
270.7917951022
  0
LINE
  5
B4
330
4EE
100
AcDbEntity
  8
0
  6
Continuous
 62
     7
100
AcDbLine
 10
261.3573836238
 20
424.26803162
 30
0.0
 11
289.7668057217
 21
424.26803162
 31
0.0
  0
ARC
  5
B5
330
4EE
100
AcDbEntity
  8
0
  6
Continuous
 62
     7
100
AcDbCircle
 10
261.2856513291
 20
385.7762480562
 30
0.0
 40
1.5
100
AcDbArc
 50
91.8669251722
 51
180.0
  0
LINE
  5
B6
330
4EE
100
AcDbEntity
  8
0
  6
Continuous
 62
     7
100
AcDbLine
 10
261.2367839906
 20
387.2754518393
 30
0.0
 11
282.7856513291
 21
387.2754518393
 31
0.0
  0
LINE
  5
B7
330
4EE
100
AcDbEntity
  8
0
  6
Continuous
 62
     7
100
AcDbLine
 10
259.7856513291
 20
385.7762480562
 30
0.0
 11
259.7856513291
 21
375.2360900689
 31
0.0
  0
LINE
  5
B8
330
4EE
100
AcDbEntity
  8
0
  6
Continuous
 62
     7
100
AcDbLine
 10
259.7856513291
 20
290.9265569556
 30
0.0
 11
287.1767565591
 21
290.9265569556
 31
0.0
  0
LINE
  5
B9
330
4EE
100
AcDbEntity
  8
0
  6
Continuous
 62
     7
100
AcDbLine
 10
259.7856513291
 20
315.0789481553
 30
0.0
 11
259.7856513291
 21
290.9265569556
 31
0.0
  0
ARC
  5
BA
330
4EE
100
AcDbEntity
  8
0
  6
Continuous
 62
     7
100
AcDbCircle
 10
65.8143220595
 20
320.9265569556
 30
0.0
 40
194.0594525068798
100
AcDbArc
 50
358.2732403690999
 51
1.7267596309
  0
LINE
  5
BB
330
4EE
100
AcDbEntity
  8
0
  6
Continuous
 62
     7
100
AcDbLine
 10
259.7856513291
 20
375.2360900689
 30
0.0
 11
259.7856513291
 21
326.7741657559
 31
0.0
  0
LINE
  5
BC
330
4EE
100
AcDbEntity
  8
0
  6
Continuous
 62
     7
100
AcDbLine
 10
279.132498498
 20
393.9251880936
 30
0.0
 11
259.8621028648
 21
401.7109333116
 31
0.0
  0
LINE
  5
BD
330
4EE
100
AcDbEntity
  8
0
  6
Continuous
 62
     7
100
AcDbLine
 10
286.6246303663
 20
392.4688651849
 30
0.0
 11
296.6152850531
 21
392.4688651849
 31
0.0
  0
LINE
  5
BE
330
4EE
100
AcDbEntity
  8
0
  6
Continuous
 62
     7
100
AcDbLine
 10
305.7856513291
 20
290.9265569556
 30
0.0
 11
305.7856513291
 21
328.0779392479
 31
0.0
  0
LINE
  5
BF
330
4EE
100
AcDbEntity
  8
0
  6
Continuous
 62
     7
100
AcDbLine
 10
287.1767565591
 20
290.9265569556
 30
0.0
 11
305.7856513291
 21
290.9265569556
 31
0.0
  0
LWPOLYLINE
  5
C0
330
4EE
100
AcDbEntity
  8
0
  6
Continuous
 62
     7
100
AcDbPolyline
 90
        7
 70
   128
 43
0.0
 10
289.7668058601
 20
424.2678647051
 10
294.6811848931
 20
424.267935229
 10
299.6644658508
 20
424.2680567788
 10
304.7887658814
 20
424.2681116324
 10
309.9168649651
 20
424.267827294
 10
315.095608332
 20
424.2681335296
 10
320.2204080989
 20
424.2681424093
  0
LWPOLYLINE
  5
C1
330
4EE
100
AcDbEntity
  8
0
  6
Continuous
 62
     7
100
AcDbPolyline
 90
        4
 70
   128
 43
0.0
 10
377.6865170654
 20
387.4005435426
 10
339.0851153256
 20
387.4938322297
 10
321.7224292458
 20
387.5353816201
 10
304.2856513291
 20
387.5762968598
  0
LWPOLYLINE
  5
C2
330
4EE
100
AcDbEntity
  8
0
  6
Continuous
 62
     7
100
AcDbPolyline
 90
       11
 70
   128
 43
0.0
 10
282.7856513291
 20
387.2770851393
 10
286.1920931726
 20
387.2773694872
 10
289.5129826269
 20
387.2862975467
 10
292.8442239921
 20
387.3157031785
 10
295.8919027061
 20
387.3616652047
 10
298.5646276623
 20
387.4166585064
 10
300.7929134477
 20
387.4726421237
 10
302.5076620411
 20
387.5213917093
 10
303.6663641977
 20
387.5568658846
 10
304.1297074599
 20
387.5714051705
 10
304.2856513291
 20
387.5762968598
  0
LWPOLYLINE
  5
C3
330
4EE
100
AcDbEntity
  8
0
  6
Continuous
 62
     7
100
AcDbPolyline
 90
        9
 70
   128
 43
0.0
 10
261.2856513291
 20
387.2770428879
 10
261.2795429053
 20
387.2768442044
 10
261.2734344834
 20
387.2766454644
 10
261.2673260634
 20
387.276446668
 10
261.2612176452
 20
387.2762478151
 10
261.2551092288
 20
387.2760489058
 10
261.2490008142
 20
387.2758499401
 10
261.2428924015
 20
387.2756509179
 10
261.2367839906
 20
387.2754518393
  0
LINE
  5
C4
330
4EE
100
AcDbEntity
  8
0
  6
Continuous
 62
     7
100
AcDbLine
 10
282.7856513291
 20
387.2770428879
 30
0.0
 11
261.2856513291
 21
387.2770428879
 31
0.0
  0
LINE
  5
C5
330
4EE
100
AcDbEntity
  8
0
  6
Continuous
 62
     7
100
AcDbLine
 10
391.2856513291
 20
385.7482012259
 30
0.0
 11
391.2856513291
 21
376.1651696171
 31
0.0
  0
LWPOLYLINE
  5
C6
330
4EE
100
AcDbEntity
  8
0
  6
Continuous
 62
     7
100
AcDbPolyline
 90
       11
 70
   128
 43
0.0
 10
364.4046039204
 20
366.8369851949
 10
364.4497599281
 20
366.851145195
 10
364.8488168504
 20
366.9753318154
 10
365.5873371666
 20
367.2047042781
 10
366.6086681967
 20
367.5214173702
 10
367.9419708924
 20
367.9340856869
 10
369.4929959948
 20
368.4130031801
 10
371.296722044
 20
368.9683670037
 10
373.1481802968
 20
369.5365862847
 10
375.145375323
 20
370.1469265315
 10
376.2178126211
 20
370.4732174478
  0
LWPOLYLINE
  5
C7
330
4EE
100
AcDbEntity
  8
0
  6
Continuous
 62
     7
100
AcDbPolyline
 90
        3
 70
   128
 43
0.0
 10
364.3631857816
 20
366.8239973425
 10
360.5929291439
 20
366.7878057368
 10
356.7929260561
 20
366.7515549057
  0
LINE
  5
C8
330
4EE
100
AcDbEntity
  8
0
  6
Continuous
 62
     7
100
AcDbLine
 10
389.537432149
 20
374.5480370141
 30
0.0
 11
390.2924866835
 21
374.7952691358
 31
0.0
  0
LINE
  5
C9
330
4EE
100
AcDbEntity
  8
0
  6
Continuous
 62
     7
100
AcDbLine
 10
377.1789613842
 20
370.7466849883
 30
0.0
 11
384.1923424629
 21
372.8981305674
 31
0.0
  0
LINE
  5
CA
330
4EE
100
AcDbEntity
  8
0
  6
Continuous
 62
     7
100
AcDbLine
 10
376.2176828156
 20
370.4736441895
 30
0.0
 11
377.1789046246
 21
370.7466675765
 31
0.0
  0
LINE
  5
CB
330
4EE
100
AcDbEntity
  8
0
  6
Continuous
 62
     7
100
AcDbLine
 10
383.3350814178
 20
387.3873738826
 30
0.0
 11
388.0920781635
 21
387.3768126526
 31
0.0
  0
LINE
  5
CC
330
4EE
100
AcDbEntity
  8
0
  6
Continuous
 62
     7
100
AcDbLine
 10
388.0920781635
 20
387.3768126526
 30
0.0
 11
389.8567951123
 21
387.3367613186
 31
0.0
  0
LINE
  5
CD
330
4EE
100
AcDbEntity
  8
0
  6
Continuous
 62
     7
100
AcDbLine
 10
305.8870241835
 20
405.1009840096
 30
0.0
 11
305.9898715467
 21
405.4309151954
 31
0.0
  0
ARC
  5
CE
330
4EE
100
AcDbEntity
  8
0
  6
Continuous
 62
     7
100
AcDbCircle
 10
317.0363304461
 20
402.0652056465
 30
0.0
 40
11.55521442496548
100
AcDbArc
 50
164.7685201714
 51
183.2651187792
  0
LINE
  5
CF
330
4EE
100
AcDbEntity
  8
0
  6
Continuous
 62
     7
100
AcDbLine
 10
305.5370241835
 20
392.4688651849
 30
0.0
 11
296.6152850531
 21
392.4688651849
 31
0.0
  0
ARC
  5
D0
330
4EE
100
AcDbEntity
  8
0
  6
Continuous
 62
     7
100
AcDbCircle
 10
389.8307062639
 20
376.1749879429
 30
0.0
 40
1.454945065154941
100
AcDbArc
 50
288.5049655597
 51
359.9999997923999
  0
ARC
  5
D1
330
4EE
100
AcDbEntity
  8
0
  6
Continuous
 62
     7
100
AcDbCircle
 10
389.7856349191
 20
385.8384337722
 30
0.0
 40
1.500016410014105
100
AcDbArc
 50
359.9996657151
 51
87.28089001249998
  0
LINE
  5
D2
330
4EE
100
AcDbEntity
  8
0
  6
Continuous
 62
     7
100
AcDbLine
 10
391.2856513291
 20
385.8384250205
 30
0.0
 11
391.2856513291
 21
385.7482012259
 31
0.0
  0
LINE
  5
D3
330
4EE
100
AcDbEntity
  8
0
  6
Continuous
 62
     7
100
AcDbLine
 10
325.5493447876
 20
419.3673534058
 30
0.0
 11
320.9890902564
 21
419.335516306
 31
0.0
  0
LINE
  5
D4
330
4EE
100
AcDbEntity
  8
0
  6
Continuous
 62
     7
100
AcDbLine
 10
366.0537792306
 20
419.650132297
 30
0.0
 11
325.5493447876
 21
419.3673534058
 31
0.0
  0
LINE
  5
D5
330
4EE
100
AcDbEntity
  8
0
  6
Continuous
 62
     7
100
AcDbLine
 10
368.7370241835
 20
422.7688651849
 30
0.0
 11
368.7370241835
 21
421.1584295941
 31
0.0
  0
ARC
  5
D6
330
4EE
100
AcDbEntity
  8
0
  6
Continuous
 62
     7
100
AcDbCircle
 10
367.2370241835
 20
421.1584295941
 30
0.0
 40
1.50000000000004
100
AcDbArc
 50
270.4
 51
0.0
  0
LINE
  5
D7
330
4EE
100
AcDbEntity
  8
0
  6
Continuous
 62
     7
100
AcDbLine
 10
367.247496074
 20
419.658466148
 30
0.0
 11
366.0537792306
 21
419.650132297
 31
0.0
  0
ARC
  5
D8
330
4EE
100
AcDbEntity
  8
0
  6
Continuous
 62
     7
100
AcDbCircle
 10
367.2370241835
 20
422.7688651849
 30
0.0
 40
1.500000000000012
100
AcDbArc
 50
0.0
 51
88.0897868283
  0
LINE
  5
D9
330
4EE
100
AcDbEntity
  8
0
  6
Continuous
 62
     7
100
AcDbLine
 10
377.1789046246
 20
370.7466675765
 30
0.0
 11
376.2178063628
 21
370.4518382234
 31
0.0
  0
LINE
  5
DA
330
4EE
100
AcDbEntity
  8
0
  6
Continuous
 62
     7
100
AcDbLine
 10
376.2178063628
 20
370.4518382234
 30
0.0
 11
364.4202516502
 21
366.832785352
 31
0.0
  0
LINE
  5
DB
330
4EE
100
AcDbEntity
  8
0
  6
Continuous
 62
     7
100
AcDbLine
 10
373.6812328928
 20
364.5436334413
 30
0.0
 11
372.234758613
 21
367.6456075446
 31
0.0
  0
LINE
  5
DC
330
4EE
100
AcDbEntity
  8
0
  6
Continuous
 62
     7
100
AcDbLine
 10
373.6812328928
 20
364.5436334413
 30
0.0
 11
367.1520389032
 21
361.4990202824
 31
0.0
  0
LINE
  5
DD
330
4EE
100
AcDbEntity
  8
0
  6
Continuous
 62
     7
100
AcDbLine
 10
388.9034257921
 20
371.6418585641
 30
0.0
 11
382.3742318026
 21
368.5972454052
 31
0.0
  0
LINE
  5
DE
330
4EE
100
AcDbEntity
  8
0
  6
Continuous
 62
     7
100
AcDbLine
 10
380.9277575228
 20
371.6992195086
 30
0.0
 11
382.3742318026
 21
368.5972454052
 31
0.0
  0
LINE
  5
DF
330
4EE
100
AcDbEntity
  8
0
  6
Continuous
 62
     7
100
AcDbLine
 10
372.234758613
 20
367.6456075446
 30
0.0
 11
380.9277575228
 21
371.6992195086
 31
0.0
  0
LWPOLYLINE
  5
E0
330
4EE
100
AcDbEntity
  8
0
  6
Continuous
 62
     7
100
AcDbPolyline
 90
        3
 70
   128
 43
0.0
 10
378.2717311149
 20
366.0471823784
 10
377.1581653937
 20
365.5702409586
 10
373.6812328928
 20
364.5436334413
  0
LINE
  5
E1
330
4EE
100
AcDbEntity
  8
0
  6
Continuous
 62
     7
100
AcDbLine
 10
378.2717311149
 20
366.0471823784
 30
0.0
 11
368.3023454575
 21
361.3983814993
 31
0.0
  0
LWPOLYLINE
  5
E2
330
4EE
100
AcDbEntity
  8
0
  6
Continuous
 62
     7
100
AcDbPolyline
 90
        3
 70
   128
 43
0.0
 10
382.3742318026
 20
368.5972454052
 10
380.4086800835
 20
367.2124970362
 10
378.2717311149
 20
366.0471823784
  0
LINE
  5
E3
330
4EE
100
AcDbEntity
  8
0
  6
Continuous
 62
     7
100
AcDbLine
 10
388.2411167723
 20
370.6959832576
 30
0.0
 11
378.2717311149
 21
366.0471823784
 31
0.0
  0
LINE
  5
E4
330
4EE
100
AcDbEntity
  8
0
  6
Continuous
 62
     7
100
AcDbLine
 10
336.98327768
 20
366.5612814913
 30
0.0
 11
356.7929275288
 21
366.7514463198
 31
0.0
  0
LINE
  5
E5
330
4EE
100
AcDbEntity
  8
0
  6
Continuous
 62
     7
100
AcDbLine
 10
305.8870241835
 20
399.4688651849
 30
0.0
 11
305.8870241835
 21
405.1009840096
 31
0.0
  0
ARC
  5
E6
330
4EE
100
AcDbEntity
  8
0
  6
Continuous
 62
     7
100
AcDbCircle
 10
323.4276583898
 20
402.6024361831
 30
0.0
 40
17.96731689703082
100
AcDbArc
 50
183.810912735
 51
190.0439734285
  0
LWPOLYLINE
  5
E7
330
4EE
100
AcDbEntity
  8
0
  6
Continuous
 62
     7
100
AcDbPolyline
 90
        3
 70
   128
 43
0.0
 10
306.4875715534
 20
406.6782761199
 10
306.1351557675
 20
405.8444644339
 10
305.9898277675
 20
405.4312118357
  0
LWPOLYLINE
  5
E8
330
4EE
100
AcDbEntity
  8
0
  6
Continuous
 62
     7
100
AcDbPolyline
 90
        4
 70
   128
 43
0.0
 10
306.6177466295
 20
406.8827310137
 10
306.618409397
 20
406.8995828487
 10
306.5922578939
 20
406.8748904547
 10
306.4875715534
 20
406.6782761199
  0
LINE
  5
E9
330
4EE
100
AcDbEntity
  8
0
  6
Continuous
 62
     7
100
AcDbLine
 10
307.2997305797
 20
408.7188651849
 30
0.0
 11
307.2605222142
 21
408.6559751341
 31
0.0
  0
LINE
  5
EA
330
4EE
100
AcDbEntity
  8
0
  6
Continuous
 62
     7
100
AcDbLine
 10
307.2997305797
 20
408.7188651849
 30
0.0
 11
307.5241845092
 21
409.1527473456
 31
0.0
  0
LINE
  5
EB
330
4EE
100
AcDbEntity
  8
0
  6
Continuous
 62
     7
100
AcDbLine
 10
321.0366095728
 20
419.0489954594
 30
0.0
 11
322.7524642703
 21
419.2570974165
 31
0.0
  0
LINE
  5
EC
330
4EE
100
AcDbEntity
  8
0
  6
Continuous
 62
     7
100
AcDbLine
 10
305.7369292183
 20
396.9326205056
 30
0.0
 11
305.7357051546
 21
399.4688651849
 31
0.0
  0
LINE
  5
ED
330
4EE
100
AcDbEntity
  8
0
  6
Continuous
 62
     7
100
AcDbLine
 10
240.3451188336
 20
328.9265569556
 30
0.0
 11
240.3451188336
 21
332.9265569556
 31
0.0
  0
ARC
  5
EE
330
4EE
100
AcDbEntity
  8
0
  6
Continuous
 62
     8
100
AcDbCircle
 10
286.3399162395
 20
392.6203188516
 30
0.0
 40
0.3224908481267473
100
AcDbArc
 50
331.9892575095
 51
8.657963033000001
  0
ARC
  5
EF
330
4EE
100
AcDbEntity
  8
0
  6
Continuous
 62
     8
100
AcDbCircle
 10
279.4778292841
 20
393.9412525157
 30
0.0
 40
0.3457042341253185
100
AcDbArc
 50
150.6637390956
 51
182.6634188055
  0
LWPOLYLINE
  5
F0
330
4EE
100
AcDbEntity
  8
0
  6
Continuous
 62
     8
100
AcDbPolyline
 90
        3
 70
   128
 43
0.0
 10
282.7856513291
 20
387.2754890538
 10
282.7857113291
 20
387.2754890538
 10
286.1963134484
 20
387.2762380592
  0
LINE
  5
F1
330
4EE
100
AcDbEntity
  8
0
  6
Continuous
 62
     8
100
AcDbLine
 10
286.4268581597
 20
374.4943721465
 30
0.0
 11
286.4268581597
 21
375.4516157343
 31
0.0
  0
LWPOLYLINE
  5
F2
330
4EE
100
AcDbEntity
  8
0
  6
Continuous
 62
     8
100
AcDbPolyline
 90
        9
 70
   128
 43
0.0
 10
296.6152850531
 20
392.4688651849
 10
296.6390351792
 20
392.4727081288
 10
296.6618726014
 20
392.4840892784
 10
296.6829196902
 20
392.5025712625
 10
296.7013676178
 20
392.5274438287
 10
296.7165074407
 20
392.5577511383
 10
296.727757344
 20
392.5923284984
 10
296.7346850003
 20
392.6298471205
 10
296.7370241835
 20
392.6688651849
  0
LWPOLYLINE
  5
F3
330
4EE
100
AcDbEntity
  8
0
  6
Continuous
 62
     8
100
AcDbPolyline
 90
        9
 70
   128
 43
0.0
 10
366.0435688036
 20
424.268377998
 10
366.5949283855
 20
424.2687480279
 10
366.8676959921
 20
424.2683981617
 10
366.9999448997
 20
424.2677747651
 10
367.0630631091
 20
424.2673776896
 10
367.1202435092
 20
424.2671001821
 10
367.1594288202
 20
424.2673333551
 10
367.2704846569
 20
424.2687969514
 10
367.2870238791
 20
424.2682827379
  0
LINE
  5
F4
330
4EE
100
AcDbEntity
  8
0
  6
Continuous
 62
     8
100
AcDbLine
 10
325.5391346954
 20
424.26803162
 30
0.0
 11
366.0435691383
 21
424.26803162
 31
0.0
  0
LWPOLYLINE
  5
F5
330
4EE
100
AcDbEntity
  8
0
  6
Continuous
 62
     8
100
AcDbPolyline
 90
        3
 70
   128
 43
0.0
 10
320.2204080989
 20
424.2681424093
 10
322.8796302643
 20
424.2679093536
 10
325.5391349262
 20
424.2677890435
  0
ARC
  5
F6
330
4EE
100
AcDbEntity
  8
0
  6
Continuous
 62
     8
100
AcDbCircle
 10
394.9010297603
 20
661.6156683077
 30
0.0
 40
274.4725900463347
100
AcDbArc
 50
267.5939343886
 51
268.4154712079999
  0
LWPOLYLINE
  5
F7
330
4EE
100
AcDbEntity
  8
0
  6
Continuous
 62
     8
100
AcDbPolyline
 90
        4
 70
   128
 43
0.0
 10
331.5648149111
 20
387.2654142491
 10
334.5648066628
 20
387.264503347
 10
346.5647736374
 20
387.2608009699
 10
387.3116733216
 20
387.248023462
  0
LWPOLYLINE
  5
F8
330
4EE
100
AcDbEntity
  8
0
  6
Continuous
 62
     8
100
AcDbPolyline
 90
        4
 70
   128
 43
0.0
 10
311.4334360792
 20
387.2718495617
 10
314.4334278251
 20
387.2709501659
 10
320.4334111883
 20
387.2690599635
 10
331.5648149111
 20
387.2654142491
  0
LINE
  5
F9
330
4EE
100
AcDbEntity
  8
0
  6
Continuous
 62
     8
100
AcDbLine
 10
282.7856513291
 20
387.2770429325
 30
0.0
 11
282.7856513291
 21
387.2754506096
 31
0.0
  0
ARC
  5
FA
330
4EE
100
AcDbEntity
  8
0
  6
Continuous
 62
     8
100
AcDbCircle
 10
388.8989453887
 20
427.805522889
 30
0.0
 40
40.56756113537673
100
AcDbArc
 50
268.8635937682
 51
271.2785510854
  0
ARC
  5
FB
330
4EE
100
AcDbEntity
  8
0
  6
Continuous
 62
     8
100
AcDbCircle
 10
389.7856645052
 20
385.7481886322
 30
0.0
 40
1.499986823884118
100
AcDbArc
 50
0.0004810485
 51
89.2945547806
  0
LWPOLYLINE
  5
FC
330
4EE
100
AcDbEntity
  8
0
  6
Continuous
 62
     8
100
AcDbPolyline
 90
        3
 70
   128
 43
0.0
 10
387.3102504284
 20
387.2479421067
 10
387.3116717417
 20
387.2479398304
 10
388.0943799021
 20
387.2459409033
  0
ARC
  5
FD
330
4EE
100
AcDbEntity
  8
0
  6
Continuous
 62
     8
100
AcDbCircle
 10
389.8839729461
 20
376.1657036231
 30
0.0
 40
1.401678484698624
100
AcDbArc
 50
285.3810054172
 51
359.9781716765
  0
LWPOLYLINE
  5
FE
330
4EE
100
AcDbEntity
  8
0
  6
Continuous
 62
     8
100
AcDbPolyline
 90
        5
 70
   128
 43
0.0
 10
390.2924866835
 20
374.7952691358
 10
390.2919218767
 20
374.7973724189
 10
390.2917909724
 20
374.7983837917
 10
390.2916981912
 20
374.7993516963
 10
390.2557492246
 20
374.814228513
  0
LWPOLYLINE
  5
FF
330
4EE
100
AcDbEntity
  8
0
  6
Continuous
 62
     8
100
AcDbPolyline
 90
        3
 70
   128
 43
0.0
 10
389.8041323891
 20
387.2480617632
 10
389.835390783
 20
387.2847671337
 10
389.8567951123
 20
387.3367613186
  0
LINE
  5
100
330
4EE
100
AcDbEntity
  8
0
  6
Continuous
 62
     8
100
AcDbLine
 10
305.4800688846
 20
400.3969046944
 30
0.0
 11
305.4800688846
 21
400.3612192181
 31
0.0
  0
LINE
  5
101
330
4EE
100
AcDbEntity
  8
0
  6
Continuous
 62
     8
100
AcDbLine
 10
306.3877783072
 20
406.9808833467
 30
0.0
 11
305.9897981308
 21
405.4310742119
 31
0.0
  0
LINE
  5
102
330
4EE
100
AcDbEntity
  8
0
  6
Continuous
 62
     8
100
AcDbLine
 10
305.4806088627
 20
400.3952023358
 30
0.0
 11
305.4998967636
 21
401.4076634773
 31
0.0
  0
LWPOLYLINE
  5
103
330
4EE
100
AcDbEntity
  8
0
  6
Continuous
 62
     8
100
AcDbPolyline
 90
        3
 70
   128
 43
0.0
 10
336.98327768
 20
366.5612814913
 10
336.8345654471
 20
366.7578506386
 10
336.3993937124
 20
367.3778804388
  0
ARC
  5
104
330
4EE
100
AcDbEntity
  8
0
  6
Continuous
 62
     8
100
AcDbCircle
 10
316.939131429
 20
402.5484081738
 30
0.0
 40
11.44455549621282
100
AcDbArc
 50
147.7465309281
 51
157.2150880179
  0
LINE
  5
105
330
4EE
100
AcDbEntity
  8
0
  6
Continuous
 62
     8
100
AcDbLine
 10
322.7524642703
 20
419.2570974165
 30
0.0
 11
323.1832341966
 21
419.3093419712
 31
0.0
  0
LINE
  5
106
330
4EE
100
AcDbEntity
  8
0
  6
Continuous
 62
     8
100
AcDbLine
 10
255.2245040752
 20
327.6105972422
 30
0.0
 11
258.9832745583
 21
328.9786778155
 31
0.0
  0
LINE
  5
107
330
4EE
100
AcDbEntity
  8
0
  6
Continuous
 62
     8
100
AcDbLine
 10
253.3451188336
 20
328.9265569556
 30
0.0
 11
253.3451188336
 21
332.9265569556
 31
0.0
  0
LWPOLYLINE
  5
108
330
4EE
100
AcDbEntity
  8
0
  6
Continuous
 62
     7
100
AcDbPolyline
 90
        5
 70
   128
 43
0.0
 10
143.1879259391
 20
387.3824452213
 10
141.460304769
 20
387.3776158958
 10
139.3825323738
 20
387.3680559208
 10
137.5549868447
 20
387.3567440137
 10
135.8840834248
 20
387.3440618847
  0
LWPOLYLINE
  5
109
330
4EE
100
AcDbEntity
  8
0
  6
Continuous
 62
     7
100
AcDbPolyline
 90
        6
 70
   128
 43
0.0
 10
158.7228993986
 20
387.3300594748
 10
157.2474476908
 20
387.3432275353
 10
155.4666053136
 20
387.3567440838
 10
153.6390619572
 20
387.3680559641
 10
151.5612927837
 20
387.3776159133
 10
149.8427392749
 20
387.3824198881
  0
LINE
  5
10A
330
4EE
100
AcDbEntity
  8
0
  6
Continuous
 62
     7
100
AcDbLine
 10
158.5108011586
 20
369.6724135266
 30
0.0
 11
158.5108011586
 21
370.4518382234
 31
0.0
  0
LINE
  5
10B
330
4EE
100
AcDbEntity
  8
0
  6
Continuous
 62
     7
100
AcDbLine
 10
134.5108011586
 20
370.4518382234
 30
0.0
 11
134.5108011586
 21
369.6724135266
 31
0.0
  0
LINE
  5
10C
330
4EE
100
AcDbEntity
  8
0
  6
Continuous
 62
     7
100
AcDbLine
 10
139.4351600885
 20
362.4744136494
 30
0.0
 11
140.0247968444
 21
362.2924920858
 31
0.0
  0
LINE
  5
10D
330
4EE
100
AcDbEntity
  8
0
  6
Continuous
 62
     7
100
AcDbLine
 10
152.9968054729
 20
362.2924920858
 30
0.0
 11
153.5864422287
 21
362.4744136494
 31
0.0
  0
LWPOLYLINE
  5
10E
330
4EE
100
AcDbEntity
  8
0
  6
Continuous
 62
     7
100
AcDbPolyline
 90
       10
 70
   128
 43
0.0
 10
158.4153897264
 20
369.1428617717
 10
159.9768800584
 20
369.9860139067
 10
161.4325839318
 20
370.884827614
 10
162.3246080943
 20
371.4756395582
 10
162.699168853
 20
371.7314675631
 10
163.0143080622
 20
371.9501089563
 10
163.2705833131
 20
372.1304117934
 10
163.4683485888
 20
372.2716447706
 10
163.6891484644
 20
372.4352499509
 10
163.6859721114
 20
372.4383056474
  0
LWPOLYLINE
  5
10F
330
4EE
100
AcDbEntity
  8
0
  6
Continuous
 62
     7
100
AcDbPolyline
 90
       10
 70
   128
 43
0.0
 10
129.3356302058
 20
372.4383056474
 10
129.3324538529
 20
372.4352499509
 10
129.5532537285
 20
372.2716447706
 10
129.7510190042
 20
372.1304117934
 10
130.0072942551
 20
371.9501089563
 10
130.3224334643
 20
371.7314675631
 10
130.904518718
 20
371.3358135129
 10
131.5890183854
 20
370.884827614
 10
133.0447222589
 20
369.9860139067
 10
134.6296767961
 20
369.130191892
  0
LWPOLYLINE
  5
110
330
4EE
100
AcDbEntity
  8
0
  6
Continuous
 62
     7
100
AcDbPolyline
 90
        3
 70
   128
 43
0.0
 10
167.9857653866
 20
424.2672327695
 10
157.2968140266
 20
424.5488936321
 10
146.3512364892
 20
424.6518806858
  0
LWPOLYLINE
  5
111
330
4EE
100
AcDbEntity
  8
0
  6
Continuous
 62
     7
100
AcDbPolyline
 90
        3
 70
   128
 43
0.0
 10
146.6178441896
 20
424.6518806858
 10
135.6722666522
 20
424.5488936321
 10
124.9833152922
 20
424.2672327695
  0
LINE
  5
112
330
4EE
100
AcDbEntity
  8
0
  6
Continuous
 62
     7
100
AcDbLine
 10
125.0108011586
 20
388.5999259599
 30
0.0
 11
125.0108011586
 21
387.2770428879
 31
0.0
  0
LINE
  5
113
330
4EE
100
AcDbEntity
  8
0
  6
Continuous
 62
     7
100
AcDbLine
 10
168.0108011586
 20
387.2770851393
 30
0.0
 11
168.0108011586
 21
388.5999259599
 31
0.0
  0
ARC
  5
114
330
4EE
100
AcDbEntity
  8
0
  6
Continuous
 62
     7
100
AcDbCircle
 10
158.0108011586
 20
388.5999259599
 30
0.0
 40
10.00000000000003
100
AcDbArc
 50
0.0
 51
9.0468459803
  0
ARC
  5
115
330
4EE
100
AcDbEntity
  8
0
  6
Continuous
 62
     7
100
AcDbCircle
 10
135.0108011586
 20
388.5999259599
 30
0.0
 40
10.00000000000003
100
AcDbArc
 50
170.9531540197
 51
180.0
  0
ARC
  5
116
330
4EE
100
AcDbEntity
  8
0
  6
Continuous
 62
     7
100
AcDbCircle
 10
146.5108011586
 20
386.7688651849
 30
0.0
 40
21.64486082191339
100
AcDbArc
 50
164.6613391882
 51
170.9531540197
  0
ARC
  5
117
330
4EE
100
AcDbEntity
  8
0
  6
Continuous
 62
     7
100
AcDbCircle
 10
146.5108011586
 20
386.7688651849
 30
0.0
 40
21.64486082191337
100
AcDbArc
 50
9.0468459803
 51
15.2684548419
  0
LINE
  5
118
330
4EE
100
AcDbEntity
  8
0
  6
Continuous
 62
     7
100
AcDbLine
 10
169.4845403394
 20
392.9674508597
 30
0.0
 11
169.4845403394
 21
422.7688651849
 31
0.0
  0
LINE
  5
119
330
4EE
100
AcDbEntity
  8
0
  6
Continuous
 62
     7
100
AcDbLine
 10
123.4845403394
 20
422.7688651849
 30
0.0
 11
123.4845403394
 21
392.9674508597
 31
0.0
  0
ARC
  5
11A
330
4EE
100
AcDbEntity
  8
0
  6
Continuous
 62
     7
100
AcDbCircle
 10
124.9845403394
 20
422.7688651849
 30
0.0
 40
1.5
100
AcDbArc
 50
90.0
 51
180.0
  0
ARC
  5
11B
330
4EE
100
AcDbEntity
  8
0
  6
Continuous
 62
     7
100
AcDbCircle
 10
167.9845403394
 20
422.7688651849
 30
0.0
 40
1.5
100
AcDbArc
 50
0.0
 51
90.0
  0
LINE
  5
11C
330
4EE
100
AcDbEntity
  8
0
  6
Continuous
 62
     7
100
AcDbLine
 10
123.5108011586
 20
375.4221586031
 30
0.0
 11
123.5108011586
 21
290.9265569556
 31
0.0
  0
LINE
  5
11D
330
4EE
100
AcDbEntity
  8
0
  6
Continuous
 62
     7
100
AcDbLine
 10
169.5108011586
 20
290.9265569556
 30
0.0
 11
169.5108011586
 21
375.4221586031
 31
0.0
  0
LWPOLYLINE
  5
11E
330
4EE
100
AcDbEntity
  8
0
  6
Continuous
 62
     7
100
AcDbPolyline
 90
        6
 70
   128
 43
0.0
 10
168.9539071946
 20
392.4689097132
 10
168.9739126113
 20
392.4689144119
 10
169.1969274595
 20
392.4917959337
 10
169.4103672022
 20
392.646999667
 10
169.482284162
 20
392.8916722239
 10
169.4780335907
 20
392.9615492741
  0
ARC
  5
11F
330
4EE
100
AcDbEntity
  8
0
  6
Continuous
 62
     7
100
AcDbCircle
 10
123.9216104914
 20
392.8864113488
 30
0.0
 40
0.4280965954983967
100
AcDbArc
 50
172.7069791065
 51
283.0370773615001
  0
LINE
  5
120
330
4EE
100
AcDbEntity
  8
0
  6
Continuous
 62
     7
100
AcDbLine
 10
123.5108011586
 20
385.7762480562
 30
0.0
 11
123.5108011586
 21
375.4221586031
 31
0.0
  0
LINE
  5
121
330
4EE
100
AcDbEntity
  8
0
  6
Continuous
 62
     7
100
AcDbLine
 10
169.5108011586
 20
375.4221586031
 30
0.0
 11
169.5108011586
 21
385.776287774
 31
0.0
  0
LINE
  5
122
330
4EE
100
AcDbEntity
  8
0
  6
Continuous
 62
     7
100
AcDbLine
 10
158.9700085784
 20
370.7493268976
 30
0.0
 11
159.0536466351
 21
370.4736441895
 31
0.0
  0
LWPOLYLINE
  5
123
330
4EE
100
AcDbEntity
  8
0
  6
Continuous
 62
     7
100
AcDbPolyline
 90
        9
 70
   128
 43
0.0
 10
158.9701235325
 20
370.7490680946
 10
158.7649508475
 20
371.1735366721
 10
158.027839262
 20
371.8632337665
 10
156.8830363016
 20
372.4770062726
 10
155.3479027676
 20
373.0163190867
 10
153.4890169033
 20
373.4618922791
 10
151.3744154688
 20
373.7940227002
 10
148.9974760569
 20
374.0079286502
 10
146.5108011586
 20
374.0792731233
  0
LWPOLYLINE
  5
124
330
4EE
100
AcDbEntity
  8
0
  6
Continuous
 62
     7
100
AcDbPolyline
 90
        9
 70
   128
 43
0.0
 10
134.0508240725
 20
370.7466849883
 10
134.2566514698
 20
371.1735366721
 10
134.9937630552
 20
371.8632337665
 10
136.1385660156
 20
372.4770062726
 10
137.6736995496
 20
373.0163190867
 10
139.532585414
 20
373.4618922791
 10
141.6471868485
 20
373.7940227002
 10
144.0241262603
 20
374.0079286502
 10
146.5108011586
 20
374.0792731233
  0
LINE
  5
125
330
4EE
100
AcDbEntity
  8
0
  6
Continuous
 62
     7
100
AcDbLine
 10
133.9679556822
 20
370.4736441895
 30
0.0
 11
134.0515753079
 21
370.7466675765
 31
0.0
  0
LINE
  5
126
330
4EE
100
AcDbEntity
  8
0
  6
Continuous
 62
     7
100
AcDbLine
 10
134.4719005422
 20
387.330219727
 30
0.0
 11
135.8840834248
 21
387.3440618847
 31
0.0
  0
LINE
  5
127
330
4EE
100
AcDbEntity
  8
0
  6
Continuous
 62
     7
100
AcDbLine
 10
143.1879259391
 20
387.3824452213
 30
0.0
 11
143.3739422698
 21
387.3826941839
 31
0.0
  0
LWPOLYLINE
  5
128
330
4EE
100
AcDbEntity
  8
0
  6
Continuous
 62
     7
100
AcDbPolyline
 90
       23
 70
   128
 43
0.0
 10
157.5108011586
 20
366.0471823784
 10
157.3988370193
 20
366.7087757237
 10
157.0652238684
 20
367.3569009364
 10
156.5167531075
 20
367.9783640561
 10
155.7645900198
 20
368.5605138859
 10
154.8240464765
 20
369.0914995341
 10
153.714269232
 20
369.5605116641
 10
152.4578501506
 20
369.9580025414
 10
151.0803663016
 20
370.2758803981
 10
149.6098592839
 20
370.5076741577
 10
148.0762643796
 20
370.6486651676
 10
146.5108011586
 20
370.6959832576
 10
144.9453379376
 20
370.6486651676
 10
143.4117430334
 20
370.5076741577
 10
141.9412360156
 20
370.2758803981
 10
140.5637521666
 20
369.9580025414
 10
139.3073330852
 20
369.5605116641
 10
138.1975558407
 20
369.0914995341
 10
137.2570122975
 20
368.5605138859
 10
136.5048492097
 20
367.9783640561
 10
135.9563784489
 20
367.3569009364
 10
135.6227652979
 20
366.7087757237
 10
135.5108011586
 20
366.0471823784
  0
LINE
  5
129
330
4EE
100
AcDbEntity
  8
0
  6
Continuous
 62
     7
100
AcDbLine
 10
135.5108011586
 20
368.5972454052
 30
0.0
 11
135.5108011586
 21
366.0471823784
 31
0.0
  0
LWPOLYLINE
  5
12A
330
4EE
100
AcDbEntity
  8
0
  6
Continuous
 62
     7
100
AcDbPolyline
 90
       18
 70
   128
 43
0.0
 10
157.5108011586
 20
368.5972454052
 10
156.756317572
 20
369.2106840063
 10
155.8114271804
 20
369.7750552383
 10
154.6936902074
 20
370.2798705988
 10
153.4238791273
 20
370.7157483958
 10
152.0255926209
 20
371.0745881006
 10
150.524817008
 20
371.3497208916
 10
148.9494433073
 20
371.5360335902
 10
147.3287488983
 20
371.630063686
 10
145.6928534189
 20
371.630063686
 10
144.07215901
 20
371.5360335902
 10
142.4967853092
 20
371.3497208916
 10
140.9960096963
 20
371.0745881006
 10
139.5977231899
 20
370.7157483958
 10
138.3279121099
 20
370.2798705988
 10
137.2101751369
 20
369.7750552383
 10
136.2652847452
 20
369.2106840063
 10
135.5108011586
 20
368.5972454052
  0
LINE
  5
12B
330
4EE
100
AcDbEntity
  8
0
  6
Continuous
 62
     7
100
AcDbLine
 10
157.5108011586
 20
368.5972454052
 30
0.0
 11
157.5108011586
 21
366.0471823784
 31
0.0
  0
ARC
  5
12C
330
4EE
100
AcDbEntity
  8
0
  6
Continuous
 62
     7
100
AcDbCircle
 10
141.998073941
 20
372.0910458319
 30
0.0
 40
9.952293300946252
100
AcDbArc
 50
229.3197543049
 51
255.0770458253
  0
ARC
  5
12D
330
4EE
100
AcDbEntity
  8
0
  6
Continuous
 62
     7
100
AcDbCircle
 10
151.0235283762
 20
372.0910458319
 30
0.0
 40
9.952293300947947
100
AcDbArc
 50
284.9229541747
 51
310.6802456951
  0
ARC
  5
12E
330
4EE
100
AcDbEntity
  8
0
  6
Continuous
 62
     7
100
AcDbCircle
 10
155.8876521622
 20
369.6724135266
 30
0.0
 40
2.596643054663986
100
AcDbArc
 50
308.6891720236
 51
51.31082797639999
  0
LINE
  5
12F
330
4EE
100
AcDbEntity
  8
0
  6
Continuous
 62
     7
100
AcDbLine
 10
157.5108011586
 20
371.6992195086
 30
0.0
 11
157.5108011586
 21
368.5972454052
 31
0.0
  0
LINE
  5
130
330
4EE
100
AcDbEntity
  8
0
  6
Continuous
 62
     7
100
AcDbLine
 10
135.5108011586
 20
371.6992195086
 30
0.0
 11
135.5108011586
 21
368.5972454052
 31
0.0
  0
ARC
  5
131
330
4EE
100
AcDbEntity
  8
0
  6
Continuous
 62
     7
100
AcDbCircle
 10
137.1339501551
 20
369.6724135266
 30
0.0
 40
2.596643054664038
100
AcDbArc
 50
128.6891720236
 51
231.3108279764
  0
LWPOLYLINE
  5
132
330
4EE
100
AcDbEntity
  8
0
  6
Continuous
 62
     7
100
AcDbPolyline
 90
       12
 70
   128
 43
0.0
 10
134.5108011586
 20
370.4518382234
 10
134.632943856
 20
370.957540569
 10
134.9968854752
 20
371.4529482732
 10
135.5952172144
 20
371.9279762637
 10
136.4157587646
 20
372.3729543405
 10
137.4418062664
 20
372.7788240333
 10
138.6524723513
 20
373.1373230054
 10
140.0231113492
 20
373.4411532517
 10
141.5258210026
 20
373.6841296644
 10
143.1300104765
 20
373.8613059446
 10
144.8030230993
 20
373.9690752941
 10
146.5108011586
 20
374.0052438397
  0
LWPOLYLINE
  5
133
330
4EE
100
AcDbEntity
  8
0
  6
Continuous
 62
     7
100
AcDbPolyline
 90
       12
 70
   128
 43
0.0
 10
146.5108011586
 20
374.0052438397
 10
148.2185792179
 20
373.9690752941
 10
149.8915918407
 20
373.8613059446
 10
151.4957813146
 20
373.6841296644
 10
152.9984909681
 20
373.4411532517
 10
154.369129966
 20
373.1373230054
 10
155.5797960509
 20
372.7788240333
 10
156.6058435526
 20
372.3729543405
 10
157.4263851029
 20
371.9279762637
 10
158.024716842
 20
371.4529482732
 10
158.3886584612
 20
370.957540569
 10
158.5108011586
 20
370.4518382234
  0
LWPOLYLINE
  5
134
330
4EE
100
AcDbEntity
  8
0
  6
Continuous
 62
     7
100
AcDbPolyline
 90
       23
 70
   128
 43
0.0
 10
135.5108011586
 20
366.0471823784
 10
135.6227652979
 20
365.3855890331
 10
135.9563784489
 20
364.7374638205
 10
136.5048492097
 20
364.1160007008
 10
137.2570122975
 20
363.5338508709
 10
138.1975558407
 20
363.0028652227
 10
139.3073330852
 20
362.5338530928
 10
140.5637521666
 20
362.1363622154
 10
141.9412360156
 20
361.8184843587
 10
143.4117430334
 20
361.5866905992
 10
144.9453379376
 20
361.4456995892
 10
146.5108011586
 20
361.3983814993
 10
148.0762643796
 20
361.4456995892
 10
149.6098592839
 20
361.5866905992
 10
151.0803663016
 20
361.8184843587
 10
152.4578501506
 20
362.1363622154
 10
153.714269232
 20
362.5338530928
 10
154.8240464765
 20
363.0028652227
 10
155.7645900198
 20
363.5338508709
 10
156.5167531075
 20
364.1160007008
 10
157.0652238684
 20
364.7374638205
 10
157.3988370193
 20
365.3855890331
 10
157.5108011586
 20
366.0471823784
  0
ARC
  5
135
330
4EE
100
AcDbEntity
  8
0
  6
Continuous
 62
     7
100
AcDbCircle
 10
125.9067941145
 20
213.9897812895
 30
0.0
 40
173.2877664823181
100
AcDbArc
 50
89.55319390150001
 51
90.22276243780001
  0
LINE
  5
136
330
4EE
100
AcDbEntity
  8
0
  6
Continuous
 62
     7
100
AcDbLine
 10
125.0108025301
 20
387.2770429325
 30
0.0
 11
124.9618960967
 21
387.2754506096
 31
0.0
  0
LWPOLYLINE
  5
137
330
4EE
100
AcDbEntity
  8
0
  6
Continuous
 62
     7
100
AcDbPolyline
 90
       11
 70
   128
 43
0.0
 10
125.0108011586
 20
387.2770851393
 10
125.275553258
 20
387.2778374271
 10
126.0903943652
 20
387.2862975467
 10
127.4851035751
 20
387.3152603923
 10
129.4674395524
 20
387.3616652047
 10
131.8705737465
 20
387.4158574151
 10
134.763950049
 20
387.4726421237
 10
137.9066086277
 20
387.5209048694
 10
141.3877327324
 20
387.5568658846
 10
143.9119386557
 20
387.5713712097
 10
146.5108011586
 20
387.5762968598
  0
LINE
  5
138
330
4EE
100
AcDbEntity
  8
0
  6
Continuous
 62
     7
100
AcDbLine
 10
168.010799786
 20
387.2770429326
 30
0.0
 11
168.0597062195
 21
387.2754506097
 31
0.0
  0
ARC
  5
139
330
4EE
100
AcDbEntity
  8
0
  6
Continuous
 62
     7
100
AcDbCircle
 10
167.1169077238
 20
208.9617837437
 30
0.0
 40
178.3157191776416
100
AcDbArc
 50
89.7841934209
 51
90.433527748
  0
LWPOLYLINE
  5
13A
330
4EE
100
AcDbEntity
  8
0
  6
Continuous
 62
     7
100
AcDbPolyline
 90
       11
 70
   128
 43
0.0
 10
146.5108011586
 20
387.5762968598
 10
149.874467091
 20
387.5679956392
 10
153.2381336033
 20
387.5426000342
 10
156.52341343
 20
387.5010980712
 10
159.6151171712
 20
387.4473673099
 10
162.255093707
 20
387.3915572734
 10
164.5179175853
 20
387.3390215705
 10
166.2139339035
 20
387.3001411593
 10
167.3914590292
 20
387.2802490985
 10
167.8531411612
 20
387.2775307329
 10
168.0108011586
 20
387.2770851393
  0
LINE
  5
13B
330
4EE
100
AcDbEntity
  8
0
  6
Continuous
 62
     7
100
AcDbLine
 10
135.5108011586
 20
366.0471823784
 30
0.0
 11
135.5108011586
 21
364.5436334413
 31
0.0
  0
LINE
  5
13C
330
4EE
100
AcDbEntity
  8
0
  6
Continuous
 62
     7
100
AcDbLine
 10
157.5108011586
 20
366.0471823784
 30
0.0
 11
157.5108011586
 21
364.5436334413
 31
0.0
  0
ARC
  5
13D
330
4EE
100
AcDbEntity
  8
0
  6
Continuous
 62
     7
100
AcDbCircle
 10
157.5602479759
 20
370.5592223448
 30
0.0
 40
1.496090456116016
100
AcDbArc
 50
304.6710120569
 51
356.7044534418
  0
LWPOLYLINE
  5
13E
330
4EE
100
AcDbEntity
  8
0
  6
Continuous
 62
     7
100
AcDbPolyline
 90
        3
 70
   128
 43
0.0
 10
158.4095372838
 20
369.410183516
 10
158.8009262513
 20
369.8843113374
 10
158.8212096943
 20
369.954168659
  0
LWPOLYLINE
  5
13F
330
4EE
100
AcDbEntity
  8
0
  6
Continuous
 62
     7
100
AcDbPolyline
 90
        3
 70
   128
 43
0.0
 10
134.3227184976
 20
369.7778332507
 10
134.4682993301
 20
369.5371044943
 10
134.6235441076
 20
369.4103144143
  0
ARC
  5
140
330
4EE
100
AcDbEntity
  8
0
  6
Continuous
 62
     7
100
AcDbCircle
 10
135.3796858724
 20
370.5416082198
 30
0.0
 40
1.413603241849083
100
AcDbArc
 50
182.7730785691
 51
237.7297629909
  0
LWPOLYLINE
  5
141
330
4EE
100
AcDbEntity
  8
0
  6
Continuous
 62
     7
100
AcDbPolyline
 90
        7
 70
   128
 43
0.0
 10
166.8557128463
 20
424.2678647051
 10
165.1358821134
 20
424.267935229
 10
163.6667127497
 20
424.2680567788
 10
162.4550924848
 20
424.2681116324
 10
161.5822757713
 20
424.267827294
 10
161.0502905603
 20
424.2681335296
 10
160.8199302288
 20
424.2681424093
  0
LINE
  5
142
330
4EE
100
AcDbEntity
  8
0
  6
Continuous
 62
     7
100
AcDbLine
 10
167.985786493
 20
424.26803162
 30
0.0
 11
166.8557129008
 21
424.26803162
 31
0.0
  0
LWPOLYLINE
  5
143
330
4EE
100
AcDbEntity
  8
0
  6
Continuous
 62
     7
100
AcDbPolyline
 90
        7
 70
   128
 43
0.0
 10
126.1133678326
 20
424.2678647051
 10
127.8331985654
 20
424.267935229
 10
129.3023679291
 20
424.2680567788
 10
130.513988194
 20
424.2681116324
 10
131.3868049075
 20
424.267827294
 10
131.9187901186
 20
424.2681335296
 10
132.14915045
 20
424.2681424093
  0
LINE
  5
144
330
4EE
100
AcDbEntity
  8
0
  6
Continuous
 62
     7
100
AcDbLine
 10
132.6354849208
 20
424.26803162
 30
0.0
 11
132.168843475
 21
424.26803162
 31
0.0
  0
LINE
  5
145
330
4EE
100
AcDbEntity
  8
0
  6
Continuous
 62
     7
100
AcDbLine
 10
124.9832941858
 20
424.26803162
 30
0.0
 11
126.113367778
 21
424.26803162
 31
0.0
  0
LINE
  5
146
330
4EE
100
AcDbEntity
  8
0
  6
Continuous
 62
     7
100
AcDbLine
 10
146.4845403414
 20
419.3607483936
 30
0.0
 11
147.6562125707
 21
419.360022274
 31
0.0
  0
ARC
  5
147
330
4EE
100
AcDbEntity
  8
0
  6
Continuous
 62
     7
100
AcDbCircle
 10
132.0219444688
 20
420.6619431615
 30
0.0
 40
1.267586562500524
100
AcDbArc
 50
197.9210371521
 51
260.757607819
  0
ARC
  5
148
330
4EE
100
AcDbEntity
  8
0
  6
Continuous
 62
     7
100
AcDbCircle
 10
160.9327837878
 20
420.6859804526
 30
0.0
 40
1.293571108314295
100
AcDbArc
 50
281.4924071687
 51
345.4077192999001
  0
LWPOLYLINE
  5
149
330
4EE
100
AcDbEntity
  8
0
  6
Continuous
 62
     7
100
AcDbPolyline
 90
        3
 70
   128
 43
0.0
 10
149.927053791
 20
405.4312857351
 10
148.9534784616
 20
406.3947241954
 10
148.484235325
 20
406.6782805278
  0
ARC
  5
14A
330
4EE
100
AcDbEntity
  8
0
  6
Continuous
 62
     7
100
AcDbCircle
 10
147.7299336336
 20
405.4891130706
 30
0.0
 40
1.408222384024789
100
AcDbArc
 50
57.61260490819999
 51
98.25784113449998
  0
LWPOLYLINE
  5
14B
330
4EE
100
AcDbEntity
  8
0
  6
Continuous
 62
     7
100
AcDbPolyline
 90
        3
 70
   128
 43
0.0
 10
147.5276733873
 20
406.8827346389
 10
146.5701197564
 20
406.7943230423
 10
145.4413954274
 20
406.8827310137
  0
ARC
  5
14C
330
4EE
100
AcDbEntity
  8
0
  6
Continuous
 62
     7
100
AcDbCircle
 10
145.2282029472
 20
405.540278923
 30
0.0
 40
1.359275045610234
100
AcDbArc
 50
80.9763127429
 51
123.1534481645
  0
LWPOLYLINE
  5
14D
330
4EE
100
AcDbEntity
  8
0
  6
Continuous
 62
     7
100
AcDbPolyline
 90
        3
 70
   128
 43
0.0
 10
144.4848382793
 20
406.6782761199
 10
143.3793536346
 20
405.8444644339
 10
143.0419749979
 20
405.4312118357
  0
LINE
  5
14E
330
4EE
100
AcDbEntity
  8
0
  6
Continuous
 62
     7
100
AcDbLine
 10
142.8326657328
 20
405.1009840096
 30
0.0
 11
143.0418242629
 21
405.4309151954
 31
0.0
  0
LINE
  5
14F
330
4EE
100
AcDbEntity
  8
0
  6
Continuous
 62
     7
100
AcDbLine
 10
149.927207899
 20
405.430983728
 30
0.0
 11
150.136414946
 21
405.1009840096
 31
0.0
  0
ARC
  5
150
330
4EE
100
AcDbEntity
  8
0
  6
Continuous
 62
     7
100
AcDbCircle
 10
146.4845403394
 20
403.4688651849
 30
0.0
 40
4.000000000000004
100
AcDbArc
 50
155.918876022
 51
24.081123978
  0
ARC
  5
151
330
4EE
100
AcDbEntity
  8
0
  6
Continuous
 62
     7
100
AcDbCircle
 10
146.4845403394
 20
403.4688651849
 30
0.0
 40
3.569682227422111
100
AcDbArc
 50
106.9911186602
 51
73.00908045850001
  0
LINE
  5
152
330
4EE
100
AcDbEntity
  8
0
  6
Continuous
 62
     7
100
AcDbLine
 10
169.0877406071
 20
290.9265569556
 30
0.0
 11
146.5108011586
 21
290.9265569556
 31
0.0
  0
LINE
  5
153
330
4EE
100
AcDbEntity
  8
0
  6
Continuous
 62
     7
100
AcDbLine
 10
123.9338617102
 20
290.9265569556
 30
0.0
 11
146.5108011586
 21
290.9265569556
 31
0.0
  0
LINE
  5
154
330
4EE
100
AcDbEntity
  8
0
  6
Continuous
 62
     7
100
AcDbLine
 10
164.5741471686
 20
392.4688651849
 30
0.0
 11
128.3949335102
 21
392.4688651849
 31
0.0
  0
LINE
  5
155
330
4EE
100
AcDbEntity
  8
0
  6
Continuous
 62
     7
100
AcDbLine
 10
123.4893640192
 20
392.9674508597
 30
0.0
 11
123.4848462177
 21
392.9832922743
 31
0.0
  0
LINE
  5
156
330
4EE
100
AcDbEntity
  8
0
  6
Continuous
 62
     7
100
AcDbLine
 10
168.9506596787
 20
392.4688651849
 30
0.0
 11
164.5741471686
 21
392.4688651849
 31
0.0
  0
LINE
  5
157
330
4EE
100
AcDbEntity
  8
0
  6
Continuous
 62
     7
100
AcDbLine
 10
124.0184210001
 20
392.4688651849
 30
0.0
 11
128.3949335102
 21
392.4688651849
 31
0.0
  0
LINE
  5
158
330
4EE
100
AcDbEntity
  8
0
  6
Continuous
 62
     7
100
AcDbLine
 10
123.5108011586
 20
290.9265569556
 30
0.0
 11
123.9338617102
 21
290.9265569556
 31
0.0
  0
LINE
  5
159
330
4EE
100
AcDbEntity
  8
0
  6
Continuous
 62
     7
100
AcDbLine
 10
169.5108011586
 20
290.9265569556
 30
0.0
 11
169.0877406071
 21
290.9265569556
 31
0.0
  0
ARC
  5
15A
330
4EE
100
AcDbEntity
  8
0
  6
Continuous
 62
     7
100
AcDbCircle
 10
125.0108011586
 20
385.7762480562
 30
0.0
 40
1.500000000000014
100
AcDbArc
 50
91.8669251722
 51
180.0
  0
ARC
  5
15B
330
4EE
100
AcDbEntity
  8
0
  6
Continuous
 62
     7
100
AcDbCircle
 10
168.0108011586
 20
385.7762480562
 30
0.0
 40
1.500000000000006
100
AcDbArc
 50
0.0015171097
 51
88.13019155279999
  0
ARC
  5
15C
330
4EE
100
AcDbEntity
  8
0
  6
Continuous
 62
     8
100
AcDbCircle
 10
164.7623990603
 20
427.2064027101
 30
0.0
 40
39.96856980078161
100
AcDbArc
 50
268.7037132697
 51
271.1540971701
  0
ARC
  5
15D
330
4EE
100
AcDbEntity
  8
0
  6
Continuous
 62
     8
100
AcDbCircle
 10
165.5494311232
 20
385.746042599
 30
0.0
 40
1.500006214510259
100
AcDbArc
 50
0.0005930651
 51
89.3127339846
  0
LINE
  5
15E
330
4EE
100
AcDbEntity
  8
0
  6
Continuous
 62
     8
100
AcDbLine
 10
167.0494373376
 20
376.1665945549
 30
0.0
 11
167.0494373376
 21
385.7460581254
 31
0.0
  0
ARC
  5
15F
330
4EE
100
AcDbEntity
  8
0
  6
Continuous
 62
     8
100
AcDbCircle
 10
128.259203257
 20
427.20640271
 30
0.0
 40
39.96856980062055
100
AcDbArc
 50
268.8459028299
 51
271.2962867303
  0
ARC
  5
160
330
4EE
100
AcDbEntity
  8
0
  6
Continuous
 62
     8
100
AcDbCircle
 10
127.472171194
 20
385.746042599
 30
0.0
 40
1.500006214510242
100
AcDbArc
 50
90.68726601530001
 51
179.9994069349
  0
LINE
  5
161
330
4EE
100
AcDbEntity
  8
0
  6
Continuous
 62
     8
100
AcDbLine
 10
125.9721649796
 20
376.1665945549
 30
0.0
 11
125.9721649796
 21
385.7460581254
 31
0.0
  0
LWPOLYLINE
  5
162
330
4EE
100
AcDbEntity
  8
0
  6
Continuous
 62
     8
100
AcDbPolyline
 90
        3
 70
   128
 43
0.0
 10
146.5108023721
 20
387.3367613186
 10
155.1321744851
 20
387.2847671337
 10
163.8582084343
 20
387.2480617632
  0
LWPOLYLINE
  5
163
330
4EE
100
AcDbEntity
  8
0
  6
Continuous
 62
     8
100
AcDbPolyline
 90
        3
 70
   128
 43
0.0
 10
129.163393883
 20
387.2480617632
 10
137.8894278322
 20
387.2847671337
 10
146.5107999452
 20
387.3367613186
  0
ARC
  5
164
330
4EE
100
AcDbEntity
  8
0
  6
Continuous
 62
     8
100
AcDbCircle
 10
128.043494344
 20
370.931202648
 30
0.0
 40
4.026003394978924
100
AcDbArc
 50
74.6846056083
 51
104.8513156684
  0
ARC
  5
165
330
4EE
100
AcDbEntity
  8
0
  6
Continuous
 62
     8
100
AcDbCircle
 10
127.3614753554
 20
376.1672435871
 30
0.0
 40
1.389310527418435
100
AcDbArc
 50
180.0267663751
 51
255.4132258739
  0
ARC
  5
166
330
4EE
100
AcDbEntity
  8
0
  6
Continuous
 62
     8
100
AcDbCircle
 10
165.6601269618
 20
376.1672435871
 30
0.0
 40
1.389310527418719
100
AcDbArc
 50
284.5867741261
 51
359.9732336249
  0
ARC
  5
167
330
4EE
100
AcDbEntity
  8
0
  6
Continuous
 62
     8
100
AcDbCircle
 10
164.9781079733
 20
370.931202648
 30
0.0
 40
4.026003394979092
100
AcDbArc
 50
75.1486843316
 51
105.3153943917
  0
LWPOLYLINE
  5
168
330
4EE
100
AcDbEntity
  8
0
  6
Continuous
 62
     8
100
AcDbPolyline
 90
        5
 70
   128
 43
0.0
 10
146.5108011586
 20
374.7952691358
 10
137.840446112
 20
374.7973724189
 10
134.950513642
 20
374.7983837917
 10
132.0605862938
 20
374.7993516963
 10
129.1068914797
 20
374.814228513
  0
LWPOLYLINE
  5
169
330
4EE
100
AcDbEntity
  8
0
  6
Continuous
 62
     8
100
AcDbPolyline
 90
        5
 70
   128
 43
0.0
 10
146.5108011586
 20
374.7952691358
 10
155.1811562053
 20
374.7973724189
 10
158.0710886752
 20
374.7983837917
 10
160.9610160234
 20
374.7993516963
 10
163.9147108376
 20
374.814228513
  0
LINE
  5
16A
330
4EE
100
AcDbEntity
  8
0
  6
Continuous
 62
     8
100
AcDbLine
 10
166.0100192197
 20
374.8227142458
 30
0.0
 11
166.2458924061
 21
374.5250966641
 31
0.0
  0
LINE
  5
16B
330
4EE
100
AcDbEntity
  8
0
  6
Continuous
 62
     8
100
AcDbLine
 10
166.2457985785
 20
374.5250385793
 30
0.0
 11
159.0536321551
 21
370.4736743833
 31
0.0
  0
LINE
  5
16C
330
4EE
100
AcDbEntity
  8
0
  6
Continuous
 62
     8
100
AcDbLine
 10
127.0115830976
 20
374.8227142458
 30
0.0
 11
126.7757099111
 21
374.5250966641
 31
0.0
  0
LINE
  5
16D
330
4EE
100
AcDbEntity
  8
0
  6
Continuous
 62
     8
100
AcDbLine
 10
126.7758037388
 20
374.5250385793
 30
0.0
 11
133.9679705282
 21
370.4736741965
 31
0.0
  0
LWPOLYLINE
  5
16E
330
4EE
100
AcDbEntity
  8
0
  6
Continuous
 62
     8
100
AcDbPolyline
 90
        3
 70
   128
 43
0.0
 10
127.450287876
 20
387.2479421067
 10
127.4502945324
 20
387.2479398304
 10
127.4541789688
 20
387.2459409033
  0
LWPOLYLINE
  5
16F
330
4EE
100
AcDbEntity
  8
0
  6
Continuous
 62
     8
100
AcDbPolyline
 90
        3
 70
   128
 43
0.0
 10
127.4501442289
 20
387.2480316126
 10
131.6062743048
 20
387.302130978
 10
134.4719005422
 20
387.330219727
  0
LINE
  5
170
330
4EE
100
AcDbEntity
  8
0
  6
Continuous
 62
     8
100
AcDbLine
 10
143.3739422698
 20
387.3826941839
 30
0.0
 11
146.5107990109
 21
387.3868925257
 31
0.0
  0
LINE
  5
171
330
4EE
100
AcDbEntity
  8
0
  6
Continuous
 62
     8
100
AcDbLine
 10
146.5107986848
 20
387.3873738826
 30
0.0
 11
146.5108022847
 21
387.3768126526
 31
0.0
  0
LINE
  5
172
330
4EE
100
AcDbEntity
  8
0
  6
Continuous
 62
     8
100
AcDbLine
 10
146.5108022847
 20
387.3768126526
 30
0.0
 11
146.5108023721
 21
387.3367613186
 31
0.0
  0
LWPOLYLINE
  5
173
330
4EE
100
AcDbEntity
  8
0
  6
Continuous
 62
     8
100
AcDbPolyline
 90
        4
 70
   128
 43
0.0
 10
165.5714799613
 20
387.2480313697
 10
162.828479983
 20
387.2851466483
 10
160.0157291329
 20
387.3174155348
 10
157.1507053978
 20
387.3439618069
  0
LINE
  5
174
330
4EE
100
AcDbEntity
  8
0
  6
Continuous
 62
     8
100
AcDbLine
 10
149.8427349809
 20
387.3801432373
 30
0.0
 11
146.5108033063
 21
387.3868925257
 31
0.0
  0
LINE
  5
175
330
4EE
100
AcDbEntity
  8
0
  6
Continuous
 62
     8
100
AcDbLine
 10
165.5674233485
 20
387.2459409033
 30
0.0
 11
165.5713144413
 21
387.2479421067
 31
0.0
  0
LINE
  5
176
330
4EE
100
AcDbEntity
  8
0
  6
Continuous
 62
     8
100
AcDbLine
 10
125.9482561297
 20
376.0096505435
 30
0.0
 11
125.9721649796
 21
376.1665945549
 31
0.0
  0
LINE
  5
177
330
4EE
100
AcDbEntity
  8
0
  6
Continuous
 62
     8
100
AcDbLine
 10
125.9091838666
 20
375.8739439261
 30
0.0
 11
125.948254334
 21
376.0093304322
 31
0.0
  0
LINE
  5
178
330
4EE
100
AcDbEntity
  8
0
  6
Continuous
 62
     8
100
AcDbLine
 10
125.8587122894
 20
375.7195693857
 30
0.0
 11
125.9091807894
 21
375.8741290031
 31
0.0
  0
LINE
  5
179
330
4EE
100
AcDbEntity
  8
0
  6
Continuous
 62
     8
100
AcDbLine
 10
125.8587122894
 20
385.7659105768
 30
0.0
 11
125.8587122894
 21
375.7195693857
 31
0.0
  0
ARC
  5
17A
330
4EE
100
AcDbEntity
  8
0
  6
Continuous
 62
     8
100
AcDbCircle
 10
128.999550785
 20
405.2147922601
 30
0.0
 40
19.70085950373231
100
AcDbArc
 50
260.8263919063
 51
261.1558663481
  0
LINE
  5
17B
330
4EE
100
AcDbEntity
  8
0
  6
Continuous
 62
     8
100
AcDbLine
 10
125.9721649796
 20
385.7460581254
 30
0.0
 11
125.9706027199
 21
385.7480767884
 31
0.0
  0
LINE
  5
17C
330
4EE
100
AcDbEntity
  8
0
  6
Continuous
 62
     8
100
AcDbLine
 10
167.1628900278
 20
375.7195693857
 30
0.0
 11
167.1124215279
 21
375.8741290031
 31
0.0
  0
LINE
  5
17D
330
4EE
100
AcDbEntity
  8
0
  6
Continuous
 62
     8
100
AcDbLine
 10
167.1124184506
 20
375.8739439261
 30
0.0
 11
167.0733479832
 21
376.0093304322
 31
0.0
  0
LINE
  5
17E
330
4EE
100
AcDbEntity
  8
0
  6
Continuous
 62
     8
100
AcDbLine
 10
167.0733461876
 20
376.0096505435
 30
0.0
 11
167.0494373376
 21
376.1665945549
 31
0.0
  0
LINE
  5
17F
330
4EE
100
AcDbEntity
  8
0
  6
Continuous
 62
     8
100
AcDbLine
 10
167.0509998176
 20
385.7480769687
 30
0.0
 11
167.0494373376
 21
385.7460581254
 31
0.0
  0
ARC
  5
180
330
4EE
100
AcDbEntity
  8
0
  6
Continuous
 62
     8
100
AcDbCircle
 10
164.0230155981
 20
405.2087478843
 30
0.0
 40
19.69473873905364
100
AcDbArc
 50
278.8440665346
 51
279.1736427078
  0
LINE
  5
181
330
4EE
100
AcDbEntity
  8
0
  6
Continuous
 62
     8
100
AcDbLine
 10
167.1628900278
 20
385.7659105768
 30
0.0
 11
167.1628900278
 21
375.7195693857
 31
0.0
  0
ARC
  5
182
330
4EE
100
AcDbEntity
  8
0
  6
Continuous
 62
     8
100
AcDbCircle
 10
165.3277767715
 20
376.0095528284
 30
0.0
 40
1.745571225926472
100
AcDbArc
 50
301.7289760316
 51
359.9927001756
  0
ARC
  5
183
330
4EE
100
AcDbEntity
  8
0
  6
Continuous
 62
     8
100
AcDbCircle
 10
127.6941175173
 20
376.0098610136
 30
0.0
 40
1.74586233299712
100
AcDbArc
 50
180.0172623001
 51
238.2681359604
  0
ARC
  5
184
330
4EE
100
AcDbEntity
  8
0
  6
Continuous
 62
     8
100
AcDbCircle
 10
165.5509992473
 20
385.748170353
 30
0.0
 40
1.50000056989842
100
AcDbArc
 50
0.0000316844
 51
89.1967773531
  0
ARC
  5
185
330
4EE
100
AcDbEntity
  8
0
  6
Continuous
 62
     8
100
AcDbCircle
 10
127.4706032903
 20
385.7481702853
 30
0.0
 40
1.500000570052608
100
AcDbArc
 50
90.8032199703
 51
179.9999683079
  0
LINE
  5
186
330
4EE
100
AcDbEntity
  8
0
  6
Continuous
 62
     8
100
AcDbLine
 10
158.9657106865
 20
370.4518382234
 30
0.0
 11
158.9701234594
 21
370.7490683595
 31
0.0
  0
LINE
  5
187
330
4EE
100
AcDbEntity
  8
0
  6
Continuous
 62
     8
100
AcDbLine
 10
158.5108011586
 20
370.4518382234
 30
0.0
 11
158.9657106865
 21
370.4518382234
 31
0.0
  0
LINE
  5
188
330
4EE
100
AcDbEntity
  8
0
  6
Continuous
 62
     8
100
AcDbLine
 10
146.5108011586
 20
374.0792731233
 30
0.0
 11
146.5108011586
 21
374.0052438397
 31
0.0
  0
LINE
  5
189
330
4EE
100
AcDbEntity
  8
0
  6
Continuous
 62
     8
100
AcDbLine
 10
134.0515753079
 20
370.7466675765
 30
0.0
 11
134.0558916307
 21
370.4518382234
 31
0.0
  0
LINE
  5
18A
330
4EE
100
AcDbEntity
  8
0
  6
Continuous
 62
     8
100
AcDbLine
 10
134.5108011586
 20
370.4518382234
 30
0.0
 11
134.0558916307
 21
370.4518382234
 31
0.0
  0
ARC
  5
18B
330
4EE
100
AcDbEntity
  8
0
  6
Continuous
 62
     8
100
AcDbCircle
 10
124.7356526834
 20
367.5376458812
 30
0.0
 40
19.89634043318402
100
AcDbArc
 50
82.1602362863
 51
82.5363555848
  0
ARC
  5
18C
330
4EE
100
AcDbEntity
  8
0
  6
Continuous
 62
     8
100
AcDbCircle
 10
126.9174372339
 20
384.5045885764
 30
0.0
 40
2.790039257281699
100
AcDbArc
 50
81.7014049237
 51
82.6736312466
  0
LINE
  5
18D
330
4EE
100
AcDbEntity
  8
0
  6
Continuous
 62
     8
100
AcDbLine
 10
127.2581195833
 20
387.2722787666
 30
0.0
 11
127.2732260709
 21
387.2718495617
 31
0.0
  0
LINE
  5
18E
330
4EE
100
AcDbEntity
  8
0
  6
Continuous
 62
     8
100
AcDbLine
 10
124.9618570811
 20
387.2754890538
 30
0.0
 11
125.2330637214
 21
387.2762380592
 31
0.0
  0
LINE
  5
18F
330
4EE
100
AcDbEntity
  8
0
  6
Continuous
 62
     8
100
AcDbLine
 10
167.7885385958
 20
387.2762380592
 30
0.0
 11
168.0597452361
 21
387.2754890538
 31
0.0
  0
LINE
  5
190
330
4EE
100
AcDbEntity
  8
0
  6
Continuous
 62
     8
100
AcDbLine
 10
165.7483762463
 20
387.2718495617
 30
0.0
 11
165.767697098
 21
387.272398505
 31
0.0
  0
ARC
  5
191
330
4EE
100
AcDbEntity
  8
0
  6
Continuous
 62
     8
100
AcDbCircle
 10
165.5146160175
 20
388.8014397949
 30
0.0
 40
1.547349387235572
100
AcDbArc
 50
276.9359433327
 51
278.689020497
  0
LWPOLYLINE
  5
192
330
4EE
100
AcDbEntity
  8
0
  6
Continuous
 62
     8
100
AcDbPolyline
 90
        4
 70
   128
 43
0.0
 10
165.5720268863
 20
387.2480235285
 10
165.5901078714
 20
387.2502195594
 10
165.6458115467
 20
387.2579403359
 10
165.7014733123
 20
387.2654142491
  0
ARC
  5
193
330
4EE
100
AcDbEntity
  8
0
  6
Continuous
 62
     8
100
AcDbCircle
 10
127.3587119466
 20
385.7659108886
 30
0.0
 40
1.499999657122634
100
AcDbArc
 50
91.4739227088
 51
180.00001191
  0
ARC
  5
194
330
4EE
100
AcDbEntity
  8
0
  6
Continuous
 62
     8
100
AcDbCircle
 10
165.6628903707
 20
385.7659108886
 30
0.0
 40
1.499999657122749
100
AcDbArc
 50
359.99998809
 51
88.5260772912
  0
LINE
  5
195
330
4EE
100
AcDbEntity
  8
0
  6
Continuous
 62
     8
100
AcDbLine
 10
158.8212096943
 20
369.954168659
 30
0.0
 11
158.9657106865
 21
370.4518382234
 31
0.0
  0
LWPOLYLINE
  5
196
330
4EE
100
AcDbEntity
  8
0
  6
Continuous
 62
     8
100
AcDbPolyline
 90
        3
 70
   128
 43
0.0
 10
134.0558916307
 20
370.4518382234
 10
134.1113036371
 20
370.127423479
 10
134.3227184976
 20
369.7778332507
  0
LINE
  5
197
330
4EE
100
AcDbEntity
  8
0
  6
Continuous
 62
     8
100
AcDbLine
 10
166.2457759297
 20
374.5248655043
 30
0.0
 11
166.3474649506
 21
374.3557859784
 31
0.0
  0
LWPOLYLINE
  5
198
330
4EE
100
AcDbEntity
  8
0
  6
Continuous
 62
     8
100
AcDbPolyline
 90
        3
 70
   128
 43
0.0
 10
163.6885137023
 20
372.4467647876
 10
163.8169784773
 20
372.5301409074
 10
166.3405708658
 20
374.3509053083
  0
LWPOLYLINE
  5
199
330
4EE
100
AcDbEntity
  8
0
  6
Continuous
 62
     8
100
AcDbPolyline
 90
        3
 70
   128
 43
0.0
 10
129.3330886149
 20
372.4467647876
 10
129.20462384
 20
372.5301409074
 10
126.6810314514
 20
374.3509053083
  0
LINE
  5
19A
330
4EE
100
AcDbEntity
  8
0
  6
Continuous
 62
     8
100
AcDbLine
 10
126.7758263875
 20
374.5248655043
 30
0.0
 11
126.6741373667
 21
374.3557859784
 31
0.0
  0
ARC
  5
19B
330
4EE
100
AcDbEntity
  8
0
  6
Continuous
 62
     8
100
AcDbCircle
 10
127.7982082883
 20
375.8739613216
 30
0.0
 40
1.889027742114362
100
AcDbArc
 50
179.9949333375
 51
233.4803512643
  0
ARC
  5
19C
330
4EE
100
AcDbEntity
  8
0
  6
Continuous
 62
     8
100
AcDbCircle
 10
165.2234613335
 20
375.8741613238
 30
0.0
 40
1.888960194593005
100
AcDbArc
 50
306.5144798685
 51
359.9990196521
  0
ARC
  5
19D
330
4EE
100
AcDbEntity
  8
0
  6
Continuous
 62
     8
100
AcDbCircle
 10
133.1731773245
 20
404.862438538
 30
0.0
 40
14.80438121838735
100
AcDbArc
 50
88.0751363139
 51
92.72068595870002
  0
ARC
  5
19E
330
4EE
100
AcDbEntity
  8
0
  6
Continuous
 62
     8
100
AcDbCircle
 10
132.4705127268
 20
421.1501679588
 30
0.0
 40
1.500035662881489
100
AcDbArc
 50
180.0027583736
 51
269.9978524994
  0
LINE
  5
19F
330
4EE
100
AcDbEntity
  8
0
  6
Continuous
 62
     8
100
AcDbLine
 10
130.9704770656
 20
421.150095743
 30
0.0
 11
130.9704770656
 21
422.7688651849
 31
0.0
  0
LINE
  5
1A0
330
4EE
100
AcDbEntity
  8
0
  6
Continuous
 62
     8
100
AcDbLine
 10
161.9986036132
 20
421.150095743
 30
0.0
 11
161.9986036132
 21
422.7688651849
 31
0.0
  0
ARC
  5
1A1
330
4EE
100
AcDbEntity
  8
0
  6
Continuous
 62
     8
100
AcDbCircle
 10
159.7959033543
 20
404.862438538
 30
0.0
 40
14.80438121838655
100
AcDbArc
 50
87.27931404130001
 51
91.92486368610001
  0
ARC
  5
1A2
330
4EE
100
AcDbEntity
  8
0
  6
Continuous
 62
     8
100
AcDbCircle
 10
160.498567952
 20
421.1501679588
 30
0.0
 40
1.500035662881593
100
AcDbArc
 50
270.0021475006
 51
359.9972416264
  0
ARC
  5
1A3
330
4EE
100
AcDbEntity
  8
0
  6
Continuous
 62
     8
100
AcDbCircle
 10
133.011719059
 20
-18.3246916291
 30
0.0
 40
442.5934645613933
100
AcDbArc
 50
89.91472547559998
 51
90.07654160880001
  0
ARC
  5
1A4
330
4EE
100
AcDbEntity
  8
0
  6
Continuous
 62
     8
100
AcDbCircle
 10
132.4704675963
 20
422.7688750066
 30
0.0
 40
1.499990530677253
100
AcDbArc
 50
91.9106229726
 51
180.0003751643
  0
ARC
  5
1A5
330
4EE
100
AcDbEntity
  8
0
  6
Continuous
 62
     8
100
AcDbCircle
 10
159.9573616198
 20
-18.3246916292
 30
0.0
 40
442.5934645614078
100
AcDbArc
 50
89.92345839119999
 51
90.0852745244
  0
ARC
  5
1A6
330
4EE
100
AcDbEntity
  8
0
  6
Continuous
 62
     8
100
AcDbCircle
 10
160.4986130825
 20
422.7688750066
 30
0.0
 40
1.49999053067731
100
AcDbArc
 50
359.9996248356999
 51
88.0893770274
  0
LINE
  5
1A7
330
4EE
100
AcDbEntity
  8
0
  6
Continuous
 62
     8
100
AcDbLine
 10
133.6704400547
 20
424.26803162
 30
0.0
 11
146.4845403394
 21
424.26803162
 31
0.0
  0
LINE
  5
1A8
330
4EE
100
AcDbEntity
  8
0
  6
Continuous
 62
     8
100
AcDbLine
 10
159.2986406241
 20
424.26803162
 30
0.0
 11
146.4845403394
 21
424.26803162
 31
0.0
  0
LINE
  5
1A9
330
4EE
100
AcDbEntity
  8
0
  6
Continuous
 62
     8
100
AcDbLine
 10
133.6704400547
 20
419.658466148
 30
0.0
 11
159.2986406241
 21
419.658466148
 31
0.0
  0
LWPOLYLINE
  5
1AA
330
4EE
100
AcDbEntity
  8
0
  6
Continuous
 62
     8
100
AcDbPolyline
 90
        3
 70
   128
 43
0.0
 10
160.8199302288
 20
424.2681424093
 10
160.7785041038
 20
424.2679093536
 10
160.7607060941
 20
424.2677890435
  0
LINE
  5
1AB
330
4EE
100
AcDbEntity
  8
0
  6
Continuous
 62
     8
100
AcDbLine
 10
160.7607061503
 20
424.26803162
 30
0.0
 11
160.5486234894
 21
424.26803162
 31
0.0
  0
LINE
  5
1AC
330
4EE
100
AcDbEntity
  8
0
  6
Continuous
 62
     8
100
AcDbLine
 10
146.4845403394
 20
424.642301162
 30
0.0
 11
146.4845403394
 21
424.2679415128
 31
0.0
  0
LINE
  5
1AD
330
4EE
100
AcDbEntity
  8
0
  6
Continuous
 62
     8
100
AcDbLine
 10
132.2083745285
 20
424.26803162
 30
0.0
 11
132.4204571894
 21
424.26803162
 31
0.0
  0
LWPOLYLINE
  5
1AE
330
4EE
100
AcDbEntity
  8
0
  6
Continuous
 62
     8
100
AcDbPolyline
 90
        3
 70
   128
 43
0.0
 10
132.14915045
 20
424.2681424093
 10
132.190576575
 20
424.2679093536
 10
132.2083745848
 20
424.2677890435
  0
LINE
  5
1AF
330
4EE
100
AcDbEntity
  8
0
  6
Continuous
 62
     8
100
AcDbLine
 10
146.4845403415
 20
419.3607483935
 30
0.0
 11
143.0561436056
 21
419.3586237154
 31
0.0
  0
LWPOLYLINE
  5
1B0
330
4EE
100
AcDbEntity
  8
0
  6
Continuous
 62
     8
100
AcDbPolyline
 90
        6
 70
   128
 43
0.0
 10
143.0561525801
 20
419.3586237449
 10
141.757718889
 20
419.3570302257
 10
140.4757211358
 20
419.3551274795
 10
139.1672915952
 20
419.3528683162
 10
135.6166181474
 20
419.3451876282
 10
132.2147756128
 20
419.335516306
  0
LINE
  5
1B1
330
4EE
100
AcDbEntity
  8
0
  6
Continuous
 62
     8
100
AcDbLine
 10
132.2583738431
 20
419.3673534058
 30
0.0
 11
132.2147756128
 21
419.335516306
 31
0.0
  0
LINE
  5
1B2
330
4EE
100
AcDbEntity
  8
0
  6
Continuous
 62
     8
100
AcDbLine
 10
132.470456504
 20
419.650132297
 30
0.0
 11
132.2583738431
 21
419.3673534058
 31
0.0
  0
LINE
  5
1B3
330
4EE
100
AcDbEntity
  8
0
  6
Continuous
 62
     8
100
AcDbLine
 10
160.4986241748
 20
419.650132297
 30
0.0
 11
160.7107068357
 21
419.3673534058
 31
0.0
  0
LINE
  5
1B4
330
4EE
100
AcDbEntity
  8
0
  6
Continuous
 62
     8
100
AcDbLine
 10
160.7107068357
 20
419.3673534058
 30
0.0
 11
160.754305066
 21
419.335516306
 31
0.0
  0
LWPOLYLINE
  5
1B5
330
4EE
100
AcDbEntity
  8
0
  6
Continuous
 62
     8
100
AcDbPolyline
 90
        6
 70
   128
 43
0.0
 10
149.9129280988
 20
419.3586237449
 10
151.2113617898
 20
419.3570302257
 10
152.493359543
 20
419.3551274795
 10
153.8017890836
 20
419.3528683162
 10
157.3524625314
 20
419.3451876282
 10
160.754305066
 20
419.335516306
  0
LINE
  5
1B6
330
4EE
100
AcDbEntity
  8
0
  6
Continuous
 62
     8
100
AcDbLine
 10
147.6562125707
 20
419.360022274
 30
0.0
 11
149.9129371434
 21
419.3586237157
 31
0.0
  0
LINE
  5
1B7
330
4EE
100
AcDbEntity
  8
0
  6
Continuous
 62
     8
100
AcDbLine
 10
130.7583944047
 20
422.7688651849
 30
0.0
 11
130.9704770656
 21
422.7688651849
 31
0.0
  0
ARC
  5
1B8
330
4EE
100
AcDbEntity
  8
0
  6
Continuous
 62
     8
100
AcDbCircle
 10
132.2583849354
 20
422.7688750066
 30
0.0
 40
1.499990530677263
100
AcDbArc
 50
91.91062296269999
 51
180.0003751643
  0
LINE
  5
1B9
330
4EE
100
AcDbEntity
  8
0
  6
Continuous
 62
     8
100
AcDbLine
 10
162.2106862741
 20
422.7688651849
 30
0.0
 11
161.9986036132
 21
422.7688651849
 31
0.0
  0
ARC
  5
1BA
330
4EE
100
AcDbEntity
  8
0
  6
Continuous
 62
     8
100
AcDbCircle
 10
160.7106957435
 20
422.7688750066
 30
0.0
 40
1.499990530677263
100
AcDbArc
 50
359.9996248356999
 51
88.0893770373
  0
LINE
  5
1BB
330
4EE
100
AcDbEntity
  8
0
  6
Continuous
 62
     8
100
AcDbLine
 10
130.7583944047
 20
420.8673168518
 30
0.0
 11
130.9704770656
 21
421.150095743
 31
0.0
  0
ARC
  5
1BC
330
4EE
100
AcDbEntity
  8
0
  6
Continuous
 62
     8
100
AcDbCircle
 10
132.2584300659
 20
420.8673890676
 30
0.0
 40
1.500035662881432
100
AcDbArc
 50
180.0027583731
 51
269.9978524994
  0
LINE
  5
1BD
330
4EE
100
AcDbEntity
  8
0
  6
Continuous
 62
     8
100
AcDbLine
 10
162.2106862741
 20
420.8673168518
 30
0.0
 11
161.9986036132
 21
421.150095743
 31
0.0
  0
ARC
  5
1BE
330
4EE
100
AcDbEntity
  8
0
  6
Continuous
 62
     8
100
AcDbCircle
 10
160.710650613
 20
420.8673890676
 30
0.0
 40
1.50003566288146
100
AcDbArc
 50
270.0021475006
 51
359.9972416269
  0
LINE
  5
1BF
330
4EE
100
AcDbEntity
  8
0
  6
Continuous
 62
     8
100
AcDbLine
 10
130.7583944047
 20
422.7688651849
 30
0.0
 11
130.7583944047
 21
420.8673168518
 31
0.0
  0
LINE
  5
1C0
330
4EE
100
AcDbEntity
  8
0
  6
Continuous
 62
     8
100
AcDbLine
 10
162.2106862741
 20
422.7688651849
 30
0.0
 11
162.2106862741
 21
420.8673168518
 31
0.0
  0
LINE
  5
1C1
330
4EE
100
AcDbEntity
  8
0
  6
Continuous
 62
     8
100
AcDbLine
 10
166.3474416104
 20
374.3559917173
 30
0.0
 11
166.4003993365
 21
374.2020297044
 31
0.0
  0
ARC
  5
1C2
330
4EE
100
AcDbEntity
  8
0
  6
Continuous
 62
     8
100
AcDbCircle
 10
142.0244000255
 20
404.2483093919
 30
0.0
 40
38.69054488508709
100
AcDbArc
 50
296.8907051688001
 51
309.0521229712
  0
LWPOLYLINE
  5
1C3
330
4EE
100
AcDbEntity
  8
0
  6
Continuous
 62
     8
100
AcDbPolyline
 90
        3
 70
   128
 43
0.0
 10
126.6741607069
 20
374.3559917173
 10
126.6256092778
 20
374.2153051703
 10
126.6211100015
 20
374.202271773
  0
ARC
  5
1C4
330
4EE
100
AcDbEntity
  8
0
  6
Continuous
 62
     8
100
AcDbCircle
 10
150.9972022917
 20
404.2483093919
 30
0.0
 40
38.69054488508575
100
AcDbArc
 50
230.9478770288
 51
243.1092948313
  0
ARC
  5
1C5
330
4EE
100
AcDbEntity
  8
0
  6
Continuous
 62
     8
100
AcDbCircle
 10
165.2734156806
 20
375.7186121126
 30
0.0
 40
1.889474473592825
100
AcDbArc
 50
306.6163160943
 51
0.0209554053
  0
ARC
  5
1C6
330
4EE
100
AcDbEntity
  8
0
  6
Continuous
 62
     8
100
AcDbCircle
 10
127.7481732811
 20
375.7186048722
 30
0.0
 40
1.889461181711273
100
AcDbArc
 50
179.9788305718
 51
233.3787402143
  0
ARC
  5
1C7
330
4EE
100
AcDbEntity
  8
0
  6
Continuous
 62
     8
100
AcDbCircle
 10
146.5108879305
 20
382.0115425257
 30
0.0
 40
46.42484880625576
100
AcDbArc
 50
261.3467818952
 51
278.6530014586
  0
LWPOLYLINE
  5
1C8
330
4EE
100
AcDbEntity
  8
0
  6
Continuous
 62
     8
100
AcDbPolyline
 90
       13
 70
   128
 43
0.0
 10
139.5260076147
 20
336.1153768891
 10
137.2896909865
 20
336.9569429628
 10
135.1883552977
 20
338.0387445762
 10
133.3276240008
 20
339.2935913923
 10
131.6341956887
 20
340.7562097758
 10
129.765494102
 20
342.8687920111
 10
128.2045416877
 20
345.2555865864
 10
126.9298855167
 20
347.9165935016
 10
125.9726024421
 20
350.6643483702
 10
125.2480129587
 20
353.5685746787
 10
124.7148541897
 20
356.629272427
 10
124.2034045907
 20
361.3962399095
 10
123.9338617102
 20
366.3356349954
  0
LWPOLYLINE
  5
1C9
330
4EE
100
AcDbEntity
  8
0
  6
Continuous
 62
     8
100
AcDbPolyline
 90
       12
 70
   128
 43
0.0
 10
153.4955947025
 20
336.1153768891
 10
155.7319113307
 20
336.9569429628
 10
157.8332470195
 20
338.0387445762
 10
159.6939783164
 20
339.2935913923
 10
161.3874066285
 20
340.7562097758
 10
163.2561082152
 20
342.8687920111
 10
164.8170606296
 20
345.2555865864
 10
166.0917168005
 20
347.9165935016
 10
167.4377580254
 20
352.0969025945
 10
168.3067481275
 20
356.629272427
 10
168.8181977265
 20
361.3962399095
 10
169.0877406071
 20
366.3356349954
  0
LWPOLYLINE
  5
1CA
330
4EE
100
AcDbEntity
  8
0
  6
Continuous
 62
     8
100
AcDbPolyline
 90
        3
 70
   128
 43
0.0
 10
123.9338619725
 20
366.3356405274
 10
123.831777357
 20
370.3840978467
 10
123.8008646942
 20
374.4938027492
  0
LINE
  5
1CB
330
4EE
100
AcDbEntity
  8
0
  6
Continuous
 62
     8
100
AcDbLine
 10
123.8008559183
 20
374.4943721465
 30
0.0
 11
123.8008559183
 21
375.4516157343
 31
0.0
  0
LINE
  5
1CC
330
4EE
100
AcDbEntity
  8
0
  6
Continuous
 62
     8
100
AcDbLine
 10
125.8587122894
 20
375.7195693857
 30
0.0
 11
125.8183058747
 21
375.5958248716
 31
0.0
  0
LINE
  5
1CD
330
4EE
100
AcDbEntity
  8
0
  6
Continuous
 62
     8
100
AcDbLine
 10
167.2032964426
 20
375.5958248716
 30
0.0
 11
167.1628900278
 21
375.7195693857
 31
0.0
  0
LINE
  5
1CE
330
4EE
100
AcDbEntity
  8
0
  6
Continuous
 62
     8
100
AcDbLine
 10
169.2207463989
 20
374.4943721465
 30
0.0
 11
169.2207463989
 21
375.4516157343
 31
0.0
  0
LWPOLYLINE
  5
1CF
330
4EE
100
AcDbEntity
  8
0
  6
Continuous
 62
     8
100
AcDbPolyline
 90
        3
 70
   128
 43
0.0
 10
169.0877406071
 20
366.3356349954
 10
169.1898241894
 20
370.3845233084
 10
169.2207463989
 20
374.4943721465
  0
LINE
  5
1D0
330
4EE
100
AcDbEntity
  8
0
  6
Continuous
 62
     8
100
AcDbLine
 10
125.8183058747
 20
385.772527138
 30
0.0
 11
125.8183058747
 21
375.5958248716
 31
0.0
  0
LWPOLYLINE
  5
1D1
330
4EE
100
AcDbEntity
  8
0
  6
Continuous
 62
     8
100
AcDbPolyline
 90
        3
 70
   128
 43
0.0
 10
125.8587122894
 20
385.7659105768
 10
125.8385090821
 20
385.7692745836
 10
125.8183058747
 20
385.772527138
  0
LWPOLYLINE
  5
1D2
330
4EE
100
AcDbEntity
  8
0
  6
Continuous
 62
     8
100
AcDbPolyline
 90
        3
 70
   128
 43
0.0
 10
167.2032964426
 20
385.772527138
 10
167.1830932351
 20
385.7692745836
 10
167.1628900278
 20
385.7659105768
  0
LINE
  5
1D3
330
4EE
100
AcDbEntity
  8
0
  6
Continuous
 62
     8
100
AcDbLine
 10
167.2032964426
 20
385.772527138
 30
0.0
 11
167.2032964426
 21
375.5958248716
 31
0.0
  0
ARC
  5
1D4
330
4EE
100
AcDbEntity
  8
0
  6
Continuous
 62
     8
100
AcDbCircle
 10
127.3183056223
 20
385.7725273558
 30
0.0
 40
1.499999747650237
100
AcDbArc
 50
91.72217162069998
 51
180.0000083214
  0
ARC
  5
1D5
330
4EE
100
AcDbEntity
  8
0
  6
Continuous
 62
     8
100
AcDbCircle
 10
165.7032966949
 20
385.7725273558
 30
0.0
 40
1.499999747649768
100
AcDbArc
 50
359.9999916786001
 51
88.2778283793
  0
ARC
  5
1D6
330
4EE
100
AcDbEntity
  8
0
  6
Continuous
 62
     8
100
AcDbCircle
 10
160.7697291898
 20
422.7690549308
 30
0.0
 40
1.499817077360913
100
AcDbArc
 50
359.9927513581999
 51
88.08186697280001
  0
ARC
  5
1D7
330
4EE
100
AcDbEntity
  8
0
  6
Continuous
 62
     8
100
AcDbCircle
 10
132.199351489
 20
422.7690549308
 30
0.0
 40
1.499817077360828
100
AcDbArc
 50
91.91813302720001
 51
180.0072486418
  0
LINE
  5
1D8
330
4EE
100
AcDbEntity
  8
0
  6
Continuous
 62
     8
100
AcDbLine
 10
130.6995344236
 20
420.8301783271
 30
0.0
 11
130.7583944047
 21
420.8673168518
 31
0.0
  0
LINE
  5
1D9
330
4EE
100
AcDbEntity
  8
0
  6
Continuous
 62
     8
100
AcDbLine
 10
132.2150102044
 20
419.3357310551
 30
0.0
 11
131.8183554778
 21
419.4108127862
 31
0.0
  0
LWPOLYLINE
  5
1DA
330
4EE
100
AcDbEntity
  8
0
  6
Continuous
 62
     8
100
AcDbPolyline
 90
        3
 70
   128
 43
0.0
 10
130.8158593197
 20
420.2718991813
 10
130.7402437524
 20
420.4842024373
 10
130.6997234824
 20
420.830349116
  0
LINE
  5
1DB
330
4EE
100
AcDbEntity
  8
0
  6
Continuous
 62
     8
100
AcDbLine
 10
162.2695462552
 20
420.8301783271
 30
0.0
 11
162.2106862741
 21
420.8673168518
 31
0.0
  0
LINE
  5
1DC
330
4EE
100
AcDbEntity
  8
0
  6
Continuous
 62
     8
100
AcDbLine
 10
160.7540704744
 20
419.3357310551
 30
0.0
 11
161.1905124029
 21
419.4183440011
 31
0.0
  0
LWPOLYLINE
  5
1DD
330
4EE
100
AcDbEntity
  8
0
  6
Continuous
 62
     8
100
AcDbPolyline
 90
        3
 70
   128
 43
0.0
 10
162.1846283311
 20
420.360079468
 10
162.2288369264
 20
420.4842024373
 10
162.2693571964
 20
420.830349116
  0
LINE
  5
1DE
330
4EE
100
AcDbEntity
  8
0
  6
Continuous
 62
     8
100
AcDbLine
 10
130.6995344236
 20
422.7688651849
 30
0.0
 11
130.6995344236
 21
420.8301783271
 31
0.0
  0
LINE
  5
1DF
330
4EE
100
AcDbEntity
  8
0
  6
Continuous
 62
     8
100
AcDbLine
 10
162.2695462552
 20
422.7688651849
 30
0.0
 11
162.2695462552
 21
420.8301783271
 31
0.0
  0
LWPOLYLINE
  5
1E0
330
4EE
100
AcDbEntity
  8
0
  6
Continuous
 62
     8
100
AcDbPolyline
 90
       10
 70
   128
 43
0.0
 10
128.2362527485
 20
406.5060959725
 10
129.6823348879
 20
404.7885891935
 10
131.4139904742
 20
403.3474122543
 10
133.4301502766
 20
402.1962027214
 10
135.7282246465
 20
401.3411514991
 10
136.9389440124
 20
401.0334740889
 10
138.2292179012
 20
400.7895186242
 10
139.5129660946
 20
400.6177299811
 10
140.9079601355
 20
400.4941825278
 10
143.0562076667
 20
400.3969029317
  0
LWPOLYLINE
  5
1E1
330
4EE
100
AcDbEntity
  8
0
  6
Continuous
 62
     8
100
AcDbPolyline
 90
       10
 70
   128
 43
0.0
 10
164.7328279303
 20
406.5060959725
 10
163.2867457909
 20
404.7885891935
 10
161.5550902046
 20
403.3474122543
 10
159.5389304022
 20
402.1962027214
 10
157.2408560323
 20
401.3411514991
 10
156.0301366664
 20
401.0334740889
 10
154.7398627777
 20
400.7895186242
 10
153.4561145842
 20
400.6177299811
 10
152.0611205433
 20
400.4941825278
 10
149.9128730121
 20
400.3969029317
  0
LWPOLYLINE
  5
1E2
330
4EE
100
AcDbEntity
  8
0
  6
Continuous
 62
     8
100
AcDbPolyline
 90
        8
 70
   128
 43
0.0
 10
124.7426856335
 20
420.6174627836
 10
124.7925065902
 20
418.6203504845
 10
124.9475917789
 20
416.5829218594
 10
125.196167065
 20
414.6873499574
 10
125.5635732454
 20
412.8053592317
 10
126.2171894088
 20
410.5219409486
 10
127.1052878518
 20
408.4026749147
 10
128.2362527485
 20
406.5060959725
  0
LWPOLYLINE
  5
1E3
330
4EE
100
AcDbEntity
  8
0
  6
Continuous
 62
     8
100
AcDbPolyline
 90
        8
 70
   128
 43
0.0
 10
168.2263950453
 20
420.6174627836
 10
168.1765740886
 20
418.6203504845
 10
168.0214888999
 20
416.5829218594
 10
167.7729136138
 20
414.6873499574
 10
167.4055074335
 20
412.8053592317
 10
166.75189127
 20
410.5219409486
 10
165.863792827
 20
408.4026749147
 10
164.7328279303
 20
406.5060959725
  0
ARC
  5
1E4
330
4EE
100
AcDbEntity
  8
0
  6
Continuous
 62
     8
100
AcDbCircle
 10
166.7629028933
 20
422.8069878429
 30
0.0
 40
1.463988598294352
100
AcDbArc
 50
358.507833775
 51
86.36527902109998
  0
ARC
  5
1E5
330
4EE
100
AcDbEntity
  8
0
  6
Continuous
 62
     8
100
AcDbCircle
 10
126.2061777855
 20
422.8069878429
 30
0.0
 40
1.463988598294298
100
AcDbArc
 50
93.6347209789
 51
181.492166225
  0
LINE
  5
1E6
330
4EE
100
AcDbEntity
  8
0
  6
Continuous
 62
     8
100
AcDbLine
 10
168.2263950453
 20
420.6174627836
 30
0.0
 11
168.2263950453
 21
422.7688651849
 31
0.0
  0
LINE
  5
1E7
330
4EE
100
AcDbEntity
  8
0
  6
Continuous
 62
     8
100
AcDbLine
 10
124.7426856335
 20
420.6174627836
 30
0.0
 11
124.7426856335
 21
422.7688651849
 31
0.0
  0
LINE
  5
1E8
330
4EE
100
AcDbEntity
  8
0
  6
Continuous
 62
     8
100
AcDbLine
 10
169.2207463989
 20
375.4516157343
 30
0.0
 11
169.2207463989
 21
385.77705054
 31
0.0
  0
LINE
  5
1E9
330
4EE
100
AcDbEntity
  8
0
  6
Continuous
 62
     8
100
AcDbLine
 10
123.8008559183
 20
375.4516157343
 30
0.0
 11
123.8008559183
 21
385.77705054
 31
0.0
  0
ARC
  5
1EA
330
4EE
100
AcDbEntity
  8
0
  6
Continuous
 62
     8
100
AcDbCircle
 10
125.2920307277
 20
385.7862015011
 30
0.0
 40
1.491202887698396
100
AcDbArc
 50
92.2662521198
 51
180.3516052341
  0
ARC
  5
1EB
330
4EE
100
AcDbEntity
  8
0
  6
Continuous
 62
     8
100
AcDbCircle
 10
167.7295715896
 20
385.7862015011
 30
0.0
 40
1.491202887646392
100
AcDbArc
 50
359.6483947639999
 51
87.7337478821
  0
ARC
  5
1EC
330
4EE
100
AcDbEntity
  8
0
  6
Continuous
 62
     8
100
AcDbCircle
 10
146.4845403394
 20
403.4688651849
 30
0.0
 40
3.781418633081864
100
AcDbArc
 50
121.9259804473
 51
58.0741458494
  0
LINE
  5
1ED
330
4EE
100
AcDbEntity
  8
0
  6
Continuous
 62
     8
100
AcDbLine
 10
169.0877406071
 20
366.3356377614
 30
0.0
 11
169.0877406071
 21
290.9265569556
 31
0.0
  0
LINE
  5
1EE
330
4EE
100
AcDbEntity
  8
0
  6
Continuous
 62
     8
100
AcDbLine
 10
123.9338617102
 20
366.3356382068
 30
0.0
 11
123.9338617102
 21
290.9265569556
 31
0.0
  0
LINE
  5
1EF
330
4EE
100
AcDbEntity
  8
0
  6
Continuous
 62
     8
100
AcDbLine
 10
143.0561416276
 20
400.3969046944
 30
0.0
 11
143.0561416276
 21
400.3612192181
 31
0.0
  0
LINE
  5
1F0
330
4EE
100
AcDbEntity
  8
0
  6
Continuous
 62
     8
100
AcDbLine
 10
149.9129390512
 20
400.3969046944
 30
0.0
 11
149.9129390512
 21
400.3612192181
 31
0.0
  0
ARC
  5
1F1
330
4EE
100
AcDbEntity
  8
0
  6
Continuous
 62
     8
100
AcDbCircle
 10
128.4182829316
 20
392.6503396651
 30
0.0
 40
0.1829704413975326
100
AcDbArc
 50
174.1889191336
 51
262.6683170406
  0
LWPOLYLINE
  5
1F2
330
4EE
100
AcDbEntity
  8
0
  6
Continuous
 62
     8
100
AcDbPolyline
 90
        3
 70
   128
 43
0.0
 10
123.8213497778
 20
392.6688651849
 10
123.5607201271
 20
392.7172447172
 10
123.4893640192
 20
392.9674508597
  0
ARC
  5
1F3
330
4EE
100
AcDbEntity
  8
0
  6
Continuous
 62
     8
100
AcDbCircle
 10
124.0198962705
 20
392.6674115182
 30
0.0
 40
0.1985518141291129
100
AcDbArc
 50
179.5805139804
 51
269.5742796673
  0
LWPOLYLINE
  5
1F4
330
4EE
100
AcDbEntity
  8
0
  6
Continuous
 62
     8
100
AcDbPolyline
 90
        3
 70
   128
 43
0.0
 10
123.5108011586
 20
375.4221586031
 10
123.5484572245
 20
375.4328015931
 10
123.8008559183
 20
375.4516157343
  0
LWPOLYLINE
  5
1F5
330
4EE
100
AcDbEntity
  8
0
  6
Continuous
 62
     8
100
AcDbPolyline
 90
        3
 70
   128
 43
0.0
 10
169.5108011586
 20
375.4221586031
 10
169.4731450927
 20
375.4328015931
 10
169.2207463989
 20
375.4516157343
  0
LINE
  5
1F6
330
4EE
100
AcDbEntity
  8
0
  6
Continuous
 62
     8
100
AcDbLine
 10
123.8008559183
 20
385.77705054
 30
0.0
 11
123.5108011586
 21
385.776287774
 31
0.0
  0
LINE
  5
1F7
330
4EE
100
AcDbEntity
  8
0
  6
Continuous
 62
     8
100
AcDbLine
 10
169.5108011586
 20
385.776287774
 30
0.0
 11
169.2207463989
 21
385.77705054
 31
0.0
  0
LINE
  5
1F8
330
4EE
100
AcDbEntity
  8
0
  6
Continuous
 62
     7
100
AcDbLine
 10
144.5108011586
 20
242.2772720893
 30
0.0
 11
144.5108011586
 21
229.2772720893
 31
0.0
  0
LINE
  5
1F9
330
4EE
100
AcDbEntity
  8
0
  6
Continuous
 62
     7
100
AcDbLine
 10
148.5108011586
 20
229.2772720893
 30
0.0
 11
148.5108011586
 21
242.2772720893
 31
0.0
  0
LINE
  5
1FA
330
4EE
100
AcDbEntity
  8
0
  6
Continuous
 62
     7
100
AcDbLine
 10
148.5108011586
 20
225.5185016062
 30
0.0
 11
148.5108011586
 21
229.2772720893
 31
0.0
  0
LINE
  5
1FB
330
4EE
100
AcDbEntity
  8
0
  6
Continuous
 62
     7
100
AcDbLine
 10
144.5108011586
 20
229.2772720893
 30
0.0
 11
144.5108011586
 21
225.5185016062
 31
0.0
  0
LINE
  5
1FC
330
4EE
100
AcDbEntity
  8
0
  6
Continuous
 62
     7
100
AcDbLine
 10
144.5108011586
 20
225.5185016062
 30
0.0
 11
144.5108011586
 21
222.8005222842
 31
0.0
  0
LINE
  5
1FD
330
4EE
100
AcDbEntity
  8
0
  6
Continuous
 62
     7
100
AcDbLine
 10
148.5108011586
 20
222.7959378168
 30
0.0
 11
148.5108011586
 21
225.5185016062
 31
0.0
  0
ARC
  5
1FE
330
4EE
100
AcDbEntity
  8
0
  6
Continuous
 62
     7
100
AcDbCircle
 10
43.608891258
 20
160.6819134551
 30
0.0
 40
87.10697492831613
100
AcDbArc
 50
1.1095183273
 51
21.3416270192
  0
ARC
  5
1FF
330
4EE
100
AcDbEntity
  8
0
  6
Continuous
 62
     7
100
AcDbCircle
 10
249.3601894208
 20
160.6819134551
 30
0.0
 40
87.106974928316
100
AcDbArc
 50
158.6583729808
 51
178.8904816727
  0
ARC
  5
200
330
4EE
100
AcDbEntity
  8
0
  6
Continuous
 62
     7
100
AcDbCircle
 10
159.742108734
 20
116.1395705356
 30
0.0
 40
2.297411308281367
100
AcDbArc
 50
258.870365772
 51
10.829634228
  0
ARC
  5
201
330
4EE
100
AcDbEntity
  8
0
  6
Continuous
 62
     7
100
AcDbCircle
 10
133.2269719448
 20
116.1395705356
 30
0.0
 40
2.297411308281322
100
AcDbArc
 50
169.170365772
 51
281.129634228
  0
LWPOLYLINE
  5
202
330
4EE
100
AcDbEntity
  8
0
  6
Continuous
 62
     7
100
AcDbPolyline
 90
        3
 70
   128
 43
0.0
 10
130.6995344236
 20
162.3686126454
 10
130.743901722
 20
159.3688392068
 10
130.7583944047
 20
157.07566408
  0
LWPOLYLINE
  5
203
330
4EE
100
AcDbEntity
  8
0
  6
Continuous
 62
     7
100
AcDbPolyline
 90
        3
 70
   128
 43
0.0
 10
162.2695462552
 20
162.3686126454
 10
162.2251789569
 20
159.3688392068
 10
162.2106862741
 20
157.07566408
  0
LINE
  5
204
330
4EE
100
AcDbEntity
  8
0
  6
Continuous
 62
     7
100
AcDbLine
 10
162.2106862741
 20
157.07566408
 30
0.0
 11
161.9986036132
 21
116.571229637
 31
0.0
  0
LINE
  5
205
330
4EE
100
AcDbEntity
  8
0
  6
Continuous
 62
     7
100
AcDbLine
 10
130.7583944047
 20
157.07566408
 30
0.0
 11
130.9704770656
 21
116.571229637
 31
0.0
  0
LINE
  5
206
330
4EE
100
AcDbEntity
  8
0
  6
Continuous
 62
     7
100
AcDbLine
 10
159.2986406241
 20
113.8853667394
 30
0.0
 11
133.6704400547
 21
113.8853667394
 31
0.0
  0
ARC
  5
207
330
4EE
100
AcDbEntity
  8
0
  6
Continuous
 62
     7
100
AcDbCircle
 10
146.4845403394
 20
199.8853667394
 30
0.0
 40
23.0
100
AcDbArc
 50
340.9612250535999
 51
199.0387749463999
  0
LINE
  5
208
330
4EE
100
AcDbEntity
  8
0
  6
Continuous
 62
     7
100
AcDbLine
 10
130.6995344236
 20
162.3686126454
 30
0.0
 11
130.7583944047
 21
157.07566408
 31
0.0
  0
LINE
  5
209
330
4EE
100
AcDbEntity
  8
0
  6
Continuous
 62
     7
100
AcDbLine
 10
162.2695462552
 20
162.3686126454
 30
0.0
 11
162.2106862741
 21
157.07566408
 31
0.0
  0
LINE
  5
20A
330
4EE
100
AcDbEntity
  8
0
  6
Continuous
 62
     7
100
AcDbLine
 10
169.5108011586
 20
199.8367395938
 30
0.0
 11
169.2207463989
 21
196.1955327632
 31
0.0
  0
ARC
  5
20B
330
4EE
100
AcDbEntity
  8
0
  6
Continuous
 62
     7
100
AcDbCircle
 10
-15.3526633787
 20
172.3842909288
 30
0.0
 40
141.1760502721305
100
AcDbArc
 50
359.5138908242999
 51
9.7101191889
  0
ARC
  5
20C
330
4EE
100
AcDbEntity
  8
0
  6
Continuous
 62
     7
100
AcDbCircle
 10
307.7424001459
 20
172.435262876
 30
0.0
 40
140.5446512034672
100
AcDbArc
 50
170.2669164055
 51
180.5090735813
  0
LINE
  5
20D
330
4EE
100
AcDbEntity
  8
0
  6
Continuous
 62
     7
100
AcDbLine
 10
163.8494437833
 20
91.3367395938
 30
0.0
 11
146.5108011586
 21
91.3367395938
 31
0.0
  0
LINE
  5
20E
330
4EE
100
AcDbEntity
  8
0
  6
Continuous
 62
     7
100
AcDbLine
 10
146.5108011586
 20
91.3367395938
 30
0.0
 11
129.1721585339
 21
91.3367395938
 31
0.0
  0
ARC
  5
20F
330
4EE
100
AcDbEntity
  8
0
  6
Continuous
 62
     7
100
AcDbCircle
 10
128.6708934479
 20
94.0344673933
 30
0.0
 40
2.743902688956906
100
AcDbArc
 50
169.5889087682
 51
280.5260912318
  0
ARC
  5
210
330
4EE
100
AcDbEntity
  8
0
  6
Continuous
 62
     7
100
AcDbCircle
 10
164.3507088693
 20
94.0344673933
 30
0.0
 40
2.743902688956883
100
AcDbArc
 50
259.4739087682
 51
10.4110912318
  0
LINE
  5
211
330
4EE
100
AcDbEntity
  8
0
  6
Continuous
 62
     7
100
AcDbLine
 10
167.1628900278
 20
151.0551132429
 30
0.0
 11
167.0509998172
 21
95.308780857
 31
0.0
  0
LINE
  5
212
330
4EE
100
AcDbEntity
  8
0
  6
Continuous
 62
     7
100
AcDbLine
 10
167.0509998176
 20
95.3087810118
 30
0.0
 11
167.0494373376
 21
94.5303167865
 31
0.0
  0
LINE
  5
213
330
4EE
100
AcDbEntity
  8
0
  6
Continuous
 62
     7
100
AcDbLine
 10
125.9706027202
 20
95.3086711272
 30
0.0
 11
125.8587122894
 21
151.0551132429
 31
0.0
  0
LINE
  5
214
330
4EE
100
AcDbEntity
  8
0
  6
Continuous
 62
     7
100
AcDbLine
 10
125.9721649796
 20
94.5303167865
 30
0.0
 11
125.9706027199
 21
95.3086712822
 31
0.0
  0
ARC
  5
215
330
4EE
100
AcDbEntity
  8
0
  6
Continuous
 62
     7
100
AcDbCircle
 10
146.5108011586
 20
199.8367395938
 30
0.0
 40
23.0
100
AcDbArc
 50
0.0
 51
28.4398539787
  0
LINE
  5
216
330
4EE
100
AcDbEntity
  8
0
  6
Continuous
 62
     7
100
AcDbLine
 10
167.2032964426
 20
171.1865386563
 30
0.0
 11
167.1628900278
 21
151.0551132429
 31
0.0
  0
LINE
  5
217
330
4EE
100
AcDbEntity
  8
0
  6
Continuous
 62
     7
100
AcDbLine
 10
125.8587122894
 20
151.0551132429
 30
0.0
 11
125.8183058747
 21
171.1865386563
 31
0.0
  0
LINE
  5
218
330
4EE
100
AcDbEntity
  8
0
  6
Continuous
 62
     7
100
AcDbLine
 10
144.5108011586
 20
242.2772720893
 30
0.0
 11
148.5108011586
 21
242.2772720893
 31
0.0
  0
ARC
  5
219
330
4EE
100
AcDbEntity
  8
0
  6
Continuous
 62
     8
100
AcDbCircle
 10
43.6072769085
 20
160.6782714463
 30
0.0
 40
88.55865034620267
100
AcDbArc
 50
1.1152792378
 51
21.3057463407
  0
ARC
  5
21A
330
4EE
100
AcDbEntity
  8
0
  6
Continuous
 62
     8
100
AcDbCircle
 10
249.3618037703
 20
160.6782714463
 30
0.0
 40
88.55865034620128
100
AcDbArc
 50
158.6942536593
 51
178.8847207622
  0
LWPOLYLINE
  5
21B
330
4EE
100
AcDbEntity
  8
0
  6
Continuous
 62
     8
100
AcDbPolyline
 90
        3
 70
   128
 43
0.0
 10
160.8199302288
 20
162.4019828239
 10
160.7785041038
 20
159.7427606586
 10
160.7607060941
 20
157.0832559967
  0
LINE
  5
21C
330
4EE
100
AcDbEntity
  8
0
  6
Continuous
 62
     8
100
AcDbLine
 10
160.7607061503
 20
157.0832562275
 30
0.0
 11
160.5486234894
 21
116.5788217846
 31
0.0
  0
LWPOLYLINE
  5
21D
330
4EE
100
AcDbEntity
  8
0
  6
Continuous
 62
     8
100
AcDbPolyline
 90
        9
 70
   128
 43
0.0
 10
160.5486234203
 20
116.5788221193
 10
160.5293613563
 20
116.0274625374
 10
160.4845047964
 20
115.7546949308
 10
160.4431033743
 20
115.6224460232
 10
160.4145078667
 20
115.5593278138
 10
160.3751283569
 20
115.5021474137
 10
160.3183307968
 20
115.4629621027
 10
159.851885421
 20
115.351906266
 10
159.2986406186
 20
115.3353670438
  0
LINE
  5
21E
330
4EE
100
AcDbEntity
  8
0
  6
Continuous
 62
     8
100
AcDbLine
 10
159.2986406241
 20
115.3353667394
 30
0.0
 11
146.4845403394
 21
115.3353667394
 31
0.0
  0
ARC
  5
21F
330
4EE
100
AcDbEntity
  8
0
  6
Continuous
 62
     8
100
AcDbCircle
 10
146.4845403394
 20
199.8853667394
 30
0.0
 40
21.55000000000011
100
AcDbArc
 50
340.9612250535999
 51
90.0
  0
LINE
  5
220
330
4EE
100
AcDbEntity
  8
0
  6
Continuous
 62
     8
100
AcDbLine
 10
133.6704400547
 20
115.3353667394
 30
0.0
 11
146.4845403394
 21
115.3353667394
 31
0.0
  0
LWPOLYLINE
  5
221
330
4EE
100
AcDbEntity
  8
0
  6
Continuous
 62
     8
100
AcDbPolyline
 90
        9
 70
   128
 43
0.0
 10
132.4204572585
 20
116.5788221193
 10
132.4397193225
 20
116.0274625374
 10
132.4845758825
 20
115.7546949308
 10
132.5259773045
 20
115.6224460232
 10
132.5545728122
 20
115.5593278138
 10
132.5939523219
 20
115.5021474137
 10
132.650749882
 20
115.4629621027
 10
133.1171952579
 20
115.351906266
 10
133.6704400602
 20
115.3353670438
  0
LINE
  5
222
330
4EE
100
AcDbEntity
  8
0
  6
Continuous
 62
     8
100
AcDbLine
 10
132.2083745285
 20
157.0832562275
 30
0.0
 11
132.4204571894
 21
116.5788217846
 31
0.0
  0
LWPOLYLINE
  5
223
330
4EE
100
AcDbEntity
  8
0
  6
Continuous
 62
     8
100
AcDbPolyline
 90
        3
 70
   128
 43
0.0
 10
132.14915045
 20
162.4019828239
 10
132.190576575
 20
159.7427606586
 10
132.2083745848
 20
157.0832559967
  0
ARC
  5
224
330
4EE
100
AcDbEntity
  8
0
  6
Continuous
 62
     8
100
AcDbCircle
 10
146.4845403394
 20
199.8853667394
 30
0.0
 40
21.55000000000009
100
AcDbArc
 50
90.0
 51
199.0387749463999
  0
LWPOLYLINE
  5
225
330
4EE
100
AcDbEntity
  8
0
  6
Continuous
 62
     8
100
AcDbPolyline
 90
        3
 70
   128
 43
0.0
 10
169.2207463989
 20
196.1955327632
 10
169.193491365
 20
196.200076888
 10
169.1875316117
 20
196.2010503454
  0
LWPOLYLINE
  5
226
330
4EE
100
AcDbEntity
  8
0
  6
Continuous
 62
     8
100
AcDbPolyline
 90
        4
 70
   128
 43
0.0
 10
127.3201290049
 20
151.0575760118
 10
127.3271046821
 20
148.0575842601
 10
127.355013558
 20
136.0576172855
 10
127.4495757214
 20
95.3107176013
  0
LWPOLYLINE
  5
227
330
4EE
100
AcDbEntity
  8
0
  6
Continuous
 62
     8
100
AcDbPolyline
 90
        4
 70
   128
 43
0.0
 10
127.2732260709
 20
171.1889548437
 10
127.2802062448
 20
168.1889630978
 10
127.294209803
 20
162.1889797346
 10
127.3201290049
 20
151.0575760118
  0
ARC
  5
228
330
4EE
100
AcDbEntity
  8
0
  6
Continuous
 62
     8
100
AcDbCircle
 10
7.3571628535
 20
173.5401687463
 30
0.0
 40
119.9391113206123
100
AcDbArc
 50
358.8767361898999
 51
6.615490108
  0
ARC
  5
229
330
4EE
100
AcDbEntity
  8
0
  6
Continuous
 62
     8
100
AcDbCircle
 10
286.5339413708
 20
173.5146727868
 30
0.0
 40
120.8079538208957
100
AcDbArc
 50
173.316570851
 51
181.1030900749
  0
LWPOLYLINE
  5
22A
330
4EE
100
AcDbEntity
  8
0
  6
Continuous
 62
     8
100
AcDbPolyline
 90
        4
 70
   128
 43
0.0
 10
165.7014733123
 20
151.0575760118
 10
165.7084519191
 20
154.0575677515
 10
165.7364183419
 20
166.0575345025
 10
165.7483762463
 20
171.1889548437
  0
LWPOLYLINE
  5
22B
330
4EE
100
AcDbEntity
  8
0
  6
Continuous
 62
     8
100
AcDbPolyline
 90
        4
 70
   128
 43
0.0
 10
165.5720268863
 20
95.3108274065
 10
165.5901078714
 20
103.2389625502
 10
165.6458115467
 20
127.1482897316
 10
165.7014733123
 20
151.0575760118
  0
LWPOLYLINE
  5
22C
330
4EE
100
AcDbEntity
  8
0
  6
Continuous
 62
     8
100
AcDbPolyline
 90
        3
 70
   128
 43
0.0
 10
146.5108023721
 20
92.7655958106
 10
155.1321744851
 20
92.7870001399
 10
163.8582084343
 20
92.8182585338
  0
LWPOLYLINE
  5
22D
330
4EE
100
AcDbEntity
  8
0
  6
Continuous
 62
     8
100
AcDbPolyline
 90
        3
 70
   128
 43
0.0
 10
129.163393883
 20
92.8182585338
 10
137.8894278322
 20
92.7870001399
 10
146.5107999452
 20
92.7655958106
  0
LWPOLYLINE
  5
22E
330
4EE
100
AcDbEntity
  8
0
  6
Continuous
 62
     8
100
AcDbPolyline
 90
        3
 70
   128
 43
0.0
 10
127.450287876
 20
95.3121404945
 10
127.4502945324
 20
95.3107191812
 10
127.4541789688
 20
94.5280110208
  0
LWPOLYLINE
  5
22F
330
4EE
100
AcDbEntity
  8
0
  6
Continuous
 62
     8
100
AcDbPolyline
 90
        7
 70
   128
 43
0.0
 10
127.4541789688
 20
94.5280110208
 10
127.505356954
 20
93.6479851726
 10
127.6349820318
 20
93.2202488041
 10
127.7251864989
 20
93.0895486821
 10
127.8544326124
 20
92.9993657662
 10
128.0709696
 20
92.9164531307
 10
129.163393883
 20
92.8182585338
  0
LINE
  5
230
330
4EE
100
AcDbEntity
  8
0
  6
Continuous
 62
     8
100
AcDbLine
 10
165.5674233485
 20
94.5280110208
 30
0.0
 11
165.5713144413
 21
95.3121404945
 31
0.0
  0
LWPOLYLINE
  5
231
330
4EE
100
AcDbEntity
  8
0
  6
Continuous
 62
     8
100
AcDbPolyline
 90
        7
 70
   128
 43
0.0
 10
163.8582084343
 20
92.8182585338
 10
164.9506327173
 20
92.9164531307
 10
165.1671697048
 20
92.9993657662
 10
165.2964158183
 20
93.0895486821
 10
165.3866202854
 20
93.2202488041
 10
165.5162453633
 20
93.6479851726
 10
165.5674233485
 20
94.5280110208
  0
ENDSEC
  0
SECTION
  2
OBJECTS
  0
DICTIONARY
  5
4DE
330
0
100
AcDbDictionary
281
     1
  3
ACAD_DETAILVIEWSTYLE
350
551
  3
ACAD_GROUP
350
4DF
  3
ACAD_LAYOUT
350
4EB
  3
ACAD_MATERIAL
350
4F9
  3
ACAD_MLEADERSTYLE
350
544
  3
ACAD_MLINESTYLE
350
4E8
  3
ACAD_PLOTSETTINGS
350
4EA
  3
ACAD_PLOTSTYLENAME
350
4E0
  3
ACAD_SCALELIST
350
507
  3
ACAD_SECTIONVIEWSTYLE
350
552
  3
ACAD_TABLESTYLE
350
542
  3
ACAD_VISUALSTYLE
350
529
  3
ACDB_RECOMPOSE_DATA
350
54D
  3
AcDbVariableDictionary
350
549
  3
APPDATA
350
546
  0
DICTIONARY
  5
547
330
4EE
100
AcDbDictionary
280
     1
281
     1
  3
DIM_BOUNDING_BOXES_V1
360
548
  0
DICTIONARY
  5
551
102
{ACAD_REACTORS
330
4DE
102
}
330
4DE
100
AcDbDictionary
281
     1
  0
DICTIONARY
  5
4DF
102
{ACAD_REACTORS
330
4DE
102
}
330
4DE
100
AcDbDictionary
281
     1
  0
DICTIONARY
  5
4EB
102
{ACAD_REACTORS
330
4DE
102
}
330
4DE
100
AcDbDictionary
281
     1
  3
Blatt1
350
4ED
  3
Model
350
4EF
  0
DICTIONARY
  5
4F9
102
{ACAD_REACTORS
330
4DE
102
}
330
4DE
100
AcDbDictionary
281
     1
  3
ByBlock
350
4FB
  3
ByLayer
350
4FA
  3
Global
350
4FC
  0
DICTIONARY
  5
544
102
{ACAD_REACTORS
330
4DE
102
}
330
4DE
100
AcDbDictionary
281
     1
  3
Standard
350
545
  0
DICTIONARY
  5
4E8
102
{ACAD_REACTORS
330
4DE
102
}
330
4DE
100
AcDbDictionary
281
     1
  3
Standard
350
4E9
  0
DICTIONARY
  5
4EA
102
{ACAD_REACTORS
330
4DE
102
}
330
4DE
100
AcDbDictionary
281
     1
  0
ACDBDICTIONARYWDFLT
  5
4E0
102
{ACAD_REACTORS
330
4DE
102
}
330
4DE
100
AcDbDictionary
281
     1
  3
Normal
350
4E1
100
AcDbDictionaryWithDefault
340
4E1
  0
DICTIONARY
  5
507
102
{ACAD_REACTORS
330
4DE
102
}
330
4DE
100
AcDbDictionary
281
     1
  3
A0
350
508
  3
A1
350
509
  3
A2
350
50A
  3
A3
350
50B
  3
A4
350
50C
  3
A5
350
50D
  3
A6
350
50E
  3
A7
350
50F
  3
A8
350
510
  3
A9
350
511
  3
B0
350
512
  3
B1
350
513
  3
B2
350
514
  3
B3
350
515
  3
B4
350
516
  3
B5
350
517
  3
B6
350
518
  3
B7
350
519
  3
B8
350
51A
  3
B9
350
51B
  3
C0
350
51C
  3
C1
350
51D
  3
C2
350
51E
  3
C3
350
51F
  3
C4
350
520
  3
C5
350
521
  3
C6
350
522
  3
C7
350
523
  3
C8
350
524
  3
C9
350
525
  3
D0
350
526
  3
D1
350
527
  3
D2
350
528
  0
DICTIONARY
  5
552
102
{ACAD_REACTORS
330
4DE
102
}
330
4DE
100
AcDbDictionary
281
     1
  0
DICTIONARY
  5
542
102
{ACAD_REACTORS
330
4DE
102
}
330
4DE
100
AcDbDictionary
281
     1
  3
Standard
350
543
  0
DICTIONARY
  5
529
102
{ACAD_REACTORS
330
4DE
102
}
330
4DE
100
AcDbDictionary
281
     1
  3
2dWireframe
350
52E
  3
Basic
350
531
  3
Brighten
350
535
  3
ColorChange
350
539
  3
Conceptual
350
533
  3
Dim
350
534
  3
EdgeColorOff
350
53C
  3
Facepattern
350
538
  3
Flat
350
52A
  3
FlatWithEdges
350
52B
  3
Gouraud
350
52C
  3
GouraudWithEdges
350
52D
  3
Hidden
350
530
  3
JitterOff
350
53A
  3
Linepattern
350
537
  3
OverhangOff
350
53B
  3
Realistic
350
532
  3
Shaded
350
541
  3
Shaded with edges
350
540
  3
Shades of Gray
350
53D
  3
Sketchy
350
53E
  3
Thicken
350
536
  3
Wireframe
350
52F
  3
X-Ray
350
53F
  0
XRECORD
  5
54D
102
{ACAD_REACTORS
330
4DE
102
}
330
4DE
100
AcDbXrecord
280
     1
 90
        1
330
543
  0
DICTIONARY
  5
549
102
{ACAD_REACTORS
330
4DE
102
}
330
4DE
100
AcDbDictionary
281
     1
  3
CANNOSCALE
350
54A
  3
CMLEADERSTYLE
350
54F
  3
CTABLESTYLE
350
54E
  3
MSLTSCALE
350
550
  0
DICTIONARY
  5
546
102
{ACAD_REACTORS
330
4DE
102
}
330
4DE
100
AcDbDictionary
281
     1
  0
DICTIONARY
  5
548
102
{ACAD_REACTORS
330
547
102
}
330
547
100
AcDbDictionary
281
     1
  0
LAYOUT
  5
4ED
102
{ACAD_REACTORS
330
4EB
102
}
330
4EB
100
AcDbPlotSettings
  1

  2
none_device
  4

  6

 40
0.0
 41
0.0
 42
0.0
 43
0.0
 44
0.0
 45
0.0
 46
0.0
 47
0.0
 48
0.0
 49
0.0
140
0.0
141
0.0
142
1.0
143
1.0
 70
   688
 72
     0
 73
     0
 74
     5
  7

 75
    16
 76
     0
 77
     2
 78
   300
147
1.0
148
0.0
149
0.0
100
AcDbLayout
  1
Blatt1
 70
     1
 71
     1
 10
0.0
 20
0.0
 11
0.0
 21
0.0
 12
0.0
 22
0.0
 32
0.0
 14
1.000000000000000E+20
 24
1.000000000000000E+20
 34
1.000000000000000E+20
 15
-1.000000000000000E+20
 25
-1.000000000000000E+20
 35
-1.000000000000000E+20
146
0.0
 13
0.0
 23
0.0
 33
0.0
 16
1.0
 26
0.0
 36
0.0
 17
0.0
 27
1.0
 37
0.0
 76
     0
330
4EC
  0
LAYOUT
  5
4EF
102
{ACAD_REACTORS
330
4EB
102
}
330
4EB
100
AcDbPlotSettings
  1

  2
none_device
  4
Letter_(8.50_x_11.00_Inches)
  6

 40
6.35
 41
6.35
 42
6.35
 43
6.35
 44
215.9
 45
279.4
 46
0.0
 47
0.0
 48
0.0
 49
0.0
140
0.0
141
0.0
142
1.0
143
1.0
 70
  1712
 72
     0
 73
     0
 74
     0
  7

 75
     0
 76
     0
 77
     2
 78
   300
147
1.0
148
0.0
149
0.0
100
AcDbLayout
  1
Model
 70
     1
 71
     0
 10
0.0
 20
0.0
 11
12.0
 21
9.0
 12
0.0
 22
0.0
 32
0.0
 14
33.76143973320001
 24
37.46023423129998
 34
0.0
 15
520.6771150059001
 25
424.6518806858
 35
0.0
146
0.0
 13
0.0
 23
0.0
 33
0.0
 16
1.0
 26
0.0
 36
0.0
 17
0.0
 27
1.0
 37
0.0
 76
     0
330
4EE
331
4F1
  0
MATERIAL
  5
4FB
102
{ACAD_REACTORS
330
4F9
102
}
330
4F9
100
AcDbMaterial
  1
ByBlock
 72
     1
 94
      127
  0
MATERIAL
  5
4FA
102
{ACAD_REACTORS
330
4F9
102
}
330
4F9
100
AcDbMaterial
  1
ByLayer
 72
     1
 94
      127
  0
MATERIAL
  5
4FC
102
{ACAD_REACTORS
330
4F9
102
}
330
4F9
100
AcDbMaterial
  1
Global
 72
     1
 94
      127
  0
MLEADERSTYLE
  5
545
102
{ACAD_REACTORS
330
544
102
}
330
544
100
AcDbMLeaderStyle
179
     2
170
     2
171
     1
172
     0
 90
        2
 40
0.0
 41
0.0
173
     1
 91
-1056964608
340
4E5
 92
       -2
290
     1
 42
0.09
291
     1
 43
0.36
  3
Standard
341
0
 44
0.18
300

342
4E3
174
     1
178
     1
175
     1
176
     0
 93
-1056964608
 45
0.18
292
     0
297
     0
 46
0.18
343
0
 94
-1056964608
 47
1.0
 49
1.0
140
1.0
293
     1
141
0.0
294
     1
177
     0
142
1.0
295
     0
296
     0
143
0.125
271
     0
272
     9
273
     9
298
     0
  0
MLINESTYLE
  5
4E9
102
{ACAD_REACTORS
330
4E8
102
}
330
4E8
100
AcDbMlineStyle
  2
Standard
 70
     0
  3

 62
   256
 51
90.0
 52
90.0
 71
     2
 49
0.5
 62
   256
  6
BYLAYER
 49
-0.5
 62
   256
  6
BYLAYER
  0
ACDBPLACEHOLDER
  5
4E1
102
{ACAD_REACTORS
330
4E0
102
}
330
4E0
  0
SCALE
  5
508
102
{ACAD_REACTORS
330
507
102
}
330
507
100
AcDbScale
 70
     0
300
1:1
140
1.0
141
1.0
290
     1
  0
SCALE
  5
509
102
{ACAD_REACTORS
330
507
102
}
330
507
100
AcDbScale
 70
     0
300
1:2
140
1.0
141
2.0
290
     0
  0
SCALE
  5
50A
102
{ACAD_REACTORS
330
507
102
}
330
507
100
AcDbScale
 70
     0
300
1:4
140
1.0
141
4.0
290
     0
  0
SCALE
  5
50B
102
{ACAD_REACTORS
330
507
102
}
330
507
100
AcDbScale
 70
     0
300
1:5
140
1.0
141
5.0
290
     0
  0
SCALE
  5
50C
102
{ACAD_REACTORS
330
507
102
}
330
507
100
AcDbScale
 70
     0
300
1:8
140
1.0
141
8.0
290
     0
  0
SCALE
  5
50D
102
{ACAD_REACTORS
330
507
102
}
330
507
100
AcDbScale
 70
     0
300
1:10
140
1.0
141
10.0
290
     0
  0
SCALE
  5
50E
102
{ACAD_REACTORS
330
507
102
}
330
507
100
AcDbScale
 70
     0
300
1:16
140
1.0
141
16.0
290
     0
  0
SCALE
  5
50F
102
{ACAD_REACTORS
330
507
102
}
330
507
100
AcDbScale
 70
     0
300
1:20
140
1.0
141
20.0
290
     0
  0
SCALE
  5
510
102
{ACAD_REACTORS
330
507
102
}
330
507
100
AcDbScale
 70
     0
300
1:30
140
1.0
141
30.0
290
     0
  0
SCALE
  5
511
102
{ACAD_REACTORS
330
507
102
}
330
507
100
AcDbScale
 70
     0
300
1:40
140
1.0
141
40.0
290
     0
  0
SCALE
  5
512
102
{ACAD_REACTORS
330
507
102
}
330
507
100
AcDbScale
 70
     0
300
1:50
140
1.0
141
50.0
290
     0
  0
SCALE
  5
513
102
{ACAD_REACTORS
330
507
102
}
330
507
100
AcDbScale
 70
     0
300
1:100
140
1.0
141
100.0
290
     0
  0
SCALE
  5
514
102
{ACAD_REACTORS
330
507
102
}
330
507
100
AcDbScale
 70
     0
300
2:1
140
2.0
141
1.0
290
     0
  0
SCALE
  5
515
102
{ACAD_REACTORS
330
507
102
}
330
507
100
AcDbScale
 70
     0
300
4:1
140
4.0
141
1.0
290
     0
  0
SCALE
  5
516
102
{ACAD_REACTORS
330
507
102
}
330
507
100
AcDbScale
 70
     0
300
8:1
140
8.0
141
1.0
290
     0
  0
SCALE
  5
517
102
{ACAD_REACTORS
330
507
102
}
330
507
100
AcDbScale
 70
     0
300
10:1
140
10.0
141
1.0
290
     0
  0
SCALE
  5
518
102
{ACAD_REACTORS
330
507
102
}
330
507
100
AcDbScale
 70
     0
300
100:1
140
100.0
141
1.0
290
     0
  0
SCALE
  5
519
102
{ACAD_REACTORS
330
507
102
}
330
507
100
AcDbScale
 70
     0
300
1/128" = 1'-0"
140
0.0078125
141
12.0
290
     0
  0
SCALE
  5
51A
102
{ACAD_REACTORS
330
507
102
}
330
507
100
AcDbScale
 70
     0
300
1/64" = 1'-0"
140
0.015625
141
12.0
290
     0
  0
SCALE
  5
51B
102
{ACAD_REACTORS
330
507
102
}
330
507
100
AcDbScale
 70
     0
300
1/32" = 1'-0"
140
0.03125
141
12.0
290
     0
  0
SCALE
  5
51C
102
{ACAD_REACTORS
330
507
102
}
330
507
100
AcDbScale
 70
     0
300
1/16" = 1'-0"
140
0.0625
141
12.0
290
     0
  0
SCALE
  5
51D
102
{ACAD_REACTORS
330
507
102
}
330
507
100
AcDbScale
 70
     0
300
3/32" = 1'-0"
140
0.09375
141
12.0
290
     0
  0
SCALE
  5
51E
102
{ACAD_REACTORS
330
507
102
}
330
507
100
AcDbScale
 70
     0
300
1/8" = 1'-0"
140
0.125
141
12.0
290
     0
  0
SCALE
  5
51F
102
{ACAD_REACTORS
330
507
102
}
330
507
100
AcDbScale
 70
     0
300
3/16" = 1'-0"
140
0.1875
141
12.0
290
     0
  0
SCALE
  5
520
102
{ACAD_REACTORS
330
507
102
}
330
507
100
AcDbScale
 70
     0
300
1/4" = 1'-0"
140
0.25
141
12.0
290
     0
  0
SCALE
  5
521
102
{ACAD_REACTORS
330
507
102
}
330
507
100
AcDbScale
 70
     0
300
3/8" = 1'-0"
140
0.375
141
12.0
290
     0
  0
SCALE
  5
522
102
{ACAD_REACTORS
330
507
102
}
330
507
100
AcDbScale
 70
     0
300
1/2" = 1'-0"
140
0.5
141
12.0
290
     0
  0
SCALE
  5
523
102
{ACAD_REACTORS
330
507
102
}
330
507
100
AcDbScale
 70
     0
300
3/4" = 1'-0"
140
0.75
141
12.0
290
     0
  0
SCALE
  5
524
102
{ACAD_REACTORS
330
507
102
}
330
507
100
AcDbScale
 70
     0
300
1" = 1'-0"
140
1.0
141
12.0
290
     0
  0
SCALE
  5
525
102
{ACAD_REACTORS
330
507
102
}
330
507
100
AcDbScale
 70
     0
300
1-1/2" = 1'-0"
140
1.5
141
12.0
290
     0
  0
SCALE
  5
526
102
{ACAD_REACTORS
330
507
102
}
330
507
100
AcDbScale
 70
     0
300
3" = 1'-0"
140
3.0
141
12.0
290
     0
  0
SCALE
  5
527
102
{ACAD_REACTORS
330
507
102
}
330
507
100
AcDbScale
 70
     0
300
6" = 1'-0"
140
6.0
141
12.0
290
     0
  0
SCALE
  5
528
102
{ACAD_REACTORS
330
507
102
}
330
507
100
AcDbScale
 70
     0
300
1'-0" = 1'-0"
140
12.0
141
12.0
290
     0
  0
TABLESTYLE
  5
543
102
{ACAD_REACTORS
330
542
102
}
102
{ACAD_XDICTIONARY
360
54B
102
}
330
542
100
AcDbTableStyle
  3
Standard
 70
     0
 71
     0
 40
0.06
 41
0.06
280
     0
281
     0
  7
STANDARD
140
0.18
170
     2
 62
     0
 63
   257
283
     0
 90
        4
 91
        0
  1

274
    -2
284
     1
 64
     0
275
    -2
285
     1
 65
     0
276
    -2
286
     1
 66
     0
277
    -2
287
     1
 67
     0
278
    -2
288
     1
 68
     0
279
    -2
289
     1
 69
     0
  7
STANDARD
140
0.25
170
     5
 62
     0
 63
   257
283
     0
 90
        4
 91
        0
  1

274
    -2
284
     1
 64
     0
275
    -2
285
     1
 65
     0
276
    -2
286
     1
 66
     0
277
    -2
287
     1
 67
     0
278
    -2
288
     1
 68
     0
279
    -2
289
     1
 69
     0
  7
STANDARD
140
0.18
170
     5
 62
     0
 63
   257
283
     0
 90
        4
 91
        0
  1

274
    -2
284
     1
 64
     0
275
    -2
285
     1
 65
     0
276
    -2
286
     1
 66
     0
277
    -2
287
     1
 67
     0
278
    -2
288
     1
 68
     0
279
    -2
289
     1
 69
     0
  0
VISUALSTYLE
  5
52E
102
{ACAD_REACTORS
330
529
102
}
330
529
100
AcDbVisualStyle
  2
2dWireframe
 70
     4
177
     3
291
     0
 70
    58
 90
        0
176
     1
 90
        2
176
     1
 90
        0
176
     1
 90
        0
176
     1
 40
0.6
176
     1
 40
30.0
176
     1
 62
     7
420
 16777215
176
     1
 90
        1
176
     1
 90
        4
176
     1
 62
     7
176
     1
 62
   257
176
     1
 90
        1
176
     1
 90
        1
176
     1
 40
1.0
176
     1
 90
        0
176
     1
 62
   257
176
     1
 40
1.0
176
     1
 90
        1
176
     1
 90
        6
176
     1
 90
        2
176
     1
 62
     7
176
     1
 90
        5
176
     1
 90
        0
176
     1
 90
        0
176
     1
290
     0
176
     1
 90
        1
176
     1
 40
0.0
176
     1
 90
        0
176
     1
290
     1
176
     1
290
     1
176
     1
290
     0
176
     1
290
     0
176
     1
290
     0
176
     1
290
     0
176
     1
290
     0
176
     1
290
     0
176
     1
290
     0
176
     1
 90
       50
176
     1
 40
0.0
176
     1
 40
1.0
176
     1
 90
        0
176
     1
 62
    18
420
        0
176
     1
 90
       50
176
     1
 90
        3
176
     1
 62
     5
420
      255
176
     1
290
     0
176
     1
 90
       50
176
     1
 90
       50
176
     1
 90
       50
176
     1
290
     0
176
     1
 90
       50
176
     1
 62
   256
176
     0
 40
1.0
176
     0
 90
        2
176
     1
  1
strokes_ogs.tif
176
     1
290
     0
176
     1
 40
1.0
176
     1
 40
1.0
176
     1
  0
VISUALSTYLE
  5
531
102
{ACAD_REACTORS
330
529
102
}
330
529
100
AcDbVisualStyle
  2
Basic
 70
     7
177
     3
291
     1
 70
    58
 90
        1
176
     1
 90
        0
176
     1
 90
        1
176
     1
 90
        0
176
     1
 40
0.6
176
     1
 40
30.0
176
     1
 62
     7
420
 16777215
176
     1
 90
        0
176
     1
 90
        4
176
     1
 62
     7
176
     1
 62
   257
176
     1
 90
        1
176
     1
 90
        1
176
     1
 40
1.0
176
     1
 90
        8
176
     1
 62
     7
176
     1
 40
1.0
176
     1
 90
        1
176
     1
 90
        6
176
     1
 90
        2
176
     1
 62
     7
176
     1
 90
        5
176
     1
 90
        0
176
     1
 90
        0
176
     1
290
     0
176
     1
 90
        1
176
     1
 40
0.0
176
     1
 90
        0
176
     1
290
     0
176
     1
290
     1
176
     1
290
     1
176
     1
290
     0
176
     1
290
     0
176
     1
290
     0
176
     1
290
     0
176
     1
290
     0
176
     1
290
     0
176
     1
 90
       50
176
     1
 40
0.0
176
     1
 40
1.0
176
     1
 90
        0
176
     1
 62
    18
420
        0
176
     1
 90
       50
176
     1
 90
        3
176
     1
 62
     5
420
      255
176
     1
290
     0
176
     1
 90
       50
176
     1
 90
       50
176
     1
 90
       50
176
     1
290
     0
176
     1
 90
       50
176
     1
 62
   256
176
     0
 40
1.0
176
     0
 90
        2
176
     1
  1
strokes_ogs.tif
176
     1
290
     0
176
     1
 40
1.0
176
     1
 40
1.0
176
     1
  0
VISUALSTYLE
  5
535
102
{ACAD_REACTORS
330
529
102
}
330
529
100
AcDbVisualStyle
  2
Brighten
 70
    12
177
     3
291
     1
 70
    58
 90
        2
176
     1
 90
        2
176
     1
 90
        0
176
     1
 90
        0
176
     1
 40
0.6
176
     1
 40
30.0
176
     1
 62
     7
420
 16777215
176
     1
 90
        1
176
     1
 90
        4
176
     1
 62
     7
176
     1
 62
   257
176
     1
 90
        1
176
     1
 90
        1
176
     1
 40
1.0
176
     1
 90
        8
176
     1
 62
     7
176
     1
 40
1.0
176
     1
 90
        1
176
     1
 90
        6
176
     1
 90
        2
176
     1
 62
     7
176
     1
 90
        5
176
     1
 90
        0
176
     1
 90
        0
176
     1
290
     0
176
     1
 90
        1
176
     1
 40
50.0
176
     1
 90
        0
176
     1
290
     0
176
     1
290
     1
176
     1
290
     1
176
     1
290
     0
176
     1
290
     0
176
     1
290
     0
176
     1
290
     0
176
     1
290
     0
176
     1
290
     0
176
     1
 90
       50
176
     1
 40
0.0
176
     1
 40
1.0
176
     1
 90
        0
176
     1
 62
    18
420
        0
176
     1
 90
       50
176
     1
 90
        3
176
     1
 62
     5
420
      255
176
     1
290
     0
176
     1
 90
       50
176
     1
 90
       50
176
     1
 90
       50
176
     1
290
     0
176
     1
 90
       50
176
     1
 62
   256
176
     0
 40
1.0
176
     0
 90
        2
176
     1
  1
strokes_ogs.tif
176
     1
290
     0
176
     1
 40
1.0
176
     1
 40
1.0
176
     1
  0
VISUALSTYLE
  5
539
102
{ACAD_REACTORS
330
529
102
}
330
529
100
AcDbVisualStyle
  2
ColorChange
 70
    16
177
     3
291
     1
 70
    58
 90
        2
176
     1
 90
        2
176
     1
 90
        3
176
     1
 90
        0
176
     1
 40
0.6
176
     1
 40
30.0
176
     1
 62
     8
420
  8421504
176
     1
 90
        1
176
     1
 90
        4
176
     1
 62
     7
176
     1
 62
   257
176
     1
 90
        1
176
     1
 90
        1
176
     1
 40
1.0
176
     1
 90
        8
176
     1
 62
     8
420
  8421504
176
     1
 40
1.0
176
     1
 90
        1
176
     1
 90
        6
176
     1
 90
        2
176
     1
 62
     7
176
     1
 90
        5
176
     1
 90
        0
176
     1
 90
        0
176
     1
290
     0
176
     1
 90
        1
176
     1
 40
0.0
176
     1
 90
        0
176
     1
290
     0
176
     1
290
     1
176
     1
290
     1
176
     1
290
     0
176
     1
290
     0
176
     1
290
     0
176
     1
290
     0
176
     1
290
     0
176
     1
290
     0
176
     1
 90
       50
176
     1
 40
0.0
176
     1
 40
1.0
176
     1
 90
        0
176
     1
 62
    18
420
        0
176
     1
 90
       50
176
     1
 90
        3
176
     1
 62
     5
420
      255
176
     1
290
     0
176
     1
 90
       50
176
     1
 90
       50
176
     1
 90
       50
176
     1
290
     0
176
     1
 90
       50
176
     1
 62
   256
176
     0
 40
1.0
176
     0
 90
        2
176
     1
  1
strokes_ogs.tif
176
     1
290
     0
176
     1
 40
1.0
176
     1
 40
1.0
176
     1
  0
VISUALSTYLE
  5
533
102
{ACAD_REACTORS
330
529
102
}
330
529
100
AcDbVisualStyle
  2
Conceptual
 70
     9
177
     3
291
     0
 70
    58
 90
        3
176
     1
 90
        2
176
     1
 90
        0
176
     1
 90
        0
176
     1
 40
0.6
176
     1
 40
30.0
176
     1
 62
     7
420
 16777215
176
     1
 90
        2
176
     1
 90
        2
176
     1
 62
     7
176
     1
 62
   257
176
     1
 90
        1
176
     1
 90
        1
176
     1
 40
179.0
176
     1
 90
        8
176
     1
 62
     7
176
     1
 40
1.0
176
     1
 90
        1
176
     1
 90
        6
176
     1
 90
        2
176
     1
 62
     7
176
     1
 90
        3
176
     1
 90
        0
176
     1
 90
        0
176
     1
290
     0
176
     1
 90
        1
176
     1
 40
0.0
176
     1
 90
        0
176
     1
290
     0
176
     1
290
     1
176
     1
290
     1
176
     1
290
     0
176
     1
290
     0
176
     1
290
     0
176
     1
290
     0
176
     1
290
     0
176
     1
290
     0
176
     1
 90
       50
176
     1
 40
0.0
176
     1
 40
1.0
176
     1
 90
        0
176
     1
 62
    18
420
        0
176
     1
 90
       50
176
     1
 90
        3
176
     1
 62
     5
420
      255
176
     1
290
     0
176
     1
 90
       50
176
     1
 90
       50
176
     1
 90
       50
176
     1
290
     0
176
     1
 90
       50
176
     1
 62
   256
176
     0
 40
1.0
176
     0
 90
        2
176
     1
  1
strokes_ogs.tif
176
     1
290
     0
176
     1
 40
1.0
176
     1
 40
1.0
176
     1
  0
VISUALSTYLE
  5
534
102
{ACAD_REACTORS
330
529
102
}
330
529
100
AcDbVisualStyle
  2
Dim
 70
    11
177
     3
291
     1
 70
    58
 90
        2
176
     1
 90
        2
176
     1
 90
        0
176
     1
 90
        0
176
     1
 40
0.6
176
     1
 40
30.0
176
     1
 62
     7
420
 16777215
176
     1
 90
        1
176
     1
 90
        4
176
     1
 62
     7
176
     1
 62
   257
176
     1
 90
        1
176
     1
 90
        1
176
     1
 40
1.0
176
     1
 90
        8
176
     1
 62
     7
176
     1
 40
1.0
176
     1
 90
        1
176
     1
 90
        6
176
     1
 90
        2
176
     1
 62
     7
176
     1
 90
        5
176
     1
 90
        0
176
     1
 90
        0
176
     1
290
     0
176
     1
 90
        1
176
     1
 40
-50.0
176
     1
 90
        0
176
     1
290
     0
176
     1
290
     1
176
     1
290
     1
176
     1
290
     0
176
     1
290
     0
176
     1
290
     0
176
     1
290
     0
176
     1
290
     0
176
     1
290
     0
176
     1
 90
       50
176
     1
 40
0.0
176
     1
 40
1.0
176
     1
 90
        0
176
     1
 62
    18
420
        0
176
     1
 90
       50
176
     1
 90
        3
176
     1
 62
     5
420
      255
176
     1
290
     0
176
     1
 90
       50
176
     1
 90
       50
176
     1
 90
       50
176
     1
290
     0
176
     1
 90
       50
176
     1
 62
   256
176
     0
 40
1.0
176
     0
 90
        2
176
     1
  1
strokes_ogs.tif
176
     1
290
     0
176
     1
 40
1.0
176
     1
 40
1.0
176
     1
  0
VISUALSTYLE
  5
53C
102
{ACAD_REACTORS
330
529
102
}
330
529
100
AcDbVisualStyle
  2
EdgeColorOff
 70
    22
177
     3
291
     1
 70
    58
 90
        2
176
     0
 90
        2
176
     0
 90
        0
176
     0
 90
        0
176
     0
 40
0.6
176
     0
 40
30.0
176
     0
 62
     7
420
 16777215
176
     0
 90
        1
176
     0
 90
        4
176
     0
 62
     7
176
     0
 62
   257
176
     0
 90
        1
176
     0
 90
        1
176
     0
 40
1.0
176
     0
 90
        8
176
     2
 62
     7
176
     0
 40
1.0
176
     0
 90
        1
176
     0
 90
        6
176
     0
 90
        2
176
     0
 62
     7
176
     0
 90
        5
176
     0
 90
        0
176
     0
 90
        0
176
     0
290
     0
176
     0
 90
        1
176
     0
 40
0.0
176
     0
 90
        0
176
     0
290
     0
176
     0
290
     1
176
     0
290
     1
176
     0
290
     0
176
     0
290
     0
176
     0
290
     0
176
     0
290
     0
176
     0
290
     0
176
     0
290
     0
176
     0
 90
       50
176
     0
 40
0.0
176
     0
 40
1.0
176
     0
 90
        0
176
     0
 62
    18
420
        0
176
     0
 90
       50
176
     0
 90
        3
176
     0
 62
     5
420
      255
176
     0
290
     0
176
     0
 90
       50
176
     0
 90
       50
176
     0
 90
       50
176
     0
290
     0
176
     0
 90
       50
176
     0
 62
   256
176
     0
 40
1.0
176
     0
 90
        2
176
     0
  1
strokes_ogs.tif
176
     0
290
     0
176
     0
 40
1.0
176
     0
 40
1.0
176
     0
  0
VISUALSTYLE
  5
538
102
{ACAD_REACTORS
330
529
102
}
330
529
100
AcDbVisualStyle
  2
Facepattern
 70
    15
177
     3
291
     1
 70
    58
 90
        2
176
     1
 90
        2
176
     1
 90
        0
176
     1
 90
        0
176
     1
 40
0.6
176
     1
 40
30.0
176
     1
 62
     7
420
 16777215
176
     1
 90
        1
176
     1
 90
        4
176
     1
 62
     7
176
     1
 62
   257
176
     1
 90
        1
176
     1
 90
        1
176
     1
 40
1.0
176
     1
 90
        8
176
     1
 62
     7
176
     1
 40
1.0
176
     1
 90
        1
176
     1
 90
        6
176
     1
 90
        2
176
     1
 62
     7
176
     1
 90
        5
176
     1
 90
        0
176
     1
 90
        0
176
     1
290
     0
176
     1
 90
        1
176
     1
 40
0.0
176
     1
 90
        0
176
     1
290
     0
176
     1
290
     1
176
     1
290
     1
176
     1
290
     0
176
     1
290
     0
176
     1
290
     0
176
     1
290
     0
176
     1
290
     0
176
     1
290
     0
176
     1
 90
       50
176
     1
 40
0.0
176
     1
 40
1.0
176
     1
 90
        0
176
     1
 62
    18
420
        0
176
     1
 90
       50
176
     1
 90
        3
176
     1
 62
     5
420
      255
176
     1
290
     0
176
     1
 90
       50
176
     1
 90
       50
176
     1
 90
       50
176
     1
290
     0
176
     1
 90
       50
176
     1
 62
   256
176
     0
 40
1.0
176
     0
 90
        2
176
     1
  1
strokes_ogs.tif
176
     1
290
     0
176
     1
 40
1.0
176
     1
 40
1.0
176
     1
  0
VISUALSTYLE
  5
52A
102
{ACAD_REACTORS
330
529
102
}
330
529
100
AcDbVisualStyle
  2
Flat
 70
     0
177
     3
291
     1
 70
    58
 90
        2
176
     1
 90
        1
176
     1
 90
        1
176
     1
 90
        2
176
     1
 40
0.6
176
     1
 40
30.0
176
     1
 62
     7
420
 16777215
176
     1
 90
        0
176
     1
 90
        0
176
     1
 62
     7
176
     1
 62
   257
176
     1
 90
        1
176
     1
 90
        1
176
     1
 40
1.0
176
     1
 90
        8
176
     1
 62
     7
176
     1
 40
1.0
176
     1
 90
        1
176
     1
 90
        6
176
     1
 90
        2
176
     1
 62
     7
176
     1
 90
        5
176
     1
 90
        0
176
     1
 90
        0
176
     1
290
     0
176
     1
 90
       13
176
     1
 40
0.0
176
     1
 90
        0
176
     1
290
     0
176
     1
290
     1
176
     1
290
     1
176
     1
290
     0
176
     1
290
     0
176
     1
290
     0
176
     1
290
     0
176
     1
290
     0
176
     1
290
     0
176
     1
 90
       50
176
     1
 40
0.0
176
     1
 40
1.0
176
     1
 90
        0
176
     1
 62
    18
420
        0
176
     1
 90
       50
176
     1
 90
        3
176
     1
 62
     5
420
      255
176
     1
290
     0
176
     1
 90
       50
176
     1
 90
       50
176
     1
 90
       50
176
     1
290
     0
176
     1
 90
       50
176
     1
 62
   256
176
     0
 40
1.0
176
     0
 90
        2
176
     1
  1
strokes_ogs.tif
176
     1
290
     0
176
     1
 40
1.0
176
     1
 40
1.0
176
     1
  0
VISUALSTYLE
  5
52B
102
{ACAD_REACTORS
330
529
102
}
330
529
100
AcDbVisualStyle
  2
FlatWithEdges
 70
     1
177
     3
291
     1
 70
    58
 90
        2
176
     1
 90
        1
176
     1
 90
        1
176
     1
 90
        2
176
     1
 40
0.6
176
     1
 40
30.0
176
     1
 62
     7
420
 16777215
176
     1
 90
        1
176
     1
 90
        0
176
     1
 62
     7
176
     1
 62
   257
176
     1
 90
        1
176
     1
 90
        1
176
     1
 40
1.0
176
     1
 90
        0
176
     1
 62
   257
176
     1
 40
1.0
176
     1
 90
        1
176
     1
 90
        6
176
     1
 90
        2
176
     1
 62
     7
176
     1
 90
        5
176
     1
 90
        0
176
     1
 90
        0
176
     1
290
     0
176
     1
 90
       13
176
     1
 40
0.0
176
     1
 90
        0
176
     1
290
     0
176
     1
290
     1
176
     1
290
     1
176
     1
290
     0
176
     1
290
     0
176
     1
290
     0
176
     1
290
     0
176
     1
290
     0
176
     1
290
     0
176
     1
 90
       50
176
     1
 40
0.0
176
     1
 40
1.0
176
     1
 90
        0
176
     1
 62
    18
420
        0
176
     1
 90
       50
176
     1
 90
        3
176
     1
 62
     5
420
      255
176
     1
290
     0
176
     1
 90
       50
176
     1
 90
       50
176
     1
 90
       50
176
     1
290
     0
176
     1
 90
       50
176
     1
 62
   256
176
     0
 40
1.0
176
     0
 90
        2
176
     1
  1
strokes_ogs.tif
176
     1
290
     0
176
     1
 40
1.0
176
     1
 40
1.0
176
     1
  0
VISUALSTYLE
  5
52C
102
{ACAD_REACTORS
330
529
102
}
330
529
100
AcDbVisualStyle
  2
Gouraud
 70
     2
177
     3
291
     1
 70
    58
 90
        2
176
     1
 90
        2
176
     1
 90
        1
176
     1
 90
        2
176
     1
 40
0.6
176
     1
 40
30.0
176
     1
 62
     7
420
 16777215
176
     1
 90
        0
176
     1
 90
        0
176
     1
 62
     7
176
     1
 62
   257
176
     1
 90
        1
176
     1
 90
        1
176
     1
 40
1.0
176
     1
 90
        0
176
     1
 62
     7
176
     1
 40
1.0
176
     1
 90
        1
176
     1
 90
        6
176
     1
 90
        2
176
     1
 62
     7
176
     1
 90
        5
176
     1
 90
        0
176
     1
 90
        0
176
     1
290
     0
176
     1
 90
       13
176
     1
 40
0.0
176
     1
 90
        0
176
     1
290
     0
176
     1
290
     1
176
     1
290
     1
176
     1
290
     0
176
     1
290
     0
176
     1
290
     0
176
     1
290
     0
176
     1
290
     0
176
     1
290
     0
176
     1
 90
       50
176
     1
 40
0.0
176
     1
 40
1.0
176
     1
 90
        0
176
     1
 62
    18
420
        0
176
     1
 90
       50
176
     1
 90
        3
176
     1
 62
     5
420
      255
176
     1
290
     0
176
     1
 90
       50
176
     1
 90
       50
176
     1
 90
       50
176
     1
290
     0
176
     1
 90
       50
176
     1
 62
   256
176
     0
 40
1.0
176
     0
 90
        2
176
     1
  1
strokes_ogs.tif
176
     1
290
     0
176
     1
 40
1.0
176
     1
 40
1.0
176
     1
  0
VISUALSTYLE
  5
52D
102
{ACAD_REACTORS
330
529
102
}
330
529
100
AcDbVisualStyle
  2
GouraudWithEdges
 70
     3
177
     3
291
     1
 70
    58
 90
        2
176
     1
 90
        2
176
     1
 90
        1
176
     1
 90
        2
176
     1
 40
0.6
176
     1
 40
30.0
176
     1
 62
     7
420
 16777215
176
     1
 90
        1
176
     1
 90
        0
176
     1
 62
     7
176
     1
 62
   257
176
     1
 90
        1
176
     1
 90
        1
176
     1
 40
1.0
176
     1
 90
        0
176
     1
 62
   257
176
     1
 40
1.0
176
     1
 90
        1
176
     1
 90
        6
176
     1
 90
        2
176
     1
 62
     7
176
     1
 90
        5
176
     1
 90
        0
176
     1
 90
        0
176
     1
290
     0
176
     1
 90
       13
176
     1
 40
0.0
176
     1
 90
        0
176
     1
290
     0
176
     1
290
     1
176
     1
290
     1
176
     1
290
     0
176
     1
290
     0
176
     1
290
     0
176
     1
290
     0
176
     1
290
     0
176
     1
290
     0
176
     1
 90
       50
176
     1
 40
0.0
176
     1
 40
1.0
176
     1
 90
        0
176
     1
 62
    18
420
        0
176
     1
 90
       50
176
     1
 90
        3
176
     1
 62
     5
420
      255
176
     1
290
     0
176
     1
 90
       50
176
     1
 90
       50
176
     1
 90
       50
176
     1
290
     0
176
     1
 90
       50
176
     1
 62
   256
176
     0
 40
1.0
176
     0
 90
        2
176
     1
  1
strokes_ogs.tif
176
     1
290
     0
176
     1
 40
1.0
176
     1
 40
1.0
176
     1
  0
VISUALSTYLE
  5
530
102
{ACAD_REACTORS
330
529
102
}
330
529
100
AcDbVisualStyle
  2
Hidden
 70
     6
177
     3
291
     0
 70
    58
 90
        1
176
     1
 90
        2
176
     1
 90
        2
176
     1
 90
        0
176
     1
 40
0.6
176
     1
 40
30.0
176
     1
 62
     7
420
 16777215
176
     1
 90
        2
176
     1
 90
        2
176
     1
 62
     7
176
     1
 62
   257
176
     1
 90
        2
176
     1
 90
        1
176
     1
 40
40.0
176
     1
 90
        0
176
     1
 62
   257
176
     1
 40
1.0
176
     1
 90
        1
176
     1
 90
        6
176
     1
 90
        2
176
     1
 62
     7
176
     1
 90
        3
176
     1
 90
        0
176
     1
 90
        0
176
     1
290
     0
176
     1
 90
        1
176
     1
 40
0.0
176
     1
 90
        0
176
     1
290
     0
176
     1
290
     1
176
     1
290
     1
176
     1
290
     0
176
     1
290
     0
176
     1
290
     0
176
     1
290
     0
176
     1
290
     0
176
     1
290
     0
176
     1
 90
       50
176
     1
 40
0.0
176
     1
 40
1.0
176
     1
 90
        0
176
     1
 62
    18
420
        0
176
     1
 90
       50
176
     1
 90
        3
176
     1
 62
     5
420
      255
176
     1
290
     0
176
     1
 90
       50
176
     1
 90
       50
176
     1
 90
       50
176
     1
290
     0
176
     1
 90
       50
176
     1
 62
   256
176
     0
 40
1.0
176
     0
 90
        2
176
     1
  1
strokes_ogs.tif
176
     1
290
     0
176
     1
 40
1.0
176
     1
 40
1.0
176
     1
  0
VISUALSTYLE
  5
53A
102
{ACAD_REACTORS
330
529
102
}
330
529
100
AcDbVisualStyle
  2
JitterOff
 70
    20
177
     3
291
     1
 70
    58
 90
        2
176
     0
 90
        2
176
     0
 90
        0
176
     0
 90
        0
176
     0
 40
0.6
176
     0
 40
30.0
176
     0
 62
     7
420
 16777215
176
     0
 90
        1
176
     0
 90
        4
176
     0
 62
     7
176
     0
 62
   257
176
     0
 90
        1
176
     0
 90
        1
176
     0
 40
1.0
176
     0
 90
       10
176
     2
 62
     7
176
     0
 40
1.0
176
     0
 90
        1
176
     0
 90
        6
176
     0
 90
        2
176
     0
 62
     7
176
     0
 90
        5
176
     0
 90
        0
176
     0
 90
        0
176
     0
290
     0
176
     0
 90
        1
176
     0
 40
0.0
176
     0
 90
        0
176
     0
290
     0
176
     0
290
     1
176
     0
290
     1
176
     0
290
     0
176
     0
290
     0
176
     0
290
     0
176
     0
290
     0
176
     0
290
     0
176
     0
290
     0
176
     0
 90
       50
176
     0
 40
0.0
176
     0
 40
1.0
176
     0
 90
        0
176
     0
 62
    18
420
        0
176
     0
 90
       50
176
     0
 90
        3
176
     0
 62
     5
420
      255
176
     0
290
     0
176
     0
 90
       50
176
     0
 90
       50
176
     0
 90
       50
176
     0
290
     0
176
     0
 90
       50
176
     0
 62
   256
176
     0
 40
1.0
176
     0
 90
        2
176
     0
  1
strokes_ogs.tif
176
     0
290
     0
176
     0
 40
1.0
176
     0
 40
1.0
176
     0
  0
VISUALSTYLE
  5
537
102
{ACAD_REACTORS
330
529
102
}
330
529
100
AcDbVisualStyle
  2
Linepattern
 70
    14
177
     3
291
     1
 70
    58
 90
        2
176
     1
 90
        2
176
     1
 90
        0
176
     1
 90
        0
176
     1
 40
0.6
176
     1
 40
30.0
176
     1
 62
     7
420
 16777215
176
     1
 90
        1
176
     1
 90
        4
176
     1
 62
     7
176
     1
 62
   257
176
     1
 90
        7
176
     1
 90
        7
176
     1
 40
1.0
176
     1
 90
        8
176
     1
 62
     7
176
     1
 40
1.0
176
     1
 90
        1
176
     1
 90
        6
176
     1
 90
        2
176
     1
 62
     7
176
     1
 90
        5
176
     1
 90
        0
176
     1
 90
        0
176
     1
290
     0
176
     1
 90
        1
176
     1
 40
0.0
176
     1
 90
        0
176
     1
290
     0
176
     1
290
     1
176
     1
290
     1
176
     1
290
     0
176
     1
290
     0
176
     1
290
     0
176
     1
290
     0
176
     1
290
     0
176
     1
290
     0
176
     1
 90
       50
176
     1
 40
0.0
176
     1
 40
1.0
176
     1
 90
        0
176
     1
 62
    18
420
        0
176
     1
 90
       50
176
     1
 90
        3
176
     1
 62
     5
420
      255
176
     1
290
     0
176
     1
 90
       50
176
     1
 90
       50
176
     1
 90
       50
176
     1
290
     0
176
     1
 90
       50
176
     1
 62
   256
176
     0
 40
1.0
176
     0
 90
        2
176
     1
  1
strokes_ogs.tif
176
     1
290
     0
176
     1
 40
1.0
176
     1
 40
1.0
176
     1
  0
VISUALSTYLE
  5
53B
102
{ACAD_REACTORS
330
529
102
}
330
529
100
AcDbVisualStyle
  2
OverhangOff
 70
    21
177
     3
291
     1
 70
    58
 90
        2
176
     0
 90
        2
176
     0
 90
        0
176
     0
 90
        0
176
     0
 40
0.6
176
     0
 40
30.0
176
     0
 62
     7
420
 16777215
176
     0
 90
        1
176
     0
 90
        4
176
     0
 62
     7
176
     0
 62
   257
176
     0
 90
        1
176
     0
 90
        1
176
     0
 40
1.0
176
     0
 90
        9
176
     2
 62
     7
176
     0
 40
1.0
176
     0
 90
        1
176
     0
 90
        6
176
     0
 90
        2
176
     0
 62
     7
176
     0
 90
        5
176
     0
 90
        0
176
     0
 90
        0
176
     0
290
     0
176
     0
 90
        1
176
     0
 40
0.0
176
     0
 90
        0
176
     0
290
     0
176
     0
290
     1
176
     0
290
     1
176
     0
290
     0
176
     0
290
     0
176
     0
290
     0
176
     0
290
     0
176
     0
290
     0
176
     0
290
     0
176
     0
 90
       50
176
     0
 40
0.0
176
     0
 40
1.0
176
     0
 90
        0
176
     0
 62
    18
420
        0
176
     0
 90
       50
176
     0
 90
        3
176
     0
 62
     5
420
      255
176
     0
290
     0
176
     0
 90
       50
176
     0
 90
       50
176
     0
 90
       50
176
     0
290
     0
176
     0
 90
       50
176
     0
 62
   256
176
     0
 40
1.0
176
     0
 90
        2
176
     0
  1
strokes_ogs.tif
176
     0
290
     0
176
     0
 40
1.0
176
     0
 40
1.0
176
     0
  0
VISUALSTYLE
  5
532
102
{ACAD_REACTORS
330
529
102
}
330
529
100
AcDbVisualStyle
  2
Realistic
 70
     8
177
     3
291
     0
 70
    58
 90
        2
176
     1
 90
        3
176
     1
 90
        0
176
     1
 90
        2
176
     1
 40
0.6
176
     1
 40
30.0
176
     1
 62
     7
420
 16777215
176
     1
 90
        0
176
     1
 90
        0
176
     1
 62
     7
176
     1
 62
   257
176
     1
 90
        1
176
     1
 90
        1
176
     1
 40
1.0
176
     1
 90
        8
176
     1
 62
   257
176
     1
 40
1.0
176
     1
 90
        1
176
     1
 90
        6
176
     1
 90
        2
176
     1
 62
     7
176
     1
 90
        3
176
     1
 90
        0
176
     1
 90
        0
176
     1
290
     0
176
     1
 90
       13
176
     1
 40
0.0
176
     1
 90
        0
176
     1
290
     0
176
     1
290
     1
176
     1
290
     1
176
     1
290
     0
176
     1
290
     0
176
     1
290
     0
176
     1
290
     0
176
     1
290
     0
176
     1
290
     0
176
     1
 90
       50
176
     1
 40
0.0
176
     1
 40
1.0
176
     1
 90
        0
176
     1
 62
    18
420
        0
176
     1
 90
       50
176
     1
 90
        3
176
     1
 62
     5
420
      255
176
     1
290
     0
176
     1
 90
       50
176
     1
 90
       50
176
     1
 90
       50
176
     1
290
     0
176
     1
 90
       50
176
     1
 62
   256
176
     0
 40
1.0
176
     0
 90
        2
176
     1
  1
strokes_ogs.tif
176
     1
290
     0
176
     1
 40
1.0
176
     1
 40
1.0
176
     1
  0
VISUALSTYLE
  5
541
102
{ACAD_REACTORS
330
529
102
}
330
529
100
AcDbVisualStyle
  2
Shaded
 70
    27
177
     3
291
     0
 70
    58
 90
        2
176
     1
 90
        2
176
     1
 90
        1
176
     1
 90
        2
176
     1
 40
0.6
176
     1
 40
30.0
176
     1
 62
     7
420
 16777215
176
     1
 90
        0
176
     1
 90
        4
176
     1
 62
     7
176
     1
 62
   257
176
     1
 90
        1
176
     1
 90
        1
176
     1
 40
1.0
176
     1
 90
        8
176
     1
 62
   257
176
     1
 40
1.0
176
     1
 90
        1
176
     1
 90
        6
176
     1
 90
        2
176
     1
 62
     8
420
  7895160
176
     1
 90
        3
176
     1
 90
        0
176
     1
 90
        0
176
     1
290
     0
176
     1
 90
        5
176
     1
 40
0.0
176
     1
 90
        0
176
     1
290
     0
176
     1
290
     1
176
     1
290
     1
176
     1
290
     0
176
     1
290
     0
176
     1
290
     0
176
     1
290
     0
176
     1
290
     0
176
     1
290
     0
176
     1
 90
       50
176
     1
 40
0.0
176
     1
 40
1.0
176
     1
 90
        0
176
     1
 62
    18
420
        0
176
     1
 90
       50
176
     1
 90
        3
176
     1
 62
     5
420
      255
176
     1
290
     0
176
     1
 90
       50
176
     1
 90
       50
176
     1
 90
       50
176
     1
290
     0
176
     1
 90
       50
176
     1
 62
   256
176
     0
 40
1.0
176
     0
 90
        2
176
     1
  1
strokes_ogs.tif
176
     1
290
     0
176
     1
 40
1.0
176
     1
 40
1.0
176
     1
  0
VISUALSTYLE
  5
540
102
{ACAD_REACTORS
330
529
102
}
330
529
100
AcDbVisualStyle
  2
Shaded with edges
 70
    26
177
     3
291
     0
 70
    58
 90
        2
176
     1
 90
        2
176
     1
 90
        1
176
     1
 90
        2
176
     1
 40
0.6
176
     1
 40
30.0
176
     1
 62
     7
420
 16777215
176
     1
 90
        1
176
     1
 90
       10
176
     1
 62
     7
176
     1
 62
   257
176
     1
 90
        2
176
     1
 90
        1
176
     1
 40
1.0
176
     1
 90
        8
176
     1
 62
   257
176
     1
 40
1.0
176
     1
 90
        1
176
     1
 90
        6
176
     1
 90
        2
176
     1
 62
     7
176
     1
 90
        3
176
     1
 90
        0
176
     1
 90
        0
176
     1
290
     0
176
     1
 90
        5
176
     1
 40
0.0
176
     1
 90
        0
176
     1
290
     0
176
     1
290
     1
176
     1
290
     1
176
     1
290
     0
176
     1
290
     0
176
     1
290
     0
176
     1
290
     0
176
     1
290
     0
176
     1
290
     0
176
     1
 90
       50
176
     1
 40
0.0
176
     1
 40
1.0
176
     1
 90
        0
176
     1
 62
    18
420
        0
176
     1
 90
       50
176
     1
 90
        3
176
     1
 62
     5
420
      255
176
     1
290
     0
176
     1
 90
       50
176
     1
 90
       50
176
     1
 90
       50
176
     1
290
     0
176
     1
 90
       50
176
     1
 62
   256
176
     0
 40
1.0
176
     0
 90
        2
176
     1
  1
strokes_ogs.tif
176
     1
290
     0
176
     1
 40
1.0
176
     1
 40
1.0
176
     1
  0
VISUALSTYLE
  5
53D
102
{ACAD_REACTORS
330
529
102
}
330
529
100
AcDbVisualStyle
  2
Shades of Gray
 70
    23
177
     3
291
     0
 70
    58
 90
        2
176
     1
 90
        2
176
     1
 90
        3
176
     1
 90
        0
176
     1
 40
0.6
176
     1
 40
30.0
176
     1
 62
     7
420
 16777215
176
     1
 90
        2
176
     1
 90
        2
176
     1
 62
     7
176
     1
 62
     7
176
     1
 90
        1
176
     1
 90
        1
176
     1
 40
40.0
176
     1
 90
        8
176
     1
 62
     7
176
     1
 40
1.0
176
     1
 90
        1
176
     1
 90
        6
176
     1
 90
        2
176
     1
 62
     7
176
     1
 90
        3
176
     1
 90
        0
176
     1
 90
        0
176
     1
290
     0
176
     1
 90
        1
176
     1
 40
0.0
176
     1
 90
        0
176
     1
290
     0
176
     1
290
     1
176
     1
290
     1
176
     1
290
     0
176
     1
290
     0
176
     1
290
     0
176
     1
290
     0
176
     1
290
     0
176
     1
290
     0
176
     1
 90
       50
176
     1
 40
0.0
176
     1
 40
1.0
176
     1
 90
        0
176
     1
 62
    18
420
        0
176
     1
 90
       50
176
     1
 90
        3
176
     1
 62
     5
420
      255
176
     1
290
     0
176
     1
 90
       50
176
     1
 90
       50
176
     1
 90
       50
176
     1
290
     0
176
     1
 90
       50
176
     1
 62
   256
176
     0
 40
1.0
176
     0
 90
        2
176
     1
  1
strokes_ogs.tif
176
     1
290
     0
176
     1
 40
1.0
176
     1
 40
1.0
176
     1
  0
VISUALSTYLE
  5
53E
102
{ACAD_REACTORS
330
529
102
}
330
529
100
AcDbVisualStyle
  2
Sketchy
 70
    24
177
     3
291
     0
 70
    58
 90
        1
176
     1
 90
        2
176
     1
 90
        2
176
     1
 90
        0
176
     1
 40
0.6
176
     1
 40
30.0
176
     1
 62
     7
420
 16777215
176
     1
 90
        2
176
     1
 90
        2
176
     1
 62
     7
176
     1
 62
     7
176
     1
 90
        1
176
     1
 90
        1
176
     1
 40
40.0
176
     1
 90
       11
176
     1
 62
     7
176
     1
 40
1.0
176
     1
 90
        1
176
     1
 90
        6
176
     1
 90
        2
176
     1
 62
     7
176
     1
 90
        6
176
     1
 90
        0
176
     1
 90
        0
176
     1
290
     0
176
     1
 90
        1
176
     1
 40
0.0
176
     1
 90
        0
176
     1
290
     0
176
     1
290
     1
176
     1
290
     1
176
     1
290
     0
176
     1
290
     0
176
     1
290
     0
176
     1
290
     0
176
     1
290
     0
176
     1
290
     0
176
     1
 90
       50
176
     1
 40
0.0
176
     1
 40
1.0
176
     1
 90
        0
176
     1
 62
    18
420
        0
176
     1
 90
       50
176
     1
 90
        3
176
     1
 62
     5
420
      255
176
     1
290
     0
176
     1
 90
       50
176
     1
 90
       50
176
     1
 90
       50
176
     1
290
     0
176
     1
 90
       50
176
     1
 62
   256
176
     0
 40
1.0
176
     0
 90
        2
176
     1
  1
strokes_ogs.tif
176
     1
290
     0
176
     1
 40
1.0
176
     1
 40
1.0
176
     1
  0
VISUALSTYLE
  5
536
102
{ACAD_REACTORS
330
529
102
}
330
529
100
AcDbVisualStyle
  2
Thicken
 70
    13
177
     3
291
     1
 70
    58
 90
        2
176
     1
 90
        2
176
     1
 90
        0
176
     1
 90
        0
176
     1
 40
0.6
176
     1
 40
30.0
176
     1
 62
     7
420
 16777215
176
     1
 90
        1
176
     1
 90
        4
176
     1
 62
     7
176
     1
 62
   257
176
     1
 90
        1
176
     1
 90
        1
176
     1
 40
1.0
176
     1
 90
       12
176
     1
 62
     7
176
     1
 40
1.0
176
     1
 90
        1
176
     1
 90
        6
176
     1
 90
        2
176
     1
 62
     7
176
     1
 90
        5
176
     1
 90
        0
176
     1
 90
        0
176
     1
290
     0
176
     1
 90
        1
176
     1
 40
0.0
176
     1
 90
        0
176
     1
290
     0
176
     1
290
     1
176
     1
290
     1
176
     1
290
     0
176
     1
290
     0
176
     1
290
     0
176
     1
290
     0
176
     1
290
     0
176
     1
290
     0
176
     1
 90
       50
176
     1
 40
0.0
176
     1
 40
1.0
176
     1
 90
        0
176
     1
 62
    18
420
        0
176
     1
 90
       50
176
     1
 90
        3
176
     1
 62
     5
420
      255
176
     1
290
     0
176
     1
 90
       50
176
     1
 90
       50
176
     1
 90
       50
176
     1
290
     0
176
     1
 90
       50
176
     1
 62
   256
176
     0
 40
1.0
176
     0
 90
        2
176
     1
  1
strokes_ogs.tif
176
     1
290
     0
176
     1
 40
1.0
176
     1
 40
1.0
176
     1
  0
VISUALSTYLE
  5
52F
102
{ACAD_REACTORS
330
529
102
}
330
529
100
AcDbVisualStyle
  2
Wireframe
 70
     5
177
     3
291
     0
 70
    58
 90
        0
176
     1
 90
        2
176
     1
 90
        0
176
     1
 90
        0
176
     1
 40
0.6
176
     1
 40
30.0
176
     1
 62
     7
420
 16777215
176
     1
 90
        1
176
     1
 90
        4
176
     1
 62
     7
176
     1
 62
   257
176
     1
 90
        1
176
     1
 90
        1
176
     1
 40
1.0
176
     1
 90
        0
176
     1
 62
   257
176
     1
 40
1.0
176
     1
 90
        1
176
     1
 90
        6
176
     1
 90
        2
176
     1
 62
     7
176
     1
 90
        3
176
     1
 90
        0
176
     1
 90
        0
176
     1
290
     0
176
     1
 90
        1
176
     1
 40
0.0
176
     1
 90
        0
176
     1
290
     0
176
     1
290
     1
176
     1
290
     1
176
     1
290
     0
176
     1
290
     0
176
     1
290
     0
176
     1
290
     0
176
     1
290
     0
176
     1
290
     0
176
     1
 90
       50
176
     1
 40
0.0
176
     1
 40
1.0
176
     1
 90
        0
176
     1
 62
    18
420
        0
176
     1
 90
       50
176
     1
 90
        3
176
     1
 62
     5
420
      255
176
     1
290
     0
176
     1
 90
       50
176
     1
 90
       50
176
     1
 90
       50
176
     1
290
     0
176
     1
 90
       50
176
     1
 62
   256
176
     0
 40
1.0
176
     0
 90
        2
176
     1
  1
strokes_ogs.tif
176
     1
290
     0
176
     1
 40
1.0
176
     1
 40
1.0
176
     1
  0
VISUALSTYLE
  5
53F
102
{ACAD_REACTORS
330
529
102
}
330
529
100
AcDbVisualStyle
  2
X-Ray
 70
    25
177
     3
291
     0
 70
    58
 90
        2
176
     1
 90
        2
176
     1
 90
        1
176
     1
 90
        1
176
     1
 40
0.5
176
     1
 40
30.0
176
     1
 62
     7
420
 16777215
176
     1
 90
        1
176
     1
 90
        0
176
     1
 62
     7
176
     1
 62
   257
176
     1
 90
        1
176
     1
 90
        1
176
     1
 40
1.0
176
     1
 90
        8
176
     1
 62
     7
176
     1
 40
1.0
176
     1
 90
        1
176
     1
 90
        6
176
     1
 90
        2
176
     1
 62
     7
176
     1
 90
        3
176
     1
 90
        0
176
     1
 90
        0
176
     1
290
     0
176
     1
 90
       13
176
     1
 40
0.0
176
     1
 90
        0
176
     1
290
     0
176
     1
290
     1
176
     1
290
     1
176
     1
290
     0
176
     1
290
     0
176
     1
290
     0
176
     1
290
     0
176
     1
290
     0
176
     1
290
     0
176
     1
 90
       50
176
     1
 40
0.0
176
     1
 40
1.0
176
     1
 90
        0
176
     1
 62
    18
420
        0
176
     1
 90
       50
176
     1
 90
        3
176
     1
 62
     5
420
      255
176
     1
290
     0
176
     1
 90
       50
176
     1
 90
       50
176
     1
 90
       50
176
     1
290
     0
176
     1
 90
       50
176
     1
 62
   256
176
     0
 40
1.0
176
     0
 90
        2
176
     1
  1
strokes_ogs.tif
176
     1
290
     0
176
     1
 40
1.0
176
     1
 40
1.0
176
     1
  0
DICTIONARYVAR
  5
54A
102
{ACAD_REACTORS
330
549
102
}
330
549
100
DictionaryVariables
280
     0
  1
1:1
  0
DICTIONARYVAR
  5
54F
102
{ACAD_REACTORS
330
549
102
}
330
549
100
DictionaryVariables
280
     0
  1
Standard
  0
DICTIONARYVAR
  5
54E
102
{ACAD_REACTORS
330
549
102
}
330
549
100
DictionaryVariables
280
     0
  1
Standard
  0
DICTIONARYVAR
  5
550
102
{ACAD_REACTORS
330
549
102
}
330
549
100
DictionaryVariables
280
     0
  1
0
  0
DICTIONARY
  5
54B
330
543
100
AcDbDictionary
280
     1
281
     1
  3
ACAD_ROUNDTRIP_2008_TABLESTYLE_CELLSTYLEMAP
360
54C
  0
CELLSTYLEMAP
  5
54C
102
{ACAD_REACTORS
330
54B
102
}
330
54B
100
AcDbCellStyleMap
 90
        3
300
CELLSTYLE
  1
TABLEFORMAT_BEGIN
 90
        5
170
     1
 91
        0
 92
    32768
 62
   257
 93
        1
300
CONTENTFORMAT
  1
CONTENTFORMAT_BEGIN
 90
        0
 91
        0
 92
        4
 93
        0
300

 40
0.0
140
1.0
 94
        5
 62
     0
340
4E3
144
0.25
309
CONTENTFORMAT_END
171
     1
301
MARGIN
  1
CELLMARGIN_BEGIN
 40
0.06
 40
0.06
 40
0.06
 40
0.06
 40
0.06
 40
0.06
309
CELLMARGIN_END
 94
        6
 95
        1
302
GRIDFORMAT
  1
GRIDFORMAT_BEGIN
 90
        0
 91
        1
 62
     0
 92
       -2
340
4E5
 93
        0
 40
0.045
309
GRIDFORMAT_END
 95
        2
302
GRIDFORMAT
  1
GRIDFORMAT_BEGIN
 90
        0
 91
        1
 62
     0
 92
       -2
340
4E5
 93
        0
 40
0.045
309
GRIDFORMAT_END
 95
        4
302
GRIDFORMAT
  1
GRIDFORMAT_BEGIN
 90
        0
 91
        1
 62
     0
 92
       -2
340
4E5
 93
        0
 40
0.045
309
GRIDFORMAT_END
 95
        8
302
GRIDFORMAT
  1
GRIDFORMAT_BEGIN
 90
        0
 91
        1
 62
     0
 92
       -2
340
4E5
 93
        0
 40
0.045
309
GRIDFORMAT_END
 95
       16
302
GRIDFORMAT
  1
GRIDFORMAT_BEGIN
 90
        0
 91
        1
 62
     0
 92
       -2
340
4E5
 93
        0
 40
0.045
309
GRIDFORMAT_END
 95
       32
302
GRIDFORMAT
  1
GRIDFORMAT_BEGIN
 90
        0
 91
        1
 62
     0
 92
       -2
340
4E5
 93
        0
 40
0.045
309
GRIDFORMAT_END
309
TABLEFORMAT_END
  1
CELLSTYLE_BEGIN
 90
        1
 91
        1
300
_TITLE
309
CELLSTYLE_END
300
CELLSTYLE
  1
TABLEFORMAT_BEGIN
 90
        5
170
     1
 91
        0
 92
        0
 62
   257
 93
        1
300
CONTENTFORMAT
  1
CONTENTFORMAT_BEGIN
 90
        0
 91
        0
 92
        4
 93
        0
300

 40
0.0
140
1.0
 94
        5
 62
     0
340
4E3
144
0.18
309
CONTENTFORMAT_END
171
     1
301
MARGIN
  1
CELLMARGIN_BEGIN
 40
0.06
 40
0.06
 40
0.06
 40
0.06
 40
0.06
 40
0.06
309
CELLMARGIN_END
 94
        6
 95
        1
302
GRIDFORMAT
  1
GRIDFORMAT_BEGIN
 90
        0
 91
        1
 62
     0
 92
       -2
340
4E5
 93
        0
 40
0.045
309
GRIDFORMAT_END
 95
        2
302
GRIDFORMAT
  1
GRIDFORMAT_BEGIN
 90
        0
 91
        1
 62
     0
 92
       -2
340
4E5
 93
        0
 40
0.045
309
GRIDFORMAT_END
 95
        4
302
GRIDFORMAT
  1
GRIDFORMAT_BEGIN
 90
        0
 91
        1
 62
     0
 92
       -2
340
4E5
 93
        0
 40
0.045
309
GRIDFORMAT_END
 95
        8
302
GRIDFORMAT
  1
GRIDFORMAT_BEGIN
 90
        0
 91
        1
 62
     0
 92
       -2
340
4E5
 93
        0
 40
0.045
309
GRIDFORMAT_END
 95
       16
302
GRIDFORMAT
  1
GRIDFORMAT_BEGIN
 90
        0
 91
        1
 62
     0
 92
       -2
340
4E5
 93
        0
 40
0.045
309
GRIDFORMAT_END
 95
       32
302
GRIDFORMAT
  1
GRIDFORMAT_BEGIN
 90
        0
 91
        1
 62
     0
 92
       -2
340
4E5
 93
        0
 40
0.045
309
GRIDFORMAT_END
309
TABLEFORMAT_END
  1
CELLSTYLE_BEGIN
 90
        2
 91
        1
300
_HEADER
309
CELLSTYLE_END
300
CELLSTYLE
  1
TABLEFORMAT_BEGIN
 90
        5
170
     1
 91
        0
 92
        0
 62
   257
 93
        1
300
CONTENTFORMAT
  1
CONTENTFORMAT_BEGIN
 90
        0
 91
        0
 92
        4
 93
        0
300

 40
0.0
140
1.0
 94
        2
 62
     0
340
4E3
144
0.18
309
CONTENTFORMAT_END
171
     1
301
MARGIN
  1
CELLMARGIN_BEGIN
 40
0.06
 40
0.06
 40
0.06
 40
0.06
 40
0.06
 40
0.06
309
CELLMARGIN_END
 94
        6
 95
        1
302
GRIDFORMAT
  1
GRIDFORMAT_BEGIN
 90
        0
 91
        1
 62
     0
 92
       -2
340
4E5
 93
        0
 40
0.045
309
GRIDFORMAT_END
 95
        2
302
GRIDFORMAT
  1
GRIDFORMAT_BEGIN
 90
        0
 91
        1
 62
     0
 92
       -2
340
4E5
 93
        0
 40
0.045
309
GRIDFORMAT_END
 95
        4
302
GRIDFORMAT
  1
GRIDFORMAT_BEGIN
 90
        0
 91
        1
 62
     0
 92
       -2
340
4E5
 93
        0
 40
0.045
309
GRIDFORMAT_END
 95
        8
302
GRIDFORMAT
  1
GRIDFORMAT_BEGIN
 90
        0
 91
        1
 62
     0
 92
       -2
340
4E5
 93
        0
 40
0.045
309
GRIDFORMAT_END
 95
       16
302
GRIDFORMAT
  1
GRIDFORMAT_BEGIN
 90
        0
 91
        1
 62
     0
 92
       -2
340
4E5
 93
        0
 40
0.045
309
GRIDFORMAT_END
 95
       32
302
GRIDFORMAT
  1
GRIDFORMAT_BEGIN
 90
        0
 91
        1
 62
     0
 92
       -2
340
4E5
 93
        0
 40
0.045
309
GRIDFORMAT_END
309
TABLEFORMAT_END
  1
CELLSTYLE_BEGIN
 90
        3
 91
        2
300
_DATA
309
CELLSTYLE_END
  0
ENDSEC
  0
EOF
