  0
SECTION
  2
HEADER
  9
$ACADVER
  1
AC1009
  9
$DWGCODEPAGE
  3
ansi_1252
  9
$INSBASE
 10
0.0
 20
0.0
 30
0.0
  9
$EXTMIN
 10
0.0
 20
0.0
 30
0.0
  9
$EXTMAX
 10
594.0
 20
841.0
 30
0.0
  9
$LIMMIN
 10
0.0
 20
0.0
  9
$LIMMAX
 10
594.0
 20
841.0
  9
$ORTHOMODE
 70
     0
  9
$REGENMODE
 70
     1
  9
$FILLMODE
 70
     1
  9
$QTEXTMODE
 70
     0
  9
$MIRRTEXT
 70
     1
  9
$DRAGMODE
 70
     2
  9
$LTSCALE
 40
1.0
  9
$OSMODE
 70
    37
  9
$ATTMODE
 70
     1
  9
$TEXTSIZE
 40
10.0
  9
$TRACEWID
 40
1.0
  9
$TEXTSTYLE
  7
STANDARD
  9
$CLAYER
  8
0
  9
$CELTYPE
  6
BYLAYER
  9
$CECOLOR
 62
   256
  9
$DIMSCALE
 40
1.0
  9
$DIMASZ
 40
2.5
  9
$DIMEXO
 40
0.0
  9
$DIMDLI
 40
3.75
  9
$DIMRND
 40
0.0
  9
$DIMDLE
 40
0.0
  9
$DIMEXE
 40
1.0
  9
$DIMTP
 40
0.0
  9
$DIMTM
 40
0.0
  9
$DIMTXT
 40
3.5
  9
$DIMCEN
 40
2.5
  9
$DIMTSZ
 40
0.0
  9
$DIMTOL
 70
     0
  9
$DIMLIM
 70
     0
  9
$DIMTIH
 70
     1
  9
$DIMTOH
 70
     1
  9
$DIMSE1
 70
     0
  9
$DIMSE2
 70
     0
  9
$DIMTAD
 70
     1
  9
$DIMZIN
 70
     0
  9
$DIMBLK
  1

  9
$DIMASO
 70
     1
  9
$DIMSHO
 70
     1
  9
$DIMPOST
  1

  9
$DIMAPOST
  1

  9
$DIMALT
 70
     0
  9
$DIMALTD
 70
     3
  9
$DIMALTF
 40
0.0393700787
  9
$DIMLFAC
 40
1.0
  9
$DIMTOFL
 70
     1
  9
$DIMTVP
 40
0.0
  9
$DIMTIX
 70
     0
  9
$DIMSOXD
 70
     0
  9
$DIMSAH
 70
     0
  9
$DIMBLK1
  1

  9
$DIMBLK2
  1

  9
$DIMSTYLE
  2
ISO-25
  9
$DIMCLRD
 70
     0
  9
$DIMCLRE
 70
     0
  9
$DIMCLRT
 70
     0
  9
$DIMTFAC
 40
1.0
  9
$DIMGAP
 40
1.5
  9
$LUNITS
 70
     2
  9
$LUPREC
 70
     2
  9
$SKETCHINC
 40
1.0
  9
$FILLETRAD
 40
10.0
  9
$AUNITS
 70
     0
  9
$AUPREC
 70
     2
  9
$MENU
  1
.
  9
$ELEVATION
 40
0.0
  9
$PELEVATION
 40
0.0
  9
$THICKNESS
 40
0.0
  9
$LIMCHECK
 70
     0
  9
$CHAMFERA
 40
0.0
  9
$CHAMFERB
 40
0.0
  9
$SKPOLY
 70
     0
  9
$TDCREATE
 40
2459605.651183206
  9
$TDUPDATE
 40
2459605.65118375
  9
$TDINDWG
 40
0.0000000116
  9
$TDUSRTIMER
 40
0.0000000116
  9
$USRTIMER
 70
     1
  9
$ANGBASE
 50
0.0
  9
$ANGDIR
 70
     0
  9
$PDMODE
 70
     0
  9
$PDSIZE
 40
-1.0
  9
$PLINEWID
 40
0.0
  9
$COORDS
 70
     1
  9
$SPLFRAME
 70
     0
  9
$SPLINETYPE
 70
     6
  9
$SPLINESEGS
 70
     8
  9
$ATTDIA
 70
     0
  9
$ATTREQ
 70
     1
  9
$HANDLING
 70
     1
  9
$HANDSEED
  5
2B5
  9
$SURFTAB1
 70
     6
  9
$SURFTAB2
 70
     6
  9
$SURFTYPE
 70
     6
  9
$SURFU
 70
     6
  9
$SURFV
 70
     6
  9
$UCSNAME
  2

  9
$UCSORG
 10
0.0
 20
0.0
 30
0.0
  9
$UCSXDIR
 10
1.0
 20
0.0
 30
0.0
  9
$UCSYDIR
 10
0.0
 20
1.0
 30
0.0
  9
$PUCSNAME
  2

  9
$PUCSORG
 10
0.0
 20
0.0
 30
0.0
  9
$PUCSXDIR
 10
1.0
 20
0.0
 30
0.0
  9
$PUCSYDIR
 10
0.0
 20
1.0
 30
0.0
  9
$USERI1
 70
     0
  9
$USERI2
 70
     0
  9
$USERI3
 70
     0
  9
$USERI4
 70
     0
  9
$USERI5
 70
     0
  9
$USERR1
 40
0.0
  9
$USERR2
 40
0.0
  9
$USERR3
 40
0.0
  9
$USERR4
 40
0.0
  9
$USERR5
 40
0.0
  9
$WORLDVIEW
 70
     1
  9
$SHADEDGE
 70
     3
  9
$SHADEDIF
 70
    70
  9
$TILEMODE
 70
     1
  9
$MAXACTVP
 70
    64
  9
$PLIMCHECK
 70
     0
  9
$PEXTMIN
 10
1.0000000000E+20
 20
1.0000000000E+20
 30
1.0000000000E+20
  9
$PEXTMAX
 10
-1.0000000000E+20
 20
-1.0000000000E+20
 30
-1.0000000000E+20
  9
$PLIMMIN
 10
0.0
 20
0.0
  9
$PLIMMAX
 10
420.0
 20
297.0
  9
$UNITMODE
 70
     0
  9
$VISRETAIN
 70
     1
  9
$PLINEGEN
 70
     0
  9
$PSLTSCALE
 70
     1
  0
ENDSEC
  0
SECTION
  2
TABLES
  0
TABLE
  2
VPORT
 70
     1
  0
VPORT
  2
*ACTIVE
 70
     0
 10
0.0
 20
0.0
 11
1.0
 21
1.0
 12
297.0
 22
420.5
 13
0.0
 23
0.0
 14
10.0
 24
10.0
 15
10.0
 25
10.0
 16
0.0
 26
0.0
 36
1.0
 17
0.0
 27
0.0
 37
0.0
 40
841.0
 41
0.7063020214
 42
50.0
 43
0.0
 44
0.0
 50
0.0
 51
0.0
 71
     0
 72
  2000
 73
     1
 74
     3
 75
     0
 76
     0
 77
     0
 78
     0
  0
ENDTAB
  0
TABLE
  2
LTYPE
 70
     6
  0
LTYPE
  2
CONTINUOUS
 70
     0
  3
Solid line
 72
    65
 73
     0
 40
0.0
  0
LTYPE
  2
HIDDEN
 70
     0
  3
Hidden __ __ __ __ __ __ __ __ __ __ __ __ __ __
 72
    65
 73
     2
 40
1.905
 49
1.27
 49
-0.635
  0
LTYPE
  2
PHANTOM
 70
     0
  3
Phantom ______  __  __  ______  __  __  ______
 72
    65
 73
     6
 40
12.7
 49
6.35
 49
-1.27
 49
1.27
 49
-1.27
 49
1.27
 49
-1.27
  0
LTYPE
  2
CENTER
 70
     0
  3
Center ____ _ ____ _ ____ _ ____ _ ____ _ ____
 72
    65
 73
     4
 40
10.16
 49
6.35
 49
-1.27
 49
1.27
 49
-1.27
  0
LTYPE
  2
CENTERX2
 70
     0
  3
Center (2x) ________  __  ________  __  _____
 72
    65
 73
     4
 40
20.32
 49
12.7
 49
-2.54
 49
2.54
 49
-2.54
  0
LTYPE
  2
DOT2
 70
     0
  3
Dot (.5x) ........................................
 72
    65
 73
     2
 40
0.635
 49
0.0
 49
-0.635
  0
ENDTAB
  0
TABLE
  2
LAYER
 70
     1
  0
LAYER
  2
0
 70
     0
 62
     7
  6
CONTINUOUS
  0
ENDTAB
  0
TABLE
  2
STYLE
 70
     1
  0
STYLE
  2
STANDARD
 70
     0
 40
0.0
 41
1.0
 50
0.0
 71
     0
 42
10.0
  3
txt
  4

  0
ENDTAB
  0
TABLE
  2
VIEW
 70
     0
  0
ENDTAB
  0
TABLE
  2
UCS
 70
     0
  0
ENDTAB
  0
TABLE
  2
APPID
 70
     1
  0
APPID
  2
ACAD
 70
     0
  0
ENDTAB
  0
TABLE
  2
DIMSTYLE
 70
     2
  0
DIMSTYLE
  2
ISO-25
 70
     0
  3

  4

  5

  6

  7

 40
1.0
 41
2.5
 42
0.625
 43
3.75
 44
1.25
 45
0.0
 46
0.0
 47
0.0
 48
0.0
140
2.5
141
2.5
142
0.0
143
0.0393700787
144
1.0
145
0.0
146
1.0
147
0.625
 71
     0
 72
     0
 73
     0
 74
     0
 75
     0
 76
     0
 77
     1
 78
     8
170
     0
171
     3
172
     1
173
     0
174
     0
175
     0
176
     0
177
     0
178
     0
  0
DIMSTYLE
  2
SLDDIMSTYLE0
 70
     0
  3

  4

  5

  6

  7

 40
1.0
 41
2.5
 42
0.0625
 43
0.38
 44
0.0
 45
0.000000001
 46
0.0
 47
0.0
 48
0.0
140
6.0
141
0.09
142
0.0
143
25.4
144
1.0
145
0.0
146
1.0
147
1.5
 71
     0
 72
     0
 73
     0
 74
     0
 75
     0
 76
     0
 77
     1
 78
    12
170
     0
171
     2
172
     0
173
     1
174
     0
175
     0
176
     0
177
     0
178
     0
  0
ENDTAB
  0
ENDSEC
  0
SECTION
  2
BLOCKS
  0
BLOCK
  8
0
  2
$MODEL_SPACE
 70
     0
 10
0.0
 20
0.0
 30
0.0
  3
$MODEL_SPACE
  1

  0
ENDBLK
  5
21
  8
0
  0
BLOCK
 67
     1
  8
0
  2
$PAPER_SPACE
 70
     0
 10
0.0
 20
0.0
 30
0.0
  3
$PAPER_SPACE
  1

  0
ENDBLK
  5
1D
 67
     1
  8
0
  0
BLOCK
  8
0
  2
_D
 70
     0
 10
0.0
 20
0.0
 30
0.0
  3
_D
  1

  0
SOLID
  5
7A
  8
0
  6
CONTINUOUS
 62
     7
 10
42.7614395004
 20
152.0299240879
 30
0.0
 11
42.4614395004
 21
149.5299240879
 31
0.0
 12
43.0614395004
 22
149.5299240879
 32
0.0
 13
43.0614395004
 23
149.5299240879
 33
0.0
  0
SOLID
  5
7B
  8
0
  6
CONTINUOUS
 62
     7
 10
42.7614395004
 20
52.0299240879
 30
0.0
 11
43.0614395004
 21
54.5299240879
 31
0.0
 12
42.4614395004
 22
54.5299240879
 32
0.0
 13
42.4614395004
 23
54.5299240879
 33
0.0
  0
LINE
  5
7C
  8
0
  6
CONTINUOUS
 62
     7
 10
56.6850079902
 20
152.0299240879
 30
0.0
 11
41.7614395004
 21
152.0299240879
 31
0.0
  0
LINE
  5
7D
  8
0
  6
CONTINUOUS
 62
     7
 10
56.6850079902
 20
52.0299240879
 30
0.0
 11
41.7614395004
 21
52.0299240879
 31
0.0
  0
LINE
  5
7E
  8
0
  6
CONTINUOUS
 62
     7
 10
42.7614395004
 20
152.0299240879
 30
0.0
 11
42.7614395004
 21
52.0299240879
 31
0.0
  0
TEXT
  5
7F
  8
0
  6
CONTINUOUS
 62
     7
 10
40.6418793617
 20
94.3680541463
 30
0.0
 40
6.0
  1
100
 50
90.0
 41
0.7
 11
42.7614397332
 21
94.3680541463
 31
0.0
 73
     1
  0
TEXT
  5
80
  8
0
  6
CONTINUOUS
 62
     7
 10
40.6418793617
 20
105.7430548466
 30
0.0
 40
6.0
  1
mm
 50
90.0
 41
0.7
 11
42.7614397332
 21
105.7430548466
 31
0.0
 73
     1
  0
ENDBLK
  5
79
  8
0
  0
BLOCK
  8
0
  2
_D_1
 70
     0
 10
0.0
 20
0.0
 30
0.0
  3
_D_1
  1

  0
SOLID
  5
85
  8
0
  6
CONTINUOUS
 62
     7
 10
56.6850079902
 20
38.4602342313
 30
0.0
 11
59.1850079902
 21
38.1602342313
 31
0.0
 12
59.1850079902
 22
38.7602342313
 32
0.0
 13
59.1850079902
 23
38.7602342313
 33
0.0
  0
SOLID
  5
86
  8
0
  6
CONTINUOUS
 62
     7
 10
156.6850079902
 20
38.4602342313
 30
0.0
 11
154.1850079902
 21
38.7602342313
 31
0.0
 12
154.1850079902
 22
38.1602342313
 32
0.0
 13
154.1850079902
 23
38.1602342313
 33
0.0
  0
LINE
  5
87
  8
0
  6
CONTINUOUS
 62
     7
 10
56.6850079902
 20
52.0299240879
 30
0.0
 11
56.6850079902
 21
37.4602342313
 31
0.0
  0
LINE
  5
88
  8
0
  6
CONTINUOUS
 62
     7
 10
156.6850079902
 20
52.0299240879
 30
0.0
 11
156.6850079902
 21
37.4602342313
 31
0.0
  0
LINE
  5
89
  8
0
  6
CONTINUOUS
 62
     7
 10
56.6850079902
 20
38.4602342313
 30
0.0
 11
156.6850079902
 21
38.4602342313
 31
0.0
  0
TEXT
  5
8A
  8
0
  6
CONTINUOUS
 62
     7
 10
93.9626484861
 20
40.57979437
 30
0.0
 40
6.0
  1
100
 41
0.7
 11
93.9626484861
 21
38.4602339984
 31
0.0
 73
     1
  0
TEXT
  5
8B
  8
0
  6
CONTINUOUS
 62
     7
 10
105.3376491864
 20
40.57979437
 30
0.0
 40
6.0
  1
mm
 41
0.7
 11
105.3376491864
 21
38.4602339984
 31
0.0
 73
     1
  0
ENDBLK
  5
84
  8
0
  0
ENDSEC
  0
SECTION
  2
ENTITIES
  0
LINE
  5
73
  8
0
  6
CONTINUOUS
 62
     7
 10
56.6850079902
 20
152.0299240879
 30
0.0
 11
56.6850079902
 21
52.0299240879
 31
0.0
  0
LINE
  5
74
  8
0
  6
CONTINUOUS
 62
     7
 10
56.6850079902
 20
52.0299240879
 30
0.0
 11
156.6850079902
 21
52.0299240879
 31
0.0
  0
DIMENSION
  5
75
  8
0
  6
CONTINUOUS
 62
     7
  2
_D
 10
42.7614395004
 20
52.0299240879
 30
0.0
 11
42.7614395004
 21
105.4472211621
 31
0.0
 70
   160
  1
<>mm
  3
SLDDIMSTYLE0
 13
56.6850079902
 23
152.0299240879
 33
0.0
 14
56.6850079902
 24
52.0299240879
 34
0.0
 50
90.0
  0
DIMENSION
  5
81
  8
0
  6
CONTINUOUS
 62
     7
  2
_D_1
 10
156.6850079902
 20
38.4602342313
 30
0.0
 11
105.0418155019
 21
38.4602342313
 31
0.0
 70
   160
  1
<>mm
  3
SLDDIMSTYLE0
 13
56.6850079902
 23
52.0299240879
 33
0.0
 14
156.6850079902
 24
52.0299240879
 34
0.0
  0
TEXT
  5
8C
  8
0
  6
CONTINUOUS
 62
     7
 10
412.8252631579
 20
39.0761681714
 30
0.0
 40
10.0
  1
KLUDI GmbH & Co KG
 41
0.6222222222
 11
412.8252631579
 21
35.5435675522
 31
0.0
 73
     1
  0
TEXT
  5
8D
  8
0
  6
CONTINUOUS
 62
     7
 10
210.0873490389
 20
39.0761681714
 30
0.0
 40
10.0
  1
20244..15
 41
0.7
 11
210.0873490389
 21
35.5435675522
 31
0.0
 73
     1
  0
LINE
  5
8E
  8
0
  6
CONTINUOUS
 62
     7
 10
109.3641687093
 20
360.1417178324
 30
0.0
 11
109.4206432216
 21
360.4635148999
 31
0.0
  0
POLYLINE
  5
8F
  8
0
  6
CONTINUOUS
 62
     7
 66
     1
 10
0.0
 20
0.0
 30
0.0
 70
   128
  0
VERTEX
  5
156
  8
0
  6
CONTINUOUS
 62
     7
 10
88.5374600517
 20
360.0244625946
 30
0.0
  0
VERTEX
  5
157
  8
0
  6
CONTINUOUS
 62
     7
 10
88.7604083946
 20
359.1865184062
 30
0.0
  0
VERTEX
  5
158
  8
0
  6
CONTINUOUS
 62
     7
 10
89.6252284883
 20
358.1270514825
 30
0.0
  0
VERTEX
  5
159
  8
0
  6
CONTINUOUS
 62
     7
 10
90.7990101643
 20
357.3029525402
 30
0.0
  0
VERTEX
  5
15A
  8
0
  6
CONTINUOUS
 62
     7
 10
92.1098444081
 20
356.6931762902
 30
0.0
  0
VERTEX
  5
15B
  8
0
  6
CONTINUOUS
 62
     7
 10
93.4420824064
 20
356.2606714802
 30
0.0
  0
VERTEX
  5
15C
  8
0
  6
CONTINUOUS
 62
     7
 10
94.8343730053
 20
355.9435720302
 30
0.0
  0
VERTEX
  5
15D
  8
0
  6
CONTINUOUS
 62
     7
 10
97.7599692697
 20
355.6058766743
 30
0.0
  0
VERTEX
  5
15E
  8
0
  6
CONTINUOUS
 62
     7
 10
100.6476162505
 20
355.640184898
 30
0.0
  0
VERTEX
  5
15F
  8
0
  6
CONTINUOUS
 62
     7
 10
102.1759029086
 20
355.808455581
 30
0.0
  0
VERTEX
  5
160
  8
0
  6
CONTINUOUS
 62
     7
 10
103.930077916
 20
356.1528082552
 30
0.0
  0
VERTEX
  5
161
  8
0
  6
CONTINUOUS
 62
     7
 10
105.7882718232
 20
356.7445950578
 30
0.0
  0
VERTEX
  5
162
  8
0
  6
CONTINUOUS
 62
     7
 10
107.5419620734
 20
357.6494103963
 30
0.0
  0
VERTEX
  5
163
  8
0
  6
CONTINUOUS
 62
     7
 10
108.8825761066
 20
358.9009859734
 30
0.0
  0
VERTEX
  5
164
  8
0
  6
CONTINUOUS
 62
     7
 10
109.2777862452
 20
359.6495024499
 30
0.0
  0
VERTEX
  5
165
  8
0
  6
CONTINUOUS
 62
     7
 10
109.3361064698
 20
359.9818165599
 30
0.0
  0
SEQEND
  5
29C
  8
0
  6
CONTINUOUS
 62
     7
  0
LINE
  5
90
  8
0
  6
CONTINUOUS
 62
     7
 10
88.4206432216
 20
360.4635148999
 30
0.0
 11
88.4631602166
 21
360.3037161392
 31
0.0
  0
LINE
  5
91
  8
0
  6
CONTINUOUS
 62
     7
 10
109.4206432216
 20
360.4635148999
 30
0.0
 11
109.4206432216
 21
371.5204699018
 31
0.0
  0
LINE
  5
92
  8
0
  6
CONTINUOUS
 62
     7
 10
88.4206432216
 20
371.5204699018
 30
0.0
 11
88.4206432216
 21
360.4635148999
 31
0.0
  0
LINE
  5
93
  8
0
  6
CONTINUOUS
 62
     7
 10
108.4661413925
 20
359.7384686703
 30
0.0
 11
108.4661413925
 21
359.7502306741
 31
0.0
  0
LINE
  5
94
  8
0
  6
CONTINUOUS
 62
     7
 10
89.3751450507
 20
359.7502306741
 30
0.0
 11
89.3751450507
 21
359.7384686703
 31
0.0
  0
LINE
  5
95
  8
0
  6
CONTINUOUS
 62
     7
 10
109.4206432216
 20
371.5204699018
 30
0.0
 11
109.4206432216
 21
392.7384686703
 31
0.0
  0
LINE
  5
96
  8
0
  6
CONTINUOUS
 62
     7
 10
88.4206432216
 20
392.7384686703
 30
0.0
 11
88.4206432216
 21
371.5204699018
 31
0.0
  0
ARC
  5
97
  8
0
  6
CONTINUOUS
 62
     7
 10
204.9206432216
 20
308.7384686702
 30
0.0
 40
1.0
 50
180.0
 51
270.0
  0
ARC
  5
98
  8
0
  6
CONTINUOUS
 62
     7
 10
212.9206432216
 20
308.7384686702
 30
0.0
 40
1.0
 50
270.0
 51
0.0
  0
LINE
  5
99
  8
0
  6
CONTINUOUS
 62
     7
 10
203.9206432216
 20
367.6909609935
 30
0.0
 11
203.9206432216
 21
308.7384686702
 31
0.0
  0
LINE
  5
9A
  8
0
  6
CONTINUOUS
 62
     7
 10
213.9206432216
 20
308.7384686702
 30
0.0
 11
213.9206432216
 21
367.6909609935
 31
0.0
  0
ARC
  5
9B
  8
0
  6
CONTINUOUS
 62
     7
 10
208.9206432216
 20
392.7384686702
 30
0.0
 40
22.99999999999995
 50
288.595354159
 51
251.404645841
  0
ARC
  5
9C
  8
0
  6
CONTINUOUS
 62
     7
 10
200.4934865323
 20
367.6909609935
 30
0.0
 40
3.427156689301412
 50
0.0
 51
71.404645841
  0
ARC
  5
9D
  8
0
  6
CONTINUOUS
 62
     7
 10
217.3477999109
 20
367.6909609935
 30
0.0
 40
3.427156689301427
 50
108.595354159
 51
180.0
  0
LINE
  5
9E
  8
0
  6
CONTINUOUS
 62
     7
 10
204.9206432216
 20
307.7384686702
 30
0.0
 11
212.9206432216
 21
307.7384686702
 31
0.0
  0
ARC
  5
9F
  8
0
  6
CONTINUOUS
 62
     7
 10
208.9206432216
 20
392.7384686703
 30
0.0
 40
34.75000000000004
 50
278.2727110957
 51
90.0
  0
ARC
  5
A0
  8
0
  6
CONTINUOUS
 62
     7
 10
208.9206432216
 20
392.7384686703
 30
0.0
 40
34.75000000000004
 50
90.0
 51
261.7272889043
  0
LINE
  5
A1
  8
0
  6
CONTINUOUS
 62
     7
 10
109.4206432216
 20
360.4635148999
 30
0.0
 11
109.3730854395
 21
360.0416470967
 31
0.0
  0
LINE
  5
A2
  8
0
  6
CONTINUOUS
 62
     7
 10
88.4790151045
 20
359.9962584206
 30
0.0
 11
88.4206432216
 21
360.4635148999
 31
0.0
  0
POLYLINE
  5
A3
  8
0
  6
CONTINUOUS
 62
     7
 66
     1
 10
0.0
 20
0.0
 30
0.0
 70
   128
  0
VERTEX
  5
166
  8
0
  6
CONTINUOUS
 62
     7
 10
98.9206432216
 20
363.7843325185
 30
0.0
  0
VERTEX
  5
167
  8
0
  6
CONTINUOUS
 62
     7
 10
100.5782015839
 20
363.7230454469
 30
0.0
  0
VERTEX
  5
168
  8
0
  6
CONTINUOUS
 62
     7
 10
102.1853958741
 20
363.5410464088
 30
0.0
  0
VERTEX
  5
169
  8
0
  6
CONTINUOUS
 62
     7
 10
103.6933923071
 20
363.2438653528
 30
0.0
  0
VERTEX
  5
16A
  8
0
  6
CONTINUOUS
 62
     7
 10
105.0563711742
 20
362.840531975
 30
0.0
  0
VERTEX
  5
16B
  8
0
  6
CONTINUOUS
 62
     7
 10
106.2329190522
 20
362.3433013559
 30
0.0
  0
VERTEX
  5
16C
  8
0
  6
CONTINUOUS
 62
     7
 10
107.1872871294
 20
361.7672815963
 30
0.0
  0
VERTEX
  5
16D
  8
0
  6
CONTINUOUS
 62
     7
 10
107.8904774145
 20
361.1299747651
 30
0.0
  0
VERTEX
  5
16E
  8
0
  6
CONTINUOUS
 62
     7
 10
108.3211238267
 20
360.4507451079
 30
0.0
  0
VERTEX
  5
16F
  8
0
  6
CONTINUOUS
 62
     7
 10
108.4661413925
 20
359.7502306741
 30
0.0
  0
SEQEND
  5
29D
  8
0
  6
CONTINUOUS
 62
     7
  0
POLYLINE
  5
A4
  8
0
  6
CONTINUOUS
 62
     7
 66
     1
 10
0.0
 20
0.0
 30
0.0
 70
   128
  0
VERTEX
  5
170
  8
0
  6
CONTINUOUS
 62
     7
 10
89.3751450507
 20
359.7502306741
 30
0.0
  0
VERTEX
  5
171
  8
0
  6
CONTINUOUS
 62
     7
 10
89.5201626165
 20
360.4507451079
 30
0.0
  0
VERTEX
  5
172
  8
0
  6
CONTINUOUS
 62
     7
 10
89.9508090286
 20
361.1299747651
 30
0.0
  0
VERTEX
  5
173
  8
0
  6
CONTINUOUS
 62
     7
 10
90.6539993138
 20
361.7672815963
 30
0.0
  0
VERTEX
  5
174
  8
0
  6
CONTINUOUS
 62
     7
 10
91.6083673909
 20
362.3433013559
 30
0.0
  0
VERTEX
  5
175
  8
0
  6
CONTINUOUS
 62
     7
 10
92.784915269
 20
362.840531975
 30
0.0
  0
VERTEX
  5
176
  8
0
  6
CONTINUOUS
 62
     7
 10
94.1478941361
 20
363.2438653528
 30
0.0
  0
VERTEX
  5
177
  8
0
  6
CONTINUOUS
 62
     7
 10
95.6558905691
 20
363.5410464088
 30
0.0
  0
VERTEX
  5
178
  8
0
  6
CONTINUOUS
 62
     7
 10
97.2630848593
 20
363.7230454469
 30
0.0
  0
VERTEX
  5
179
  8
0
  6
CONTINUOUS
 62
     7
 10
98.9206432216
 20
363.7843325185
 30
0.0
  0
SEQEND
  5
29E
  8
0
  6
CONTINUOUS
 62
     7
  0
POLYLINE
  5
A5
  8
0
  6
CONTINUOUS
 62
     7
 66
     1
 10
0.0
 20
0.0
 30
0.0
 70
   128
  0
VERTEX
  5
17A
  8
0
  6
CONTINUOUS
 62
     7
 10
98.9206432216
 20
363.7725705147
 30
0.0
  0
VERTEX
  5
17B
  8
0
  6
CONTINUOUS
 62
     7
 10
100.5782015839
 20
363.7112834431
 30
0.0
  0
VERTEX
  5
17C
  8
0
  6
CONTINUOUS
 62
     7
 10
102.1853958741
 20
363.529284405
 30
0.0
  0
VERTEX
  5
17D
  8
0
  6
CONTINUOUS
 62
     7
 10
103.6933923071
 20
363.232103349
 30
0.0
  0
VERTEX
  5
17E
  8
0
  6
CONTINUOUS
 62
     7
 10
105.0563711742
 20
362.8287699712
 30
0.0
  0
VERTEX
  5
17F
  8
0
  6
CONTINUOUS
 62
     7
 10
106.2329190522
 20
362.3315393521
 30
0.0
  0
VERTEX
  5
180
  8
0
  6
CONTINUOUS
 62
     7
 10
107.1872871294
 20
361.7555195925
 30
0.0
  0
VERTEX
  5
181
  8
0
  6
CONTINUOUS
 62
     7
 10
107.8904774145
 20
361.1182127613
 30
0.0
  0
VERTEX
  5
182
  8
0
  6
CONTINUOUS
 62
     7
 10
108.3211238267
 20
360.4389831041
 30
0.0
  0
VERTEX
  5
183
  8
0
  6
CONTINUOUS
 62
     7
 10
108.4661413925
 20
359.7384686703
 30
0.0
  0
VERTEX
  5
184
  8
0
  6
CONTINUOUS
 62
     7
 10
108.3211238267
 20
359.0379542365
 30
0.0
  0
VERTEX
  5
185
  8
0
  6
CONTINUOUS
 62
     7
 10
107.8904774145
 20
358.3587245793
 30
0.0
  0
VERTEX
  5
186
  8
0
  6
CONTINUOUS
 62
     7
 10
107.1872871294
 20
357.7214177481
 30
0.0
  0
VERTEX
  5
187
  8
0
  6
CONTINUOUS
 62
     7
 10
106.2329190522
 20
357.1453979885
 30
0.0
  0
VERTEX
  5
188
  8
0
  6
CONTINUOUS
 62
     7
 10
105.0563711742
 20
356.6481673694
 30
0.0
  0
VERTEX
  5
189
  8
0
  6
CONTINUOUS
 62
     7
 10
103.6933923071
 20
356.2448339915
 30
0.0
  0
VERTEX
  5
18A
  8
0
  6
CONTINUOUS
 62
     7
 10
102.1853958741
 20
355.9476529356
 30
0.0
  0
VERTEX
  5
18B
  8
0
  6
CONTINUOUS
 62
     7
 10
100.5782015839
 20
355.7656538974
 30
0.0
  0
VERTEX
  5
18C
  8
0
  6
CONTINUOUS
 62
     7
 10
98.9206432216
 20
355.7043668258
 30
0.0
  0
VERTEX
  5
18D
  8
0
  6
CONTINUOUS
 62
     7
 10
97.2630848593
 20
355.7656538974
 30
0.0
  0
VERTEX
  5
18E
  8
0
  6
CONTINUOUS
 62
     7
 10
95.6558905691
 20
355.9476529356
 30
0.0
  0
VERTEX
  5
18F
  8
0
  6
CONTINUOUS
 62
     7
 10
94.1478941361
 20
356.2448339915
 30
0.0
  0
VERTEX
  5
190
  8
0
  6
CONTINUOUS
 62
     7
 10
92.784915269
 20
356.6481673694
 30
0.0
  0
VERTEX
  5
191
  8
0
  6
CONTINUOUS
 62
     7
 10
91.6083673909
 20
357.1453979885
 30
0.0
  0
VERTEX
  5
192
  8
0
  6
CONTINUOUS
 62
     7
 10
90.6539993138
 20
357.7214177481
 30
0.0
  0
VERTEX
  5
193
  8
0
  6
CONTINUOUS
 62
     7
 10
89.9508090286
 20
358.3587245793
 30
0.0
  0
VERTEX
  5
194
  8
0
  6
CONTINUOUS
 62
     7
 10
89.5201626165
 20
359.0379542365
 30
0.0
  0
VERTEX
  5
195
  8
0
  6
CONTINUOUS
 62
     7
 10
89.3751450507
 20
359.7384686703
 30
0.0
  0
VERTEX
  5
196
  8
0
  6
CONTINUOUS
 62
     7
 10
89.5201626165
 20
360.4389831041
 30
0.0
  0
VERTEX
  5
197
  8
0
  6
CONTINUOUS
 62
     7
 10
89.9508090286
 20
361.1182127613
 30
0.0
  0
VERTEX
  5
198
  8
0
  6
CONTINUOUS
 62
     7
 10
90.6539993138
 20
361.7555195925
 30
0.0
  0
VERTEX
  5
199
  8
0
  6
CONTINUOUS
 62
     7
 10
91.6083673909
 20
362.3315393521
 30
0.0
  0
VERTEX
  5
19A
  8
0
  6
CONTINUOUS
 62
     7
 10
92.784915269
 20
362.8287699712
 30
0.0
  0
VERTEX
  5
19B
  8
0
  6
CONTINUOUS
 62
     7
 10
94.1478941361
 20
363.232103349
 30
0.0
  0
VERTEX
  5
19C
  8
0
  6
CONTINUOUS
 62
     7
 10
95.6558905691
 20
363.529284405
 30
0.0
  0
VERTEX
  5
19D
  8
0
  6
CONTINUOUS
 62
     7
 10
97.2630848593
 20
363.7112834431
 30
0.0
  0
VERTEX
  5
19E
  8
0
  6
CONTINUOUS
 62
     7
 10
98.9206432216
 20
363.7725705147
 30
0.0
  0
SEQEND
  5
29F
  8
0
  6
CONTINUOUS
 62
     7
  0
ARC
  5
A6
  8
0
  6
CONTINUOUS
 62
     7
 10
98.9206432216
 20
392.7384686703
 30
0.0
 40
10.50000000000001
 50
0.0036785978
 51
180.0
  0
ARC
  5
A7
  8
0
  6
CONTINUOUS
 62
     7
 10
98.9206432216
 20
392.7384686703
 30
0.0
 40
34.75
 50
287.1908392607
 51
180.0
  0
ARC
  5
A8
  8
0
  6
CONTINUOUS
 62
     7
 10
98.9206432216
 20
392.7384686703
 30
0.0
 40
34.75
 50
180.0
 51
252.8091607393
  0
LINE
  5
A9
  8
0
  6
CONTINUOUS
 62
     8
 10
203.9206432216
 20
308.7384686702
 30
0.0
 11
204.9206432216
 21
308.7384686702
 31
0.0
  0
LINE
  5
AA
  8
0
  6
CONTINUOUS
 62
     8
 10
204.9206432216
 20
308.7384686702
 30
0.0
 11
204.9206432216
 21
307.7384686702
 31
0.0
  0
LINE
  5
AB
  8
0
  6
CONTINUOUS
 62
     8
 10
213.9206432216
 20
308.7384686702
 30
0.0
 11
212.9206432216
 21
308.7384686702
 31
0.0
  0
LINE
  5
AC
  8
0
  6
CONTINUOUS
 62
     8
 10
212.9206432216
 20
307.7384686702
 30
0.0
 11
212.9206432216
 21
308.7384686702
 31
0.0
  0
LINE
  5
AD
  8
0
  6
CONTINUOUS
 62
     8
 10
204.9206432216
 20
308.7384686702
 30
0.0
 11
212.9206432216
 21
308.7384686702
 31
0.0
  0
LINE
  5
AE
  8
0
  6
CONTINUOUS
 62
     8
 10
204.9206432216
 20
367.6909609935
 30
0.0
 11
204.9206432216
 21
308.7384686702
 31
0.0
  0
ARC
  5
AF
  8
0
  6
CONTINUOUS
 62
     8
 10
200.4934865323
 20
367.6909609935
 30
0.0
 40
4.427156689301236
 50
0.0
 51
71.404645841
  0
ARC
  5
B0
  8
0
  6
CONTINUOUS
 62
     8
 10
208.9206432216
 20
392.7384686702
 30
0.0
 40
22.0
 50
90.0
 51
251.404645841
  0
ARC
  5
B1
  8
0
  6
CONTINUOUS
 62
     8
 10
208.9206432216
 20
392.7384686702
 30
0.0
 40
22.00000000000002
 50
288.595354159
 51
90.0
  0
ARC
  5
B2
  8
0
  6
CONTINUOUS
 62
     8
 10
217.3477999109
 20
367.6909609935
 30
0.0
 40
4.427156689301285
 50
108.595354159
 51
180.0
  0
LINE
  5
B3
  8
0
  6
CONTINUOUS
 62
     8
 10
212.9206432216
 20
308.7384686702
 30
0.0
 11
212.9206432216
 21
367.6909609935
 31
0.0
  0
LINE
  5
B4
  8
0
  6
CONTINUOUS
 62
     8
 10
204.9206432216
 20
367.6909609935
 30
0.0
 11
203.9206432216
 21
367.6909609935
 31
0.0
  0
LINE
  5
B5
  8
0
  6
CONTINUOUS
 62
     8
 10
212.9206432216
 20
367.6909609935
 30
0.0
 11
213.9206432216
 21
367.6909609935
 31
0.0
  0
LINE
  5
B6
  8
0
  6
CONTINUOUS
 62
     8
 10
216.254939761
 20
370.9392004653
 30
0.0
 11
215.9360573028
 21
371.8869947351
 31
0.0
  0
LINE
  5
B7
  8
0
  6
CONTINUOUS
 62
     8
 10
201.9052291404
 20
371.8869947351
 30
0.0
 11
201.5863466821
 21
370.9392004653
 31
0.0
  0
ARC
  5
B8
  8
0
  6
CONTINUOUS
 62
     8
 10
209.0365547484
 20
392.6836902728
 30
0.0
 40
33.63413308072989
 50
278.3495708772
 51
0.0933150965
  0
ARC
  5
B9
  8
0
  6
CONTINUOUS
 62
     8
 10
208.8080910191
 20
392.6866130822
 30
0.0
 40
33.63748776789797
 50
179.9116727283
 51
261.6454844022
  0
ARC
  5
BA
  8
0
  6
CONTINUOUS
 62
     8
 10
208.9206432216
 20
392.7384686703
 30
0.0
 40
33.75
 50
0.0
 51
180.0
  0
POLYLINE
  5
BB
  8
0
  6
CONTINUOUS
 62
     8
 66
     1
 10
0.0
 20
0.0
 30
0.0
 70
   128
  0
VERTEX
  5
19F
  8
0
  6
CONTINUOUS
 62
     8
 10
98.9206432216
 20
364.9010066482
 30
0.0
  0
VERTEX
  5
1A0
  8
0
  6
CONTINUOUS
 62
     8
 10
100.695151835
 20
364.837177369
 30
0.0
  0
VERTEX
  5
1A1
  8
0
  6
CONTINUOUS
 62
     8
 10
102.4186110664
 20
364.6475257838
 30
0.0
  0
VERTEX
  5
1A2
  8
0
  6
CONTINUOUS
 62
     8
 10
104.0414401316
 20
364.3375078232
 30
0.0
  0
VERTEX
  5
1A3
  8
0
  6
CONTINUOUS
 62
     8
 10
105.5169531932
 20
363.9160421396
 30
0.0
  0
VERTEX
  5
1A4
  8
0
  6
CONTINUOUS
 62
     8
 10
106.8027024267
 20
363.3952535332
 30
0.0
  0
VERTEX
  5
1A5
  8
0
  6
CONTINUOUS
 62
     8
 10
107.8616991678
 20
362.7901241443
 30
0.0
  0
VERTEX
  5
1A6
  8
0
  6
CONTINUOUS
 62
     8
 10
108.6634780082
 20
362.1180624434
 30
0.0
  0
VERTEX
  5
1A7
  8
0
  6
CONTINUOUS
 62
     8
 10
109.1849732305
 20
361.398402422
 30
0.0
  0
VERTEX
  5
1A8
  8
0
  6
CONTINUOUS
 62
     8
 10
109.4111823667
 20
360.6518473889
 30
0.0
  0
VERTEX
  5
1A9
  8
0
  6
CONTINUOUS
 62
     8
 10
109.4206432216
 20
360.4635148999
 30
0.0
  0
SEQEND
  5
2A0
  8
0
  6
CONTINUOUS
 62
     8
  0
POLYLINE
  5
BC
  8
0
  6
CONTINUOUS
 62
     8
 66
     1
 10
0.0
 20
0.0
 30
0.0
 70
   128
  0
VERTEX
  5
1AA
  8
0
  6
CONTINUOUS
 62
     8
 10
88.4206432216
 20
360.4635148999
 30
0.0
  0
VERTEX
  5
1AB
  8
0
  6
CONTINUOUS
 62
     8
 10
88.4301040764
 20
360.6518473889
 30
0.0
  0
VERTEX
  5
1AC
  8
0
  6
CONTINUOUS
 62
     8
 10
88.6563132126
 20
361.398402422
 30
0.0
  0
VERTEX
  5
1AD
  8
0
  6
CONTINUOUS
 62
     8
 10
89.177808435
 20
362.1180624434
 30
0.0
  0
VERTEX
  5
1AE
  8
0
  6
CONTINUOUS
 62
     8
 10
89.9795872754
 20
362.7901241443
 30
0.0
  0
VERTEX
  5
1AF
  8
0
  6
CONTINUOUS
 62
     8
 10
91.0385840164
 20
363.3952535332
 30
0.0
  0
VERTEX
  5
1B0
  8
0
  6
CONTINUOUS
 62
     8
 10
92.32433325
 20
363.9160421396
 30
0.0
  0
VERTEX
  5
1B1
  8
0
  6
CONTINUOUS
 62
     8
 10
93.7998463115
 20
364.3375078232
 30
0.0
  0
VERTEX
  5
1B2
  8
0
  6
CONTINUOUS
 62
     8
 10
95.4226753768
 20
364.6475257838
 30
0.0
  0
VERTEX
  5
1B3
  8
0
  6
CONTINUOUS
 62
     8
 10
97.1461346082
 20
364.837177369
 30
0.0
  0
VERTEX
  5
1B4
  8
0
  6
CONTINUOUS
 62
     8
 10
98.9206432216
 20
364.9010066482
 30
0.0
  0
SEQEND
  5
2A1
  8
0
  6
CONTINUOUS
 62
     8
  0
POLYLINE
  5
BD
  8
0
  6
CONTINUOUS
 62
     8
 66
     1
 10
0.0
 20
0.0
 30
0.0
 70
   128
  0
VERTEX
  5
1B5
  8
0
  6
CONTINUOUS
 62
     8
 10
98.9206432216
 20
363.8378658092
 30
0.0
  0
VERTEX
  5
1B6
  8
0
  6
CONTINUOUS
 62
     8
 10
100.68568483
 20
363.7694278842
 30
0.0
  0
VERTEX
  5
1B7
  8
0
  6
CONTINUOUS
 62
     8
 10
102.4911619043
 20
363.5500401714
 30
0.0
  0
VERTEX
  5
1B8
  8
0
  6
CONTINUOUS
 62
     8
 10
104.2285778294
 20
363.1696456742
 30
0.0
  0
VERTEX
  5
1B9
  8
0
  6
CONTINUOUS
 62
     8
 10
105.7795789991
 20
362.637180186
 30
0.0
  0
VERTEX
  5
1BA
  8
0
  6
CONTINUOUS
 62
     8
 10
107.0394996804
 20
361.9816987677
 30
0.0
  0
VERTEX
  5
1BB
  8
0
  6
CONTINUOUS
 62
     8
 10
107.9395897419
 20
361.2474350695
 30
0.0
  0
VERTEX
  5
1BC
  8
0
  6
CONTINUOUS
 62
     8
 10
108.4587052952
 20
360.4844074867
 30
0.0
  0
VERTEX
  5
1BD
  8
0
  6
CONTINUOUS
 62
     8
 10
108.6206432216
 20
359.7384686703
 30
0.0
  0
VERTEX
  5
1BE
  8
0
  6
CONTINUOUS
 62
     8
 10
108.4587052952
 20
358.9925298538
 30
0.0
  0
VERTEX
  5
1BF
  8
0
  6
CONTINUOUS
 62
     8
 10
107.9395897419
 20
358.2295022711
 30
0.0
  0
VERTEX
  5
1C0
  8
0
  6
CONTINUOUS
 62
     8
 10
107.0394996804
 20
357.4952385729
 30
0.0
  0
VERTEX
  5
1C1
  8
0
  6
CONTINUOUS
 62
     8
 10
105.7795789991
 20
356.8397571546
 30
0.0
  0
VERTEX
  5
1C2
  8
0
  6
CONTINUOUS
 62
     8
 10
104.2285778294
 20
356.3072916663
 30
0.0
  0
VERTEX
  5
1C3
  8
0
  6
CONTINUOUS
 62
     8
 10
102.4911619043
 20
355.9268971691
 30
0.0
  0
VERTEX
  5
1C4
  8
0
  6
CONTINUOUS
 62
     8
 10
100.68568483
 20
355.7075094563
 30
0.0
  0
VERTEX
  5
1C5
  8
0
  6
CONTINUOUS
 62
     8
 10
98.9206432216
 20
355.6390715314
 30
0.0
  0
SEQEND
  5
2A2
  8
0
  6
CONTINUOUS
 62
     8
  0
POLYLINE
  5
BE
  8
0
  6
CONTINUOUS
 62
     8
 66
     1
 10
0.0
 20
0.0
 30
0.0
 70
   128
  0
VERTEX
  5
1C6
  8
0
  6
CONTINUOUS
 62
     8
 10
98.9206432216
 20
355.6390715314
 30
0.0
  0
VERTEX
  5
1C7
  8
0
  6
CONTINUOUS
 62
     8
 10
97.1556016132
 20
355.7075094563
 30
0.0
  0
VERTEX
  5
1C8
  8
0
  6
CONTINUOUS
 62
     8
 10
95.3501245388
 20
355.9268971691
 30
0.0
  0
VERTEX
  5
1C9
  8
0
  6
CONTINUOUS
 62
     8
 10
93.6127086138
 20
356.3072916663
 30
0.0
  0
VERTEX
  5
1CA
  8
0
  6
CONTINUOUS
 62
     8
 10
92.0617074441
 20
356.8397571546
 30
0.0
  0
VERTEX
  5
1CB
  8
0
  6
CONTINUOUS
 62
     8
 10
90.8017867628
 20
357.4952385729
 30
0.0
  0
VERTEX
  5
1CC
  8
0
  6
CONTINUOUS
 62
     8
 10
89.9016967013
 20
358.2295022711
 30
0.0
  0
VERTEX
  5
1CD
  8
0
  6
CONTINUOUS
 62
     8
 10
89.382581148
 20
358.9925298538
 30
0.0
  0
VERTEX
  5
1CE
  8
0
  6
CONTINUOUS
 62
     8
 10
89.2206432216
 20
359.7384686703
 30
0.0
  0
VERTEX
  5
1CF
  8
0
  6
CONTINUOUS
 62
     8
 10
89.382581148
 20
360.4844074867
 30
0.0
  0
VERTEX
  5
1D0
  8
0
  6
CONTINUOUS
 62
     8
 10
89.9016967013
 20
361.2474350695
 30
0.0
  0
VERTEX
  5
1D1
  8
0
  6
CONTINUOUS
 62
     8
 10
90.8017867628
 20
361.9816987677
 30
0.0
  0
VERTEX
  5
1D2
  8
0
  6
CONTINUOUS
 62
     8
 10
92.0617074441
 20
362.637180186
 30
0.0
  0
VERTEX
  5
1D3
  8
0
  6
CONTINUOUS
 62
     8
 10
93.6127086138
 20
363.1696456742
 30
0.0
  0
VERTEX
  5
1D4
  8
0
  6
CONTINUOUS
 62
     8
 10
95.3501245388
 20
363.5500401714
 30
0.0
  0
VERTEX
  5
1D5
  8
0
  6
CONTINUOUS
 62
     8
 10
97.1556016132
 20
363.7694278842
 30
0.0
  0
VERTEX
  5
1D6
  8
0
  6
CONTINUOUS
 62
     8
 10
98.9206432216
 20
363.8378658092
 30
0.0
  0
SEQEND
  5
2A3
  8
0
  6
CONTINUOUS
 62
     8
  0
POLYLINE
  5
BF
  8
0
  6
CONTINUOUS
 62
     8
 66
     1
 10
0.0
 20
0.0
 30
0.0
 70
   128
  0
VERTEX
  5
1D7
  8
0
  6
CONTINUOUS
 62
     8
 10
88.4206432216
 20
371.5204699018
 30
0.0
  0
VERTEX
  5
1D8
  8
0
  6
CONTINUOUS
 62
     8
 10
88.4584695919
 20
371.8967954918
 30
0.0
  0
VERTEX
  5
1D9
  8
0
  6
CONTINUOUS
 62
     8
 10
88.7594472788
 20
372.6386204699
 30
0.0
  0
VERTEX
  5
1DA
  8
0
  6
CONTINUOUS
 62
     8
 10
89.3527440725
 20
373.3482782919
 30
0.0
  0
VERTEX
  5
1DB
  8
0
  6
CONTINUOUS
 62
     8
 10
90.2212919045
 20
374.0053533945
 30
0.0
  0
VERTEX
  5
1DC
  8
0
  6
CONTINUOUS
 62
     8
 10
91.3401042351
 20
374.5909429232
 30
0.0
  0
VERTEX
  5
1DD
  8
0
  6
CONTINUOUS
 62
     8
 10
92.6769948704
 20
375.0882005334
 30
0.0
  0
VERTEX
  5
1DE
  8
0
  6
CONTINUOUS
 62
     8
 10
94.193503901
 20
375.4828210291
 30
0.0
  0
VERTEX
  5
1DF
  8
0
  6
CONTINUOUS
 62
     8
 10
95.8460041232
 20
375.7634518971
 30
0.0
  0
VERTEX
  5
1E0
  8
0
  6
CONTINUOUS
 62
     8
 10
97.5869561142
 20
375.9220198983
 30
0.0
  0
VERTEX
  5
1E1
  8
0
  6
CONTINUOUS
 62
     8
 10
99.3662758552
 20
375.95396332
 30
0.0
  0
VERTEX
  5
1E2
  8
0
  6
CONTINUOUS
 62
     8
 10
101.1327755565
 20
375.8583632081
 30
0.0
  0
VERTEX
  5
1E3
  8
0
  6
CONTINUOUS
 62
     8
 10
102.8356362383
 20
375.6379698037
 30
0.0
  0
VERTEX
  5
1E4
  8
0
  6
CONTINUOUS
 62
     8
 10
104.4258696989
 20
375.2991234239
 30
0.0
  0
VERTEX
  5
1E5
  8
0
  6
CONTINUOUS
 62
     8
 10
105.8577278172
 20
374.851572062
 30
0.0
  0
VERTEX
  5
1E6
  8
0
  6
CONTINUOUS
 62
     8
 10
107.0900186419
 20
374.3081909559
 30
0.0
  0
VERTEX
  5
1E7
  8
0
  6
CONTINUOUS
 62
     8
 10
108.0872914098
 20
373.6846121906
 30
0.0
  0
VERTEX
  5
1E8
  8
0
  6
CONTINUOUS
 62
     8
 10
108.8208563989
 20
372.9987749919
 30
0.0
  0
VERTEX
  5
1E9
  8
0
  6
CONTINUOUS
 62
     8
 10
109.2696102802
 20
372.2704096474
 30
0.0
  0
VERTEX
  5
1EA
  8
0
  6
CONTINUOUS
 62
     8
 10
109.4206432216
 20
371.5204699018
 30
0.0
  0
SEQEND
  5
2A4
  8
0
  6
CONTINUOUS
 62
     8
  0
POLYLINE
  5
C0
  8
0
  6
CONTINUOUS
 62
     8
 66
     1
 10
0.0
 20
0.0
 30
0.0
 70
   128
  0
VERTEX
  5
1EB
  8
0
  6
CONTINUOUS
 62
     8
 10
98.9206432216
 20
355.670767901
 30
0.0
  0
VERTEX
  5
1EC
  8
0
  6
CONTINUOUS
 62
     8
 10
97.1692488421
 20
355.7386766668
 30
0.0
  0
VERTEX
  5
1ED
  8
0
  6
CONTINUOUS
 62
     8
 10
95.3777316421
 20
355.9563680828
 30
0.0
  0
VERTEX
  5
1EE
  8
0
  6
CONTINUOUS
 62
     8
 10
93.6537493453
 20
356.3338213854
 30
0.0
  0
VERTEX
  5
1EF
  8
0
  6
CONTINUOUS
 62
     8
 10
92.1147404527
 20
356.8621698725
 30
0.0
  0
VERTEX
  5
1F0
  8
0
  6
CONTINUOUS
 62
     8
 10
90.8645614261
 20
357.5125831355
 30
0.0
  0
VERTEX
  5
1F1
  8
0
  6
CONTINUOUS
 62
     8
 10
89.9714308239
 20
358.241169537
 30
0.0
  0
VERTEX
  5
1F2
  8
0
  6
CONTINUOUS
 62
     8
 10
89.4563290506
 20
358.998297422
 30
0.0
  0
VERTEX
  5
1F3
  8
0
  6
CONTINUOUS
 62
     8
 10
89.2956432216
 20
359.7384686703
 30
0.0
  0
VERTEX
  5
1F4
  8
0
  6
CONTINUOUS
 62
     8
 10
89.4563290506
 20
360.4786399186
 30
0.0
  0
VERTEX
  5
1F5
  8
0
  6
CONTINUOUS
 62
     8
 10
89.9714308239
 20
361.2357678035
 30
0.0
  0
VERTEX
  5
1F6
  8
0
  6
CONTINUOUS
 62
     8
 10
90.8645614261
 20
361.9643542051
 30
0.0
  0
VERTEX
  5
1F7
  8
0
  6
CONTINUOUS
 62
     8
 10
92.1147404527
 20
362.6147674681
 30
0.0
  0
VERTEX
  5
1F8
  8
0
  6
CONTINUOUS
 62
     8
 10
93.6537493453
 20
363.1431159551
 30
0.0
  0
VERTEX
  5
1F9
  8
0
  6
CONTINUOUS
 62
     8
 10
95.3777316421
 20
363.5205692578
 30
0.0
  0
VERTEX
  5
1FA
  8
0
  6
CONTINUOUS
 62
     8
 10
97.1692488421
 20
363.7382606738
 30
0.0
  0
VERTEX
  5
1FB
  8
0
  6
CONTINUOUS
 62
     8
 10
98.9206432216
 20
363.8061694395
 30
0.0
  0
SEQEND
  5
2A5
  8
0
  6
CONTINUOUS
 62
     8
  0
POLYLINE
  5
C1
  8
0
  6
CONTINUOUS
 62
     8
 66
     1
 10
0.0
 20
0.0
 30
0.0
 70
   128
  0
VERTEX
  5
1FC
  8
0
  6
CONTINUOUS
 62
     8
 10
98.9206432216
 20
363.8061694395
 30
0.0
  0
VERTEX
  5
1FD
  8
0
  6
CONTINUOUS
 62
     8
 10
100.6720376011
 20
363.7382606738
 30
0.0
  0
VERTEX
  5
1FE
  8
0
  6
CONTINUOUS
 62
     8
 10
102.4635548011
 20
363.5205692578
 30
0.0
  0
VERTEX
  5
1FF
  8
0
  6
CONTINUOUS
 62
     8
 10
104.1875370979
 20
363.1431159551
 30
0.0
  0
VERTEX
  5
200
  8
0
  6
CONTINUOUS
 62
     8
 10
105.7265459905
 20
362.6147674681
 30
0.0
  0
VERTEX
  5
201
  8
0
  6
CONTINUOUS
 62
     8
 10
106.9767250171
 20
361.9643542051
 30
0.0
  0
VERTEX
  5
202
  8
0
  6
CONTINUOUS
 62
     8
 10
107.8698556193
 20
361.2357678035
 30
0.0
  0
VERTEX
  5
203
  8
0
  6
CONTINUOUS
 62
     8
 10
108.3849573926
 20
360.4786399186
 30
0.0
  0
VERTEX
  5
204
  8
0
  6
CONTINUOUS
 62
     8
 10
108.5456432216
 20
359.7384686703
 30
0.0
  0
VERTEX
  5
205
  8
0
  6
CONTINUOUS
 62
     8
 10
108.3849573926
 20
358.998297422
 30
0.0
  0
VERTEX
  5
206
  8
0
  6
CONTINUOUS
 62
     8
 10
107.8698556193
 20
358.241169537
 30
0.0
  0
VERTEX
  5
207
  8
0
  6
CONTINUOUS
 62
     8
 10
106.9767250171
 20
357.5125831355
 30
0.0
  0
VERTEX
  5
208
  8
0
  6
CONTINUOUS
 62
     8
 10
105.7265459905
 20
356.8621698725
 30
0.0
  0
VERTEX
  5
209
  8
0
  6
CONTINUOUS
 62
     8
 10
104.1875370979
 20
356.3338213854
 30
0.0
  0
VERTEX
  5
20A
  8
0
  6
CONTINUOUS
 62
     8
 10
102.4635548011
 20
355.9563680828
 30
0.0
  0
VERTEX
  5
20B
  8
0
  6
CONTINUOUS
 62
     8
 10
100.6720376011
 20
355.7386766668
 30
0.0
  0
VERTEX
  5
20C
  8
0
  6
CONTINUOUS
 62
     8
 10
98.9206432216
 20
355.670767901
 30
0.0
  0
SEQEND
  5
2A6
  8
0
  6
CONTINUOUS
 62
     8
  0
ARC
  5
C2
  8
0
  6
CONTINUOUS
 62
     8
 10
98.8653463779
 20
392.7831761996
 30
0.0
 40
33.7053378305546
 50
89.906000729
 51
251.9478347153
  0
ARC
  5
C3
  8
0
  6
CONTINUOUS
 62
     8
 10
98.9759385388
 20
392.7831724934
 30
0.0
 40
33.70534153433032
 50
288.0521659618
 51
90.0939966659
  0
LINE
  5
C4
  8
0
  6
CONTINUOUS
 62
     7
 10
368.0428522056
 20
414.6883605983
 30
0.0
 11
366.8714191762
 21
414.7036234535
 31
0.0
  0
ARC
  5
C5
  8
0
  6
CONTINUOUS
 62
     7
 10
366.8382568851
 20
394.1793698307
 30
0.0
 40
20.54433625585942
 50
65.3438751413
 51
86.638594936
  0
ARC
  5
C6
  8
0
  6
CONTINUOUS
 62
     7
 10
366.9562566917
 20
390.3590035789
 30
0.0
 40
19.59418576776974
 50
273.8551456025
 51
284.512658009
  0
ARC
  5
C7
  8
0
  6
CONTINUOUS
 62
     7
 10
399.861740047
 20
414.7384686702
 30
0.0
 40
1.000000000000057
 50
0.0
 51
90.0
  0
LINE
  5
C8
  8
0
  6
CONTINUOUS
 62
     7
 10
386.8102705284
 20
369.7384686702
 30
0.0
 11
388.0333129223
 21
369.7384686702
 31
0.0
  0
LINE
  5
C9
  8
0
  6
CONTINUOUS
 62
     7
 10
371.861740047
 20
369.7384686702
 30
0.0
 11
378.861740047
 21
369.7384686702
 31
0.0
  0
LINE
  5
CA
  8
0
  6
CONTINUOUS
 62
     7
 10
399.861740047
 20
415.7384686702
 30
0.0
 11
375.9137340637
 21
415.7384686702
 31
0.0
  0
ARC
  5
CB
  8
0
  6
CONTINUOUS
 62
     7
 10
365.761740047
 20
414.5884686703
 30
0.0
 40
0.6999999999999886
 50
41.0
 51
90.0
  0
ARC
  5
CC
  8
0
  6
CONTINUOUS
 62
     7
 10
365.761740047
 20
370.8884686703
 30
0.0
 40
0.7000000000000455
 50
270.0
 51
319.0
  0
LINE
  5
CD
  8
0
  6
CONTINUOUS
 62
     7
 10
365.761740047
 20
415.2884686703
 30
0.0
 11
346.8384606253
 21
415.2884686703
 31
0.0
  0
LINE
  5
CE
  8
0
  6
CONTINUOUS
 62
     7
 10
346.8384606253
 20
370.1884686703
 30
0.0
 11
365.761740047
 21
370.1884686703
 31
0.0
  0
LINE
  5
CF
  8
0
  6
CONTINUOUS
 62
     7
 10
366.2900367532
 20
370.42922735
 30
0.0
 11
366.3515406274
 21
370.4999794638
 31
0.0
  0
LINE
  5
D0
  8
0
  6
CONTINUOUS
 62
     7
 10
366.3515406274
 20
414.9769578768
 30
0.0
 11
366.2900367532
 21
415.0477099906
 31
0.0
  0
ARC
  5
D1
  8
0
  6
CONTINUOUS
 62
     7
 10
366.8798373335
 20
415.4361991971
 30
0.0
 40
0.6999999999999886
 50
221.0
 51
269.1898025957
  0
ARC
  5
D2
  8
0
  6
CONTINUOUS
 62
     7
 10
366.8798373335
 20
370.0407381435
 30
0.0
 40
0.6999999999999879
 50
90.8101974043
 51
139.0
  0
ARC
  5
D3
  8
0
  6
CONTINUOUS
 62
     7
 10
388.0333129223
 20
366.9100415455
 30
0.0
 40
2.828427124742063
 50
0.0
 51
90.0
  0
LINE
  5
D4
  8
0
  6
CONTINUOUS
 62
     7
 10
378.861740047
 20
369.3884686702
 30
0.0
 11
379.080321414
 21
368.7879213003
 31
0.0
  0
LINE
  5
D5
  8
0
  6
CONTINUOUS
 62
     7
 10
386.6431586801
 20
368.7879213003
 30
0.0
 11
386.8617400471
 21
369.3884686702
 31
0.0
  0
LINE
  5
D6
  8
0
  6
CONTINUOUS
 62
     7
 10
378.861740047
 20
369.7384686702
 30
0.0
 11
378.861740047
 21
369.3884686702
 31
0.0
  0
LINE
  5
D7
  8
0
  6
CONTINUOUS
 62
     7
 10
386.861740047
 20
369.3884686702
 30
0.0
 11
386.861740047
 21
369.7473254343
 31
0.0
  0
ARC
  5
D8
  8
0
  6
CONTINUOUS
 62
     7
 10
386.455220156
 20
368.856325329
 30
0.0
 40
0.2000000000158861
 50
270.0
 51
339.9999999871
  0
ARC
  5
D9
  8
0
  6
CONTINUOUS
 62
     7
 10
379.2682599381
 20
368.856325329
 30
0.0
 40
0.2000000000158861
 50
200.0000000129
 51
270.0
  0
LINE
  5
DA
  8
0
  6
CONTINUOUS
 62
     7
 10
379.2682599381
 20
368.656325329
 30
0.0
 11
386.455220156
 21
368.656325329
 31
0.0
  0
ARC
  5
DB
  8
0
  6
CONTINUOUS
 62
     7
 10
345.8384606253
 20
358.9884686703
 30
0.0
 40
1.0
 50
270.0
 51
0.0
  0
ARC
  5
DC
  8
0
  6
CONTINUOUS
 62
     7
 10
345.8384606253
 20
426.4884686703
 30
0.0
 40
1.0
 50
0.0
 51
90.0
  0
LINE
  5
DD
  8
0
  6
CONTINUOUS
 62
     7
 10
339.8384606253
 20
357.9884686703
 30
0.0
 11
345.8384606253
 21
357.9884686703
 31
0.0
  0
LINE
  5
DE
  8
0
  6
CONTINUOUS
 62
     7
 10
345.8384606253
 20
427.4884686703
 30
0.0
 11
339.8384606253
 21
427.4884686703
 31
0.0
  0
ARC
  5
DF
  8
0
  6
CONTINUOUS
 62
     7
 10
528.2915515502
 20
364.5629120388
 30
0.0
 40
0.7999999999999834
 50
295.0
 51
25.0
  0
ARC
  5
E0
  8
0
  6
CONTINUOUS
 62
     7
 10
510.7091804817
 20
356.364117761
 30
0.0
 40
0.8000000000000074
 50
205.0
 51
295.0
  0
POLYLINE
  5
E1
  8
0
  6
CONTINUOUS
 62
     7
 66
     1
 10
0.0
 20
0.0
 30
0.0
 70
   128
  0
VERTEX
  5
20D
  8
0
  6
CONTINUOUS
 62
     7
 10
469.8384606253
 20
382.2384686703
 30
0.0
  0
VERTEX
  5
20E
  8
0
  6
CONTINUOUS
 62
     7
 10
474.8095292931
 20
382.2104848545
 30
0.0
  0
VERTEX
  5
20F
  8
0
  6
CONTINUOUS
 62
     7
 10
478.9143783735
 20
382.1160986457
 30
0.0
  0
VERTEX
  5
210
  8
0
  6
CONTINUOUS
 62
     7
 10
482.3291525522
 20
381.949573333
 30
0.0
  0
VERTEX
  5
211
  8
0
  6
CONTINUOUS
 62
     7
 10
485.1431523048
 20
381.7194228071
 30
0.0
  0
VERTEX
  5
212
  8
0
  6
CONTINUOUS
 62
     7
 10
488.0858264376
 20
381.3385623425
 30
0.0
  0
VERTEX
  5
213
  8
0
  6
CONTINUOUS
 62
     7
 10
490.276505208
 20
380.9183461775
 30
0.0
  0
VERTEX
  5
214
  8
0
  6
CONTINUOUS
 62
     7
 10
491.883358545
 20
380.5048928397
 30
0.0
  0
VERTEX
  5
215
  8
0
  6
CONTINUOUS
 62
     7
 10
493.2494788901
 20
380.0553237423
 30
0.0
  0
VERTEX
  5
216
  8
0
  6
CONTINUOUS
 62
     7
 10
494.9028685368
 20
379.3423950553
 30
0.0
  0
VERTEX
  5
217
  8
0
  6
CONTINUOUS
 62
     7
 10
496.7568823988
 20
378.2383892504
 30
0.0
  0
VERTEX
  5
218
  8
0
  6
CONTINUOUS
 62
     7
 10
497.7683493006
 20
377.457268482
 30
0.0
  0
VERTEX
  5
219
  8
0
  6
CONTINUOUS
 62
     7
 10
498.8749903244
 20
376.4298739889
 30
0.0
  0
VERTEX
  5
21A
  8
0
  6
CONTINUOUS
 62
     7
 10
500.1232608865
 20
375.0088571857
 30
0.0
  0
VERTEX
  5
21B
  8
0
  6
CONTINUOUS
 62
     7
 10
500.9548591009
 20
373.9054628782
 30
0.0
  0
VERTEX
  5
21C
  8
0
  6
CONTINUOUS
 62
     7
 10
501.8315104171
 20
372.6171768298
 30
0.0
  0
VERTEX
  5
21D
  8
0
  6
CONTINUOUS
 62
     7
 10
502.7314162239
 20
371.1565451774
 30
0.0
  0
VERTEX
  5
21E
  8
0
  6
CONTINUOUS
 62
     7
 10
503.6924264166
 20
369.4058915488
 30
0.0
  0
VERTEX
  5
21F
  8
0
  6
CONTINUOUS
 62
     7
 10
504.8281914588
 20
367.0829781535
 30
0.0
  0
SEQEND
  5
2A7
  8
0
  6
CONTINUOUS
 62
     7
  0
POLYLINE
  5
E2
  8
0
  6
CONTINUOUS
 62
     7
 66
     1
 10
0.0
 20
0.0
 30
0.0
 70
   128
  0
VERTEX
  5
220
  8
0
  6
CONTINUOUS
 62
     7
 10
523.8606549866
 20
375.95796165
 30
0.0
  0
VERTEX
  5
221
  8
0
  6
CONTINUOUS
 62
     7
 10
521.7528267487
 20
380.1377797271
 30
0.0
  0
VERTEX
  5
222
  8
0
  6
CONTINUOUS
 62
     7
 10
519.5196972003
 20
383.9528147837
 30
0.0
  0
VERTEX
  5
223
  8
0
  6
CONTINUOUS
 62
     7
 10
517.3538166019
 20
387.0725157125
 30
0.0
  0
VERTEX
  5
224
  8
0
  6
CONTINUOUS
 62
     7
 10
515.2155271327
 20
389.6763078996
 30
0.0
  0
VERTEX
  5
225
  8
0
  6
CONTINUOUS
 62
     7
 10
513.1092183706
 20
391.8756462278
 30
0.0
  0
VERTEX
  5
226
  8
0
  6
CONTINUOUS
 62
     7
 10
510.6049018198
 20
394.0880087156
 30
0.0
  0
VERTEX
  5
227
  8
0
  6
CONTINUOUS
 62
     7
 10
508.331457016
 20
395.7662050591
 30
0.0
  0
VERTEX
  5
228
  8
0
  6
CONTINUOUS
 62
     7
 10
506.3650237479
 20
397.0049795324
 30
0.0
  0
VERTEX
  5
229
  8
0
  6
CONTINUOUS
 62
     7
 10
504.5180168657
 20
398.0119743748
 30
0.0
  0
VERTEX
  5
22A
  8
0
  6
CONTINUOUS
 62
     7
 10
501.3270673147
 20
399.4442371151
 30
0.0
  0
VERTEX
  5
22B
  8
0
  6
CONTINUOUS
 62
     7
 10
497.2228593574
 20
400.8188631593
 30
0.0
  0
VERTEX
  5
22C
  8
0
  6
CONTINUOUS
 62
     7
 10
492.1798422039
 20
401.9470879875
 30
0.0
  0
VERTEX
  5
22D
  8
0
  6
CONTINUOUS
 62
     7
 10
487.7341049774
 20
402.5631519105
 30
0.0
  0
VERTEX
  5
22E
  8
0
  6
CONTINUOUS
 62
     7
 10
482.6333433148
 20
402.9704498237
 30
0.0
  0
VERTEX
  5
22F
  8
0
  6
CONTINUOUS
 62
     7
 10
476.7062461525
 20
403.1817873018
 30
0.0
  0
VERTEX
  5
230
  8
0
  6
CONTINUOUS
 62
     7
 10
469.8384606253
 20
403.2384686703
 30
0.0
  0
SEQEND
  5
2A8
  8
0
  6
CONTINUOUS
 62
     7
  0
LINE
  5
E3
  8
0
  6
CONTINUOUS
 62
     7
 10
529.0165977798
 20
364.9010066482
 30
0.0
 11
523.8606549866
 21
375.95796165
 31
0.0
  0
LINE
  5
E4
  8
0
  6
CONTINUOUS
 62
     7
 10
504.8281914588
 20
367.0829781535
 30
0.0
 11
509.984134252
 21
356.0260231516
 31
0.0
  0
LINE
  5
E5
  8
0
  6
CONTINUOUS
 62
     7
 10
346.8384606253
 20
382.2384686703
 30
0.0
 11
469.8384606253
 21
382.2384686703
 31
0.0
  0
LINE
  5
E6
  8
0
  6
CONTINUOUS
 62
     7
 10
469.8384606253
 20
403.2384686703
 30
0.0
 11
346.8384606253
 21
403.2384686703
 31
0.0
  0
LINE
  5
E7
  8
0
  6
CONTINUOUS
 62
     7
 10
400.861740047
 20
414.7384686702
 30
0.0
 11
400.861740047
 21
403.2384686703
 31
0.0
  0
LINE
  5
E8
  8
0
  6
CONTINUOUS
 62
     7
 10
400.861740047
 20
382.2384686703
 30
0.0
 11
400.861740047
 21
371.8869947351
 31
0.0
  0
LINE
  5
E9
  8
0
  6
CONTINUOUS
 62
     7
 10
371.861740047
 20
382.2384686703
 30
0.0
 11
371.861740047
 21
369.7384686702
 31
0.0
  0
LINE
  5
EA
  8
0
  6
CONTINUOUS
 62
     7
 10
375.9137340637
 20
415.7384686702
 30
0.0
 11
373.7096468049
 21
403.2384686703
 31
0.0
  0
POLYLINE
  5
EB
  8
0
  6
CONTINUOUS
 62
     7
 66
     1
 10
0.0
 20
0.0
 30
0.0
 70
   128
  0
VERTEX
  5
231
  8
0
  6
CONTINUOUS
 62
     7
 10
378.861740047
 20
369.7384686702
 30
0.0
  0
VERTEX
  5
232
  8
0
  6
CONTINUOUS
 62
     7
 10
379.0833104613
 20
369.7759659727
 30
0.0
  0
VERTEX
  5
233
  8
0
  6
CONTINUOUS
 62
     7
 10
379.7213177142
 20
369.8722872569
 30
0.0
  0
VERTEX
  5
234
  8
0
  6
CONTINUOUS
 62
     7
 10
380.7147279442
 20
369.987432189
 30
0.0
  0
VERTEX
  5
235
  8
0
  6
CONTINUOUS
 62
     7
 10
381.959759684
 20
370.0710125144
 30
0.0
  0
VERTEX
  5
236
  8
0
  6
CONTINUOUS
 62
     7
 10
383.2963256096
 20
370.0847964599
 30
0.0
  0
VERTEX
  5
237
  8
0
  6
CONTINUOUS
 62
     7
 10
384.569324879
 20
370.0246877001
 30
0.0
  0
VERTEX
  5
238
  8
0
  6
CONTINUOUS
 62
     7
 10
385.6585502176
 20
369.9169405196
 30
0.0
  0
VERTEX
  5
239
  8
0
  6
CONTINUOUS
 62
     7
 10
386.4481146041
 20
369.8067857302
 30
0.0
  0
VERTEX
  5
23A
  8
0
  6
CONTINUOUS
 62
     7
 10
386.8329758879
 20
369.7434536865
 30
0.0
  0
VERTEX
  5
23B
  8
0
  6
CONTINUOUS
 62
     7
 10
386.8102705284
 20
369.7473446424
 30
0.0
  0
SEQEND
  5
2A9
  8
0
  6
CONTINUOUS
 62
     7
  0
ARC
  5
EC
  8
0
  6
CONTINUOUS
 62
     7
 10
388.0502722669
 20
367.204491134
 30
0.0
 40
2.81152018770162
 50
0.3498362037
 51
90.3456154316
  0
LINE
  5
ED
  8
0
  6
CONTINUOUS
 62
     7
 10
400.861740047
 20
371.8869947351
 30
0.0
 11
400.861740047
 21
367.6909609935
 31
0.0
  0
ARC
  5
EE
  8
0
  6
CONTINUOUS
 62
     7
 10
391.861740047
 20
308.7384686702
 30
0.0
 40
1.000000000000057
 50
180.0
 51
270.0
  0
LINE
  5
EF
  8
0
  6
CONTINUOUS
 62
     7
 10
390.861740047
 20
367.2216575893
 30
0.0
 11
390.861740047
 21
308.7384686702
 31
0.0
  0
ARC
  5
F0
  8
0
  6
CONTINUOUS
 62
     7
 10
399.861740047
 20
308.7384686702
 30
0.0
 40
1.0
 50
270.0
 51
0.0
  0
LINE
  5
F1
  8
0
  6
CONTINUOUS
 62
     7
 10
400.861740047
 20
367.6909609935
 30
0.0
 11
400.861740047
 21
308.7384686702
 31
0.0
  0
LINE
  5
F2
  8
0
  6
CONTINUOUS
 62
     7
 10
399.861740047
 20
307.7384686702
 30
0.0
 11
391.861740047
 21
307.7384686702
 31
0.0
  0
LINE
  5
F3
  8
0
  6
CONTINUOUS
 62
     7
 10
378.861740047
 20
369.3884686702
 30
0.0
 11
386.8617400471
 21
369.3884686702
 31
0.0
  0
LINE
  5
F4
  8
0
  6
CONTINUOUS
 62
     7
 10
346.8384606253
 20
358.9884686703
 30
0.0
 11
346.8384606253
 21
426.4884686703
 31
0.0
  0
LINE
  5
F5
  8
0
  6
CONTINUOUS
 62
     7
 10
339.8384606253
 20
392.7384686703
 30
0.0
 11
339.8384606253
 21
427.4884686703
 31
0.0
  0
LINE
  5
F6
  8
0
  6
CONTINUOUS
 62
     7
 10
339.8384606253
 20
357.9884686703
 30
0.0
 11
339.8384606253
 21
392.7384686703
 31
0.0
  0
LINE
  5
F7
  8
0
  6
CONTINUOUS
 62
     7
 10
511.0472750911
 20
355.6390715314
 30
0.0
 11
528.6296461596
 21
363.8378658092
 31
0.0
  0
LINE
  5
F8
  8
0
  6
CONTINUOUS
 62
     8
 10
366.8699392348
 20
382.2384686703
 30
0.0
 11
366.8699392348
 21
370.7406681597
 31
0.0
  0
LINE
  5
F9
  8
0
  6
CONTINUOUS
 62
     8
 10
366.8699392348
 20
414.7362691803
 30
0.0
 11
366.8699392348
 21
403.2384686703
 31
0.0
  0
LINE
  5
FA
  8
0
  6
CONTINUOUS
 62
     8
 10
399.861740047
 20
415.7384686702
 30
0.0
 11
399.861740047
 21
403.2384686703
 31
0.0
  0
LINE
  5
FB
  8
0
  6
CONTINUOUS
 62
     8
 10
399.861740047
 20
382.2384686703
 30
0.0
 11
399.861740047
 21
370.9392004653
 31
0.0
  0
ARC
  5
FC
  8
0
  6
CONTINUOUS
 62
     8
 10
399.8871615526
 20
371.9138164899
 30
0.0
 40
0.9749475105826183
 50
268.5058579461
 51
358.4235384439
  0
LINE
  5
FD
  8
0
  6
CONTINUOUS
 62
     8
 10
388.0333129223
 20
369.7384686702
 30
0.0
 11
388.0333129223
 21
370.0159601711
 31
0.0
  0
LINE
  5
FE
  8
0
  6
CONTINUOUS
 62
     8
 10
391.861740047
 20
370.9392004653
 30
0.0
 11
399.861740047
 21
370.9392004653
 31
0.0
  0
POLYLINE
  5
FF
  8
0
  6
CONTINUOUS
 62
     8
 66
     1
 10
0.0
 20
0.0
 30
0.0
 70
   128
  0
VERTEX
  5
23C
  8
0
  6
CONTINUOUS
 62
     8
 10
388.0333129223
 20
370.0159601711
 30
0.0
  0
VERTEX
  5
23D
  8
0
  6
CONTINUOUS
 62
     8
 10
388.2167884129
 20
370.2645900908
 30
0.0
  0
VERTEX
  5
23E
  8
0
  6
CONTINUOUS
 62
     8
 10
388.5185176179
 20
370.415032023
 30
0.0
  0
VERTEX
  5
23F
  8
0
  6
CONTINUOUS
 62
     8
 10
388.9476034
 20
370.5640282667
 30
0.0
  0
VERTEX
  5
240
  8
0
  6
CONTINUOUS
 62
     8
 10
389.5225880386
 20
370.7071818272
 30
0.0
  0
VERTEX
  5
241
  8
0
  6
CONTINUOUS
 62
     8
 10
390.2189910789
 20
370.8271720624
 30
0.0
  0
VERTEX
  5
242
  8
0
  6
CONTINUOUS
 62
     8
 10
391.0082344416
 20
370.9091595363
 30
0.0
  0
VERTEX
  5
243
  8
0
  6
CONTINUOUS
 62
     8
 10
391.861740047
 20
370.9392004653
 30
0.0
  0
SEQEND
  5
2AA
  8
0
  6
CONTINUOUS
 62
     8
  0
LINE
  5
100
  8
0
  6
CONTINUOUS
 62
     8
 10
365.761740047
 20
370.1884686703
 30
0.0
 11
365.761740047
 21
382.2384686703
 31
0.0
  0
LINE
  5
101
  8
0
  6
CONTINUOUS
 62
     8
 10
365.761740047
 20
403.2384686703
 30
0.0
 11
365.761740047
 21
415.2884686703
 31
0.0
  0
LINE
  5
102
  8
0
  6
CONTINUOUS
 62
     8
 10
366.2900367532
 20
403.2384686703
 30
0.0
 11
366.2900367532
 21
415.0477099906
 31
0.0
  0
LINE
  5
103
  8
0
  6
CONTINUOUS
 62
     8
 10
366.2900367532
 20
370.42922735
 30
0.0
 11
366.2900367532
 21
382.2384686703
 31
0.0
  0
LINE
  5
104
  8
0
  6
CONTINUOUS
 62
     8
 10
366.3515406274
 20
370.4999794638
 30
0.0
 11
366.3515406274
 21
382.2384686703
 31
0.0
  0
LINE
  5
105
  8
0
  6
CONTINUOUS
 62
     8
 10
366.3515406274
 20
403.2384686703
 30
0.0
 11
366.3515406274
 21
414.9769578768
 31
0.0
  0
LINE
  5
106
  8
0
  6
CONTINUOUS
 62
     8
 10
399.861740047
 20
370.9392004653
 30
0.0
 11
399.861740047
 21
367.6909609935
 31
0.0
  0
LINE
  5
107
  8
0
  6
CONTINUOUS
 62
     8
 10
399.861740047
 20
367.6909609935
 30
0.0
 11
391.861740047
 21
367.6909609935
 31
0.0
  0
LINE
  5
108
  8
0
  6
CONTINUOUS
 62
     8
 10
391.861740047
 20
367.6909609935
 30
0.0
 11
391.861740047
 21
370.9392004653
 31
0.0
  0
POLYLINE
  5
109
  8
0
  6
CONTINUOUS
 62
     8
 66
     1
 10
0.0
 20
0.0
 30
0.0
 70
   128
  0
VERTEX
  5
244
  8
0
  6
CONTINUOUS
 62
     8
 10
391.861740047
 20
367.6909609935
 30
0.0
  0
VERTEX
  5
245
  8
0
  6
CONTINUOUS
 62
     8
 10
391.6822197279
 20
367.6813232524
 30
0.0
  0
VERTEX
  5
246
  8
0
  6
CONTINUOUS
 62
     8
 10
391.4993685823
 20
367.6524100291
 30
0.0
  0
VERTEX
  5
247
  8
0
  6
CONTINUOUS
 62
     8
 10
391.3213196866
 20
367.6042213236
 30
0.0
  0
VERTEX
  5
248
  8
0
  6
CONTINUOUS
 62
     8
 10
391.1578384198
 20
367.5367571359
 30
0.0
  0
VERTEX
  5
249
  8
0
  6
CONTINUOUS
 62
     8
 10
390.9385915547
 20
367.3809836406
 30
0.0
  0
VERTEX
  5
24A
  8
0
  6
CONTINUOUS
 62
     8
 10
390.861740047
 20
367.2216575893
 30
0.0
  0
SEQEND
  5
2AB
  8
0
  6
CONTINUOUS
 62
     8
  0
LINE
  5
10A
  8
0
  6
CONTINUOUS
 62
     8
 10
400.861740047
 20
367.6909609935
 30
0.0
 11
399.861740047
 21
367.6909609935
 31
0.0
  0
LINE
  5
10B
  8
0
  6
CONTINUOUS
 62
     8
 10
390.861740047
 20
308.7384686702
 30
0.0
 11
391.861740047
 21
308.7384686702
 31
0.0
  0
LINE
  5
10C
  8
0
  6
CONTINUOUS
 62
     8
 10
391.861740047
 20
308.7384686702
 30
0.0
 11
391.861740047
 21
307.7384686702
 31
0.0
  0
LINE
  5
10D
  8
0
  6
CONTINUOUS
 62
     8
 10
391.861740047
 20
367.6909609935
 30
0.0
 11
391.861740047
 21
308.7384686702
 31
0.0
  0
LINE
  5
10E
  8
0
  6
CONTINUOUS
 62
     8
 10
399.861740047
 20
367.6909609935
 30
0.0
 11
399.861740047
 21
308.7384686702
 31
0.0
  0
LINE
  5
10F
  8
0
  6
CONTINUOUS
 62
     8
 10
391.861740047
 20
308.7384686702
 30
0.0
 11
399.861740047
 21
308.7384686702
 31
0.0
  0
LINE
  5
110
  8
0
  6
CONTINUOUS
 62
     8
 10
399.861740047
 20
308.7384686702
 30
0.0
 11
400.861740047
 21
308.7384686702
 31
0.0
  0
LINE
  5
111
  8
0
  6
CONTINUOUS
 62
     8
 10
399.861740047
 20
308.7384686702
 30
0.0
 11
399.861740047
 21
307.7384686702
 31
0.0
  0
LINE
  5
112
  8
0
  6
CONTINUOUS
 62
     8
 10
379.080321414
 20
368.7879213003
 30
0.0
 11
386.6431586801
 21
368.7879213003
 31
0.0
  0
LINE
  5
113
  8
0
  6
CONTINUOUS
 62
     8
 10
345.8384606253
 20
392.7384686703
 30
0.0
 11
345.8384606253
 21
427.4884686703
 31
0.0
  0
LINE
  5
114
  8
0
  6
CONTINUOUS
 62
     8
 10
345.8384606253
 20
357.9884686703
 30
0.0
 11
345.8384606253
 21
392.7384686703
 31
0.0
  0
LINE
  5
115
  8
0
  6
CONTINUOUS
 62
     8
 10
509.984134252
 20
356.0260231516
 30
0.0
 11
529.0165977798
 21
364.9010066482
 31
0.0
  0
LINE
  5
116
  8
0
  6
CONTINUOUS
 62
     8
 10
469.8384606253
 20
392.7384686703
 30
0.0
 11
469.8384606253
 21
403.2384682673
 31
0.0
  0
LINE
  5
117
  8
0
  6
CONTINUOUS
 62
     8
 10
469.8384606253
 20
382.2384691159
 30
0.0
 11
469.8384606253
 21
392.7384686703
 31
0.0
  0
LINE
  5
118
  8
0
  6
CONTINUOUS
 62
     8
 10
504.8281918721
 20
367.0829783462
 30
0.0
 11
523.8606545849
 21
375.9579614627
 31
0.0
  0
ARC
  5
119
  8
0
  6
CONTINUOUS
 62
     7
 10
242.6706432216
 20
250.0295368953
 30
0.0
 40
1.000000000000028
 50
270.0
 51
0.0
  0
ARC
  5
11A
  8
0
  6
CONTINUOUS
 62
     7
 10
175.1706432216
 20
250.0295368953
 30
0.0
 40
1.0
 50
180.0
 51
270.0
  0
LINE
  5
11B
  8
0
  6
CONTINUOUS
 62
     7
 10
243.6706432216
 20
250.0295368953
 30
0.0
 11
243.6706432216
 21
256.0295368953
 31
0.0
  0
LINE
  5
11C
  8
0
  6
CONTINUOUS
 62
     7
 10
174.1706432216
 20
256.0295368953
 30
0.0
 11
174.1706432216
 21
250.0295368953
 31
0.0
  0
ARC
  5
11D
  8
0
  6
CONTINUOUS
 62
     7
 10
211.4043603867
 20
228.9931945063
 30
0.0
 40
19.511761876253
 50
344.5010915981
 51
359.9996249189
  0
POLYLINE
  5
11E
  8
0
  6
CONTINUOUS
 62
     7
 66
     1
 10
0.0
 20
0.0
 30
0.0
 70
   128
  0
VERTEX
  5
24B
  8
0
  6
CONTINUOUS
 62
     7
 10
187.0738037981
 20
226.717692527
 30
0.0
  0
VERTEX
  5
24C
  8
0
  6
CONTINUOUS
 62
     7
 10
187.5054258482
 20
224.2704446475
 30
0.0
  0
VERTEX
  5
24D
  8
0
  6
CONTINUOUS
 62
     7
 10
187.6325232141
 20
223.7805568263
 30
0.0
  0
SEQEND
  5
2AC
  8
0
  6
CONTINUOUS
 62
     7
  0
POLYLINE
  5
11F
  8
0
  6
CONTINUOUS
 62
     7
 66
     1
 10
0.0
 20
0.0
 30
0.0
 70
   128
  0
VERTEX
  5
24E
  8
0
  6
CONTINUOUS
 62
     7
 10
186.9356027357
 20
228.9983712572
 30
0.0
  0
VERTEX
  5
24F
  8
0
  6
CONTINUOUS
 62
     7
 10
186.9609691798
 20
227.9777075833
 30
0.0
  0
VERTEX
  5
250
  8
0
  6
CONTINUOUS
 62
     7
 10
187.0738037981
 20
226.717692527
 30
0.0
  0
SEQEND
  5
2AD
  8
0
  6
CONTINUOUS
 62
     7
  0
ARC
  5
120
  8
0
  6
CONTINUOUS
 62
     7
 10
230.9206432216
 20
196.0062574736
 30
0.0
 40
1.0
 50
270.0
 51
0.0
  0
ARC
  5
121
  8
0
  6
CONTINUOUS
 62
     7
 10
186.9206432216
 20
196.0062574736
 30
0.0
 40
1.0
 50
180.0
 51
270.0
  0
LINE
  5
122
  8
0
  6
CONTINUOUS
 62
     7
 10
185.9206432216
 20
223.816285698
 30
0.0
 11
185.9206432216
 21
196.0062574736
 31
0.0
  0
LINE
  5
123
  8
0
  6
CONTINUOUS
 62
     7
 10
231.9206432216
 20
196.0062574736
 30
0.0
 11
231.9206432216
 21
223.816285698
 31
0.0
  0
LINE
  5
124
  8
0
  6
CONTINUOUS
 62
     7
 10
231.4706432216
 20
230.1062574736
 30
0.0
 11
231.4706432216
 21
249.0295368953
 31
0.0
  0
LINE
  5
125
  8
0
  6
CONTINUOUS
 62
     7
 10
186.3706432216
 20
249.0295368953
 30
0.0
 11
186.3706432216
 21
230.1062574736
 31
0.0
  0
ARC
  5
126
  8
0
  6
CONTINUOUS
 62
     7
 10
230.7706432216
 20
230.1062574736
 30
0.0
 40
0.6999999999999886
 50
311.0
 51
0.0
  0
ARC
  5
127
  8
0
  6
CONTINUOUS
 62
     7
 10
187.0706432216
 20
230.1062574736
 30
0.0
 40
0.700000000000017
 50
180.0
 51
229.0
  0
LINE
  5
128
  8
0
  6
CONTINUOUS
 62
     7
 10
186.6114019013
 20
229.5779607674
 30
0.0
 11
186.6821540151
 21
229.5164568933
 31
0.0
  0
LINE
  5
129
  8
0
  6
CONTINUOUS
 62
     7
 10
231.1591324281
 20
229.5164568933
 30
0.0
 11
231.2298845419
 21
229.5779607674
 31
0.0
  0
ARC
  5
12A
  8
0
  6
CONTINUOUS
 62
     7
 10
231.6183737484
 20
228.9881601871
 30
0.0
 40
0.7000000000000276
 50
131.0
 51
179.1898025957
  0
ARC
  5
12B
  8
0
  6
CONTINUOUS
 62
     7
 10
186.2229126948
 20
228.9881601871
 30
0.0
 40
0.7000000000000276
 50
0.8101974043
 51
49.0
  0
ARC
  5
12C
  8
0
  6
CONTINUOUS
 62
     7
 10
65.1706432216
 20
250.0295368953
 30
0.0
 40
1.000000000000028
 50
180.0
 51
270.0
  0
ARC
  5
12D
  8
0
  6
CONTINUOUS
 62
     7
 10
132.6706432216
 20
250.0295368953
 30
0.0
 40
1.0
 50
270.0
 51
0.0
  0
LINE
  5
12E
  8
0
  6
CONTINUOUS
 62
     7
 10
64.1706432216
 20
256.0295368953
 30
0.0
 11
64.1706432216
 21
250.0295368953
 31
0.0
  0
LINE
  5
12F
  8
0
  6
CONTINUOUS
 62
     7
 10
133.6706432216
 20
250.0295368953
 30
0.0
 11
133.6706432216
 21
256.0295368953
 31
0.0
  0
LINE
  5
130
  8
0
  6
CONTINUOUS
 62
     7
 10
88.4206432216
 20
249.0295368953
 30
0.0
 11
88.4206432216
 21
126.0295368953
 31
0.0
  0
LINE
  5
131
  8
0
  6
CONTINUOUS
 62
     7
 10
109.4206432216
 20
126.0295368953
 30
0.0
 11
109.4206432216
 21
249.0295368953
 31
0.0
  0
LINE
  5
132
  8
0
  6
CONTINUOUS
 62
     7
 10
88.4206432216
 20
126.0295368953
 30
0.0
 11
88.4206432216
 21
81.5235742979
 31
0.0
  0
LINE
  5
133
  8
0
  6
CONTINUOUS
 62
     7
 10
109.4206432216
 20
81.5235742979
 30
0.0
 11
109.4206432216
 21
126.0295368953
 31
0.0
  0
LINE
  5
134
  8
0
  6
CONTINUOUS
 62
     7
 10
109.4206432216
 20
76.3676315047
 30
0.0
 11
109.4206432216
 21
81.5235742979
 31
0.0
  0
LINE
  5
135
  8
0
  6
CONTINUOUS
 62
     7
 10
88.4206432216
 20
81.5235742979
 30
0.0
 11
88.4206432216
 21
76.3676315047
 31
0.0
  0
ARC
  5
136
  8
0
  6
CONTINUOUS
 62
     7
 10
98.9034438239
 20
77.6298593831
 30
0.0
 40
10.89305409344447
 50
217.8833786156
 51
322.7805174876
  0
LINE
  5
137
  8
0
  6
CONTINUOUS
 62
     7
 10
175.1706432216
 20
249.0295368953
 30
0.0
 11
242.6706432216
 21
249.0295368953
 31
0.0
  0
LINE
  5
138
  8
0
  6
CONTINUOUS
 62
     7
 10
208.9206432216
 20
256.0295368953
 30
0.0
 11
174.1706432216
 21
256.0295368953
 31
0.0
  0
LINE
  5
139
  8
0
  6
CONTINUOUS
 62
     7
 10
243.6706432216
 20
256.0295368953
 30
0.0
 11
208.9206432216
 21
256.0295368953
 31
0.0
  0
POLYLINE
  5
13A
  8
0
  6
CONTINUOUS
 62
     7
 66
     1
 10
0.0
 20
0.0
 30
0.0
 70
   128
  0
VERTEX
  5
251
  8
0
  6
CONTINUOUS
 62
     7
 10
230.1625210903
 20
223.7927075565
 30
0.0
  0
VERTEX
  5
252
  8
0
  6
CONTINUOUS
 62
     7
 10
230.1112308799
 20
223.6406175535
 30
0.0
  0
VERTEX
  5
253
  8
0
  6
CONTINUOUS
 62
     7
 10
229.6212414091
 20
223.2466451242
 30
0.0
  0
SEQEND
  5
2AE
  8
0
  6
CONTINUOUS
 62
     7
  0
POLYLINE
  5
13B
  8
0
  6
CONTINUOUS
 62
     7
 66
     1
 10
0.0
 20
0.0
 30
0.0
 70
   128
  0
VERTEX
  5
254
  8
0
  6
CONTINUOUS
 62
     7
 10
188.2200450341
 20
223.2466451242
 30
0.0
  0
VERTEX
  5
255
  8
0
  6
CONTINUOUS
 62
     7
 10
189.4081318732
 20
222.6564118124
 30
0.0
  0
VERTEX
  5
256
  8
0
  6
CONTINUOUS
 62
     7
 10
191.1462460249
 20
222.1088323329
 30
0.0
  0
VERTEX
  5
257
  8
0
  6
CONTINUOUS
 62
     7
 10
193.3924529941
 20
221.6201606558
 30
0.0
  0
VERTEX
  5
258
  8
0
  6
CONTINUOUS
 62
     7
 10
196.0763754674
 20
221.2033531176
 30
0.0
  0
VERTEX
  5
259
  8
0
  6
CONTINUOUS
 62
     7
 10
199.1274597701
 20
220.8713370997
 30
0.0
  0
VERTEX
  5
25A
  8
0
  6
CONTINUOUS
 62
     7
 10
202.4545986656
 20
220.6322933909
 30
0.0
  0
VERTEX
  5
25B
  8
0
  6
CONTINUOUS
 62
     7
 10
205.9665736914
 20
220.4943653197
 30
0.0
  0
VERTEX
  5
25C
  8
0
  6
CONTINUOUS
 62
     7
 10
209.5618193376
 20
220.4600358051
 30
0.0
  0
VERTEX
  5
25D
  8
0
  6
CONTINUOUS
 62
     7
 10
213.1387365435
 20
220.5317460244
 30
0.0
  0
VERTEX
  5
25E
  8
0
  6
CONTINUOUS
 62
     7
 10
216.5967522664
 20
220.7060010963
 30
0.0
  0
VERTEX
  5
25F
  8
0
  6
CONTINUOUS
 62
     7
 10
219.8353413709
 20
220.9792648228
 30
0.0
  0
VERTEX
  5
260
  8
0
  6
CONTINUOUS
 62
     7
 10
222.7662621295
 20
221.3424585438
 30
0.0
  0
VERTEX
  5
261
  8
0
  6
CONTINUOUS
 62
     7
 10
225.3013967783
 20
221.7864673652
 30
0.0
  0
VERTEX
  5
262
  8
0
  6
CONTINUOUS
 62
     7
 10
227.3747834902
 20
222.2976523983
 30
0.0
  0
VERTEX
  5
263
  8
0
  6
CONTINUOUS
 62
     7
 10
228.6868773999
 20
222.7586676022
 30
0.0
  0
VERTEX
  5
264
  8
0
  6
CONTINUOUS
 62
     7
 10
229.6212414091
 20
223.2466451242
 30
0.0
  0
SEQEND
  5
2AF
  8
0
  6
CONTINUOUS
 62
     7
  0
POLYLINE
  5
13C
  8
0
  6
CONTINUOUS
 62
     7
 66
     1
 10
0.0
 20
0.0
 30
0.0
 70
   128
  0
VERTEX
  5
265
  8
0
  6
CONTINUOUS
 62
     7
 10
188.2200450341
 20
223.2466451242
 30
0.0
  0
VERTEX
  5
266
  8
0
  6
CONTINUOUS
 62
     7
 10
187.7016592936
 20
223.6728887691
 30
0.0
  0
VERTEX
  5
267
  8
0
  6
CONTINUOUS
 62
     7
 10
187.678932881
 20
223.7925974326
 30
0.0
  0
SEQEND
  5
2B0
  8
0
  6
CONTINUOUS
 62
     7
  0
LINE
  5
13D
  8
0
  6
CONTINUOUS
 62
     7
 10
230.9132337101
 20
195.0062574736
 30
0.0
 11
208.9206432216
 21
195.0062574736
 31
0.0
  0
LINE
  5
13E
  8
0
  6
CONTINUOUS
 62
     7
 10
208.9206432216
 20
195.0062574736
 30
0.0
 11
186.928052733
 21
195.0062574736
 31
0.0
  0
POLYLINE
  5
13F
  8
0
  6
CONTINUOUS
 62
     7
 66
     1
 10
0.0
 20
0.0
 30
0.0
 70
   128
  0
VERTEX
  5
268
  8
0
  6
CONTINUOUS
 62
     7
 10
231.5046843062
 20
224.0062574736
 30
0.0
  0
VERTEX
  5
269
  8
0
  6
CONTINUOUS
 62
     7
 10
231.9206432216
 20
223.816285698
 30
0.0
  0
VERTEX
  5
26A
  8
0
  6
CONTINUOUS
 62
     7
 10
231.5097695057
 20
223.2466451242
 30
0.0
  0
SEQEND
  5
2B1
  8
0
  6
CONTINUOUS
 62
     7
  0
POLYLINE
  5
140
  8
0
  6
CONTINUOUS
 62
     7
 66
     1
 10
0.0
 20
0.0
 30
0.0
 70
   128
  0
VERTEX
  5
26B
  8
0
  6
CONTINUOUS
 62
     7
 10
186.3315169375
 20
223.2466451242
 30
0.0
  0
VERTEX
  5
26C
  8
0
  6
CONTINUOUS
 62
     7
 10
185.9206432216
 20
223.816285698
 30
0.0
  0
VERTEX
  5
26D
  8
0
  6
CONTINUOUS
 62
     7
 10
186.3366021369
 20
224.0062574736
 30
0.0
  0
SEQEND
  5
2B2
  8
0
  6
CONTINUOUS
 62
     7
  0
POLYLINE
  5
141
  8
0
  6
CONTINUOUS
 62
     7
 66
     1
 10
0.0
 20
0.0
 30
0.0
 70
   128
  0
VERTEX
  5
26E
  8
0
  6
CONTINUOUS
 62
     7
 10
231.5097695057
 20
223.2466451242
 30
0.0
  0
VERTEX
  5
26F
  8
0
  6
CONTINUOUS
 62
     7
 10
230.8630839119
 20
222.7941594572
 30
0.0
  0
VERTEX
  5
270
  8
0
  6
CONTINUOUS
 62
     7
 10
229.9259015616
 20
222.3577674872
 30
0.0
  0
VERTEX
  5
271
  8
0
  6
CONTINUOUS
 62
     7
 10
228.7106298456
 20
221.943246623
 30
0.0
  0
VERTEX
  5
272
  8
0
  6
CONTINUOUS
 62
     7
 10
227.2333577894
 20
221.5560847211
 30
0.0
  0
VERTEX
  5
273
  8
0
  6
CONTINUOUS
 62
     7
 10
225.5136430507
 20
221.2014074319
 30
0.0
  0
VERTEX
  5
274
  8
0
  6
CONTINUOUS
 62
     7
 10
223.5742529942
 20
220.8839103406
 30
0.0
  0
VERTEX
  5
275
  8
0
  6
CONTINUOUS
 62
     7
 10
221.4408632743
 20
220.6077968025
 30
0.0
  0
VERTEX
  5
276
  8
0
  6
CONTINUOUS
 62
     7
 10
219.1417179138
 20
220.3767222947
 30
0.0
  0
VERTEX
  5
277
  8
0
  6
CONTINUOUS
 62
     7
 10
216.7072553801
 20
220.1937460208
 30
0.0
  0
VERTEX
  5
278
  8
0
  6
CONTINUOUS
 62
     7
 10
214.1697056097
 20
220.0612904103
 30
0.0
  0
VERTEX
  5
279
  8
0
  6
CONTINUOUS
 62
     7
 10
211.5626633149
 20
219.9811090477
 30
0.0
  0
VERTEX
  5
27A
  8
0
  6
CONTINUOUS
 62
     7
 10
208.9206432216
 20
219.9542634569
 30
0.0
  0
VERTEX
  5
27B
  8
0
  6
CONTINUOUS
 62
     7
 10
206.2786231283
 20
219.9811090477
 30
0.0
  0
VERTEX
  5
27C
  8
0
  6
CONTINUOUS
 62
     7
 10
203.6715808334
 20
220.0612904103
 30
0.0
  0
VERTEX
  5
27D
  8
0
  6
CONTINUOUS
 62
     7
 10
201.1340310631
 20
220.1937460208
 30
0.0
  0
VERTEX
  5
27E
  8
0
  6
CONTINUOUS
 62
     7
 10
198.6995685294
 20
220.3767222947
 30
0.0
  0
VERTEX
  5
27F
  8
0
  6
CONTINUOUS
 62
     7
 10
196.4004231688
 20
220.6077968025
 30
0.0
  0
VERTEX
  5
280
  8
0
  6
CONTINUOUS
 62
     7
 10
194.2670334489
 20
220.8839103406
 30
0.0
  0
VERTEX
  5
281
  8
0
  6
CONTINUOUS
 62
     7
 10
192.3276433925
 20
221.2014074319
 30
0.0
  0
VERTEX
  5
282
  8
0
  6
CONTINUOUS
 62
     7
 10
190.6079286537
 20
221.5560847211
 30
0.0
  0
VERTEX
  5
283
  8
0
  6
CONTINUOUS
 62
     7
 10
189.1306565976
 20
221.943246623
 30
0.0
  0
VERTEX
  5
284
  8
0
  6
CONTINUOUS
 62
     7
 10
187.9153848815
 20
222.3577674872
 30
0.0
  0
VERTEX
  5
285
  8
0
  6
CONTINUOUS
 62
     7
 10
186.9782025313
 20
222.7941594572
 30
0.0
  0
VERTEX
  5
286
  8
0
  6
CONTINUOUS
 62
     7
 10
186.3315169375
 20
223.2466451242
 30
0.0
  0
SEQEND
  5
2B3
  8
0
  6
CONTINUOUS
 62
     7
  0
LINE
  5
142
  8
0
  6
CONTINUOUS
 62
     7
 10
231.5046843062
 20
224.0062574736
 30
0.0
 11
230.2686076182
 21
224.0062574736
 31
0.0
  0
LINE
  5
143
  8
0
  6
CONTINUOUS
 62
     7
 10
187.5739670376
 20
224.0062574736
 30
0.0
 11
186.3366021369
 21
224.0062574736
 31
0.0
  0
LINE
  5
144
  8
0
  6
CONTINUOUS
 62
     7
 10
65.1706432216
 20
249.0295368953
 30
0.0
 11
98.9206432216
 21
249.0295368953
 31
0.0
  0
LINE
  5
145
  8
0
  6
CONTINUOUS
 62
     7
 10
98.9206432216
 20
249.0295368953
 30
0.0
 11
132.6706432216
 21
249.0295368953
 31
0.0
  0
LINE
  5
146
  8
0
  6
CONTINUOUS
 62
     7
 10
64.1706432216
 20
256.0295368953
 30
0.0
 11
133.6706432216
 21
256.0295368953
 31
0.0
  0
ARC
  5
147
  8
0
  6
CONTINUOUS
 62
     7
 10
99.4281069863
 20
76.8423253846
 30
0.0
 40
10.00380501072697
 50
267.0923047673
 51
357.2802175948
  0
ARC
  5
148
  8
0
  6
CONTINUOUS
 62
     7
 10
98.4131794569
 20
76.8423253846
 30
0.0
 40
10.00380501072703
 50
182.7197824052
 51
272.9076952327
  0
LINE
  5
149
  8
0
  6
CONTINUOUS
 62
     8
 10
208.9206432216
 20
250.0295368953
 30
0.0
 11
243.6706432216
 21
250.0295368953
 31
0.0
  0
LINE
  5
14A
  8
0
  6
CONTINUOUS
 62
     8
 10
174.1706432216
 20
250.0295368953
 30
0.0
 11
208.9206432216
 21
250.0295368953
 31
0.0
  0
LINE
  5
14B
  8
0
  6
CONTINUOUS
 62
     8
 10
230.9184436632
 20
228.9980582858
 30
0.0
 11
186.922842711
 21
228.9980582858
 31
0.0
  0
LINE
  5
14C
  8
0
  6
CONTINUOUS
 62
     8
 10
231.9206432216
 20
196.0062574736
 30
0.0
 11
185.9206432216
 21
196.0062574736
 31
0.0
  0
LINE
  5
14D
  8
0
  6
CONTINUOUS
 62
     8
 10
229.6212414091
 20
223.2466451242
 30
0.0
 11
231.5097695057
 21
223.2466451242
 31
0.0
  0
LINE
  5
14E
  8
0
  6
CONTINUOUS
 62
     8
 10
186.3315169375
 20
223.2466451242
 30
0.0
 11
188.2200450341
 21
223.2466451242
 31
0.0
  0
LINE
  5
14F
  8
0
  6
CONTINUOUS
 62
     8
 10
208.9206432216
 20
230.1062574736
 30
0.0
 11
231.4706432216
 21
230.1062574736
 31
0.0
  0
LINE
  5
150
  8
0
  6
CONTINUOUS
 62
     8
 10
186.3706432216
 20
230.1062574736
 30
0.0
 11
208.9206432216
 21
230.1062574736
 31
0.0
  0
LINE
  5
151
  8
0
  6
CONTINUOUS
 62
     8
 10
186.6114019013
 20
229.5779607674
 30
0.0
 11
231.2298845419
 21
229.5779607674
 31
0.0
  0
LINE
  5
152
  8
0
  6
CONTINUOUS
 62
     8
 10
186.6821540151
 20
229.5164568933
 30
0.0
 11
231.1591324281
 21
229.5164568933
 31
0.0
  0
LINE
  5
153
  8
0
  6
CONTINUOUS
 62
     8
 10
64.1706432216
 20
250.0295368953
 30
0.0
 11
133.6706432216
 21
250.0295368953
 31
0.0
  0
LINE
  5
154
  8
0
  6
CONTINUOUS
 62
     8
 10
88.4206432216
 20
126.0295368953
 30
0.0
 11
109.4206432216
 21
126.0295368953
 31
0.0
  0
POLYLINE
  5
155
  8
0
  6
CONTINUOUS
 62
     8
 66
     1
 10
0.0
 20
0.0
 30
0.0
 70
   128
  0
VERTEX
  5
287
  8
0
  6
CONTINUOUS
 62
     8
 10
88.4206432434
 20
81.5241869735
 30
0.0
  0
VERTEX
  5
288
  8
0
  6
CONTINUOUS
 62
     8
 10
88.4584695919
 20
80.7165414657
 30
0.0
  0
VERTEX
  5
289
  8
0
  6
CONTINUOUS
 62
     8
 10
88.7594472788
 20
79.1256926664
 30
0.0
  0
VERTEX
  5
28A
  8
0
  6
CONTINUOUS
 62
     8
 10
89.3527440725
 20
77.6038265558
 30
0.0
  0
VERTEX
  5
28B
  8
0
  6
CONTINUOUS
 62
     8
 10
90.2212919045
 20
76.1947244511
 30
0.0
  0
VERTEX
  5
28C
  8
0
  6
CONTINUOUS
 62
     8
 10
91.3401042351
 20
74.9389236543
 30
0.0
  0
VERTEX
  5
28D
  8
0
  6
CONTINUOUS
 62
     8
 10
92.6769948704
 20
73.8725512679
 30
0.0
  0
VERTEX
  5
28E
  8
0
  6
CONTINUOUS
 62
     8
 10
94.193503901
 20
73.0262848838
 30
0.0
  0
VERTEX
  5
28F
  8
0
  6
CONTINUOUS
 62
     8
 10
95.8460041232
 20
72.4244700452
 30
0.0
  0
VERTEX
  5
290
  8
0
  6
CONTINUOUS
 62
     8
 10
97.5869561142
 20
72.0844198693
 30
0.0
  0
VERTEX
  5
291
  8
0
  6
CONTINUOUS
 62
     8
 10
99.3662758552
 20
72.0159169805
 30
0.0
  0
VERTEX
  5
292
  8
0
  6
CONTINUOUS
 62
     8
 10
101.1327755565
 20
72.2209320821
 30
0.0
  0
VERTEX
  5
293
  8
0
  6
CONTINUOUS
 62
     8
 10
102.8356362383
 20
72.693567263
 30
0.0
  0
VERTEX
  5
294
  8
0
  6
CONTINUOUS
 62
     8
 10
104.4258696989
 20
73.4202256696
 30
0.0
  0
VERTEX
  5
295
  8
0
  6
CONTINUOUS
 62
     8
 10
105.8577278172
 20
74.3800026624
 30
0.0
  0
VERTEX
  5
296
  8
0
  6
CONTINUOUS
 62
     8
 10
107.0900186419
 20
75.545287205
 30
0.0
  0
VERTEX
  5
297
  8
0
  6
CONTINUOUS
 62
     8
 10
108.0872914098
 20
76.8825561825
 30
0.0
  0
VERTEX
  5
298
  8
0
  6
CONTINUOUS
 62
     8
 10
108.8208563989
 20
78.3533388014
 30
0.0
  0
VERTEX
  5
299
  8
0
  6
CONTINUOUS
 62
     8
 10
109.2696102802
 20
79.9153233235
 30
0.0
  0
VERTEX
  5
29A
  8
0
  6
CONTINUOUS
 62
     8
 10
109.4206432216
 20
81.5235742979
 30
0.0
  0
VERTEX
  5
29B
  8
0
  6
CONTINUOUS
 62
     8
 10
109.4206432216
 20
81.5235742979
 30
0.0
  0
SEQEND
  5
2B4
  8
0
  6
CONTINUOUS
 62
     8
  0
ENDSEC
  0
EOF
