  0
SECTION
  2
HEADER
  9
$ACADVER
  1
AC1009
  9
$DWGCODEPAGE
  3
ansi_1252
  9
$INSBASE
 10
0.0
 20
0.0
 30
0.0
  9
$EXTMIN
 10
0.0
 20
0.0
 30
0.0
  9
$EXTMAX
 10
594.0
 20
841.0
 30
0.0
  9
$LIMMIN
 10
0.0
 20
0.0
  9
$LIMMAX
 10
594.0
 20
841.0
  9
$ORTHOMODE
 70
     0
  9
$REGENMODE
 70
     1
  9
$FILLMODE
 70
     1
  9
$QTEXTMODE
 70
     0
  9
$MIRRTEXT
 70
     1
  9
$DRAGMODE
 70
     2
  9
$LTSCALE
 40
1.0
  9
$OSMODE
 70
    37
  9
$ATTMODE
 70
     1
  9
$TEXTSIZE
 40
10.0
  9
$TRACEWID
 40
1.0
  9
$TEXTSTYLE
  7
STANDARD
  9
$CLAYER
  8
0
  9
$CELTYPE
  6
BYLAYER
  9
$CECOLOR
 62
   256
  9
$DIMSCALE
 40
1.0
  9
$DIMASZ
 40
2.5
  9
$DIMEXO
 40
0.0
  9
$DIMDLI
 40
3.75
  9
$DIMRND
 40
0.0
  9
$DIMDLE
 40
0.0
  9
$DIMEXE
 40
1.0
  9
$DIMTP
 40
0.0
  9
$DIMTM
 40
0.0
  9
$DIMTXT
 40
3.5
  9
$DIMCEN
 40
2.5
  9
$DIMTSZ
 40
0.0
  9
$DIMTOL
 70
     0
  9
$DIMLIM
 70
     0
  9
$DIMTIH
 70
     1
  9
$DIMTOH
 70
     1
  9
$DIMSE1
 70
     0
  9
$DIMSE2
 70
     0
  9
$DIMTAD
 70
     1
  9
$DIMZIN
 70
     0
  9
$DIMBLK
  1

  9
$DIMASO
 70
     1
  9
$DIMSHO
 70
     1
  9
$DIMPOST
  1

  9
$DIMAPOST
  1

  9
$DIMALT
 70
     0
  9
$DIMALTD
 70
     3
  9
$DIMALTF
 40
0.0393700787
  9
$DIMLFAC
 40
1.0
  9
$DIMTOFL
 70
     1
  9
$DIMTVP
 40
0.0
  9
$DIMTIX
 70
     0
  9
$DIMSOXD
 70
     0
  9
$DIMSAH
 70
     0
  9
$DIMBLK1
  1

  9
$DIMBLK2
  1

  9
$DIMSTYLE
  2
ISO-25
  9
$DIMCLRD
 70
     0
  9
$DIMCLRE
 70
     0
  9
$DIMCLRT
 70
     0
  9
$DIMTFAC
 40
1.0
  9
$DIMGAP
 40
1.5
  9
$LUNITS
 70
     2
  9
$LUPREC
 70
     2
  9
$SKETCHINC
 40
1.0
  9
$FILLETRAD
 40
10.0
  9
$AUNITS
 70
     0
  9
$AUPREC
 70
     2
  9
$MENU
  1
.
  9
$ELEVATION
 40
0.0
  9
$PELEVATION
 40
0.0
  9
$THICKNESS
 40
0.0
  9
$LIMCHECK
 70
     0
  9
$CHAMFERA
 40
0.0
  9
$CHAMFERB
 40
0.0
  9
$SKPOLY
 70
     0
  9
$TDCREATE
 40
2458694.364884688
  9
$TDUPDATE
 40
2458694.364885093
  9
$TDINDWG
 40
0.0000000116
  9
$TDUSRTIMER
 40
0.0000000116
  9
$USRTIMER
 70
     1
  9
$ANGBASE
 50
0.0
  9
$ANGDIR
 70
     0
  9
$PDMODE
 70
     0
  9
$PDSIZE
 40
-1.0
  9
$PLINEWID
 40
0.0
  9
$COORDS
 70
     1
  9
$SPLFRAME
 70
     0
  9
$SPLINETYPE
 70
     6
  9
$SPLINESEGS
 70
     8
  9
$ATTDIA
 70
     0
  9
$ATTREQ
 70
     1
  9
$HANDLING
 70
     1
  9
$HANDSEED
  5
5DB
  9
$SURFTAB1
 70
     6
  9
$SURFTAB2
 70
     6
  9
$SURFTYPE
 70
     6
  9
$SURFU
 70
     6
  9
$SURFV
 70
     6
  9
$UCSNAME
  2

  9
$UCSORG
 10
0.0
 20
0.0
 30
0.0
  9
$UCSXDIR
 10
1.0
 20
0.0
 30
0.0
  9
$UCSYDIR
 10
0.0
 20
1.0
 30
0.0
  9
$PUCSNAME
  2

  9
$PUCSORG
 10
0.0
 20
0.0
 30
0.0
  9
$PUCSXDIR
 10
1.0
 20
0.0
 30
0.0
  9
$PUCSYDIR
 10
0.0
 20
1.0
 30
0.0
  9
$USERI1
 70
     0
  9
$USERI2
 70
     0
  9
$USERI3
 70
     0
  9
$USERI4
 70
     0
  9
$USERI5
 70
     0
  9
$USERR1
 40
0.0
  9
$USERR2
 40
0.0
  9
$USERR3
 40
0.0
  9
$USERR4
 40
0.0
  9
$USERR5
 40
0.0
  9
$WORLDVIEW
 70
     1
  9
$SHADEDGE
 70
     3
  9
$SHADEDIF
 70
    70
  9
$TILEMODE
 70
     1
  9
$MAXACTVP
 70
    64
  9
$PLIMCHECK
 70
     0
  9
$PEXTMIN
 10
1.0000000000E+20
 20
1.0000000000E+20
 30
1.0000000000E+20
  9
$PEXTMAX
 10
-1.0000000000E+20
 20
-1.0000000000E+20
 30
-1.0000000000E+20
  9
$PLIMMIN
 10
0.0
 20
0.0
  9
$PLIMMAX
 10
420.0
 20
297.0
  9
$UNITMODE
 70
     0
  9
$VISRETAIN
 70
     1
  9
$PLINEGEN
 70
     0
  9
$PSLTSCALE
 70
     1
  0
ENDSEC
  0
SECTION
  2
TABLES
  0
TABLE
  2
VPORT
 70
     1
  0
VPORT
  2
*ACTIVE
 70
     0
 10
0.0
 20
0.0
 11
1.0
 21
1.0
 12
297.0
 22
420.5
 13
0.0
 23
0.0
 14
10.0
 24
10.0
 15
10.0
 25
10.0
 16
0.0
 26
0.0
 36
1.0
 17
0.0
 27
0.0
 37
0.0
 40
841.0
 41
0.7063020214
 42
50.0
 43
0.0
 44
0.0
 50
0.0
 51
0.0
 71
     0
 72
  2000
 73
     1
 74
     3
 75
     0
 76
     0
 77
     0
 78
     0
  0
ENDTAB
  0
TABLE
  2
LTYPE
 70
     6
  0
LTYPE
  2
CONTINUOUS
 70
     0
  3
Solid line
 72
    65
 73
     0
 40
0.0
  0
LTYPE
  2
HIDDEN
 70
     0
  3
Hidden __ __ __ __ __ __ __ __ __ __ __ __ __ __
 72
    65
 73
     2
 40
1.905
 49
1.27
 49
-0.635
  0
LTYPE
  2
PHANTOM
 70
     0
  3
Phantom ______  __  __  ______  __  __  ______
 72
    65
 73
     6
 40
12.7
 49
6.35
 49
-1.27
 49
1.27
 49
-1.27
 49
1.27
 49
-1.27
  0
LTYPE
  2
CENTER
 70
     0
  3
Center ____ _ ____ _ ____ _ ____ _ ____ _ ____
 72
    65
 73
     4
 40
10.16
 49
6.35
 49
-1.27
 49
1.27
 49
-1.27
  0
LTYPE
  2
CENTERX2
 70
     0
  3
Center (2x) ________  __  ________  __  _____
 72
    65
 73
     4
 40
20.32
 49
12.7
 49
-2.54
 49
2.54
 49
-2.54
  0
LTYPE
  2
DOT2
 70
     0
  3
Dot (.5x) ........................................
 72
    65
 73
     2
 40
0.635
 49
0.0
 49
-0.635
  0
ENDTAB
  0
TABLE
  2
LAYER
 70
     1
  0
LAYER
  2
0
 70
     0
 62
     7
  6
CONTINUOUS
  0
ENDTAB
  0
TABLE
  2
STYLE
 70
     1
  0
STYLE
  2
STANDARD
 70
     0
 40
0.0
 41
1.0
 50
0.0
 71
     0
 42
10.0
  3
txt
  4

  0
ENDTAB
  0
TABLE
  2
VIEW
 70
     0
  0
ENDTAB
  0
TABLE
  2
UCS
 70
     0
  0
ENDTAB
  0
TABLE
  2
APPID
 70
     1
  0
APPID
  2
ACAD
 70
     0
  0
ENDTAB
  0
TABLE
  2
DIMSTYLE
 70
     2
  0
DIMSTYLE
  2
ISO-25
 70
     0
  3

  4

  5

  6

  7

 40
1.0
 41
2.5
 42
0.625
 43
3.75
 44
1.25
 45
0.0
 46
0.0
 47
0.0
 48
0.0
140
2.5
141
2.5
142
0.0
143
0.0393700787
144
1.0
145
0.0
146
1.0
147
0.625
 71
     0
 72
     0
 73
     0
 74
     0
 75
     0
 76
     0
 77
     1
 78
     8
170
     0
171
     3
172
     1
173
     0
174
     0
175
     0
176
     0
177
     0
178
     0
  0
DIMSTYLE
  2
SLDDIMSTYLE0
 70
     0
  3

  4

  5

  6

  7

 40
1.0
 41
2.5
 42
0.0625
 43
0.38
 44
0.0
 45
0.000000001
 46
0.0
 47
0.0
 48
0.0
140
6.0
141
0.09
142
0.0
143
25.4
144
1.0
145
0.0
146
1.0
147
1.5
 71
     0
 72
     0
 73
     0
 74
     0
 75
     0
 76
     0
 77
     1
 78
    12
170
     0
171
     2
172
     0
173
     1
174
     0
175
     0
176
     0
177
     0
178
     0
  0
ENDTAB
  0
ENDSEC
  0
SECTION
  2
BLOCKS
  0
BLOCK
  8
0
  2
$MODEL_SPACE
 70
     0
 10
0.0
 20
0.0
 30
0.0
  3
$MODEL_SPACE
  1

  0
ENDBLK
  5
21
  8
0
  0
BLOCK
 67
     1
  8
0
  2
$PAPER_SPACE
 70
     0
 10
0.0
 20
0.0
 30
0.0
  3
$PAPER_SPACE
  1

  0
ENDBLK
  5
1D
 67
     1
  8
0
  0
BLOCK
  8
0
  2
_D
 70
     0
 10
0.0
 20
0.0
 30
0.0
  3
_D
  1

  0
SOLID
  5
7A
  8
0
  6
CONTINUOUS
 62
     7
 10
42.7614395004
 20
152.0299240879
 30
0.0
 11
42.4614395004
 21
149.5299240879
 31
0.0
 12
43.0614395004
 22
149.5299240879
 32
0.0
 13
43.0614395004
 23
149.5299240879
 33
0.0
  0
SOLID
  5
7B
  8
0
  6
CONTINUOUS
 62
     7
 10
42.7614395004
 20
52.0299240879
 30
0.0
 11
43.0614395004
 21
54.5299240879
 31
0.0
 12
42.4614395004
 22
54.5299240879
 32
0.0
 13
42.4614395004
 23
54.5299240879
 33
0.0
  0
LINE
  5
7C
  8
0
  6
CONTINUOUS
 62
     7
 10
56.6850079902
 20
152.0299240879
 30
0.0
 11
41.7614395004
 21
152.0299240879
 31
0.0
  0
LINE
  5
7D
  8
0
  6
CONTINUOUS
 62
     7
 10
56.6850079902
 20
52.0299240879
 30
0.0
 11
41.7614395004
 21
52.0299240879
 31
0.0
  0
LINE
  5
7E
  8
0
  6
CONTINUOUS
 62
     7
 10
42.7614395004
 20
152.0299240879
 30
0.0
 11
42.7614395004
 21
52.0299240879
 31
0.0
  0
TEXT
  5
7F
  8
0
  6
CONTINUOUS
 62
     7
 10
40.6418793617
 20
94.3680541463
 30
0.0
 40
6.0
  1
100
 50
90.0
 41
0.7
 11
42.7614397332
 21
94.3680541463
 31
0.0
 73
     1
  0
TEXT
  5
80
  8
0
  6
CONTINUOUS
 62
     7
 10
40.6418793617
 20
105.7430548466
 30
0.0
 40
6.0
  1
mm
 50
90.0
 41
0.7
 11
42.7614397332
 21
105.7430548466
 31
0.0
 73
     1
  0
ENDBLK
  5
79
  8
0
  0
BLOCK
  8
0
  2
_D_1
 70
     0
 10
0.0
 20
0.0
 30
0.0
  3
_D_1
  1

  0
SOLID
  5
85
  8
0
  6
CONTINUOUS
 62
     7
 10
56.6850079902
 20
38.4602342313
 30
0.0
 11
59.1850079902
 21
38.1602342313
 31
0.0
 12
59.1850079902
 22
38.7602342313
 32
0.0
 13
59.1850079902
 23
38.7602342313
 33
0.0
  0
SOLID
  5
86
  8
0
  6
CONTINUOUS
 62
     7
 10
156.6850079902
 20
38.4602342313
 30
0.0
 11
154.1850079902
 21
38.7602342313
 31
0.0
 12
154.1850079902
 22
38.1602342313
 32
0.0
 13
154.1850079902
 23
38.1602342313
 33
0.0
  0
LINE
  5
87
  8
0
  6
CONTINUOUS
 62
     7
 10
56.6850079902
 20
52.0299240879
 30
0.0
 11
56.6850079902
 21
37.4602342313
 31
0.0
  0
LINE
  5
88
  8
0
  6
CONTINUOUS
 62
     7
 10
156.6850079902
 20
52.0299240879
 30
0.0
 11
156.6850079902
 21
37.4602342313
 31
0.0
  0
LINE
  5
89
  8
0
  6
CONTINUOUS
 62
     7
 10
56.6850079902
 20
38.4602342313
 30
0.0
 11
156.6850079902
 21
38.4602342313
 31
0.0
  0
TEXT
  5
8A
  8
0
  6
CONTINUOUS
 62
     7
 10
93.9626484861
 20
40.57979437
 30
0.0
 40
6.0
  1
100
 41
0.7
 11
93.9626484861
 21
38.4602339984
 31
0.0
 73
     1
  0
TEXT
  5
8B
  8
0
  6
CONTINUOUS
 62
     7
 10
105.3376491864
 20
40.57979437
 30
0.0
 40
6.0
  1
mm
 41
0.7
 11
105.3376491864
 21
38.4602339984
 31
0.0
 73
     1
  0
ENDBLK
  5
84
  8
0
  0
ENDSEC
  0
SECTION
  2
ENTITIES
  0
LINE
  5
73
  8
0
  6
CONTINUOUS
 62
     7
 10
56.6850079902
 20
152.0299240879
 30
0.0
 11
56.6850079902
 21
52.0299240879
 31
0.0
  0
LINE
  5
74
  8
0
  6
CONTINUOUS
 62
     7
 10
56.6850079902
 20
52.0299240879
 30
0.0
 11
156.6850079902
 21
52.0299240879
 31
0.0
  0
DIMENSION
  5
75
  8
0
  6
CONTINUOUS
 62
     7
  2
_D
 10
42.7614395004
 20
52.0299240879
 30
0.0
 11
42.7614395004
 21
105.4472211621
 31
0.0
 70
   160
  1
<>mm
  3
SLDDIMSTYLE0
 13
56.6850079902
 23
152.0299240879
 33
0.0
 14
56.6850079902
 24
52.0299240879
 34
0.0
 50
90.0
  0
DIMENSION
  5
81
  8
0
  6
CONTINUOUS
 62
     7
  2
_D_1
 10
156.6850079902
 20
38.4602342313
 30
0.0
 11
105.0418155019
 21
38.4602342313
 31
0.0
 70
   160
  1
<>mm
  3
SLDDIMSTYLE0
 13
56.6850079902
 23
52.0299240879
 33
0.0
 14
156.6850079902
 24
52.0299240879
 34
0.0
  0
TEXT
  5
8C
  8
0
  6
CONTINUOUS
 62
     7
 10
412.8252631579
 20
39.0761681714
 30
0.0
 40
10.0
  1
KLUDI GmbH & Co KG
 41
0.6222222222
 11
412.8252631579
 21
35.5435675522
 31
0.0
 73
     1
  0
TEXT
  5
8D
  8
0
  6
CONTINUOUS
 62
     7
 10
210.0873490389
 20
39.0761681714
 30
0.0
 40
10.0
  1
34 382 05 75
 41
0.6125
 11
210.0873490389
 21
35.5435675522
 31
0.0
 73
     1
  0
ARC
  5
8E
  8
0
  6
CONTINUOUS
 62
     7
 10
336.1488071825
 20
329.9581960681
 30
0.0
 40
51.94474607722393
 50
175.1663499597
 51
180.9354932042
  0
LINE
  5
8F
  8
0
  6
CONTINUOUS
 62
     7
 10
283.6444650045
 20
391.3802774202
 30
0.0
 11
283.5838079652
 21
397.1426384103
 31
0.0
  0
LINE
  5
90
  8
0
  6
CONTINUOUS
 62
     7
 10
238.0527418306
 20
422.6498277437
 30
0.0
 11
237.8235880485
 21
400.8802743208
 31
0.0
  0
POLYLINE
  5
91
  8
0
  6
CONTINUOUS
 62
     7
 66
     1
 10
0.0
 20
0.0
 30
0.0
 70
   128
  0
VERTEX
  5
1EB
  8
0
  6
CONTINUOUS
 62
     7
 10
371.2060462883
 20
384.7895236265
 30
0.0
  0
VERTEX
  5
1EC
  8
0
  6
CONTINUOUS
 62
     7
 10
362.2441005161
 20
385.590259875
 30
0.0
  0
VERTEX
  5
1ED
  8
0
  6
CONTINUOUS
 62
     7
 10
353.3883404186
 20
386.1184538853
 30
0.0
  0
VERTEX
  5
1EE
  8
0
  6
CONTINUOUS
 62
     7
 10
344.69951803
 20
386.5732298743
 30
0.0
  0
VERTEX
  5
1EF
  8
0
  6
CONTINUOUS
 62
     7
 10
340.4438283494
 20
386.7932082665
 30
0.0
  0
VERTEX
  5
1F0
  8
0
  6
CONTINUOUS
 62
     7
 10
336.5788992694
 20
386.9887934577
 30
0.0
  0
VERTEX
  5
1F1
  8
0
  6
CONTINUOUS
 62
     7
 10
333.1890266588
 20
387.1566103351
 30
0.0
  0
VERTEX
  5
1F2
  8
0
  6
CONTINUOUS
 62
     7
 10
330.9585463455
 20
387.2652398002
 30
0.0
  0
VERTEX
  5
1F3
  8
0
  6
CONTINUOUS
 62
     7
 10
328.9955195239
 20
387.3592065227
 30
0.0
  0
VERTEX
  5
1F4
  8
0
  6
CONTINUOUS
 62
     7
 10
327.3000206998
 20
387.4380038631
 30
0.0
  0
VERTEX
  5
1F5
  8
0
  6
CONTINUOUS
 62
     7
 10
325.8720796755
 20
387.500625993
 30
0.0
  0
SEQEND
  5
55E
  8
0
  6
CONTINUOUS
 62
     7
  0
POLYLINE
  5
92
  8
0
  6
CONTINUOUS
 62
     7
 66
     1
 10
0.0
 20
0.0
 30
0.0
 70
   128
  0
VERTEX
  5
1F6
  8
0
  6
CONTINUOUS
 62
     7
 10
294.9599262526
 20
388.4835736405
 30
0.0
  0
VERTEX
  5
1F7
  8
0
  6
CONTINUOUS
 62
     7
 10
294.0209966352
 20
388.5012166154
 30
0.0
  0
VERTEX
  5
1F8
  8
0
  6
CONTINUOUS
 62
     7
 10
292.8524326733
 20
388.5192097675
 30
0.0
  0
VERTEX
  5
1F9
  8
0
  6
CONTINUOUS
 62
     7
 10
291.4542176029
 20
388.538938905
 30
0.0
  0
VERTEX
  5
1FA
  8
0
  6
CONTINUOUS
 62
     7
 10
289.8263439736
 20
388.5613800537
 30
0.0
  0
VERTEX
  5
1FB
  8
0
  6
CONTINUOUS
 62
     7
 10
287.2986264726
 20
388.5964797389
 30
0.0
  0
VERTEX
  5
1FC
  8
0
  6
CONTINUOUS
 62
     7
 10
284.3627754798
 20
388.6376665484
 30
0.0
  0
VERTEX
  5
1FD
  8
0
  6
CONTINUOUS
 62
     7
 10
281.8173069706
 20
388.6725427162
 30
0.0
  0
SEQEND
  5
55F
  8
0
  6
CONTINUOUS
 62
     7
  0
ARC
  5
93
  8
0
  6
CONTINUOUS
 62
     7
 10
325.4846318231
 20
288.0831667218
 30
0.0
 40
137.4868620565626
 50
80.5233450945
 51
89.9024450662
  0
POLYLINE
  5
94
  8
0
  6
CONTINUOUS
 62
     7
 66
     1
 10
0.0
 20
0.0
 30
0.0
 70
   128
  0
VERTEX
  5
1FE
  8
0
  6
CONTINUOUS
 62
     7
 10
304.0700342706
 20
426.0041983378
 30
0.0
  0
VERTEX
  5
1FF
  8
0
  6
CONTINUOUS
 62
     7
 10
302.1767337075
 20
426.0123194706
 30
0.0
  0
VERTEX
  5
200
  8
0
  6
CONTINUOUS
 62
     7
 10
300.1160185984
 20
426.0133923542
 30
0.0
  0
VERTEX
  5
201
  8
0
  6
CONTINUOUS
 62
     7
 10
297.8879932514
 20
426.0149718773
 30
0.0
  0
VERTEX
  5
202
  8
0
  6
CONTINUOUS
 62
     7
 10
295.4862017384
 20
426.0207982313
 30
0.0
  0
VERTEX
  5
203
  8
0
  6
CONTINUOUS
 62
     7
 10
291.8956440142
 20
426.0322721254
 30
0.0
  0
VERTEX
  5
204
  8
0
  6
CONTINUOUS
 62
     7
 10
287.8296721926
 20
426.0406167757
 30
0.0
  0
VERTEX
  5
205
  8
0
  6
CONTINUOUS
 62
     7
 10
283.2735154977
 20
426.0326595556
 30
0.0
  0
SEQEND
  5
560
  8
0
  6
CONTINUOUS
 62
     7
  0
POLYLINE
  5
95
  8
0
  6
CONTINUOUS
 62
     7
 66
     1
 10
0.0
 20
0.0
 30
0.0
 70
   128
  0
VERTEX
  5
206
  8
0
  6
CONTINUOUS
 62
     7
 10
263.4471333319
 20
425.8549185049
 30
0.0
  0
VERTEX
  5
207
  8
0
  6
CONTINUOUS
 62
     7
 10
262.0655126836
 20
425.8294226181
 30
0.0
  0
VERTEX
  5
208
  8
0
  6
CONTINUOUS
 62
     7
 10
260.6840265823
 20
425.788548733
 30
0.0
  0
SEQEND
  5
561
  8
0
  6
CONTINUOUS
 62
     7
  0
ARC
  5
96
  8
0
  6
CONTINUOUS
 62
     7
 10
272.1102314046
 20
387.511337921
 30
0.0
 40
10.00000000000002
 50
6.9125226924
 51
9.0468459803
  0
ARC
  5
97
  8
0
  6
CONTINUOUS
 62
     7
 10
249.1102314046
 20
387.511337921
 30
0.0
 40
10.0
 50
170.9531540197
 51
180.0
  0
LINE
  5
98
  8
0
  6
CONTINUOUS
 62
     7
 10
239.1102306744
 20
387.5113399279
 30
0.0
 11
239.1102306744
 21
386.24234959
 31
0.0
  0
ARC
  5
99
  8
0
  6
CONTINUOUS
 62
     7
 10
260.6102314046
 20
385.680277146
 30
0.0
 40
21.64486082191338
 50
143.123105149
 51
170.9531540197
  0
ARC
  5
9A
  8
0
  6
CONTINUOUS
 62
     7
 10
260.6102314046
 20
385.680277146
 30
0.0
 40
21.64486082191333
 50
9.0468459803
 51
15.2684548419
  0
ARC
  5
9B
  8
0
  6
CONTINUOUS
 62
     7
 10
329.2008442688
 20
846.8468901959
 30
0.0
 40
429.1675578691971
 50
269.8510663209
 51
271.2464800383
  0
ARC
  5
9C
  8
0
  6
CONTINUOUS
 62
     7
 10
343.1644514204
 20
424.2650862811
 30
0.0
 40
5.687267556129045
 50
287.6388654024
 51
321.2279724567
  0
ARC
  5
9D
  8
0
  6
CONTINUOUS
 62
     7
 10
339.2654418105
 20
432.8389538882
 30
0.0
 40
15.08097503461623
 50
266.9726285247
 51
291.8890491646
  0
LINE
  5
9E
  8
0
  6
CONTINUOUS
 62
     7
 10
347.7784779122
 20
364.1483978879
 30
0.0
 11
349.3459608605
 21
360.2687315595
 31
0.0
  0
LINE
  5
9F
  8
0
  6
CONTINUOUS
 62
     7
 10
371.5983715108
 20
369.2592950117
 30
0.0
 11
370.2779125622
 21
372.5275443446
 31
0.0
  0
LINE
  5
A0
  8
0
  6
CONTINUOUS
 62
     7
 10
370.8874669125
 20
368.3493779552
 30
0.0
 11
371.5983715108
 21
369.2592950117
 31
0.0
  0
LINE
  5
A1
  8
0
  6
CONTINUOUS
 62
     7
 10
349.3459608605
 20
360.2687315595
 30
0.0
 11
350.4894238165
 21
360.1080299866
 31
0.0
  0
LINE
  5
A2
  8
0
  6
CONTINUOUS
 62
     7
 10
347.5576501539
 20
420.6575573933
 30
0.0
 11
348.7685855678
 21
422.1120299351
 31
0.0
  0
LINE
  5
A3
  8
0
  6
CONTINUOUS
 62
     7
 10
283.5364073714
 20
397.3802746784
 30
0.0
 11
283.6944639882
 21
397.3802746784
 31
0.0
  0
LINE
  5
A4
  8
0
  6
CONTINUOUS
 62
     7
 10
283.6944639882
 20
397.3802746784
 30
0.0
 11
284.2950124493
 21
397.598859812
 31
0.0
  0
LINE
  5
A5
  8
0
  6
CONTINUOUS
 62
     7
 10
284.2950124493
 20
405.1616983068
 30
0.0
 11
283.8098976961
 21
405.3382621657
 31
0.0
  0
ARC
  5
A6
  8
0
  6
CONTINUOUS
 62
     7
 10
284.2266077091
 20
404.9737572549
 30
0.0
 40
0.2000000000000455
 50
0.0
 51
70.0
  0
ARC
  5
A7
  8
0
  6
CONTINUOUS
 62
     7
 10
284.2266077091
 20
397.7867970371
 30
0.0
 40
0.2000000000000019
 50
290.0
 51
0.0
  0
LINE
  5
A8
  8
0
  6
CONTINUOUS
 62
     7
 10
284.4266083291
 20
397.7868007075
 30
0.0
 11
284.4266083291
 21
404.9737574112
 31
0.0
  0
LINE
  5
A9
  8
0
  6
CONTINUOUS
 62
     7
 10
232.364873608
 20
327.5431552481
 30
0.0
 11
236.866197755
 21
315.1758713227
 31
0.0
  0
LINE
  5
AA
  8
0
  6
CONTINUOUS
 62
     7
 10
236.9858447662
 20
326.5423597347
 30
0.0
 11
236.1236449531
 21
328.9112345826
 31
0.0
  0
ARC
  5
AB
  8
0
  6
CONTINUOUS
 62
     7
 10
230.4854883828
 20
326.8591152679
 30
0.0
 40
2.0
 50
20.0
 51
90.0
  0
ARC
  5
AC
  8
0
  6
CONTINUOUS
 62
     7
 10
230.4854883828
 20
326.8591152679
 30
0.0
 40
6.000000000000057
 50
20.0
 51
90.0
  0
LINE
  5
AD
  8
0
  6
CONTINUOUS
 62
     7
 10
217.4854885986
 20
328.8591140461
 30
0.0
 11
230.4854888668
 21
328.8591140461
 31
0.0
  0
LINE
  5
AE
  8
0
  6
CONTINUOUS
 62
     7
 10
230.4854888668
 20
332.8591147017
 30
0.0
 11
217.4854885986
 21
332.8591147017
 31
0.0
  0
POLYLINE
  5
AF
  8
0
  6
CONTINUOUS
 62
     7
 66
     1
 10
0.0
 20
0.0
 30
0.0
 70
   128
  0
VERTEX
  5
209
  8
0
  6
CONTINUOUS
 62
     7
 10
346.5566870025
 20
419.7334618818
 30
0.0
  0
VERTEX
  5
20A
  8
0
  6
CONTINUOUS
 62
     7
 10
346.6695260456
 20
419.8079676878
 30
0.0
  0
VERTEX
  5
20B
  8
0
  6
CONTINUOUS
 62
     7
 10
346.6735642603
 20
419.8118568909
 30
0.0
  0
SEQEND
  5
562
  8
0
  6
CONTINUOUS
 62
     7
  0
ARC
  5
B0
  8
0
  6
CONTINUOUS
 62
     7
 10
339.2653998366
 20
432.8392617014
 30
0.0
 40
15.08128020153448
 50
266.9728495271
 51
291.891531181
  0
LINE
  5
B1
  8
0
  6
CONTINUOUS
 62
     7
 10
325.1057874611
 20
417.6821382296
 30
0.0
 11
326.0440241745
 21
417.6817358982
 31
0.0
  0
POLYLINE
  5
B2
  8
0
  6
CONTINUOUS
 62
     7
 66
     1
 10
0.0
 20
0.0
 30
0.0
 70
   128
  0
VERTEX
  5
20C
  8
0
  6
CONTINUOUS
 62
     7
 10
293.9695503762
 20
388.5020063769
 30
0.0
  0
VERTEX
  5
20D
  8
0
  6
CONTINUOUS
 62
     7
 10
292.906762307
 20
388.5185317647
 30
0.0
  0
VERTEX
  5
20E
  8
0
  6
CONTINUOUS
 62
     7
 10
291.5409684381
 20
388.5379852306
 30
0.0
  0
VERTEX
  5
20F
  8
0
  6
CONTINUOUS
 62
     7
 10
289.9490177831
 20
388.560061301
 30
0.0
  0
VERTEX
  5
210
  8
0
  6
CONTINUOUS
 62
     7
 10
288.7195024839
 20
388.5771380317
 30
0.0
  0
SEQEND
  5
563
  8
0
  6
CONTINUOUS
 62
     7
  0
LINE
  5
B3
  8
0
  6
CONTINUOUS
 62
     7
 10
371.2060462883
 20
384.7895236265
 30
0.0
 11
370.9703993252
 21
384.8105789673
 31
0.0
  0
POLYLINE
  5
B4
  8
0
  6
CONTINUOUS
 62
     7
 66
     1
 10
0.0
 20
0.0
 30
0.0
 70
   128
  0
VERTEX
  5
211
  8
0
  6
CONTINUOUS
 62
     7
 10
340.0703605464
 20
386.8121103894
 30
0.0
  0
VERTEX
  5
212
  8
0
  6
CONTINUOUS
 62
     7
 10
336.5788769176
 20
386.9887934577
 30
0.0
  0
VERTEX
  5
213
  8
0
  6
CONTINUOUS
 62
     7
 10
333.1890117577
 20
387.1566103351
 30
0.0
  0
VERTEX
  5
214
  8
0
  6
CONTINUOUS
 62
     7
 10
330.9585314444
 20
387.2652472508
 30
0.0
  0
VERTEX
  5
215
  8
0
  6
CONTINUOUS
 62
     7
 10
328.9955120733
 20
387.3592065227
 30
0.0
  0
VERTEX
  5
216
  8
0
  6
CONTINUOUS
 62
     7
 10
327.3000132492
 20
387.4380038631
 30
0.0
  0
VERTEX
  5
217
  8
0
  6
CONTINUOUS
 62
     7
 10
325.8720722249
 20
387.500625993
 30
0.0
  0
SEQEND
  5
564
  8
0
  6
CONTINUOUS
 62
     7
  0
POLYLINE
  5
B5
  8
0
  6
CONTINUOUS
 62
     7
 66
     1
 10
0.0
 20
0.0
 30
0.0
 70
   128
  0
VERTEX
  5
218
  8
0
  6
CONTINUOUS
 62
     7
 10
301.4254283359
 20
417.3153163445
 30
0.0
  0
VERTEX
  5
219
  8
0
  6
CONTINUOUS
 62
     7
 10
298.003328239
 20
416.9316859495
 30
0.0
  0
VERTEX
  5
21A
  8
0
  6
CONTINUOUS
 62
     7
 10
294.7586786201
 20
416.2035705101
 30
0.0
  0
VERTEX
  5
21B
  8
0
  6
CONTINUOUS
 62
     7
 10
291.7625654688
 20
415.0578276765
 30
0.0
  0
VERTEX
  5
21C
  8
0
  6
CONTINUOUS
 62
     7
 10
289.0871476581
 20
413.4512738835
 30
0.0
  0
VERTEX
  5
21D
  8
0
  6
CONTINUOUS
 62
     7
 10
288.6400066516
 20
413.0367682826
 30
0.0
  0
SEQEND
  5
565
  8
0
  6
CONTINUOUS
 62
     7
  0
ARC
  5
B6
  8
0
  6
CONTINUOUS
 62
     7
 10
293.0904698783
 20
401.7302656152
 30
0.0
 40
9.958345130811788
 50
156.9438646766
 51
171.3857280285
  0
LINE
  5
B7
  8
0
  6
CONTINUOUS
 62
     7
 10
237.456799691
 20
371.2830589664
 30
0.0
 11
236.9858447662
 21
326.5423597347
 31
0.0
  0
LINE
  5
B8
  8
0
  6
CONTINUOUS
 62
     7
 10
284.6102316132
 20
290.8591152679
 30
0.0
 11
284.2091892114
 21
328.9581732404
 31
0.0
  0
LINE
  5
B9
  8
0
  6
CONTINUOUS
 62
     7
 10
236.610231196
 20
290.8591152679
 30
0.0
 11
284.6102316132
 21
290.8591152679
 31
0.0
  0
LINE
  5
BA
  8
0
  6
CONTINUOUS
 62
     7
 10
236.866197755
 20
315.1758713227
 30
0.0
 11
236.610231196
 21
290.8591152679
 31
0.0
  0
ARC
  5
BB
  8
0
  6
CONTINUOUS
 62
     7
 10
44.3152242979
 20
322.886593615
 30
0.0
 40
192.7052999207328
 50
357.7068102566
 51
1.0870097263
  0
LINE
  5
BC
  8
0
  6
CONTINUOUS
 62
     7
 10
237.6005623689
 20
384.9404872906
 30
0.0
 11
237.456799691
 21
371.2830589664
 31
0.0
  0
POLYLINE
  5
BD
  8
0
  6
CONTINUOUS
 62
     7
 66
     1
 10
0.0
 20
0.0
 30
0.0
 70
   128
  0
VERTEX
  5
21E
  8
0
  6
CONTINUOUS
 62
     7
 10
284.2092599919
 20
328.9581099104
 30
0.0
  0
VERTEX
  5
21F
  8
0
  6
CONTINUOUS
 62
     7
 10
284.3608867577
 20
334.0015830051
 30
0.0
  0
VERTEX
  5
220
  8
0
  6
CONTINUOUS
 62
     7
 10
284.961643835
 20
338.8266162526
 30
0.0
  0
VERTEX
  5
221
  8
0
  6
CONTINUOUS
 62
     7
 10
286.0663507333
 20
343.3669367384
 30
0.0
  0
VERTEX
  5
222
  8
0
  6
CONTINUOUS
 62
     7
 10
287.2550852796
 20
346.5393455278
 30
0.0
  0
VERTEX
  5
223
  8
0
  6
CONTINUOUS
 62
     7
 10
288.7695461711
 20
349.4760812771
 30
0.0
  0
VERTEX
  5
224
  8
0
  6
CONTINUOUS
 62
     7
 10
290.6181562891
 20
352.1453225565
 30
0.0
  0
VERTEX
  5
225
  8
0
  6
CONTINUOUS
 62
     7
 10
292.798468118
 20
354.5195655477
 30
0.0
  0
VERTEX
  5
226
  8
0
  6
CONTINUOUS
 62
     7
 10
295.2987078777
 20
356.5789432776
 30
0.0
  0
VERTEX
  5
227
  8
0
  6
CONTINUOUS
 62
     7
 10
298.0968181243
 20
358.3130659115
 30
0.0
  0
VERTEX
  5
228
  8
0
  6
CONTINUOUS
 62
     7
 10
301.1610482088
 20
359.7230584871
 30
0.0
  0
VERTEX
  5
229
  8
0
  6
CONTINUOUS
 62
     7
 10
304.4554490796
 20
360.8223842036
 30
0.0
  0
VERTEX
  5
22A
  8
0
  6
CONTINUOUS
 62
     7
 10
309.1394800892
 20
361.8481726896
 30
0.0
  0
VERTEX
  5
22B
  8
0
  6
CONTINUOUS
 62
     7
 10
314.0715521028
 20
362.4541507613
 30
0.0
  0
VERTEX
  5
22C
  8
0
  6
CONTINUOUS
 62
     7
 10
319.1504676094
 20
362.7838538539
 30
0.0
  0
SEQEND
  5
566
  8
0
  6
CONTINUOUS
 62
     7
  0
ARC
  5
BE
  8
0
  6
CONTINUOUS
 62
     7
 10
238.8005039222
 20
384.9278543813
 30
0.0
 40
1.200008050684728
 50
104.2269334139
 51
179.3968159159
  0
POLYLINE
  5
BF
  8
0
  6
CONTINUOUS
 62
     7
 66
     1
 10
0.0
 20
0.0
 30
0.0
 70
   128
  0
VERTEX
  5
22D
  8
0
  6
CONTINUOUS
 62
     7
 10
283.5815224996
 20
397.1426160585
 30
0.0
  0
VERTEX
  5
22E
  8
0
  6
CONTINUOUS
 62
     7
 10
283.582843115
 20
397.1358658325
 30
0.0
  0
VERTEX
  5
22F
  8
0
  6
CONTINUOUS
 62
     7
 10
283.5639558932
 20
397.233297075
 30
0.0
  0
VERTEX
  5
230
  8
0
  6
CONTINUOUS
 62
     7
 10
283.5253320834
 20
397.4393577826
 30
0.0
  0
VERTEX
  5
231
  8
0
  6
CONTINUOUS
 62
     7
 10
283.4688585451
 20
397.7597029459
 30
0.0
  0
VERTEX
  5
232
  8
0
  6
CONTINUOUS
 62
     7
 10
283.4024068168
 20
398.1733815324
 30
0.0
  0
VERTEX
  5
233
  8
0
  6
CONTINUOUS
 62
     7
 10
283.3299294314
 20
398.6887158405
 30
0.0
  0
VERTEX
  5
234
  8
0
  6
CONTINUOUS
 62
     7
 10
283.2444638213
 20
399.4450093758
 30
0.0
  0
SEQEND
  5
567
  8
0
  6
CONTINUOUS
 62
     7
  0
ARC
  5
C0
  8
0
  6
CONTINUOUS
 62
     7
 10
269.1120806565
 20
431.3800143222
 30
0.0
 40
39.99973690199079
 50
247.9999183146
 51
270.0000652032
  0
POLYLINE
  5
C1
  8
0
  6
CONTINUOUS
 62
     7
 66
     1
 10
0.0
 20
0.0
 30
0.0
 70
   128
  0
VERTEX
  5
235
  8
0
  6
CONTINUOUS
 62
     7
 10
237.8235880485
 20
400.8802743208
 30
0.0
  0
VERTEX
  5
236
  8
0
  6
CONTINUOUS
 62
     7
 10
237.8492515734
 20
400.8699105632
 30
0.0
  0
VERTEX
  5
237
  8
0
  6
CONTINUOUS
 62
     7
 10
238.0542133203
 20
400.7870973599
 30
0.0
  0
VERTEX
  5
238
  8
0
  6
CONTINUOUS
 62
     7
 10
238.462305834
 20
400.6222160112
 30
0.0
  0
VERTEX
  5
239
  8
0
  6
CONTINUOUS
 62
     7
 10
239.0698783299
 20
400.3767417323
 30
0.0
  0
VERTEX
  5
23A
  8
0
  6
CONTINUOUS
 62
     7
 10
239.8715049228
 20
400.0528649938
 30
0.0
  0
VERTEX
  5
23B
  8
0
  6
CONTINUOUS
 62
     7
 10
240.8600181541
 20
399.6534766209
 30
0.0
  0
VERTEX
  5
23C
  8
0
  6
CONTINUOUS
 62
     7
 10
242.0265834978
 20
399.1821603429
 30
0.0
  0
VERTEX
  5
23D
  8
0
  6
CONTINUOUS
 62
     7
 10
243.3607757291
 20
398.6431108367
 30
0.0
  0
VERTEX
  5
23E
  8
0
  6
CONTINUOUS
 62
     7
 10
244.8506683311
 20
398.0411560785
 30
0.0
  0
VERTEX
  5
23F
  8
0
  6
CONTINUOUS
 62
     7
 10
246.4829471162
 20
397.381667937
 30
0.0
  0
VERTEX
  5
240
  8
0
  6
CONTINUOUS
 62
     7
 10
248.2430229163
 20
396.6705547225
 30
0.0
  0
VERTEX
  5
241
  8
0
  6
CONTINUOUS
 62
     7
 10
250.1151638305
 20
395.9141568791
 30
0.0
  0
VERTEX
  5
242
  8
0
  6
CONTINUOUS
 62
     7
 10
252.0826386487
 20
395.1192469847
 30
0.0
  0
VERTEX
  5
243
  8
0
  6
CONTINUOUS
 62
     7
 10
254.1278626038
 20
394.2929254424
 30
0.0
  0
SEQEND
  5
568
  8
0
  6
CONTINUOUS
 62
     7
  0
LINE
  5
C2
  8
0
  6
CONTINUOUS
 62
     7
 10
269.1121261766
 20
391.3802774202
 30
0.0
 11
283.6444650045
 21
391.3802774202
 31
0.0
  0
ARC
  5
C3
  8
0
  6
CONTINUOUS
 62
     7
 10
239.0526883415
 20
422.6392965035
 30
0.0
 40
1.000001965814739
 50
105.6890699135
 51
179.3965944135
  0
POLYLINE
  5
C4
  8
0
  6
CONTINUOUS
 62
     7
 66
     1
 10
0.0
 20
0.0
 30
0.0
 70
   128
  0
VERTEX
  5
244
  8
0
  6
CONTINUOUS
 62
     7
 10
260.6641889604
 20
423.961338545
 30
0.0
  0
VERTEX
  5
245
  8
0
  6
CONTINUOUS
 62
     7
 10
260.6641289737
 20
423.9613236439
 30
0.0
  0
VERTEX
  5
246
  8
0
  6
CONTINUOUS
 62
     7
 10
257.0070568206
 20
423.9045800221
 30
0.0
  0
VERTEX
  5
247
  8
0
  6
CONTINUOUS
 62
     7
 10
253.4513084417
 20
423.8578350794
 30
0.0
  0
VERTEX
  5
248
  8
0
  6
CONTINUOUS
 62
     7
 10
250.0935357263
 20
423.8066644918
 30
0.0
  0
VERTEX
  5
249
  8
0
  6
CONTINUOUS
 62
     7
 10
247.0306989005
 20
423.7574012529
 30
0.0
  0
VERTEX
  5
24A
  8
0
  6
CONTINUOUS
 62
     7
 10
244.3507436862
 20
423.7120570194
 30
0.0
  0
VERTEX
  5
24B
  8
0
  6
CONTINUOUS
 62
     7
 10
242.1297442367
 20
423.6717493784
 30
0.0
  0
VERTEX
  5
24C
  8
0
  6
CONTINUOUS
 62
     7
 10
240.4380712858
 20
423.6384899866
 30
0.0
  0
VERTEX
  5
24D
  8
0
  6
CONTINUOUS
 62
     7
 10
239.8125279894
 20
423.6257792961
 30
0.0
  0
SEQEND
  5
569
  8
0
  6
CONTINUOUS
 62
     7
  0
ARC
  5
C5
  8
0
  6
CONTINUOUS
 62
     7
 10
257.4641588876
 20
507.223916435
 30
0.0
 40
121.0316635239341
 50
278.4668151699
 51
281.7144592975
  0
ARC
  5
C6
  8
0
  6
CONTINUOUS
 62
     7
 10
364.9333389059
 20
326.690520897
 30
0.0
 40
58.43135601995429
 50
78.020582733
 51
83.8440245498
  0
POLYLINE
  5
C7
  8
0
  6
CONTINUOUS
 62
     7
 66
     1
 10
0.0
 20
0.0
 30
0.0
 70
   128
  0
VERTEX
  5
24E
  8
0
  6
CONTINUOUS
 62
     7
 10
326.089509969
 20
387.4783934605
 30
0.0
  0
VERTEX
  5
24F
  8
0
  6
CONTINUOUS
 62
     7
 10
324.107819443
 20
387.5733287584
 30
0.0
  0
VERTEX
  5
250
  8
0
  6
CONTINUOUS
 62
     7
 10
303.0840318849
 20
388.2847399962
 30
0.0
  0
VERTEX
  5
251
  8
0
  6
CONTINUOUS
 62
     7
 10
282.037751024
 20
388.7131483805
 30
0.0
  0
SEQEND
  5
56A
  8
0
  6
CONTINUOUS
 62
     7
  0
ARC
  5
C8
  8
0
  6
CONTINUOUS
 62
     7
 10
258.2717487713
 20
500.2197799756
 30
0.0
 40
113.9851933148744
 50
271.1755437889
 51
278.5836719903
  0
POLYLINE
  5
C9
  8
0
  6
CONTINUOUS
 62
     7
 66
     1
 10
0.0
 20
0.0
 30
0.0
 70
   128
  0
VERTEX
  5
252
  8
0
  6
CONTINUOUS
 62
     7
 10
238.5055862567
 20
386.0910581004
 30
0.0
  0
VERTEX
  5
253
  8
0
  6
CONTINUOUS
 62
     7
 10
238.8295170119
 20
386.1726047051
 30
0.0
  0
VERTEX
  5
254
  8
0
  6
CONTINUOUS
 62
     7
 10
239.1102306744
 20
386.24234959
 30
0.0
  0
SEQEND
  5
56B
  8
0
  6
CONTINUOUS
 62
     7
  0
POLYLINE
  5
CA
  8
0
  6
CONTINUOUS
 62
     7
 66
     1
 10
0.0
 20
0.0
 30
0.0
 70
   128
  0
VERTEX
  5
255
  8
0
  6
CONTINUOUS
 62
     7
 10
260.6102314046
 20
386.2585769546
 30
0.0
  0
VERTEX
  5
256
  8
0
  6
CONTINUOUS
 62
     7
 10
257.0548066603
 20
386.2436906945
 30
0.0
  0
VERTEX
  5
257
  8
0
  6
CONTINUOUS
 62
     7
 10
253.4991402378
 20
386.2432883632
 30
0.0
  0
VERTEX
  5
258
  8
0
  6
CONTINUOUS
 62
     7
 10
250.2419447726
 20
386.2437279474
 30
0.0
  0
VERTEX
  5
259
  8
0
  6
CONTINUOUS
 62
     7
 10
247.189098244
 20
386.2433852207
 30
0.0
  0
VERTEX
  5
25A
  8
0
  6
CONTINUOUS
 62
     7
 10
244.5943143418
 20
386.2431169998
 30
0.0
  0
VERTEX
  5
25B
  8
0
  6
CONTINUOUS
 62
     7
 10
242.3859231373
 20
386.2436236393
 30
0.0
  0
VERTEX
  5
25C
  8
0
  6
CONTINUOUS
 62
     7
 10
240.7493230155
 20
386.2434448254
 30
0.0
  0
VERTEX
  5
25D
  8
0
  6
CONTINUOUS
 62
     7
 10
239.6373983672
 20
386.243131901
 30
0.0
  0
VERTEX
  5
25E
  8
0
  6
CONTINUOUS
 62
     7
 10
239.2440654537
 20
386.2427370202
 30
0.0
  0
VERTEX
  5
25F
  8
0
  6
CONTINUOUS
 62
     7
 10
239.1102306744
 20
386.24234959
 30
0.0
  0
SEQEND
  5
56C
  8
0
  6
CONTINUOUS
 62
     7
  0
ARC
  5
CB
  8
0
  6
CONTINUOUS
 62
     7
 10
258.5564179514
 20
337.5036556979
 30
0.0
 40
88.33996245815494
 50
88.6199362127
 51
102.9347617085
  0
LINE
  5
CC
  8
0
  6
CONTINUOUS
 62
     7
 10
348.1578763774
 20
423.6950845968
 30
0.0
 11
347.7350559285
 21
423.7635554325
 31
0.0
  0
POLYLINE
  5
CD
  8
0
  6
CONTINUOUS
 62
     7
 66
     1
 10
0.0
 20
0.0
 30
0.0
 70
   128
  0
VERTEX
  5
260
  8
0
  6
CONTINUOUS
 62
     7
 10
325.9176697781
 20
425.5597116005
 30
0.0
  0
VERTEX
  5
261
  8
0
  6
CONTINUOUS
 62
     7
 10
324.9554049423
 20
425.596457864
 30
0.0
  0
VERTEX
  5
262
  8
0
  6
CONTINUOUS
 62
     7
 10
321.025782471
 20
425.7167996418
 30
0.0
  0
VERTEX
  5
263
  8
0
  6
CONTINUOUS
 62
     7
 10
300.8808057955
 20
426.0129900229
 30
0.0
  0
SEQEND
  5
56D
  8
0
  6
CONTINUOUS
 62
     7
  0
POLYLINE
  5
CE
  8
0
  6
CONTINUOUS
 62
     7
 66
     1
 10
0.0
 20
0.0
 30
0.0
 70
   128
  0
VERTEX
  5
264
  8
0
  6
CONTINUOUS
 62
     7
 10
293.0561017445
 20
426.0285617363
 30
0.0
  0
VERTEX
  5
265
  8
0
  6
CONTINUOUS
 62
     7
 10
280.0324570587
 20
426.0152699005
 30
0.0
  0
VERTEX
  5
266
  8
0
  6
CONTINUOUS
 62
     7
 10
263.4471498629
 20
425.8461715233
 30
0.0
  0
SEQEND
  5
56E
  8
0
  6
CONTINUOUS
 62
     7
  0
POLYLINE
  5
CF
  8
0
  6
CONTINUOUS
 62
     7
 66
     1
 10
0.0
 20
0.0
 30
0.0
 70
   128
  0
VERTEX
  5
267
  8
0
  6
CONTINUOUS
 62
     7
 10
363.8816859773
 20
369.1274644386
 30
0.0
  0
VERTEX
  5
268
  8
0
  6
CONTINUOUS
 62
     7
 10
360.1493697813
 20
367.7565501582
 30
0.0
  0
VERTEX
  5
269
  8
0
  6
CONTINUOUS
 62
     7
 10
356.2572535327
 20
366.7525248181
 30
0.0
  0
SEQEND
  5
56F
  8
0
  6
CONTINUOUS
 62
     7
  0
ARC
  5
D0
  8
0
  6
CONTINUOUS
 62
     7
 10
421.5040126442
 20
159.1209830075
 30
0.0
 40
217.8221400049142
 50
106.8842881581
 51
109.2672270698
  0
ARC
  5
D1
  8
0
  6
CONTINUOUS
 62
     7
 10
358.9961882619
 20
385.6040164788
 30
0.0
 40
17.18560022399624
 50
286.5157295909
 51
296.4033131056
  0
POLYLINE
  5
D2
  8
0
  6
CONTINUOUS
 62
     7
 66
     1
 10
0.0
 20
0.0
 30
0.0
 70
   128
  0
VERTEX
  5
26A
  8
0
  6
CONTINUOUS
 62
     7
 10
328.0852746418
 20
417.6809610378
 30
0.0
  0
VERTEX
  5
26B
  8
0
  6
CONTINUOUS
 62
     7
 10
327.7488511255
 20
417.6804394972
 30
0.0
  0
VERTEX
  5
26C
  8
0
  6
CONTINUOUS
 62
     7
 10
323.3299490264
 20
417.6837922585
 30
0.0
  0
VERTEX
  5
26D
  8
0
  6
CONTINUOUS
 62
     7
 10
318.7094640186
 20
417.6837773573
 30
0.0
  0
VERTEX
  5
26E
  8
0
  6
CONTINUOUS
 62
     7
 10
312.5791598311
 20
417.6554800522
 30
0.0
  0
VERTEX
  5
26F
  8
0
  6
CONTINUOUS
 62
     7
 10
306.6902358284
 20
417.5548078072
 30
0.0
  0
VERTEX
  5
270
  8
0
  6
CONTINUOUS
 62
     7
 10
301.4255773476
 20
417.3155845654
 30
0.0
  0
SEQEND
  5
570
  8
0
  6
CONTINUOUS
 62
     7
  0
LINE
  5
D3
  8
0
  6
CONTINUOUS
 62
     7
 10
283.9078318527
 20
405.5850253951
 30
0.0
 11
283.9275814792
 21
405.6302802217
 31
0.0
  0
POLYLINE
  5
D4
  8
0
  6
CONTINUOUS
 62
     7
 66
     1
 10
0.0
 20
0.0
 30
0.0
 70
   128
  0
VERTEX
  5
271
  8
0
  6
CONTINUOUS
 62
     7
 10
347.5575830987
 20
420.657810713
 30
0.0
  0
VERTEX
  5
272
  8
0
  6
CONTINUOUS
 62
     7
 10
346.6821771315
 20
419.8176385414
 30
0.0
  0
VERTEX
  5
273
  8
0
  6
CONTINUOUS
 62
     7
 10
345.7104798606
 20
419.1659213554
 30
0.0
  0
VERTEX
  5
274
  8
0
  6
CONTINUOUS
 62
     7
 10
343.5307007482
 20
418.3189840567
 30
0.0
  0
VERTEX
  5
275
  8
0
  6
CONTINUOUS
 62
     7
 10
341.1006417325
 20
417.9105432283
 30
0.0
  0
VERTEX
  5
276
  8
0
  6
CONTINUOUS
 62
     7
 10
338.5365691235
 20
417.781186248
 30
0.0
  0
SEQEND
  5
571
  8
0
  6
CONTINUOUS
 62
     7
  0
LINE
  5
D5
  8
0
  6
CONTINUOUS
 62
     7
 10
356.0255479267
 20
362.9674659621
 30
0.0
 11
354.7433998635
 21
366.1408917558
 31
0.0
  0
POLYLINE
  5
D6
  8
0
  6
CONTINUOUS
 62
     7
 66
     1
 10
0.0
 20
0.0
 30
0.0
 70
   128
  0
VERTEX
  5
277
  8
0
  6
CONTINUOUS
 62
     7
 10
356.0255479267
 20
362.9674659621
 30
0.0
  0
VERTEX
  5
278
  8
0
  6
CONTINUOUS
 62
     7
 10
354.6797272017
 20
362.4237151396
 30
0.0
  0
VERTEX
  5
279
  8
0
  6
CONTINUOUS
 62
     7
 10
353.4415524652
 20
361.9234608066
 30
0.0
  0
VERTEX
  5
27A
  8
0
  6
CONTINUOUS
 62
     7
 10
352.3340311101
 20
361.4759938371
 30
0.0
  0
VERTEX
  5
27B
  8
0
  6
CONTINUOUS
 62
     7
 10
351.3777565411
 20
361.0896365296
 30
0.0
  0
VERTEX
  5
27C
  8
0
  6
CONTINUOUS
 62
     7
 10
350.5904983929
 20
360.7715563428
 30
0.0
  0
VERTEX
  5
27D
  8
0
  6
CONTINUOUS
 62
     7
 10
349.9868821552
 20
360.5276839387
 30
0.0
  0
VERTEX
  5
27E
  8
0
  6
CONTINUOUS
 62
     7
 10
349.5781284025
 20
360.3625343692
 30
0.0
  0
VERTEX
  5
27F
  8
0
  6
CONTINUOUS
 62
     7
 10
349.3718367269
 20
360.2791921746
 30
0.0
  0
VERTEX
  5
280
  8
0
  6
CONTINUOUS
 62
     7
 10
349.3459608605
 20
360.2687315595
 30
0.0
  0
SEQEND
  5
572
  8
0
  6
CONTINUOUS
 62
     7
  0
ARC
  5
D7
  8
0
  6
CONTINUOUS
 62
     7
 10
341.9564248718
 20
385.4335282412
 30
0.0
 40
22.06701329498378
 50
285.2977467679
 51
290.344169631
  0
POLYLINE
  5
D8
  8
0
  6
CONTINUOUS
 62
     7
 66
     1
 10
0.0
 20
0.0
 30
0.0
 70
   128
  0
VERTEX
  5
281
  8
0
  6
CONTINUOUS
 62
     7
 10
354.7433998635
 20
366.1408917558
 30
0.0
  0
VERTEX
  5
282
  8
0
  6
CONTINUOUS
 62
     7
 10
355.1621075919
 20
366.3100571882
 30
0.0
  0
VERTEX
  5
283
  8
0
  6
CONTINUOUS
 62
     7
 10
355.5874910405
 20
366.4819197309
 30
0.0
  0
VERTEX
  5
284
  8
0
  6
CONTINUOUS
 62
     7
 10
356.0188349536
 20
366.6561962616
 30
0.0
  0
VERTEX
  5
285
  8
0
  6
CONTINUOUS
 62
     7
 10
356.455431526
 20
366.8325962078
 30
0.0
  0
VERTEX
  5
286
  8
0
  6
CONTINUOUS
 62
     7
 10
356.896565502
 20
367.0108215463
 30
0.0
  0
VERTEX
  5
287
  8
0
  6
CONTINUOUS
 62
     7
 10
357.3414918235
 20
367.1905817043
 30
0.0
  0
VERTEX
  5
288
  8
0
  6
CONTINUOUS
 62
     7
 10
357.7894803336
 20
367.3715861094
 30
0.0
  0
VERTEX
  5
289
  8
0
  6
CONTINUOUS
 62
     7
 10
358.2397934249
 20
367.553521837
 30
0.0
  0
SEQEND
  5
573
  8
0
  6
CONTINUOUS
 62
     7
  0
LINE
  5
D9
  8
0
  6
CONTINUOUS
 62
     7
 10
377.8660681298
 20
382.0907147181
 30
0.0
 11
377.9869090965
 21
382.4047939431
 31
0.0
  0
ARC
  5
DA
  8
0
  6
CONTINUOUS
 62
     7
 10
376.8175930487
 20
382.6743994233
 30
0.0
 40
1.199994639401482
 50
347.0163947176
 51
78.278961479
  0
ARC
  5
DB
  8
0
  6
CONTINUOUS
 62
     7
 10
347.6713937847
 20
398.2573952176
 30
0.0
 40
34.25025426448637
 50
311.3028810753
 51
331.8347370865
  0
ARC
  5
DC
  8
0
  6
CONTINUOUS
 62
     7
 10
353.4972074825
 20
394.8722323341
 30
0.0
 40
27.94417907760344
 50
298.051814904
 51
306.9062942393
  0
POLYLINE
  5
DD
  8
0
  6
CONTINUOUS
 62
     7
 66
     1
 10
0.0
 20
0.0
 30
0.0
 70
   128
  0
VERTEX
  5
28A
  8
0
  6
CONTINUOUS
 62
     7
 10
371.5983715108
 20
369.2592950117
 30
0.0
  0
VERTEX
  5
28B
  8
0
  6
CONTINUOUS
 62
     7
 10
371.5724956444
 20
369.2488343966
 30
0.0
  0
VERTEX
  5
28C
  8
0
  6
CONTINUOUS
 62
     7
 10
371.3662039688
 20
369.165492202
 30
0.0
  0
VERTEX
  5
28D
  8
0
  6
CONTINUOUS
 62
     7
 10
370.9574502161
 20
369.0003426325
 30
0.0
  0
VERTEX
  5
28E
  8
0
  6
CONTINUOUS
 62
     7
 10
370.3538339785
 20
368.7564702284
 30
0.0
  0
VERTEX
  5
28F
  8
0
  6
CONTINUOUS
 62
     7
 10
369.5665758303
 20
368.4383900415
 30
0.0
  0
VERTEX
  5
290
  8
0
  6
CONTINUOUS
 62
     7
 10
368.6103012612
 20
368.0520327341
 30
0.0
  0
VERTEX
  5
291
  8
0
  6
CONTINUOUS
 62
     7
 10
367.5027873567
 20
367.6045657646
 30
0.0
  0
VERTEX
  5
292
  8
0
  6
CONTINUOUS
 62
     7
 10
366.2646126202
 20
367.1043114316
 30
0.0
  0
VERTEX
  5
293
  8
0
  6
CONTINUOUS
 62
     7
 10
364.9187844446
 20
366.5605606091
 30
0.0
  0
SEQEND
  5
574
  8
0
  6
CONTINUOUS
 62
     7
  0
LINE
  5
DE
  8
0
  6
CONTINUOUS
 62
     7
 10
363.8816859773
 20
369.1274644386
 30
0.0
 11
364.9187844446
 21
366.5605606091
 31
0.0
  0
POLYLINE
  5
DF
  8
0
  6
CONTINUOUS
 62
     7
 66
     1
 10
0.0
 20
0.0
 30
0.0
 70
   128
  0
VERTEX
  5
294
  8
0
  6
CONTINUOUS
 62
     7
 10
370.8874669125
 20
368.3493779552
 30
0.0
  0
VERTEX
  5
295
  8
0
  6
CONTINUOUS
 62
     7
 10
370.7836579731
 20
368.3074311864
 30
0.0
  0
VERTEX
  5
296
  8
0
  6
CONTINUOUS
 62
     7
 10
370.474339669
 20
368.182462598
 30
0.0
  0
VERTEX
  5
297
  8
0
  6
CONTINUOUS
 62
     7
 10
369.965807741
 20
367.9769979369
 30
0.0
  0
VERTEX
  5
298
  8
0
  6
CONTINUOUS
 62
     7
 10
369.2684110454
 20
367.6952318799
 30
0.0
  0
VERTEX
  5
299
  8
0
  6
CONTINUOUS
 62
     7
 10
368.3963578394
 20
367.3429013741
 30
0.0
  0
VERTEX
  5
29A
  8
0
  6
CONTINUOUS
 62
     7
 10
367.3673879555
 20
366.9271738779
 30
0.0
  0
VERTEX
  5
29B
  8
0
  6
CONTINUOUS
 62
     7
 10
366.2024524262
 20
366.4565058004
 30
0.0
  0
VERTEX
  5
29C
  8
0
  6
CONTINUOUS
 62
     7
 10
364.9252739003
 20
365.9404934895
 30
0.0
  0
VERTEX
  5
29D
  8
0
  6
CONTINUOUS
 62
     7
 10
363.5618474534
 20
365.389634813
 30
0.0
  0
VERTEX
  5
29E
  8
0
  6
CONTINUOUS
 62
     7
 10
362.1399190476
 20
364.8151354444
 30
0.0
  0
VERTEX
  5
29F
  8
0
  6
CONTINUOUS
 62
     7
 10
360.6884490898
 20
364.2287002456
 30
0.0
  0
SEQEND
  5
575
  8
0
  6
CONTINUOUS
 62
     7
  0
POLYLINE
  5
E0
  8
0
  6
CONTINUOUS
 62
     7
 66
     1
 10
0.0
 20
0.0
 30
0.0
 70
   128
  0
VERTEX
  5
2A0
  8
0
  6
CONTINUOUS
 62
     7
 10
364.9187844446
 20
366.5605606091
 30
0.0
  0
VERTEX
  5
2A1
  8
0
  6
CONTINUOUS
 62
     7
 10
362.8834571889
 20
365.2805806648
 30
0.0
  0
VERTEX
  5
2A2
  8
0
  6
CONTINUOUS
 62
     7
 10
360.6884490898
 20
364.2287002456
 30
0.0
  0
SEQEND
  5
576
  8
0
  6
CONTINUOUS
 62
     7
  0
POLYLINE
  5
E1
  8
0
  6
CONTINUOUS
 62
     7
 66
     1
 10
0.0
 20
0.0
 30
0.0
 70
   128
  0
VERTEX
  5
2A3
  8
0
  6
CONTINUOUS
 62
     7
 10
360.6884490898
 20
364.2287002456
 30
0.0
  0
VERTEX
  5
2A4
  8
0
  6
CONTINUOUS
 62
     7
 10
359.5514457872
 20
363.8106928718
 30
0.0
  0
VERTEX
  5
2A5
  8
0
  6
CONTINUOUS
 62
     7
 10
356.0255479267
 20
362.9674659621
 30
0.0
  0
SEQEND
  5
577
  8
0
  6
CONTINUOUS
 62
     7
  0
POLYLINE
  5
E2
  8
0
  6
CONTINUOUS
 62
     7
 66
     1
 10
0.0
 20
0.0
 30
0.0
 70
   128
  0
VERTEX
  5
2A6
  8
0
  6
CONTINUOUS
 62
     7
 10
360.6884490898
 20
364.2287002456
 30
0.0
  0
VERTEX
  5
2A7
  8
0
  6
CONTINUOUS
 62
     7
 10
359.2369716814
 20
363.6422724974
 30
0.0
  0
VERTEX
  5
2A8
  8
0
  6
CONTINUOUS
 62
     7
 10
357.8150507262
 20
363.0677731287
 30
0.0
  0
VERTEX
  5
2A9
  8
0
  6
CONTINUOUS
 62
     7
 10
356.4516168287
 20
362.5169144523
 30
0.0
  0
VERTEX
  5
2AA
  8
0
  6
CONTINUOUS
 62
     7
 10
355.1744383028
 20
362.0009021413
 30
0.0
  0
VERTEX
  5
2AB
  8
0
  6
CONTINUOUS
 62
     7
 10
354.0095102241
 20
361.5302340638
 30
0.0
  0
VERTEX
  5
2AC
  8
0
  6
CONTINUOUS
 62
     7
 10
352.9805403402
 20
361.1145065677
 30
0.0
  0
VERTEX
  5
2AD
  8
0
  6
CONTINUOUS
 62
     7
 10
352.1084871343
 20
360.7621760618
 30
0.0
  0
VERTEX
  5
2AE
  8
0
  6
CONTINUOUS
 62
     7
 10
351.4110904386
 20
360.4804100048
 30
0.0
  0
VERTEX
  5
2AF
  8
0
  6
CONTINUOUS
 62
     7
 10
350.9025585106
 20
360.2749453437
 30
0.0
  0
VERTEX
  5
2B0
  8
0
  6
CONTINUOUS
 62
     7
 10
350.5932327559
 20
360.1499767553
 30
0.0
  0
VERTEX
  5
2B1
  8
0
  6
CONTINUOUS
 62
     7
 10
350.4894238165
 20
360.1080299866
 30
0.0
  0
SEQEND
  5
578
  8
0
  6
CONTINUOUS
 62
     7
  0
ARC
  5
E3
  8
0
  6
CONTINUOUS
 62
     7
 10
347.9692133428
 20
422.7130574672
 30
0.0
 40
0.9999855118551936
 50
322.3539506085
 51
79.1250698185
  0
ARC
  5
E4
  8
0
  6
CONTINUOUS
 62
     7
 10
328.9657985213
 20
437.371525335
 30
0.0
 40
24.99999999999826
 50
318.0450049942
 51
322.3548155901
  0
POLYLINE
  5
E5
  8
0
  6
CONTINUOUS
 62
     7
 66
     1
 10
0.0
 20
0.0
 30
0.0
 70
   128
  0
VERTEX
  5
2B2
  8
0
  6
CONTINUOUS
 62
     7
 10
319.1500988057
 20
362.7841965806
 30
0.0
  0
VERTEX
  5
2B3
  8
0
  6
CONTINUOUS
 62
     7
 10
323.3540740064
 20
363.0006359469
 30
0.0
  0
VERTEX
  5
2B4
  8
0
  6
CONTINUOUS
 62
     7
 10
327.5008138469
 20
363.2032619369
 30
0.0
  0
VERTEX
  5
2B5
  8
0
  6
CONTINUOUS
 62
     7
 10
332.8307058862
 20
363.4471715939
 30
0.0
  0
VERTEX
  5
2B6
  8
0
  6
CONTINUOUS
 62
     7
 10
338.1790306619
 20
363.6730880987
 30
0.0
  0
VERTEX
  5
2B7
  8
0
  6
CONTINUOUS
 62
     7
 10
340.8802461079
 20
363.780205096
 30
0.0
  0
VERTEX
  5
2B8
  8
0
  6
CONTINUOUS
 62
     7
 10
343.6102282455
 20
363.8839171779
 30
0.0
  0
SEQEND
  5
579
  8
0
  6
CONTINUOUS
 62
     7
  0
POLYLINE
  5
E6
  8
0
  6
CONTINUOUS
 62
     7
 66
     1
 10
0.0
 20
0.0
 30
0.0
 70
   128
  0
VERTEX
  5
2B9
  8
0
  6
CONTINUOUS
 62
     7
 10
343.6102282455
 20
363.8839171779
 30
0.0
  0
VERTEX
  5
2BA
  8
0
  6
CONTINUOUS
 62
     7
 10
345.9825601628
 20
364.0065015804
 30
0.0
  0
VERTEX
  5
2BB
  8
0
  6
CONTINUOUS
 62
     7
 10
347.7784779122
 20
364.1483978879
 30
0.0
  0
SEQEND
  5
57A
  8
0
  6
CONTINUOUS
 62
     7
  0
LINE
  5
E7
  8
0
  6
CONTINUOUS
 62
     7
 10
283.2444638213
 20
403.2218427908
 30
0.0
 11
283.2444638213
 21
402.869653846
 31
0.0
  0
LINE
  5
E8
  8
0
  6
CONTINUOUS
 62
     7
 10
283.2444638213
 20
402.869653846
 30
0.0
 11
283.1882454654
 21
401.9811497581
 31
0.0
  0
POLYLINE
  5
E9
  8
0
  6
CONTINUOUS
 62
     7
 66
     1
 10
0.0
 20
0.0
 30
0.0
 70
   128
  0
VERTEX
  5
2BC
  8
0
  6
CONTINUOUS
 62
     7
 10
283.2444638213
 20
399.9862270009
 30
0.0
  0
VERTEX
  5
2BD
  8
0
  6
CONTINUOUS
 62
     7
 10
283.20331799
 20
400.7167936813
 30
0.0
  0
VERTEX
  5
2BE
  8
0
  6
CONTINUOUS
 62
     7
 10
283.1880517503
 20
401.9813583743
 30
0.0
  0
SEQEND
  5
57B
  8
0
  6
CONTINUOUS
 62
     7
  0
LINE
  5
EA
  8
0
  6
CONTINUOUS
 62
     7
 10
283.2444638213
 20
399.4450093758
 30
0.0
 11
283.2444638213
 21
399.9862270009
 31
0.0
  0
LINE
  5
EB
  8
0
  6
CONTINUOUS
 62
     7
 10
283.6944639882
 20
402.9124723327
 30
0.0
 11
283.6944639882
 21
405.0450371158
 31
0.0
  0
LINE
  5
EC
  8
0
  6
CONTINUOUS
 62
     7
 10
283.6944639882
 20
397.3802746784
 30
0.0
 11
283.6944639882
 21
402.9124723327
 31
0.0
  0
LINE
  5
ED
  8
0
  6
CONTINUOUS
 62
     7
 10
217.4854885986
 20
328.8591140461
 30
0.0
 11
217.4854885986
 21
332.8591147017
 31
0.0
  0
LINE
  5
EE
  8
0
  6
CONTINUOUS
 62
     8
 10
283.2444638213
 20
403.2218427908
 30
0.0
 11
283.1423480263
 21
401.9814999353
 31
0.0
  0
ARC
  5
EF
  8
0
  6
CONTINUOUS
 62
     8
 10
296.4494546669
 20
402.8655579883
 30
0.0
 40
12.82345496172626
 50
127.5170284152
 51
167.5493367058
  0
POLYLINE
  5
F0
  8
0
  6
CONTINUOUS
 62
     8
 66
     1
 10
0.0
 20
0.0
 30
0.0
 70
   128
  0
VERTEX
  5
2BF
  8
0
  6
CONTINUOUS
 62
     8
 10
319.583037143
 20
384.2941941273
 30
0.0
  0
VERTEX
  5
2C0
  8
0
  6
CONTINUOUS
 62
     8
 10
297.4269103458
 20
384.6794040453
 30
0.0
  0
VERTEX
  5
2C1
  8
0
  6
CONTINUOUS
 62
     8
 10
286.3337092301
 20
384.8063172352
 30
0.0
  0
VERTEX
  5
2C2
  8
0
  6
CONTINUOUS
 62
     8
 10
275.2353485873
 20
384.8928184759
 30
0.0
  0
VERTEX
  5
2C3
  8
0
  6
CONTINUOUS
 62
     8
 10
260.5428002014
 20
384.941031183
 30
0.0
  0
SEQEND
  5
57C
  8
0
  6
CONTINUOUS
 62
     8
  0
POLYLINE
  5
F1
  8
0
  6
CONTINUOUS
 62
     8
 66
     1
 10
0.0
 20
0.0
 30
0.0
 70
   128
  0
VERTEX
  5
2C4
  8
0
  6
CONTINUOUS
 62
     8
 10
260.6102314046
 20
386.091616894
 30
0.0
  0
VERTEX
  5
2C5
  8
0
  6
CONTINUOUS
 62
     8
 10
260.610291247
 20
386.091616894
 30
0.0
  0
VERTEX
  5
2C6
  8
0
  6
CONTINUOUS
 62
     8
 10
275.2701502493
 20
386.0489176166
 30
0.0
  0
VERTEX
  5
2C7
  8
0
  6
CONTINUOUS
 62
     8
 10
286.3441996476
 20
385.9667079103
 30
0.0
  0
VERTEX
  5
2C8
  8
0
  6
CONTINUOUS
 62
     8
 10
297.4260647049
 20
385.8443172228
 30
0.0
  0
VERTEX
  5
2C9
  8
0
  6
CONTINUOUS
 62
     8
 10
319.5591952851
 20
385.4698212397
 30
0.0
  0
SEQEND
  5
57D
  8
0
  6
CONTINUOUS
 62
     8
  0
POLYLINE
  5
F2
  8
0
  6
CONTINUOUS
 62
     8
 66
     1
 10
0.0
 20
0.0
 30
0.0
 70
   128
  0
VERTEX
  5
2CA
  8
0
  6
CONTINUOUS
 62
     8
 10
258.8141425247
 20
384.9412547004
 30
0.0
  0
VERTEX
  5
2CB
  8
0
  6
CONTINUOUS
 62
     8
 10
255.0426816767
 20
384.9419178021
 30
0.0
  0
VERTEX
  5
2CC
  8
0
  6
CONTINUOUS
 62
     8
 10
251.3229048079
 20
384.9413068544
 30
0.0
  0
VERTEX
  5
2CD
  8
0
  6
CONTINUOUS
 62
     8
 10
247.9670999771
 20
384.94163468
 30
0.0
  0
VERTEX
  5
2CE
  8
0
  6
CONTINUOUS
 62
     8
 10
244.8786210468
 20
384.9409715783
 30
0.0
  0
VERTEX
  5
2CF
  8
0
  6
CONTINUOUS
 62
     8
 10
242.3164781382
 20
384.9412919533
 30
0.0
  0
VERTEX
  5
2D0
  8
0
  6
CONTINUOUS
 62
     8
 10
240.2072522989
 20
384.9412397992
 30
0.0
  0
VERTEX
  5
2D1
  8
0
  6
CONTINUOUS
 62
     8
 10
238.7280363789
 20
384.9411205899
 30
0.0
  0
VERTEX
  5
2D2
  8
0
  6
CONTINUOUS
 62
     8
 10
237.83621492
 20
384.9406959068
 30
0.0
  0
VERTEX
  5
2D3
  8
0
  6
CONTINUOUS
 62
     8
 10
237.6425147256
 20
384.9406064999
 30
0.0
  0
VERTEX
  5
2D4
  8
0
  6
CONTINUOUS
 62
     8
 10
237.6005623689
 20
384.9404872906
 30
0.0
  0
SEQEND
  5
57E
  8
0
  6
CONTINUOUS
 62
     8
  0
POLYLINE
  5
F3
  8
0
  6
CONTINUOUS
 62
     8
 66
     1
 10
0.0
 20
0.0
 30
0.0
 70
   128
  0
VERTEX
  5
2D5
  8
0
  6
CONTINUOUS
 62
     8
 10
238.5055862567
 20
386.0910581004
 30
0.0
  0
VERTEX
  5
2D6
  8
0
  6
CONTINUOUS
 62
     8
 10
238.5055862567
 20
386.0910581004
 30
0.0
  0
VERTEX
  5
2D7
  8
0
  6
CONTINUOUS
 62
     8
 10
238.5459050736
 20
386.0911773097
 30
0.0
  0
VERTEX
  5
2D8
  8
0
  6
CONTINUOUS
 62
     8
 10
238.7316014817
 20
386.0911698591
 30
0.0
  0
VERTEX
  5
2D9
  8
0
  6
CONTINUOUS
 62
     8
 10
239.5546112409
 20
386.0913412225
 30
0.0
  0
VERTEX
  5
2DA
  8
0
  6
CONTINUOUS
 62
     8
 10
241.0087522319
 20
386.091527487
 30
0.0
  0
VERTEX
  5
2DB
  8
0
  6
CONTINUOUS
 62
     8
 10
242.970726659
 20
386.0916913998
 30
0.0
  0
VERTEX
  5
2DC
  8
0
  6
CONTINUOUS
 62
     8
 10
245.4966103858
 20
386.0912741673
 30
0.0
  0
VERTEX
  5
2DD
  8
0
  6
CONTINUOUS
 62
     8
 10
248.3748274123
 20
386.0919447195
 30
0.0
  0
VERTEX
  5
2DE
  8
0
  6
CONTINUOUS
 62
     8
 10
251.6881462386
 20
386.091669048
 30
0.0
  0
VERTEX
  5
2DF
  8
0
  6
CONTINUOUS
 62
     8
 10
255.1567160724
 20
386.0921905887
 30
0.0
  0
VERTEX
  5
2E0
  8
0
  6
CONTINUOUS
 62
     8
 10
258.8819719119
 20
386.0915200364
 30
0.0
  0
SEQEND
  5
57F
  8
0
  6
CONTINUOUS
 62
     8
  0
POLYLINE
  5
F4
  8
0
  6
CONTINUOUS
 62
     8
 66
     1
 10
0.0
 20
0.0
 30
0.0
 70
   128
  0
VERTEX
  5
2E1
  8
0
  6
CONTINUOUS
 62
     8
 10
238.0527418306
 20
422.6498277437
 30
0.0
  0
VERTEX
  5
2E2
  8
0
  6
CONTINUOUS
 62
     8
 10
238.1895922324
 20
422.6546408188
 30
0.0
  0
VERTEX
  5
2E3
  8
0
  6
CONTINUOUS
 62
     8
 10
238.6051632663
 20
422.6624937307
 30
0.0
  0
VERTEX
  5
2E4
  8
0
  6
CONTINUOUS
 62
     8
 10
239.7321678898
 20
422.6824612867
 30
0.0
  0
VERTEX
  5
2E5
  8
0
  6
CONTINUOUS
 62
     8
 10
241.4948243847
 20
422.7129341614
 30
0.0
  0
VERTEX
  5
2E6
  8
0
  6
CONTINUOUS
 62
     8
 10
243.7452424517
 20
422.7488012564
 30
0.0
  0
VERTEX
  5
2E7
  8
0
  6
CONTINUOUS
 62
     8
 10
246.5481015122
 20
422.7908821356
 30
0.0
  0
VERTEX
  5
2E8
  8
0
  6
CONTINUOUS
 62
     8
 10
249.6674351594
 20
422.8362412703
 30
0.0
  0
VERTEX
  5
2E9
  8
0
  6
CONTINUOUS
 62
     8
 10
253.1935141621
 20
422.8854300034
 30
0.0
  0
VERTEX
  5
2EA
  8
0
  6
CONTINUOUS
 62
     8
 10
256.8255290123
 20
422.9359002363
 30
0.0
  0
VERTEX
  5
2EB
  8
0
  6
CONTINUOUS
 62
     8
 10
260.6724572931
 20
422.9862363588
 30
0.0
  0
SEQEND
  5
580
  8
0
  6
CONTINUOUS
 62
     8
  0
ARC
  5
F5
  8
0
  6
CONTINUOUS
 62
     8
 10
305.7555405897
 20
401.6230622447
 30
0.0
 40
22.61619975974006
 50
179.0914633498
 51
185.5264345968
  0
LINE
  5
F6
  8
0
  6
CONTINUOUS
 62
     8
 10
260.5428002014
 20
384.941031183
 30
0.0
 11
258.8151138941
 21
384.9412547004
 31
0.0
  0
POLYLINE
  5
F7
  8
0
  6
CONTINUOUS
 62
     8
 66
     1
 10
0.0
 20
0.0
 30
0.0
 70
   128
  0
VERTEX
  5
2EC
  8
0
  6
CONTINUOUS
 62
     8
 10
239.8125279894
 20
423.6257792961
 30
0.0
  0
VERTEX
  5
2ED
  8
0
  6
CONTINUOUS
 62
     8
 10
239.3197596273
 20
423.6157657158
 30
0.0
  0
VERTEX
  5
2EE
  8
0
  6
CONTINUOUS
 62
     8
 10
238.9164094081
 20
423.6037553799
 30
0.0
  0
VERTEX
  5
2EF
  8
0
  6
CONTINUOUS
 62
     8
 10
238.7822710177
 20
423.6020417463
 30
0.0
  0
VERTEX
  5
2F0
  8
0
  6
CONTINUOUS
 62
     8
 10
238.7822710177
 20
423.6020417463
 30
0.0
  0
VERTEX
  5
2F1
  8
0
  6
CONTINUOUS
 62
     8
 10
238.7822710177
 20
423.6020417463
 30
0.0
  0
SEQEND
  5
581
  8
0
  6
CONTINUOUS
 62
     8
  0
LINE
  5
F8
  8
0
  6
CONTINUOUS
 62
     8
 10
371.1992513588
 20
384.7849415195
 30
0.0
 11
370.9703993252
 21
384.8105789673
 31
0.0
  0
LINE
  5
F9
  8
0
  6
CONTINUOUS
 62
     8
 10
341.0894807628
 20
386.759837116
 30
0.0
 11
326.089509969
 21
387.4783934605
 31
0.0
  0
ARC
  5
FA
  8
0
  6
CONTINUOUS
 62
     8
 10
377.3367963318
 20
378.5593773091
 30
0.0
 40
5.297160154820452
 50
92.9804631083
 51
99.5482917279
  0
ARC
  5
FB
  8
0
  6
CONTINUOUS
 62
     8
 10
374.8300561962
 20
440.5438461355
 30
0.0
 40
56.78418010869012
 50
265.6116896101
 51
271.6437362059
  0
POLYLINE
  5
FC
  8
0
  6
CONTINUOUS
 62
     8
 66
     1
 10
0.0
 20
0.0
 30
0.0
 70
   128
  0
VERTEX
  5
2F2
  8
0
  6
CONTINUOUS
 62
     8
 10
344.1235285452
 20
384.8476977598
 30
0.0
  0
VERTEX
  5
2F3
  8
0
  6
CONTINUOUS
 62
     8
 10
355.0011676004
 20
384.5063941133
 30
0.0
  0
VERTEX
  5
2F4
  8
0
  6
CONTINUOUS
 62
     8
 10
362.7534818104
 20
384.2366383922
 30
0.0
  0
VERTEX
  5
2F5
  8
0
  6
CONTINUOUS
 62
     8
 10
370.4851802638
 20
383.9261354458
 30
0.0
  0
SEQEND
  5
582
  8
0
  6
CONTINUOUS
 62
     8
  0
POLYLINE
  5
FD
  8
0
  6
CONTINUOUS
 62
     8
 66
     1
 10
0.0
 20
0.0
 30
0.0
 70
   128
  0
VERTEX
  5
2F6
  8
0
  6
CONTINUOUS
 62
     8
 10
319.5591915598
 20
385.4698435914
 30
0.0
  0
VERTEX
  5
2F7
  8
0
  6
CONTINUOUS
 62
     8
 10
326.3977181366
 20
385.3184626948
 30
0.0
  0
VERTEX
  5
2F8
  8
0
  6
CONTINUOUS
 62
     8
 10
333.2322996309
 20
385.1506458175
 30
0.0
  0
VERTEX
  5
2F9
  8
0
  6
CONTINUOUS
 62
     8
 10
344.1235285452
 20
384.8476977598
 30
0.0
  0
SEQEND
  5
583
  8
0
  6
CONTINUOUS
 62
     8
  0
POLYLINE
  5
FE
  8
0
  6
CONTINUOUS
 62
     8
 66
     1
 10
0.0
 20
0.0
 30
0.0
 70
   128
  0
VERTEX
  5
2FA
  8
0
  6
CONTINUOUS
 62
     8
 10
344.1704821041
 20
383.6666168224
 30
0.0
  0
VERTEX
  5
2FB
  8
0
  6
CONTINUOUS
 62
     8
 10
333.2700219205
 20
383.9703397405
 30
0.0
  0
VERTEX
  5
2FC
  8
0
  6
CONTINUOUS
 62
     8
 10
319.5830222419
 20
384.2940525662
 30
0.0
  0
SEQEND
  5
584
  8
0
  6
CONTINUOUS
 62
     8
  0
POLYLINE
  5
FF
  8
0
  6
CONTINUOUS
 62
     8
 66
     1
 10
0.0
 20
0.0
 30
0.0
 70
   128
  0
VERTEX
  5
2FD
  8
0
  6
CONTINUOUS
 62
     8
 10
370.585725849
 20
382.6636569154
 30
0.0
  0
VERTEX
  5
2FE
  8
0
  6
CONTINUOUS
 62
     8
 10
362.8401842168
 20
383.0069126141
 30
0.0
  0
VERTEX
  5
2FF
  8
0
  6
CONTINUOUS
 62
     8
 10
355.0696384361
 20
383.3090709102
 30
0.0
  0
VERTEX
  5
300
  8
0
  6
CONTINUOUS
 62
     8
 10
344.1704821041
 20
383.6666168224
 30
0.0
  0
SEQEND
  5
585
  8
0
  6
CONTINUOUS
 62
     8
  0
LINE
  5
100
  8
0
  6
CONTINUOUS
 62
     8
 10
258.8819716791
 20
386.0915200364
 30
0.0
 11
260.6102314046
 21
386.0916094434
 31
0.0
  0
POLYLINE
  5
101
  8
0
  6
CONTINUOUS
 62
     8
 66
     1
 10
0.0
 20
0.0
 30
0.0
 70
   128
  0
VERTEX
  5
301
  8
0
  6
CONTINUOUS
 62
     8
 10
301.3593640378
 20
424.2657394659
 30
0.0
  0
VERTEX
  5
302
  8
0
  6
CONTINUOUS
 62
     8
 10
289.6203298321
 20
424.2269070398
 30
0.0
  0
VERTEX
  5
303
  8
0
  6
CONTINUOUS
 62
     8
 10
277.8579212925
 20
424.1518796932
 30
0.0
  0
VERTEX
  5
304
  8
0
  6
CONTINUOUS
 62
     8
 10
269.2666232785
 20
424.0687014114
 30
0.0
  0
VERTEX
  5
305
  8
0
  6
CONTINUOUS
 62
     8
 10
260.67213905
 20
423.9614130508
 30
0.0
  0
SEQEND
  5
586
  8
0
  6
CONTINUOUS
 62
     8
  0
POLYLINE
  5
102
  8
0
  6
CONTINUOUS
 62
     8
 66
     1
 10
0.0
 20
0.0
 30
0.0
 70
   128
  0
VERTEX
  5
306
  8
0
  6
CONTINUOUS
 62
     8
 10
260.6849957544
 20
422.9863108646
 30
0.0
  0
VERTEX
  5
307
  8
0
  6
CONTINUOUS
 62
     8
 10
269.2869465998
 20
423.0860443365
 30
0.0
  0
VERTEX
  5
308
  8
0
  6
CONTINUOUS
 62
     8
 10
277.8892863741
 20
423.1630237352
 30
0.0
  0
VERTEX
  5
309
  8
0
  6
CONTINUOUS
 62
     8
 10
289.6598085961
 20
423.2390345585
 30
0.0
  0
VERTEX
  5
30A
  8
0
  6
CONTINUOUS
 62
     8
 10
301.4220643988
 20
423.2555748474
 30
0.0
  0
SEQEND
  5
587
  8
0
  6
CONTINUOUS
 62
     8
  0
POLYLINE
  5
103
  8
0
  6
CONTINUOUS
 62
     8
 66
     1
 10
0.0
 20
0.0
 30
0.0
 70
   128
  0
VERTEX
  5
30B
  8
0
  6
CONTINUOUS
 62
     8
 10
348.1578763774
 20
423.6950845968
 30
0.0
  0
VERTEX
  5
30C
  8
0
  6
CONTINUOUS
 62
     8
 10
348.1578763774
 20
423.6950845968
 30
0.0
  0
VERTEX
  5
30D
  8
0
  6
CONTINUOUS
 62
     8
 10
348.0422508171
 20
423.6822397959
 30
0.0
  0
VERTEX
  5
30E
  8
0
  6
CONTINUOUS
 62
     8
 10
347.9286518147
 20
423.6672343266
 30
0.0
  0
VERTEX
  5
30F
  8
0
  6
CONTINUOUS
 62
     8
 10
347.6777535131
 20
423.625764395
 30
0.0
  0
SEQEND
  5
588
  8
0
  6
CONTINUOUS
 62
     8
  0
POLYLINE
  5
104
  8
0
  6
CONTINUOUS
 62
     8
 66
     1
 10
0.0
 20
0.0
 30
0.0
 70
   128
  0
VERTEX
  5
310
  8
0
  6
CONTINUOUS
 62
     8
 10
347.677790766
 20
423.625764395
 30
0.0
  0
VERTEX
  5
311
  8
0
  6
CONTINUOUS
 62
     8
 10
347.5273858955
 20
423.6095817339
 30
0.0
  0
VERTEX
  5
312
  8
0
  6
CONTINUOUS
 62
     8
 10
347.2272541573
 20
423.6036957752
 30
0.0
  0
VERTEX
  5
313
  8
0
  6
CONTINUOUS
 62
     8
 10
346.595705693
 20
423.6151547682
 30
0.0
  0
VERTEX
  5
314
  8
0
  6
CONTINUOUS
 62
     8
 10
345.6302073052
 20
423.6476542007
 30
0.0
  0
VERTEX
  5
315
  8
0
  6
CONTINUOUS
 62
     8
 10
344.0768208554
 20
423.7089426767
 30
0.0
  0
VERTEX
  5
316
  8
0
  6
CONTINUOUS
 62
     8
 10
344.0767612508
 20
423.7089426767
 30
0.0
  0
SEQEND
  5
589
  8
0
  6
CONTINUOUS
 62
     8
  0
ARC
  5
105
  8
0
  6
CONTINUOUS
 62
     8
 10
337.1805145319
 20
271.0233642101
 30
0.0
 40
152.8412381868388
 50
87.413917682
 51
88.4138448036
  0
POLYLINE
  5
106
  8
0
  6
CONTINUOUS
 62
     8
 66
     1
 10
0.0
 20
0.0
 30
0.0
 70
   128
  0
VERTEX
  5
317
  8
0
  6
CONTINUOUS
 62
     8
 10
341.4111744812
 20
423.8060386431
 30
0.0
  0
VERTEX
  5
318
  8
0
  6
CONTINUOUS
 62
     8
 10
341.4111148765
 20
423.8060386431
 30
0.0
  0
VERTEX
  5
319
  8
0
  6
CONTINUOUS
 62
     8
 10
338.5555979064
 20
423.8951177847
 30
0.0
  0
SEQEND
  5
58A
  8
0
  6
CONTINUOUS
 62
     8
  0
POLYLINE
  5
107
  8
0
  6
CONTINUOUS
 62
     8
 66
     1
 10
0.0
 20
0.0
 30
0.0
 70
   128
  0
VERTEX
  5
31A
  8
0
  6
CONTINUOUS
 62
     8
 10
338.5555979064
 20
423.8951177847
 30
0.0
  0
VERTEX
  5
31B
  8
0
  6
CONTINUOUS
 62
     8
 10
331.8564009121
 20
424.0503133785
 30
0.0
  0
VERTEX
  5
31C
  8
0
  6
CONTINUOUS
 62
     8
 10
318.4183772853
 20
424.2120803845
 30
0.0
  0
VERTEX
  5
31D
  8
0
  6
CONTINUOUS
 62
     8
 10
304.9192700735
 20
424.2655010473
 30
0.0
  0
VERTEX
  5
31E
  8
0
  6
CONTINUOUS
 62
     8
 10
301.3605784824
 20
424.2657394659
 30
0.0
  0
SEQEND
  5
58B
  8
0
  6
CONTINUOUS
 62
     8
  0
POLYLINE
  5
108
  8
0
  6
CONTINUOUS
 62
     8
 66
     1
 10
0.0
 20
0.0
 30
0.0
 70
   128
  0
VERTEX
  5
31F
  8
0
  6
CONTINUOUS
 62
     8
 10
377.3368086865
 20
382.0285545241
 30
0.0
  0
VERTEX
  5
320
  8
0
  6
CONTINUOUS
 62
     8
 10
377.336801236
 20
382.0285545241
 30
0.0
  0
VERTEX
  5
321
  8
0
  6
CONTINUOUS
 62
     8
 10
377.0795997432
 20
381.9842906248
 30
0.0
  0
VERTEX
  5
322
  8
0
  6
CONTINUOUS
 62
     8
 10
376.4489006451
 20
381.9917710077
 30
0.0
  0
VERTEX
  5
323
  8
0
  6
CONTINUOUS
 62
     8
 10
375.3702428391
 20
382.1180881512
 30
0.0
  0
VERTEX
  5
324
  8
0
  6
CONTINUOUS
 62
     8
 10
373.9147197655
 20
382.3361740958
 30
0.0
  0
VERTEX
  5
325
  8
0
  6
CONTINUOUS
 62
     8
 10
372.2973477295
 20
382.5468616139
 30
0.0
  0
VERTEX
  5
326
  8
0
  6
CONTINUOUS
 62
     8
 10
370.5845263055
 20
382.6627702963
 30
0.0
  0
VERTEX
  5
327
  8
0
  6
CONTINUOUS
 62
     8
 10
370.5844667008
 20
382.6627702963
 30
0.0
  0
SEQEND
  5
58C
  8
0
  6
CONTINUOUS
 62
     8
  0
POLYLINE
  5
109
  8
0
  6
CONTINUOUS
 62
     8
 66
     1
 10
0.0
 20
0.0
 30
0.0
 70
   128
  0
VERTEX
  5
328
  8
0
  6
CONTINUOUS
 62
     8
 10
301.4221165529
 20
423.2553215277
 30
0.0
  0
VERTEX
  5
329
  8
0
  6
CONTINUOUS
 62
     8
 10
304.9857031753
 20
423.251745249
 30
0.0
  0
VERTEX
  5
32A
  8
0
  6
CONTINUOUS
 62
     8
 10
318.4939410737
 20
423.1959851038
 30
0.0
  0
VERTEX
  5
32B
  8
0
  6
CONTINUOUS
 62
     8
 10
331.9563057473
 20
423.0180652391
 30
0.0
  0
VERTEX
  5
32C
  8
0
  6
CONTINUOUS
 62
     8
 10
338.6612843922
 20
422.8503079664
 30
0.0
  0
VERTEX
  5
32D
  8
0
  6
CONTINUOUS
 62
     8
 10
338.6613439968
 20
422.8503079664
 30
0.0
  0
SEQEND
  5
58D
  8
0
  6
CONTINUOUS
 62
     8
  0
LINE
  5
10A
  8
0
  6
CONTINUOUS
 62
     8
 10
330.7159032872
 20
417.6850588572
 30
0.0
 11
328.0852746418
 21
417.6809610378
 31
0.0
  0
POLYLINE
  5
10B
  8
0
  6
CONTINUOUS
 62
     8
 66
     1
 10
0.0
 20
0.0
 30
0.0
 70
   128
  0
VERTEX
  5
32E
  8
0
  6
CONTINUOUS
 62
     8
 10
338.6613439968
 20
422.8503079664
 30
0.0
  0
VERTEX
  5
32F
  8
0
  6
CONTINUOUS
 62
     8
 10
338.6614036014
 20
422.8503079664
 30
0.0
  0
VERTEX
  5
330
  8
0
  6
CONTINUOUS
 62
     8
 10
343.4422996095
 20
422.6044984114
 30
0.0
  0
VERTEX
  5
331
  8
0
  6
CONTINUOUS
 62
     8
 10
344.7739046266
 20
422.4810720932
 30
0.0
  0
VERTEX
  5
332
  8
0
  6
CONTINUOUS
 62
     8
 10
346.0155438831
 20
422.3198713314
 30
0.0
  0
VERTEX
  5
333
  8
0
  6
CONTINUOUS
 62
     8
 10
347.1755694797
 20
422.1259923231
 30
0.0
  0
VERTEX
  5
334
  8
0
  6
CONTINUOUS
 62
     8
 10
347.8803869536
 20
422.0328600657
 30
0.0
  0
VERTEX
  5
335
  8
0
  6
CONTINUOUS
 62
     8
 10
348.1847208193
 20
422.0124752771
 30
0.0
  0
VERTEX
  5
336
  8
0
  6
CONTINUOUS
 62
     8
 10
348.3363252333
 20
422.0243366015
 30
0.0
  0
VERTEX
  5
337
  8
0
  6
CONTINUOUS
 62
     8
 10
348.3363326838
 20
422.0243366015
 30
0.0
  0
SEQEND
  5
58E
  8
0
  6
CONTINUOUS
 62
     8
  0
ARC
  5
10C
  8
0
  6
CONTINUOUS
 62
     8
 10
377.9393487771
 20
379.1767222218
 30
0.0
 40
2.914913776033018
 50
91.4405620637
 51
101.9472473397
  0
POLYLINE
  5
10D
  8
0
  6
CONTINUOUS
 62
     8
 66
     1
 10
0.0
 20
0.0
 30
0.0
 70
   128
  0
VERTEX
  5
338
  8
0
  6
CONTINUOUS
 62
     8
 10
348.3363103321
 20
422.0243217003
 30
0.0
  0
VERTEX
  5
339
  8
0
  6
CONTINUOUS
 62
     8
 10
348.3363177827
 20
422.0243366015
 30
0.0
  0
VERTEX
  5
33A
  8
0
  6
CONTINUOUS
 62
     8
 10
348.5607814243
 20
422.0706494104
 30
0.0
  0
VERTEX
  5
33B
  8
0
  6
CONTINUOUS
 62
     8
 10
348.7138461521
 20
422.0959962856
 30
0.0
  0
VERTEX
  5
33C
  8
0
  6
CONTINUOUS
 62
     8
 10
348.7610008767
 20
422.1022845757
 30
0.0
  0
VERTEX
  5
33D
  8
0
  6
CONTINUOUS
 62
     8
 10
348.7610008767
 20
422.1022845757
 30
0.0
  0
SEQEND
  5
58F
  8
0
  6
CONTINUOUS
 62
     8
  0
LINE
  5
10E
  8
0
  6
CONTINUOUS
 62
     8
 10
283.1880517503
 20
401.9813583743
 30
0.0
 11
283.1421859762
 21
401.9816712987
 31
0.0
  0
LINE
  5
10F
  8
0
  6
CONTINUOUS
 62
     8
 10
284.2950124493
 20
397.598859812
 30
0.0
 11
284.2950124493
 21
405.1616983068
 31
0.0
  0
POLYLINE
  5
110
  8
0
  6
CONTINUOUS
 62
     8
 66
     1
 10
0.0
 20
0.0
 30
0.0
 70
   128
  0
VERTEX
  5
33E
  8
0
  6
CONTINUOUS
 62
     8
 10
232.364873608
 20
327.5431552481
 30
0.0
  0
VERTEX
  5
33F
  8
0
  6
CONTINUOUS
 62
     8
 10
232.3934260955
 20
327.5535488081
 30
0.0
  0
VERTEX
  5
340
  8
0
  6
CONTINUOUS
 62
     8
 10
232.6166641167
 20
327.6348011148
 30
0.0
  0
VERTEX
  5
341
  8
0
  6
CONTINUOUS
 62
     8
 10
233.0362137607
 20
327.7875044894
 30
0.0
  0
VERTEX
  5
342
  8
0
  6
CONTINUOUS
 62
     8
 10
233.6014706841
 20
327.9932410967
 30
0.0
  0
VERTEX
  5
343
  8
0
  6
CONTINUOUS
 62
     8
 10
234.2442583492
 20
328.227196778
 30
0.0
  0
VERTEX
  5
344
  8
0
  6
CONTINUOUS
 62
     8
 10
234.8870460143
 20
328.4611524593
 30
0.0
  0
VERTEX
  5
345
  8
0
  6
CONTINUOUS
 62
     8
 10
235.4523048004
 20
328.6668890667
 30
0.0
  0
VERTEX
  5
346
  8
0
  6
CONTINUOUS
 62
     8
 10
235.8718544444
 20
328.8195924413
 30
0.0
  0
VERTEX
  5
347
  8
0
  6
CONTINUOUS
 62
     8
 10
236.0950924656
 20
328.900844748
 30
0.0
  0
VERTEX
  5
348
  8
0
  6
CONTINUOUS
 62
     8
 10
236.1236449531
 20
328.9112345826
 30
0.0
  0
SEQEND
  5
590
  8
0
  6
CONTINUOUS
 62
     8
  0
LINE
  5
111
  8
0
  6
CONTINUOUS
 62
     8
 10
230.4854888668
 20
328.8591140461
 30
0.0
 11
230.4854888668
 21
332.8591147017
 31
0.0
  0
LINE
  5
112
  8
0
  6
CONTINUOUS
 62
     8
 10
338.536792641
 20
417.7838535559
 30
0.0
 11
338.5367255857
 21
417.7808882248
 31
0.0
  0
POLYLINE
  5
113
  8
0
  6
CONTINUOUS
 62
     7
 66
     1
 10
0.0
 20
0.0
 30
0.0
 70
   128
  0
VERTEX
  5
349
  8
0
  6
CONTINUOUS
 62
     7
 10
140.3446201255
 20
386.0407145273
 30
0.0
  0
VERTEX
  5
34A
  8
0
  6
CONTINUOUS
 62
     7
 10
136.6417504867
 20
386.8674607527
 30
0.0
  0
VERTEX
  5
34B
  8
0
  6
CONTINUOUS
 62
     7
 10
135.3839322945
 20
387.0985777628
 30
0.0
  0
SEQEND
  5
591
  8
0
  6
CONTINUOUS
 62
     7
  0
POLYLINE
  5
114
  8
0
  6
CONTINUOUS
 62
     7
 66
     1
 10
0.0
 20
0.0
 30
0.0
 70
   128
  0
VERTEX
  5
34C
  8
0
  6
CONTINUOUS
 62
     7
 10
99.4661994298
 20
387.1072800409
 30
0.0
  0
VERTEX
  5
34D
  8
0
  6
CONTINUOUS
 62
     7
 10
98.1610141715
 20
386.8674607527
 30
0.0
  0
VERTEX
  5
34E
  8
0
  6
CONTINUOUS
 62
     7
 10
94.4581314941
 20
386.0407145273
 30
0.0
  0
SEQEND
  5
592
  8
0
  6
CONTINUOUS
 62
     7
  0
LINE
  5
115
  8
0
  6
CONTINUOUS
 62
     7
 10
108.8292453458
 20
361.6182477724
 30
0.0
 11
109.5435902496
 21
361.3450796854
 31
0.0
  0
LINE
  5
116
  8
0
  6
CONTINUOUS
 62
     7
 10
125.2591744085
 20
361.3450796854
 30
0.0
 11
125.9735193124
 21
361.6182477724
 31
0.0
  0
ARC
  5
117
  8
0
  6
CONTINUOUS
 62
     7
 10
117.2935858612
 20
301.0315981273
 30
0.0
 40
125.0214330845413
 50
80.0432946873
 51
89.9505982033
  0
ARC
  5
118
  8
0
  6
CONTINUOUS
 62
     7
 10
117.509178797
 20
301.0315981273
 30
0.0
 40
125.0214330845414
 50
90.0494017967
 51
99.9567053127
  0
POLYLINE
  5
119
  8
0
  6
CONTINUOUS
 62
     7
 66
     1
 10
0.0
 20
0.0
 30
0.0
 70
   128
  0
VERTEX
  5
34F
  8
0
  6
CONTINUOUS
 62
     7
 10
140.9976821413
 20
328.9581322622
 30
0.0
  0
VERTEX
  5
350
  8
0
  6
CONTINUOUS
 62
     7
 10
140.9732162972
 20
330.6269617331
 30
0.0
  0
VERTEX
  5
351
  8
0
  6
CONTINUOUS
 62
     7
 10
140.9451462348
 20
332.6481477868
 30
0.0
  0
VERTEX
  5
352
  8
0
  6
CONTINUOUS
 62
     7
 10
140.9346055259
 20
334.2863702726
 30
0.0
  0
VERTEX
  5
353
  8
0
  6
CONTINUOUS
 62
     7
 10
140.9289225956
 20
335.6322617781
 30
0.0
  0
VERTEX
  5
354
  8
0
  6
CONTINUOUS
 62
     7
 10
140.9184154143
 20
336.8444861424
 30
0.0
  0
VERTEX
  5
355
  8
0
  6
CONTINUOUS
 62
     7
 10
140.907509627
 20
337.9226969134
 30
0.0
  0
VERTEX
  5
356
  8
0
  6
CONTINUOUS
 62
     7
 10
140.8979225924
 20
338.892516638
 30
0.0
  0
VERTEX
  5
357
  8
0
  6
CONTINUOUS
 62
     7
 10
140.8863313516
 20
340.0809401226
 30
0.0
  0
VERTEX
  5
358
  8
0
  6
CONTINUOUS
 62
     7
 10
140.8679228296
 20
342.0200505805
 30
0.0
  0
VERTEX
  5
359
  8
0
  6
CONTINUOUS
 62
     7
 10
140.8473107984
 20
344.3020591092
 30
0.0
  0
VERTEX
  5
35A
  8
0
  6
CONTINUOUS
 62
     7
 10
140.8309754004
 20
346.2185160768
 30
0.0
  0
VERTEX
  5
35B
  8
0
  6
CONTINUOUS
 62
     7
 10
140.8191345652
 20
347.6823055696
 30
0.0
  0
VERTEX
  5
35C
  8
0
  6
CONTINUOUS
 62
     7
 10
140.8077351769
 20
349.1666251373
 30
0.0
  0
VERTEX
  5
35D
  8
0
  6
CONTINUOUS
 62
     7
 10
140.7882016172
 20
351.9365237605
 30
0.0
  0
VERTEX
  5
35E
  8
0
  6
CONTINUOUS
 62
     7
 10
140.7697241773
 20
355.0582350742
 30
0.0
  0
VERTEX
  5
35F
  8
0
  6
CONTINUOUS
 62
     7
 10
140.7574269941
 20
358.0585391771
 30
0.0
  0
VERTEX
  5
360
  8
0
  6
CONTINUOUS
 62
     7
 10
140.7531783005
 20
360.3387595665
 30
0.0
  0
VERTEX
  5
361
  8
0
  6
CONTINUOUS
 62
     7
 10
140.7545641085
 20
362.4474750411
 30
0.0
  0
VERTEX
  5
362
  8
0
  6
CONTINUOUS
 62
     7
 10
140.7676659544
 20
364.6931396377
 30
0.0
  0
VERTEX
  5
363
  8
0
  6
CONTINUOUS
 62
     7
 10
140.8048629781
 20
366.699819411
 30
0.0
  0
VERTEX
  5
364
  8
0
  6
CONTINUOUS
 62
     7
 10
140.8711433431
 20
368.3767290365
 30
0.0
  0
VERTEX
  5
365
  8
0
  6
CONTINUOUS
 62
     7
 10
140.9682616611
 20
369.9470581066
 30
0.0
  0
VERTEX
  5
366
  8
0
  6
CONTINUOUS
 62
     7
 10
141.0879217108
 20
371.5147496712
 30
0.0
  0
VERTEX
  5
367
  8
0
  6
CONTINUOUS
 62
     7
 10
141.2115398814
 20
373.0944143188
 30
0.0
  0
VERTEX
  5
368
  8
0
  6
CONTINUOUS
 62
     7
 10
141.3196962347
 20
374.6620611798
 30
0.0
  0
VERTEX
  5
369
  8
0
  6
CONTINUOUS
 62
     7
 10
141.3964055499
 20
376.2140692722
 30
0.0
  0
VERTEX
  5
36A
  8
0
  6
CONTINUOUS
 62
     7
 10
141.4313357343
 20
377.7679772627
 30
0.0
  0
VERTEX
  5
36B
  8
0
  6
CONTINUOUS
 62
     7
 10
141.4291340878
 20
377.9837609779
 30
0.0
  0
SEQEND
  5
593
  8
0
  6
CONTINUOUS
 62
     7
  0
LINE
  5
11A
  8
0
  6
CONTINUOUS
 62
     7
 10
93.8066359629
 20
329.2823107492
 30
0.0
 11
93.8028715571
 21
328.9581918668
 31
0.0
  0
POLYLINE
  5
11B
  8
0
  6
CONTINUOUS
 62
     7
 66
     1
 10
0.0
 20
0.0
 30
0.0
 70
   128
  0
VERTEX
  5
36C
  8
0
  6
CONTINUOUS
 62
     7
 10
93.3751728406
 20
377.9744030487
 30
0.0
  0
VERTEX
  5
36D
  8
0
  6
CONTINUOUS
 62
     7
 10
93.3975115438
 20
376.4778123748
 30
0.0
  0
VERTEX
  5
36E
  8
0
  6
CONTINUOUS
 62
     7
 10
93.5156498124
 20
374.1558091294
 30
0.0
  0
VERTEX
  5
36F
  8
0
  6
CONTINUOUS
 62
     7
 10
93.6769288053
 20
371.9916091811
 30
0.0
  0
VERTEX
  5
370
  8
0
  6
CONTINUOUS
 62
     7
 10
93.8340950777
 20
369.952683295
 30
0.0
  0
VERTEX
  5
371
  8
0
  6
CONTINUOUS
 62
     7
 10
93.9275141825
 20
368.4568600308
 30
0.0
  0
VERTEX
  5
372
  8
0
  6
CONTINUOUS
 62
     7
 10
93.9900152405
 20
366.9796259653
 30
0.0
  0
VERTEX
  5
373
  8
0
  6
CONTINUOUS
 62
     7
 10
94.0156377872
 20
366.0061033022
 30
0.0
  0
VERTEX
  5
374
  8
0
  6
CONTINUOUS
 62
     7
 10
94.0342251231
 20
364.8642347705
 30
0.0
  0
VERTEX
  5
375
  8
0
  6
CONTINUOUS
 62
     7
 10
94.046671318
 20
363.3774267089
 30
0.0
  0
VERTEX
  5
376
  8
0
  6
CONTINUOUS
 62
     7
 10
94.0513670464
 20
361.5612731826
 30
0.0
  0
VERTEX
  5
377
  8
0
  6
CONTINUOUS
 62
     7
 10
94.0496869405
 20
359.6691535365
 30
0.0
  0
VERTEX
  5
378
  8
0
  6
CONTINUOUS
 62
     7
 10
94.0446745624
 20
357.7877031219
 30
0.0
  0
VERTEX
  5
379
  8
0
  6
CONTINUOUS
 62
     7
 10
94.0375424941
 20
356.0055838477
 30
0.0
  0
VERTEX
  5
37A
  8
0
  6
CONTINUOUS
 62
     7
 10
94.0298106541
 20
354.469214524
 30
0.0
  0
VERTEX
  5
37B
  8
0
  6
CONTINUOUS
 62
     7
 10
94.0220490118
 20
353.1249286186
 30
0.0
  0
VERTEX
  5
37C
  8
0
  6
CONTINUOUS
 62
     7
 10
94.0099809339
 20
351.2558573436
 30
0.0
  0
VERTEX
  5
37D
  8
0
  6
CONTINUOUS
 62
     7
 10
93.9928986152
 20
348.8816255283
 30
0.0
  0
VERTEX
  5
37E
  8
0
  6
CONTINUOUS
 62
     7
 10
93.9744081368
 20
346.5361119759
 30
0.0
  0
VERTEX
  5
37F
  8
0
  6
CONTINUOUS
 62
     7
 10
93.9570780863
 20
344.4877909076
 30
0.0
  0
VERTEX
  5
380
  8
0
  6
CONTINUOUS
 62
     7
 10
93.940744551
 20
342.6593103957
 30
0.0
  0
VERTEX
  5
381
  8
0
  6
CONTINUOUS
 62
     7
 10
93.9251896014
 20
340.9934686076
 30
0.0
  0
VERTEX
  5
382
  8
0
  6
CONTINUOUS
 62
     7
 10
93.9023014178
 20
338.6264824819
 30
0.0
  0
VERTEX
  5
383
  8
0
  6
CONTINUOUS
 62
     7
 10
93.875214832
 20
335.6068813753
 30
0.0
  0
VERTEX
  5
384
  8
0
  6
CONTINUOUS
 62
     7
 10
93.839636447
 20
332.1236716163
 30
0.0
  0
VERTEX
  5
385
  8
0
  6
CONTINUOUS
 62
     7
 10
93.8066359629
 20
329.2823107492
 30
0.0
  0
SEQEND
  5
594
  8
0
  6
CONTINUOUS
 62
     7
  0
ARC
  5
11C
  8
0
  6
CONTINUOUS
 62
     7
 10
140.2210435708
 20
384.8452050294
 30
0.0
 40
1.176486984752873
 50
357.2716413231
 51
71.057000527
  0
ARC
  5
11D
  8
0
  6
CONTINUOUS
 62
     7
 10
94.5523972566
 20
384.8651869958
 30
0.0
 40
1.145948514721424
 50
107.8379273195
 51
183.7947739478
  0
LINE
  5
11E
  8
0
  6
CONTINUOUS
 62
     7
 10
141.4326563497
 20
378.097792114
 30
0.0
 11
141.4154995253
 21
384.7868563187
 31
0.0
  0
LINE
  5
11F
  8
0
  6
CONTINUOUS
 62
     7
 10
93.3872651329
 20
384.7868637693
 30
0.0
 11
93.3701083084
 21
378.097792114
 31
0.0
  0
ARC
  5
120
  8
0
  6
CONTINUOUS
 62
     7
 10
95.9444412982
 20
422.9854435468
 30
0.0
 40
1.136241385664257
 50
107.9601566992
 51
166.1121002554
  0
ARC
  5
121
  8
0
  6
CONTINUOUS
 62
     7
 10
138.8548626929
 20
422.9799628894
 30
0.0
 40
1.141180469408887
 50
14.3216188602
 51
71.8143466717
  0
LINE
  5
122
  8
0
  6
CONTINUOUS
 62
     7
 10
141.4013825377
 20
290.8591152679
 30
0.0
 11
141.0003382733
 21
328.9582253944
 31
0.0
  0
LINE
  5
123
  8
0
  6
CONTINUOUS
 62
     7
 10
93.8024245223
 20
328.9581732404
 30
0.0
 11
93.4013821205
 21
290.8591152679
 31
0.0
  0
LINE
  5
124
  8
0
  6
CONTINUOUS
 62
     7
 10
140.3519775738
 20
392.3153550875
 30
0.0
 11
140.0566197952
 21
420.3742267143
 31
0.0
  0
LINE
  5
125
  8
0
  6
CONTINUOUS
 62
     7
 10
94.746144863
 20
420.3742267143
 30
0.0
 11
94.4504629841
 21
392.2844798815
 31
0.0
  0
ARC
  5
126
  8
0
  6
CONTINUOUS
 62
     7
 10
128.9013823291
 20
387.511337921
 30
0.0
 40
10.00000000000003
 50
0.0
 51
9.0468459803
  0
ARC
  5
127
  8
0
  6
CONTINUOUS
 62
     7
 10
105.9013823291
 20
387.511337921
 30
0.0
 40
10.00000000000002
 50
170.9531540197
 51
180.0
  0
ARC
  5
128
  8
0
  6
CONTINUOUS
 62
     7
 10
117.4013823291
 20
385.680277146
 30
0.0
 40
21.64486082191338
 50
164.7315451581
 51
170.9531540197
  0
ARC
  5
129
  8
0
  6
CONTINUOUS
 62
     7
 10
117.4013823291
 20
385.680277146
 30
0.0
 40
21.64486082191338
 50
9.0468459803
 51
15.2684548419
  0
LINE
  5
12A
  8
0
  6
CONTINUOUS
 62
     7
 10
95.9013815989
 20
387.5113399279
 30
0.0
 11
95.9013815989
 21
386.2585769546
 31
0.0
  0
LINE
  5
12B
  8
0
  6
CONTINUOUS
 62
     7
 10
138.9013830592
 20
386.2585769546
 30
0.0
 11
138.9013830592
 21
387.5113399279
 31
0.0
  0
ARC
  5
12C
  8
0
  6
CONTINUOUS
 62
     7
 10
117.3876771587
 20
353.2251288705
 30
0.0
 40
19.30242033961467
 50
61.6398765231
 51
89.9593186515
  0
ARC
  5
12D
  8
0
  6
CONTINUOUS
 62
     7
 10
117.4122472007
 20
353.2363532905
 30
0.0
 40
19.29119411366597
 50
90.0322691959
 51
118.3685356295
  0
LINE
  5
12E
  8
0
  6
CONTINUOUS
 62
     7
 10
140.3902754208
 20
386.0140414488
 30
0.0
 11
140.3436385115
 21
386.036244179
 31
0.0
  0
ARC
  5
12F
  8
0
  6
CONTINUOUS
 62
     7
 10
117.6225737779
 20
288.2768498021
 30
0.0
 40
100.4365421437373
 50
81.1266526012
 51
90.1261826269
  0
POLYLINE
  5
130
  8
0
  6
CONTINUOUS
 62
     7
 66
     1
 10
0.0
 20
0.0
 30
0.0
 70
   128
  0
VERTEX
  5
386
  8
0
  6
CONTINUOUS
 62
     7
 10
133.1149902215
 20
387.5113399279
 30
0.0
  0
VERTEX
  5
387
  8
0
  6
CONTINUOUS
 62
     7
 10
135.3242792209
 20
387.1267558586
 30
0.0
  0
VERTEX
  5
388
  8
0
  6
CONTINUOUS
 62
     7
 10
135.3868622353
 20
387.1138961565
 30
0.0
  0
SEQEND
  5
595
  8
0
  6
CONTINUOUS
 62
     7
  0
ARC
  5
131
  8
0
  6
CONTINUOUS
 62
     7
 10
117.2240597731
 20
287.7032654006
 30
0.0
 40
101.0100386243495
 50
89.8994175289
 51
98.8477472429
  0
LINE
  5
132
  8
0
  6
CONTINUOUS
 62
     7
 10
94.4591112455
 20
386.036244179
 30
0.0
 11
94.4134075215
 21
386.0144959342
 31
0.0
  0
POLYLINE
  5
133
  8
0
  6
CONTINUOUS
 62
     7
 66
     1
 10
0.0
 20
0.0
 30
0.0
 70
   128
  0
VERTEX
  5
389
  8
0
  6
CONTINUOUS
 62
     7
 10
99.4645193239
 20
387.1163101446
 30
0.0
  0
VERTEX
  5
38A
  8
0
  6
CONTINUOUS
 62
     7
 10
100.5051419159
 20
387.3138399374
 30
0.0
  0
VERTEX
  5
38B
  8
0
  6
CONTINUOUS
 62
     7
 10
101.6877744367
 20
387.5113399279
 30
0.0
  0
SEQEND
  5
596
  8
0
  6
CONTINUOUS
 62
     7
  0
LINE
  5
134
  8
0
  6
CONTINUOUS
 62
     7
 10
106.4013823887
 20
366.7525248181
 30
0.0
 11
105.4452260976
 21
367.553521837
 31
0.0
  0
ARC
  5
135
  8
0
  6
CONTINUOUS
 62
     7
 10
118.6850146045
 20
350.3277574742
 30
0.0
 40
22.45699450867843
 50
117.6995780967
 51
123.160395129
  0
LINE
  5
136
  8
0
  6
CONTINUOUS
 62
     7
 10
129.3575385605
 20
367.553521837
 30
0.0
 11
128.4013822695
 21
366.7525248181
 31
0.0
  0
POLYLINE
  5
137
  8
0
  6
CONTINUOUS
 62
     7
 66
     1
 10
0.0
 20
0.0
 30
0.0
 70
   128
  0
VERTEX
  5
38C
  8
0
  6
CONTINUOUS
 62
     7
 10
128.4013822695
 20
369.1274644386
 30
0.0
  0
VERTEX
  5
38D
  8
0
  6
CONTINUOUS
 62
     7
 10
127.5999922325
 20
369.6243585598
 30
0.0
  0
VERTEX
  5
38E
  8
0
  6
CONTINUOUS
 62
     7
 10
126.556558909
 20
370.2111141336
 30
0.0
  0
SEQEND
  5
597
  8
0
  6
CONTINUOUS
 62
     7
  0
LINE
  5
138
  8
0
  6
CONTINUOUS
 62
     7
 10
128.4013822695
 20
369.1274644386
 30
0.0
 11
128.4013822695
 21
366.5605606091
 31
0.0
  0
POLYLINE
  5
139
  8
0
  6
CONTINUOUS
 62
     7
 66
     1
 10
0.0
 20
0.0
 30
0.0
 70
   128
  0
VERTEX
  5
38F
  8
0
  6
CONTINUOUS
 62
     7
 10
128.4013822695
 20
366.5605606091
 30
0.0
  0
VERTEX
  5
390
  8
0
  6
CONTINUOUS
 62
     7
 10
127.646898294
 20
367.1043114316
 30
0.0
  0
VERTEX
  5
391
  8
0
  6
CONTINUOUS
 62
     7
 10
126.7020082121
 20
367.6045657646
 30
0.0
  0
VERTEX
  5
392
  8
0
  6
CONTINUOUS
 62
     7
 10
125.5842711796
 20
368.0520327341
 30
0.0
  0
VERTEX
  5
393
  8
0
  6
CONTINUOUS
 62
     7
 10
124.3144603466
 20
368.4383900415
 30
0.0
  0
VERTEX
  5
394
  8
0
  6
CONTINUOUS
 62
     7
 10
122.9161735644
 20
368.7564702284
 30
0.0
  0
VERTEX
  5
395
  8
0
  6
CONTINUOUS
 62
     7
 10
121.4153979925
 20
369.0003426325
 30
0.0
  0
VERTEX
  5
396
  8
0
  6
CONTINUOUS
 62
     7
 10
119.8400244137
 20
369.165492202
 30
0.0
  0
VERTEX
  5
397
  8
0
  6
CONTINUOUS
 62
     7
 10
118.219330059
 20
369.2488343966
 30
0.0
  0
VERTEX
  5
398
  8
0
  6
CONTINUOUS
 62
     7
 10
116.5834345991
 20
369.2488343966
 30
0.0
  0
VERTEX
  5
399
  8
0
  6
CONTINUOUS
 62
     7
 10
114.9627402445
 20
369.165492202
 30
0.0
  0
VERTEX
  5
39A
  8
0
  6
CONTINUOUS
 62
     7
 10
113.3873666657
 20
369.0003426325
 30
0.0
  0
VERTEX
  5
39B
  8
0
  6
CONTINUOUS
 62
     7
 10
111.8865910938
 20
368.7564702284
 30
0.0
  0
VERTEX
  5
39C
  8
0
  6
CONTINUOUS
 62
     7
 10
110.4883043115
 20
368.4383900415
 30
0.0
  0
VERTEX
  5
39D
  8
0
  6
CONTINUOUS
 62
     7
 10
109.2184934785
 20
368.0520327341
 30
0.0
  0
VERTEX
  5
39E
  8
0
  6
CONTINUOUS
 62
     7
 10
108.100756446
 20
367.6045657646
 30
0.0
  0
VERTEX
  5
39F
  8
0
  6
CONTINUOUS
 62
     7
 10
107.1558663642
 20
367.1043114316
 30
0.0
  0
VERTEX
  5
3A0
  8
0
  6
CONTINUOUS
 62
     7
 10
106.4013823887
 20
366.5605606091
 30
0.0
  0
SEQEND
  5
598
  8
0
  6
CONTINUOUS
 62
     7
  0
LINE
  5
13A
  8
0
  6
CONTINUOUS
 62
     7
 10
106.4013823887
 20
369.1274644386
 30
0.0
 11
106.4013823887
 21
366.5605606091
 31
0.0
  0
POLYLINE
  5
13B
  8
0
  6
CONTINUOUS
 62
     7
 66
     1
 10
0.0
 20
0.0
 30
0.0
 70
   128
  0
VERTEX
  5
3A1
  8
0
  6
CONTINUOUS
 62
     7
 10
128.4013822695
 20
364.2287002456
 30
0.0
  0
VERTEX
  5
3A2
  8
0
  6
CONTINUOUS
 62
     7
 10
128.2894177382
 20
364.8151354444
 30
0.0
  0
VERTEX
  5
3A3
  8
0
  6
CONTINUOUS
 62
     7
 10
127.9558049535
 20
365.389634813
 30
0.0
  0
VERTEX
  5
3A4
  8
0
  6
CONTINUOUS
 62
     7
 10
127.4073341881
 20
365.9404934895
 30
0.0
  0
VERTEX
  5
3A5
  8
0
  6
CONTINUOUS
 62
     7
 10
126.6551710685
 20
366.4565058004
 30
0.0
  0
VERTEX
  5
3A6
  8
0
  6
CONTINUOUS
 62
     7
 10
125.7146274691
 20
366.9271738779
 30
0.0
  0
VERTEX
  5
3A7
  8
0
  6
CONTINUOUS
 62
     7
 10
124.6048504507
 20
367.3429013741
 30
0.0
  0
VERTEX
  5
3A8
  8
0
  6
CONTINUOUS
 62
     7
 10
123.3484311049
 20
367.6952318799
 30
0.0
  0
VERTEX
  5
3A9
  8
0
  6
CONTINUOUS
 62
     7
 10
121.9709472751
 20
367.9769979369
 30
0.0
  0
VERTEX
  5
3AA
  8
0
  6
CONTINUOUS
 62
     7
 10
120.5004403853
 20
368.182462598
 30
0.0
  0
VERTEX
  5
3AB
  8
0
  6
CONTINUOUS
 62
     7
 10
118.966845588
 20
368.3074311864
 30
0.0
  0
VERTEX
  5
3AC
  8
0
  6
CONTINUOUS
 62
     7
 10
117.4013823291
 20
368.3493779552
 30
0.0
  0
VERTEX
  5
3AD
  8
0
  6
CONTINUOUS
 62
     7
 10
115.8359190702
 20
368.3074311864
 30
0.0
  0
VERTEX
  5
3AE
  8
0
  6
CONTINUOUS
 62
     7
 10
114.3023242728
 20
368.182462598
 30
0.0
  0
VERTEX
  5
3AF
  8
0
  6
CONTINUOUS
 62
     7
 10
112.8318173831
 20
367.9769979369
 30
0.0
  0
VERTEX
  5
3B0
  8
0
  6
CONTINUOUS
 62
     7
 10
111.4543335532
 20
367.6952318799
 30
0.0
  0
VERTEX
  5
3B1
  8
0
  6
CONTINUOUS
 62
     7
 10
110.1979142075
 20
367.3429013741
 30
0.0
  0
VERTEX
  5
3B2
  8
0
  6
CONTINUOUS
 62
     7
 10
109.0881371891
 20
366.9271738779
 30
0.0
  0
VERTEX
  5
3B3
  8
0
  6
CONTINUOUS
 62
     7
 10
108.1475935896
 20
366.4565058004
 30
0.0
  0
VERTEX
  5
3B4
  8
0
  6
CONTINUOUS
 62
     7
 10
107.39543047
 20
365.9404934895
 30
0.0
  0
VERTEX
  5
3B5
  8
0
  6
CONTINUOUS
 62
     7
 10
106.8469597047
 20
365.389634813
 30
0.0
  0
VERTEX
  5
3B6
  8
0
  6
CONTINUOUS
 62
     7
 10
106.5133469199
 20
364.8151354444
 30
0.0
  0
VERTEX
  5
3B7
  8
0
  6
CONTINUOUS
 62
     7
 10
106.4013823887
 20
364.2287002456
 30
0.0
  0
SEQEND
  5
599
  8
0
  6
CONTINUOUS
 62
     7
  0
LINE
  5
13C
  8
0
  6
CONTINUOUS
 62
     7
 10
106.4013823887
 20
366.5605606091
 30
0.0
 11
106.4013823887
 21
364.2287002456
 31
0.0
  0
LINE
  5
13D
  8
0
  6
CONTINUOUS
 62
     7
 10
128.4013822695
 20
366.5605606091
 30
0.0
 11
128.4013822695
 21
364.2287002456
 31
0.0
  0
POLYLINE
  5
13E
  8
0
  6
CONTINUOUS
 62
     7
 66
     1
 10
0.0
 20
0.0
 30
0.0
 70
   128
  0
VERTEX
  5
3B8
  8
0
  6
CONTINUOUS
 62
     7
 10
106.4013823887
 20
364.2287002456
 30
0.0
  0
VERTEX
  5
3B9
  8
0
  6
CONTINUOUS
 62
     7
 10
106.5133469199
 20
363.6422724974
 30
0.0
  0
VERTEX
  5
3BA
  8
0
  6
CONTINUOUS
 62
     7
 10
106.8469597047
 20
363.0677731287
 30
0.0
  0
VERTEX
  5
3BB
  8
0
  6
CONTINUOUS
 62
     7
 10
107.39543047
 20
362.5169144523
 30
0.0
  0
VERTEX
  5
3BC
  8
0
  6
CONTINUOUS
 62
     7
 10
108.1475935896
 20
362.0009021413
 30
0.0
  0
VERTEX
  5
3BD
  8
0
  6
CONTINUOUS
 62
     7
 10
109.0881371891
 20
361.5302340638
 30
0.0
  0
VERTEX
  5
3BE
  8
0
  6
CONTINUOUS
 62
     7
 10
110.1979142075
 20
361.1145065677
 30
0.0
  0
VERTEX
  5
3BF
  8
0
  6
CONTINUOUS
 62
     7
 10
111.4543335532
 20
360.7621760618
 30
0.0
  0
VERTEX
  5
3C0
  8
0
  6
CONTINUOUS
 62
     7
 10
112.8318173831
 20
360.4804100048
 30
0.0
  0
VERTEX
  5
3C1
  8
0
  6
CONTINUOUS
 62
     7
 10
114.3023242728
 20
360.2749453437
 30
0.0
  0
VERTEX
  5
3C2
  8
0
  6
CONTINUOUS
 62
     7
 10
115.8359190702
 20
360.1499767553
 30
0.0
  0
VERTEX
  5
3C3
  8
0
  6
CONTINUOUS
 62
     7
 10
117.4013823291
 20
360.1080299866
 30
0.0
  0
VERTEX
  5
3C4
  8
0
  6
CONTINUOUS
 62
     7
 10
118.966845588
 20
360.1499767553
 30
0.0
  0
VERTEX
  5
3C5
  8
0
  6
CONTINUOUS
 62
     7
 10
120.5004403853
 20
360.2749453437
 30
0.0
  0
VERTEX
  5
3C6
  8
0
  6
CONTINUOUS
 62
     7
 10
121.9709472751
 20
360.4804100048
 30
0.0
  0
VERTEX
  5
3C7
  8
0
  6
CONTINUOUS
 62
     7
 10
123.3484311049
 20
360.7621760618
 30
0.0
  0
VERTEX
  5
3C8
  8
0
  6
CONTINUOUS
 62
     7
 10
124.6048504507
 20
361.1145065677
 30
0.0
  0
VERTEX
  5
3C9
  8
0
  6
CONTINUOUS
 62
     7
 10
125.7146274691
 20
361.5302340638
 30
0.0
  0
VERTEX
  5
3CA
  8
0
  6
CONTINUOUS
 62
     7
 10
126.6551710685
 20
362.0009021413
 30
0.0
  0
VERTEX
  5
3CB
  8
0
  6
CONTINUOUS
 62
     7
 10
127.4073341881
 20
362.5169144523
 30
0.0
  0
VERTEX
  5
3CC
  8
0
  6
CONTINUOUS
 62
     7
 10
127.9558049535
 20
363.0677731287
 30
0.0
  0
VERTEX
  5
3CD
  8
0
  6
CONTINUOUS
 62
     7
 10
128.2894177382
 20
363.6422724974
 30
0.0
  0
VERTEX
  5
3CE
  8
0
  6
CONTINUOUS
 62
     7
 10
128.4013822695
 20
364.2287002456
 30
0.0
  0
SEQEND
  5
59A
  8
0
  6
CONTINUOUS
 62
     7
  0
ARC
  5
13F
  8
0
  6
CONTINUOUS
 62
     7
 10
111.6841995781
 20
369.6146503098
 30
0.0
 40
8.490772474209805
 50
231.5242504789
 51
250.351919589
  0
ARC
  5
140
  8
0
  6
CONTINUOUS
 62
     7
 10
123.1185650801
 20
369.6146503098
 30
0.0
 40
8.4907724742098
 50
289.648080411
 51
308.4757495211
  0
LINE
  5
141
  8
0
  6
CONTINUOUS
 62
     7
 10
106.4013823887
 20
364.2287002456
 30
0.0
 11
106.4013823887
 21
362.9674659621
 31
0.0
  0
LINE
  5
142
  8
0
  6
CONTINUOUS
 62
     7
 10
128.4013822695
 20
364.2287002456
 30
0.0
 11
128.4013822695
 21
362.9674659621
 31
0.0
  0
ARC
  5
143
  8
0
  6
CONTINUOUS
 62
     7
 10
126.7211424631
 20
368.3080912241
 30
0.0
 40
2.742254427022828
 50
307.786587599
 51
344.028219009
  0
ARC
  5
144
  8
0
  6
CONTINUOUS
 62
     7
 10
108.081622195
 20
368.3080912241
 30
0.0
 40
2.742254427022828
 50
195.971780991
 51
232.213412401
  0
ARC
  5
145
  8
0
  6
CONTINUOUS
 62
     7
 10
138.0570361645
 20
421.1731379405
 30
0.0
 40
3.105996274338095
 50
72.2912583169
 51
95.3230513253
  0
ARC
  5
146
  8
0
  6
CONTINUOUS
 62
     7
 10
96.7464169252
 20
421.1582678315
 30
0.0
 40
3.120739071911624
 50
84.7148610591
 51
107.5847199778
  0
LINE
  5
147
  8
0
  6
CONTINUOUS
 62
     7
 10
141.4147265275
 20
384.8063842904
 30
0.0
 11
141.4034537991
 21
384.7897694957
 31
0.0
  0
LINE
  5
148
  8
0
  6
CONTINUOUS
 62
     7
 10
93.3993350734
 20
384.7896502864
 30
0.0
 11
93.3880176415
 21
384.8063172352
 31
0.0
  0
ARC
  5
149
  8
0
  6
CONTINUOUS
 62
     7
 10
117.4013963869
 20
401.3802607382
 30
0.0
 40
4.250019483533558
 50
89.9997188662
 51
154.3221033841
  0
ARC
  5
14A
  8
0
  6
CONTINUOUS
 62
     7
 10
117.4013737207
 20
401.3802694048
 30
0.0
 40
4.250010816944898
 50
25.6778231501
 51
90.0003546228
  0
LINE
  5
14B
  8
0
  6
CONTINUOUS
 62
     7
 10
140.0557722916
 20
420.4202116978
 30
0.0
 11
140.0291234275
 21
422.9861469519
 31
0.0
  0
LINE
  5
14C
  8
0
  6
CONTINUOUS
 62
     7
 10
94.7469923665
 20
420.4202116978
 30
0.0
 11
94.7736412307
 21
422.9861469519
 31
0.0
  0
LINE
  5
14D
  8
0
  6
CONTINUOUS
 62
     7
 10
94.8247540762
 20
423.261267091
 30
0.0
 11
94.7735145708
 21
422.9863108646
 31
0.0
  0
LINE
  5
14E
  8
0
  6
CONTINUOUS
 62
     7
 10
139.9771314134
 20
423.2653500092
 30
0.0
 11
140.0291234275
 21
422.9864747774
 31
0.0
  0
LINE
  5
14F
  8
0
  6
CONTINUOUS
 62
     7
 10
141.4013825377
 20
290.8591152679
 30
0.0
 11
117.4013823291
 21
290.8591152679
 31
0.0
  0
LINE
  5
150
  8
0
  6
CONTINUOUS
 62
     7
 10
93.4013821205
 20
290.8591152679
 30
0.0
 11
117.4013823291
 21
290.8591152679
 31
0.0
  0
CIRCLE
  5
151
  8
0
  6
CONTINUOUS
 62
     7
 10
117.4013823291
 20
401.380277146
 30
0.0
 40
3.569682227408594
  0
CIRCLE
  5
152
  8
0
  6
CONTINUOUS
 62
     7
 10
117.4013823291
 20
401.380277146
 30
0.0
 40
4.000000000000031
  0
ARC
  5
153
  8
0
  6
CONTINUOUS
 62
     7
 10
117.4013823291
 20
401.3802796091
 30
0.0
 40
4.25000177195736
 50
207.0879395441
 51
332.9120604559
  0
POLYLINE
  5
154
  8
0
  6
CONTINUOUS
 62
     7
 66
     1
 10
0.0
 20
0.0
 30
0.0
 70
   128
  0
VERTEX
  5
3CF
  8
0
  6
CONTINUOUS
 62
     7
 10
94.4605026414
 20
392.2843681228
 30
0.0
  0
VERTEX
  5
3D0
  8
0
  6
CONTINUOUS
 62
     7
 10
94.4505020996
 20
392.2487170946
 30
0.0
  0
VERTEX
  5
3D1
  8
0
  6
CONTINUOUS
 62
     7
 10
94.7252292206
 20
391.6749106299
 30
0.0
  0
VERTEX
  5
3D2
  8
0
  6
CONTINUOUS
 62
     7
 10
95.5625142922
 20
391.4027409207
 30
0.0
  0
VERTEX
  5
3D3
  8
0
  6
CONTINUOUS
 62
     7
 10
96.043741705
 20
391.3802774202
 30
0.0
  0
SEQEND
  5
59B
  8
0
  6
CONTINUOUS
 62
     7
  0
POLYLINE
  5
155
  8
0
  6
CONTINUOUS
 62
     7
 66
     1
 10
0.0
 20
0.0
 30
0.0
 70
   128
  0
VERTEX
  5
3D4
  8
0
  6
CONTINUOUS
 62
     7
 10
138.7590229531
 20
391.3802774202
 30
0.0
  0
VERTEX
  5
3D5
  8
0
  6
CONTINUOUS
 62
     7
 10
139.7638175657
 20
391.5107445371
 30
0.0
  0
VERTEX
  5
3D6
  8
0
  6
CONTINUOUS
 62
     7
 10
140.2867123505
 20
391.9363142502
 30
0.0
  0
VERTEX
  5
3D7
  8
0
  6
CONTINUOUS
 62
     7
 10
140.2926038971
 20
392.3147292387
 30
0.0
  0
SEQEND
  5
59C
  8
0
  6
CONTINUOUS
 62
     7
  0
LINE
  5
156
  8
0
  6
CONTINUOUS
 62
     7
 10
96.043741705
 20
391.3802774202
 30
0.0
 11
138.7590229531
 21
391.3802774202
 31
0.0
  0
LINE
  5
157
  8
0
  6
CONTINUOUS
 62
     7
 10
113.6175688842
 20
399.4450093758
 30
0.0
 11
113.6521649567
 21
399.9862270009
 31
0.0
  0
LINE
  5
158
  8
0
  6
CONTINUOUS
 62
     7
 10
121.1505997015
 20
399.9862270009
 30
0.0
 11
121.185195774
 21
399.4450093758
 31
0.0
  0
POLYLINE
  5
159
  8
0
  6
CONTINUOUS
 62
     7
 66
     1
 10
0.0
 20
0.0
 30
0.0
 70
   128
  0
VERTEX
  5
3D8
  8
0
  6
CONTINUOUS
 62
     7
 10
113.5710907654
 20
403.2218427908
 30
0.0
  0
VERTEX
  5
3D9
  8
0
  6
CONTINUOUS
 62
     7
 10
113.6547256281
 20
402.9868067753
 30
0.0
  0
VERTEX
  5
3DA
  8
0
  6
CONTINUOUS
 62
     7
 10
113.6890045853
 20
402.869653846
 30
0.0
  0
SEQEND
  5
59D
  8
0
  6
CONTINUOUS
 62
     7
  0
POLYLINE
  5
15A
  8
0
  6
CONTINUOUS
 62
     7
 66
     1
 10
0.0
 20
0.0
 30
0.0
 70
   128
  0
VERTEX
  5
3DB
  8
0
  6
CONTINUOUS
 62
     7
 10
121.1137600729
 20
402.869653846
 30
0.0
  0
VERTEX
  5
3DC
  8
0
  6
CONTINUOUS
 62
     7
 10
121.2137659566
 20
403.1758131039
 30
0.0
  0
VERTEX
  5
3DD
  8
0
  6
CONTINUOUS
 62
     7
 10
121.2316738927
 20
403.2218427908
 30
0.0
  0
SEQEND
  5
59E
  8
0
  6
CONTINUOUS
 62
     7
  0
ARC
  5
15B
  8
0
  6
CONTINUOUS
 62
     8
 10
121.7943821776
 20
142.3778942932
 30
0.0
 40
239.7530703113246
 50
88.324792104
 51
91.0498903582
  0
POLYLINE
  5
15C
  8
0
  6
CONTINUOUS
 62
     8
 66
     1
 10
0.0
 20
0.0
 30
0.0
 70
   128
  0
VERTEX
  5
3DE
  8
0
  6
CONTINUOUS
 62
     8
 10
117.4013823291
 20
383.8493721139
 30
0.0
  0
VERTEX
  5
3DF
  8
0
  6
CONTINUOUS
 62
     8
 10
118.485288487
 20
383.8491485965
 30
0.0
  0
VERTEX
  5
3E0
  8
0
  6
CONTINUOUS
 62
     8
 10
123.0570966398
 20
383.8395075452
 30
0.0
  0
VERTEX
  5
3E1
  8
0
  6
CONTINUOUS
 62
     8
 10
126.1018304174
 20
383.8185714137
 30
0.0
  0
VERTEX
  5
3E2
  8
0
  6
CONTINUOUS
 62
     8
 10
128.7505267208
 20
383.7831513536
 30
0.0
  0
SEQEND
  5
59F
  8
0
  6
CONTINUOUS
 62
     8
  0
ARC
  5
15D
  8
0
  6
CONTINUOUS
 62
     8
 10
112.7283009939
 20
193.7032669184
 30
0.0
 40
188.4453983986756
 50
88.5790298444
 51
92.0462876934
  0
POLYLINE
  5
15E
  8
0
  6
CONTINUOUS
 62
     8
 66
     1
 10
0.0
 20
0.0
 30
0.0
 70
   128
  0
VERTEX
  5
3E3
  8
0
  6
CONTINUOUS
 62
     8
 10
106.0521969592
 20
383.7831513536
 30
0.0
  0
VERTEX
  5
3E4
  8
0
  6
CONTINUOUS
 62
     8
 10
108.6135333424
 20
383.8176996958
 30
0.0
  0
VERTEX
  5
3E5
  8
0
  6
CONTINUOUS
 62
     8
 10
111.658180507
 20
383.839120115
 30
0.0
  0
VERTEX
  5
3E6
  8
0
  6
CONTINUOUS
 62
     8
 10
116.2300120593
 20
383.8491113436
 30
0.0
  0
VERTEX
  5
3E7
  8
0
  6
CONTINUOUS
 62
     8
 10
117.4013823291
 20
383.8493721139
 30
0.0
  0
SEQEND
  5
5A0
  8
0
  6
CONTINUOUS
 62
     8
  0
POLYLINE
  5
15F
  8
0
  6
CONTINUOUS
 62
     8
 66
     1
 10
0.0
 20
0.0
 30
0.0
 70
   128
  0
VERTEX
  5
3E8
  8
0
  6
CONTINUOUS
 62
     8
 10
105.9994803762
 20
382.0285545241
 30
0.0
  0
VERTEX
  5
3E9
  8
0
  6
CONTINUOUS
 62
     8
 10
105.9994207715
 20
382.0285545241
 30
0.0
  0
VERTEX
  5
3EA
  8
0
  6
CONTINUOUS
 62
     8
 10
103.8397032788
 20
381.9842906248
 30
0.0
  0
VERTEX
  5
3EB
  8
0
  6
CONTINUOUS
 62
     8
 10
101.9595269134
 20
381.9917710077
 30
0.0
  0
VERTEX
  5
3EC
  8
0
  6
CONTINUOUS
 62
     8
 10
100.5496088435
 20
382.1180881512
 30
0.0
  0
VERTEX
  5
3ED
  8
0
  6
CONTINUOUS
 62
     8
 10
99.641103672
 20
382.3361740958
 30
0.0
  0
VERTEX
  5
3EE
  8
0
  6
CONTINUOUS
 62
     8
 10
99.1788510253
 20
382.5468616139
 30
0.0
  0
VERTEX
  5
3EF
  8
0
  6
CONTINUOUS
 62
     8
 10
98.9101607372
 20
382.6627702963
 30
0.0
  0
VERTEX
  5
3F0
  8
0
  6
CONTINUOUS
 62
     8
 10
98.910151424
 20
382.6627702963
 30
0.0
  0
SEQEND
  5
5A1
  8
0
  6
CONTINUOUS
 62
     8
  0
ARC
  5
160
  8
0
  6
CONTINUOUS
 62
     8
 10
103.6351430663
 20
410.4785060727
 30
0.0
 40
26.80466512754188
 50
262.132666464
 51
275.1733730143
  0
POLYLINE
  5
161
  8
0
  6
CONTINUOUS
 62
     8
 66
     1
 10
0.0
 20
0.0
 30
0.0
 70
   128
  0
VERTEX
  5
3F1
  8
0
  6
CONTINUOUS
 62
     8
 10
135.8926132341
 20
382.6627702963
 30
0.0
  0
VERTEX
  5
3F2
  8
0
  6
CONTINUOUS
 62
     8
 10
135.8926039209
 20
382.6627702963
 30
0.0
  0
VERTEX
  5
3F3
  8
0
  6
CONTINUOUS
 62
     8
 10
135.6298722347
 20
382.5500877153
 30
0.0
  0
VERTEX
  5
3F4
  8
0
  6
CONTINUOUS
 62
     8
 10
135.1616609862
 20
382.3361740958
 30
0.0
  0
VERTEX
  5
3F5
  8
0
  6
CONTINUOUS
 62
     8
 10
134.2531558146
 20
382.1180881512
 30
0.0
  0
VERTEX
  5
3F6
  8
0
  6
CONTINUOUS
 62
     8
 10
132.8432377448
 20
381.9917710077
 30
0.0
  0
VERTEX
  5
3F7
  8
0
  6
CONTINUOUS
 62
     8
 10
130.9630613794
 20
381.9842906248
 30
0.0
  0
VERTEX
  5
3F8
  8
0
  6
CONTINUOUS
 62
     8
 10
128.8033438866
 20
382.0285545241
 30
0.0
  0
VERTEX
  5
3F9
  8
0
  6
CONTINUOUS
 62
     8
 10
128.803284282
 20
382.0285545241
 30
0.0
  0
SEQEND
  5
5A2
  8
0
  6
CONTINUOUS
 62
     8
  0
ARC
  5
162
  8
0
  6
CONTINUOUS
 62
     8
 10
131.1674893066
 20
410.4899653779
 30
0.0
 40
26.81606954272549
 50
264.8290290134
 51
277.8637536706
  0
ARC
  5
163
  8
0
  6
CONTINUOUS
 62
     8
 10
91.634968013
 20
382.9726832803
 30
0.0
 40
37.18030423124165
 50
339.9259176245
 51
358.5445959613
  0
ARC
  5
164
  8
0
  6
CONTINUOUS
 62
     8
 10
143.1667575051
 20
382.9721474692
 30
0.0
 40
37.17922970982081
 50
181.4540688151
 51
200.0741873343
  0
POLYLINE
  5
165
  8
0
  6
CONTINUOUS
 62
     8
 66
     1
 10
0.0
 20
0.0
 30
0.0
 70
   128
  0
VERTEX
  5
3FA
  8
0
  6
CONTINUOUS
 62
     8
 10
139.6186597665
 20
385.4698063385
 30
0.0
  0
VERTEX
  5
3FB
  8
0
  6
CONTINUOUS
 62
     8
 10
140.3949767371
 20
385.8443172228
 30
0.0
  0
VERTEX
  5
3FC
  8
0
  6
CONTINUOUS
 62
     8
 10
140.4898002764
 20
385.9666483056
 30
0.0
  0
VERTEX
  5
3FD
  8
0
  6
CONTINUOUS
 62
     8
 10
140.3902754208
 20
386.0140414488
 30
0.0
  0
SEQEND
  5
5A3
  8
0
  6
CONTINUOUS
 62
     8
  0
ARC
  5
166
  8
0
  6
CONTINUOUS
 62
     8
 10
127.0003787507
 20
417.4848468259
 30
0.0
 40
34.41190704677142
 50
288.4815016601
 51
291.5110127459
  0
ARC
  5
167
  8
0
  6
CONTINUOUS
 62
     8
 10
118.4181213914
 20
444.2434829123
 30
0.0
 40
62.51199697141951
 50
285.2268721682
 51
288.16729518
  0
ARC
  5
168
  8
0
  6
CONTINUOUS
 62
     8
 10
116.3776100021
 20
444.2203095064
 30
0.0
 40
62.48778583798155
 50
251.8322072677
 51
254.7735492223
  0
ARC
  5
169
  8
0
  6
CONTINUOUS
 62
     8
 10
107.805136841
 20
417.492508585
 30
0.0
 40
34.42004570087852
 50
248.4893281158
 51
251.5181982264
  0
POLYLINE
  5
16A
  8
0
  6
CONTINUOUS
 62
     8
 66
     1
 10
0.0
 20
0.0
 30
0.0
 70
   128
  0
VERTEX
  5
3FE
  8
0
  6
CONTINUOUS
 62
     8
 10
94.4134075215
 20
386.0144959342
 30
0.0
  0
VERTEX
  5
3FF
  8
0
  6
CONTINUOUS
 62
     8
 10
94.3129792829
 20
385.9667079103
 30
0.0
  0
VERTEX
  5
400
  8
0
  6
CONTINUOUS
 62
     8
 10
94.407787921
 20
385.8443172228
 30
0.0
  0
VERTEX
  5
401
  8
0
  6
CONTINUOUS
 62
     8
 10
95.1840620508
 20
385.4698212397
 30
0.0
  0
SEQEND
  5
5A4
  8
0
  6
CONTINUOUS
 62
     8
  0
LINE
  5
16B
  8
0
  6
CONTINUOUS
 62
     8
 10
94.2293390652
 20
380.1688821566
 30
0.0
 11
94.2293390652
 21
384.2941270721
 31
0.0
  0
POLYLINE
  5
16C
  8
0
  6
CONTINUOUS
 62
     8
 66
     1
 10
0.0
 20
0.0
 30
0.0
 70
   128
  0
VERTEX
  5
402
  8
0
  6
CONTINUOUS
 62
     8
 10
95.9051162024
 20
383.6666168224
 30
0.0
  0
VERTEX
  5
403
  8
0
  6
CONTINUOUS
 62
     8
 10
95.0578473528
 20
383.9703397405
 30
0.0
  0
VERTEX
  5
404
  8
0
  6
CONTINUOUS
 62
     8
 10
94.2294582745
 20
384.2940525662
 30
0.0
  0
SEQEND
  5
5A5
  8
0
  6
CONTINUOUS
 62
     8
  0
ARC
  5
16D
  8
0
  6
CONTINUOUS
 62
     8
 10
141.4466190281
 20
515.119841009
 30
0.0
 40
139.1185775827697
 50
250.8915382754
 51
252.1963591439
  0
ARC
  5
16E
  8
0
  6
CONTINUOUS
 62
     8
 10
149.5486990638
 20
346.7489137027
 30
0.0
 40
38.42345224848153
 50
106.0932708898
 51
110.8188316909
  0
POLYLINE
  5
16F
  8
0
  6
CONTINUOUS
 62
     8
 66
     1
 10
0.0
 20
0.0
 30
0.0
 70
   128
  0
VERTEX
  5
405
  8
0
  6
CONTINUOUS
 62
     8
 10
140.5733063837
 20
384.2940525662
 30
0.0
  0
VERTEX
  5
406
  8
0
  6
CONTINUOUS
 62
     8
 10
139.7452209165
 20
383.9704514992
 30
0.0
  0
VERTEX
  5
407
  8
0
  6
CONTINUOUS
 62
     8
 10
138.8976484557
 20
383.6666168224
 30
0.0
  0
SEQEND
  5
5A6
  8
0
  6
CONTINUOUS
 62
     8
  0
LINE
  5
170
  8
0
  6
CONTINUOUS
 62
     8
 10
140.573425593
 20
380.1688821566
 30
0.0
 11
140.573425593
 21
384.2941270721
 31
0.0
  0
ARC
  5
171
  8
0
  6
CONTINUOUS
 62
     8
 10
119.3390660853
 20
-8.3921237309
 30
0.0
 40
430.4987691057107
 50
88.8794765035
 51
90.2578903451
  0
POLYLINE
  5
172
  8
0
  6
CONTINUOUS
 62
     8
 66
     1
 10
0.0
 20
0.0
 30
0.0
 70
   128
  0
VERTEX
  5
408
  8
0
  6
CONTINUOUS
 62
     8
 10
117.4013823291
 20
423.6950845968
 30
0.0
  0
VERTEX
  5
409
  8
0
  6
CONTINUOUS
 62
     8
 10
117.4014423291
 20
423.6950845968
 30
0.0
  0
VERTEX
  5
40A
  8
0
  6
CONTINUOUS
 62
     8
 10
122.5665159543
 20
423.6822397959
 30
0.0
  0
VERTEX
  5
40B
  8
0
  6
CONTINUOUS
 62
     8
 10
124.6165818555
 20
423.6672343266
 30
0.0
  0
VERTEX
  5
40C
  8
0
  6
CONTINUOUS
 62
     8
 10
127.7317818274
 20
423.625764395
 30
0.0
  0
SEQEND
  5
5A7
  8
0
  6
CONTINUOUS
 62
     8
  0
POLYLINE
  5
173
  8
0
  6
CONTINUOUS
 62
     8
 66
     1
 10
0.0
 20
0.0
 30
0.0
 70
   128
  0
VERTEX
  5
40D
  8
0
  6
CONTINUOUS
 62
     8
 10
117.4013823291
 20
423.6950845968
 30
0.0
  0
VERTEX
  5
40E
  8
0
  6
CONTINUOUS
 62
     8
 10
117.4013223291
 20
423.6950845968
 30
0.0
  0
VERTEX
  5
40F
  8
0
  6
CONTINUOUS
 62
     8
 10
112.2362487038
 20
423.6822397959
 30
0.0
  0
VERTEX
  5
410
  8
0
  6
CONTINUOUS
 62
     8
 10
110.1861828027
 20
423.6672343266
 30
0.0
  0
VERTEX
  5
411
  8
0
  6
CONTINUOUS
 62
     8
 10
107.0709828307
 20
423.625764395
 30
0.0
  0
SEQEND
  5
5A8
  8
0
  6
CONTINUOUS
 62
     8
  0
ARC
  5
174
  8
0
  6
CONTINUOUS
 62
     8
 10
115.4636985729
 20
-8.3921237309
 30
0.0
 40
430.4987691057209
 50
89.7421096549
 51
91.1205234965
  0
POLYLINE
  5
175
  8
0
  6
CONTINUOUS
 62
     8
 66
     1
 10
0.0
 20
0.0
 30
0.0
 70
   128
  0
VERTEX
  5
412
  8
0
  6
CONTINUOUS
 62
     8
 10
101.8427567576
 20
423.8060386431
 30
0.0
  0
VERTEX
  5
413
  8
0
  6
CONTINUOUS
 62
     8
 10
101.8427455818
 20
423.8060386431
 30
0.0
  0
VERTEX
  5
414
  8
0
  6
CONTINUOUS
 62
     8
 10
101.3536065837
 20
423.8951177847
 30
0.0
  0
SEQEND
  5
5A9
  8
0
  6
CONTINUOUS
 62
     8
  0
ARC
  5
176
  8
0
  6
CONTINUOUS
 62
     8
 10
102.796798235
 20
427.7723529811
 30
0.0
 40
4.07944169810845
 50
256.4752310487
 51
264.9188123651
  0
POLYLINE
  5
177
  8
0
  6
CONTINUOUS
 62
     8
 66
     1
 10
0.0
 20
0.0
 30
0.0
 70
   128
  0
VERTEX
  5
415
  8
0
  6
CONTINUOUS
 62
     8
 10
107.0711793398
 20
423.625764395
 30
0.0
  0
VERTEX
  5
416
  8
0
  6
CONTINUOUS
 62
     8
 10
106.001772361
 20
423.6095817339
 30
0.0
  0
VERTEX
  5
417
  8
0
  6
CONTINUOUS
 62
     8
 10
104.9689523896
 20
423.6036957752
 30
0.0
  0
VERTEX
  5
418
  8
0
  6
CONTINUOUS
 62
     8
 10
103.8868170252
 20
423.6151547682
 30
0.0
  0
VERTEX
  5
419
  8
0
  6
CONTINUOUS
 62
     8
 10
103.0712056925
 20
423.6476542007
 30
0.0
  0
VERTEX
  5
41A
  8
0
  6
CONTINUOUS
 62
     8
 10
102.4355109801
 20
423.7089426767
 30
0.0
  0
VERTEX
  5
41B
  8
0
  6
CONTINUOUS
 62
     8
 10
102.435493285
 20
423.7089426767
 30
0.0
  0
SEQEND
  5
5AA
  8
0
  6
CONTINUOUS
 62
     8
  0
ARC
  5
178
  8
0
  6
CONTINUOUS
 62
     8
 10
105.9941760372
 20
440.1058389772
 30
0.0
 40
18.1120141007548
 50
252.3095003011
 51
273.3262020293
  0
ARC
  5
179
  8
0
  6
CONTINUOUS
 62
     8
 10
101.4905909956
 20
422.9029406716
 30
0.0
 40
1.001588814209387
 50
97.860815984
 51
183.0122356226
  0
ARC
  5
17A
  8
0
  6
CONTINUOUS
 62
     8
 10
128.808588621
 20
440.1058389772
 30
0.0
 40
18.11201410075479
 50
266.6737979708
 51
287.6904996989
  0
POLYLINE
  5
17B
  8
0
  6
CONTINUOUS
 62
     8
 66
     1
 10
0.0
 20
0.0
 30
0.0
 70
   128
  0
VERTEX
  5
41C
  8
0
  6
CONTINUOUS
 62
     8
 10
127.7315853184
 20
423.625764395
 30
0.0
  0
VERTEX
  5
41D
  8
0
  6
CONTINUOUS
 62
     8
 10
128.8009922971
 20
423.6095817339
 30
0.0
  0
VERTEX
  5
41E
  8
0
  6
CONTINUOUS
 62
     8
 10
129.8338122686
 20
423.6036957752
 30
0.0
  0
VERTEX
  5
41F
  8
0
  6
CONTINUOUS
 62
     8
 10
130.915947633
 20
423.6151547682
 30
0.0
  0
VERTEX
  5
420
  8
0
  6
CONTINUOUS
 62
     8
 10
131.7315589657
 20
423.6476542007
 30
0.0
  0
VERTEX
  5
421
  8
0
  6
CONTINUOUS
 62
     8
 10
132.3672536781
 20
423.7089426767
 30
0.0
  0
VERTEX
  5
422
  8
0
  6
CONTINUOUS
 62
     8
 10
132.3672713732
 20
423.7089426767
 30
0.0
  0
SEQEND
  5
5AB
  8
0
  6
CONTINUOUS
 62
     8
  0
ARC
  5
17C
  8
0
  6
CONTINUOUS
 62
     8
 10
132.0059664232
 20
427.7723529811
 30
0.0
 40
4.079441698108454
 50
275.0811876349
 51
283.5247689513
  0
POLYLINE
  5
17D
  8
0
  6
CONTINUOUS
 62
     8
 66
     1
 10
0.0
 20
0.0
 30
0.0
 70
   128
  0
VERTEX
  5
423
  8
0
  6
CONTINUOUS
 62
     8
 10
132.9600079005
 20
423.8060386431
 30
0.0
  0
VERTEX
  5
424
  8
0
  6
CONTINUOUS
 62
     8
 10
132.9600190764
 20
423.8060386431
 30
0.0
  0
VERTEX
  5
425
  8
0
  6
CONTINUOUS
 62
     8
 10
133.4491170963
 20
423.8951177847
 30
0.0
  0
SEQEND
  5
5AC
  8
0
  6
CONTINUOUS
 62
     8
  0
ARC
  5
17E
  8
0
  6
CONTINUOUS
 62
     8
 10
133.3121819016
 20
422.9029046612
 30
0.0
 40
1.001617756459597
 50
356.9899142623
 51
82.1422546733
  0
POLYLINE
  5
17F
  8
0
  6
CONTINUOUS
 62
     8
 66
     1
 10
0.0
 20
0.0
 30
0.0
 70
   128
  0
VERTEX
  5
426
  8
0
  6
CONTINUOUS
 62
     8
 10
134.3123767545
 20
422.8503079664
 30
0.0
  0
VERTEX
  5
427
  8
0
  6
CONTINUOUS
 62
     8
 10
134.2566166093
 20
422.1618147146
 30
0.0
  0
VERTEX
  5
428
  8
0
  6
CONTINUOUS
 62
     8
 10
133.9618157615
 20
420.8633573305
 30
0.0
  0
SEQEND
  5
5AD
  8
0
  6
CONTINUOUS
 62
     8
  0
POLYLINE
  5
180
  8
0
  6
CONTINUOUS
 62
     8
 66
     1
 10
0.0
 20
0.0
 30
0.0
 70
   128
  0
VERTEX
  5
429
  8
0
  6
CONTINUOUS
 62
     8
 10
100.4903879037
 20
422.8503079664
 30
0.0
  0
VERTEX
  5
42A
  8
0
  6
CONTINUOUS
 62
     8
 10
100.6010551026
 20
421.7762620699
 30
0.0
  0
VERTEX
  5
42B
  8
0
  6
CONTINUOUS
 62
     8
 10
100.8409488966
 20
420.8633573305
 30
0.0
  0
SEQEND
  5
5AE
  8
0
  6
CONTINUOUS
 62
     8
  0
ARC
  5
181
  8
0
  6
CONTINUOUS
 62
     8
 10
137.768526587
 20
398.9101549762
 30
0.0
 40
25.35558449119555
 50
89.9993783834
 51
99.8083658782
  0
ARC
  5
182
  8
0
  6
CONTINUOUS
 62
     8
 10
97.0342910084
 20
398.9112495443
 30
0.0
 40
25.35448992374964
 50
80.1914218808
 51
90.0007412704
  0
POLYLINE
  5
183
  8
0
  6
CONTINUOUS
 62
     8
 66
     1
 10
0.0
 20
0.0
 30
0.0
 70
   128
  0
VERTEX
  5
42C
  8
0
  6
CONTINUOUS
 62
     8
 10
100.8409488966
 20
420.8633573305
 30
0.0
  0
VERTEX
  5
42D
  8
0
  6
CONTINUOUS
 62
     8
 10
101.3578981181
 20
419.9555636894
 30
0.0
  0
VERTEX
  5
42E
  8
0
  6
CONTINUOUS
 62
     8
 10
102.1856166442
 20
419.2424388182
 30
0.0
  0
VERTEX
  5
42F
  8
0
  6
CONTINUOUS
 62
     8
 10
103.3905915936
 20
418.7012882483
 30
0.0
  0
VERTEX
  5
430
  8
0
  6
CONTINUOUS
 62
     8
 10
105.0393100848
 20
418.3094175112
 30
0.0
  0
VERTEX
  5
431
  8
0
  6
CONTINUOUS
 62
     8
 10
107.1982610991
 20
418.0441470396
 30
0.0
  0
VERTEX
  5
432
  8
0
  6
CONTINUOUS
 62
     8
 10
109.9339312894
 20
417.8827525627
 30
0.0
  0
VERTEX
  5
433
  8
0
  6
CONTINUOUS
 62
     8
 10
113.3128091713
 20
417.8025694143
 30
0.0
  0
VERTEX
  5
434
  8
0
  6
CONTINUOUS
 62
     8
 10
117.4013823291
 20
417.7808882248
 30
0.0
  0
SEQEND
  5
5AF
  8
0
  6
CONTINUOUS
 62
     8
  0
POLYLINE
  5
184
  8
0
  6
CONTINUOUS
 62
     8
 66
     1
 10
0.0
 20
0.0
 30
0.0
 70
   128
  0
VERTEX
  5
435
  8
0
  6
CONTINUOUS
 62
     8
 10
133.9618157615
 20
420.8633573305
 30
0.0
  0
VERTEX
  5
436
  8
0
  6
CONTINUOUS
 62
     8
 10
133.44486654
 20
419.9555636894
 30
0.0
  0
VERTEX
  5
437
  8
0
  6
CONTINUOUS
 62
     8
 10
132.6171480139
 20
419.2424388182
 30
0.0
  0
VERTEX
  5
438
  8
0
  6
CONTINUOUS
 62
     8
 10
131.4121730646
 20
418.7012882483
 30
0.0
  0
VERTEX
  5
439
  8
0
  6
CONTINUOUS
 62
     8
 10
129.7634545734
 20
418.3094175112
 30
0.0
  0
VERTEX
  5
43A
  8
0
  6
CONTINUOUS
 62
     8
 10
127.6045035591
 20
418.0441470396
 30
0.0
  0
VERTEX
  5
43B
  8
0
  6
CONTINUOUS
 62
     8
 10
124.8688333688
 20
417.8827525627
 30
0.0
  0
VERTEX
  5
43C
  8
0
  6
CONTINUOUS
 62
     8
 10
121.4899554869
 20
417.8025694143
 30
0.0
  0
VERTEX
  5
43D
  8
0
  6
CONTINUOUS
 62
     8
 10
117.4013823291
 20
417.7808882248
 30
0.0
  0
SEQEND
  5
5B0
  8
0
  6
CONTINUOUS
 62
     8
  0
POLYLINE
  5
185
  8
0
  6
CONTINUOUS
 62
     8
 66
     1
 10
0.0
 20
0.0
 30
0.0
 70
   128
  0
VERTEX
  5
43E
  8
0
  6
CONTINUOUS
 62
     8
 10
140.573425593
 20
380.1688821566
 30
0.0
  0
VERTEX
  5
43F
  8
0
  6
CONTINUOUS
 62
     8
 10
140.4495075365
 20
376.6604931604
 30
0.0
  0
VERTEX
  5
440
  8
0
  6
CONTINUOUS
 62
     8
 10
139.8191437145
 20
373.2378826987
 30
0.0
  0
VERTEX
  5
441
  8
0
  6
CONTINUOUS
 62
     8
 10
139.2383597811
 20
371.60135522
 30
0.0
  0
VERTEX
  5
442
  8
0
  6
CONTINUOUS
 62
     8
 10
138.4467933347
 20
370.0593681585
 30
0.0
  0
VERTEX
  5
443
  8
0
  6
CONTINUOUS
 62
     8
 10
137.4372862299
 20
368.6540023934
 30
0.0
  0
VERTEX
  5
444
  8
0
  6
CONTINUOUS
 62
     8
 10
136.2277552505
 20
367.420268203
 30
0.0
  0
VERTEX
  5
445
  8
0
  6
CONTINUOUS
 62
     8
 10
134.8548069616
 20
366.374512161
 30
0.0
  0
VERTEX
  5
446
  8
0
  6
CONTINUOUS
 62
     8
 10
133.3611555417
 20
365.5122713697
 30
0.0
  0
VERTEX
  5
447
  8
0
  6
CONTINUOUS
 62
     8
 10
130.1577979719
 20
364.2588452947
 30
0.0
  0
VERTEX
  5
448
  8
0
  6
CONTINUOUS
 62
     8
 10
128.4013822695
 20
363.8510526669
 30
0.0
  0
SEQEND
  5
5B1
  8
0
  6
CONTINUOUS
 62
     8
  0
POLYLINE
  5
186
  8
0
  6
CONTINUOUS
 62
     8
 66
     1
 10
0.0
 20
0.0
 30
0.0
 70
   128
  0
VERTEX
  5
449
  8
0
  6
CONTINUOUS
 62
     8
 10
94.2293390652
 20
380.1688821566
 30
0.0
  0
VERTEX
  5
44A
  8
0
  6
CONTINUOUS
 62
     8
 10
94.3532571217
 20
376.6604931604
 30
0.0
  0
VERTEX
  5
44B
  8
0
  6
CONTINUOUS
 62
     8
 10
94.9836209436
 20
373.2378826987
 30
0.0
  0
VERTEX
  5
44C
  8
0
  6
CONTINUOUS
 62
     8
 10
95.564404877
 20
371.60135522
 30
0.0
  0
VERTEX
  5
44D
  8
0
  6
CONTINUOUS
 62
     8
 10
96.3559713235
 20
370.0593681585
 30
0.0
  0
VERTEX
  5
44E
  8
0
  6
CONTINUOUS
 62
     8
 10
97.3654784282
 20
368.6540023934
 30
0.0
  0
VERTEX
  5
44F
  8
0
  6
CONTINUOUS
 62
     8
 10
98.5750094076
 20
367.420268203
 30
0.0
  0
VERTEX
  5
450
  8
0
  6
CONTINUOUS
 62
     8
 10
99.9479576965
 20
366.374512161
 30
0.0
  0
VERTEX
  5
451
  8
0
  6
CONTINUOUS
 62
     8
 10
101.4416091164
 20
365.5122713697
 30
0.0
  0
VERTEX
  5
452
  8
0
  6
CONTINUOUS
 62
     8
 10
104.6449666863
 20
364.2588452947
 30
0.0
  0
VERTEX
  5
453
  8
0
  6
CONTINUOUS
 62
     8
 10
106.4013823887
 20
363.8510526669
 30
0.0
  0
SEQEND
  5
5B2
  8
0
  6
CONTINUOUS
 62
     8
  0
POLYLINE
  5
187
  8
0
  6
CONTINUOUS
 62
     8
 66
     1
 10
0.0
 20
0.0
 30
0.0
 70
   128
  0
VERTEX
  5
454
  8
0
  6
CONTINUOUS
 62
     8
 10
96.2084032615
 20
423.2553215277
 30
0.0
  0
VERTEX
  5
455
  8
0
  6
CONTINUOUS
 62
     8
 10
96.4856486788
 20
423.251745249
 30
0.0
  0
VERTEX
  5
456
  8
0
  6
CONTINUOUS
 62
     8
 10
97.7873247137
 20
423.1959851038
 30
0.0
  0
VERTEX
  5
457
  8
0
  6
CONTINUOUS
 62
     8
 10
99.4886592051
 20
423.0180652391
 30
0.0
  0
VERTEX
  5
458
  8
0
  6
CONTINUOUS
 62
     8
 10
100.4903785904
 20
422.8503079664
 30
0.0
  0
VERTEX
  5
459
  8
0
  6
CONTINUOUS
 62
     8
 10
100.4903879037
 20
422.8503079664
 30
0.0
  0
SEQEND
  5
5B3
  8
0
  6
CONTINUOUS
 62
     8
  0
POLYLINE
  5
188
  8
0
  6
CONTINUOUS
 62
     8
 66
     1
 10
0.0
 20
0.0
 30
0.0
 70
   128
  0
VERTEX
  5
45A
  8
0
  6
CONTINUOUS
 62
     8
 10
96.4677747359
 20
421.007794286
 30
0.0
  0
VERTEX
  5
45B
  8
0
  6
CONTINUOUS
 62
     8
 10
96.6329988112
 20
420.5094994556
 30
0.0
  0
VERTEX
  5
45C
  8
0
  6
CONTINUOUS
 62
     8
 10
97.1121773144
 20
419.6777166378
 30
0.0
  0
VERTEX
  5
45D
  8
0
  6
CONTINUOUS
 62
     8
 10
97.9672264328
 20
418.9244927418
 30
0.0
  0
VERTEX
  5
45E
  8
0
  6
CONTINUOUS
 62
     8
 10
99.4065705707
 20
418.292758013
 30
0.0
  0
VERTEX
  5
45F
  8
0
  6
CONTINUOUS
 62
     8
 10
99.8893290778
 20
418.1578130972
 30
0.0
  0
VERTEX
  5
460
  8
0
  6
CONTINUOUS
 62
     8
 10
100.4314016571
 20
418.0328370583
 30
0.0
  0
VERTEX
  5
461
  8
0
  6
CONTINUOUS
 62
     8
 10
101.0385308435
 20
417.9181279194
 30
0.0
  0
VERTEX
  5
462
  8
0
  6
CONTINUOUS
 62
     8
 10
101.7168726792
 20
417.8138644945
 30
0.0
  0
VERTEX
  5
463
  8
0
  6
CONTINUOUS
 62
     8
 10
102.4730097522
 20
417.7201510918
 30
0.0
  0
VERTEX
  5
464
  8
0
  6
CONTINUOUS
 62
     8
 10
103.3139828613
 20
417.6370324146
 30
0.0
  0
VERTEX
  5
465
  8
0
  6
CONTINUOUS
 62
     8
 10
104.2473031228
 20
417.5644190561
 30
0.0
  0
VERTEX
  5
466
  8
0
  6
CONTINUOUS
 62
     8
 10
105.2809761857
 20
417.5021471035
 30
0.0
  0
VERTEX
  5
467
  8
0
  6
CONTINUOUS
 62
     8
 10
108.9982971569
 20
417.3753978264
 30
0.0
  0
VERTEX
  5
468
  8
0
  6
CONTINUOUS
 62
     8
 10
113.0996257087
 20
417.3260153782
 30
0.0
  0
VERTEX
  5
469
  8
0
  6
CONTINUOUS
 62
     8
 10
117.4013823291
 20
417.3155845654
 30
0.0
  0
SEQEND
  5
5B4
  8
0
  6
CONTINUOUS
 62
     8
  0
POLYLINE
  5
189
  8
0
  6
CONTINUOUS
 62
     8
 66
     1
 10
0.0
 20
0.0
 30
0.0
 70
   128
  0
VERTEX
  5
46A
  8
0
  6
CONTINUOUS
 62
     8
 10
96.2084013989
 20
423.2554556381
 30
0.0
  0
VERTEX
  5
46B
  8
0
  6
CONTINUOUS
 62
     8
 10
96.2708149125
 20
422.1552284014
 30
0.0
  0
VERTEX
  5
46C
  8
0
  6
CONTINUOUS
 62
     8
 10
96.4677728733
 20
421.007794286
 30
0.0
  0
SEQEND
  5
5B5
  8
0
  6
CONTINUOUS
 62
     8
  0
POLYLINE
  5
18A
  8
0
  6
CONTINUOUS
 62
     8
 66
     1
 10
0.0
 20
0.0
 30
0.0
 70
   128
  0
VERTEX
  5
46D
  8
0
  6
CONTINUOUS
 62
     8
 10
138.3349899223
 20
421.007794286
 30
0.0
  0
VERTEX
  5
46E
  8
0
  6
CONTINUOUS
 62
     8
 10
138.1697658469
 20
420.5094994556
 30
0.0
  0
VERTEX
  5
46F
  8
0
  6
CONTINUOUS
 62
     8
 10
137.6905873438
 20
419.6777166378
 30
0.0
  0
VERTEX
  5
470
  8
0
  6
CONTINUOUS
 62
     8
 10
136.8355382254
 20
418.9244927418
 30
0.0
  0
VERTEX
  5
471
  8
0
  6
CONTINUOUS
 62
     8
 10
135.3961940875
 20
418.292758013
 30
0.0
  0
VERTEX
  5
472
  8
0
  6
CONTINUOUS
 62
     8
 10
134.9134355803
 20
418.1578130972
 30
0.0
  0
VERTEX
  5
473
  8
0
  6
CONTINUOUS
 62
     8
 10
134.3713630011
 20
418.0328370583
 30
0.0
  0
VERTEX
  5
474
  8
0
  6
CONTINUOUS
 62
     8
 10
133.7642338147
 20
417.9181279194
 30
0.0
  0
VERTEX
  5
475
  8
0
  6
CONTINUOUS
 62
     8
 10
133.085891979
 20
417.8138644945
 30
0.0
  0
VERTEX
  5
476
  8
0
  6
CONTINUOUS
 62
     8
 10
132.3297549059
 20
417.7201510918
 30
0.0
  0
VERTEX
  5
477
  8
0
  6
CONTINUOUS
 62
     8
 10
131.4887817969
 20
417.6370324146
 30
0.0
  0
VERTEX
  5
478
  8
0
  6
CONTINUOUS
 62
     8
 10
130.5554615354
 20
417.5644190561
 30
0.0
  0
VERTEX
  5
479
  8
0
  6
CONTINUOUS
 62
     8
 10
129.5217884724
 20
417.5021471035
 30
0.0
  0
VERTEX
  5
47A
  8
0
  6
CONTINUOUS
 62
     8
 10
125.8044675013
 20
417.3753978264
 30
0.0
  0
VERTEX
  5
47B
  8
0
  6
CONTINUOUS
 62
     8
 10
121.7031389495
 20
417.3260153782
 30
0.0
  0
VERTEX
  5
47C
  8
0
  6
CONTINUOUS
 62
     8
 10
117.4013823291
 20
417.3155845654
 30
0.0
  0
SEQEND
  5
5B6
  8
0
  6
CONTINUOUS
 62
     8
  0
POLYLINE
  5
18B
  8
0
  6
CONTINUOUS
 62
     8
 66
     1
 10
0.0
 20
0.0
 30
0.0
 70
   128
  0
VERTEX
  5
47D
  8
0
  6
CONTINUOUS
 62
     8
 10
138.5943613966
 20
423.2553215277
 30
0.0
  0
VERTEX
  5
47E
  8
0
  6
CONTINUOUS
 62
     8
 10
138.3171159794
 20
423.251745249
 30
0.0
  0
VERTEX
  5
47F
  8
0
  6
CONTINUOUS
 62
     8
 10
137.0154399445
 20
423.1959851038
 30
0.0
  0
VERTEX
  5
480
  8
0
  6
CONTINUOUS
 62
     8
 10
135.3141054531
 20
423.0180652391
 30
0.0
  0
VERTEX
  5
481
  8
0
  6
CONTINUOUS
 62
     8
 10
134.3123860677
 20
422.8503079664
 30
0.0
  0
VERTEX
  5
482
  8
0
  6
CONTINUOUS
 62
     8
 10
134.3123767545
 20
422.8503079664
 30
0.0
  0
SEQEND
  5
5B7
  8
0
  6
CONTINUOUS
 62
     8
  0
POLYLINE
  5
18C
  8
0
  6
CONTINUOUS
 62
     8
 66
     1
 10
0.0
 20
0.0
 30
0.0
 70
   128
  0
VERTEX
  5
483
  8
0
  6
CONTINUOUS
 62
     8
 10
138.5943632593
 20
423.2554556381
 30
0.0
  0
VERTEX
  5
484
  8
0
  6
CONTINUOUS
 62
     8
 10
138.5319497456
 20
422.1552284014
 30
0.0
  0
VERTEX
  5
485
  8
0
  6
CONTINUOUS
 62
     8
 10
138.3349917849
 20
421.007794286
 30
0.0
  0
SEQEND
  5
5B8
  8
0
  6
CONTINUOUS
 62
     8
  0
ARC
  5
18D
  8
0
  6
CONTINUOUS
 62
     8
 10
137.5954296116
 20
423.281618934
 30
0.0
 40
0.9992749612501913
 50
358.506531943
 51
80.008853915
  0
ARC
  5
18E
  8
0
  6
CONTINUOUS
 62
     8
 10
97.2073038362
 20
423.2816418757
 30
0.0
 40
0.9992472760851615
 50
99.989717064
 51
181.5093554222
  0
POLYLINE
  5
18F
  8
0
  6
CONTINUOUS
 62
     8
 66
     1
 10
0.0
 20
0.0
 30
0.0
 70
   128
  0
VERTEX
  5
486
  8
0
  6
CONTINUOUS
 62
     8
 10
141.4034537991
 20
384.7897694957
 30
0.0
  0
VERTEX
  5
487
  8
0
  6
CONTINUOUS
 62
     8
 10
141.3285829147
 20
384.6794040453
 30
0.0
  0
VERTEX
  5
488
  8
0
  6
CONTINUOUS
 62
     8
 10
140.573425593
 20
384.2941941273
 30
0.0
  0
SEQEND
  5
5B9
  8
0
  6
CONTINUOUS
 62
     8
  0
POLYLINE
  5
190
  8
0
  6
CONTINUOUS
 62
     8
 66
     1
 10
0.0
 20
0.0
 30
0.0
 70
   128
  0
VERTEX
  5
489
  8
0
  6
CONTINUOUS
 62
     8
 10
94.2293390652
 20
384.2941941273
 30
0.0
  0
VERTEX
  5
48A
  8
0
  6
CONTINUOUS
 62
     8
 10
93.4741817435
 20
384.6794040453
 30
0.0
  0
VERTEX
  5
48B
  8
0
  6
CONTINUOUS
 62
     8
 10
93.3993350734
 20
384.7896502864
 30
0.0
  0
SEQEND
  5
5BA
  8
0
  6
CONTINUOUS
 62
     8
  0
LINE
  5
191
  8
0
  6
CONTINUOUS
 62
     8
 10
113.5710907654
 20
403.2218427908
 30
0.0
 11
113.1941228194
 21
401.9814999353
 31
0.0
  0
POLYLINE
  5
192
  8
0
  6
CONTINUOUS
 62
     8
 66
     1
 10
0.0
 20
0.0
 30
0.0
 70
   128
  0
VERTEX
  5
48C
  8
0
  6
CONTINUOUS
 62
     8
 10
121.6086418388
 20
401.9814999353
 30
0.0
  0
VERTEX
  5
48D
  8
0
  6
CONTINUOUS
 62
     8
 10
121.2695805842
 20
403.140832628
 30
0.0
  0
VERTEX
  5
48E
  8
0
  6
CONTINUOUS
 62
     8
 10
121.2316738927
 20
403.2218427908
 30
0.0
  0
SEQEND
  5
5BB
  8
0
  6
CONTINUOUS
 62
     8
  0
CIRCLE
  5
193
  8
0
  6
CONTINUOUS
 62
     8
 10
117.4013823291
 20
401.380277146
 30
0.0
 40
3.78141863308183
  0
ARC
  5
194
  8
0
  6
CONTINUOUS
 62
     8
 10
117.4014093328
 20
401.3802813044
 30
0.0
 40
4.250026585575116
 50
171.8651929502
 51
207.0877941218
  0
ARC
  5
195
  8
0
  6
CONTINUOUS
 62
     8
 10
117.4012651588
 20
401.3802963551
 30
0.0
 40
4.250113715267206
 50
332.9125787364
 51
8.1344341916
  0
LINE
  5
196
  8
0
  6
CONTINUOUS
 62
     7
 10
139.9513375034
 20
191.0236360042
 30
0.0
 11
139.9659201523
 21
191.9862286656
 31
0.0
  0
POLYLINE
  5
197
  8
0
  6
CONTINUOUS
 62
     7
 66
     1
 10
0.0
 20
0.0
 30
0.0
 70
   128
  0
VERTEX
  5
48F
  8
0
  6
CONTINUOUS
 62
     7
 10
139.9707481285
 20
192.3049347012
 30
0.0
  0
VERTEX
  5
490
  8
0
  6
CONTINUOUS
 62
     7
 10
139.9770848473
 20
192.7232326477
 30
0.0
  0
VERTEX
  5
491
  8
0
  6
CONTINUOUS
 62
     7
 10
140.0070268681
 20
195.5281736798
 30
0.0
  0
VERTEX
  5
492
  8
0
  6
CONTINUOUS
 62
     7
 10
140.0254540165
 20
197.2433259713
 30
0.0
  0
SEQEND
  5
5BC
  8
0
  6
CONTINUOUS
 62
     7
  0
POLYLINE
  5
198
  8
0
  6
CONTINUOUS
 62
     7
 66
     1
 10
0.0
 20
0.0
 30
0.0
 70
   128
  0
VERTEX
  5
493
  8
0
  6
CONTINUOUS
 62
     7
 10
94.7752952596
 20
197.4038657269
 30
0.0
  0
VERTEX
  5
494
  8
0
  6
CONTINUOUS
 62
     7
 10
94.7919845601
 20
195.8169796041
 30
0.0
  0
VERTEX
  5
495
  8
0
  6
CONTINUOUS
 62
     7
 10
94.8164559921
 20
193.4064262084
 30
0.0
  0
VERTEX
  5
496
  8
0
  6
CONTINUOUS
 62
     7
 10
94.8323555311
 20
192.2559815927
 30
0.0
  0
SEQEND
  5
5BD
  8
0
  6
CONTINUOUS
 62
     7
  0
LINE
  5
199
  8
0
  6
CONTINUOUS
 62
     7
 10
94.8346484472
 20
192.0901111796
 30
0.0
 11
94.8420375606
 21
191.5553271308
 31
0.0
  0
POLYLINE
  5
19A
  8
0
  6
CONTINUOUS
 62
     7
 66
     1
 10
0.0
 20
0.0
 30
0.0
 70
   128
  0
VERTEX
  5
497
  8
0
  6
CONTINUOUS
 62
     7
 10
127.7873734032
 20
112.9151334523
 30
0.0
  0
VERTEX
  5
498
  8
0
  6
CONTINUOUS
 62
     7
 10
127.8521804159
 20
112.9205872773
 30
0.0
  0
VERTEX
  5
499
  8
0
  6
CONTINUOUS
 62
     7
 10
129.2558651437
 20
113.1304105281
 30
0.0
  0
VERTEX
  5
49A
  8
0
  6
CONTINUOUS
 62
     7
 10
130.2015710642
 20
113.4234865664
 30
0.0
  0
VERTEX
  5
49B
  8
0
  6
CONTINUOUS
 62
     7
 10
131.0454908778
 20
113.8548230289
 30
0.0
  0
VERTEX
  5
49C
  8
0
  6
CONTINUOUS
 62
     7
 10
131.7360758801
 20
114.3887539863
 30
0.0
  0
VERTEX
  5
49D
  8
0
  6
CONTINUOUS
 62
     7
 10
132.3378499617
 20
115.0964026808
 30
0.0
  0
VERTEX
  5
49E
  8
0
  6
CONTINUOUS
 62
     7
 10
132.7698783969
 20
115.8602213024
 30
0.0
  0
VERTEX
  5
49F
  8
0
  6
CONTINUOUS
 62
     7
 10
133.1147685667
 20
116.7345469355
 30
0.0
  0
VERTEX
  5
4A0
  8
0
  6
CONTINUOUS
 62
     7
 10
133.4176737835
 20
117.8346102594
 30
0.0
  0
VERTEX
  5
4A1
  8
0
  6
CONTINUOUS
 62
     7
 10
133.7138269117
 20
119.2315196156
 30
0.0
  0
VERTEX
  5
4A2
  8
0
  6
CONTINUOUS
 62
     7
 10
134.1501943787
 20
121.7496072411
 30
0.0
  0
VERTEX
  5
4A3
  8
0
  6
CONTINUOUS
 62
     7
 10
134.3144461533
 20
122.7946331262
 30
0.0
  0
SEQEND
  5
5BE
  8
0
  6
CONTINUOUS
 62
     7
  0
POLYLINE
  5
19B
  8
0
  6
CONTINUOUS
 62
     7
 66
     1
 10
0.0
 20
0.0
 30
0.0
 70
   128
  0
VERTEX
  5
4A4
  8
0
  6
CONTINUOUS
 62
     7
 10
100.4942566176
 20
122.7952962278
 30
0.0
  0
VERTEX
  5
4A5
  8
0
  6
CONTINUOUS
 62
     7
 10
100.8949060013
 20
120.2867825984
 30
0.0
  0
VERTEX
  5
4A6
  8
0
  6
CONTINUOUS
 62
     7
 10
101.3272929957
 20
118.0875723719
 30
0.0
  0
VERTEX
  5
4A7
  8
0
  6
CONTINUOUS
 62
     7
 10
101.7333328744
 20
116.6005184411
 30
0.0
  0
VERTEX
  5
4A8
  8
0
  6
CONTINUOUS
 62
     7
 10
102.113183031
 20
115.6957422852
 30
0.0
  0
VERTEX
  5
4A9
  8
0
  6
CONTINUOUS
 62
     7
 10
102.584326083
 20
114.9304782509
 30
0.0
  0
VERTEX
  5
4AA
  8
0
  6
CONTINUOUS
 62
     7
 10
103.1694648807
 20
114.2943998336
 30
0.0
  0
VERTEX
  5
4AB
  8
0
  6
CONTINUOUS
 62
     7
 10
103.9041098227
 20
113.7653341054
 30
0.0
  0
VERTEX
  5
4AC
  8
0
  6
CONTINUOUS
 62
     7
 10
104.7257440185
 20
113.3749758362
 30
0.0
  0
VERTEX
  5
4AD
  8
0
  6
CONTINUOUS
 62
     7
 10
105.6606130694
 20
113.1052350163
 30
0.0
  0
VERTEX
  5
4AE
  8
0
  6
CONTINUOUS
 62
     7
 10
106.695901977
 20
112.9455094694
 30
0.0
  0
VERTEX
  5
4AF
  8
0
  6
CONTINUOUS
 62
     7
 10
107.0156501626
 20
112.9174058794
 30
0.0
  0
SEQEND
  5
5BF
  8
0
  6
CONTINUOUS
 62
     7
  0
ARC
  5
19C
  8
0
  6
CONTINUOUS
 62
     7
 10
117.8783877084
 20
226.115940662
 30
0.0
 40
113.6281381165906
 50
269.7594735017
 51
275.0025884299
  0
ARC
  5
19D
  8
0
  6
CONTINUOUS
 62
     7
 10
116.9443503574
 20
226.3142754387
 30
0.0
 40
113.8266350680349
 50
264.9961523838
 51
270.2300533302
  0
POLYLINE
  5
19E
  8
0
  6
CONTINUOUS
 62
     7
 66
     1
 10
0.0
 20
0.0
 30
0.0
 70
   128
  0
VERTEX
  5
4B0
  8
0
  6
CONTINUOUS
 62
     7
 10
141.2488169988
 20
187.1765808671
 30
0.0
  0
VERTEX
  5
4B1
  8
0
  6
CONTINUOUS
 62
     7
 10
141.2401575615
 20
187.5053479805
 30
0.0
  0
VERTEX
  5
4B2
  8
0
  6
CONTINUOUS
 62
     7
 10
141.1189124008
 20
190.89248064
 30
0.0
  0
VERTEX
  5
4B3
  8
0
  6
CONTINUOUS
 62
     7
 10
141.0353448262
 20
192.8267463579
 30
0.0
  0
VERTEX
  5
4B4
  8
0
  6
CONTINUOUS
 62
     7
 10
140.9265570363
 20
195.0478924907
 30
0.0
  0
VERTEX
  5
4B5
  8
0
  6
CONTINUOUS
 62
     7
 10
140.8622175475
 20
196.2579799353
 30
0.0
  0
VERTEX
  5
4B6
  8
0
  6
CONTINUOUS
 62
     7
 10
140.805125611
 20
197.2847670319
 30
0.0
  0
VERTEX
  5
4B7
  8
0
  6
CONTINUOUS
 62
     7
 10
140.763495492
 20
198.0151248633
 30
0.0
  0
VERTEX
  5
4B8
  8
0
  6
CONTINUOUS
 62
     7
 10
140.7388322075
 20
198.4476573768
 30
0.0
  0
VERTEX
  5
4B9
  8
0
  6
CONTINUOUS
 62
     7
 10
140.7310724278
 20
198.5829815737
 30
0.0
  0
VERTEX
  5
4BA
  8
0
  6
CONTINUOUS
 62
     7
 10
140.731260555
 20
198.5789016823
 30
0.0
  0
SEQEND
  5
5C0
  8
0
  6
CONTINUOUS
 62
     7
  0
POLYLINE
  5
19F
  8
0
  6
CONTINUOUS
 62
     7
 66
     1
 10
0.0
 20
0.0
 30
0.0
 70
   128
  0
VERTEX
  5
4BB
  8
0
  6
CONTINUOUS
 62
     7
 10
94.0716531148
 20
198.5815056602
 30
0.0
  0
VERTEX
  5
4BC
  8
0
  6
CONTINUOUS
 62
     7
 10
94.0716922303
 20
198.5829815737
 30
0.0
  0
VERTEX
  5
4BD
  8
0
  6
CONTINUOUS
 62
     7
 10
94.0639324506
 20
198.4476573768
 30
0.0
  0
VERTEX
  5
4BE
  8
0
  6
CONTINUOUS
 62
     7
 10
94.0392691662
 20
198.0151248633
 30
0.0
  0
VERTEX
  5
4BF
  8
0
  6
CONTINUOUS
 62
     7
 10
93.9976390471
 20
197.2847670319
 30
0.0
  0
VERTEX
  5
4C0
  8
0
  6
CONTINUOUS
 62
     7
 10
93.907738479
 20
195.6483678429
 30
0.0
  0
VERTEX
  5
4C1
  8
0
  6
CONTINUOUS
 62
     7
 10
93.8184116056
 20
193.9012271821
 30
0.0
  0
VERTEX
  5
4C2
  8
0
  6
CONTINUOUS
 62
     7
 10
93.7443360706
 20
192.3164449169
 30
0.0
  0
VERTEX
  5
4C3
  8
0
  6
CONTINUOUS
 62
     7
 10
93.6838522573
 20
190.89248064
 30
0.0
  0
VERTEX
  5
4C4
  8
0
  6
CONTINUOUS
 62
     7
 10
93.5626070966
 20
187.5053479805
 30
0.0
  0
VERTEX
  5
4C5
  8
0
  6
CONTINUOUS
 62
     7
 10
93.5539476593
 20
187.1765808671
 30
0.0
  0
SEQEND
  5
5C1
  8
0
  6
CONTINUOUS
 62
     7
  0
POLYLINE
  5
1A0
  8
0
  6
CONTINUOUS
 62
     7
 66
     1
 10
0.0
 20
0.0
 30
0.0
 70
   128
  0
VERTEX
  5
4C6
  8
0
  6
CONTINUOUS
 62
     7
 10
140.7928843071
 20
146.5299924373
 30
0.0
  0
VERTEX
  5
4C7
  8
0
  6
CONTINUOUS
 62
     7
 10
140.8430658301
 20
147.6733697115
 30
0.0
  0
VERTEX
  5
4C8
  8
0
  6
CONTINUOUS
 62
     7
 10
140.9217644503
 20
149.5951538443
 30
0.0
  0
VERTEX
  5
4C9
  8
0
  6
CONTINUOUS
 62
     7
 10
140.9830082228
 20
151.1936274826
 30
0.0
  0
VERTEX
  5
4CA
  8
0
  6
CONTINUOUS
 62
     7
 10
141.0408880582
 20
152.8058995961
 30
0.0
  0
VERTEX
  5
4CB
  8
0
  6
CONTINUOUS
 62
     7
 10
141.0975050201
 20
154.5000833928
 30
0.0
  0
VERTEX
  5
4CC
  8
0
  6
CONTINUOUS
 62
     7
 10
141.2023477276
 20
158.0552806615
 30
0.0
  0
VERTEX
  5
4CD
  8
0
  6
CONTINUOUS
 62
     7
 10
141.2925016155
 20
161.8072552144
 30
0.0
  0
VERTEX
  5
4CE
  8
0
  6
CONTINUOUS
 62
     7
 10
141.3481220623
 20
164.7272718607
 30
0.0
  0
VERTEX
  5
4CF
  8
0
  6
CONTINUOUS
 62
     7
 10
141.3876902332
 20
167.3955967187
 30
0.0
  0
VERTEX
  5
4D0
  8
0
  6
CONTINUOUS
 62
     7
 10
141.4128694703
 20
169.7376625149
 30
0.0
  0
VERTEX
  5
4D1
  8
0
  6
CONTINUOUS
 62
     7
 10
141.427263992
 20
171.8455230354
 30
0.0
  0
VERTEX
  5
4D2
  8
0
  6
CONTINUOUS
 62
     7
 10
141.4333958199
 20
174.1585539191
 30
0.0
  0
VERTEX
  5
4D3
  8
0
  6
CONTINUOUS
 62
     7
 10
141.4279587587
 20
176.732243365
 30
0.0
  0
SEQEND
  5
5C2
  8
0
  6
CONTINUOUS
 62
     7
  0
POLYLINE
  5
1A1
  8
0
  6
CONTINUOUS
 62
     7
 66
     1
 10
0.0
 20
0.0
 30
0.0
 70
   128
  0
VERTEX
  5
4D4
  8
0
  6
CONTINUOUS
 62
     7
 10
93.3748058995
 20
176.732243365
 30
0.0
  0
VERTEX
  5
4D5
  8
0
  6
CONTINUOUS
 62
     7
 10
93.3693688383
 20
174.1585539191
 30
0.0
  0
VERTEX
  5
4D6
  8
0
  6
CONTINUOUS
 62
     7
 10
93.3755006661
 20
171.8455230354
 30
0.0
  0
VERTEX
  5
4D7
  8
0
  6
CONTINUOUS
 62
     7
 10
93.3898951878
 20
169.7376625149
 30
0.0
  0
VERTEX
  5
4D8
  8
0
  6
CONTINUOUS
 62
     7
 10
93.415074425
 20
167.3955967187
 30
0.0
  0
VERTEX
  5
4D9
  8
0
  6
CONTINUOUS
 62
     7
 10
93.4546425959
 20
164.7272718607
 30
0.0
  0
VERTEX
  5
4DA
  8
0
  6
CONTINUOUS
 62
     7
 10
93.5102630427
 20
161.8072552144
 30
0.0
  0
VERTEX
  5
4DB
  8
0
  6
CONTINUOUS
 62
     7
 10
93.6278238913
 20
157.0614179133
 30
0.0
  0
VERTEX
  5
4DC
  8
0
  6
CONTINUOUS
 62
     7
 10
93.765976282
 20
152.6880239605
 30
0.0
  0
VERTEX
  5
4DD
  8
0
  6
CONTINUOUS
 62
     7
 10
93.8228819539
 20
151.109566307
 30
0.0
  0
VERTEX
  5
4DE
  8
0
  6
CONTINUOUS
 62
     7
 10
93.8834663501
 20
149.5328707158
 30
0.0
  0
VERTEX
  5
4DF
  8
0
  6
CONTINUOUS
 62
     7
 10
93.961295115
 20
147.635699576
 30
0.0
  0
VERTEX
  5
4E0
  8
0
  6
CONTINUOUS
 62
     7
 10
94.0099418183
 20
146.52791
 30
0.0
  0
SEQEND
  5
5C3
  8
0
  6
CONTINUOUS
 62
     7
  0
POLYLINE
  5
1A2
  8
0
  6
CONTINUOUS
 62
     7
 66
     1
 10
0.0
 20
0.0
 30
0.0
 70
   128
  0
VERTEX
  5
4E1
  8
0
  6
CONTINUOUS
 62
     7
 10
98.9097584059
 20
90.8692156433
 30
0.0
  0
VERTEX
  5
4E2
  8
0
  6
CONTINUOUS
 62
     7
 10
99.1620928069
 20
89.1894524454
 30
0.0
  0
VERTEX
  5
4E3
  8
0
  6
CONTINUOUS
 62
     7
 10
99.4526859393
 20
87.990162289
 30
0.0
  0
VERTEX
  5
4E4
  8
0
  6
CONTINUOUS
 62
     7
 10
99.821478503
 20
87.0612089991
 30
0.0
  0
VERTEX
  5
4E5
  8
0
  6
CONTINUOUS
 62
     7
 10
100.3129709532
 20
86.2535064577
 30
0.0
  0
VERTEX
  5
4E6
  8
0
  6
CONTINUOUS
 62
     7
 10
100.9229779263
 20
85.5799590706
 30
0.0
  0
VERTEX
  5
4E7
  8
0
  6
CONTINUOUS
 62
     7
 10
101.6703791936
 20
85.0233336448
 30
0.0
  0
VERTEX
  5
4E8
  8
0
  6
CONTINUOUS
 62
     7
 10
102.5262888541
 20
84.6013476609
 30
0.0
  0
VERTEX
  5
4E9
  8
0
  6
CONTINUOUS
 62
     7
 10
103.456489185
 20
84.3141054272
 30
0.0
  0
VERTEX
  5
4EA
  8
0
  6
CONTINUOUS
 62
     7
 10
104.4929347952
 20
84.1236238836
 30
0.0
  0
VERTEX
  5
4EB
  8
0
  6
CONTINUOUS
 62
     7
 10
105.839491265
 20
83.9726825713
 30
0.0
  0
VERTEX
  5
4EC
  8
0
  6
CONTINUOUS
 62
     7
 10
105.9733344262
 20
83.9614321946
 30
0.0
  0
SEQEND
  5
5C4
  8
0
  6
CONTINUOUS
 62
     7
  0
POLYLINE
  5
1A3
  8
0
  6
CONTINUOUS
 62
     7
 66
     1
 10
0.0
 20
0.0
 30
0.0
 70
   128
  0
VERTEX
  5
4ED
  8
0
  6
CONTINUOUS
 62
     7
 10
128.829427438
 20
83.9658354877
 30
0.0
  0
VERTEX
  5
4EE
  8
0
  6
CONTINUOUS
 62
     7
 10
130.430435205
 20
84.1415350794
 30
0.0
  0
VERTEX
  5
4EF
  8
0
  6
CONTINUOUS
 62
     7
 10
131.5170725828
 20
84.3565886377
 30
0.0
  0
VERTEX
  5
4F0
  8
0
  6
CONTINUOUS
 62
     7
 10
132.4645862003
 20
84.6786921381
 30
0.0
  0
VERTEX
  5
4F1
  8
0
  6
CONTINUOUS
 62
     7
 10
133.3056114634
 20
85.1338183044
 30
0.0
  0
VERTEX
  5
4F2
  8
0
  6
CONTINUOUS
 62
     7
 10
134.0175069889
 20
85.7096960305
 30
0.0
  0
VERTEX
  5
4F3
  8
0
  6
CONTINUOUS
 62
     7
 10
134.6410032382
 20
86.469111359
 30
0.0
  0
VERTEX
  5
4F4
  8
0
  6
CONTINUOUS
 62
     7
 10
135.0796319564
 20
87.2703095435
 30
0.0
  0
VERTEX
  5
4F5
  8
0
  6
CONTINUOUS
 62
     7
 10
135.4080516865
 20
88.1824096202
 30
0.0
  0
VERTEX
  5
4F6
  8
0
  6
CONTINUOUS
 62
     7
 10
135.6462989022
 20
89.2202158927
 30
0.0
  0
VERTEX
  5
4F7
  8
0
  6
CONTINUOUS
 62
     7
 10
135.8400009592
 20
90.4899885415
 30
0.0
  0
VERTEX
  5
4F8
  8
0
  6
CONTINUOUS
 62
     7
 10
135.895626994
 20
90.8708622216
 30
0.0
  0
SEQEND
  5
5C5
  8
0
  6
CONTINUOUS
 62
     7
  0
ARC
  5
1A4
  8
0
  6
CONTINUOUS
 62
     7
 10
394.2721529793
 20
141.1296592289
 30
0.0
 40
299.3182157729256
 50
184.5736294843
 51
185.8563851959
  0
ARC
  5
1A5
  8
0
  6
CONTINUOUS
 62
     7
 10
-155.2605232541
 20
140.7364756936
 30
0.0
 40
295.0915033503759
 50
354.1153813634
 51
355.4405151487
  0
ARC
  5
1A6
  8
0
  6
CONTINUOUS
 62
     7
 10
116.836514135
 20
192.5184048006
 30
0.0
 40
109.074119648123
 50
264.2853432404
 51
270.2967109733
  0
ARC
  5
1A7
  8
0
  6
CONTINUOUS
 62
     7
 10
117.8357184662
 20
193.4909175673
 30
0.0
 40
110.0501843551819
 50
269.773873499
 51
275.7318361393
  0
LINE
  5
1A8
  8
0
  6
CONTINUOUS
 62
     7
 10
115.4013822341
 20
243.9720456957
 30
0.0
 11
115.4013822341
 21
230.9720454275
 31
0.0
  0
LINE
  5
1A9
  8
0
  6
CONTINUOUS
 62
     7
 10
119.4013824241
 20
230.9720454275
 30
0.0
 11
119.4013824241
 21
243.9720456957
 31
0.0
  0
LINE
  5
1AA
  8
0
  6
CONTINUOUS
 62
     7
 10
119.4013824241
 20
227.2132759451
 30
0.0
 11
119.4013824241
 21
230.9720454275
 31
0.0
  0
LINE
  5
1AB
  8
0
  6
CONTINUOUS
 62
     7
 10
115.4013822341
 20
230.9720454275
 30
0.0
 11
115.4013822341
 21
227.2132759451
 31
0.0
  0
LINE
  5
1AC
  8
0
  6
CONTINUOUS
 62
     7
 10
115.4013822341
 20
227.2132759451
 30
0.0
 11
115.4013822341
 21
224.4504404723
 31
0.0
  0
LINE
  5
1AD
  8
0
  6
CONTINUOUS
 62
     7
 10
119.4013824241
 20
224.4514164983
 30
0.0
 11
119.4013824241
 21
227.2132759451
 31
0.0
  0
POLYLINE
  5
1AE
  8
0
  6
CONTINUOUS
 62
     7
 66
     1
 10
0.0
 20
0.0
 30
0.0
 70
   128
  0
VERTEX
  5
4F9
  8
0
  6
CONTINUOUS
 62
     7
 10
140.0292500874
 20
200.7725385399
 30
0.0
  0
VERTEX
  5
4FA
  8
0
  6
CONTINUOUS
 62
     7
 10
139.9698186686
 20
192.1705876945
 30
0.0
  0
VERTEX
  5
4FB
  8
0
  6
CONTINUOUS
 62
     7
 10
139.7878531387
 20
183.5682479202
 30
0.0
  0
VERTEX
  5
4FC
  8
0
  6
CONTINUOUS
 62
     7
 10
139.3473748138
 20
171.7977256983
 30
0.0
  0
VERTEX
  5
4FD
  8
0
  6
CONTINUOUS
 62
     7
 10
138.5943688472
 20
160.0354698955
 30
0.0
  0
SEQEND
  5
5C6
  8
0
  6
CONTINUOUS
 62
     7
  0
POLYLINE
  5
1AF
  8
0
  6
CONTINUOUS
 62
     7
 66
     1
 10
0.0
 20
0.0
 30
0.0
 70
   128
  0
VERTEX
  5
4FE
  8
0
  6
CONTINUOUS
 62
     7
 10
94.7735145708
 20
200.7725385399
 30
0.0
  0
VERTEX
  5
4FF
  8
0
  6
CONTINUOUS
 62
     7
 10
94.8329459896
 20
192.1705876945
 30
0.0
  0
VERTEX
  5
500
  8
0
  6
CONTINUOUS
 62
     7
 10
95.0149115195
 20
183.5682479202
 30
0.0
  0
VERTEX
  5
501
  8
0
  6
CONTINUOUS
 62
     7
 10
95.4553898444
 20
171.7977256983
 30
0.0
  0
VERTEX
  5
502
  8
0
  6
CONTINUOUS
 62
     7
 10
96.2083958109
 20
160.0354698955
 30
0.0
  0
SEQEND
  5
5C7
  8
0
  6
CONTINUOUS
 62
     7
  0
ARC
  5
1B0
  8
0
  6
CONTINUOUS
 62
     7
 10
554.0421209841
 20
193.8140245423
 30
0.0
 40
459.0781059482867
 50
184.2195917623
 51
188.8992020088
  0
ARC
  5
1B1
  8
0
  6
CONTINUOUS
 62
     7
 10
-319.2393563259
 20
193.8140245423
 30
0.0
 40
459.0781059482867
 50
351.1007979912
 51
355.7804082377
  0
ARC
  5
1B2
  8
0
  6
CONTINUOUS
 62
     7
 10
115.1323484985
 20
200.8996636924
 30
0.0
 40
20.72612443734639
 50
161.9264939741
 51
191.192622004
  0
ARC
  5
1B3
  8
0
  6
CONTINUOUS
 62
     7
 10
117.4013823291
 20
200.6761055803
 30
0.0
 40
22.95781839795534
 50
16.8470005435
 51
163.1529994565
  0
ARC
  5
1B4
  8
0
  6
CONTINUOUS
 62
     7
 10
119.214221777
 20
200.9701680336
 30
0.0
 40
21.13896562482522
 50
349.5742220793
 51
17.5082251242
  0
POLYLINE
  5
1B5
  8
0
  6
CONTINUOUS
 62
     7
 66
     1
 10
0.0
 20
0.0
 30
0.0
 70
   128
  0
VERTEX
  5
503
  8
0
  6
CONTINUOUS
 62
     7
 10
141.2113349905
 20
187.1982974469
 30
0.0
  0
VERTEX
  5
504
  8
0
  6
CONTINUOUS
 62
     7
 10
141.4171107133
 20
178.4170580565
 30
0.0
  0
VERTEX
  5
505
  8
0
  6
CONTINUOUS
 62
     7
 10
141.4094887694
 20
176.5096162914
 30
0.0
  0
SEQEND
  5
5C8
  8
0
  6
CONTINUOUS
 62
     7
  0
LINE
  5
1B6
  8
0
  6
CONTINUOUS
 62
     7
 10
140.8779680749
 20
149.2694815158
 30
0.0
 11
140.5890028944
 21
142.3315418421
 31
0.0
  0
POLYLINE
  5
1B7
  8
0
  6
CONTINUOUS
 62
     7
 66
     1
 10
0.0
 20
0.0
 30
0.0
 70
   128
  0
VERTEX
  5
506
  8
0
  6
CONTINUOUS
 62
     7
 10
93.5914296677
 20
187.1982974469
 30
0.0
  0
VERTEX
  5
507
  8
0
  6
CONTINUOUS
 62
     7
 10
93.3856539448
 20
178.4170580565
 30
0.0
  0
VERTEX
  5
508
  8
0
  6
CONTINUOUS
 62
     7
 10
93.3932758888
 20
176.5096162914
 30
0.0
  0
SEQEND
  5
5C9
  8
0
  6
CONTINUOUS
 62
     7
  0
ARC
  5
1B8
  8
0
  6
CONTINUOUS
 62
     7
 10
117.4013945493
 20
200.847297901
 30
0.0
 40
23.00967402442035
 50
90.0000304292
 51
175.5230399669
  0
ARC
  5
1B9
  8
0
  6
CONTINUOUS
 62
     7
 10
117.4013704709
 20
200.8472982924
 30
0.0
 40
23.00967363298932
 50
4.4769591318
 51
89.9999704722
  0
POLYLINE
  5
1BA
  8
0
  6
CONTINUOUS
 62
     7
 66
     1
 10
0.0
 20
0.0
 30
0.0
 70
   128
  0
VERTEX
  5
509
  8
0
  6
CONTINUOUS
 62
     7
 10
95.9051162024
 20
117.2870521902
 30
0.0
  0
VERTEX
  5
50A
  8
0
  6
CONTINUOUS
 62
     7
 10
95.0578473528
 20
128.1875123738
 30
0.0
  0
VERTEX
  5
50B
  8
0
  6
CONTINUOUS
 62
     7
 10
94.2294582745
 20
141.8745120524
 30
0.0
  0
SEQEND
  5
5CA
  8
0
  6
CONTINUOUS
 62
     7
  0
POLYLINE
  5
1BB
  8
0
  6
CONTINUOUS
 62
     7
 66
     1
 10
0.0
 20
0.0
 30
0.0
 70
   128
  0
VERTEX
  5
50C
  8
0
  6
CONTINUOUS
 62
     7
 10
140.5733063837
 20
141.8745120524
 30
0.0
  0
VERTEX
  5
50D
  8
0
  6
CONTINUOUS
 62
     7
 10
139.7452209165
 20
128.1918337106
 30
0.0
  0
VERTEX
  5
50E
  8
0
  6
CONTINUOUS
 62
     7
 10
138.8976484557
 20
117.2870521902
 30
0.0
  0
SEQEND
  5
5CB
  8
0
  6
CONTINUOUS
 62
     7
  0
ARC
  5
1BC
  8
0
  6
CONTINUOUS
 62
     7
 10
528.6620827409
 20
153.1420572028
 30
0.0
 40
434.2397649594751
 50
184.7362819916
 51
188.2446732199
  0
ARC
  5
1BD
  8
0
  6
CONTINUOUS
 62
     7
 10
-294.4121894411
 20
153.2049558607
 30
0.0
 40
434.7959422789654
 50
351.7575713921
 51
355.2614733964
  0
ARC
  5
1BE
  8
0
  6
CONTINUOUS
 62
     7
 10
117.4013823291
 20
200.8473028897
 30
0.0
 40
24.0
 50
94.7801918472
 51
191.2479992568
  0
POLYLINE
  5
1BF
  8
0
  6
CONTINUOUS
 62
     7
 66
     1
 10
0.0
 20
0.0
 30
0.0
 70
   128
  0
VERTEX
  5
50F
  8
0
  6
CONTINUOUS
 62
     7
 10
115.409961112
 20
224.4499915748
 30
0.0
  0
VERTEX
  5
510
  8
0
  6
CONTINUOUS
 62
     7
 10
115.4041410444
 20
224.4463799058
 30
0.0
  0
VERTEX
  5
511
  8
0
  6
CONTINUOUS
 62
     7
 10
115.4747443759
 20
224.4391267656
 30
0.0
  0
VERTEX
  5
512
  8
0
  6
CONTINUOUS
 62
     7
 10
115.6472051769
 20
224.4394843935
 30
0.0
  0
VERTEX
  5
513
  8
0
  6
CONTINUOUS
 62
     7
 10
115.937243241
 20
224.4466593026
 30
0.0
  0
VERTEX
  5
514
  8
0
  6
CONTINUOUS
 62
     7
 10
116.1478956017
 20
224.4525750636
 30
0.0
  0
VERTEX
  5
515
  8
0
  6
CONTINUOUS
 62
     7
 10
116.4261275224
 20
224.4597183078
 30
0.0
  0
VERTEX
  5
516
  8
0
  6
CONTINUOUS
 62
     7
 10
116.668375176
 20
224.4647996037
 30
0.0
  0
VERTEX
  5
517
  8
0
  6
CONTINUOUS
 62
     7
 10
116.9827555093
 20
224.4694096505
 30
0.0
  0
VERTEX
  5
518
  8
0
  6
CONTINUOUS
 62
     7
 10
117.2119407236
 20
224.4712201416
 30
0.0
  0
VERTEX
  5
519
  8
0
  6
CONTINUOUS
 62
     7
 10
117.4013823291
 20
224.4716895281
 30
0.0
  0
SEQEND
  5
5CC
  8
0
  6
CONTINUOUS
 62
     7
  0
ARC
  5
1C0
  8
0
  6
CONTINUOUS
 62
     7
 10
117.4013823291
 20
200.8473028897
 30
0.0
 40
24.00000000000003
 50
348.756420234
 51
85.2198081528
  0
ARC
  5
1C1
  8
0
  6
CONTINUOUS
 62
     7
 10
118.1515603475
 20
200.7544684589
 30
0.0
 40
23.72908220528348
 50
87.0842893869
 51
91.8116670934
  0
LINE
  5
1C2
  8
0
  6
CONTINUOUS
 62
     7
 10
115.4013822341
 20
243.9720456957
 30
0.0
 11
119.4013824241
 21
243.9720456957
 31
0.0
  0
ARC
  5
1C3
  8
0
  6
CONTINUOUS
 62
     8
 10
106.3271269806
 20
199.6969810355
 30
0.0
 40
11.61886799433844
 50
175.3202878054
 51
186.540616769
  0
ARC
  5
1C4
  8
0
  6
CONTINUOUS
 62
     8
 10
128.4423473499
 20
199.6997285446
 30
0.0
 40
11.65182446275123
 50
353.2043223376
 51
4.6528913392
  0
LINE
  5
1C5
  8
0
  6
CONTINUOUS
 62
     8
 10
140.0557722916
 20
200.6449134121
 30
0.0
 11
140.0291234275
 21
200.7850751385
 31
0.0
  0
LINE
  5
1C6
  8
0
  6
CONTINUOUS
 62
     8
 10
94.7469923665
 20
200.6449134121
 30
0.0
 11
94.7736412307
 21
200.7850751385
 31
0.0
  0
POLYLINE
  5
1C7
  8
0
  6
CONTINUOUS
 62
     8
 66
     1
 10
0.0
 20
0.0
 30
0.0
 70
   128
  0
VERTEX
  5
51A
  8
0
  6
CONTINUOUS
 62
     8
 10
137.7688892206
 20
160.0981702565
 30
0.0
  0
VERTEX
  5
51B
  8
0
  6
CONTINUOUS
 62
     8
 10
138.5198760798
 20
171.8372044622
 30
0.0
  0
VERTEX
  5
51C
  8
0
  6
CONTINUOUS
 62
     8
 10
138.9585215618
 20
183.5996130018
 30
0.0
  0
VERTEX
  5
51D
  8
0
  6
CONTINUOUS
 62
     8
 10
139.1393099
 20
192.1909110158
 30
0.0
  0
VERTEX
  5
51E
  8
0
  6
CONTINUOUS
 62
     8
 10
139.1983985921
 20
200.7853952443
 30
0.0
  0
SEQEND
  5
5CD
  8
0
  6
CONTINUOUS
 62
     8
  0
ARC
  5
1C8
  8
0
  6
CONTINUOUS
 62
     8
 10
-299.0241267027
 20
191.9755682058
 30
0.0
 40
437.9546873935735
 50
350.9254619109
 51
355.8257628667
  0
POLYLINE
  5
1C9
  8
0
  6
CONTINUOUS
 62
     8
 66
     1
 10
0.0
 20
0.0
 30
0.0
 70
   128
  0
VERTEX
  5
51F
  8
0
  6
CONTINUOUS
 62
     8
 10
132.9600079005
 20
120.0463598131
 30
0.0
  0
VERTEX
  5
520
  8
0
  6
CONTINUOUS
 62
     8
 10
132.9600190764
 20
120.0464194178
 30
0.0
  0
VERTEX
  5
521
  8
0
  6
CONTINUOUS
 62
     8
 10
133.4491170963
 20
122.9016830682
 30
0.0
  0
SEQEND
  5
5CE
  8
0
  6
CONTINUOUS
 62
     8
  0
POLYLINE
  5
1CA
  8
0
  6
CONTINUOUS
 62
     8
 66
     1
 10
0.0
 20
0.0
 30
0.0
 70
   128
  0
VERTEX
  5
522
  8
0
  6
CONTINUOUS
 62
     8
 10
132.3672713732
 20
117.3807730435
 30
0.0
  0
VERTEX
  5
523
  8
0
  6
CONTINUOUS
 62
     8
 10
132.367288137
 20
117.3808251976
 30
0.0
  0
VERTEX
  5
524
  8
0
  6
CONTINUOUS
 62
     8
 10
132.5732724761
 20
118.1696628689
 30
0.0
  0
VERTEX
  5
525
  8
0
  6
CONTINUOUS
 62
     8
 10
132.959994862
 20
120.0463076591
 30
0.0
  0
VERTEX
  5
526
  8
0
  6
CONTINUOUS
 62
     8
 10
132.9600079005
 20
120.0463598131
 30
0.0
  0
SEQEND
  5
5CF
  8
0
  6
CONTINUOUS
 62
     8
  0
POLYLINE
  5
1CB
  8
0
  6
CONTINUOUS
 62
     8
 66
     1
 10
0.0
 20
0.0
 30
0.0
 70
   128
  0
VERTEX
  5
527
  8
0
  6
CONTINUOUS
 62
     8
 10
127.7315853184
 20
113.7797435283
 30
0.0
  0
VERTEX
  5
528
  8
0
  6
CONTINUOUS
 62
     8
 10
128.8009922971
 20
113.9301483988
 30
0.0
  0
VERTEX
  5
529
  8
0
  6
CONTINUOUS
 62
     8
 10
129.8338122686
 20
114.230280137
 30
0.0
  0
VERTEX
  5
52A
  8
0
  6
CONTINUOUS
 62
     8
 10
130.915947633
 20
114.8618286013
 30
0.0
  0
VERTEX
  5
52B
  8
0
  6
CONTINUOUS
 62
     8
 10
131.7315589657
 20
115.8273269891
 30
0.0
  0
VERTEX
  5
52C
  8
0
  6
CONTINUOUS
 62
     8
 10
132.3672536781
 20
117.3807134389
 30
0.0
  0
VERTEX
  5
52D
  8
0
  6
CONTINUOUS
 62
     8
 10
132.3672713732
 20
117.3807730435
 30
0.0
  0
SEQEND
  5
5D0
  8
0
  6
CONTINUOUS
 62
     8
  0
ARC
  5
1CC
  8
0
  6
CONTINUOUS
 62
     8
 10
117.5364531275
 20
221.7687695746
 30
0.0
 40
108.4691957558394
 50
269.9286526591
 51
275.3933549069
  0
ARC
  5
1CD
  8
0
  6
CONTINUOUS
 62
     8
 10
117.2663115306
 20
221.7687695746
 30
0.0
 40
108.4691957558406
 50
264.6066450931
 51
270.0713473409
  0
POLYLINE
  5
1CE
  8
0
  6
CONTINUOUS
 62
     8
 66
     1
 10
0.0
 20
0.0
 30
0.0
 70
   128
  0
VERTEX
  5
52E
  8
0
  6
CONTINUOUS
 62
     8
 10
107.0711793398
 20
113.7797435283
 30
0.0
  0
VERTEX
  5
52F
  8
0
  6
CONTINUOUS
 62
     8
 10
106.001772361
 20
113.9301483988
 30
0.0
  0
VERTEX
  5
530
  8
0
  6
CONTINUOUS
 62
     8
 10
104.9689523896
 20
114.230280137
 30
0.0
  0
VERTEX
  5
531
  8
0
  6
CONTINUOUS
 62
     8
 10
103.8868170252
 20
114.8618286013
 30
0.0
  0
VERTEX
  5
532
  8
0
  6
CONTINUOUS
 62
     8
 10
103.0712056925
 20
115.8273269891
 30
0.0
  0
VERTEX
  5
533
  8
0
  6
CONTINUOUS
 62
     8
 10
102.4355109801
 20
117.3807134389
 30
0.0
  0
VERTEX
  5
534
  8
0
  6
CONTINUOUS
 62
     8
 10
102.435493285
 20
117.3807730435
 30
0.0
  0
SEQEND
  5
5D1
  8
0
  6
CONTINUOUS
 62
     8
  0
POLYLINE
  5
1CF
  8
0
  6
CONTINUOUS
 62
     8
 66
     1
 10
0.0
 20
0.0
 30
0.0
 70
   128
  0
VERTEX
  5
535
  8
0
  6
CONTINUOUS
 62
     8
 10
102.435493285
 20
117.3807730435
 30
0.0
  0
VERTEX
  5
536
  8
0
  6
CONTINUOUS
 62
     8
 10
102.4354765212
 20
117.3808251976
 30
0.0
  0
VERTEX
  5
537
  8
0
  6
CONTINUOUS
 62
     8
 10
102.229492182
 20
118.1696628689
 30
0.0
  0
VERTEX
  5
538
  8
0
  6
CONTINUOUS
 62
     8
 10
101.8427697962
 20
120.0463076591
 30
0.0
  0
VERTEX
  5
539
  8
0
  6
CONTINUOUS
 62
     8
 10
101.8427567576
 20
120.0463598131
 30
0.0
  0
SEQEND
  5
5D2
  8
0
  6
CONTINUOUS
 62
     8
  0
POLYLINE
  5
1D0
  8
0
  6
CONTINUOUS
 62
     8
 66
     1
 10
0.0
 20
0.0
 30
0.0
 70
   128
  0
VERTEX
  5
53A
  8
0
  6
CONTINUOUS
 62
     8
 10
101.8427567576
 20
120.0463598131
 30
0.0
  0
VERTEX
  5
53B
  8
0
  6
CONTINUOUS
 62
     8
 10
101.8427455818
 20
120.0464194178
 30
0.0
  0
VERTEX
  5
53C
  8
0
  6
CONTINUOUS
 62
     8
 10
101.3536065837
 20
122.9019363879
 30
0.0
  0
SEQEND
  5
5D3
  8
0
  6
CONTINUOUS
 62
     8
  0
ARC
  5
1D1
  8
0
  6
CONTINUOUS
 62
     8
 10
533.8271867245
 20
191.9755964795
 30
0.0
 40
437.9549840317582
 50
184.1742380097
 51
189.0745020757
  0
POLYLINE
  5
1D2
  8
0
  6
CONTINUOUS
 62
     8
 66
     1
 10
0.0
 20
0.0
 30
0.0
 70
   128
  0
VERTEX
  5
53D
  8
0
  6
CONTINUOUS
 62
     8
 10
97.0338754376
 20
160.0981702565
 30
0.0
  0
VERTEX
  5
53E
  8
0
  6
CONTINUOUS
 62
     8
 10
96.2828885784
 20
171.8372044622
 30
0.0
  0
VERTEX
  5
53F
  8
0
  6
CONTINUOUS
 62
     8
 10
95.8442430963
 20
183.5996130018
 30
0.0
  0
VERTEX
  5
540
  8
0
  6
CONTINUOUS
 62
     8
 10
95.6634547581
 20
192.1909110158
 30
0.0
  0
VERTEX
  5
541
  8
0
  6
CONTINUOUS
 62
     8
 10
95.6043660661
 20
200.7853952443
 30
0.0
  0
SEQEND
  5
5D4
  8
0
  6
CONTINUOUS
 62
     8
  0
ARC
  5
1D3
  8
0
  6
CONTINUOUS
 62
     8
 10
117.3615409484
 20
200.8385367773
 30
0.0
 40
21.83676284479768
 50
359.8814256104
 51
89.8954632496
  0
ARC
  5
1D4
  8
0
  6
CONTINUOUS
 62
     8
 10
117.4412237097
 20
200.8385367773
 30
0.0
 40
21.83676284479767
 50
90.1045367504
 51
180.1185743896
  0
ARC
  5
1D5
  8
0
  6
CONTINUOUS
 62
     8
 10
117.4010450572
 20
200.77671255
 30
0.0
 40
22.62807991619785
 50
0.0211793384
 51
89.9991460056
  0
ARC
  5
1D6
  8
0
  6
CONTINUOUS
 62
     8
 10
117.4017196009
 20
200.77671255
 30
0.0
 40
22.62807991619785
 50
90.0008539944
 51
179.9788206616
  0
POLYLINE
  5
1D7
  8
0
  6
CONTINUOUS
 62
     8
 66
     1
 10
0.0
 20
0.0
 30
0.0
 70
   128
  0
VERTEX
  5
542
  8
0
  6
CONTINUOUS
 62
     8
 10
140.4526330551
 20
202.5765706555
 30
0.0
  0
VERTEX
  5
543
  8
0
  6
CONTINUOUS
 62
     8
 10
141.1338116994
 20
190.5064558147
 30
0.0
  0
VERTEX
  5
544
  8
0
  6
CONTINUOUS
 62
     8
 10
141.2113349905
 20
187.1982974469
 30
0.0
  0
SEQEND
  5
5D5
  8
0
  6
CONTINUOUS
 62
     8
  0
POLYLINE
  5
1D8
  8
0
  6
CONTINUOUS
 62
     8
 66
     1
 10
0.0
 20
0.0
 30
0.0
 70
   128
  0
VERTEX
  5
545
  8
0
  6
CONTINUOUS
 62
     8
 10
94.3501316031
 20
202.5765706555
 30
0.0
  0
VERTEX
  5
546
  8
0
  6
CONTINUOUS
 62
     8
 10
93.6689529588
 20
190.5064558147
 30
0.0
  0
VERTEX
  5
547
  8
0
  6
CONTINUOUS
 62
     8
 10
93.5914296677
 20
187.1982974469
 30
0.0
  0
SEQEND
  5
5D6
  8
0
  6
CONTINUOUS
 62
     8
  0
ARC
  5
1D9
  8
0
  6
CONTINUOUS
 62
     8
 10
-312.7914227297
 20
170.5621601812
 30
0.0
 40
453.3172672641974
 50
356.3745925158
 51
2.8251183812
  0
POLYLINE
  5
1DA
  8
0
  6
CONTINUOUS
 62
     8
 66
     1
 10
0.0
 20
0.0
 30
0.0
 70
   128
  0
VERTEX
  5
548
  8
0
  6
CONTINUOUS
 62
     8
 10
137.9089005311
 20
117.3340057491
 30
0.0
  0
VERTEX
  5
549
  8
0
  6
CONTINUOUS
 62
     8
 10
138.7734528651
 20
128.2295485496
 30
0.0
  0
VERTEX
  5
54A
  8
0
  6
CONTINUOUS
 62
     8
 10
139.2304789295
 20
135.0608443378
 30
0.0
  0
VERTEX
  5
54B
  8
0
  6
CONTINUOUS
 62
     8
 10
139.6185386946
 20
141.8975194453
 30
0.0
  0
SEQEND
  5
5D7
  8
0
  6
CONTINUOUS
 62
     8
  0
ARC
  5
1DB
  8
0
  6
CONTINUOUS
 62
     8
 10
-262.0369948628
 20
150.5855198811
 30
0.0
 40
401.3257809243436
 50
351.4574262955
 51
355.2473575122
  0
POLYLINE
  5
1DC
  8
0
  6
CONTINUOUS
 62
     8
 66
     1
 10
0.0
 20
0.0
 30
0.0
 70
   128
  0
VERTEX
  5
54C
  8
0
  6
CONTINUOUS
 62
     8
 10
128.7506105398
 20
84.9986349701
 30
0.0
  0
VERTEX
  5
54D
  8
0
  6
CONTINUOUS
 62
     8
 10
130.8221029138
 20
85.2685099005
 30
0.0
  0
VERTEX
  5
54E
  8
0
  6
CONTINUOUS
 62
     8
 10
132.395504417
 20
85.8213057279
 30
0.0
  0
VERTEX
  5
54F
  8
0
  6
CONTINUOUS
 62
     8
 10
133.4701519479
 20
86.6915111898
 30
0.0
  0
VERTEX
  5
550
  8
0
  6
CONTINUOUS
 62
     8
 10
134.1653674861
 20
87.8760044931
 30
0.0
  0
VERTEX
  5
551
  8
0
  6
CONTINUOUS
 62
     8
 10
134.5801692476
 20
89.3918921708
 30
0.0
  0
VERTEX
  5
552
  8
0
  6
CONTINUOUS
 62
     8
 10
134.8364077528
 20
90.970871365
 30
0.0
  0
SEQEND
  5
5D8
  8
0
  6
CONTINUOUS
 62
     8
  0
ARC
  5
1DD
  8
0
  6
CONTINUOUS
 62
     8
 10
117.5028384727
 20
189.5451987862
 30
0.0
 40
105.149081610766
 50
269.9447164954
 51
276.1406188521
  0
ARC
  5
1DE
  8
0
  6
CONTINUOUS
 62
     8
 10
117.2985573172
 20
189.5202101192
 30
0.0
 40
105.1240942854586
 50
263.8586438637
 51
270.0560427197
  0
POLYLINE
  5
1DF
  8
0
  6
CONTINUOUS
 62
     8
 66
     1
 10
0.0
 20
0.0
 30
0.0
 70
   128
  0
VERTEX
  5
553
  8
0
  6
CONTINUOUS
 62
     8
 10
99.9661259373
 20
90.9723540305
 30
0.0
  0
VERTEX
  5
554
  8
0
  6
CONTINUOUS
 62
     8
 10
100.2189334502
 20
89.411412692
 30
0.0
  0
VERTEX
  5
555
  8
0
  6
CONTINUOUS
 62
     8
 10
100.6373971721
 20
87.8760044931
 30
0.0
  0
VERTEX
  5
556
  8
0
  6
CONTINUOUS
 62
     8
 10
101.3326127102
 20
86.6915111898
 30
0.0
  0
VERTEX
  5
557
  8
0
  6
CONTINUOUS
 62
     8
 10
102.4072602411
 20
85.8213057279
 30
0.0
  0
VERTEX
  5
558
  8
0
  6
CONTINUOUS
 62
     8
 10
103.9806617444
 20
85.2685099005
 30
0.0
  0
VERTEX
  5
559
  8
0
  6
CONTINUOUS
 62
     8
 10
106.0521131401
 20
84.9986424207
 30
0.0
  0
SEQEND
  5
5D9
  8
0
  6
CONTINUOUS
 62
     8
  0
ARC
  5
1E0
  8
0
  6
CONTINUOUS
 62
     8
 10
496.8732248457
 20
150.5892788777
 30
0.0
 40
401.3594426343357
 50
184.7527814349
 51
188.5421815662
  0
POLYLINE
  5
1E1
  8
0
  6
CONTINUOUS
 62
     8
 66
     1
 10
0.0
 20
0.0
 30
0.0
 70
   128
  0
VERTEX
  5
55A
  8
0
  6
CONTINUOUS
 62
     8
 10
95.1841831227
 20
141.8983427345
 30
0.0
  0
VERTEX
  5
55B
  8
0
  6
CONTINUOUS
 62
     8
 10
95.5723490586
 20
135.0598161577
 30
0.0
  0
VERTEX
  5
55C
  8
0
  6
CONTINUOUS
 62
     8
 10
96.0296209922
 20
128.2252346634
 30
0.0
  0
VERTEX
  5
55D
  8
0
  6
CONTINUOUS
 62
     8
 10
96.893864127
 20
117.3340057491
 30
0.0
  0
SEQEND
  5
5DA
  8
0
  6
CONTINUOUS
 62
     8
  0
ARC
  5
1E2
  8
0
  6
CONTINUOUS
 62
     8
 10
547.5802426485
 20
170.5621475771
 30
0.0
 40
453.3033400947199
 50
177.1747931551
 51
183.6254126818
  0
ARC
  5
1E3
  8
0
  6
CONTINUOUS
 62
     8
 10
-337.4457945794
 20
170.5746933836
 30
0.0
 40
478.8800226758112
 50
356.5640953182
 51
3.6324784301
  0
ARC
  5
1E4
  8
0
  6
CONTINUOUS
 62
     8
 10
572.2560480462
 20
170.5746805371
 30
0.0
 40
478.8874972533667
 50
176.3675768023
 51
183.4358494494
  0
ARC
  5
1E5
  8
0
  6
CONTINUOUS
 62
     8
 10
117.3996583886
 20
200.8858433694
 30
0.0
 40
23.11489129823543
 50
4.1946174099
 51
89.9957268017
  0
ARC
  5
1E6
  8
0
  6
CONTINUOUS
 62
     8
 10
117.4031062696
 20
200.8858433694
 30
0.0
 40
23.11489129823543
 50
90.0042731983
 51
175.8053825901
  0
LINE
  5
1E7
  8
0
  6
CONTINUOUS
 62
     8
 10
140.3409153243
 20
202.6424204002
 30
0.0
 11
140.4721461256
 21
200.9147340929
 31
0.0
  0
LINE
  5
1E8
  8
0
  6
CONTINUOUS
 62
     8
 10
94.3306185325
 20
200.9147340929
 30
0.0
 11
94.4618493339
 21
202.6424204002
 31
0.0
  0
LINE
  5
1E9
  8
0
  6
CONTINUOUS
 62
     8
 10
115.4013822341
 20
230.9720454275
 30
0.0
 11
119.4013824241
 21
230.9720454275
 31
0.0
  0
ARC
  5
1EA
  8
0
  6
CONTINUOUS
 62
     8
 10
117.4013823291
 20
227.3074847882
 30
0.0
 40
2.002217691986171
 50
182.6968909583
 51
357.3031090417
  0
ENDSEC
  0
EOF
